  0
SECTION
  2
HEADER
  9
$ACADVER
  1
AC1015
  9
$ACADMAINTVER
 70
    20
  9
$DWGCODEPAGE
  3
ANSI_932
  9
$INSBASE
 10
0.0
 20
0.0
 30
0.0
  9
$EXTMIN
 10
-3298.830748701583
 20
-614.0058522467856
 30
0.0
  9
$EXTMAX
 10
-3035.667781701583
 20
-514.4313222467854
 30
0.0
  9
$LIMMIN
 10
0.0
 20
0.0
  9
$LIMMAX
 10
420.0
 20
297.0
  9
$ORTHOMODE
 70
     0
  9
$REGENMODE
 70
     1
  9
$FILLMODE
 70
     1
  9
$QTEXTMODE
 70
     0
  9
$MIRRTEXT
 70
     1
  9
$LTSCALE
 40
1.0
  9
$ATTMODE
 70
     1
  9
$TEXTSIZE
 40
5.0
  9
$TRACEWID
 40
0.05
  9
$TEXTSTYLE
  7
ACAD
  9
$CLAYER
  8
0
  9
$CELTYPE
  6
CONTINUOUS
  9
$CECOLOR
 62
   256
  9
$CELTSCALE
 40
1.0
  9
$DISPSILH
 70
     0
  9
$DIMSCALE
 40
1.0
  9
$DIMASZ
 40
1.0
  9
$DIMEXO
 40
0.0
  9
$DIMDLI
 40
0.38
  9
$DIMRND
 40
0.0
  9
$DIMDLE
 40
0.0
  9
$DIMEXE
 40
0.0
  9
$DIMTP
 40
0.0
  9
$DIMTM
 40
0.0
  9
$DIMTXT
 40
3.0
  9
$DIMCEN
 40
0.09
  9
$DIMTSZ
 40
0.0
  9
$DIMTOL
 70
     0
  9
$DIMLIM
 70
     0
  9
$DIMTIH
 70
     0
  9
$DIMTOH
 70
     1
  9
$DIMSE1
 70
     0
  9
$DIMSE2
 70
     0
  9
$DIMTAD
 70
     1
  9
$DIMZIN
 70
     0
  9
$DIMBLK
  1
Dot
  9
$DIMASO
 70
     1
  9
$DIMSHO
 70
     1
  9
$DIMPOST
  1

  9
$DIMAPOST
  1

  9
$DIMALT
 70
     0
  9
$DIMALTD
 70
     2
  9
$DIMALTF
 40
25.4
  9
$DIMLFAC
 40
1.0
  9
$DIMTOFL
 70
     0
  9
$DIMTVP
 40
0.0
  9
$DIMTIX
 70
     1
  9
$DIMSOXD
 70
     0
  9
$DIMSAH
 70
     0
  9
$DIMBLK1
  1

  9
$DIMBLK2
  1

  9
$DIMSTYLE
  2
AutoCAD
  9
$DIMCLRD
 70
     4
  9
$DIMCLRE
 70
     4
  9
$DIMCLRT
 70
     3
  9
$DIMTFAC
 40
1.0
  9
$DIMGAP
 40
1.0
  9
$DIMJUST
 70
     0
  9
$DIMSD1
 70
     0
  9
$DIMSD2
 70
     0
  9
$DIMTOLJ
 70
     1
  9
$DIMTZIN
 70
     0
  9
$DIMALTZ
 70
     0
  9
$DIMALTTZ
 70
     0
  9
$DIMUPT
 70
     0
  9
$DIMDEC
 70
     0
  9
$DIMTDEC
 70
     0
  9
$DIMALTU
 70
     2
  9
$DIMALTTD
 70
     2
  9
$DIMTXSTY
  7
ACAD
  9
$DIMAUNIT
 70
     0
  9
$DIMADEC
 70
     0
  9
$DIMALTRND
 40
0.0
  9
$DIMAZIN
 70
     0
  9
$DIMDSEP
 70
    46
  9
$DIMATFIT
 70
     0
  9
$DIMFRAC
 70
     0
  9
$DIMLDRBLK
  1
None
  9
$DIMLUNIT
 70
     2
  9
$DIMLWD
 70
    -2
  9
$DIMLWE
 70
    -2
  9
$DIMTMOVE
 70
     0
  9
$LUNITS
 70
     2
  9
$LUPREC
 70
     4
  9
$SKETCHINC
 40
0.1
  9
$FILLETRAD
 40
0.0
  9
$AUNITS
 70
     0
  9
$AUPREC
 70
     0
  9
$MENU
  1
.
  9
$ELEVATION
 40
0.0
  9
$PELEVATION
 40
0.0
  9
$THICKNESS
 40
0.0
  9
$LIMCHECK
 70
     0
  9
$CHAMFERA
 40
0.0
  9
$CHAMFERB
 40
0.0
  9
$CHAMFERC
 40
0.0
  9
$CHAMFERD
 40
0.0
  9
$SKPOLY
 70
     0
  9
$TDCREATE
 40
2454316.693457674
  9
$TDUCREATE
 40
2454316.318457674
  9
$TDUPDATE
 40
2454736.374787141
  9
$TDUUPDATE
 40
2454735.999787141
  9
$TDINDWG
 40
0.2468112847
  9
$TDUSRTIMER
 40
0.2468112847
  9
$USRTIMER
 70
     1
  9
$ANGBASE
 50
0.0
  9
$ANGDIR
 70
     0
  9
$PDMODE
 70
     0
  9
$PDSIZE
 40
0.0
  9
$PLINEWID
 40
0.0
  9
$SPLFRAME
 70
     0
  9
$SPLINETYPE
 70
     6
  9
$SPLINESEGS
 70
     8
  9
$HANDSEED
  5
7006
  9
$SURFTAB1
 70
     6
  9
$SURFTAB2
 70
     6
  9
$SURFTYPE
 70
     6
  9
$SURFU
 70
     6
  9
$SURFV
 70
     6
  9
$UCSBASE
  2

  9
$UCSNAME
  2

  9
$UCSORG
 10
0.0
 20
0.0
 30
0.0
  9
$UCSXDIR
 10
1.0
 20
0.0
 30
0.0
  9
$UCSYDIR
 10
0.0
 20
1.0
 30
0.0
  9
$UCSORTHOREF
  2

  9
$UCSORTHOVIEW
 70
     0
  9
$UCSORGTOP
 10
0.0
 20
0.0
 30
0.0
  9
$UCSORGBOTTOM
 10
0.0
 20
0.0
 30
0.0
  9
$UCSORGLEFT
 10
0.0
 20
0.0
 30
0.0
  9
$UCSORGRIGHT
 10
0.0
 20
0.0
 30
0.0
  9
$UCSORGFRONT
 10
0.0
 20
0.0
 30
0.0
  9
$UCSORGBACK
 10
0.0
 20
0.0
 30
0.0
  9
$PUCSBASE
  2

  9
$PUCSNAME
  2

  9
$PUCSORG
 10
0.0
 20
0.0
 30
0.0
  9
$PUCSXDIR
 10
1.0
 20
0.0
 30
0.0
  9
$PUCSYDIR
 10
0.0
 20
1.0
 30
0.0
  9
$PUCSORTHOREF
  2

  9
$PUCSORTHOVIEW
 70
     0
  9
$PUCSORGTOP
 10
0.0
 20
0.0
 30
0.0
  9
$PUCSORGBOTTOM
 10
0.0
 20
0.0
 30
0.0
  9
$PUCSORGLEFT
 10
0.0
 20
0.0
 30
0.0
  9
$PUCSORGRIGHT
 10
0.0
 20
0.0
 30
0.0
  9
$PUCSORGFRONT
 10
0.0
 20
0.0
 30
0.0
  9
$PUCSORGBACK
 10
0.0
 20
0.0
 30
0.0
  9
$USERI1
 70
     0
  9
$USERI2
 70
     0
  9
$USERI3
 70
     0
  9
$USERI4
 70
     0
  9
$USERI5
 70
     0
  9
$USERR1
 40
0.0
  9
$USERR2
 40
0.0
  9
$USERR3
 40
0.0
  9
$USERR4
 40
0.0
  9
$USERR5
 40
0.0
  9
$WORLDVIEW
 70
     1
  9
$SHADEDGE
 70
     3
  9
$SHADEDIF
 70
    70
  9
$TILEMODE
 70
     1
  9
$MAXACTVP
 70
    48
  9
$PINSBASE
 10
0.0
 20
0.0
 30
0.0
  9
$PLIMCHECK
 70
     0
  9
$PEXTMIN
 10
1.000000000000000E+20
 20
1.000000000000000E+20
 30
1.000000000000000E+20
  9
$PEXTMAX
 10
-1.000000000000000E+20
 20
-1.000000000000000E+20
 30
-1.000000000000000E+20
  9
$PLIMMIN
 10
0.0
 20
0.0
  9
$PLIMMAX
 10
12.0
 20
9.0
  9
$UNITMODE
 70
     0
  9
$VISRETAIN
 70
     0
  9
$PLINEGEN
 70
     0
  9
$PSLTSCALE
 70
     1
  9
$TREEDEPTH
 70
  3020
  9
$CMLSTYLE
  2
Standard
  9
$CMLJUST
 70
     0
  9
$CMLSCALE
 40
1.0
  9
$PROXYGRAPHICS
 70
     1
  9
$MEASUREMENT
 70
     0
  9
$CELWEIGHT
370
    -1
  9
$ENDCAPS
280
     0
  9
$JOINSTYLE
280
     0
  9
$LWDISPLAY
290
     0
  9
$INSUNITS
 70
     0
  9
$HYPERLINKBASE
  1

  9
$STYLESHEET
  1

  9
$XEDIT
290
     1
  9
$CEPSNTYPE
380
     0
  9
$PSTYLEMODE
290
     1
  9
$FINGERPRINTGUID
  2
{CC7D6DEE-A9F1-4F3E-AC95-C84B62CCA3FD}
  9
$VERSIONGUID
  2
{0C53B853-EDD6-4EC7-B14B-C2419B912BD7}
  9
$EXTNAMES
290
     1
  9
$PSVPSCALE
 40
0.0
  9
$OLESTARTUP
290
     0
  0
ENDSEC
  0
SECTION
  2
CLASSES
  0
CLASS
  1
ACDBDICTIONARYWDFLT
  2
AcDbDictionaryWithDefault
  3
ObjectDBX Classes
 90
        0
280
     0
281
     0
  0
CLASS
  1
ACDBPLACEHOLDER
  2
AcDbPlaceHolder
  3
ObjectDBX Classes
 90
        0
280
     0
281
     0
  0
CLASS
  1
LAYOUT
  2
AcDbLayout
  3
ObjectDBX Classes
 90
        0
280
     0
281
     0
  0
CLASS
  1
DICTIONARYVAR
  2
AcDbDictionaryVar
  3
ObjectDBX Classes
 90
        0
280
     0
281
     0
  0
CLASS
  1
MATERIAL
  2
AcDbMaterial
  3
ObjectDBX Classes
 90
     1153
280
     0
281
     0
  0
CLASS
  1
VISUALSTYLE
  2
AcDbVisualStyle
  3
ObjectDBX Classes
 90
     4095
280
     0
281
     0
  0
CLASS
  1
TABLESTYLE
  2
AcDbTableStyle
  3
ObjectDBX Classes
 90
     4095
280
     0
281
     0
  0
ENDSEC
  0
SECTION
  2
TABLES
  0
TABLE
  2
VPORT
  5
8
102
{ACAD_XDICTIONARY
360
6FD8
102
}
330
0
100
AcDbSymbolTable
 70
     1
  0
VPORT
  5
6EC5
330
8
100
AcDbSymbolTableRecord
100
AcDbViewportTableRecord
  2
*Active
 70
     0
 10
0.0
 20
0.0
 11
1.0
 21
1.0
 12
-3167.263771365071
 22
-564.2253986056525
 13
0.0
 23
0.0
 14
1.0
 24
1.0
 15
0.0
 25
0.0
 16
0.0
 26
0.0
 36
1.0
 17
0.0
 27
0.0
 37
0.0
 40
168.5505344282738
 41
1.571614583333333
 42
50.0
 43
0.0
 44
0.0
 50
0.0
 51
0.0
 71
     0
 72
   100
 73
     1
 74
     1
 75
     0
 76
     0
 77
     0
 78
     0
281
     0
 65
     1
110
0.0
120
0.0
130
0.0
111
1.0
121
0.0
131
0.0
112
0.0
122
1.0
132
0.0
 79
     0
146
0.0
  0
ENDTAB
  0
TABLE
  2
LTYPE
  5
5
330
0
100
AcDbSymbolTable
 70
    50
  0
LTYPE
  5
13
330
5
100
AcDbSymbolTableRecord
100
AcDbLinetypeTableRecord
  2
ByBlock
 70
     0
  3

 72
    65
 73
     0
 40
0.0
  0
LTYPE
  5
14
330
5
100
AcDbSymbolTableRecord
100
AcDbLinetypeTableRecord
  2
ByLayer
 70
     0
  3

 72
    65
 73
     0
 40
0.0
  0
LTYPE
  5
15
330
5
100
AcDbSymbolTableRecord
100
AcDbLinetypeTableRecord
  2
CONTINUOUS
 70
     0
  3
実線
 72
    65
 73
     0
 40
0.0
  0
LTYPE
  5
22
330
5
100
AcDbSymbolTableRecord
100
AcDbLinetypeTableRecord
  2
DASHED1
 70
     0
  3
--  --  --  --  --  --  --  --  
 72
    65
 73
     2
 40
2.5
 49
1.25
 74
     0
 49
-1.25
 74
     0
  0
LTYPE
  5
23
330
5
100
AcDbSymbolTableRecord
100
AcDbLinetypeTableRecord
  2
DASHED2
 70
     0
  3
----    ----    ----    ----    
 72
    65
 73
     2
 40
5.0
 49
2.5
 74
     0
 49
-2.5
 74
     0
  0
LTYPE
  5
24
330
5
100
AcDbSymbolTableRecord
100
AcDbLinetypeTableRecord
  2
DASHED3
 70
     0
  3
------  ------  ------  ------  
 72
    65
 73
     2
 40
5.0
 49
3.75
 74
     0
 49
-1.25
 74
     0
  0
LTYPE
  5
25
330
5
100
AcDbSymbolTableRecord
100
AcDbLinetypeTableRecord
  2
CENTER1
 70
     0
  3
----- - ----- - ----- - ----- - 
 72
    65
 73
     4
 40
10.0
 49
6.25
 74
     0
 49
-1.25
 74
     0
 49
1.25
 74
     0
 49
-1.25
 74
     0
  0
LTYPE
  5
26
330
5
100
AcDbSymbolTableRecord
100
AcDbLinetypeTableRecord
  2
CENTER2
 70
     0
  3
----------  --  ----------  --  
 72
    65
 73
     4
 40
20.0
 49
12.5
 74
     0
 49
-2.5
 74
     0
 49
2.5
 74
     0
 49
-2.5
 74
     0
  0
LTYPE
  5
27
330
5
100
AcDbSymbolTableRecord
100
AcDbLinetypeTableRecord
  2
PHANTOM1
 70
     0
  3
--- - - --- - - --- - - --- - - 
 72
    65
 73
     6
 40
10.0
 49
3.25
 74
     0
 49
-1.25
 74
     0
 49
1.25
 74
     0
 49
-1.25
 74
     0
 49
1.25
 74
     0
 49
-1.25
 74
     0
  0
LTYPE
  5
28
330
5
100
AcDbSymbolTableRecord
100
AcDbLinetypeTableRecord
  2
PHANTOM2
 70
     0
  3
--------  -  -  --------  -  -  
 72
    65
 73
     6
 40
20.0
 49
10.0
 74
     0
 49
-2.5
 74
     0
 49
1.25
 74
     0
 49
-2.5
 74
     0
 49
1.25
 74
     0
 49
-2.5
 74
     0
  0
LTYPE
  5
29
330
5
100
AcDbSymbolTableRecord
100
AcDbLinetypeTableRecord
  2
DOT
 70
     0
  3
-   -   -   -   -   -   -   -   
 72
    65
 73
     2
 40
2.5
 49
0.625
 74
     0
 49
-1.875
 74
     0
  0
LTYPE
  5
2A
330
5
100
AcDbSymbolTableRecord
100
AcDbLinetypeTableRecord
  2
DUMMY
 70
     0
  3
ダミー
 72
    65
 73
     0
 40
0.0
  0
LTYPE
  5
2B
330
5
100
AcDbSymbolTableRecord
100
AcDbLinetypeTableRecord
  2
RAND1
 70
     0
  3
ランダム線1
 72
    65
 73
     4
 40
10.0
 49
1.0
 74
     0
 49
-2.0
 74
     0
 49
3.0
 74
     0
 49
-4.0
 74
     0
  0
LTYPE
  5
2C
330
5
100
AcDbSymbolTableRecord
100
AcDbLinetypeTableRecord
  2
RAND2
 70
     0
  3
ランダム線2
 72
    65
 73
     4
 40
14.0
 49
2.0
 74
     0
 49
-3.0
 74
     0
 49
4.0
 74
     0
 49
-5.0
 74
     0
  0
LTYPE
  5
2D
330
5
100
AcDbSymbolTableRecord
100
AcDbLinetypeTableRecord
  2
RAND3
 70
     0
  3
ランダム線3
 72
    65
 73
     4
 40
18.0
 49
3.0
 74
     0
 49
-4.0
 74
     0
 49
5.0
 74
     0
 49
-6.0
 74
     0
  0
LTYPE
  5
2E
330
5
100
AcDbSymbolTableRecord
100
AcDbLinetypeTableRecord
  2
RAND4
 70
     0
  3
ランダム線4
 72
    65
 73
     4
 40
22.0
 49
4.0
 74
     0
 49
-5.0
 74
     0
 49
6.0
 74
     0
 49
-7.0
 74
     0
  0
LTYPE
  5
2F
330
5
100
AcDbSymbolTableRecord
100
AcDbLinetypeTableRecord
  2
RAND5
 70
     0
  3
ランダム線5
 72
    65
 73
     4
 40
26.0
 49
5.0
 74
     0
 49
-6.0
 74
     0
 49
7.0
 74
     0
 49
-8.0
 74
     0
  0
LTYPE
  5
30
330
5
100
AcDbSymbolTableRecord
100
AcDbLinetypeTableRecord
  2
LONG1
 70
     0
  3
----------  --  ----------  --  
 72
    65
 73
     4
 40
40.0
 49
32.5
 74
     0
 49
-2.5
 74
     0
 49
2.5
 74
     0
 49
-2.5
 74
     0
  0
LTYPE
  5
31
330
5
100
AcDbSymbolTableRecord
100
AcDbLinetypeTableRecord
  2
LONG2
 70
     0
  3
--------  -  -  --------  -  -  
 72
    65
 73
     6
 40
40.0
 49
30.0
 74
     0
 49
-2.5
 74
     0
 49
1.25
 74
     0
 49
-2.5
 74
     0
 49
1.25
 74
     0
 49
-2.5
 74
     0
  0
LTYPE
  5
32
330
5
100
AcDbSymbolTableRecord
100
AcDbLinetypeTableRecord
  2
LONG3
 70
     0
  3
+++++++++++++++..+++++++++++++++
 72
    65
 73
     2
 40
40.0
 49
37.5
 74
     0
 49
-2.5
 74
     0
  0
LTYPE
  5
33
330
5
100
AcDbSymbolTableRecord
100
AcDbLinetypeTableRecord
  2
LONG4
 70
     0
  3
+++++++++++++++..+++++++++++++++
 72
    65
 73
     2
 40
80.0
 49
75.0
 74
     0
 49
-5.0
 74
     0
  0
LTYPE
  5
34
330
5
100
AcDbSymbolTableRecord
100
AcDbLinetypeTableRecord
  2
LONG5
 70
     0
  3
----------  --  ----------  --  
 72
    65
 73
     4
 40
60.0
 49
37.5
 74
     0
 49
-7.5
 74
     0
 49
7.5
 74
     0
 49
-7.5
 74
     0
  0
LTYPE
  5
35
330
5
100
AcDbSymbolTableRecord
100
AcDbLinetypeTableRecord
  2
DASHED
 70
     0
  3
-------   -------------   ------
 72
    65
 73
     2
 40
7.5
 49
6.0
 74
     0
 49
-1.5
 74
     0
  0
LTYPE
  5
36
330
5
100
AcDbSymbolTableRecord
100
AcDbLinetypeTableRecord
  2
DASHED_SPACED
 70
     0
  3
----        --------        ----
 72
    65
 73
     2
 40
12.0
 49
6.0
 74
     0
 49
-6.0
 74
     0
  0
LTYPE
  5
37
330
5
100
AcDbSymbolTableRecord
100
AcDbLinetypeTableRecord
  2
LONG_DASHED_DOTTED
 70
     0
  3
------------- --- --------------
 72
    65
 73
     4
 40
15.25
 49
12.0
 74
     0
 49
-1.5
 74
     0
 49
0.25
 74
     0
 49
-1.5
 74
     0
  0
LTYPE
  5
38
330
5
100
AcDbSymbolTableRecord
100
AcDbLinetypeTableRecord
  2
LONG_DASHED_DOUBLE-DOTTED
 70
     0
  3
----------- --- --- ------------
 72
    65
 73
     6
 40
17.0
 49
12.0
 74
     0
 49
-1.5
 74
     0
 49
0.25
 74
     0
 49
-1.5
 74
     0
 49
0.25
 74
     0
 49
-1.5
 74
     0
  0
LTYPE
  5
39
330
5
100
AcDbSymbolTableRecord
100
AcDbLinetypeTableRecord
  2
LONG_DASHED_TRIPLICATE-DOTTED
 70
     0
  3
--------- --- --- --- ----------
 72
    65
 73
     8
 40
18.75
 49
12.0
 74
     0
 49
-1.5
 74
     0
 49
0.25
 74
     0
 49
-1.5
 74
     0
 49
0.25
 74
     0
 49
-1.5
 74
     0
 49
0.25
 74
     0
 49
-1.5
 74
     0
  0
LTYPE
  5
3A
330
5
100
AcDbSymbolTableRecord
100
AcDbLinetypeTableRecord
  2
DOTTED
 70
     0
  3
   -       -       -       -    
 72
    65
 73
     2
 40
1.75
 49
0.25
 74
     0
 49
-1.5
 74
     0
  0
LTYPE
  5
3B
330
5
100
AcDbSymbolTableRecord
100
AcDbLinetypeTableRecord
  2
CHAIN
 70
     0
  3
-------------- -- --------------
 72
    65
 73
     4
 40
18.5
 49
12.0
 74
     0
 49
-1.5
 74
     0
 49
3.5
 74
     0
 49
-1.5
 74
     0
  0
LTYPE
  5
3C
330
5
100
AcDbSymbolTableRecord
100
AcDbLinetypeTableRecord
  2
CHAIN_DOUBLE_DASH
 70
     0
  3
------------ -- -- -------------
 72
    65
 73
     6
 40
23.5
 49
12.0
 74
     0
 49
-1.5
 74
     0
 49
3.5
 74
     0
 49
-1.5
 74
     0
 49
3.5
 74
     0
 49
-1.5
 74
     0
  0
LTYPE
  5
3D
330
5
100
AcDbSymbolTableRecord
100
AcDbLinetypeTableRecord
  2
DASHED_DOTTED
 70
     0
  3
-----------     -     ----------
 72
    65
 73
     4
 40
9.25
 49
6.0
 74
     0
 49
-1.5
 74
     0
 49
0.25
 74
     0
 49
-1.5
 74
     0
  0
LTYPE
  5
3E
330
5
100
AcDbSymbolTableRecord
100
AcDbLinetypeTableRecord
  2
DOUBLE-DASHED_DOTTED
 70
     0
  3
------   -----------   -   -----
 72
    65
 73
     6
 40
16.75
 49
6.0
 74
     0
 49
-1.5
 74
     0
 49
6.0
 74
     0
 49
-1.5
 74
     0
 49
0.25
 74
     0
 49
-1.5
 74
     0
  0
LTYPE
  5
3F
330
5
100
AcDbSymbolTableRecord
100
AcDbLinetypeTableRecord
  2
DASHED_DOUBLE-DOTTED
 70
     0
  3
---------    -    -    ---------
 72
    65
 73
     6
 40
11.0
 49
6.0
 74
     0
 49
-1.5
 74
     0
 49
0.25
 74
     0
 49
-1.5
 74
     0
 49
0.25
 74
     0
 49
-1.5
 74
     0
  0
LTYPE
  5
40
330
5
100
AcDbSymbolTableRecord
100
AcDbLinetypeTableRecord
  2
DOUBLE-DASHED_DOUBLE-DOTTED
 70
     0
  3
-----   ---------   -   -   ----
 72
    65
 73
     8
 40
18.5
 49
6.0
 74
     0
 49
-1.5
 74
     0
 49
6.0
 74
     0
 49
-1.5
 74
     0
 49
0.25
 74
     0
 49
-1.5
 74
     0
 49
0.25
 74
     0
 49
-1.5
 74
     0
  0
LTYPE
  5
41
330
5
100
AcDbSymbolTableRecord
100
AcDbLinetypeTableRecord
  2
DASHED_TRIPLICATE-DOTTED
 70
     0
  3
-------    -    -    -    ------
 72
    65
 73
     8
 40
12.75
 49
6.0
 74
     0
 49
-1.5
 74
     0
 49
0.25
 74
     0
 49
-1.5
 74
     0
 49
0.25
 74
     0
 49
-1.5
 74
     0
 49
0.25
 74
     0
 49
-1.5
 74
     0
  0
LTYPE
  5
42
330
5
100
AcDbSymbolTableRecord
100
AcDbLinetypeTableRecord
  2
DOUBLE-DASHED_TRIPLICATE-DOTTED
 70
     0
  3
-----  ---------  -  -  -  -----
 72
    65
 73
    10
 40
20.25
 49
6.0
 74
     0
 49
-1.5
 74
     0
 49
6.0
 74
     0
 49
-1.5
 74
     0
 49
0.25
 74
     0
 49
-1.5
 74
     0
 49
0.25
 74
     0
 49
-1.5
 74
     0
 49
0.25
 74
     0
 49
-1.5
 74
     0
  0
LTYPE
  5
43
330
5
100
AcDbSymbolTableRecord
100
AcDbLinetypeTableRecord
  2
UNDEFINED
 70
     0
  3
--------------------------------
 72
    65
 73
     0
 40
0.0
  0
LTYPE
  5
44
330
5
100
AcDbSymbolTableRecord
100
AcDbLinetypeTableRecord
  2
PLINE2
 70
     0
  3
------     -----------     -----
 72
    65
 73
     2
 40
3.0
 49
2.1
 74
     0
 49
-0.9
 74
     0
  0
LTYPE
  5
45
330
5
100
AcDbSymbolTableRecord
100
AcDbLinetypeTableRecord
  2
PLINE3
 70
     0
  3
------------   ---   -----------
 72
    65
 73
     4
 40
10.0
 49
7.0
 74
     0
 49
-1.0
 74
     0
 49
1.0
 74
     0
 49
-1.0
 74
     0
  0
LTYPE
  5
46
330
5
100
AcDbSymbolTableRecord
100
AcDbLinetypeTableRecord
  2
PLINE4
 70
     0
  3
---------   ---   ---   --------
 72
    65
 73
     6
 40
10.0
 49
5.0
 74
     0
 49
-1.0
 74
     0
 49
1.0
 74
     0
 49
-1.0
 74
     0
 49
1.0
 74
     0
 49
-1.0
 74
     0
  0
LTYPE
  5
47
330
5
100
AcDbSymbolTableRecord
100
AcDbLinetypeTableRecord
  2
PLINE5
 70
     0
  3
------     -----------     -----
 72
    65
 73
     2
 40
5.0
 49
3.5
 74
     0
 49
-1.5
 74
     0
  0
LTYPE
  5
48
330
5
100
AcDbSymbolTableRecord
100
AcDbLinetypeTableRecord
  2
PLINE6
 70
     0
  3
------------   ---   -----------
 72
    65
 73
     4
 40
15.0
 49
10.5
 74
     0
 49
-1.5
 74
     0
 49
1.5
 74
     0
 49
-1.5
 74
     0
  0
LTYPE
  5
49
330
5
100
AcDbSymbolTableRecord
100
AcDbLinetypeTableRecord
  2
PLINE7
 70
     0
  3
---------   ---   ---   --------
 72
    65
 73
     6
 40
15.0
 49
7.5
 74
     0
 49
-1.5
 74
     0
 49
1.5
 74
     0
 49
-1.5
 74
     0
 49
1.5
 74
     0
 49
-1.5
 74
     0
  0
LTYPE
  5
4A
330
5
100
AcDbSymbolTableRecord
100
AcDbLinetypeTableRecord
  2
PLINE8
 70
     0
  3
------     -----------     -----
 72
    65
 73
     2
 40
7.0
 49
4.9
 74
     0
 49
-2.1
 74
     0
  0
LTYPE
  5
4B
330
5
100
AcDbSymbolTableRecord
100
AcDbLinetypeTableRecord
  2
PLINE9
 70
     0
  3
------------   ---   -----------
 72
    65
 73
     4
 40
20.0
 49
14.0
 74
     0
 49
-2.0
 74
     0
 49
2.0
 74
     0
 49
-2.0
 74
     0
  0
LTYPE
  5
4C
330
5
100
AcDbSymbolTableRecord
100
AcDbLinetypeTableRecord
  2
PLINE10
 70
     0
  3
---------   ---   ---   --------
 72
    65
 73
     6
 40
20.0
 49
10.0
 74
     0
 49
-2.0
 74
     0
 49
2.0
 74
     0
 49
-2.0
 74
     0
 49
2.0
 74
     0
 49
-2.0
 74
     0
  0
LTYPE
  5
4D
330
5
100
AcDbSymbolTableRecord
100
AcDbLinetypeTableRecord
  2
PLINE11
 70
     0
  3
------     -----------     -----
 72
    65
 73
     2
 40
9.0
 49
6.299999999999999
 74
     0
 49
-2.7
 74
     0
  0
LTYPE
  5
4E
330
5
100
AcDbSymbolTableRecord
100
AcDbLinetypeTableRecord
  2
PLINE12
 70
     0
  3
------------   ---   -----------
 72
    65
 73
     4
 40
25.0
 49
17.5
 74
     0
 49
-2.5
 74
     0
 49
2.5
 74
     0
 49
-2.5
 74
     0
  0
LTYPE
  5
4F
330
5
100
AcDbSymbolTableRecord
100
AcDbLinetypeTableRecord
  2
PLINE13
 70
     0
  3
---------   ---   ---   --------
 72
    65
 73
     6
 40
25.0
 49
12.5
 74
     0
 49
-2.5
 74
     0
 49
2.5
 74
     0
 49
-2.5
 74
     0
 49
2.5
 74
     0
 49
-2.5
 74
     0
  0
LTYPE
  5
50
330
5
100
AcDbSymbolTableRecord
100
AcDbLinetypeTableRecord
  2
PLINE14
 70
     0
  3
------     -----------     -----
 72
    65
 73
     2
 40
11.0
 49
7.7
 74
     0
 49
-3.299999999999999
 74
     0
  0
LTYPE
  5
51
330
5
100
AcDbSymbolTableRecord
100
AcDbLinetypeTableRecord
  2
PLINE15
 70
     0
  3
------------   ---   -----------
 72
    65
 73
     4
 40
30.0
 49
21.0
 74
     0
 49
-3.0
 74
     0
 49
3.0
 74
     0
 49
-3.0
 74
     0
  0
LTYPE
  5
52
330
5
100
AcDbSymbolTableRecord
100
AcDbLinetypeTableRecord
  2
PLINE16
 70
     0
  3
---------   ---   ---   --------
 72
    65
 73
     6
 40
30.0
 49
15.0
 74
     0
 49
-3.0
 74
     0
 49
3.0
 74
     0
 49
-3.0
 74
     0
 49
3.0
 74
     0
 49
-3.0
 74
     0
  0
ENDTAB
  0
TABLE
  2
LAYER
  5
2
102
{ACAD_XDICTIONARY
360
175
102
}
330
0
100
AcDbSymbolTable
 70
     5
  0
LAYER
  5
10
330
2
100
AcDbSymbolTableRecord
100
AcDbLayerTableRecord
  2
0
 70
     0
 62
     7
  6
CONTINUOUS
370
    -3
390
F
  0
LAYER
  5
128
330
2
100
AcDbSymbolTableRecord
100
AcDbLayerTableRecord
  2
Defpoints
 70
     0
 62
     7
  6
CONTINUOUS
290
     0
370
    -3
390
F
  0
LAYER
  5
178
330
2
100
AcDbSymbolTableRecord
100
AcDbLayerTableRecord
  2
寸法
 70
     0
 62
     7
  6
CONTINUOUS
370
    -3
390
F
  0
LAYER
  5
179
330
2
100
AcDbSymbolTableRecord
100
AcDbLayerTableRecord
  2
躯体と製品
 70
     0
 62
     7
  6
CONTINUOUS
370
    -3
390
F
  0
LAYER
  5
604A
330
2
100
AcDbSymbolTableRecord
100
AcDbLayerTableRecord
  2
文字-記号
 70
     0
 62
     7
  6
CONTINUOUS
370
    -3
390
F
  0
ENDTAB
  0
TABLE
  2
STYLE
  5
3
330
0
100
AcDbSymbolTable
 70
     4
  0
STYLE
  5
11
330
3
100
AcDbSymbolTableRecord
100
AcDbTextStyleTableRecord
  2
STANDARD
 70
     0
 40
0.0
 41
1.0
 50
0.0
 71
     0
 42
0.2
  3
txt
  4
bigfont.shx
  0
STYLE
  5
53
330
3
100
AcDbSymbolTableRecord
100
AcDbTextStyleTableRecord
  2
TATEGAKI
 70
     4
 40
0.0
 41
1.0
 50
0.0
 71
     0
 42
1.0
  3
txt
  4
bigfont.shx
  0
STYLE
  5
123
330
3
100
AcDbSymbolTableRecord
100
AcDbTextStyleTableRecord
  2
ACAD
 70
     0
 40
3.0
 41
0.8
 50
0.0
 71
     0
 42
5.0
  3
romans.shx
  4
extfont.shx
  0
STYLE
  5
3A5F
330
3
100
AcDbSymbolTableRecord
100
AcDbTextStyleTableRecord
  2
VERTXT
 70
     4
 40
0.0
 41
0.8582679999999999
 50
0.0
 71
     0
 42
3.5
  3
txt.shx
  4
BIGFONT
  0
ENDTAB
  0
TABLE
  2
VIEW
  5
6
330
0
100
AcDbSymbolTable
 70
     0
  0
ENDTAB
  0
TABLE
  2
UCS
  5
7
330
0
100
AcDbSymbolTable
 70
     0
  0
ENDTAB
  0
TABLE
  2
APPID
  5
9
330
0
100
AcDbSymbolTable
 70
     1
  0
APPID
  5
12
330
9
100
AcDbSymbolTableRecord
100
AcDbRegAppTableRecord
  2
ACAD
 70
     0
  0
ENDTAB
  0
TABLE
  2
DIMSTYLE
  5
A
330
0
100
AcDbSymbolTable
 70
     3
100
AcDbDimStyleTable
 71
     1
340
126
  0
DIMSTYLE
105
11C
330
A
100
AcDbSymbolTableRecord
100
AcDbDimStyleTableRecord
  2
Standard
 70
     0
340
11
  0
DIMSTYLE
105
126
102
{ACAD_REACTORS
330
6C7C
330
6C7D
330
6D25
330
6D51
330
6DC3
330
6DF7
102
}
330
A
100
AcDbSymbolTableRecord
100
AcDbDimStyleTableRecord
  2
AutoCAD
 70
     0
 41
1.0
 42
0.0
 44
0.0
 73
     0
 77
     1
140
3.0
147
1.0
174
     1
176
     4
177
     4
178
     3
271
     0
272
     0
289
     0
340
123
341
15B0
342
11E
  0
DIMSTYLE
105
2CBB
330
A
100
AcDbSymbolTableRecord
100
AcDbDimStyleTableRecord
  2
111
 70
     0
 41
1.0
 42
0.0
 44
0.0
 73
     0
 77
     1
140
5.0
147
1.0
174
     1
176
     4
177
     4
178
     3
271
     0
272
     0
289
     0
340
123
341
15B0
342
2CB5
  0
ENDTAB
  0
TABLE
  2
BLOCK_RECORD
  5
1
330
0
100
AcDbSymbolTable
 70
    10
  0
BLOCK_RECORD
  5
1E
102
{ACAD_XDICTIONARY
360
28B
102
}
330
1
100
AcDbSymbolTableRecord
100
AcDbBlockTableRecord
  2
*Model_Space
340
21
  0
BLOCK_RECORD
  5
1A
102
{ACAD_XDICTIONARY
360
28D
102
}
330
1
100
AcDbSymbolTableRecord
100
AcDbBlockTableRecord
  2
*Paper_Space
340
1D
  0
BLOCK_RECORD
  5
11E
330
1
100
AcDbSymbolTableRecord
100
AcDbBlockTableRecord
  2
_Dot
340
0
102
{BLKREFS
331
6F3A
331
6F3B
331
6F55
331
6F56
331
6F5E
331
6F5F
331
6F83
331
6F84
331
6FA9
331
6FAA
331
6FD1
331
6FD2
102
}
  0
BLOCK_RECORD
  5
15B0
330
1
100
AcDbSymbolTableRecord
100
AcDbBlockTableRecord
  2
_None
340
0
  0
BLOCK_RECORD
  5
2CB5
330
1
100
AcDbSymbolTableRecord
100
AcDbBlockTableRecord
  2
_Open30
340
0
  0
BLOCK_RECORD
  5
35E3
330
1
100
AcDbSymbolTableRecord
100
AcDbBlockTableRecord
  2
_DotBlank
340
0
  0
BLOCK_RECORD
  5
6DFC
330
1
100
AcDbSymbolTableRecord
100
AcDbBlockTableRecord
  2
*D4
340
0
  0
BLOCK_RECORD
  5
6E08
330
1
100
AcDbSymbolTableRecord
100
AcDbBlockTableRecord
  2
*D5
340
0
  0
BLOCK_RECORD
  5
6E14
330
1
100
AcDbSymbolTableRecord
100
AcDbBlockTableRecord
  2
*D6
340
0
  0
BLOCK_RECORD
  5
6E20
330
1
100
AcDbSymbolTableRecord
100
AcDbBlockTableRecord
  2
*D7
340
0
  0
BLOCK_RECORD
  5
6E2C
330
1
100
AcDbSymbolTableRecord
100
AcDbBlockTableRecord
  2
*D8
340
0
  0
BLOCK_RECORD
  5
6E38
330
1
100
AcDbSymbolTableRecord
100
AcDbBlockTableRecord
  2
*D9
340
0
  0
ENDTAB
  0
ENDSEC
  0
SECTION
  2
BLOCKS
  0
BLOCK
  5
1F
330
1E
100
AcDbEntity
  8
0
100
AcDbBlockBegin
  2
*Model_Space
 70
     0
 10
0.0
 20
0.0
 30
0.0
  3
*Model_Space
  1

  0
ENDBLK
  5
20
330
1E
100
AcDbEntity
  8
0
100
AcDbBlockEnd
  0
BLOCK
  5
1B
330
1A
100
AcDbEntity
 67
     1
  8
0
100
AcDbBlockBegin
  2
*Paper_Space
 70
     0
 10
0.0
 20
0.0
 30
0.0
  3
*Paper_Space
  1

  0
ENDBLK
  5
1C
330
1A
100
AcDbEntity
 67
     1
  8
0
100
AcDbBlockEnd
  0
BLOCK
  5
121
330
11E
100
AcDbEntity
  8
0
100
AcDbBlockBegin
  2
_Dot
 70
     0
 10
0.0
 20
0.0
 30
0.0
  3
_Dot
  1

  0
LWPOLYLINE
  5
11F
330
11E
100
AcDbEntity
  8
0
  6
ByBlock
 62
     0
100
AcDbPolyline
 90
        2
 70
     1
 43
0.5
 10
-0.25
 20
0.0
 42
1.0
 10
0.25
 20
0.0
 42
1.0
  0
LINE
  5
120
330
11E
100
AcDbEntity
  8
0
  6
ByBlock
 62
     0
370
    -2
100
AcDbLine
 10
-0.5
 20
0.0
 30
0.0
 11
-1.0
 21
0.0
 31
0.0
  0
ENDBLK
  5
122
330
11E
100
AcDbEntity
  8
0
100
AcDbBlockEnd
  0
BLOCK
  5
15B1
330
15B0
100
AcDbEntity
  8
0
100
AcDbBlockBegin
  2
_None
 70
     0
 10
0.0
 20
0.0
 30
0.0
  3
_None
  1

  0
ENDBLK
  5
15B2
330
15B0
100
AcDbEntity
  8
0
100
AcDbBlockEnd
  0
BLOCK
  5
2CB9
330
2CB5
100
AcDbEntity
  8
0
100
AcDbBlockBegin
  2
_Open30
 70
     0
 10
0.0
 20
0.0
 30
0.0
  3
_Open30
  1

  0
LINE
  5
2CB6
330
2CB5
100
AcDbEntity
  8
0
  6
ByBlock
 62
     0
370
    -2
100
AcDbLine
 10
-1.0
 20
0.26794919
 30
0.0
 11
0.0
 21
0.0
 31
0.0
  0
LINE
  5
2CB7
330
2CB5
100
AcDbEntity
  8
0
  6
ByBlock
 62
     0
370
    -2
100
AcDbLine
 10
0.0
 20
0.0
 30
0.0
 11
-1.0
 21
-0.26794919
 31
0.0
  0
LINE
  5
2CB8
330
2CB5
100
AcDbEntity
  8
0
  6
ByBlock
 62
     0
370
    -2
100
AcDbLine
 10
0.0
 20
0.0
 30
0.0
 11
-1.0
 21
0.0
 31
0.0
  0
ENDBLK
  5
2CBA
330
2CB5
100
AcDbEntity
  8
0
100
AcDbBlockEnd
  0
BLOCK
  5
35E6
330
35E3
100
AcDbEntity
  8
0
100
AcDbBlockBegin
  2
_DotBlank
 70
     0
 10
0.0
 20
0.0
 30
0.0
  3
_DotBlank
  1

  0
CIRCLE
  5
35E4
330
35E3
100
AcDbEntity
  8
0
  6
ByBlock
 62
     0
370
    -2
100
AcDbCircle
 10
0.0
 20
0.0
 30
0.0
 40
0.5
  0
LINE
  5
35E5
330
35E3
100
AcDbEntity
  8
0
  6
ByBlock
 62
     0
370
    -2
100
AcDbLine
 10
-0.5
 20
0.0
 30
0.0
 11
-1.0
 21
0.0
 31
0.0
  0
ENDBLK
  5
35E7
330
35E3
100
AcDbEntity
  8
0
100
AcDbBlockEnd
  0
BLOCK
  5
6E06
330
6DFC
100
AcDbEntity
  8
0
100
AcDbBlockBegin
  2
*D4
 70
     1
 10
0.0
 20
0.0
 30
0.0
  3
*D4
  1

  0
LINE
  5
6FA5
330
6DFC
100
AcDbEntity
  8
寸法
  6
Continuous
 62
     4
370
    -2
100
AcDbLine
 10
-3246.696991701583
 20
-571.1657922467848
 30
0.0
 11
-3246.696991701583
 21
-581.3211413131966
 31
0.0
  0
LINE
  5
6FA6
330
6DFC
100
AcDbEntity
  8
寸法
  6
Continuous
 62
     4
370
    -2
100
AcDbLine
 10
-3248.296991701583
 20
-580.1657922467848
 30
0.0
 11
-3248.296991701583
 21
-581.3211413131966
 31
0.0
  0
LINE
  5
6FA7
330
6DFC
100
AcDbEntity
  8
寸法
  6
Continuous
 62
     4
370
    -2
100
AcDbLine
 10
-3249.296991701583
 20
-581.3211413131966
 30
0.0
 11
-3250.296991701583
 21
-581.3211413131966
 31
0.0
  0
LINE
  5
6FA8
330
6DFC
100
AcDbEntity
  8
寸法
  6
Continuous
 62
     4
370
    -2
100
AcDbLine
 10
-3245.696991701583
 20
-581.3211413131966
 30
0.0
 11
-3238.525563130155
 21
-581.3211413131966
 31
0.0
  0
INSERT
  5
6FA9
330
6DFC
100
AcDbEntity
  8
寸法
  6
Continuous
 62
     4
370
    -2
100
AcDbBlockReference
  2
_Dot
 10
-3248.296991701583
 20
-581.3211413131966
 30
0.0
  0
INSERT
  5
6FAA
330
6DFC
100
AcDbEntity
  8
寸法
  6
Continuous
 62
     4
370
    -2
100
AcDbBlockReference
  2
_Dot
 10
-3246.696991701583
 20
-581.3211413131966
 30
0.0
 50
180.0
  0
MTEXT
  5
6FAB
330
6DFC
100
AcDbEntity
  8
寸法
  6
Continuous
 62
     3
100
AcDbMText
 10
-3241.611277415869
 20
-578.2354270274823
 30
0.0
 40
3.0
 41
0.0
 71
     5
 72
     1
  1
\A1;(8)
  7
ACAD
 73
     1
 44
1.0
1001
ACAD
1000
MTEXTBEGIN
1070
    73
1070
     1
1070
    44
1040
1.0
1070
    74
1070
     0
1000
MTEXTEND
  0
POINT
  5
6FAC
330
6DFC
100
AcDbEntity
  8
Defpoints
  6
Continuous
 62
     0
100
AcDbPoint
 10
-3246.696991701583
 20
-571.1657922467848
 30
0.0
  0
POINT
  5
6FAD
330
6DFC
100
AcDbEntity
  8
Defpoints
  6
Continuous
 62
     0
100
AcDbPoint
 10
-3248.296991701583
 20
-580.1657922467848
 30
0.0
  0
POINT
  5
6FAE
330
6DFC
100
AcDbEntity
  8
Defpoints
  6
Continuous
 62
     0
100
AcDbPoint
 10
-3248.296991701583
 20
-581.3211413131966
 30
0.0
  0
ENDBLK
  5
6E07
330
6DFC
100
AcDbEntity
  8
0
100
AcDbBlockEnd
  0
BLOCK
  5
6E12
330
6E08
100
AcDbEntity
  8
0
100
AcDbBlockBegin
  2
*D5
 70
     1
 10
0.0
 20
0.0
 30
0.0
  3
*D5
  1

  0
LINE
  5
6F37
330
6E08
100
AcDbEntity
  8
寸法
  6
Continuous
 62
     4
370
    -2
100
AcDbLine
 10
-3246.696991701583
 20
-546.1657922467848
 30
0.0
 11
-3246.696991701583
 21
-537.1657922467847
 31
0.0
  0
LINE
  5
6F38
330
6E08
100
AcDbEntity
  8
寸法
  6
Continuous
 62
     4
370
    -2
100
AcDbLine
 10
-3245.696991701583
 20
-537.1657922467847
 30
0.0
 11
-3244.696991701583
 21
-537.1657922467847
 31
0.0
  0
LINE
  5
6F39
330
6E08
100
AcDbEntity
  8
寸法
  6
Continuous
 62
     4
370
    -2
100
AcDbLine
 10
-3249.296991701583
 20
-537.1657922467847
 30
0.0
 11
-3250.296991701583
 21
-537.1657922467847
 31
0.0
  0
INSERT
  5
6F3A
330
6E08
100
AcDbEntity
  8
寸法
  6
Continuous
 62
     4
370
    -2
100
AcDbBlockReference
  2
_Dot
 10
-3246.696991701583
 20
-537.1657922467847
 30
0.0
 50
180.0
  0
INSERT
  5
6F3B
330
6E08
100
AcDbEntity
  8
寸法
  6
Continuous
 62
     4
370
    -2
100
AcDbBlockReference
  2
_Dot
 10
-3248.296991701583
 20
-537.1657922467847
 30
0.0
  0
MTEXT
  5
6F3C
330
6E08
100
AcDbEntity
  8
寸法
  6
Continuous
 62
     3
100
AcDbMText
 10
-3247.496991701583
 20
-534.0800779610705
 30
0.0
 40
3.0
 41
0.0
 71
     5
 72
     1
  1
\A1;(8)
  7
ACAD
 73
     1
 44
1.0
1001
ACAD
1000
MTEXTBEGIN
1070
    73
1070
     1
1070
    44
1040
1.0
1070
    74
1070
     0
1000
MTEXTEND
  0
POINT
  5
6F3D
330
6E08
100
AcDbEntity
  8
Defpoints
  6
Continuous
 62
     0
100
AcDbPoint
 10
-3246.696991701583
 20
-546.1657922467848
 30
0.0
  0
POINT
  5
6F3E
330
6E08
100
AcDbEntity
  8
Defpoints
  6
Continuous
 62
     0
100
AcDbPoint
 10
-3248.296991701583
 20
-537.1657922467847
 30
0.0
  0
POINT
  5
6F3F
330
6E08
100
AcDbEntity
  8
Defpoints
  6
Continuous
 62
     0
100
AcDbPoint
 10
-3248.296991701583
 20
-537.1657922467847
 30
0.0
  0
ENDBLK
  5
6E13
330
6E08
100
AcDbEntity
  8
0
100
AcDbBlockEnd
  0
BLOCK
  5
6E1E
330
6E14
100
AcDbEntity
  8
0
100
AcDbBlockBegin
  2
*D6
 70
     1
 10
0.0
 20
0.0
 30
0.0
  3
*D6
  1

  0
LINE
  5
6F80
330
6E14
100
AcDbEntity
  8
寸法
  6
Continuous
 62
     4
370
    -2
100
AcDbLine
 10
-3197.296991701583
 20
-547.1657922467848
 30
0.0
 11
-3188.296991701583
 21
-547.1657922467848
 31
0.0
  0
LINE
  5
6F81
330
6E14
100
AcDbEntity
  8
寸法
  6
Continuous
 62
     4
370
    -2
100
AcDbLine
 10
-3197.296991701583
 20
-570.1657922467847
 30
0.0
 11
-3188.296991701583
 21
-570.1657922467847
 31
0.0
  0
LINE
  5
6F82
330
6E14
100
AcDbEntity
  8
寸法
  6
Continuous
 62
     4
370
    -2
100
AcDbLine
 10
-3188.296991701583
 20
-548.1657922467848
 30
0.0
 11
-3188.296991701583
 21
-569.1657922467848
 31
0.0
  0
INSERT
  5
6F83
330
6E14
100
AcDbEntity
  8
寸法
  6
Continuous
 62
     4
370
    -2
100
AcDbBlockReference
  2
_Dot
 10
-3188.296991701583
 20
-547.1657922467848
 30
0.0
 50
90.0
  0
INSERT
  5
6F84
330
6E14
100
AcDbEntity
  8
寸法
  6
Continuous
 62
     4
370
    -2
100
AcDbBlockReference
  2
_Dot
 10
-3188.296991701583
 20
-570.1657922467847
 30
0.0
 50
270.0
  0
MTEXT
  5
6F85
330
6E14
100
AcDbEntity
  8
寸法
  6
Continuous
 62
     3
100
AcDbMText
 10
-3191.382705987297
 20
-558.6657922467852
 30
0.0
 40
3.0
 41
0.0
 71
     5
 72
     1
  1
\A1;(115)
  7
ACAD
 11
0.0000000000000001
 21
1.0
 31
0.0
 73
     1
 44
1.0
1001
ACAD
1000
MTEXTBEGIN
1070
    73
1070
     1
1070
    44
1040
1.0
1070
    74
1070
     0
1000
MTEXTEND
  0
POINT
  5
6F86
330
6E14
100
AcDbEntity
  8
Defpoints
  6
Continuous
 62
     0
100
AcDbPoint
 10
-3197.296991701583
 20
-547.1657922467848
 30
0.0
  0
POINT
  5
6F87
330
6E14
100
AcDbEntity
  8
Defpoints
  6
Continuous
 62
     0
100
AcDbPoint
 10
-3197.296991701583
 20
-570.1657922467847
 30
0.0
  0
POINT
  5
6F88
330
6E14
100
AcDbEntity
  8
Defpoints
  6
Continuous
 62
     0
100
AcDbPoint
 10
-3188.296991701583
 20
-570.1657922467847
 30
0.0
  0
ENDBLK
  5
6E1F
330
6E14
100
AcDbEntity
  8
0
100
AcDbBlockEnd
  0
BLOCK
  5
6E2A
330
6E20
100
AcDbEntity
  8
0
100
AcDbBlockBegin
  2
*D7
 70
     1
 10
0.0
 20
0.0
 30
0.0
  3
*D7
  1

  0
LINE
  5
6FCD
330
6E20
100
AcDbEntity
  8
寸法
  6
Continuous
 62
     4
370
    -2
100
AcDbLine
 10
-3094.267781701582
 20
-564.2713222467855
 30
0.0
 11
-3094.267781701582
 21
-575.187604827581
 31
0.0
  0
LINE
  5
6FCE
330
6E20
100
AcDbEntity
  8
寸法
  6
Continuous
 62
     4
370
    -2
100
AcDbLine
 10
-3095.867781701583
 20
-573.2713222467855
 30
0.0
 11
-3095.867781701583
 21
-575.187604827581
 31
0.0
  0
LINE
  5
6FCF
330
6E20
100
AcDbEntity
  8
寸法
  6
Continuous
 62
     4
370
    -2
100
AcDbLine
 10
-3096.867781701583
 20
-575.187604827581
 30
0.0
 11
-3097.867781701582
 21
-575.187604827581
 31
0.0
  0
LINE
  5
6FD0
330
6E20
100
AcDbEntity
  8
寸法
  6
Continuous
 62
     4
370
    -2
100
AcDbLine
 10
-3093.267781701583
 20
-575.187604827581
 30
0.0
 11
-3086.096353130154
 21
-575.187604827581
 31
0.0
  0
INSERT
  5
6FD1
330
6E20
100
AcDbEntity
  8
寸法
  6
Continuous
 62
     4
370
    -2
100
AcDbBlockReference
  2
_Dot
 10
-3095.867781701583
 20
-575.187604827581
 30
0.0
  0
INSERT
  5
6FD2
330
6E20
100
AcDbEntity
  8
寸法
  6
Continuous
 62
     4
370
    -2
100
AcDbBlockReference
  2
_Dot
 10
-3094.267781701582
 20
-575.187604827581
 30
0.0
 50
180.0
  0
MTEXT
  5
6FD3
330
6E20
100
AcDbEntity
  8
寸法
  6
Continuous
 62
     3
100
AcDbMText
 10
-3089.182067415868
 20
-572.1018905418667
 30
0.0
 40
3.0
 41
0.0
 71
     5
 72
     1
  1
\A1;(8)
  7
ACAD
 73
     1
 44
1.0
1001
ACAD
1000
MTEXTBEGIN
1070
    73
1070
     1
1070
    44
1040
1.0
1070
    74
1070
     0
1000
MTEXTEND
  0
POINT
  5
6FD4
330
6E20
100
AcDbEntity
  8
Defpoints
  6
Continuous
 62
     0
100
AcDbPoint
 10
-3094.267781701582
 20
-564.2713222467855
 30
0.0
  0
POINT
  5
6FD5
330
6E20
100
AcDbEntity
  8
Defpoints
  6
Continuous
 62
     0
100
AcDbPoint
 10
-3095.867781701583
 20
-573.2713222467855
 30
0.0
  0
POINT
  5
6FD6
330
6E20
100
AcDbEntity
  8
Defpoints
  6
Continuous
 62
     0
100
AcDbPoint
 10
-3095.867781701583
 20
-575.187604827581
 30
0.0
  0
ENDBLK
  5
6E2B
330
6E20
100
AcDbEntity
  8
0
100
AcDbBlockEnd
  0
BLOCK
  5
6E36
330
6E2C
100
AcDbEntity
  8
0
100
AcDbBlockBegin
  2
*D8
 70
     1
 10
0.0
 20
0.0
 30
0.0
  3
*D8
  1

  0
LINE
  5
6F52
330
6E2C
100
AcDbEntity
  8
寸法
  6
Continuous
 62
     4
370
    -2
100
AcDbLine
 10
-3094.267781701582
 20
-544.2713222467855
 30
0.0
 11
-3094.267781701582
 21
-535.2713222467855
 31
0.0
  0
LINE
  5
6F53
330
6E2C
100
AcDbEntity
  8
寸法
  6
Continuous
 62
     4
370
    -2
100
AcDbLine
 10
-3093.267781701583
 20
-535.2713222467855
 30
0.0
 11
-3092.267781701583
 21
-535.2713222467855
 31
0.0
  0
LINE
  5
6F54
330
6E2C
100
AcDbEntity
  8
寸法
  6
Continuous
 62
     4
370
    -2
100
AcDbLine
 10
-3096.867781701583
 20
-535.2713222467855
 30
0.0
 11
-3097.867781701582
 21
-535.2713222467855
 31
0.0
  0
INSERT
  5
6F55
330
6E2C
100
AcDbEntity
  8
寸法
  6
Continuous
 62
     4
370
    -2
100
AcDbBlockReference
  2
_Dot
 10
-3094.267781701582
 20
-535.2713222467855
 30
0.0
 50
180.0
  0
INSERT
  5
6F56
330
6E2C
100
AcDbEntity
  8
寸法
  6
Continuous
 62
     4
370
    -2
100
AcDbBlockReference
  2
_Dot
 10
-3095.867781701583
 20
-535.2713222467855
 30
0.0
  0
MTEXT
  5
6F57
330
6E2C
100
AcDbEntity
  8
寸法
  6
Continuous
 62
     3
100
AcDbMText
 10
-3095.067781701582
 20
-532.1856079610712
 30
0.0
 40
3.0
 41
0.0
 71
     5
 72
     1
  1
\A1;(8)
  7
ACAD
 73
     1
 44
1.0
1001
ACAD
1000
MTEXTBEGIN
1070
    73
1070
     1
1070
    44
1040
1.0
1070
    74
1070
     0
1000
MTEXTEND
  0
POINT
  5
6F58
330
6E2C
100
AcDbEntity
  8
Defpoints
  6
Continuous
 62
     0
100
AcDbPoint
 10
-3094.267781701582
 20
-544.2713222467855
 30
0.0
  0
POINT
  5
6F59
330
6E2C
100
AcDbEntity
  8
Defpoints
  6
Continuous
 62
     0
100
AcDbPoint
 10
-3095.867781701583
 20
-535.2713222467855
 30
0.0
  0
POINT
  5
6F5A
330
6E2C
100
AcDbEntity
  8
Defpoints
  6
Continuous
 62
     0
100
AcDbPoint
 10
-3095.867781701583
 20
-535.2713222467855
 30
0.0
  0
ENDBLK
  5
6E37
330
6E2C
100
AcDbEntity
  8
0
100
AcDbBlockEnd
  0
BLOCK
  5
6E42
330
6E38
100
AcDbEntity
  8
0
100
AcDbBlockBegin
  2
*D9
 70
     1
 10
0.0
 20
0.0
 30
0.0
  3
*D9
  1

  0
LINE
  5
6F5B
330
6E38
100
AcDbEntity
  8
寸法
  6
Continuous
 62
     4
370
    -2
100
AcDbLine
 10
-3044.867781701583
 20
-545.2713222467855
 30
0.0
 11
-3036.167781701582
 21
-545.2713222467855
 31
0.0
  0
LINE
  5
6F5C
330
6E38
100
AcDbEntity
  8
寸法
  6
Continuous
 62
     4
370
    -2
100
AcDbLine
 10
-3044.867781701583
 20
-563.2713222467855
 30
0.0
 11
-3036.167781701582
 21
-563.2713222467855
 31
0.0
  0
LINE
  5
6F5D
330
6E38
100
AcDbEntity
  8
寸法
  6
Continuous
 62
     4
370
    -2
100
AcDbLine
 10
-3036.167781701582
 20
-546.2713222467855
 30
0.0
 11
-3036.167781701582
 21
-562.2713222467855
 31
0.0
  0
INSERT
  5
6F5E
330
6E38
100
AcDbEntity
  8
寸法
  6
Continuous
 62
     4
370
    -2
100
AcDbBlockReference
  2
_Dot
 10
-3036.167781701582
 20
-545.2713222467855
 30
0.0
 50
90.0
  0
INSERT
  5
6F5F
330
6E38
100
AcDbEntity
  8
寸法
  6
Continuous
 62
     4
370
    -2
100
AcDbBlockReference
  2
_Dot
 10
-3036.167781701582
 20
-563.2713222467855
 30
0.0
 50
270.0
  0
MTEXT
  5
6F60
330
6E38
100
AcDbEntity
  8
寸法
  6
Continuous
 62
     3
100
AcDbMText
 10
-3039.253495987297
 20
-554.271322246786
 30
0.0
 40
3.0
 41
0.0
 71
     5
 72
     1
  1
\A1;(90)
  7
ACAD
 11
0.0000000000000001
 21
1.0
 31
0.0
 73
     1
 44
1.0
1001
ACAD
1000
MTEXTBEGIN
1070
    73
1070
     1
1070
    44
1040
1.0
1070
    74
1070
     0
1000
MTEXTEND
  0
POINT
  5
6F61
330
6E38
100
AcDbEntity
  8
Defpoints
  6
Continuous
 62
     0
100
AcDbPoint
 10
-3044.867781701583
 20
-545.2713222467855
 30
0.0
  0
POINT
  5
6F62
330
6E38
100
AcDbEntity
  8
Defpoints
  6
Continuous
 62
     0
100
AcDbPoint
 10
-3044.867781701583
 20
-563.2713222467855
 30
0.0
  0
POINT
  5
6F63
330
6E38
100
AcDbEntity
  8
Defpoints
  6
Continuous
 62
     0
100
AcDbPoint
 10
-3036.167781701582
 20
-563.2713222467855
 30
0.0
  0
ENDBLK
  5
6E43
330
6E38
100
AcDbEntity
  8
0
100
AcDbBlockEnd
  0
ENDSEC
  0
SECTION
  2
ENTITIES
  0
DIMENSION
  5
6C7C
330
1E
100
AcDbEntity
  8
寸法
  6
Continuous
100
AcDbDimension
  2
*D4
 10
-3248.296991701583
 20
-581.3211413131966
 30
0.0
 11
-3241.611277415869
 21
-581.3211413131966
 31
0.0
 70
   160
  1
(8)
 71
     5
 42
1.599999999999909
  3
AutoCAD
100
AcDbAlignedDimension
 13
-3246.696991701583
 23
-571.1657922467848
 33
0.0
 14
-3248.296991701583
 24
-580.1657922467848
 34
0.0
100
AcDbRotatedDimension
1001
ACAD
1000
DSTYLE
1002
{
1070
   147
1040
0.8
1070
   140
1040
10.0
1002
}
  0
DIMENSION
  5
6C7D
330
1E
100
AcDbEntity
  8
寸法
  6
Continuous
100
AcDbDimension
  2
*D5
 10
-3248.296991701583
 20
-537.1657922467847
 30
0.0
 11
-3247.496991701583
 21
-534.0800779610705
 31
0.0
 70
    32
  1
(8)
 71
     5
 42
1.599999999999909
  3
AutoCAD
100
AcDbAlignedDimension
 13
-3246.696991701583
 23
-546.1657922467848
 33
0.0
 14
-3248.296991701583
 24
-537.1657922467847
 34
0.0
100
AcDbRotatedDimension
1001
ACAD
1000
DSTYLE
1002
{
1070
   147
1040
0.8
1070
   140
1040
10.0
1002
}
  0
CIRCLE
  5
6C7E
330
1E
100
AcDbEntity
  8
文字-記号
  6
Continuous
 62
     7
100
AcDbCircle
 10
-3247.496991701583
 20
-548.4157922467848
 30
0.0
 40
0.3
  0
LINE
  5
6C7F
330
1E
100
AcDbEntity
  8
躯体と製品
  6
Continuous
 62
     7
100
AcDbLine
 10
-3239.456991701582
 20
-552.3257922467847
 30
0.0
 11
-3248.136991701583
 21
-552.3257922467847
 31
0.0
  0
LINE
  5
6C80
330
1E
100
AcDbEntity
  8
躯体と製品
  6
Continuous
 62
     7
100
AcDbLine
 10
-3247.996991701582
 20
-557.6657922467847
 30
0.0
 11
-3247.196991701583
 21
-557.6657922467847
 31
0.0
  0
LINE
  5
6C81
330
1E
100
AcDbEntity
  8
躯体と製品
  6
Continuous
 62
     7
100
AcDbLine
 10
-3247.196991701583
 20
-559.6657922467848
 30
0.0
 11
-3247.996991701582
 21
-559.6657922467848
 31
0.0
  0
LINE
  5
6C82
330
1E
100
AcDbEntity
  8
躯体と製品
  6
Continuous
 62
     7
100
AcDbLine
 10
-3239.456991701582
 20
-565.0057922467849
 30
0.0
 11
-3248.136991701583
 21
-565.0057922467849
 31
0.0
  0
LINE
  5
6C83
330
1E
100
AcDbEntity
  8
躯体と製品
  6
Continuous
 62
     7
100
AcDbLine
 10
-3198.296991701583
 20
-549.6657922467847
 30
0.0
 11
-3248.296991701583
 21
-549.6657922467847
 31
0.0
  0
LINE
  5
6C84
330
1E
100
AcDbEntity
  8
躯体と製品
  6
Continuous
 62
     7
100
AcDbLine
 10
-3248.296991701583
 20
-552.1657922467848
 30
0.0
 11
-3198.296991701583
 21
-552.1657922467848
 31
0.0
  0
LINE
  5
6C85
330
1E
100
AcDbEntity
  8
躯体と製品
  6
Continuous
 62
     7
100
AcDbLine
 10
-3248.296991701583
 20
-565.1657922467848
 30
0.0
 11
-3198.296991701583
 21
-565.1657922467848
 31
0.0
  0
LINE
  5
6C86
330
1E
100
AcDbEntity
  8
躯体と製品
  6
CENTER2
 62
     7
100
AcDbLine
 10
-3272.296991701582
 20
-558.6657922467848
 30
0.0
 11
-3198.296991701583
 21
-558.6657922467848
 31
0.0
  0
CIRCLE
  5
6C87
330
1E
100
AcDbEntity
  8
文字-記号
  6
Continuous
 62
     7
100
AcDbCircle
 10
-3247.496991701583
 20
-568.9157922467848
 30
0.0
 40
0.3
  0
LINE
  5
6C88
330
1E
100
AcDbEntity
  8
文字-記号
  6
Continuous
 62
     7
100
AcDbLine
 10
-3247.496991701583
 20
-568.9157922467848
 30
0.0
 11
-3267.559921701582
 21
-603.6657922467847
 31
0.0
  0
LINE
  5
6C89
330
1E
100
AcDbEntity
  8
躯体と製品
  6
Continuous
 62
     7
100
AcDbLine
 10
-3248.175401701583
 20
-567.6657922467848
 30
0.0
 11
-3198.296991701583
 21
-567.6657922467848
 31
0.0
  0
LINE
  5
6C8A
330
1E
100
AcDbEntity
  8
躯体と製品
  6
Continuous
 62
     7
100
AcDbLine
 10
-3252.296991701583
 20
-536.9500622467849
 30
0.0
 11
-3272.296991701582
 21
-556.9500622467849
 31
0.0
  0
LINE
  5
6C8B
330
1E
100
AcDbEntity
  8
躯体と製品
  6
Continuous
 62
     7
100
AcDbLine
 10
-3252.296991701583
 20
-534.1216322467853
 30
0.0
 11
-3272.296991701582
 21
-554.1216322467853
 31
0.0
  0
LINE
  5
6C8C
330
1E
100
AcDbEntity
  8
躯体と製品
  6
Continuous
 62
     7
100
AcDbLine
 10
-3252.296991701583
 20
-535.5358422467852
 30
0.0
 11
-3272.296991701582
 21
-555.5358422467852
 31
0.0
  0
LINE
  5
6C8D
330
1E
100
AcDbEntity
  8
躯体と製品
  6
Continuous
 62
     7
100
AcDbLine
 10
-3252.296991701583
 20
-551.0921922467851
 30
0.0
 11
-3272.296991701582
 21
-571.0921922467851
 31
0.0
  0
LINE
  5
6C8E
330
1E
100
AcDbEntity
  8
躯体と製品
  6
Continuous
 62
     7
100
AcDbLine
 10
-3252.296991701583
 20
-548.2637722467853
 30
0.0
 11
-3272.296991701582
 21
-568.2637722467852
 31
0.0
  0
LINE
  5
6C8F
330
1E
100
AcDbEntity
  8
躯体と製品
  6
Continuous
 62
     7
100
AcDbLine
 10
-3252.296991701583
 20
-549.6779822467852
 30
0.0
 11
-3272.296991701582
 21
-569.6779822467852
 31
0.0
  0
LINE
  5
6C90
330
1E
100
AcDbEntity
  8
躯体と製品
  6
Continuous
 62
     7
100
AcDbLine
 10
-3252.296991701583
 20
-518.6657922467848
 30
0.0
 11
-3252.296991701583
 21
-598.6657922467848
 31
0.0
  0
LINE
  5
6C91
330
1E
100
AcDbEntity
  8
躯体と製品
  6
Continuous
 62
     7
100
AcDbLine
 10
-3248.296991701583
 20
-518.6657922467848
 30
0.0
 11
-3248.296991701583
 21
-598.6657922467848
 31
0.0
  0
TEXT
  5
6C92
330
1E
100
AcDbEntity
  8
文字-記号
 62
     7
100
AcDbText
 10
-3298.345381701583
 20
-613.0058522467852
 30
0.0
 40
3.0
  1
断熱材打ち込みの場合
 41
0.8
  7
ACAD
100
AcDbText
  0
LINE
  5
6C93
330
1E
100
AcDbEntity
  8
文字-記号
  6
Continuous
 62
     7
100
AcDbLine
 10
-3268.730751701582
 20
-613.6657922467848
 30
0.0
 11
-3298.830748701583
 21
-613.6657922467848
 31
0.0
  0
LINE
  5
6C94
330
1E
100
AcDbEntity
  8
躯体と製品
  6
Continuous
 62
     7
100
AcDbLine
 10
-3248.136991701583
 20
-553.4734122467853
 30
0.0
 11
-3248.136991701583
 21
-552.3257922467847
 31
0.0
  0
LINE
  5
6C95
330
1E
100
AcDbEntity
  8
躯体と製品
  6
Continuous
 62
     7
100
AcDbLine
 10
-3248.296991701583
 20
-553.5657922467853
 30
0.0
 11
-3248.156991701583
 21
-553.6466222467852
 31
0.0
  0
LINE
  5
6C96
330
1E
100
AcDbEntity
  8
躯体と製品
  6
Continuous
 62
     7
100
AcDbLine
 10
-3247.996991701582
 20
-553.5542422467852
 30
0.0
 11
-3248.136991701583
 21
-553.4734122467853
 31
0.0
  0
CIRCLE
  5
6C97
330
1E
100
AcDbEntity
  8
躯体と製品
  6
Continuous
 62
     7
100
AcDbCircle
 10
-3250.444411701583
 20
-554.2112022467854
 30
0.0
 40
0.2
  0
CIRCLE
  5
6C98
330
1E
100
AcDbEntity
  8
躯体と製品
  6
Continuous
 62
     7
100
AcDbCircle
 10
-3251.102781701582
 20
-552.894472246785
 30
0.0
 40
0.2
  0
CIRCLE
  5
6C99
330
1E
100
AcDbEntity
  8
躯体と製品
  6
Continuous
 62
     7
100
AcDbCircle
 10
-3249.245251701583
 20
-552.5182622467846
 30
0.0
 40
0.2
  0
CIRCLE
  5
6C9A
330
1E
100
AcDbEntity
  8
躯体と製品
  6
Continuous
 62
     7
100
AcDbCircle
 10
-3249.080661701582
 20
-554.8225422467849
 30
0.0
 40
0.2
  0
LINE
  5
6C9B
330
1E
100
AcDbEntity
  8
躯体と製品
  6
Continuous
 62
     7
100
AcDbLine
 10
-3252.296991701583
 20
-558.967302246785
 30
0.0
 11
-3252.598511701583
 21
-558.6657922467848
 31
0.0
  0
CIRCLE
  5
6C9C
330
1E
100
AcDbEntity
  8
躯体と製品
  6
Continuous
 62
     7
100
AcDbCircle
 10
-3251.984831701583
 20
-559.7139122467852
 30
0.0
 40
0.2
  0
CIRCLE
  5
6C9D
330
1E
100
AcDbEntity
  8
躯体と製品
  6
Continuous
 62
     7
100
AcDbCircle
 10
-3250.860681701583
 20
-560.821022246785
 30
0.0
 40
0.2
  0
CIRCLE
  5
6C9E
330
1E
100
AcDbEntity
  8
躯体と製品
  6
Continuous
 62
     7
100
AcDbCircle
 10
-3251.596551701583
 20
-557.3854622467852
 30
0.0
 40
0.2
  0
CIRCLE
  5
6C9F
330
1E
100
AcDbEntity
  8
躯体と製品
  6
Continuous
 62
     7
100
AcDbCircle
 10
-3251.502501701583
 20
-555.716042246785
 30
0.0
 40
0.2
  0
CIRCLE
  5
6CA0
330
1E
100
AcDbEntity
  8
躯体と製品
  6
Continuous
 62
     7
100
AcDbCircle
 10
-3249.151191701583
 20
-556.6565622467851
 30
0.0
 40
0.2
  0
LINE
  5
6CA1
330
1E
100
AcDbEntity
  8
躯体と製品
  6
Continuous
 62
     7
100
AcDbLine
 10
-3248.296991701583
 20
-563.7657922467851
 30
0.0
 11
-3248.156991701583
 21
-563.6849622467853
 31
0.0
  0
LINE
  5
6CA2
330
1E
100
AcDbEntity
  8
躯体と製品
  6
Continuous
 62
     7
100
AcDbLine
 10
-3248.136991701583
 20
-565.0057922467849
 30
0.0
 11
-3248.136991701583
 21
-563.8581622467854
 31
0.0
  0
LINE
  5
6CA3
330
1E
100
AcDbEntity
  8
躯体と製品
  6
Continuous
 62
     7
100
AcDbLine
 10
-3248.136991701583
 20
-563.8581622467854
 30
0.0
 11
-3247.996991701582
 21
-563.7773322467847
 31
0.0
  0
ARC
  5
6CA4
330
1E
100
AcDbEntity
  8
躯体と製品
  6
Continuous
 62
     7
100
AcDbCircle
 10
-3252.296991701583
 20
-558.6657922467848
 30
0.0
 40
8.0
100
AcDbArc
 50
270.0
 51
284.4775100000092
  0
CIRCLE
  5
6CA5
330
1E
100
AcDbEntity
  8
躯体と製品
  6
Continuous
 62
     7
100
AcDbCircle
 10
-3250.945841701583
 20
-565.4709122467847
 30
0.0
 40
0.2
  0
CIRCLE
  5
6CA6
330
1E
100
AcDbEntity
  8
躯体と製品
  6
Continuous
 62
     7
100
AcDbCircle
 10
-3251.831531701583
 20
-562.933062246785
 30
0.0
 40
0.2
  0
CIRCLE
  5
6CA7
330
1E
100
AcDbEntity
  8
躯体と製品
  6
Continuous
 62
     7
100
AcDbCircle
 10
-3251.524951701583
 20
-561.6896922467849
 30
0.0
 40
0.2
  0
CIRCLE
  5
6CA8
330
1E
100
AcDbEntity
  8
躯体と製品
  6
Continuous
 62
     7
100
AcDbCircle
 10
-3251.252431701583
 20
-563.2055822467854
 30
0.0
 40
0.2
  0
CIRCLE
  5
6CA9
330
1E
100
AcDbEntity
  8
躯体と製品
  6
Continuous
 62
     7
100
AcDbCircle
 10
-3251.746371701583
 20
-565.4198222467848
 30
0.0
 40
0.2
  0
LINE
  5
6CAA
330
1E
100
AcDbEntity
  8
躯体と製品
  6
Continuous
 62
     7
100
AcDbLine
 10
-3248.156991701583
 20
-553.6466222467852
 30
0.0
 11
-3248.156991701583
 21
-563.6849622467853
 31
0.0
  0
LINE
  5
6CAB
330
1E
100
AcDbEntity
  8
躯体と製品
  6
Continuous
 62
     7
100
AcDbLine
 10
-3247.996991701582
 20
-563.7773322467847
 30
0.0
 11
-3247.996991701582
 21
-553.5542422467852
 31
0.0
  0
LINE
  5
6CAC
330
1E
100
AcDbEntity
  8
躯体と製品
  6
Continuous
 62
     7
100
AcDbLine
 10
-3254.823911701583
 20
-558.6657922467848
 30
0.0
 11
-3256.296991701583
 21
-560.1388722467854
 31
0.0
  0
LINE
  5
6CAD
330
1E
100
AcDbEntity
  8
躯体と製品
  6
Continuous
 62
     7
100
AcDbLine
 10
-3256.238121701583
 20
-558.6657922467848
 30
0.0
 11
-3256.296991701583
 21
-558.7246622467846
 31
0.0
  0
LINE
  5
6CAE
330
1E
100
AcDbEntity
  8
躯体と製品
  6
Continuous
 62
     7
100
AcDbLine
 10
-3253.409691701583
 20
-558.6657922467848
 30
0.0
 11
-3256.296991701583
 21
-561.5530922467851
 31
0.0
  0
LINE
  5
6CAF
330
1E
100
AcDbEntity
  8
躯体と製品
  6
Continuous
 62
     7
100
AcDbLine
 10
-3252.296991701583
 20
-561.7957322467855
 30
0.0
 11
-3256.296991701583
 21
-565.7957322467855
 31
0.0
  0
LINE
  5
6CB0
330
1E
100
AcDbEntity
  8
躯体と製品
  6
Continuous
 62
     7
100
AcDbLine
 10
-3252.296991701583
 20
-560.3815222467846
 30
0.0
 11
-3256.296991701583
 21
-564.3815222467846
 31
0.0
  0
LINE
  5
6CB1
330
1E
100
AcDbEntity
  8
躯体と製品
  6
Continuous
 62
     7
100
AcDbLine
 10
-3252.296991701583
 20
-558.967302246785
 30
0.0
 11
-3256.296991701583
 21
-562.967302246785
 31
0.0
  0
LINE
  5
6CB2
330
1E
100
AcDbEntity
  8
躯体と製品
  6
Continuous
 62
     7
100
AcDbLine
 10
-3252.296991701583
 20
-566.038372246785
 30
0.0
 11
-3256.296991701583
 21
-562.038372246785
 31
0.0
  0
LINE
  5
6CB3
330
1E
100
AcDbEntity
  8
躯体と製品
  6
Continuous
 62
     7
100
AcDbLine
 10
-3252.296991701583
 20
-564.6241622467851
 30
0.0
 11
-3256.296991701583
 21
-560.6241622467851
 31
0.0
  0
LINE
  5
6CB4
330
1E
100
AcDbEntity
  8
躯体と製品
  6
Continuous
 62
     7
100
AcDbLine
 10
-3252.296991701583
 20
-563.2099422467854
 30
0.0
 11
-3256.296991701583
 21
-559.2099422467854
 31
0.0
  0
LINE
  5
6CB5
330
1E
100
AcDbEntity
  8
躯体と製品
  6
Continuous
 62
     7
100
AcDbLine
 10
-3252.296991701583
 20
-561.7957322467855
 30
0.0
 11
-3255.426941701582
 21
-558.6657922467848
 31
0.0
  0
LINE
  5
6CB6
330
1E
100
AcDbEntity
  8
躯体と製品
  6
Continuous
 62
     7
100
AcDbLine
 10
-3252.296991701583
 20
-560.3815222467846
 30
0.0
 11
-3254.012721701582
 21
-558.6657922467848
 31
0.0
  0
LINE
  5
6CB7
330
1E
100
AcDbEntity
  8
躯体と製品
  6
Continuous
 62
     7
100
AcDbLine
 10
-3247.996991701582
 20
-558.1657922467847
 30
0.0
 11
-3259.370591701582
 21
-558.1657922467847
 31
0.0
  0
LINE
  5
6CB8
330
1E
100
AcDbEntity
  8
躯体と製品
  6
Continuous
 62
     7
100
AcDbLine
 10
-3247.996991701582
 20
-559.1657922467848
 30
0.0
 11
-3260.370591701583
 21
-559.1657922467848
 31
0.0
  0
ARC
  5
6CB9
330
1E
100
AcDbEntity
  8
躯体と製品
  6
Continuous
 62
     7
100
AcDbCircle
 10
-3252.296991701583
 20
-582.6657922467847
 30
0.0
 40
8.0
100
AcDbArc
 50
75.52248799998799
 51
90.0
  0
CIRCLE
  5
6CBA
330
1E
100
AcDbEntity
  8
躯体と製品
  6
Continuous
 62
     7
100
AcDbCircle
 10
-3251.644181701582
 20
-575.8778122467847
 30
0.0
 40
0.2
  0
CIRCLE
  5
6CBB
330
1E
100
AcDbEntity
  8
躯体と製品
  6
Continuous
 62
     7
100
AcDbCircle
 10
-3250.979911701583
 20
-578.1942422467855
 30
0.0
 40
0.2
  0
CIRCLE
  5
6CBC
330
1E
100
AcDbEntity
  8
躯体と製品
  6
Continuous
 62
     7
100
AcDbCircle
 10
-3251.678241701583
 20
-580.595832246785
 30
0.0
 40
0.2
  0
CIRCLE
  5
6CBD
330
1E
100
AcDbEntity
  8
躯体と製品
  6
Continuous
 62
     7
100
AcDbCircle
 10
-3251.678241701583
 20
-583.7979522467849
 30
0.0
 40
0.2
  0
CIRCLE
  5
6CBE
330
1E
100
AcDbEntity
  8
躯体と製品
  6
Continuous
 62
     7
100
AcDbCircle
 10
-3250.707381701583
 20
-581.6518522467849
 30
0.0
 40
0.2
  0
LINE
  5
6CBF
330
1E
100
AcDbEntity
  8
躯体と製品
  6
Continuous
 62
     7
100
AcDbLine
 10
-3252.296991701583
 20
-588.660132246785
 30
0.0
 11
-3252.302651701582
 21
-588.6657922467848
 31
0.0
  0
CIRCLE
  5
6CC0
330
1E
100
AcDbEntity
  8
躯体と製品
  6
Continuous
 62
     7
100
AcDbCircle
 10
-3250.860681701583
 20
-585.3819822467849
 30
0.0
 40
0.2
  0
CIRCLE
  5
6CC1
330
1E
100
AcDbEntity
  8
躯体と製品
  6
Continuous
 62
     7
100
AcDbCircle
 10
-3251.814501701583
 20
-587.4599622467849
 30
0.0
 40
0.2
  0
CIRCLE
  5
6CC2
330
1E
100
AcDbEntity
  8
躯体と製品
  6
Continuous
 62
     7
100
AcDbCircle
 10
-3251.082101701582
 20
-590.0489122467852
 30
0.0
 40
0.2
  0
CIRCLE
  5
6CC3
330
1E
100
AcDbEntity
  8
文字-記号
  6
Continuous
 62
     7
100
AcDbCircle
 10
-3254.296991701583
 20
-588.6657922467848
 30
0.0
 40
0.3
  0
LINE
  5
6CC4
330
1E
100
AcDbEntity
  8
躯体と製品
  6
Continuous
 62
     7
100
AcDbLine
 10
-3252.296991701583
 20
-584.4231522467853
 30
0.0
 11
-3256.296991701583
 21
-588.4231522467853
 31
0.0
  0
LINE
  5
6CC5
330
1E
100
AcDbEntity
  8
躯体と製品
  6
Continuous
 62
     7
100
AcDbLine
 10
-3252.296991701583
 20
-583.0089322467848
 30
0.0
 11
-3256.296991701583
 21
-587.0089322467847
 31
0.0
  0
LINE
  5
6CC6
330
1E
100
AcDbEntity
  8
躯体と製品
  6
Continuous
 62
     7
100
AcDbLine
 10
-3252.296991701583
 20
-581.5947222467848
 30
0.0
 11
-3256.296991701583
 21
-585.5947222467848
 31
0.0
  0
LINE
  5
6CC7
330
1E
100
AcDbEntity
  8
躯体と製品
  6
Continuous
 62
     7
100
AcDbLine
 10
-3252.296991701583
 20
-580.1805122467849
 30
0.0
 11
-3256.296991701583
 21
-584.1805122467849
 31
0.0
  0
LINE
  5
6CC8
330
1E
100
AcDbEntity
  8
躯体と製品
  6
Continuous
 62
     7
100
AcDbLine
 10
-3252.296991701583
 20
-578.7662922467852
 30
0.0
 11
-3256.296991701583
 21
-582.7662922467852
 31
0.0
  0
LINE
  5
6CC9
330
1E
100
AcDbEntity
  8
躯体と製品
  6
Continuous
 62
     7
100
AcDbLine
 10
-3252.296991701583
 20
-577.3520822467853
 30
0.0
 11
-3256.296991701583
 21
-581.3520822467853
 31
0.0
  0
LINE
  5
6CCA
330
1E
100
AcDbEntity
  8
躯体と製品
  6
Continuous
 62
     7
100
AcDbLine
 10
-3252.296991701583
 20
-575.9378622467847
 30
0.0
 11
-3256.296991701583
 21
-579.9378622467847
 31
0.0
  0
LINE
  5
6CCB
330
1E
100
AcDbEntity
  8
躯体と製品
  6
Continuous
 62
     7
100
AcDbLine
 10
-3252.296991701583
 20
-574.5236522467848
 30
0.0
 11
-3256.296991701583
 21
-578.5236522467848
 31
0.0
  0
LINE
  5
6CCC
330
1E
100
AcDbEntity
  8
躯体と製品
  6
Continuous
 62
     7
100
AcDbLine
 10
-3252.296991701583
 20
-573.1094422467849
 30
0.0
 11
-3256.296991701583
 21
-577.1094422467849
 31
0.0
  0
LINE
  5
6CCD
330
1E
100
AcDbEntity
  8
躯体と製品
  6
Continuous
 62
     7
100
AcDbLine
 10
-3252.296991701583
 20
-571.6952222467853
 30
0.0
 11
-3256.296991701583
 21
-575.6952222467853
 31
0.0
  0
LINE
  5
6CCE
330
1E
100
AcDbEntity
  8
躯体と製品
  6
Continuous
 62
     7
100
AcDbLine
 10
-3252.296991701583
 20
-570.2810122467854
 30
0.0
 11
-3256.296991701583
 21
-574.2810122467854
 31
0.0
  0
LINE
  5
6CCF
330
1E
100
AcDbEntity
  8
躯体と製品
  6
Continuous
 62
     7
100
AcDbLine
 10
-3252.296991701583
 20
-568.8668022467854
 30
0.0
 11
-3256.296991701583
 21
-572.8668022467855
 31
0.0
  0
LINE
  5
6CD0
330
1E
100
AcDbEntity
  8
躯体と製品
  6
Continuous
 62
     7
100
AcDbLine
 10
-3252.296991701583
 20
-567.4525822467849
 30
0.0
 11
-3256.296991701583
 21
-571.4525822467849
 31
0.0
  0
LINE
  5
6CD1
330
1E
100
AcDbEntity
  8
躯体と製品
  6
Continuous
 62
     7
100
AcDbLine
 10
-3256.296991701583
 20
-584.6714422467848
 30
0.0
 11
-3252.302651701582
 21
-588.6657922467848
 31
0.0
  0
LINE
  5
6CD2
330
1E
100
AcDbEntity
  8
躯体と製品
  6
Continuous
 62
     7
100
AcDbLine
 10
-3252.296991701583
 20
-587.2515722467851
 30
0.0
 11
-3256.296991701583
 21
-583.2515722467851
 31
0.0
  0
LINE
  5
6CD3
330
1E
100
AcDbEntity
  8
躯体と製品
  6
Continuous
 62
     7
100
AcDbLine
 10
-3252.296991701583
 20
-585.8373622467852
 30
0.0
 11
-3256.296991701583
 21
-581.8373622467852
 31
0.0
  0
LINE
  5
6CD4
330
1E
100
AcDbEntity
  8
躯体と製品
  6
Continuous
 62
     7
100
AcDbLine
 10
-3252.296991701583
 20
-584.4231522467853
 30
0.0
 11
-3256.296991701583
 21
-580.4231522467853
 31
0.0
  0
LINE
  5
6CD5
330
1E
100
AcDbEntity
  8
躯体と製品
  6
Continuous
 62
     7
100
AcDbLine
 10
-3252.296991701583
 20
-583.0089322467848
 30
0.0
 11
-3256.296991701583
 21
-579.0089322467848
 31
0.0
  0
LINE
  5
6CD6
330
1E
100
AcDbEntity
  8
躯体と製品
  6
Continuous
 62
     7
100
AcDbLine
 10
-3252.296991701583
 20
-581.5947222467848
 30
0.0
 11
-3256.296991701583
 21
-577.5947222467848
 31
0.0
  0
LINE
  5
6CD7
330
1E
100
AcDbEntity
  8
躯体と製品
  6
Continuous
 62
     7
100
AcDbLine
 10
-3252.296991701583
 20
-580.1805122467849
 30
0.0
 11
-3256.296991701583
 21
-576.1805122467849
 31
0.0
  0
LINE
  5
6CD8
330
1E
100
AcDbEntity
  8
躯体と製品
  6
Continuous
 62
     7
100
AcDbLine
 10
-3252.296991701583
 20
-578.7662922467852
 30
0.0
 11
-3256.296991701583
 21
-574.7662922467852
 31
0.0
  0
LINE
  5
6CD9
330
1E
100
AcDbEntity
  8
躯体と製品
  6
Continuous
 62
     7
100
AcDbLine
 10
-3252.296991701583
 20
-577.3520822467853
 30
0.0
 11
-3256.296991701583
 21
-573.3520822467853
 31
0.0
  0
LINE
  5
6CDA
330
1E
100
AcDbEntity
  8
躯体と製品
  6
Continuous
 62
     7
100
AcDbLine
 10
-3252.296991701583
 20
-575.9378622467847
 30
0.0
 11
-3256.296991701583
 21
-571.9378622467847
 31
0.0
  0
LINE
  5
6CDB
330
1E
100
AcDbEntity
  8
躯体と製品
  6
Continuous
 62
     7
100
AcDbLine
 10
-3252.296991701583
 20
-574.5236522467848
 30
0.0
 11
-3256.296991701583
 21
-570.5236522467848
 31
0.0
  0
LINE
  5
6CDC
330
1E
100
AcDbEntity
  8
躯体と製品
  6
Continuous
 62
     7
100
AcDbLine
 10
-3252.296991701583
 20
-573.1094422467849
 30
0.0
 11
-3256.296991701583
 21
-569.1094422467849
 31
0.0
  0
LINE
  5
6CDD
330
1E
100
AcDbEntity
  8
躯体と製品
  6
Continuous
 62
     7
100
AcDbLine
 10
-3252.296991701583
 20
-571.6952222467853
 30
0.0
 11
-3256.296991701583
 21
-567.6952222467853
 31
0.0
  0
LINE
  5
6CDE
330
1E
100
AcDbEntity
  8
躯体と製品
  6
Continuous
 62
     7
100
AcDbLine
 10
-3252.296991701583
 20
-585.8373622467852
 30
0.0
 11
-3256.296991701583
 21
-589.8373622467852
 31
0.0
  0
LINE
  5
6CDF
330
1E
100
AcDbEntity
  8
躯体と製品
  6
Continuous
 62
     7
100
AcDbLine
 10
-3256.296991701583
 20
-586.0800022467847
 30
0.0
 11
-3252.296991701583
 21
-590.0800022467847
 31
0.0
  0
ARC
  5
6CE0
330
1E
100
AcDbEntity
  8
躯体と製品
  6
Continuous
 62
     7
100
AcDbCircle
 10
-3252.296991701583
 20
-582.6657922467847
 30
0.0
 40
8.0
100
AcDbArc
 50
270.0
 51
284.4775100000092
  0
LINE
  5
6CE1
330
1E
100
AcDbEntity
  8
躯体と製品
  6
Continuous
 62
     7
100
AcDbLine
 10
-3256.296991701583
 20
-597.3937122467851
 30
0.0
 11
-3255.024921701583
 21
-598.6657922467848
 31
0.0
  0
LINE
  5
6CE2
330
1E
100
AcDbEntity
  8
躯体と製品
  6
Continuous
 62
     7
100
AcDbLine
 10
-3256.296991701583
 20
-595.9795022467851
 30
0.0
 11
-3253.610701701582
 21
-598.6657922467848
 31
0.0
  0
LINE
  5
6CE3
330
1E
100
AcDbEntity
  8
躯体と製品
  6
Continuous
 62
     7
100
AcDbLine
 10
-3256.296991701583
 20
-590.3226422467851
 30
0.0
 11
-3252.296991701583
 21
-594.3226422467851
 31
0.0
  0
LINE
  5
6CE4
330
1E
100
AcDbEntity
  8
躯体と製品
  6
Continuous
 62
     7
100
AcDbLine
 10
-3256.296991701583
 20
-591.736852246785
 30
0.0
 11
-3252.296991701583
 21
-595.736852246785
 31
0.0
  0
LINE
  5
6CE5
330
1E
100
AcDbEntity
  8
躯体と製品
  6
Continuous
 62
     7
100
AcDbLine
 10
-3256.296991701583
 20
-593.1510722467846
 30
0.0
 11
-3252.296991701583
 21
-597.1510722467846
 31
0.0
  0
LINE
  5
6CE6
330
1E
100
AcDbEntity
  8
躯体と製品
  6
Continuous
 62
     7
100
AcDbLine
 10
-3256.296991701583
 20
-594.5652822467855
 30
0.0
 11
-3252.296991701583
 21
-598.5652822467855
 31
0.0
  0
LINE
  5
6CE7
330
1E
100
AcDbEntity
  8
躯体と製品
  6
Continuous
 62
     7
100
AcDbLine
 10
-3252.296991701583
 20
-591.4942122467846
 30
0.0
 11
-3256.296991701583
 21
-595.4942122467846
 31
0.0
  0
LINE
  5
6CE8
330
1E
100
AcDbEntity
  8
躯体と製品
  6
Continuous
 62
     7
100
AcDbLine
 10
-3252.296991701583
 20
-592.9084322467851
 30
0.0
 11
-3256.296991701583
 21
-596.9084322467852
 31
0.0
  0
LINE
  5
6CE9
330
1E
100
AcDbEntity
  8
躯体と製品
  6
Continuous
 62
     7
100
AcDbLine
 10
-3252.296991701583
 20
-594.3226422467851
 30
0.0
 11
-3256.296991701583
 21
-598.3226422467851
 31
0.0
  0
LINE
  5
6CEA
330
1E
100
AcDbEntity
  8
躯体と製品
  6
Continuous
 62
     7
100
AcDbLine
 10
-3252.296991701583
 20
-595.736852246785
 30
0.0
 11
-3255.225931701583
 21
-598.6657922467848
 31
0.0
  0
LINE
  5
6CEB
330
1E
100
AcDbEntity
  8
躯体と製品
  6
Continuous
 62
     7
100
AcDbLine
 10
-3252.296991701583
 20
-597.1510722467846
 30
0.0
 11
-3253.811711701583
 21
-598.6657922467848
 31
0.0
  0
LINE
  5
6CEC
330
1E
100
AcDbEntity
  8
躯体と製品
  6
Continuous
 62
     7
100
AcDbLine
 10
-3252.296991701583
 20
-590.6901722467846
 30
0.0
 11
-3260.272611701583
 21
-598.6657922467848
 31
0.0
  0
LINE
  5
6CED
330
1E
100
AcDbEntity
  8
躯体と製品
  6
Continuous
 62
     7
100
AcDbLine
 10
-3252.296991701583
 20
-592.1043922467852
 30
0.0
 11
-3258.858391701583
 21
-598.6657922467848
 31
0.0
  0
LINE
  5
6CEE
330
1E
100
AcDbEntity
  8
躯体と製品
  6
Continuous
 62
     7
100
AcDbLine
 10
-3252.296991701583
 20
-593.5186022467851
 30
0.0
 11
-3257.444181701583
 21
-598.6657922467848
 31
0.0
  0
LINE
  5
6CEF
330
1E
100
AcDbEntity
  8
躯体と製品
  6
Continuous
 62
     7
100
AcDbLine
 10
-3252.296991701583
 20
-587.2515722467851
 30
0.0
 11
-3256.296991701583
 21
-591.2515722467851
 31
0.0
  0
LINE
  5
6CF0
330
1E
100
AcDbEntity
  8
躯体と製品
  6
Continuous
 62
     7
100
AcDbLine
 10
-3256.296991701583
 20
-587.4942122467846
 30
0.0
 11
-3252.296991701583
 21
-591.4942122467846
 31
0.0
  0
LINE
  5
6CF1
330
1E
100
AcDbEntity
  8
躯体と製品
  6
Continuous
 62
     7
100
AcDbLine
 10
-3256.296991701583
 20
-588.9084322467851
 30
0.0
 11
-3252.296991701583
 21
-592.9084322467851
 31
0.0
  0
LINE
  5
6CF2
330
1E
100
AcDbEntity
  8
躯体と製品
  6
Continuous
 62
     7
100
AcDbLine
 10
-3252.296991701583
 20
-588.6657922467848
 30
0.0
 11
-3256.296991701583
 21
-592.6657922467848
 31
0.0
  0
LINE
  5
6CF3
330
1E
100
AcDbEntity
  8
躯体と製品
  6
Continuous
 62
     7
100
AcDbLine
 10
-3252.296991701583
 20
-590.0800022467847
 30
0.0
 11
-3256.296991701583
 21
-594.0800022467847
 31
0.0
  0
TEXT
  5
6CF4
330
1E
100
AcDbEntity
  8
文字-記号
 62
     7
100
AcDbText
 10
-3288.162764701583
 20
-603.0058522467852
 30
0.0
 40
3.0
  1
テープ又は塗装
 41
0.8
  7
ACAD
100
AcDbText
  0
LINE
  5
6CF5
330
1E
100
AcDbEntity
  8
躯体と製品
  6
Continuous
 62
     7
100
AcDbLine
 10
-3252.296991701583
 20
-579.3764622467851
 30
0.0
 11
-3271.586321701583
 21
-598.6657922467848
 31
0.0
  0
LINE
  5
6CF6
330
1E
100
AcDbEntity
  8
躯体と製品
  6
Continuous
 62
     7
100
AcDbLine
 10
-3252.296991701583
 20
-576.5480422467853
 30
0.0
 11
-3272.296991701582
 21
-596.5480422467853
 31
0.0
  0
LINE
  5
6CF7
330
1E
100
AcDbEntity
  8
躯体と製品
  6
Continuous
 62
     7
100
AcDbLine
 10
-3252.296991701583
 20
-577.9622522467852
 30
0.0
 11
-3272.296991701582
 21
-597.9622522467852
 31
0.0
  0
LINE
  5
6CF8
330
1E
100
AcDbEntity
  8
文字-記号
  6
Continuous
 62
     7
100
AcDbLine
 10
-3267.559921701582
 20
-603.6657922467847
 30
0.0
 11
-3288.629913701583
 21
-603.6657922467847
 31
0.0
  0
LINE
  5
6CF9
330
1E
100
AcDbEntity
  8
文字-記号
  6
Continuous
 62
     7
100
AcDbLine
 10
-3254.296991701583
 20
-588.6657922467848
 30
0.0
 11
-3268.730751701582
 21
-613.6657922467848
 31
0.0
  0
LINE
  5
6CFA
330
1E
100
AcDbEntity
  8
躯体と製品
  6
Continuous
 62
     7
100
AcDbLine
 10
-3252.296991701583
 20
-565.2343322467849
 30
0.0
 11
-3272.296991701582
 21
-585.234332246785
 31
0.0
  0
LINE
  5
6CFB
330
1E
100
AcDbEntity
  8
躯体と製品
  6
Continuous
 62
     7
100
AcDbLine
 10
-3252.296991701583
 20
-562.4059022467854
 30
0.0
 11
-3272.296991701582
 21
-582.4059022467854
 31
0.0
  0
LINE
  5
6CFC
330
1E
100
AcDbEntity
  8
躯体と製品
  6
Continuous
 62
     7
100
AcDbLine
 10
-3252.296991701583
 20
-566.038372246785
 30
0.0
 11
-3256.296991701583
 21
-570.038372246785
 31
0.0
  0
LINE
  5
6CFD
330
1E
100
AcDbEntity
  8
躯体と製品
  6
Continuous
 62
     7
100
AcDbLine
 10
-3252.296991701583
 20
-564.6241622467851
 30
0.0
 11
-3256.296991701583
 21
-568.6241622467851
 31
0.0
  0
LINE
  5
6CFE
330
1E
100
AcDbEntity
  8
躯体と製品
  6
Continuous
 62
     7
100
AcDbLine
 10
-3252.296991701583
 20
-563.2099422467854
 30
0.0
 11
-3256.296991701583
 21
-567.2099422467854
 31
0.0
  0
LINE
  5
6CFF
330
1E
100
AcDbEntity
  8
躯体と製品
  6
Continuous
 62
     7
100
AcDbLine
 10
-3252.296991701583
 20
-570.2810122467854
 30
0.0
 11
-3256.296991701583
 21
-566.2810122467853
 31
0.0
  0
LINE
  5
6D00
330
1E
100
AcDbEntity
  8
躯体と製品
  6
Continuous
 62
     7
100
AcDbLine
 10
-3252.296991701583
 20
-568.8668022467854
 30
0.0
 11
-3256.296991701583
 21
-564.8668022467854
 31
0.0
  0
LINE
  5
6D01
330
1E
100
AcDbEntity
  8
躯体と製品
  6
Continuous
 62
     7
100
AcDbLine
 10
-3252.296991701583
 20
-567.4525822467849
 30
0.0
 11
-3256.296991701583
 21
-563.4525822467849
 31
0.0
  0
LINE
  5
6D02
330
1E
100
AcDbEntity
  8
躯体と製品
  6
Continuous
 62
     7
100
AcDbLine
 10
-3252.296991701583
 20
-563.820122246785
 30
0.0
 11
-3272.296991701582
 21
-583.8201222467851
 31
0.0
  0
LINE
  5
6D03
330
1E
100
AcDbEntity
  8
躯体と製品
  6
Continuous
 62
     7
100
AcDbLine
 10
-3250.296991701583
 20
-558.6657922467848
 30
0.0
 11
-3250.296991701583
 21
-598.6657922467848
 31
0.0
  0
CIRCLE
  5
6D04
330
1E
100
AcDbEntity
  8
躯体と製品
  6
Continuous
 62
     7
100
AcDbCircle
 10
-3251.643581701582
 20
-519.3413422467847
 30
0.0
 40
0.2
  0
CIRCLE
  5
6D05
330
1E
100
AcDbEntity
  8
躯体と製品
  6
Continuous
 62
     7
100
AcDbCircle
 10
-3250.185771701583
 20
-519.8821422467854
 30
0.0
 40
0.2
  0
CIRCLE
  5
6D06
330
1E
100
AcDbEntity
  8
躯体と製品
  6
Continuous
 62
     7
100
AcDbCircle
 10
-3249.574431701583
 20
-521.2223822467849
 30
0.0
 40
0.2
  0
CIRCLE
  5
6D07
330
1E
100
AcDbEntity
  8
躯体と製品
  6
Continuous
 62
     7
100
AcDbCircle
 10
-3251.220341701583
 20
-522.7272222467854
 30
0.0
 40
0.2
  0
CIRCLE
  5
6D08
330
1E
100
AcDbEntity
  8
躯体と製品
  6
Continuous
 62
     7
100
AcDbCircle
 10
-3249.809561701583
 20
-525.2666322467848
 30
0.0
 40
0.2
  0
CIRCLE
  5
6D09
330
1E
100
AcDbEntity
  8
躯体と製品
  6
Continuous
 62
     7
100
AcDbCircle
 10
-3251.079261701583
 20
-524.8904222467854
 30
0.0
 40
0.2
  0
CIRCLE
  5
6D0A
330
1E
100
AcDbEntity
  8
躯体と製品
  6
Continuous
 62
     7
100
AcDbCircle
 10
-3249.080661701582
 20
-522.8683022467849
 30
0.0
 40
0.2
  0
CIRCLE
  5
6D0B
330
1E
100
AcDbEntity
  8
躯体と製品
  6
Continuous
 62
     7
100
AcDbCircle
 10
-3251.314401701583
 20
-527.0301122467854
 30
0.0
 40
0.2
  0
CIRCLE
  5
6D0C
330
1E
100
AcDbEntity
  8
躯体と製品
  6
Continuous
 62
     7
100
AcDbCircle
 10
-3249.644971701583
 20
-530.9256622467846
 30
0.0
 40
0.2
  0
CIRCLE
  5
6D0D
330
1E
100
AcDbEntity
  8
躯体と製品
  6
Continuous
 62
     7
100
AcDbCircle
 10
-3250.961701701583
 20
-529.9927522467851
 30
0.0
 40
0.2
  0
CIRCLE
  5
6D0E
330
1E
100
AcDbEntity
  8
躯体と製品
  6
Continuous
 62
     7
100
AcDbCircle
 10
-3249.409841701583
 20
-530.8157122467846
 30
0.0
 40
0.2
  0
CIRCLE
  5
6D0F
330
1E
100
AcDbEntity
  8
躯体と製品
  6
Continuous
 62
     7
100
AcDbCircle
 10
-3251.149801701583
 20
-531.9913622467847
 30
0.0
 40
0.2
  0
CIRCLE
  5
6D10
330
1E
100
AcDbEntity
  8
躯体と製品
  6
Continuous
 62
     7
100
AcDbCircle
 10
-3248.916061701583
 20
-528.0881922467852
 30
0.0
 40
0.2
  0
CIRCLE
  5
6D11
330
1E
100
AcDbEntity
  8
躯体と製品
  6
Continuous
 62
     7
100
AcDbCircle
 10
-3249.762531701583
 20
-536.1296622467853
 30
0.0
 40
0.2
  0
CIRCLE
  5
6D12
330
1E
100
AcDbEntity
  8
躯体と製品
  6
Continuous
 62
     7
100
AcDbCircle
 10
-3250.914671701583
 20
-534.295642246785
 30
0.0
 40
0.2
  0
CIRCLE
  5
6D13
330
1E
100
AcDbEntity
  8
躯体と製品
  6
Continuous
 62
     7
100
AcDbCircle
 10
-3251.173321701582
 20
-537.1877522467848
 30
0.0
 40
0.2
  0
CIRCLE
  5
6D14
330
1E
100
AcDbEntity
  8
躯体と製品
  6
Continuous
 62
     7
100
AcDbCircle
 10
-3251.502501701583
 20
-541.0674022467847
 30
0.0
 40
0.2
  0
CIRCLE
  5
6D15
330
1E
100
AcDbEntity
  8
躯体と製品
  6
Continuous
 62
     7
100
AcDbCircle
 10
-3249.456861701582
 20
-539.672512246785
 30
0.0
 40
0.2
  0
CIRCLE
  5
6D16
330
1E
100
AcDbEntity
  8
躯体と製品
  6
Continuous
 62
     7
100
AcDbCircle
 10
-3251.408451701582
 20
-543.1600622467849
 30
0.0
 40
0.2
  0
CIRCLE
  5
6D17
330
1E
100
AcDbEntity
  8
躯体と製品
  6
Continuous
 62
     7
100
AcDbCircle
 10
-3250.232791701583
 20
-538.857172246785
 30
0.0
 40
0.2
  0
CIRCLE
  5
6D18
330
1E
100
AcDbEntity
  8
躯体と製品
  6
Continuous
 62
     7
100
AcDbCircle
 10
-3249.339301701583
 20
-541.7651822467851
 30
0.0
 40
0.2
  0
CIRCLE
  5
6D19
330
1E
100
AcDbEntity
  8
躯体と製品
  6
Continuous
 62
     7
100
AcDbCircle
 10
-3249.480381701583
 20
-544.5632322467854
 30
0.0
 40
0.2
  0
CIRCLE
  5
6D1A
330
1E
100
AcDbEntity
  8
躯体と製品
  6
Continuous
 62
     7
100
AcDbCircle
 10
-3250.797111701583
 20
-545.4408322467852
 30
0.0
 40
0.2
  0
CIRCLE
  5
6D1B
330
1E
100
AcDbEntity
  8
躯体と製品
  6
Continuous
 62
     7
100
AcDbCircle
 10
-3250.914671701583
 20
-547.7921422467852
 30
0.0
 40
0.2
  0
CIRCLE
  5
6D1C
330
1E
100
AcDbEntity
  8
躯体と製品
  6
Continuous
 62
     7
100
AcDbCircle
 10
-3251.784661701583
 20
-547.0867422467854
 30
0.0
 40
0.2
  0
CIRCLE
  5
6D1D
330
1E
100
AcDbEntity
  8
躯体と製品
  6
Continuous
 62
     7
100
AcDbCircle
 10
-3248.892551701583
 20
-546.7923822467846
 30
0.0
 40
0.2
  0
CIRCLE
  5
6D1E
330
1E
100
AcDbEntity
  8
躯体と製品
  6
Continuous
 62
     7
100
AcDbCircle
 10
-3250.656031701583
 20
-550.0493922467849
 30
0.0
 40
0.2
  0
LINE
  5
6D1F
330
1E
100
AcDbEntity
  8
躯体と製品
  6
Continuous
 62
     7
100
AcDbLine
 10
-3252.296991701583
 20
-522.8079222467849
 30
0.0
 11
-3272.296991701582
 21
-542.8079222467849
 31
0.0
  0
LINE
  5
6D20
330
1E
100
AcDbEntity
  8
躯体と製品
  6
Continuous
 62
     7
100
AcDbLine
 10
-3252.296991701583
 20
-521.393712246785
 30
0.0
 11
-3272.296991701582
 21
-541.393712246785
 31
0.0
  0
LINE
  5
6D21
330
1E
100
AcDbEntity
  8
躯体と製品
  6
Continuous
 62
     7
100
AcDbLine
 10
-3252.296991701583
 20
-519.9795022467851
 30
0.0
 11
-3272.296991701582
 21
-539.9795022467851
 31
0.0
  0
LINE
  5
6D22
330
1E
100
AcDbEntity
  8
躯体と製品
  6
Continuous
 62
     7
100
AcDbLine
 10
-3265.125421701583
 20
-518.6657922467848
 30
0.0
 11
-3272.296991701582
 21
-525.8373622467852
 31
0.0
  0
LINE
  5
6D23
330
1E
100
AcDbEntity
  8
躯体と製品
  6
Continuous
 62
     7
100
AcDbLine
 10
-3263.711211701583
 20
-518.6657922467848
 30
0.0
 11
-3272.296991701582
 21
-527.2515722467851
 31
0.0
  0
LINE
  5
6D24
330
1E
100
AcDbEntity
  8
躯体と製品
  6
Continuous
 62
     7
100
AcDbLine
 10
-3262.296991701582
 20
-518.6657922467848
 30
0.0
 11
-3272.296991701582
 21
-528.6657922467847
 31
0.0
  0
DIMENSION
  5
6D25
330
1E
100
AcDbEntity
  8
寸法
  6
Continuous
100
AcDbDimension
  2
*D6
 10
-3188.296991701583
 20
-570.1657922467847
 30
0.0
 11
-3191.382705987297
 21
-558.6657922467852
 31
0.0
 70
    32
  1
(115)
 71
     5
 42
23.0
  3
AutoCAD
100
AcDbAlignedDimension
 13
-3197.296991701583
 23
-547.1657922467848
 33
0.0
 14
-3197.296991701583
 24
-570.1657922467847
 34
0.0
 50
90.0
100
AcDbRotatedDimension
1001
ACAD
1000
DSTYLE
1002
{
1070
   147
1040
0.8
1070
   140
1040
10.0
1002
}
  0
LINE
  5
6D26
330
1E
100
AcDbEntity
  8
文字-記号
  6
Continuous
 62
     7
100
AcDbLine
 10
-3239.296991701583
 20
-563.7657922467851
 30
0.0
 11
-3223.939481701583
 21
-537.1657922467847
 31
0.0
  0
LINE
  5
6D27
330
1E
100
AcDbEntity
  8
躯体と製品
  6
Continuous
 62
     7
100
AcDbLine
 10
-3246.696991701583
 20
-570.1657922467847
 30
0.0
 11
-3198.296991701583
 21
-570.1657922467847
 31
0.0
  0
LINE
  5
6D28
330
1E
100
AcDbEntity
  8
躯体と製品
  6
Continuous
 62
     7
100
AcDbLine
 10
-3239.296991701583
 20
-552.1657922467848
 30
0.0
 11
-3239.296991701583
 21
-553.5657922467853
 31
0.0
  0
LINE
  5
6D29
330
1E
100
AcDbEntity
  8
躯体と製品
  6
Continuous
 62
     7
100
AcDbLine
 10
-3239.296991701583
 20
-553.5657922467853
 30
0.0
 11
-3240.396991701583
 21
-553.5657922467853
 31
0.0
  0
LINE
  5
6D2A
330
1E
100
AcDbEntity
  8
躯体と製品
  6
Continuous
 62
     7
100
AcDbLine
 10
-3240.396991701583
 20
-553.4057922467854
 30
0.0
 11
-3240.396991701583
 21
-553.5657922467853
 31
0.0
  0
LINE
  5
6D2B
330
1E
100
AcDbEntity
  8
躯体と製品
  6
Continuous
 62
     7
100
AcDbLine
 10
-3239.456991701582
 20
-552.3257922467847
 30
0.0
 11
-3239.456991701582
 21
-553.4057922467854
 31
0.0
  0
LINE
  5
6D2C
330
1E
100
AcDbEntity
  8
躯体と製品
  6
Continuous
 62
     7
100
AcDbLine
 10
-3239.456991701582
 20
-553.4057922467854
 30
0.0
 11
-3240.396991701583
 21
-553.4057922467854
 31
0.0
  0
LINE
  5
6D2D
330
1E
100
AcDbEntity
  8
躯体と製品
  6
Continuous
 62
     7
100
AcDbLine
 10
-3239.296991701583
 20
-563.7657922467851
 30
0.0
 11
-3239.296991701583
 21
-565.1657922467848
 31
0.0
  0
CIRCLE
  5
6D2E
330
1E
100
AcDbEntity
  8
文字-記号
  6
Continuous
 62
     7
100
AcDbCircle
 10
-3239.296991701583
 20
-563.7657922467851
 30
0.0
 40
0.3
  0
LINE
  5
6D2F
330
1E
100
AcDbEntity
  8
躯体と製品
  6
Continuous
 62
     7
100
AcDbLine
 10
-3239.296991701583
 20
-563.7657922467851
 30
0.0
 11
-3240.396991701583
 21
-563.7657922467851
 31
0.0
  0
LINE
  5
6D30
330
1E
100
AcDbEntity
  8
躯体と製品
  6
Continuous
 62
     7
100
AcDbLine
 10
-3240.396991701583
 20
-563.7657922467851
 30
0.0
 11
-3240.396991701583
 21
-563.925792246785
 31
0.0
  0
LINE
  5
6D31
330
1E
100
AcDbEntity
  8
躯体と製品
  6
Continuous
 62
     7
100
AcDbLine
 10
-3239.456991701582
 20
-565.0057922467849
 30
0.0
 11
-3239.456991701582
 21
-563.925792246785
 31
0.0
  0
LINE
  5
6D32
330
1E
100
AcDbEntity
  8
躯体と製品
  6
Continuous
 62
     7
100
AcDbLine
 10
-3239.456991701582
 20
-563.925792246785
 30
0.0
 11
-3240.396991701583
 21
-563.925792246785
 31
0.0
  0
LINE
  5
6D33
330
1E
100
AcDbEntity
  8
躯体と製品
  6
Continuous
 62
     7
100
AcDbLine
 10
-3247.196991701583
 20
-557.6657922467847
 30
0.0
 11
-3247.196991701583
 21
-559.6657922467848
 31
0.0
  0
LINE
  5
6D34
330
1E
100
AcDbEntity
  8
躯体と製品
  6
Continuous
 62
     7
100
AcDbLine
 10
-3246.696991701583
 20
-567.6657922467848
 30
0.0
 11
-3246.696991701583
 21
-570.1657922467847
 31
0.0
  0
TEXT
  5
6D35
330
1E
100
AcDbEntity
  8
文字-記号
 62
     7
100
AcDbText
 10
-3247.872301701583
 20
-614.0058522467852
 30
0.0
 40
5.0
  1
目透かしの場合
 41
0.8
  7
ACAD
100
AcDbText
  0
TEXT
  5
6D36
330
1E
100
AcDbEntity
  8
文字-記号
 62
     7
100
AcDbText
 10
-3225.822251701583
 20
-526.505862246785
 30
0.0
 40
3.0
  1
テープ又は塗装
 41
0.8
  7
ACAD
100
AcDbText
  0
LINE
  5
6D37
330
1E
100
AcDbEntity
  8
文字-記号
  6
Continuous
 62
     7
100
AcDbLine
 10
-3226.246991701582
 20
-527.1657922467848
 30
0.0
 11
-3205.176991701583
 21
-527.1657922467848
 31
0.0
  0
TEXT
  5
6D38
330
1E
100
AcDbEntity
  8
文字-記号
 62
     7
100
AcDbText
 10
-3223.514761701583
 20
-536.5058322467848
 30
0.0
 40
3.0
  1
６５×４５×０．８
 41
0.8
  7
ACAD
100
AcDbText
  0
LINE
  5
6D39
330
1E
100
AcDbEntity
  8
文字-記号
  6
Continuous
 62
     7
100
AcDbLine
 10
-3223.939481701583
 20
-537.1657922467847
 30
0.0
 11
-3199.859481701583
 21
-537.1657922467847
 31
0.0
  0
LINE
  5
6D3A
330
1E
100
AcDbEntity
  8
躯体と製品
  6
Continuous
 62
     7
100
AcDbLine
 10
-3198.296991701583
 20
-547.1657922467848
 30
0.0
 11
-3246.696991701583
 21
-547.1657922467848
 31
0.0
  0
LINE
  5
6D3B
330
1E
100
AcDbEntity
  8
躯体と製品
  6
Continuous
 62
     7
100
AcDbLine
 10
-3246.696991701583
 20
-547.1657922467848
 30
0.0
 11
-3246.696991701583
 21
-549.6657922467847
 31
0.0
  0
LINE
  5
6D3C
330
1E
100
AcDbEntity
  8
文字-記号
  6
Continuous
 62
     7
100
AcDbLine
 10
-3247.496991701583
 20
-548.4157922467848
 30
0.0
 11
-3226.246991701582
 21
-527.1657922467848
 31
0.0
  0
LINE
  5
6D3D
330
1E
100
AcDbEntity
  8
文字-記号
  6
Continuous
 62
     7
100
AcDbLine
 10
-3086.867781701583
 20
-559.5313222467848
 30
0.0
 11
-3072.861261701583
 21
-535.2713222467855
 31
0.0
  0
LINE
  5
6D3E
330
1E
100
AcDbEntity
  8
文字-記号
  6
Continuous
 62
     7
100
AcDbLine
 10
-3095.067781701583
 20
-546.6013222467855
 30
0.0
 11
-3073.737781701583
 21
-525.2713222467855
 31
0.0
  0
LINE
  5
6D3F
330
1E
100
AcDbEntity
  8
躯体と製品
  6
Continuous
 62
     7
100
AcDbLine
 10
-3045.867781701583
 20
-545.2713222467855
 30
0.0
 11
-3094.267781701582
 21
-545.2713222467855
 31
0.0
  0
LINE
  5
6D40
330
1E
100
AcDbEntity
  8
躯体と製品
  6
Continuous
 62
     7
100
AcDbLine
 10
-3094.267781701582
 20
-563.2713222467855
 30
0.0
 11
-3045.867781701583
 21
-563.2713222467855
 31
0.0
  0
LINE
  5
6D41
330
1E
100
AcDbEntity
  8
躯体と製品
  6
Continuous
 62
     7
100
AcDbLine
 10
-3095.867781701583
 20
-547.9313222467854
 30
0.0
 11
-3045.867781701583
 21
-547.9313222467854
 31
0.0
  0
LINE
  5
6D42
330
1E
100
AcDbEntity
  8
躯体と製品
  6
Continuous
 62
     7
100
AcDbLine
 10
-3095.867781701583
 20
-560.9313222467854
 30
0.0
 11
-3045.867781701583
 21
-560.9313222467854
 31
0.0
  0
LINE
  5
6D43
330
1E
100
AcDbEntity
  8
躯体と製品
  6
CENTER2
 62
     7
100
AcDbLine
 10
-3119.867781701583
 20
-554.4313222467853
 30
0.0
 11
-3045.867781701583
 21
-554.4313222467853
 31
0.0
  0
TEXT
  5
6D44
330
1E
100
AcDbEntity
  8
文字-記号
 62
     7
100
AcDbText
 10
-3095.447411701583
 20
-610.0250222467848
 30
0.0
 40
5.0
  1
目透かしの場合
 41
0.8
  7
ACAD
100
AcDbText
  0
LINE
  5
6D45
330
1E
100
AcDbEntity
  8
躯体と製品
  6
Continuous
 62
     7
100
AcDbLine
 10
-3095.727781701583
 20
-549.4121422467851
 30
0.0
 11
-3095.727781701583
 21
-559.4504922467849
 31
0.0
  0
LINE
  5
6D46
330
1E
100
AcDbEntity
  8
躯体と製品
  6
Continuous
 62
     7
100
AcDbLine
 10
-3095.567781701582
 20
-559.5428622467852
 30
0.0
 11
-3095.567781701582
 21
-549.3197722467848
 31
0.0
  0
LINE
  5
6D47
330
1E
100
AcDbEntity
  8
躯体と製品
  6
Continuous
 62
     7
100
AcDbLine
 10
-3099.867781701583
 20
-532.7155922467855
 30
0.0
 11
-3119.867781701583
 21
-552.7155922467854
 31
0.0
  0
LINE
  5
6D48
330
1E
100
AcDbEntity
  8
躯体と製品
  6
Continuous
 62
     7
100
AcDbLine
 10
-3099.867781701583
 20
-546.8577222467847
 30
0.0
 11
-3119.867781701583
 21
-566.8577222467847
 31
0.0
  0
LINE
  5
6D49
330
1E
100
AcDbEntity
  8
躯体と製品
  6
Continuous
 62
     7
100
AcDbLine
 10
-3099.867781701583
 20
-544.0293022467849
 30
0.0
 11
-3119.867781701583
 21
-564.0293022467849
 31
0.0
  0
LINE
  5
6D4A
330
1E
100
AcDbEntity
  8
躯体と製品
  6
Continuous
 62
     7
100
AcDbLine
 10
-3099.867781701583
 20
-545.4435122467848
 30
0.0
 11
-3119.867781701583
 21
-565.4435122467848
 31
0.0
  0
LINE
  5
6D4B
330
1E
100
AcDbEntity
  8
躯体と製品
  6
Continuous
 62
     7
100
AcDbLine
 10
-3099.867781701583
 20
-514.4313222467854
 30
0.0
 11
-3099.867781701583
 21
-594.4313122467847
 31
0.0
  0
LINE
  5
6D4C
330
1E
100
AcDbEntity
  8
躯体と製品
  6
Continuous
 62
     7
100
AcDbLine
 10
-3095.867781701583
 20
-514.4313222467854
 30
0.0
 11
-3095.867781701583
 21
-594.4313122467847
 31
0.0
  0
TEXT
  5
6D4D
330
1E
100
AcDbEntity
  8
文字-記号
 62
     7
100
AcDbText
 10
-3137.227441701583
 20
-599.0250222467848
 30
0.0
 40
3.0
  1
テープ又は塗装
 41
0.8
  7
ACAD
100
AcDbText
  0
LINE
  5
6D4E
330
1E
100
AcDbEntity
  8
文字-記号
  6
Continuous
 62
     7
100
AcDbLine
 10
-3116.620261701582
 20
-599.4313122467847
 30
0.0
 11
-3137.690261701583
 21
-599.4313122467847
 31
0.0
  0
TEXT
  5
6D4F
330
1E
100
AcDbEntity
  8
文字-記号
 62
     7
100
AcDbText
 10
-3145.920521701583
 20
-609.0250322467855
 30
0.0
 40
3.0
  1
断熱材打ち込みの場合
 41
0.8
  7
ACAD
100
AcDbText
  0
LINE
  5
6D50
330
1E
100
AcDbEntity
  8
文字-記号
  6
Continuous
 62
     7
100
AcDbLine
 10
-3116.301541701583
 20
-609.4313122467847
 30
0.0
 11
-3146.401531701583
 21
-609.4313122467847
 31
0.0
  0
DIMENSION
  5
6D51
330
1E
100
AcDbEntity
  8
寸法
  6
Continuous
100
AcDbDimension
  2
*D7
 10
-3095.867781701583
 20
-575.187604827581
 30
0.0
 11
-3089.182067415868
 21
-575.187604827581
 31
0.0
 70
   160
  1
(8)
 71
     5
 42
1.599999999999909
  3
AutoCAD
100
AcDbAlignedDimension
 13
-3094.267781701582
 23
-564.2713222467855
 33
0.0
 14
-3095.867781701583
 24
-573.2713222467855
 34
0.0
100
AcDbRotatedDimension
1001
ACAD
1000
DSTYLE
1002
{
1070
   147
1040
0.8
1070
   140
1040
10.0
1002
}
  0
LINE
  5
6D52
330
1E
100
AcDbEntity
  8
躯体と製品
  6
Continuous
 62
     7
100
AcDbLine
 10
-3086.867781701583
 20
-559.5313222467848
 30
0.0
 11
-3086.867781701583
 21
-560.9313222467854
 31
0.0
  0
CIRCLE
  5
6D53
330
1E
100
AcDbEntity
  8
文字-記号
  6
Continuous
 62
     7
100
AcDbCircle
 10
-3086.867781701583
 20
-559.5313222467848
 30
0.0
 40
0.3
  0
LINE
  5
6D54
330
1E
100
AcDbEntity
  8
躯体と製品
  6
Continuous
 62
     7
100
AcDbLine
 10
-3086.867781701583
 20
-559.5313222467848
 30
0.0
 11
-3087.967781701583
 21
-559.5313222467848
 31
0.0
  0
LINE
  5
6D55
330
1E
100
AcDbEntity
  8
躯体と製品
  6
Continuous
 62
     7
100
AcDbLine
 10
-3087.967781701583
 20
-559.5313222467848
 30
0.0
 11
-3087.967781701583
 21
-559.6913222467846
 31
0.0
  0
LINE
  5
6D56
330
1E
100
AcDbEntity
  8
躯体と製品
  6
Continuous
 62
     7
100
AcDbLine
 10
-3087.027781701582
 20
-560.7713222467855
 30
0.0
 11
-3087.027781701582
 21
-559.6913222467846
 31
0.0
  0
LINE
  5
6D57
330
1E
100
AcDbEntity
  8
躯体と製品
  6
Continuous
 62
     7
100
AcDbLine
 10
-3087.027781701582
 20
-559.6913222467846
 30
0.0
 11
-3087.967781701583
 21
-559.6913222467846
 31
0.0
  0
CIRCLE
  5
6D58
330
1E
100
AcDbEntity
  8
躯体と製品
  6
Continuous
 62
     7
100
AcDbCircle
 10
-3096.721981701583
 20
-552.4220922467848
 30
0.0
 40
0.2
  0
LINE
  5
6D59
330
1E
100
AcDbEntity
  8
躯体と製品
  6
Continuous
 62
     7
100
AcDbLine
 10
-3095.567781701582
 20
-553.4313222467853
 30
0.0
 11
-3094.767781701583
 21
-553.4313222467853
 31
0.0
  0
LINE
  5
6D5A
330
1E
100
AcDbEntity
  8
躯体と製品
  6
Continuous
 62
     7
100
AcDbLine
 10
-3094.767781701583
 20
-553.4313222467853
 30
0.0
 11
-3094.767781701583
 21
-555.4313222467853
 31
0.0
  0
LINE
  5
6D5B
330
1E
100
AcDbEntity
  8
躯体と製品
  6
Continuous
 62
     7
100
AcDbLine
 10
-3094.767781701583
 20
-555.4313222467853
 30
0.0
 11
-3095.567781701582
 21
-555.4313222467853
 31
0.0
  0
LINE
  5
6D5C
330
1E
100
AcDbEntity
  8
躯体と製品
  6
Continuous
 62
     7
100
AcDbLine
 10
-3099.867781701583
 20
-554.7328322467847
 30
0.0
 11
-3100.169291701583
 21
-554.4313222467853
 31
0.0
  0
CIRCLE
  5
6D5D
330
1E
100
AcDbEntity
  8
躯体と製品
  6
Continuous
 62
     7
100
AcDbCircle
 10
-3099.167341701583
 20
-553.1509922467848
 30
0.0
 40
0.2
  0
LINE
  5
6D5E
330
1E
100
AcDbEntity
  8
躯体と製品
  6
Continuous
 62
     7
100
AcDbLine
 10
-3103.808901701583
 20
-554.4313222467853
 30
0.0
 11
-3103.867781701583
 21
-554.4901922467852
 31
0.0
  0
LINE
  5
6D5F
330
1E
100
AcDbEntity
  8
躯体と製品
  6
Continuous
 62
     7
100
AcDbLine
 10
-3095.867781701583
 20
-559.5313222467848
 30
0.0
 11
-3095.727781701583
 21
-559.4504922467849
 31
0.0
  0
LINE
  5
6D60
330
1E
100
AcDbEntity
  8
躯体と製品
  6
Continuous
 62
     7
100
AcDbLine
 10
-3095.707781701583
 20
-560.7713222467855
 30
0.0
 11
-3095.707781701583
 21
-559.6236922467851
 31
0.0
  0
LINE
  5
6D61
330
1E
100
AcDbEntity
  8
躯体と製品
  6
Continuous
 62
     7
100
AcDbLine
 10
-3095.707781701583
 20
-559.6236922467851
 30
0.0
 11
-3095.567781701582
 21
-559.5428622467852
 31
0.0
  0
CIRCLE
  5
6D62
330
1E
100
AcDbEntity
  8
文字-記号
  6
Continuous
 62
     7
100
AcDbCircle
 10
-3095.067781701583
 20
-562.2613222467853
 30
0.0
 40
0.3
  0
LINE
  5
6D63
330
1E
100
AcDbEntity
  8
躯体と製品
  6
Continuous
 62
     7
100
AcDbLine
 10
-3094.267781701582
 20
-560.9313222467854
 30
0.0
 11
-3094.267781701582
 21
-563.2713222467855
 31
0.0
  0
CIRCLE
  5
6D64
330
1E
100
AcDbEntity
  8
躯体と製品
  6
Continuous
 62
     7
100
AcDbCircle
 10
-3099.402321701583
 20
-558.6985922467847
 30
0.0
 40
0.2
  0
CIRCLE
  5
6D65
330
1E
100
AcDbEntity
  8
躯体と製品
  6
Continuous
 62
     7
100
AcDbCircle
 10
-3098.431461701583
 20
-556.5865522467848
 30
0.0
 40
0.2
  0
CIRCLE
  5
6D66
330
1E
100
AcDbEntity
  8
躯体と製品
  6
Continuous
 62
     7
100
AcDbCircle
 10
-3099.095731701583
 20
-557.4552122467848
 30
0.0
 40
0.2
  0
CIRCLE
  5
6D67
330
1E
100
AcDbEntity
  8
躯体と製品
  6
Continuous
 62
     7
100
AcDbCircle
 10
-3098.823211701583
 20
-558.9711122467852
 30
0.0
 40
0.2
  0
LINE
  5
6D68
330
1E
100
AcDbEntity
  8
躯体と製品
  6
Continuous
 62
     7
100
AcDbLine
 10
-3099.867781701583
 20
-556.1470422467855
 30
0.0
 11
-3103.867781701583
 21
-560.1470422467855
 31
0.0
  0
LINE
  5
6D69
330
1E
100
AcDbEntity
  8
躯体と製品
  6
Continuous
 62
     7
100
AcDbLine
 10
-3099.867781701583
 20
-560.3896922467847
 30
0.0
 11
-3103.867781701583
 21
-556.3896922467847
 31
0.0
  0
ARC
  5
6D6A
330
1E
100
AcDbEntity
  8
躯体と製品
  6
Continuous
 62
     7
100
AcDbCircle
 10
-3099.867781701583
 20
-554.4313222467853
 30
0.0
 40
8.0
100
AcDbArc
 50
270.0
 51
284.4775100000092
  0
LINE
  5
6D6B
330
1E
100
AcDbEntity
  8
躯体と製品
  6
Continuous
 62
     7
100
AcDbLine
 10
-3099.867781701583
 20
-561.8039022467846
 30
0.0
 11
-3103.867781701583
 21
-565.8039022467846
 31
0.0
  0
LINE
  5
6D6C
330
1E
100
AcDbEntity
  8
躯体と製品
  6
Continuous
 62
     7
100
AcDbLine
 10
-3099.867781701583
 20
-566.046542246785
 30
0.0
 11
-3103.867781701583
 21
-562.0465422467851
 31
0.0
  0
LINE
  5
6D6D
330
1E
100
AcDbEntity
  8
躯体と製品
  6
Continuous
 62
     7
100
AcDbLine
 10
-3099.867781701583
 20
-560.3896922467847
 30
0.0
 11
-3103.867781701583
 21
-564.3896922467847
 31
0.0
  0
LINE
  5
6D6E
330
1E
100
AcDbEntity
  8
躯体と製品
  6
Continuous
 62
     7
100
AcDbLine
 10
-3099.867781701583
 20
-558.975472246785
 30
0.0
 11
-3103.867781701583
 21
-562.9754722467851
 31
0.0
  0
LINE
  5
6D6F
330
1E
100
AcDbEntity
  8
躯体と製品
  6
Continuous
 62
     7
100
AcDbLine
 10
-3099.867781701583
 20
-557.5612622467851
 30
0.0
 11
-3103.867781701583
 21
-561.5612622467851
 31
0.0
  0
LINE
  5
6D70
330
1E
100
AcDbEntity
  8
躯体と製品
  6
Continuous
 62
     7
100
AcDbLine
 10
-3099.867781701583
 20
-564.6323322467851
 30
0.0
 11
-3103.867781701583
 21
-560.6323322467851
 31
0.0
  0
LINE
  5
6D71
330
1E
100
AcDbEntity
  8
躯体と製品
  6
Continuous
 62
     7
100
AcDbLine
 10
-3099.867781701583
 20
-563.2181122467854
 30
0.0
 11
-3103.867781701583
 21
-559.2181122467855
 31
0.0
  0
LINE
  5
6D72
330
1E
100
AcDbEntity
  8
躯体と製品
  6
Continuous
 62
     7
100
AcDbLine
 10
-3099.867781701583
 20
-561.8039022467846
 30
0.0
 11
-3103.867781701583
 21
-557.8039022467846
 31
0.0
  0
CIRCLE
  5
6D73
330
1E
100
AcDbEntity
  8
躯体と製品
  6
Continuous
 62
     7
100
AcDbCircle
 10
-3098.516621701583
 20
-561.2364422467853
 30
0.0
 40
0.2
  0
CIRCLE
  5
6D74
330
1E
100
AcDbEntity
  8
躯体と製品
  6
Continuous
 62
     7
100
AcDbCircle
 10
-3099.317161701583
 20
-561.1853522467854
 30
0.0
 40
0.2
  0
LINE
  5
6D75
330
1E
100
AcDbEntity
  8
躯体と製品
  6
Continuous
 62
     7
100
AcDbLine
 10
-3099.867781701583
 20
-554.7328322467847
 30
0.0
 11
-3103.867781701583
 21
-558.7328322467847
 31
0.0
  0
LINE
  5
6D76
330
1E
100
AcDbEntity
  8
躯体と製品
  6
Continuous
 62
     7
100
AcDbLine
 10
-3100.980481701583
 20
-554.4313222467853
 30
0.0
 11
-3103.867781701583
 21
-557.3186222467848
 31
0.0
  0
LINE
  5
6D77
330
1E
100
AcDbEntity
  8
躯体と製品
  6
Continuous
 62
     7
100
AcDbLine
 10
-3102.394691701583
 20
-554.4313222467853
 30
0.0
 11
-3103.867781701583
 21
-555.9044022467851
 31
0.0
  0
LINE
  5
6D78
330
1E
100
AcDbEntity
  8
躯体と製品
  6
Continuous
 62
     7
100
AcDbLine
 10
-3099.867781701583
 20
-558.975472246785
 30
0.0
 11
-3103.867781701583
 21
-554.975472246785
 31
0.0
  0
LINE
  5
6D79
330
1E
100
AcDbEntity
  8
躯体と製品
  6
Continuous
 62
     7
100
AcDbLine
 10
-3099.867781701583
 20
-557.5612622467851
 30
0.0
 11
-3102.997721701583
 21
-554.4313222467853
 31
0.0
  0
LINE
  5
6D7A
330
1E
100
AcDbEntity
  8
躯体と製品
  6
Continuous
 62
     7
100
AcDbLine
 10
-3099.867781701583
 20
-556.1470422467855
 30
0.0
 11
-3101.583511701583
 21
-554.4313222467853
 31
0.0
  0
CIRCLE
  5
6D7B
330
1E
100
AcDbEntity
  8
躯体と製品
  6
Continuous
 62
     7
100
AcDbCircle
 10
-3099.555611701583
 20
-555.4794422467848
 30
0.0
 40
0.2
  0
LINE
  5
6D7C
330
1E
100
AcDbEntity
  8
躯体と製品
  6
Continuous
 62
     7
100
AcDbLine
 10
-3087.027781701582
 20
-560.7713222467855
 30
0.0
 11
-3095.707781701583
 21
-560.7713222467855
 31
0.0
  0
LINE
  5
6D7D
330
1E
100
AcDbEntity
  8
躯体と製品
  6
Continuous
 62
     7
100
AcDbLine
 10
-3095.567781701582
 20
-553.9313222467853
 30
0.0
 11
-3106.941371701583
 21
-553.9313222467853
 31
0.0
  0
LINE
  5
6D7E
330
1E
100
AcDbEntity
  8
躯体と製品
  6
Continuous
 62
     7
100
AcDbLine
 10
-3095.567781701582
 20
-554.9313222467853
 30
0.0
 11
-3107.941371701583
 21
-554.9313222467853
 31
0.0
  0
ARC
  5
6D7F
330
1E
100
AcDbEntity
  8
躯体と製品
  6
Continuous
 62
     7
100
AcDbCircle
 10
-3099.867781701583
 20
-578.4313122467847
 30
0.0
 40
8.0
100
AcDbArc
 50
75.52248799998799
 51
90.0
  0
CIRCLE
  5
6D80
330
1E
100
AcDbEntity
  8
躯体と製品
  6
Continuous
 62
     7
100
AcDbCircle
 10
-3099.214961701583
 20
-571.6433422467853
 30
0.0
 40
0.2
  0
LINE
  5
6D81
330
1E
100
AcDbEntity
  8
躯体と製品
  6
Continuous
 62
     7
100
AcDbLine
 10
-3099.867781701583
 20
-567.460752246785
 30
0.0
 11
-3103.867781701583
 21
-571.460752246785
 31
0.0
  0
LINE
  5
6D82
330
1E
100
AcDbEntity
  8
躯体と製品
  6
Continuous
 62
     7
100
AcDbLine
 10
-3099.867781701583
 20
-571.7033922467853
 30
0.0
 11
-3103.867781701583
 21
-567.7033922467853
 31
0.0
  0
CIRCLE
  5
6D83
330
1E
100
AcDbEntity
  8
躯体と製品
  6
Continuous
 62
     7
100
AcDbCircle
 10
-3098.550691701583
 20
-573.9597722467851
 30
0.0
 40
0.2
  0
CIRCLE
  5
6D84
330
1E
100
AcDbEntity
  8
躯体と製品
  6
Continuous
 62
     7
100
AcDbCircle
 10
-3099.249031701583
 20
-576.3613622467846
 30
0.0
 40
0.2
  0
CIRCLE
  5
6D85
330
1E
100
AcDbEntity
  8
躯体と製品
  6
Continuous
 62
     7
100
AcDbCircle
 10
-3098.278171701583
 20
-577.4173822467846
 30
0.0
 40
0.2
  0
LINE
  5
6D86
330
1E
100
AcDbEntity
  8
躯体と製品
  6
Continuous
 62
     7
100
AcDbLine
 10
-3099.867781701583
 20
-574.5318222467849
 30
0.0
 11
-3103.867781701583
 21
-578.5318222467849
 31
0.0
  0
LINE
  5
6D87
330
1E
100
AcDbEntity
  8
躯体と製品
  6
Continuous
 62
     7
100
AcDbLine
 10
-3099.867781701583
 20
-573.117612246785
 30
0.0
 11
-3103.867781701583
 21
-577.117612246785
 31
0.0
  0
LINE
  5
6D88
330
1E
100
AcDbEntity
  8
躯体と製品
  6
Continuous
 62
     7
100
AcDbLine
 10
-3099.867781701583
 20
-577.3602522467854
 30
0.0
 11
-3103.867781701583
 21
-573.3602522467854
 31
0.0
  0
LINE
  5
6D89
330
1E
100
AcDbEntity
  8
躯体と製品
  6
Continuous
 62
     7
100
AcDbLine
 10
-3099.867781701583
 20
-571.7033922467853
 30
0.0
 11
-3103.867781701583
 21
-575.7033922467853
 31
0.0
  0
LINE
  5
6D8A
330
1E
100
AcDbEntity
  8
躯体と製品
  6
Continuous
 62
     7
100
AcDbLine
 10
-3099.867781701583
 20
-570.2891822467854
 30
0.0
 11
-3103.867781701583
 21
-574.2891822467854
 31
0.0
  0
LINE
  5
6D8B
330
1E
100
AcDbEntity
  8
躯体と製品
  6
Continuous
 62
     7
100
AcDbLine
 10
-3099.867781701583
 20
-568.8749722467846
 30
0.0
 11
-3103.867781701583
 21
-572.8749722467846
 31
0.0
  0
LINE
  5
6D8C
330
1E
100
AcDbEntity
  8
躯体と製品
  6
Continuous
 62
     7
100
AcDbLine
 10
-3099.867781701583
 20
-575.9460322467848
 30
0.0
 11
-3103.867781701583
 21
-571.9460322467848
 31
0.0
  0
LINE
  5
6D8D
330
1E
100
AcDbEntity
  8
躯体と製品
  6
Continuous
 62
     7
100
AcDbLine
 10
-3099.867781701583
 20
-574.5318222467849
 30
0.0
 11
-3103.867781701583
 21
-570.5318222467849
 31
0.0
  0
LINE
  5
6D8E
330
1E
100
AcDbEntity
  8
躯体と製品
  6
Continuous
 62
     7
100
AcDbLine
 10
-3099.867781701583
 20
-573.117612246785
 30
0.0
 11
-3103.867781701583
 21
-569.117612246785
 31
0.0
  0
LINE
  5
6D8F
330
1E
100
AcDbEntity
  8
躯体と製品
  6
Continuous
 62
     7
100
AcDbLine
 10
-3099.867781701583
 20
-584.4256622467846
 30
0.0
 11
-3099.873441701582
 21
-584.4313122467847
 31
0.0
  0
CIRCLE
  5
6D90
330
1E
100
AcDbEntity
  8
躯体と製品
  6
Continuous
 62
     7
100
AcDbCircle
 10
-3098.431461701583
 20
-581.1475122467855
 30
0.0
 40
0.2
  0
CIRCLE
  5
6D91
330
1E
100
AcDbEntity
  8
躯体と製品
  6
Continuous
 62
     7
100
AcDbCircle
 10
-3099.249031701583
 20
-579.5634822467855
 30
0.0
 40
0.2
  0
CIRCLE
  5
6D92
330
1E
100
AcDbEntity
  8
躯体と製品
  6
Continuous
 62
     7
100
AcDbCircle
 10
-3099.385291701583
 20
-583.2254822467848
 30
0.0
 40
0.2
  0
LINE
  5
6D93
330
1E
100
AcDbEntity
  8
躯体と製品
  6
Continuous
 62
     7
100
AcDbLine
 10
-3099.867781701583
 20
-580.1886722467852
 30
0.0
 11
-3103.867781701583
 21
-584.1886722467852
 31
0.0
  0
LINE
  5
6D94
330
1E
100
AcDbEntity
  8
躯体と製品
  6
Continuous
 62
     7
100
AcDbLine
 10
-3099.867781701583
 20
-578.7744622467853
 30
0.0
 11
-3103.867781701583
 21
-582.7744622467853
 31
0.0
  0
LINE
  5
6D95
330
1E
100
AcDbEntity
  8
躯体と製品
  6
Continuous
 62
     7
100
AcDbLine
 10
-3103.867781701583
 20
-580.4369722467854
 30
0.0
 11
-3099.873441701582
 21
-584.4313122467847
 31
0.0
  0
LINE
  5
6D96
330
1E
100
AcDbEntity
  8
躯体と製品
  6
Continuous
 62
     7
100
AcDbLine
 10
-3099.867781701583
 20
-583.0171022467848
 30
0.0
 11
-3103.867781701583
 21
-579.0171022467847
 31
0.0
  0
ARC
  5
6D97
330
1E
100
AcDbEntity
  8
躯体と製品
  6
Continuous
 62
     7
100
AcDbCircle
 10
-3099.867781701583
 20
-578.4313122467847
 30
0.0
 40
8.0
100
AcDbArc
 50
270.0
 51
284.4775100000092
  0
CIRCLE
  5
6D98
330
1E
100
AcDbEntity
  8
躯体と製品
  6
Continuous
 62
     7
100
AcDbCircle
 10
-3098.652891701583
 20
-585.8144322467851
 30
0.0
 40
0.2
  0
LINE
  5
6D99
330
1E
100
AcDbEntity
  8
躯体と製品
  6
Continuous
 62
     7
100
AcDbLine
 10
-3103.867781701583
 20
-584.6739622467849
 30
0.0
 11
-3099.867781701583
 21
-588.6739622467849
 31
0.0
  0
LINE
  5
6D9A
330
1E
100
AcDbEntity
  8
躯体と製品
  6
Continuous
 62
     7
100
AcDbLine
 10
-3103.867781701583
 20
-586.0881722467848
 30
0.0
 11
-3099.867781701583
 21
-590.0881722467848
 31
0.0
  0
LINE
  5
6D9B
330
1E
100
AcDbEntity
  8
躯体と製品
  6
Continuous
 62
     7
100
AcDbLine
 10
-3099.867781701583
 20
-585.8455322467853
 30
0.0
 11
-3103.867781701583
 21
-589.8455322467852
 31
0.0
  0
LINE
  5
6D9C
330
1E
100
AcDbEntity
  8
躯体と製品
  6
Continuous
 62
     7
100
AcDbLine
 10
-3099.867781701583
 20
-581.6028922467848
 30
0.0
 11
-3103.867781701583
 21
-585.6028922467849
 31
0.0
  0
LINE
  5
6D9D
330
1E
100
AcDbEntity
  8
躯体と製品
  6
Continuous
 62
     7
100
AcDbLine
 10
-3099.867781701583
 20
-583.0171022467848
 30
0.0
 11
-3103.867781701583
 21
-587.0171022467848
 31
0.0
  0
LINE
  5
6D9E
330
1E
100
AcDbEntity
  8
躯体と製品
  6
Continuous
 62
     7
100
AcDbLine
 10
-3103.867781701583
 20
-581.8455322467853
 30
0.0
 11
-3099.867781701583
 21
-585.8455322467853
 31
0.0
  0
LINE
  5
6D9F
330
1E
100
AcDbEntity
  8
躯体と製品
  6
Continuous
 62
     7
100
AcDbLine
 10
-3103.867781701583
 20
-583.2597422467852
 30
0.0
 11
-3099.867781701583
 21
-587.2597422467852
 31
0.0
  0
CIRCLE
  5
6DA0
330
1E
100
AcDbEntity
  8
文字-記号
  6
Continuous
 62
     7
100
AcDbCircle
 10
-3101.867781701582
 20
-584.4313122467847
 30
0.0
 40
0.3
  0
LINE
  5
6DA1
330
1E
100
AcDbEntity
  8
躯体と製品
  6
Continuous
 62
     7
100
AcDbLine
 10
-3099.867781701583
 20
-584.4313122467847
 30
0.0
 11
-3103.867781701583
 21
-588.4313122467847
 31
0.0
  0
LINE
  5
6DA2
330
1E
100
AcDbEntity
  8
躯体と製品
  6
Continuous
 62
     7
100
AcDbLine
 10
-3099.867781701583
 20
-577.3602522467854
 30
0.0
 11
-3103.867781701583
 21
-581.3602522467854
 31
0.0
  0
LINE
  5
6DA3
330
1E
100
AcDbEntity
  8
躯体と製品
  6
Continuous
 62
     7
100
AcDbLine
 10
-3099.867781701583
 20
-575.9460322467848
 30
0.0
 11
-3103.867781701583
 21
-579.9460322467848
 31
0.0
  0
LINE
  5
6DA4
330
1E
100
AcDbEntity
  8
躯体と製品
  6
Continuous
 62
     7
100
AcDbLine
 10
-3099.867781701583
 20
-581.6028922467848
 30
0.0
 11
-3103.867781701583
 21
-577.6028922467848
 31
0.0
  0
LINE
  5
6DA5
330
1E
100
AcDbEntity
  8
躯体と製品
  6
Continuous
 62
     7
100
AcDbLine
 10
-3099.867781701583
 20
-580.1886722467852
 30
0.0
 11
-3103.867781701583
 21
-576.1886822467849
 31
0.0
  0
LINE
  5
6DA6
330
1E
100
AcDbEntity
  8
躯体と製品
  6
Continuous
 62
     7
100
AcDbLine
 10
-3099.867781701583
 20
-578.7744622467853
 30
0.0
 11
-3103.867781701583
 21
-574.7744622467853
 31
0.0
  0
LINE
  5
6DA7
330
1E
100
AcDbEntity
  8
躯体と製品
  6
Continuous
 62
     7
100
AcDbLine
 10
-3099.867781701583
 20
-592.9166022467852
 30
0.0
 11
-3101.382501701583
 21
-594.4313122467847
 31
0.0
  0
LINE
  5
6DA8
330
1E
100
AcDbEntity
  8
躯体と製品
  6
Continuous
 62
     7
100
AcDbLine
 10
-3103.867781701583
 20
-593.1592422467847
 30
0.0
 11
-3102.595701701583
 21
-594.4313122467847
 31
0.0
  0
LINE
  5
6DA9
330
1E
100
AcDbEntity
  8
躯体と製品
  6
Continuous
 62
     7
100
AcDbLine
 10
-3103.867781701583
 20
-590.3308122467851
 30
0.0
 11
-3099.867781701583
 21
-594.3308122467851
 31
0.0
  0
LINE
  5
6DAA
330
1E
100
AcDbEntity
  8
躯体と製品
  6
Continuous
 62
     7
100
AcDbLine
 10
-3103.867781701583
 20
-591.745022246785
 30
0.0
 11
-3101.181491701583
 21
-594.4313122467847
 31
0.0
  0
LINE
  5
6DAB
330
1E
100
AcDbEntity
  8
躯体と製品
  6
Continuous
 62
     7
100
AcDbLine
 10
-3099.867781701583
 20
-591.5023822467847
 30
0.0
 11
-3102.796711701583
 21
-594.4313122467847
 31
0.0
  0
LINE
  5
6DAC
330
1E
100
AcDbEntity
  8
躯体と製品
  6
Continuous
 62
     7
100
AcDbLine
 10
-3103.867781701583
 20
-587.5023822467847
 30
0.0
 11
-3099.867781701583
 21
-591.5023822467847
 31
0.0
  0
LINE
  5
6DAD
330
1E
100
AcDbEntity
  8
躯体と製品
  6
Continuous
 62
     7
100
AcDbLine
 10
-3103.867781701583
 20
-588.9166022467852
 30
0.0
 11
-3099.867781701583
 21
-592.9166022467852
 31
0.0
  0
LINE
  5
6DAE
330
1E
100
AcDbEntity
  8
躯体と製品
  6
Continuous
 62
     7
100
AcDbLine
 10
-3099.867781701583
 20
-587.2597422467852
 30
0.0
 11
-3103.867781701583
 21
-591.2597422467852
 31
0.0
  0
LINE
  5
6DAF
330
1E
100
AcDbEntity
  8
躯体と製品
  6
Continuous
 62
     7
100
AcDbLine
 10
-3099.867781701583
 20
-588.6739622467849
 30
0.0
 11
-3103.867781701583
 21
-592.6739622467848
 31
0.0
  0
LINE
  5
6DB0
330
1E
100
AcDbEntity
  8
躯体と製品
  6
Continuous
 62
     7
100
AcDbLine
 10
-3099.867781701583
 20
-590.0881722467848
 30
0.0
 11
-3103.867781701583
 21
-594.0881722467848
 31
0.0
  0
LINE
  5
6DB1
330
1E
100
AcDbEntity
  8
躯体と製品
  6
Continuous
 62
     7
100
AcDbLine
 10
-3099.867781701583
 20
-589.2841322467847
 30
0.0
 11
-3105.014961701583
 21
-594.4313122467847
 31
0.0
  0
LINE
  5
6DB2
330
1E
100
AcDbEntity
  8
躯体と製品
  6
Continuous
 62
     7
100
AcDbLine
 10
-3099.867781701583
 20
-575.1419922467849
 30
0.0
 11
-3119.157101701583
 21
-594.4313122467847
 31
0.0
  0
LINE
  5
6DB3
330
1E
100
AcDbEntity
  8
躯体と製品
  6
Continuous
 62
     7
100
AcDbLine
 10
-3099.867781701583
 20
-572.313572246785
 30
0.0
 11
-3119.867781701583
 21
-592.313572246785
 31
0.0
  0
LINE
  5
6DB4
330
1E
100
AcDbEntity
  8
躯体と製品
  6
Continuous
 62
     7
100
AcDbLine
 10
-3099.867781701583
 20
-573.727782246785
 30
0.0
 11
-3119.867781701583
 21
-593.7277822467849
 31
0.0
  0
LINE
  5
6DB5
330
1E
100
AcDbEntity
  8
文字-記号
  6
Continuous
 62
     7
100
AcDbLine
 10
-3101.867781701582
 20
-584.4313122467847
 30
0.0
 11
-3116.301541701583
 21
-609.4313122467847
 31
0.0
  0
LINE
  5
6DB6
330
1E
100
AcDbEntity
  8
躯体と製品
  6
Continuous
 62
     7
100
AcDbLine
 10
-3099.867781701583
 20
-586.4557022467852
 30
0.0
 11
-3107.843391701583
 21
-594.4313122467847
 31
0.0
  0
LINE
  5
6DB7
330
1E
100
AcDbEntity
  8
躯体と製品
  6
Continuous
 62
     7
100
AcDbLine
 10
-3099.867781701583
 20
-587.8699222467848
 30
0.0
 11
-3106.429181701582
 21
-594.4313122467847
 31
0.0
  0
LINE
  5
6DB8
330
1E
100
AcDbEntity
  8
躯体と製品
  6
Continuous
 62
     7
100
AcDbLine
 10
-3099.867781701583
 20
-560.9998622467847
 30
0.0
 11
-3119.867781701583
 21
-580.9998622467847
 31
0.0
  0
LINE
  5
6DB9
330
1E
100
AcDbEntity
  8
躯体と製品
  6
Continuous
 62
     7
100
AcDbLine
 10
-3099.867781701583
 20
-558.1714322467851
 30
0.0
 11
-3119.867781701583
 21
-578.1714322467851
 31
0.0
  0
LINE
  5
6DBA
330
1E
100
AcDbEntity
  8
躯体と製品
  6
Continuous
 62
     7
100
AcDbLine
 10
-3099.867781701583
 20
-566.046542246785
 30
0.0
 11
-3103.867781701583
 21
-570.046542246785
 31
0.0
  0
LINE
  5
6DBB
330
1E
100
AcDbEntity
  8
躯体と製品
  6
Continuous
 62
     7
100
AcDbLine
 10
-3099.867781701583
 20
-564.6323322467851
 30
0.0
 11
-3103.867781701583
 21
-568.6323322467851
 31
0.0
  0
LINE
  5
6DBC
330
1E
100
AcDbEntity
  8
躯体と製品
  6
Continuous
 62
     7
100
AcDbLine
 10
-3099.867781701583
 20
-563.2181122467854
 30
0.0
 11
-3103.867781701583
 21
-567.2181122467854
 31
0.0
  0
LINE
  5
6DBD
330
1E
100
AcDbEntity
  8
躯体と製品
  6
Continuous
 62
     7
100
AcDbLine
 10
-3099.867781701583
 20
-570.2891822467854
 30
0.0
 11
-3103.867781701583
 21
-566.2891822467854
 31
0.0
  0
LINE
  5
6DBE
330
1E
100
AcDbEntity
  8
躯体と製品
  6
Continuous
 62
     7
100
AcDbLine
 10
-3099.867781701583
 20
-568.8749722467846
 30
0.0
 11
-3103.867781701583
 21
-564.8749722467846
 31
0.0
  0
LINE
  5
6DBF
330
1E
100
AcDbEntity
  8
躯体と製品
  6
Continuous
 62
     7
100
AcDbLine
 10
-3099.867781701583
 20
-567.460752246785
 30
0.0
 11
-3103.867781701583
 21
-563.460752246785
 31
0.0
  0
LINE
  5
6DC0
330
1E
100
AcDbEntity
  8
躯体と製品
  6
Continuous
 62
     7
100
AcDbLine
 10
-3099.867781701583
 20
-559.585642246785
 30
0.0
 11
-3119.867781701583
 21
-579.585642246785
 31
0.0
  0
LINE
  5
6DC1
330
1E
100
AcDbEntity
  8
文字-記号
  6
Continuous
 62
     7
100
AcDbLine
 10
-3095.067781701583
 20
-562.2613222467853
 30
0.0
 11
-3116.620261701582
 21
-599.4313122467847
 31
0.0
  0
LINE
  5
6DC2
330
1E
100
AcDbEntity
  8
躯体と製品
  6
Continuous
 62
     7
100
AcDbLine
 10
-3097.867781701582
 20
-554.4313222467853
 30
0.0
 11
-3097.867781701582
 21
-594.4313122467847
 31
0.0
  0
DIMENSION
  5
6DC3
330
1E
100
AcDbEntity
  8
寸法
  6
Continuous
100
AcDbDimension
  2
*D8
 10
-3095.867781701583
 20
-535.2713222467855
 30
0.0
 11
-3095.067781701582
 21
-532.1856079610712
 31
0.0
 70
    32
  1
(8)
 71
     5
 42
1.599999999999909
  3
AutoCAD
100
AcDbAlignedDimension
 13
-3094.267781701582
 23
-544.2713222467855
 33
0.0
 14
-3095.867781701583
 24
-535.2713222467855
 34
0.0
100
AcDbRotatedDimension
1001
ACAD
1000
DSTYLE
1002
{
1070
   147
1040
0.8
1070
   140
1040
10.0
1002
}
  0
CIRCLE
  5
6DC4
330
1E
100
AcDbEntity
  8
躯体と製品
  6
Continuous
 62
     7
100
AcDbCircle
 10
-3096.651441701582
 20
-518.6338222467847
 30
0.0
 40
0.2
  0
CIRCLE
  5
6DC5
330
1E
100
AcDbEntity
  8
躯体と製品
  6
Continuous
 62
     7
100
AcDbCircle
 10
-3099.214361701583
 20
-515.1068722467853
 30
0.0
 40
0.2
  0
CIRCLE
  5
6DC6
330
1E
100
AcDbEntity
  8
躯体と製品
  6
Continuous
 62
     7
100
AcDbCircle
 10
-3098.791131701583
 20
-518.4927522467851
 30
0.0
 40
0.2
  0
CIRCLE
  5
6DC7
330
1E
100
AcDbEntity
  8
躯体と製品
  6
Continuous
 62
     7
100
AcDbCircle
 10
-3097.756551701583
 20
-515.647672246785
 30
0.0
 40
0.2
  0
CIRCLE
  5
6DC8
330
1E
100
AcDbEntity
  8
躯体と製品
  6
Continuous
 62
     7
100
AcDbCircle
 10
-3097.145211701583
 20
-516.9879122467855
 30
0.0
 40
0.2
  0
CIRCLE
  5
6DC9
330
1E
100
AcDbEntity
  8
躯体と製品
  6
Continuous
 62
     7
100
AcDbCircle
 10
-3096.486851701583
 20
-523.8537222467848
 30
0.0
 40
0.2
  0
CIRCLE
  5
6DCA
330
1E
100
AcDbEntity
  8
躯体と製品
  6
Continuous
 62
     7
100
AcDbCircle
 10
-3096.980621701583
 20
-526.5812422467852
 30
0.0
 40
0.2
  0
CIRCLE
  5
6DCB
330
1E
100
AcDbEntity
  8
躯体と製品
  6
Continuous
 62
     7
100
AcDbCircle
 10
-3098.885181701583
 20
-522.795642246785
 30
0.0
 40
0.2
  0
CIRCLE
  5
6DCC
330
1E
100
AcDbEntity
  8
躯体と製品
  6
Continuous
 62
     7
100
AcDbCircle
 10
-3098.532481701583
 20
-525.7582822467847
 30
0.0
 40
0.2
  0
CIRCLE
  5
6DCD
330
1E
100
AcDbEntity
  8
躯体と製品
  6
Continuous
 62
     7
100
AcDbCircle
 10
-3098.485461701583
 20
-530.0611722467847
 30
0.0
 40
0.2
  0
CIRCLE
  5
6DCE
330
1E
100
AcDbEntity
  8
躯体と製品
  6
Continuous
 62
     7
100
AcDbCircle
 10
-3098.720591701583
 20
-527.7568922467853
 30
0.0
 40
0.2
  0
CIRCLE
  5
6DCF
330
1E
100
AcDbEntity
  8
躯体と製品
  6
Continuous
 62
     7
100
AcDbCircle
 10
-3097.380341701583
 20
-521.0321622467854
 30
0.0
 40
0.2
  0
CIRCLE
  5
6DD0
330
1E
100
AcDbEntity
  8
躯体と製品
  6
Continuous
 62
     7
100
AcDbCircle
 10
-3097.215751701583
 20
-529.1911922467853
 30
0.0
 40
0.2
  0
CIRCLE
  5
6DD1
330
1E
100
AcDbEntity
  8
躯体と製品
  6
Continuous
 62
     7
100
AcDbCircle
 10
-3097.333321701583
 20
-531.8951922467849
 30
0.0
 40
0.2
  0
CIRCLE
  5
6DD2
330
1E
100
AcDbEntity
  8
躯体と製品
  6
Continuous
 62
     7
100
AcDbCircle
 10
-3097.051161701583
 20
-542.8287622467851
 30
0.0
 40
0.2
  0
CIRCLE
  5
6DD3
330
1E
100
AcDbEntity
  8
躯体と製品
  6
Continuous
 62
     7
100
AcDbCircle
 10
-3096.910081701583
 20
-540.0307122467848
 30
0.0
 40
0.2
  0
CIRCLE
  5
6DD4
330
1E
100
AcDbEntity
  8
躯体と製品
  6
Continuous
 62
     7
100
AcDbCircle
 10
-3097.027651701583
 20
-537.9380422467847
 30
0.0
 40
0.2
  0
CIRCLE
  5
6DD5
330
1E
100
AcDbEntity
  8
躯体と製品
  6
Continuous
 62
     7
100
AcDbCircle
 10
-3099.073281701583
 20
-536.8329322467852
 30
0.0
 40
0.2
  0
CIRCLE
  5
6DD6
330
1E
100
AcDbEntity
  8
躯体と製品
  6
Continuous
 62
     7
100
AcDbCircle
 10
-3098.744101701583
 20
-532.9532822467854
 30
0.0
 40
0.2
  0
CIRCLE
  5
6DD7
330
1E
100
AcDbEntity
  8
躯体と製品
  6
Continuous
 62
     7
100
AcDbCircle
 10
-3097.803581701583
 20
-534.6227022467846
 30
0.0
 40
0.2
  0
CIRCLE
  5
6DD8
330
1E
100
AcDbEntity
  8
躯体と製品
  6
Continuous
 62
     7
100
AcDbCircle
 10
-3098.367891701583
 20
-541.2063622467849
 30
0.0
 40
0.2
  0
CIRCLE
  5
6DD9
330
1E
100
AcDbEntity
  8
躯体と製品
  6
Continuous
 62
     7
100
AcDbCircle
 10
-3098.979231701583
 20
-538.9255922467846
 30
0.0
 40
0.2
  0
CIRCLE
  5
6DDA
330
1E
100
AcDbEntity
  8
躯体と製品
  6
Continuous
 62
     7
100
AcDbCircle
 10
-3098.485461701583
 20
-543.5576622467851
 30
0.0
 40
0.2
  0
CIRCLE
  5
6DDB
330
1E
100
AcDbEntity
  8
躯体と製品
  6
Continuous
 62
     7
100
AcDbCircle
 10
-3099.355441701583
 20
-542.852272246785
 30
0.0
 40
0.2
  0
LINE
  5
6DDC
330
1E
100
AcDbEntity
  8
躯体と製品
  6
Continuous
 62
     7
100
AcDbLine
 10
-3086.867781701583
 20
-547.9313222467854
 30
0.0
 11
-3086.867781701583
 21
-549.331322246785
 31
0.0
  0
LINE
  5
6DDD
330
1E
100
AcDbEntity
  8
躯体と製品
  6
Continuous
 62
     7
100
AcDbLine
 10
-3086.867781701583
 20
-549.331322246785
 30
0.0
 11
-3087.967781701583
 21
-549.331322246785
 31
0.0
  0
LINE
  5
6DDE
330
1E
100
AcDbEntity
  8
躯体と製品
  6
Continuous
 62
     7
100
AcDbLine
 10
-3087.967781701583
 20
-549.1713222467851
 30
0.0
 11
-3087.967781701583
 21
-549.331322246785
 31
0.0
  0
LINE
  5
6DDF
330
1E
100
AcDbEntity
  8
躯体と製品
  6
Continuous
 62
     7
100
AcDbLine
 10
-3087.027781701582
 20
-548.0913222467852
 30
0.0
 11
-3087.027781701582
 21
-549.1713222467851
 31
0.0
  0
LINE
  5
6DE0
330
1E
100
AcDbEntity
  8
躯体と製品
  6
Continuous
 62
     7
100
AcDbLine
 10
-3087.027781701582
 20
-549.1713222467851
 30
0.0
 11
-3087.967781701583
 21
-549.1713222467851
 31
0.0
  0
CIRCLE
  5
6DE1
330
1E
100
AcDbEntity
  8
躯体と製品
  6
Continuous
 62
     7
100
AcDbCircle
 10
-3096.816031701583
 20
-548.2837922467852
 30
0.0
 40
0.2
  0
CIRCLE
  5
6DE2
330
1E
100
AcDbEntity
  8
躯体と製品
  6
Continuous
 62
     7
100
AcDbCircle
 10
-3096.463331701583
 20
-544.8979122467854
 30
0.0
 40
0.2
  0
LINE
  5
6DE3
330
1E
100
AcDbEntity
  8
躯体と製品
  6
Continuous
 62
     7
100
AcDbLine
 10
-3094.267781701582
 20
-545.2713222467855
 30
0.0
 11
-3094.267781701582
 21
-547.9313222467854
 31
0.0
  0
CIRCLE
  5
6DE4
330
1E
100
AcDbEntity
  8
文字-記号
  6
Continuous
 62
     7
100
AcDbCircle
 10
-3095.067781701583
 20
-546.6013222467855
 30
0.0
 40
0.3
  0
LINE
  5
6DE5
330
1E
100
AcDbEntity
  8
躯体と製品
  6
Continuous
 62
     7
100
AcDbLine
 10
-3095.707781701583
 20
-549.238942246785
 30
0.0
 11
-3095.707781701583
 21
-548.0913222467852
 31
0.0
  0
LINE
  5
6DE6
330
1E
100
AcDbEntity
  8
躯体と製品
  6
Continuous
 62
     7
100
AcDbLine
 10
-3095.867781701583
 20
-549.331322246785
 30
0.0
 11
-3095.727781701583
 21
-549.4121422467851
 31
0.0
  0
LINE
  5
6DE7
330
1E
100
AcDbEntity
  8
躯体と製品
  6
Continuous
 62
     7
100
AcDbLine
 10
-3095.567781701582
 20
-549.3197722467848
 30
0.0
 11
-3095.707781701583
 21
-549.238942246785
 31
0.0
  0
CIRCLE
  5
6DE8
330
1E
100
AcDbEntity
  8
躯体と製品
  6
Continuous
 62
     7
100
AcDbCircle
 10
-3096.651441701582
 20
-550.5880722467854
 30
0.0
 40
0.2
  0
CIRCLE
  5
6DE9
330
1E
100
AcDbEntity
  8
躯体と製品
  6
Continuous
 62
     7
100
AcDbCircle
 10
-3098.226811701583
 20
-545.8149222467855
 30
0.0
 40
0.2
  0
CIRCLE
  5
6DEA
330
1E
100
AcDbEntity
  8
躯体と製品
  6
Continuous
 62
     7
100
AcDbCircle
 10
-3098.673561701583
 20
-548.6600022467855
 30
0.0
 40
0.2
  0
CIRCLE
  5
6DEB
330
1E
100
AcDbEntity
  8
躯体と製品
  6
Continuous
 62
     7
100
AcDbCircle
 10
-3098.015201701583
 20
-549.976732246785
 30
0.0
 40
0.2
  0
CIRCLE
  5
6DEC
330
1E
100
AcDbEntity
  8
躯体と製品
  6
Continuous
 62
     7
100
AcDbCircle
 10
-3099.073281701583
 20
-551.4815622467849
 30
0.0
 40
0.2
  0
LINE
  5
6DED
330
1E
100
AcDbEntity
  8
躯体と製品
  6
Continuous
 62
     7
100
AcDbLine
 10
-3087.027781701582
 20
-548.0913222467852
 30
0.0
 11
-3095.707781701583
 21
-548.0913222467852
 31
0.0
  0
CIRCLE
  5
6DEE
330
1E
100
AcDbEntity
  8
躯体と製品
  6
Continuous
 62
     7
100
AcDbCircle
 10
-3098.650051701583
 20
-520.655952246785
 30
0.0
 40
0.2
  0
LINE
  5
6DEF
330
1E
100
AcDbEntity
  8
躯体と製品
  6
Continuous
 62
     7
100
AcDbLine
 10
-3112.696211701583
 20
-514.4313222467854
 30
0.0
 11
-3119.867781701583
 21
-521.6028922467849
 31
0.0
  0
LINE
  5
6DF0
330
1E
100
AcDbEntity
  8
躯体と製品
  6
Continuous
 62
     7
100
AcDbLine
 10
-3111.281991701583
 20
-514.4313222467854
 30
0.0
 11
-3119.867781701583
 21
-523.0171022467848
 31
0.0
  0
LINE
  5
6DF1
330
1E
100
AcDbEntity
  8
躯体と製品
  6
Continuous
 62
     7
100
AcDbLine
 10
-3109.867781701582
 20
-514.4313222467854
 30
0.0
 11
-3119.867781701583
 21
-524.4313222467853
 31
0.0
  0
LINE
  5
6DF2
330
1E
100
AcDbEntity
  8
躯体と製品
  6
Continuous
 62
     7
100
AcDbLine
 10
-3099.867781701583
 20
-518.5734522467846
 30
0.0
 11
-3119.867781701583
 21
-538.5734522467847
 31
0.0
  0
LINE
  5
6DF3
330
1E
100
AcDbEntity
  8
躯体と製品
  6
Continuous
 62
     7
100
AcDbLine
 10
-3099.867781701583
 20
-515.7450222467851
 30
0.0
 11
-3119.867781701583
 21
-535.7450222467851
 31
0.0
  0
LINE
  5
6DF4
330
1E
100
AcDbEntity
  8
躯体と製品
  6
Continuous
 62
     7
100
AcDbLine
 10
-3099.867781701583
 20
-529.8871622467849
 30
0.0
 11
-3119.867781701583
 21
-549.8871622467849
 31
0.0
  0
LINE
  5
6DF5
330
1E
100
AcDbEntity
  8
躯体と製品
  6
Continuous
 62
     7
100
AcDbLine
 10
-3099.867781701583
 20
-517.1592422467847
 30
0.0
 11
-3119.867781701583
 21
-537.1592422467847
 31
0.0
  0
LINE
  5
6DF6
330
1E
100
AcDbEntity
  8
躯体と製品
  6
Continuous
 62
     7
100
AcDbLine
 10
-3099.867781701583
 20
-531.3013722467849
 30
0.0
 11
-3119.867781701583
 21
-551.3013722467849
 31
0.0
  0
DIMENSION
  5
6DF7
330
1E
100
AcDbEntity
  8
寸法
  6
Continuous
100
AcDbDimension
  2
*D9
 10
-3036.167781701582
 20
-563.2713222467855
 30
0.0
 11
-3039.253495987297
 21
-554.271322246786
 31
0.0
 70
    32
  1
(90)
 71
     5
 42
18.0
  3
AutoCAD
100
AcDbAlignedDimension
 13
-3044.867781701583
 23
-545.2713222467855
 33
0.0
 14
-3044.867781701583
 24
-563.2713222467855
 34
0.0
 50
90.0
100
AcDbRotatedDimension
1001
ACAD
1000
DSTYLE
1002
{
1070
   147
1040
0.8
1070
   140
1040
10.0
1002
}
  0
TEXT
  5
6DF8
330
1E
100
AcDbEntity
  8
文字-記号
 62
     7
100
AcDbText
 10
-3072.440871701583
 20
-534.8650022467855
 30
0.0
 40
3.0
  1
６５×４５×０．８
 41
0.8
  7
ACAD
100
AcDbText
  0
TEXT
  5
6DF9
330
1E
100
AcDbEntity
  8
文字-記号
 62
     7
100
AcDbText
 10
-3073.317401701583
 20
-524.8650322467847
 30
0.0
 40
3.0
  1
テープ又は塗装
 41
0.8
  7
ACAD
100
AcDbText
  0
LINE
  5
6DFA
330
1E
100
AcDbEntity
  8
文字-記号
  6
Continuous
 62
     7
100
AcDbLine
 10
-3072.861261701583
 20
-535.2713222467855
 30
0.0
 11
-3048.781261701583
 21
-535.2713222467855
 31
0.0
  0
LINE
  5
6DFB
330
1E
100
AcDbEntity
  8
文字-記号
  6
Continuous
 62
     7
100
AcDbLine
 10
-3073.737781701583
 20
-525.2713222467855
 30
0.0
 11
-3052.667781701583
 21
-525.2713222467855
 31
0.0
  0
ENDSEC
  0
SECTION
  2
OBJECTS
  0
DICTIONARY
  5
C
330
0
100
AcDbDictionary
281
     1
  3
ACAD_COLOR
350
6F26
  3
ACAD_GROUP
350
D
  3
ACAD_LAYOUT
350
19
  3
ACAD_MATERIAL
350
6F11
  3
ACAD_MLINESTYLE
350
16
  3
ACAD_PLOTSETTINGS
350
18
  3
ACAD_PLOTSTYLENAME
350
E
  3
ACAD_TABLESTYLE
350
6F27
  3
ACAD_VISUALSTYLE
350
6F15
  3
AcDbVariableDictionary
350
169
  3
DWGPROPS
350
6FF9
  0
DICTIONARY
  5
6FD8
330
8
100
AcDbDictionary
280
     1
281
     1
  0
DICTIONARY
  5
175
330
2
100
AcDbDictionary
280
     1
281
     1
  3
ACAD_LAYERFILTERS
360
185
  3
ACAD_LAYERSTATES
360
176
  0
DICTIONARY
  5
28B
330
1E
100
AcDbDictionary
280
     1
281
     1
  3
ACAD_LAYOUTSELFREF
360
6F0A
  0
DICTIONARY
  5
28D
330
1A
100
AcDbDictionary
280
     1
281
     1
  3
ACAD_LAYOUTSELFREF
360
6F09
  0
DICTIONARY
  5
6F26
102
{ACAD_REACTORS
330
C
102
}
330
C
100
AcDbDictionary
281
     1
  0
DICTIONARY
  5
D
102
{ACAD_REACTORS
330
C
102
}
330
C
100
AcDbDictionary
281
     1
  0
DICTIONARY
  5
19
102
{ACAD_REACTORS
330
C
102
}
330
C
100
AcDbDictionary
281
     1
  3
Model
350
21
  3
ﾚｲｱｳﾄ1
350
1D
  0
DICTIONARY
  5
6F11
102
{ACAD_REACTORS
330
C
102
}
330
C
100
AcDbDictionary
281
     1
  3
ByBlock
350
6F13
  3
ByLayer
350
6F12
  3
Global
350
6F14
  0
DICTIONARY
  5
16
102
{ACAD_REACTORS
330
C
102
}
330
C
100
AcDbDictionary
281
     1
  3
Standard
350
17
  0
DICTIONARY
  5
18
102
{ACAD_REACTORS
330
C
102
}
330
C
100
AcDbDictionary
281
     1
  0
ACDBDICTIONARYWDFLT
  5
E
102
{ACAD_REACTORS
330
C
102
}
330
C
100
AcDbDictionary
281
     1
  3
Normal
350
F
100
AcDbDictionaryWithDefault
340
F
1001
ACAD
1000
TREAT_AS_HARD
1070
     0
1000
TREAT_AS_HARD
1070
     0
1000
TREAT_AS_HARD
1070
     0
1000
TREAT_AS_HARD
1070
     0
1000
TREAT_AS_HARD
1070
     0
1000
TREAT_AS_HARD
1070
     0
1000
TREAT_AS_HARD
1070
     0
1000
TREAT_AS_HARD
1070
     0
1000
TREAT_AS_HARD
1070
     0
1000
TREAT_AS_HARD
1070
     0
1000
TREAT_AS_HARD
1070
     0
1000
TREAT_AS_HARD
1070
     0
1000
TREAT_AS_HARD
1070
     0
1000
TREAT_AS_HARD
1070
     0
1000
TREAT_AS_HARD
1070
     0
1000
TREAT_AS_HARD
1070
     0
1000
TREAT_AS_HARD
1070
     0
1000
TREAT_AS_HARD
1070
     0
1000
TREAT_AS_HARD
1070
     0
1000
TREAT_AS_HARD
1070
     0
1000
TREAT_AS_HARD
1070
     0
1000
TREAT_AS_HARD
1070
     0
1000
TREAT_AS_HARD
1070
     0
1000
TREAT_AS_HARD
1070
     0
1000
TREAT_AS_HARD
1070
     0
1000
TREAT_AS_HARD
1070
     0
1000
TREAT_AS_HARD
1070
     0
1000
TREAT_AS_HARD
1070
     0
1000
TREAT_AS_HARD
1070
     0
1000
TREAT_AS_HARD
1070
     0
  0
DICTIONARY
  5
6F27
102
{ACAD_REACTORS
330
C
102
}
330
C
100
AcDbDictionary
281
     1
  3
Standard
350
6F28
  0
DICTIONARY
  5
6F15
102
{ACAD_REACTORS
330
C
102
}
330
C
100
AcDbDictionary
281
     1
  3
2dWireframe
350
6F1B
  3
3D Hidden
350
6F1D
  3
3dWireframe
350
6F1C
  3
Basic
350
6F1A
  3
Brighten
350
6F21
  3
ColorChange
350
6F25
  3
Conceptual
350
6F1E
  3
Dim
350
6F20
  3
Facepattern
350
6F24
  3
Flat
350
6F16
  3
FlatWithEdges
350
6F17
  3
Gouraud
350
6F18
  3
GouraudWithEdges
350
6F19
  3
Linepattern
350
6F23
  3
Realistic
350
6F1F
  3
Thicken
350
6F22
  0
DICTIONARY
  5
169
102
{ACAD_REACTORS
330
C
102
}
330
C
100
AcDbDictionary
281
     1
  3
CTABLESTYLE
350
6FF0
  3
DIMASSOC
350
16A
  3
INDEXCTL
350
6FF2
  3
SORTENTS
350
6FF1
  0
XRECORD
  5
6FF9
102
{ACAD_REACTORS
330
C
102
}
330
C
100
AcDbXrecord
280
     1
  1
DWGPROPS COOKIE
  2

  3

  4

  6

  7

  8
HON1000AV
  9

300
=
301
=
302
=
303
=
304
=
305
=
306
=
307
=
308
=
309
=
 40
0.246811099537037
 41
2454316.693457674
 42
2454736.374787141
  1

 90
        0
  0
DICTIONARY
  5
185
102
{ACAD_REACTORS
330
175
102
}
330
175
100
AcDbDictionary
280
     1
281
     1
  0
DICTIONARY
  5
176
102
{ACAD_REACTORS
330
175
102
}
330
175
100
AcDbDictionary
281
     1
  3
ACAD
350
177
  0
XRECORD
  5
6F0A
102
{ACAD_REACTORS
330
28B
102
}
330
28B
100
AcDbXrecord
280
     1
340
1E
  0
XRECORD
  5
6F09
102
{ACAD_REACTORS
330
28D
102
}
330
28D
100
AcDbXrecord
280
     1
340
1A
  0
LAYOUT
  5
21
102
{ACAD_XDICTIONARY
360
6FFC
102
}
102
{ACAD_REACTORS
330
19
102
}
330
19
100
AcDbPlotSettings
  1

  2
\\MEISEI-1\EPSON Stylus Photo EX3
  4

  6

 40
0.0
 41
0.0
 42
0.0
 43
0.0
 44
0.0
 45
0.0
 46
0.0
 47
0.0
 48
0.0
 49
0.0
140
0.0
141
0.0
142
1.0
143
1.0
 70
  1712
 72
     0
 73
     0
 74
     0
  7

 75
     0
147
1.0
148
0.0
149
0.0
100
AcDbLayout
  1
Model
 70
     1
 71
     0
 10
0.0
 20
0.0
 11
12.0
 21
9.0
 12
0.0
 22
0.0
 32
0.0
 14
0.0
 24
0.0
 34
0.0
 15
0.0
 25
0.0
 35
0.0
146
0.0
 13
0.0
 23
0.0
 33
0.0
 16
1.0
 26
0.0
 36
0.0
 17
0.0
 27
1.0
 37
0.0
 76
     0
330
1E
331
6EC5
  0
LAYOUT
  5
1D
102
{ACAD_XDICTIONARY
360
6FFA
102
}
102
{ACAD_REACTORS
330
19
102
}
330
19
100
AcDbPlotSettings
  1

  2
\\MEISEI-1\EPSON Stylus Photo EX3
  4

  6

 40
0.0
 41
0.0
 42
0.0
 43
0.0
 44
0.0
 45
0.0
 46
0.0
 47
0.0
 48
0.0
 49
0.0
140
0.0
141
0.0
142
1.0
143
1.0
 70
   688
 72
     0
 73
     0
 74
     5
  7

 75
    16
147
1.0
148
0.0
149
0.0
100
AcDbLayout
  1
ﾚｲｱｳﾄ1
 70
     1
 71
     1
 10
0.0
 20
0.0
 11
12.0
 21
9.0
 12
0.0
 22
0.0
 32
0.0
 14
1.000000000000000E+20
 24
1.000000000000000E+20
 34
1.000000000000000E+20
 15
-1.000000000000000E+20
 25
-1.000000000000000E+20
 35
-1.000000000000000E+20
146
0.0
 13
0.0
 23
0.0
 33
0.0
 16
1.0
 26
0.0
 36
0.0
 17
0.0
 27
1.0
 37
0.0
 76
     0
330
1A
  0
MATERIAL
  5
6F13
102
{ACAD_XDICTIONARY
360
7000
102
}
102
{ACAD_REACTORS
330
6F11
102
}
330
6F11
100
AcDbMaterial
  1
ByBlock
  0
MATERIAL
  5
6F12
102
{ACAD_XDICTIONARY
360
6FFE
102
}
102
{ACAD_REACTORS
330
6F11
102
}
330
6F11
100
AcDbMaterial
  1
ByLayer
  0
MATERIAL
  5
6F14
102
{ACAD_XDICTIONARY
360
7002
102
}
102
{ACAD_REACTORS
330
6F11
102
}
330
6F11
100
AcDbMaterial
  1
Global
  0
MLINESTYLE
  5
17
102
{ACAD_REACTORS
330
16
102
}
330
16
100
AcDbMlineStyle
  2
STANDARD
 70
     0
  3

 62
   256
 51
90.0
 52
90.0
 71
     2
 49
0.5
 62
   256
  6
BYLAYER
 49
-0.5
 62
   256
  6
BYLAYER
  0
ACDBPLACEHOLDER
  5
F
102
{ACAD_REACTORS
330
E
102
}
330
E
  0
TABLESTYLE
  5
6F28
102
{ACAD_XDICTIONARY
360
7004
102
}
102
{ACAD_REACTORS
330
6F27
102
}
330
6F27
100
AcDbTableStyle
  3
Standard
 70
     0
 71
     0
 40
0.06
 41
0.06
280
     0
281
     0
  7
STANDARD
140
0.18
170
     2
 62
     0
 63
     7
283
     0
274
    -2
284
     1
 64
     0
275
    -2
285
     1
 65
     0
276
    -2
286
     1
 66
     0
277
    -2
287
     1
 67
     0
278
    -2
288
     1
 68
     0
279
    -2
289
     1
 69
     0
  7
STANDARD
140
0.25
170
     5
 62
     0
 63
     7
283
     0
274
    -2
284
     1
 64
     0
275
    -2
285
     1
 65
     0
276
    -2
286
     1
 66
     0
277
    -2
287
     1
 67
     0
278
    -2
288
     1
 68
     0
279
    -2
289
     1
 69
     0
  7
STANDARD
140
0.18
170
     5
 62
     0
 63
     7
283
     0
274
    -2
284
     1
 64
     0
275
    -2
285
     1
 65
     0
276
    -2
286
     1
 66
     0
277
    -2
287
     1
 67
     0
278
    -2
288
     1
 68
     0
279
    -2
289
     1
 69
     0
  0
VISUALSTYLE
  5
6F1B
102
{ACAD_REACTORS
330
6F15
102
}
330
6F15
100
AcDbVisualStyle
  2
2dWireframe
 70
     4
 71
     0
 72
     2
 73
     0
 90
        0
 40
-0.6
 41
-30.0
 62
     5
 63
     7
 74
     1
 91
        4
 64
     7
 65
   257
 75
     1
175
     1
 42
1.0
 92
        0
 66
   257
 43
1.0
 76
     1
 77
     6
 78
     2
 67
     7
 79
     5
170
     0
171
     0
290
     0
174
     0
 93
        1
 44
0.0
173
     0
291
     0
 45
0.0
1001
ACAD
1000
AcDbSavedByObjectVersion
1070
     0
  0
VISUALSTYLE
  5
6F1D
102
{ACAD_REACTORS
330
6F15
102
}
330
6F15
100
AcDbVisualStyle
  2
3D Hidden
 70
     6
 71
     1
 72
     2
 73
     2
 90
        0
 40
-0.6
 41
-30.0
 62
     5
 63
     7
 74
     2
 91
        2
 64
     7
 65
   257
 75
     2
175
     1
 42
40.0
 92
        0
 66
   257
 43
1.0
 76
     1
 77
     6
 78
     2
 67
     7
 79
     3
170
     0
171
     0
290
     0
174
     0
 93
        1
 44
0.0
173
     0
291
     0
 45
0.0
1001
ACAD
1000
AcDbSavedByObjectVersion
1070
     0
  0
VISUALSTYLE
  5
6F1C
102
{ACAD_REACTORS
330
6F15
102
}
330
6F15
100
AcDbVisualStyle
  2
3dWireframe
 70
     5
 71
     0
 72
     2
 73
     0
 90
        0
 40
-0.6
 41
-30.0
 62
     5
 63
     7
 74
     1
 91
        4
 64
     7
 65
   257
 75
     1
175
     1
 42
1.0
 92
        0
 66
   257
 43
1.0
 76
     1
 77
     6
 78
     2
 67
     7
 79
     5
170
     0
171
     0
290
     0
174
     0
 93
        1
 44
0.0
173
     0
291
     0
 45
0.0
1001
ACAD
1000
AcDbSavedByObjectVersion
1070
     0
  0
VISUALSTYLE
  5
6F1A
102
{ACAD_REACTORS
330
6F15
102
}
330
6F15
100
AcDbVisualStyle
  2
Basic
 70
     7
 71
     1
 72
     0
 73
     1
 90
        0
 40
-0.6
 41
-30.0
 62
     5
 63
     7
 74
     0
 91
        4
 64
     7
 65
   257
 75
     1
175
     1
 42
1.0
 92
        8
 66
     7
 43
1.0
 76
     1
 77
     6
 78
     2
 67
     7
 79
     5
170
     0
171
     0
290
     0
174
     0
 93
        1
 44
0.0
173
     0
291
     1
 45
0.0
1001
ACAD
1000
AcDbSavedByObjectVersion
1070
     0
  0
VISUALSTYLE
  5
6F21
102
{ACAD_REACTORS
330
6F15
102
}
330
6F15
100
AcDbVisualStyle
  2
Brighten
 70
    12
 71
     2
 72
     2
 73
     0
 90
        0
 40
-0.6
 41
-30.0
 62
     5
 63
     7
 74
     1
 91
        4
 64
     7
 65
   257
 75
     1
175
     1
 42
1.0
 92
        8
 66
     7
 43
1.0
 76
     1
 77
     6
 78
     2
 67
     7
 79
     5
170
     0
171
     0
290
     0
174
     0
 93
        1
 44
50.0
173
     0
291
     1
 45
0.0
1001
ACAD
1000
AcDbSavedByObjectVersion
1070
     0
  0
VISUALSTYLE
  5
6F25
102
{ACAD_REACTORS
330
6F15
102
}
330
6F15
100
AcDbVisualStyle
  2
ColorChange
 70
    16
 71
     2
 72
     2
 73
     3
 90
        0
 40
-0.6
 41
-30.0
 62
     5
 63
     8
 74
     1
 91
        4
 64
     7
 65
   257
 75
     1
175
     1
 42
1.0
 92
        8
 66
     8
 43
1.0
 76
     1
 77
     6
 78
     2
 67
     7
 79
     5
170
     0
171
     0
290
     0
174
     0
 93
        1
 44
0.0
173
     0
291
     1
 45
0.0
1001
ACAD
1000
AcDbSavedByObjectVersion
1070
     0
  0
VISUALSTYLE
  5
6F1E
102
{ACAD_REACTORS
330
6F15
102
}
330
6F15
100
AcDbVisualStyle
  2
Conceptual
 70
     9
 71
     3
 72
     2
 73
     0
 90
        0
 40
-0.6
 41
-30.0
 62
     5
 63
     7
 74
     2
 91
        2
 64
     7
 65
   257
 75
     1
175
     1
 42
40.0
 92
        8
 66
     7
 43
1.0
 76
     1
 77
     6
 78
     2
 67
     7
 79
     3
170
     0
171
     0
290
     0
174
     0
 93
        1
 44
0.0
173
     0
291
     0
 45
0.0
1001
ACAD
1000
AcDbSavedByObjectVersion
1070
     0
  0
VISUALSTYLE
  5
6F20
102
{ACAD_REACTORS
330
6F15
102
}
330
6F15
100
AcDbVisualStyle
  2
Dim
 70
    11
 71
     2
 72
     2
 73
     0
 90
        0
 40
-0.6
 41
-30.0
 62
     5
 63
     7
 74
     1
 91
        4
 64
     7
 65
   257
 75
     1
175
     1
 42
1.0
 92
        8
 66
     7
 43
1.0
 76
     1
 77
     6
 78
     2
 67
     7
 79
     5
170
     0
171
     0
290
     0
174
     0
 93
        1
 44
-50.0
173
     0
291
     1
 45
0.0
1001
ACAD
1000
AcDbSavedByObjectVersion
1070
     0
  0
VISUALSTYLE
  5
6F24
102
{ACAD_REACTORS
330
6F15
102
}
330
6F15
100
AcDbVisualStyle
  2
Facepattern
 70
    15
 71
     2
 72
     2
 73
     0
 90
        0
 40
-0.6
 41
-30.0
 62
     5
 63
     7
 74
     1
 91
        4
 64
     7
 65
   257
 75
     1
175
     1
 42
1.0
 92
        8
 66
     7
 43
1.0
 76
     1
 77
     6
 78
     2
 67
     7
 79
     5
170
     0
171
     0
290
     0
174
     0
 93
        1
 44
0.0
173
     0
291
     1
 45
0.0
1001
ACAD
1000
AcDbSavedByObjectVersion
1070
     0
  0
VISUALSTYLE
  5
6F16
102
{ACAD_REACTORS
330
6F15
102
}
330
6F15
100
AcDbVisualStyle
  2
Flat
 70
     0
 71
     2
 72
     1
 73
     1
 90
        2
 40
-0.6
 41
30.0
 62
     5
 63
     7
 74
     0
 91
        4
 64
     7
 65
   257
 75
     1
175
     1
 42
1.0
 92
        8
 66
     7
 43
1.0
 76
     1
 77
     6
 78
     2
 67
     7
 79
     5
170
     0
171
     0
290
     0
174
     0
 93
       13
 44
0.0
173
     0
291
     1
 45
0.0
1001
ACAD
1000
AcDbSavedByObjectVersion
1070
     0
  0
VISUALSTYLE
  5
6F17
102
{ACAD_REACTORS
330
6F15
102
}
330
6F15
100
AcDbVisualStyle
  2
FlatWithEdges
 70
     1
 71
     2
 72
     1
 73
     1
 90
        2
 40
-0.6
 41
30.0
 62
     5
 63
     7
 74
     1
 91
        4
 64
     7
 65
   257
 75
     1
175
     1
 42
1.0
 92
        0
 66
   257
 43
1.0
 76
     1
 77
     6
 78
     2
 67
     7
 79
     5
170
     0
171
     0
290
     0
174
     0
 93
       13
 44
0.0
173
     0
291
     1
 45
0.0
1001
ACAD
1000
AcDbSavedByObjectVersion
1070
     0
  0
VISUALSTYLE
  5
6F18
102
{ACAD_REACTORS
330
6F15
102
}
330
6F15
100
AcDbVisualStyle
  2
Gouraud
 70
     2
 71
     2
 72
     2
 73
     1
 90
        2
 40
-0.6
 41
30.0
 62
     5
 63
     7
 74
     0
 91
        4
 64
     7
 65
   257
 75
     1
175
     1
 42
1.0
 92
        0
 66
     7
 43
1.0
 76
     1
 77
     6
 78
     2
 67
     7
 79
     5
170
     0
171
     0
290
     0
174
     0
 93
       13
 44
0.0
173
     0
291
     1
 45
0.0
1001
ACAD
1000
AcDbSavedByObjectVersion
1070
     0
  0
VISUALSTYLE
  5
6F19
102
{ACAD_REACTORS
330
6F15
102
}
330
6F15
100
AcDbVisualStyle
  2
GouraudWithEdges
 70
     3
 71
     2
 72
     2
 73
     1
 90
        2
 40
-0.6
 41
30.0
 62
     5
 63
     7
 74
     1
 91
        4
 64
     7
 65
   257
 75
     1
175
     1
 42
1.0
 92
        0
 66
   257
 43
1.0
 76
     1
 77
     6
 78
     2
 67
     7
 79
     5
170
     0
171
     0
290
     0
174
     0
 93
       13
 44
0.0
173
     0
291
     1
 45
0.0
1001
ACAD
1000
AcDbSavedByObjectVersion
1070
     0
  0
VISUALSTYLE
  5
6F23
102
{ACAD_REACTORS
330
6F15
102
}
330
6F15
100
AcDbVisualStyle
  2
Linepattern
 70
    14
 71
     2
 72
     2
 73
     0
 90
        0
 40
-0.6
 41
-30.0
 62
     5
 63
     7
 74
     1
 91
        4
 64
     7
 65
   257
 75
     7
175
     7
 42
1.0
 92
        8
 66
     7
 43
1.0
 76
     1
 77
     6
 78
     2
 67
     7
 79
     5
170
     0
171
     0
290
     0
174
     0
 93
        1
 44
0.0
173
     0
291
     1
 45
0.0
1001
ACAD
1000
AcDbSavedByObjectVersion
1070
     0
  0
VISUALSTYLE
  5
6F1F
102
{ACAD_REACTORS
330
6F15
102
}
330
6F15
100
AcDbVisualStyle
  2
Realistic
 70
     8
 71
     2
 72
     2
 73
     0
 90
        0
 40
-0.6
 41
-30.0
 62
     5
 63
     7
 74
     1
 91
        0
 64
     7
 65
   257
 75
     1
175
     1
 42
1.0
 92
        8
 66
     8
 43
1.0
 76
     1
 77
     6
 78
     2
 67
     7
 79
     5
170
     0
171
     0
290
     0
174
     0
 93
       13
 44
0.0
173
     0
291
     0
 45
0.0
1001
ACAD
1000
AcDbSavedByObjectVersion
1070
     0
  0
VISUALSTYLE
  5
6F22
102
{ACAD_REACTORS
330
6F15
102
}
330
6F15
100
AcDbVisualStyle
  2
Thicken
 70
    13
 71
     2
 72
     2
 73
     0
 90
        0
 40
-0.6
 41
-30.0
 62
     5
 63
     7
 74
     1
 91
        4
 64
     7
 65
   257
 75
     1
175
     1
 42
1.0
 92
       12
 66
     7
 43
1.0
 76
     1
 77
     6
 78
     2
 67
     7
 79
     5
170
     0
171
     0
290
     0
174
     0
 93
        1
 44
0.0
173
     0
291
     1
 45
0.0
1001
ACAD
1000
AcDbSavedByObjectVersion
1070
     0
  0
DICTIONARYVAR
  5
6FF0
102
{ACAD_REACTORS
330
169
102
}
330
169
100
DictionaryVariables
280
     0
  1
STANDARD
  0
DICTIONARYVAR
  5
16A
102
{ACAD_REACTORS
330
169
102
}
330
169
100
DictionaryVariables
280
     0
  1
1
  0
DICTIONARYVAR
  5
6FF2
102
{ACAD_REACTORS
330
169
102
}
330
169
100
DictionaryVariables
280
     0
  1
0
  0
DICTIONARYVAR
  5
6FF1
102
{ACAD_REACTORS
330
169
102
}
330
169
100
DictionaryVariables
280
     0
  1
127
  0
XRECORD
  5
177
102
{ACAD_REACTORS
330
176
102
}
330
176
100
AcDbXrecord
280
     1
 91
      476
330
179
 90
        8
 62
     7
370
    -3
331
15
  1
Color_7
330
178
 90
        8
 62
     7
370
    -3
331
15
  1
Color_7
330
128
 90
        0
 62
     7
370
    -3
331
15
  1
Color_7
330
10
 90
        8
 62
     7
370
    -3
331
15
  1
Color_7
  0
DICTIONARY
  5
6FFC
330
21
100
AcDbDictionary
280
     1
281
     1
  3
ACAD_XREC_ROUNDTRIP
360
6FFD
  0
DICTIONARY
  5
6FFA
330
1D
100
AcDbDictionary
280
     1
281
     1
  3
ACAD_XREC_ROUNDTRIP
360
6FFB
  0
DICTIONARY
  5
7000
330
6F13
100
AcDbDictionary
280
     1
281
     1
  3
ACAD_XREC_ROUNDTRIP
360
7001
  0
DICTIONARY
  5
6FFE
330
6F12
100
AcDbDictionary
280
     1
281
     1
  3
ACAD_XREC_ROUNDTRIP
360
6FFF
  0
DICTIONARY
  5
7002
330
6F14
100
AcDbDictionary
280
     1
281
     1
  3
ACAD_XREC_ROUNDTRIP
360
7003
  0
DICTIONARY
  5
7004
330
6F28
100
AcDbDictionary
280
     1
281
     1
  3
ACAD_XREC_ROUNDTRIP
360
7005
  0
XRECORD
  5
6FFD
102
{ACAD_REACTORS
330
6FFC
102
}
330
6FFC
100
AcDbXrecord
280
     1
102
SHADEPLOT
 70
     0
102
SHADEPLOTRESLEVEL
 70
     2
102
SHADEPLOTCUSTOMDPI
 70
   300
  0
XRECORD
  5
6FFB
102
{ACAD_REACTORS
330
6FFA
102
}
330
6FFA
100
AcDbXrecord
280
     1
102
SHADEPLOT
 70
     0
102
SHADEPLOTRESLEVEL
 70
     2
102
SHADEPLOTCUSTOMDPI
 70
   300
  0
XRECORD
  5
7001
102
{ACAD_REACTORS
330
7000
102
}
330
7000
100
AcDbXrecord
280
     1
102
MATERIAL
148
0.0
149
0.0
149
0.0
 93
        0
 94
       63
282
     0
 72
     1
 77
     1
171
     1
175
     1
179
     1
273
     0
  0
XRECORD
  5
6FFF
102
{ACAD_REACTORS
330
6FFE
102
}
330
6FFE
100
AcDbXrecord
280
     1
102
MATERIAL
148
0.0
149
0.0
149
0.0
 93
        0
 94
       63
282
     0
 72
     1
 77
     1
171
     1
175
     1
179
     1
273
     0
  0
XRECORD
  5
7003
102
{ACAD_REACTORS
330
7002
102
}
330
7002
100
AcDbXrecord
280
     1
102
MATERIAL
148
0.0
149
0.0
149
0.0
 93
        0
 94
       63
282
     0
 72
     1
 77
     1
171
     1
175
     1
179
     1
273
     0
  0
XRECORD
  5
7005
102
{ACAD_REACTORS
330
7004
102
}
330
7004
100
AcDbXrecord
280
     1
102
ACAD_ROUNDTRIP_PRE2007_TABLESTYLE
 90
      512
 91
        0
  1

 92
      512
 93
        0
  2

 94
      512
 95
        0
  3

  0
ENDSEC
  0
EOF
