  0
SECTION
  2
HEADER
  9
$ACADVER
  1
AC1014
  9
$ACADMAINTVER
 70
     9
  9
$DWGCODEPAGE
  3
ANSI_932
  9
$INSBASE
 10
0.0
 20
0.0
 30
0.0
  9
$EXTMIN
 10
0.0
 20
0.0
 30
0.0
  9
$EXTMAX
 10
8400.0
 20
5940.0
 30
0.0
  9
$LIMMIN
 10
0.0
 20
0.0
  9
$LIMMAX
 10
12.0
 20
9.0
  9
$ORTHOMODE
 70
     0
  9
$REGENMODE
 70
     1
  9
$FILLMODE
 70
     1
  9
$QTEXTMODE
 70
     0
  9
$MIRRTEXT
 70
     1
  9
$DRAGMODE
 70
     2
  9
$LTSCALE
 40
20.0
  9
$OSMODE
 70
    37
  9
$ATTMODE
 70
     1
  9
$TEXTSIZE
 40
0.2
  9
$TRACEWID
 40
0.05
  9
$TEXTSTYLE
  7
STANDARD
  9
$CLAYER
  8
0
  9
$CELTYPE
  6
BYLAYER
  9
$CECOLOR
 62
   256
  9
$CELTSCALE
 40
1.0
  9
$DELOBJ
 70
     1
  9
$DISPSILH
 70
     0
  9
$DIMSCALE
 40
1.0
  9
$DIMASZ
 40
0.18
  9
$DIMEXO
 40
0.0625
  9
$DIMDLI
 40
0.38
  9
$DIMRND
 40
0.0
  9
$DIMDLE
 40
0.0
  9
$DIMEXE
 40
0.18
  9
$DIMTP
 40
0.0
  9
$DIMTM
 40
0.0
  9
$DIMTXT
 40
0.18
  9
$DIMCEN
 40
0.09
  9
$DIMTSZ
 40
0.0
  9
$DIMTOL
 70
     0
  9
$DIMLIM
 70
     0
  9
$DIMTIH
 70
     1
  9
$DIMTOH
 70
     1
  9
$DIMSE1
 70
     0
  9
$DIMSE2
 70
     0
  9
$DIMTAD
 70
     0
  9
$DIMZIN
 70
     0
  9
$DIMBLK
  1

  9
$DIMASO
 70
     1
  9
$DIMSHO
 70
     1
  9
$DIMPOST
  1

  9
$DIMAPOST
  1

  9
$DIMALT
 70
     0
  9
$DIMALTD
 70
     2
  9
$DIMALTF
 40
25.4
  9
$DIMLFAC
 40
1.0
  9
$DIMTOFL
 70
     0
  9
$DIMTVP
 40
0.0
  9
$DIMTIX
 70
     0
  9
$DIMSOXD
 70
     0
  9
$DIMSAH
 70
     0
  9
$DIMBLK1
  1

  9
$DIMBLK2
  1

  9
$DIMSTYLE
  2
STANDARD
  9
$DIMCLRD
 70
     0
  9
$DIMCLRE
 70
     0
  9
$DIMCLRT
 70
     0
  9
$DIMTFAC
 40
1.0
  9
$DIMGAP
 40
0.09
  9
$DIMJUST
 70
     0
  9
$DIMSD1
 70
     0
  9
$DIMSD2
 70
     0
  9
$DIMTOLJ
 70
     1
  9
$DIMTZIN
 70
     0
  9
$DIMALTZ
 70
     0
  9
$DIMALTTZ
 70
     0
  9
$DIMFIT
 70
     3
  9
$DIMUPT
 70
     0
  9
$DIMUNIT
 70
     2
  9
$DIMDEC
 70
     4
  9
$DIMTDEC
 70
     4
  9
$DIMALTU
 70
     2
  9
$DIMALTTD
 70
     2
  9
$DIMTXSTY
  7
STANDARD
  9
$DIMAUNIT
 70
     0
  9
$LUNITS
 70
     2
  9
$LUPREC
 70
     4
  9
$SKETCHINC
 40
0.1
  9
$FILLETRAD
 40
0.5
  9
$AUNITS
 70
     0
  9
$AUPREC
 70
     0
  9
$MENU
  1
.
  9
$ELEVATION
 40
0.0
  9
$PELEVATION
 40
0.0
  9
$THICKNESS
 40
0.0
  9
$LIMCHECK
 70
     0
  9
$CHAMFERA
 40
0.5
  9
$CHAMFERB
 40
0.5
  9
$CHAMFERC
 40
1.0
  9
$CHAMFERD
 40
0.0
  9
$SKPOLY
 70
     0
  9
$TDCREATE
 40
2454657.571442755
  9
$TDUPDATE
 40
2454657.571442766
  9
$TDINDWG
 40
0.0000000116
  9
$TDUSRTIMER
 40
0.0000000116
  9
$USRTIMER
 70
     1
  9
$ANGBASE
 50
0.0
  9
$ANGDIR
 70
     0
  9
$PDMODE
 70
     0
  9
$PDSIZE
 40
0.0
  9
$PLINEWID
 40
0.0
  9
$COORDS
 70
     1
  9
$SPLFRAME
 70
     0
  9
$SPLINETYPE
 70
     6
  9
$SPLINESEGS
 70
     8
  9
$ATTDIA
 70
     0
  9
$ATTREQ
 70
     1
  9
$HANDLING
 70
     1
  9
$HANDSEED
  5
3D2
  9
$SURFTAB1
 70
     6
  9
$SURFTAB2
 70
     6
  9
$SURFTYPE
 70
     6
  9
$SURFU
 70
     6
  9
$SURFV
 70
     6
  9
$UCSNAME
  2

  9
$UCSORG
 10
0.0
 20
0.0
 30
0.0
  9
$UCSXDIR
 10
1.0
 20
0.0
 30
0.0
  9
$UCSYDIR
 10
0.0
 20
1.0
 30
0.0
  9
$PUCSNAME
  2

  9
$PUCSORG
 10
0.0
 20
0.0
 30
0.0
  9
$PUCSXDIR
 10
1.0
 20
0.0
 30
0.0
  9
$PUCSYDIR
 10
0.0
 20
1.0
 30
0.0
  9
$USERI1
 70
     0
  9
$USERI2
 70
     0
  9
$USERI3
 70
     0
  9
$USERI4
 70
     0
  9
$USERI5
 70
     0
  9
$USERR1
 40
0.0
  9
$USERR2
 40
0.0
  9
$USERR3
 40
0.0
  9
$USERR4
 40
0.0
  9
$USERR5
 40
0.0
  9
$WORLDVIEW
 70
     1
  9
$SHADEDGE
 70
     3
  9
$SHADEDIF
 70
    70
  9
$TILEMODE
 70
     1
  9
$MAXACTVP
 70
    64
  9
$PINSBASE
 10
0.0
 20
0.0
 30
0.0
  9
$PLIMCHECK
 70
     0
  9
$PEXTMIN
 10
1.000000E+20
 20
1.000000E+20
 30
1.000000E+20
  9
$PEXTMAX
 10
-1.000000E+20
 20
-1.000000E+20
 30
-1.000000E+20
  9
$PLIMMIN
 10
0.0
 20
0.0
  9
$PLIMMAX
 10
12.0
 20
9.0
  9
$UNITMODE
 70
     0
  9
$VISRETAIN
 70
     1
  9
$PLINEGEN
 70
     0
  9
$PSLTSCALE
 70
     1
  9
$TREEDEPTH
 70
  3020
  9
$PICKSTYLE
 70
     1
  9
$CMLSTYLE
  2
STANDARD
  9
$CMLJUST
 70
     0
  9
$CMLSCALE
 40
1.0
  9
$PROXYGRAPHICS
 70
     1
  9
$MEASUREMENT
 70
     0
  0
ENDSEC
  0
SECTION
  2
CLASSES
  0
CLASS
  1
ACDBDICTIONARYWDFLT
  2
AcDbDictionaryWithDefault
  3
ObjectDBX Classes
 90
        0
280
     0
281
     0
  0
CLASS
  1
XRECORD
  2
AcDbXrecord
  3
AutoCAD 2000
 90
        0
280
     0
281
     0
  0
CLASS
  1
LWPOLYLINE
  2
AcDbPolyline
  3
AutoCAD 2000
 90
        0
280
     0
281
     1
  0
CLASS
  1
HATCH
  2
AcDbHatch
  3
AutoCAD 2000
 90
        0
280
     0
281
     1
  0
CLASS
  1
ACDBPLACEHOLDER
  2
AcDbPlaceHolder
  3
ObjectDBX Classes
 90
        0
280
     0
281
     0
  0
CLASS
  1
LAYOUT
  2
AcDbLayout
  3
ObjectDBX Classes
 90
        0
280
     0
281
     0
  0
ENDSEC
  0
SECTION
  2
TABLES
  0
TABLE
  2
VPORT
  5
8
330
0
100
AcDbSymbolTable
 70
     1
  0
VPORT
  5
29
102
{ACAD_XDICTIONARY
360
3D0
102
}
330
8
100
AcDbSymbolTableRecord
100
AcDbViewportTableRecord
  2
*ACTIVE
 70
     0
 10
0.0
 20
0.0
 11
1.0
 21
1.0
 12
10.429907
 22
4.5
 13
0.0
 23
0.0
 14
0.5
 24
0.5
 15
0.5
 25
0.5
 16
0.0
 26
0.0
 36
1.0
 17
0.0
 27
0.0
 37
0.0
 40
9.0
 41
1.972973
 42
50.0
 43
0.0
 44
0.0
 50
0.0
 51
0.0
 71
     0
 72
   100
 73
     1
 74
     3
 75
     0
 76
     0
 77
     0
 78
     0
  0
ENDTAB
  0
TABLE
  2
LTYPE
  5
5
330
0
100
AcDbSymbolTable
 70
    16
  0
LTYPE
  5
14
330
5
100
AcDbSymbolTableRecord
100
AcDbLinetypeTableRecord
  2
BYBLOCK
 70
     0
  3

 72
    65
 73
     0
 40
0.0
  0
LTYPE
  5
15
330
5
100
AcDbSymbolTableRecord
100
AcDbLinetypeTableRecord
  2
BYLAYER
 70
     0
  3

 72
    65
 73
     0
 40
0.0
  0
LTYPE
  5
16
330
5
100
AcDbSymbolTableRecord
100
AcDbLinetypeTableRecord
  2
CONTINUOUS
 70
     0
  3
Solid line
 72
    65
 73
     0
 40
0.0
  0
LTYPE
  5
2A
330
5
100
AcDbSymbolTableRecord
100
AcDbLinetypeTableRecord
  2
PLINE1
 70
     0
  3
破線
 72
    65
 73
     2
 40
60.0
 49
42.0
 74
     0
 49
-18.0
 74
     0
  0
LTYPE
  5
2B
330
5
100
AcDbSymbolTableRecord
100
AcDbLinetypeTableRecord
  2
PLINE2
 70
     0
  3
一点鎖線
 72
    65
 73
     4
 40
200.0
 49
140.0
 74
     0
 49
-20.0
 74
     0
 49
20.0
 74
     0
 49
-20.0
 74
     0
  0
LTYPE
  5
2C
330
5
100
AcDbSymbolTableRecord
100
AcDbLinetypeTableRecord
  2
PLINE3
 70
     0
  3
二点鎖線
 72
    65
 73
     6
 40
200.0
 49
100.0
 74
     0
 49
-20.0
 74
     0
 49
20.0
 74
     0
 49
-20.0
 74
     0
 49
20.0
 74
     0
 49
-20.0
 74
     0
  0
LTYPE
  5
2D
330
5
100
AcDbSymbolTableRecord
100
AcDbLinetypeTableRecord
  2
PLINE4
 70
     0
  3
破線1
 72
    65
 73
     2
 40
100.0
 49
70.0
 74
     0
 49
-30.0
 74
     0
  0
LTYPE
  5
2E
330
5
100
AcDbSymbolTableRecord
100
AcDbLinetypeTableRecord
  2
PLINE5
 70
     0
  3
一点鎖線1
 72
    65
 73
     4
 40
300.0
 49
210.0
 74
     0
 49
-30.0
 74
     0
 49
30.0
 74
     0
 49
-30.0
 74
     0
  0
LTYPE
  5
2F
330
5
100
AcDbSymbolTableRecord
100
AcDbLinetypeTableRecord
  2
PLINE6
 70
     0
  3
二点鎖線1
 72
    65
 73
     6
 40
300.0
 49
150.0
 74
     0
 49
-30.0
 74
     0
 49
30.0
 74
     0
 49
-30.0
 74
     0
 49
30.0
 74
     0
 49
-30.0
 74
     0
  0
LTYPE
  5
30
330
5
100
AcDbSymbolTableRecord
100
AcDbLinetypeTableRecord
  2
PLINE7
 70
     0
  3
破線2
 72
    65
 73
     2
 40
140.0
 49
98.0
 74
     0
 49
-42.0
 74
     0
  0
LTYPE
  5
31
330
5
100
AcDbSymbolTableRecord
100
AcDbLinetypeTableRecord
  2
PLINE8
 70
     0
  3
一点鎖線2
 72
    65
 73
     4
 40
400.0
 49
280.0
 74
     0
 49
-40.0
 74
     0
 49
40.0
 74
     0
 49
-40.0
 74
     0
  0
LTYPE
  5
32
330
5
100
AcDbSymbolTableRecord
100
AcDbLinetypeTableRecord
  2
PLINE9
 70
     0
  3
二点鎖線2
 72
    65
 73
     6
 40
400.0
 49
200.0
 74
     0
 49
-40.0
 74
     0
 49
40.0
 74
     0
 49
-40.0
 74
     0
 49
40.0
 74
     0
 49
-40.0
 74
     0
  0
LTYPE
  5
33
330
5
100
AcDbSymbolTableRecord
100
AcDbLinetypeTableRecord
  2
PLINE10
 70
     0
  3
破線3
 72
    65
 73
     2
 40
180.0
 49
126.0
 74
     0
 49
-54.0
 74
     0
  0
LTYPE
  5
34
330
5
100
AcDbSymbolTableRecord
100
AcDbLinetypeTableRecord
  2
PLINE11
 70
     0
  3
一点鎖線3
 72
    65
 73
     4
 40
500.0
 49
350.0
 74
     0
 49
-50.0
 74
     0
 49
50.0
 74
     0
 49
-50.0
 74
     0
  0
LTYPE
  5
35
330
5
100
AcDbSymbolTableRecord
100
AcDbLinetypeTableRecord
  2
PLINE12
 70
     0
  3
二点鎖線3
 72
    65
 73
     6
 40
500.0
 49
250.0
 74
     0
 49
-50.0
 74
     0
 49
50.0
 74
     0
 49
-50.0
 74
     0
 49
50.0
 74
     0
 49
-50.0
 74
     0
  0
LTYPE
  5
36
330
5
100
AcDbSymbolTableRecord
100
AcDbLinetypeTableRecord
  2
PLINE13
 70
     0
  3
破線4
 72
    65
 73
     2
 40
220.0
 49
154.0
 74
     0
 49
-66.0
 74
     0
  0
LTYPE
  5
37
330
5
100
AcDbSymbolTableRecord
100
AcDbLinetypeTableRecord
  2
PLINE14
 70
     0
  3
一点鎖線4
 72
    65
 73
     4
 40
600.0
 49
420.0
 74
     0
 49
-60.0
 74
     0
 49
60.0
 74
     0
 49
-60.0
 74
     0
  0
LTYPE
  5
38
330
5
100
AcDbSymbolTableRecord
100
AcDbLinetypeTableRecord
  2
PLINE15
 70
     0
  3
二点鎖線4
 72
    65
 73
     6
 40
600.0
 49
300.0
 74
     0
 49
-60.0
 74
     0
 49
60.0
 74
     0
 49
-60.0
 74
     0
 49
60.0
 74
     0
 49
-60.0
 74
     0
  0
ENDTAB
  0
TABLE
  2
LAYER
  5
2
330
0
100
AcDbSymbolTable
 70
     3
  0
LAYER
  5
10
330
2
100
AcDbSymbolTableRecord
100
AcDbLayerTableRecord
  2
0
 70
     0
 62
     7
  6
CONTINUOUS
  0
LAYER
  5
3D
330
2
100
AcDbSymbolTableRecord
100
AcDbLayerTableRecord
  2
PRO0
 70
     0
 62
     7
  6
CONTINUOUS
  0
LAYER
  5
205
330
2
100
AcDbSymbolTableRecord
100
AcDbLayerTableRecord
  2
DEFPOINTS
 70
     0
 62
     7
  6
CONTINUOUS
  0
ENDTAB
  0
TABLE
  2
STYLE
  5
3
330
0
100
AcDbSymbolTable
 70
     6
  0
STYLE
  5
11
330
3
100
AcDbSymbolTableRecord
100
AcDbTextStyleTableRecord
  2
STANDARD
 70
     0
 40
0.0
 41
1.0
 50
0.0
 71
     0
 42
0.2
  3
txt
  4
bigfont
  0
STYLE
  5
39
330
3
100
AcDbSymbolTableRecord
100
AcDbTextStyleTableRecord
  2
BIGFONT
 70
     0
 40
0.2
 41
1.0
 50
0.0
 71
     0
 42
3.5
  3
monotxt
  4
bigfont
  0
STYLE
  5
3A
330
3
100
AcDbSymbolTableRecord
100
AcDbTextStyleTableRecord
  2
BIG_VER
 70
     4
 40
0.2
 41
1.0
 50
0.0
 71
     0
 42
3.5
  3
monotxt
  4
bigfont
  0
STYLE
  5
3B
330
3
100
AcDbSymbolTableRecord
100
AcDbTextStyleTableRecord
  2
EXTFONT
 70
     0
 40
0.2
 41
1.0
 50
0.0
 71
     0
 42
3.5
  3
monotxt
  4
extfont
  0
STYLE
  5
3C
330
3
100
AcDbSymbolTableRecord
100
AcDbTextStyleTableRecord
  2
EXT_VER
 70
     4
 40
0.2
 41
1.0
 50
0.0
 71
     0
 42
3.5
  3
monotxt
  4
extfont
  0
STYLE
  5
203
330
3
100
AcDbSymbolTableRecord
100
AcDbTextStyleTableRecord
  2
DIMTEXTSTYLE
 70
     0
 40
0.0
 41
0.858268
 50
0.0
 71
     0
 42
0.0
  3
msgoth04.ttc
  4

1001
ACAD
1000
MS Gothic
1071
    32786
  0
ENDTAB
  0
TABLE
  2
VIEW
  5
6
330
0
100
AcDbSymbolTable
 70
     0
  0
ENDTAB
  0
TABLE
  2
UCS
  5
7
330
0
100
AcDbSymbolTable
 70
     0
  0
ENDTAB
  0
TABLE
  2
APPID
  5
9
330
0
100
AcDbSymbolTable
 70
     1
  0
APPID
  5
12
330
9
100
AcDbSymbolTableRecord
100
AcDbRegAppTableRecord
  2
ACAD
 70
     0
  0
ENDTAB
  0
TABLE
  2
DIMSTYLE
  5
A
330
0
100
AcDbSymbolTable
 70
     1
  0
DIMSTYLE
105
27
102
{ACAD_REACTORS
330
204
330
21A
330
22E
330
245
330
25A
330
26E
330
285
330
29A
330
2AE
330
2C5
330
2DA
330
2EE
330
305
330
31B
330
331
330
347
330
361
330
377
330
38D
330
3A3
102
}
330
A
100
AcDbSymbolTableRecord
100
AcDbDimStyleTableRecord
  2
STANDARD
 70
     0
  3

  4

  5

  6

  7

 40
1.0
 41
0.18
 42
0.0625
 43
0.38
 44
0.18
 45
0.0
 46
0.0
 47
0.0
 48
0.0
140
0.18
141
0.09
142
0.0
143
25.4
144
1.0
145
0.0
146
1.0
147
0.09
 71
     0
 72
     0
 73
     1
 74
     1
 75
     0
 76
     0
 77
     0
 78
     0
170
     0
171
     2
172
     0
173
     0
174
     0
175
     0
176
     0
177
     0
178
     0
270
     2
271
     4
272
     4
273
     2
274
     2
340
11
275
     0
280
     0
281
     0
282
     0
283
     1
284
     0
285
     0
286
     0
287
     3
288
     0
  0
ENDTAB
  0
TABLE
  2
BLOCK_RECORD
  5
1
330
0
100
AcDbSymbolTable
 70
    41
  0
BLOCK_RECORD
  5
1F
330
1
100
AcDbSymbolTableRecord
100
AcDbBlockTableRecord
  2
*MODEL_SPACE
  0
BLOCK_RECORD
  5
1B
330
1
100
AcDbSymbolTableRecord
100
AcDbBlockTableRecord
  2
*PAPER_SPACE
  0
BLOCK_RECORD
  5
1FA
330
1
100
AcDbSymbolTableRecord
100
AcDbBlockTableRecord
  2
DIM_0
  0
BLOCK_RECORD
  5
206
330
1
100
AcDbSymbolTableRecord
100
AcDbBlockTableRecord
  2
*D2
  0
BLOCK_RECORD
  5
212
330
1
100
AcDbSymbolTableRecord
100
AcDbBlockTableRecord
  2
DIM_1
  0
BLOCK_RECORD
  5
21B
330
1
100
AcDbSymbolTableRecord
100
AcDbBlockTableRecord
  2
*D4
  0
BLOCK_RECORD
  5
227
330
1
100
AcDbSymbolTableRecord
100
AcDbBlockTableRecord
  2
DIM_2
  0
BLOCK_RECORD
  5
22F
330
1
100
AcDbSymbolTableRecord
100
AcDbBlockTableRecord
  2
*D6
  0
BLOCK_RECORD
  5
23C
330
1
100
AcDbSymbolTableRecord
100
AcDbBlockTableRecord
  2
DIM_3
  0
BLOCK_RECORD
  5
246
330
1
100
AcDbSymbolTableRecord
100
AcDbBlockTableRecord
  2
*D8
  0
BLOCK_RECORD
  5
252
330
1
100
AcDbSymbolTableRecord
100
AcDbBlockTableRecord
  2
DIM_4
  0
BLOCK_RECORD
  5
25B
330
1
100
AcDbSymbolTableRecord
100
AcDbBlockTableRecord
  2
*D10
  0
BLOCK_RECORD
  5
267
330
1
100
AcDbSymbolTableRecord
100
AcDbBlockTableRecord
  2
DIM_5
  0
BLOCK_RECORD
  5
26F
330
1
100
AcDbSymbolTableRecord
100
AcDbBlockTableRecord
  2
*D12
  0
BLOCK_RECORD
  5
27C
330
1
100
AcDbSymbolTableRecord
100
AcDbBlockTableRecord
  2
DIM_6
  0
BLOCK_RECORD
  5
286
330
1
100
AcDbSymbolTableRecord
100
AcDbBlockTableRecord
  2
*D14
  0
BLOCK_RECORD
  5
292
330
1
100
AcDbSymbolTableRecord
100
AcDbBlockTableRecord
  2
DIM_7
  0
BLOCK_RECORD
  5
29B
330
1
100
AcDbSymbolTableRecord
100
AcDbBlockTableRecord
  2
*D16
  0
BLOCK_RECORD
  5
2A7
330
1
100
AcDbSymbolTableRecord
100
AcDbBlockTableRecord
  2
DIM_8
  0
BLOCK_RECORD
  5
2AF
330
1
100
AcDbSymbolTableRecord
100
AcDbBlockTableRecord
  2
*D18
  0
BLOCK_RECORD
  5
2BC
330
1
100
AcDbSymbolTableRecord
100
AcDbBlockTableRecord
  2
DIM_9
  0
BLOCK_RECORD
  5
2C6
330
1
100
AcDbSymbolTableRecord
100
AcDbBlockTableRecord
  2
*D20
  0
BLOCK_RECORD
  5
2D2
330
1
100
AcDbSymbolTableRecord
100
AcDbBlockTableRecord
  2
DIM_10
  0
BLOCK_RECORD
  5
2DB
330
1
100
AcDbSymbolTableRecord
100
AcDbBlockTableRecord
  2
*D22
  0
BLOCK_RECORD
  5
2E7
330
1
100
AcDbSymbolTableRecord
100
AcDbBlockTableRecord
  2
DIM_11
  0
BLOCK_RECORD
  5
2EF
330
1
100
AcDbSymbolTableRecord
100
AcDbBlockTableRecord
  2
*D24
  0
BLOCK_RECORD
  5
2FC
330
1
100
AcDbSymbolTableRecord
100
AcDbBlockTableRecord
  2
DIM_12
  0
BLOCK_RECORD
  5
306
330
1
100
AcDbSymbolTableRecord
100
AcDbBlockTableRecord
  2
*D26
  0
BLOCK_RECORD
  5
312
330
1
100
AcDbSymbolTableRecord
100
AcDbBlockTableRecord
  2
DIM_13
  0
BLOCK_RECORD
  5
31C
330
1
100
AcDbSymbolTableRecord
100
AcDbBlockTableRecord
  2
*D28
  0
BLOCK_RECORD
  5
328
330
1
100
AcDbSymbolTableRecord
100
AcDbBlockTableRecord
  2
DIM_14
  0
BLOCK_RECORD
  5
332
330
1
100
AcDbSymbolTableRecord
100
AcDbBlockTableRecord
  2
*D30
  0
BLOCK_RECORD
  5
33E
330
1
100
AcDbSymbolTableRecord
100
AcDbBlockTableRecord
  2
DIM_15
  0
BLOCK_RECORD
  5
348
330
1
100
AcDbSymbolTableRecord
100
AcDbBlockTableRecord
  2
*D32
  0
BLOCK_RECORD
  5
358
330
1
100
AcDbSymbolTableRecord
100
AcDbBlockTableRecord
  2
DIM_16
  0
BLOCK_RECORD
  5
362
330
1
100
AcDbSymbolTableRecord
100
AcDbBlockTableRecord
  2
*D34
  0
BLOCK_RECORD
  5
36E
330
1
100
AcDbSymbolTableRecord
100
AcDbBlockTableRecord
  2
DIM_17
  0
BLOCK_RECORD
  5
378
330
1
100
AcDbSymbolTableRecord
100
AcDbBlockTableRecord
  2
*D36
  0
BLOCK_RECORD
  5
384
330
1
100
AcDbSymbolTableRecord
100
AcDbBlockTableRecord
  2
DIM_18
  0
BLOCK_RECORD
  5
38E
330
1
100
AcDbSymbolTableRecord
100
AcDbBlockTableRecord
  2
*D38
  0
BLOCK_RECORD
  5
39A
330
1
100
AcDbSymbolTableRecord
100
AcDbBlockTableRecord
  2
DIM_19
  0
BLOCK_RECORD
  5
3A4
330
1
100
AcDbSymbolTableRecord
100
AcDbBlockTableRecord
  2
*D40
  0
ENDTAB
  0
ENDSEC
  0
SECTION
  2
BLOCKS
  0
BLOCK
  5
20
330
1F
100
AcDbEntity
  8
0
100
AcDbBlockBegin
  2
*MODEL_SPACE
 70
     0
 71
     0
 10
0.0
 20
0.0
 30
0.0
  3
*MODEL_SPACE
  1

  0
ENDBLK
  5
21
330
1F
100
AcDbEntity
  8
0
100
AcDbBlockEnd
  0
BLOCK
  5
1C
330
1B
100
AcDbEntity
 67
     1
  8
0
100
AcDbBlockBegin
  2
*PAPER_SPACE
 70
     0
 71
     0
 10
0.0
 20
0.0
 30
0.0
  3
*PAPER_SPACE
  1

  0
ENDBLK
  5
1D
330
1B
100
AcDbEntity
 67
     1
  8
0
100
AcDbBlockEnd
  0
BLOCK
  5
1FB
330
1FA
100
AcDbEntity
  8
0
100
AcDbBlockBegin
  2
DIM_0
 70
     0
 71
     0
 10
2302.89698
 20
4201.050979
 30
0.0
  3
DIM_0
  1

  0
CIRCLE
  5
1FD
330
1FA
100
AcDbEntity
  8
PRO0
  6
CONTINUOUS
 62
     3
100
AcDbCircle
 10
2721.0284
 20
4201.050979
 30
0.0
 40
10.0
  0
CIRCLE
  5
1FE
330
1FA
100
AcDbEntity
  8
PRO0
  6
CONTINUOUS
 62
     3
100
AcDbCircle
 10
2721.0284
 20
3985.050979
 30
0.0
 40
10.0
  0
LINE
  5
1FF
330
1FA
100
AcDbEntity
  8
PRO0
  6
CONTINUOUS
 62
     3
100
AcDbLine
 10
2721.0284
 20
4201.050979
 30
0.0
 11
2721.0284
 21
3985.050979
 31
0.0
  0
LINE
  5
200
330
1FA
100
AcDbEntity
  8
PRO0
  6
CONTINUOUS
 62
     3
100
AcDbLine
 10
2302.89698
 20
4201.050979
 30
0.0
 11
2741.0284
 21
4201.050979
 31
0.0
  0
LINE
  5
201
330
1FA
100
AcDbEntity
  8
PRO0
  6
CONTINUOUS
 62
     3
100
AcDbLine
 10
2492.55731
 20
3985.050979
 30
0.0
 11
2741.0284
 21
3985.050979
 31
0.0
  0
TEXT
  5
202
330
1FA
100
AcDbEntity
  8
PRO0
  6
CONTINUOUS
 62
     3
100
AcDbText
 10
2711.0284
 20
4026.841755
 30
0.0
 40
60.0
  1
２１６
 50
90.0
 41
0.858268
 51
0.0
  7
BIGFONT
 72
     1
 11
2711.0284
 21
4093.050979
 31
0.0
100
AcDbText
  0
ENDBLK
  5
1FC
330
1FA
100
AcDbEntity
  8
0
100
AcDbBlockEnd
  0
BLOCK
  5
210
330
206
100
AcDbEntity
  8
0
100
AcDbBlockBegin
  2
*D2
 70
     1
 71
     0
 10
0.0
 20
0.0
 30
0.0
  3
*D2
  1

  0
LINE
  5
207
330
206
100
AcDbEntity
  8
PRO0
 62
     0
100
AcDbLine
 10
2302.95948
 20
4201.050979
 30
0.0
 11
2721.2084
 21
4201.050979
 31
0.0
  0
LINE
  5
208
330
206
100
AcDbEntity
  8
PRO0
 62
     0
100
AcDbLine
 10
2492.61981
 20
3985.050979
 30
0.0
 11
2721.2084
 21
3985.050979
 31
0.0
  0
LINE
  5
209
330
206
100
AcDbEntity
  8
PRO0
 62
     0
100
AcDbLine
 10
2721.0284
 20
4181.050979
 30
0.0
 11
2721.0284
 21
4005.050979
 31
0.0
  0
SOLID
  5
20A
330
206
100
AcDbEntity
  8
PRO0
 62
     0
100
AcDbTrace
 10
2724.361733
 20
4181.050979
 30
0.0
 11
2717.695066
 21
4181.050979
 31
0.0
 12
2721.0284
 22
4201.050979
 32
0.0
 13
2721.0284
 23
4201.050979
 33
0.0
  0
SOLID
  5
20B
330
206
100
AcDbEntity
  8
PRO0
 62
     0
100
AcDbTrace
 10
2717.695066
 20
4005.050979
 30
0.0
 11
2724.361733
 21
4005.050979
 31
0.0
 12
2721.0284
 22
3985.050979
 32
0.0
 13
2721.0284
 23
3985.050979
 33
0.0
  0
MTEXT
  5
20C
330
206
100
AcDbEntity
  8
PRO0
 62
     3
100
AcDbMText
 10
2681.0284
 20
4093.050979
 30
0.0
 40
60.0
 41
0.0
 71
     5
 72
     1
  1
\A1;２１６
  7
DIMTEXTSTYLE
 11
6.123031769111886E-17
 21
1.0
 31
0.0
  0
POINT
  5
20D
330
206
100
AcDbEntity
  8
DEFPOINTS
 62
     0
100
AcDbPoint
 10
2302.89698
 20
4201.050979
 30
0.0
  0
POINT
  5
20E
330
206
100
AcDbEntity
  8
DEFPOINTS
 62
     0
100
AcDbPoint
 10
2492.55731
 20
3985.050979
 30
0.0
  0
POINT
  5
20F
330
206
100
AcDbEntity
  8
DEFPOINTS
 62
     0
100
AcDbPoint
 10
2721.0284
 20
3985.050979
 30
0.0
  0
ENDBLK
  5
211
330
206
100
AcDbEntity
  8
0
100
AcDbBlockEnd
  0
BLOCK
  5
213
330
212
100
AcDbEntity
  8
0
100
AcDbBlockBegin
  2
DIM_1
 70
     0
 71
     0
 10
2492.55731
 20
3985.050979
 30
0.0
  3
DIM_1
  1

  0
CIRCLE
  5
215
330
212
100
AcDbEntity
  8
PRO0
  6
CONTINUOUS
 62
     3
100
AcDbCircle
 10
2721.0284
 20
3985.050979
 30
0.0
 40
10.0
  0
CIRCLE
  5
216
330
212
100
AcDbEntity
  8
PRO0
  6
CONTINUOUS
 62
     3
100
AcDbCircle
 10
2721.0284
 20
3825.050979
 30
0.0
 40
10.0
  0
LINE
  5
217
330
212
100
AcDbEntity
  8
PRO0
  6
CONTINUOUS
 62
     3
100
AcDbLine
 10
2721.0284
 20
3985.050979
 30
0.0
 11
2721.0284
 21
3825.050979
 31
0.0
  0
LINE
  5
218
330
212
100
AcDbEntity
  8
PRO0
  6
CONTINUOUS
 62
     3
100
AcDbLine
 10
2408.609295
 20
3825.050979
 30
0.0
 11
2741.0284
 21
3825.050979
 31
0.0
  0
TEXT
  5
219
330
212
100
AcDbEntity
  8
PRO0
  6
CONTINUOUS
 62
     3
100
AcDbText
 10
2711.0284
 20
3838.841755
 30
0.0
 40
60.0
  1
１６０
 50
90.0
 41
0.858268
 51
0.0
  7
BIGFONT
 72
     1
 11
2711.0284
 21
3905.050979
 31
0.0
100
AcDbText
  0
ENDBLK
  5
214
330
212
100
AcDbEntity
  8
0
100
AcDbBlockEnd
  0
BLOCK
  5
225
330
21B
100
AcDbEntity
  8
0
100
AcDbBlockBegin
  2
*D4
 70
     1
 71
     0
 10
0.0
 20
0.0
 30
0.0
  3
*D4
  1

  0
LINE
  5
21C
330
21B
100
AcDbEntity
  8
PRO0
 62
     0
100
AcDbLine
 10
2492.61981
 20
3985.050979
 30
0.0
 11
2721.2084
 21
3985.050979
 31
0.0
  0
LINE
  5
21D
330
21B
100
AcDbEntity
  8
PRO0
 62
     0
100
AcDbLine
 10
2408.671795
 20
3825.050979
 30
0.0
 11
2721.2084
 21
3825.050979
 31
0.0
  0
LINE
  5
21E
330
21B
100
AcDbEntity
  8
PRO0
 62
     0
100
AcDbLine
 10
2721.0284
 20
3965.050979
 30
0.0
 11
2721.0284
 21
3845.050979
 31
0.0
  0
SOLID
  5
21F
330
21B
100
AcDbEntity
  8
PRO0
 62
     0
100
AcDbTrace
 10
2724.361733
 20
3965.050979
 30
0.0
 11
2717.695066
 21
3965.050979
 31
0.0
 12
2721.0284
 22
3985.050979
 32
0.0
 13
2721.0284
 23
3985.050979
 33
0.0
  0
SOLID
  5
220
330
21B
100
AcDbEntity
  8
PRO0
 62
     0
100
AcDbTrace
 10
2717.695066
 20
3845.050979
 30
0.0
 11
2724.361733
 21
3845.050979
 31
0.0
 12
2721.0284
 22
3825.050979
 32
0.0
 13
2721.0284
 23
3825.050979
 33
0.0
  0
MTEXT
  5
221
330
21B
100
AcDbEntity
  8
PRO0
 62
     3
100
AcDbMText
 10
2681.0284
 20
3905.050979
 30
0.0
 40
60.0
 41
0.0
 71
     5
 72
     1
  1
\A1;１６０
  7
DIMTEXTSTYLE
 11
6.123031769111886E-17
 21
1.0
 31
0.0
  0
POINT
  5
222
330
21B
100
AcDbEntity
  8
DEFPOINTS
 62
     0
100
AcDbPoint
 10
2492.55731
 20
3985.050979
 30
0.0
  0
POINT
  5
223
330
21B
100
AcDbEntity
  8
DEFPOINTS
 62
     0
100
AcDbPoint
 10
2408.609295
 20
3825.050979
 30
0.0
  0
POINT
  5
224
330
21B
100
AcDbEntity
  8
DEFPOINTS
 62
     0
100
AcDbPoint
 10
2721.0284
 20
3825.050979
 30
0.0
  0
ENDBLK
  5
226
330
21B
100
AcDbEntity
  8
0
100
AcDbBlockEnd
  0
BLOCK
  5
228
330
227
100
AcDbEntity
  8
0
100
AcDbBlockBegin
  2
DIM_2
 70
     0
 71
     0
 10
2408.609295
 20
3825.050979
 30
0.0
  3
DIM_2
  1

  0
CIRCLE
  5
22A
330
227
100
AcDbEntity
  8
PRO0
  6
CONTINUOUS
 62
     3
100
AcDbCircle
 10
2721.0284
 20
3785.050979
 30
0.0
 40
10.0
  0
LINE
  5
22B
330
227
100
AcDbEntity
  8
PRO0
  6
CONTINUOUS
 62
     3
100
AcDbLine
 10
2721.0284
 20
3825.050979
 30
0.0
 11
2721.0284
 21
3785.050979
 31
0.0
  0
LINE
  5
22C
330
227
100
AcDbEntity
  8
PRO0
  6
CONTINUOUS
 62
     3
100
AcDbLine
 10
2407.054702
 20
3785.050979
 30
0.0
 11
2741.0284
 21
3785.050979
 31
0.0
  0
TEXT
  5
22D
330
227
100
AcDbEntity
  8
PRO0
  6
CONTINUOUS
 62
     3
100
AcDbText
 10
2711.0284
 20
3680.911497
 30
0.0
 40
60.0
  1
４０
 50
90.0
 41
0.858268
 51
0.0
  7
BIGFONT
 72
     1
 11
2711.0284
 21
3725.050979
 31
0.0
100
AcDbText
  0
ENDBLK
  5
229
330
227
100
AcDbEntity
  8
0
100
AcDbBlockEnd
  0
BLOCK
  5
23A
330
22F
100
AcDbEntity
  8
0
100
AcDbBlockBegin
  2
*D6
 70
     1
 71
     0
 10
0.0
 20
0.0
 30
0.0
  3
*D6
  1

  0
LINE
  5
230
330
22F
100
AcDbEntity
  8
PRO0
 62
     0
100
AcDbLine
 10
2408.671795
 20
3825.050979
 30
0.0
 11
2721.2084
 21
3825.050979
 31
0.0
  0
LINE
  5
231
330
22F
100
AcDbEntity
  8
PRO0
 62
     0
100
AcDbLine
 10
2407.117202
 20
3785.050979
 30
0.0
 11
2721.2084
 21
3785.050979
 31
0.0
  0
LINE
  5
232
330
22F
100
AcDbEntity
  8
PRO0
 62
     0
100
AcDbLine
 10
2721.0284
 20
3807.050979
 30
0.0
 11
2721.0284
 21
3803.050979
 31
0.0
  0
LINE
  5
233
330
22F
100
AcDbEntity
  8
PRO0
 62
     0
100
AcDbLine
 10
2721.0284
 20
3785.050979
 30
0.0
 11
2721.0284
 21
3725.050979
 31
0.0
  0
SOLID
  5
234
330
22F
100
AcDbEntity
  8
PRO0
 62
     0
100
AcDbTrace
 10
2724.0284
 20
3807.050979
 30
0.0
 11
2718.0284
 21
3807.050979
 31
0.0
 12
2721.0284
 22
3825.050979
 32
0.0
 13
2721.0284
 23
3825.050979
 33
0.0
  0
SOLID
  5
235
330
22F
100
AcDbEntity
  8
PRO0
 62
     0
100
AcDbTrace
 10
2718.0284
 20
3803.050979
 30
0.0
 11
2724.0284
 21
3803.050979
 31
0.0
 12
2721.0284
 22
3785.050979
 32
0.0
 13
2721.0284
 23
3785.050979
 33
0.0
  0
MTEXT
  5
236
330
22F
100
AcDbEntity
  8
PRO0
 62
     3
100
AcDbMText
 10
2681.0284
 20
3725.050979
 30
0.0
 40
60.0
 41
0.0
 71
     5
 72
     1
  1
\A1;４０
  7
DIMTEXTSTYLE
 11
6.123031769111886E-17
 21
1.0
 31
0.0
  0
POINT
  5
237
330
22F
100
AcDbEntity
  8
DEFPOINTS
 62
     0
100
AcDbPoint
 10
2408.609295
 20
3825.050979
 30
0.0
  0
POINT
  5
238
330
22F
100
AcDbEntity
  8
DEFPOINTS
 62
     0
100
AcDbPoint
 10
2407.054702
 20
3785.050979
 30
0.0
  0
POINT
  5
239
330
22F
100
AcDbEntity
  8
DEFPOINTS
 62
     0
100
AcDbPoint
 10
2721.0284
 20
3785.050979
 30
0.0
  0
ENDBLK
  5
23B
330
22F
100
AcDbEntity
  8
0
100
AcDbBlockEnd
  0
BLOCK
  5
23D
330
23C
100
AcDbEntity
  8
0
100
AcDbBlockBegin
  2
DIM_3
 70
     0
 71
     0
 10
6459.193149
 20
4337.050979
 30
0.0
  3
DIM_3
  1

  0
CIRCLE
  5
23F
330
23C
100
AcDbEntity
  8
PRO0
  6
CONTINUOUS
 62
     3
100
AcDbCircle
 10
7008.158388
 20
4337.050979
 30
0.0
 40
10.0
  0
CIRCLE
  5
240
330
23C
100
AcDbEntity
  8
PRO0
  6
CONTINUOUS
 62
     3
100
AcDbCircle
 10
7008.158388
 20
4035.050979
 30
0.0
 40
10.0
  0
LINE
  5
241
330
23C
100
AcDbEntity
  8
PRO0
  6
CONTINUOUS
 62
     3
100
AcDbLine
 10
7008.158388
 20
4337.050979
 30
0.0
 11
7008.158388
 21
4035.050979
 31
0.0
  0
LINE
  5
242
330
23C
100
AcDbEntity
  8
PRO0
  6
CONTINUOUS
 62
     3
100
AcDbLine
 10
6459.193149
 20
4337.050979
 30
0.0
 11
7028.158388
 21
4337.050979
 31
0.0
  0
LINE
  5
243
330
23C
100
AcDbEntity
  8
PRO0
  6
CONTINUOUS
 62
     3
100
AcDbLine
 10
6711.814321
 20
4035.050979
 30
0.0
 11
7028.158388
 21
4035.050979
 31
0.0
  0
TEXT
  5
244
330
23C
100
AcDbEntity
  8
PRO0
  6
CONTINUOUS
 62
     3
100
AcDbText
 10
6998.158388
 20
4119.841755
 30
0.0
 40
60.0
  1
３０２
 50
90.0
 41
0.858268
 51
0.0
  7
BIGFONT
 72
     1
 11
6998.158388
 21
4186.050979
 31
0.0
100
AcDbText
  0
ENDBLK
  5
23E
330
23C
100
AcDbEntity
  8
0
100
AcDbBlockEnd
  0
BLOCK
  5
250
330
246
100
AcDbEntity
  8
0
100
AcDbBlockBegin
  2
*D8
 70
     1
 71
     0
 10
0.0
 20
0.0
 30
0.0
  3
*D8
  1

  0
LINE
  5
247
330
246
100
AcDbEntity
  8
PRO0
 62
     0
100
AcDbLine
 10
6459.255649
 20
4337.050979
 30
0.0
 11
7008.338388
 21
4337.050979
 31
0.0
  0
LINE
  5
248
330
246
100
AcDbEntity
  8
PRO0
 62
     0
100
AcDbLine
 10
6711.876821
 20
4035.050979
 30
0.0
 11
7008.338388
 21
4035.050979
 31
0.0
  0
LINE
  5
249
330
246
100
AcDbEntity
  8
PRO0
 62
     0
100
AcDbLine
 10
7008.158388
 20
4317.050979
 30
0.0
 11
7008.158388
 21
4055.050979
 31
0.0
  0
SOLID
  5
24A
330
246
100
AcDbEntity
  8
PRO0
 62
     0
100
AcDbTrace
 10
7011.491721
 20
4317.050979
 30
0.0
 11
7004.825055
 21
4317.050979
 31
0.0
 12
7008.158388
 22
4337.050979
 32
0.0
 13
7008.158388
 23
4337.050979
 33
0.0
  0
SOLID
  5
24B
330
246
100
AcDbEntity
  8
PRO0
 62
     0
100
AcDbTrace
 10
7004.825055
 20
4055.050979
 30
0.0
 11
7011.491721
 21
4055.050979
 31
0.0
 12
7008.158388
 22
4035.050979
 32
0.0
 13
7008.158388
 23
4035.050979
 33
0.0
  0
MTEXT
  5
24C
330
246
100
AcDbEntity
  8
PRO0
 62
     3
100
AcDbMText
 10
6968.158388
 20
4186.050979
 30
0.0
 40
60.0
 41
0.0
 71
     5
 72
     1
  1
\A1;３０２
  7
DIMTEXTSTYLE
 11
6.123031769111886E-17
 21
1.0
 31
0.0
  0
POINT
  5
24D
330
246
100
AcDbEntity
  8
DEFPOINTS
 62
     0
100
AcDbPoint
 10
6459.193149
 20
4337.050979
 30
0.0
  0
POINT
  5
24E
330
246
100
AcDbEntity
  8
DEFPOINTS
 62
     0
100
AcDbPoint
 10
6711.814321
 20
4035.050979
 30
0.0
  0
POINT
  5
24F
330
246
100
AcDbEntity
  8
DEFPOINTS
 62
     0
100
AcDbPoint
 10
7008.158388
 20
4035.050979
 30
0.0
  0
ENDBLK
  5
251
330
246
100
AcDbEntity
  8
0
100
AcDbBlockEnd
  0
BLOCK
  5
253
330
252
100
AcDbEntity
  8
0
100
AcDbBlockBegin
  2
DIM_4
 70
     0
 71
     0
 10
6711.814321
 20
4035.050979
 30
0.0
  3
DIM_4
  1

  0
CIRCLE
  5
255
330
252
100
AcDbEntity
  8
PRO0
  6
CONTINUOUS
 62
     3
100
AcDbCircle
 10
7008.158388
 20
4035.050979
 30
0.0
 40
10.0
  0
CIRCLE
  5
256
330
252
100
AcDbEntity
  8
PRO0
  6
CONTINUOUS
 62
     3
100
AcDbCircle
 10
7008.158388
 20
3825.050979
 30
0.0
 40
10.0
  0
LINE
  5
257
330
252
100
AcDbEntity
  8
PRO0
  6
CONTINUOUS
 62
     3
100
AcDbLine
 10
7008.158388
 20
4035.050979
 30
0.0
 11
7008.158388
 21
3825.050979
 31
0.0
  0
LINE
  5
258
330
252
100
AcDbEntity
  8
PRO0
  6
CONTINUOUS
 62
     3
100
AcDbLine
 10
6595.219934
 20
3825.050979
 30
0.0
 11
7028.158388
 21
3825.050979
 31
0.0
  0
TEXT
  5
259
330
252
100
AcDbEntity
  8
PRO0
  6
CONTINUOUS
 62
     3
100
AcDbText
 10
6998.158388
 20
3863.841755
 30
0.0
 40
60.0
  1
２１０
 50
90.0
 41
0.858268
 51
0.0
  7
BIGFONT
 72
     1
 11
6998.158388
 21
3930.050979
 31
0.0
100
AcDbText
  0
ENDBLK
  5
254
330
252
100
AcDbEntity
  8
0
100
AcDbBlockEnd
  0
BLOCK
  5
265
330
25B
100
AcDbEntity
  8
0
100
AcDbBlockBegin
  2
*D10
 70
     1
 71
     0
 10
0.0
 20
0.0
 30
0.0
  3
*D10
  1

  0
LINE
  5
25C
330
25B
100
AcDbEntity
  8
PRO0
 62
     0
100
AcDbLine
 10
6711.876821
 20
4035.050979
 30
0.0
 11
7008.338388
 21
4035.050979
 31
0.0
  0
LINE
  5
25D
330
25B
100
AcDbEntity
  8
PRO0
 62
     0
100
AcDbLine
 10
6595.282434
 20
3825.050979
 30
0.0
 11
7008.338388
 21
3825.050979
 31
0.0
  0
LINE
  5
25E
330
25B
100
AcDbEntity
  8
PRO0
 62
     0
100
AcDbLine
 10
7008.158388
 20
4015.050979
 30
0.0
 11
7008.158388
 21
3845.050979
 31
0.0
  0
SOLID
  5
25F
330
25B
100
AcDbEntity
  8
PRO0
 62
     0
100
AcDbTrace
 10
7011.491721
 20
4015.050979
 30
0.0
 11
7004.825055
 21
4015.050979
 31
0.0
 12
7008.158388
 22
4035.050979
 32
0.0
 13
7008.158388
 23
4035.050979
 33
0.0
  0
SOLID
  5
260
330
25B
100
AcDbEntity
  8
PRO0
 62
     0
100
AcDbTrace
 10
7004.825055
 20
3845.050979
 30
0.0
 11
7011.491721
 21
3845.050979
 31
0.0
 12
7008.158388
 22
3825.050979
 32
0.0
 13
7008.158388
 23
3825.050979
 33
0.0
  0
MTEXT
  5
261
330
25B
100
AcDbEntity
  8
PRO0
 62
     3
100
AcDbMText
 10
6968.158388
 20
3930.050979
 30
0.0
 40
60.0
 41
0.0
 71
     5
 72
     1
  1
\A1;２１０
  7
DIMTEXTSTYLE
 11
6.123031769111886E-17
 21
1.0
 31
0.0
  0
POINT
  5
262
330
25B
100
AcDbEntity
  8
DEFPOINTS
 62
     0
100
AcDbPoint
 10
6711.814321
 20
4035.050979
 30
0.0
  0
POINT
  5
263
330
25B
100
AcDbEntity
  8
DEFPOINTS
 62
     0
100
AcDbPoint
 10
6595.219934
 20
3825.050979
 30
0.0
  0
POINT
  5
264
330
25B
100
AcDbEntity
  8
DEFPOINTS
 62
     0
100
AcDbPoint
 10
7008.158388
 20
3825.050979
 30
0.0
  0
ENDBLK
  5
266
330
25B
100
AcDbEntity
  8
0
100
AcDbBlockEnd
  0
BLOCK
  5
268
330
267
100
AcDbEntity
  8
0
100
AcDbBlockBegin
  2
DIM_5
 70
     0
 71
     0
 10
6595.219934
 20
3825.050979
 30
0.0
  3
DIM_5
  1

  0
CIRCLE
  5
26A
330
267
100
AcDbEntity
  8
PRO0
  6
CONTINUOUS
 62
     3
100
AcDbCircle
 10
7008.158388
 20
3785.050979
 30
0.0
 40
10.0
  0
LINE
  5
26B
330
267
100
AcDbEntity
  8
PRO0
  6
CONTINUOUS
 62
     3
100
AcDbLine
 10
7008.158388
 20
3825.050979
 30
0.0
 11
7008.158388
 21
3785.050979
 31
0.0
  0
LINE
  5
26C
330
267
100
AcDbEntity
  8
PRO0
  6
CONTINUOUS
 62
     3
100
AcDbLine
 10
6597.648984
 20
3785.050979
 30
0.0
 11
7028.158388
 21
3785.050979
 31
0.0
  0
TEXT
  5
26D
330
267
100
AcDbEntity
  8
PRO0
  6
CONTINUOUS
 62
     3
100
AcDbText
 10
6998.158388
 20
3680.911497
 30
0.0
 40
60.0
  1
４０
 50
90.0
 41
0.858268
 51
0.0
  7
BIGFONT
 72
     1
 11
6998.158388
 21
3725.050979
 31
0.0
100
AcDbText
  0
ENDBLK
  5
269
330
267
100
AcDbEntity
  8
0
100
AcDbBlockEnd
  0
BLOCK
  5
27A
330
26F
100
AcDbEntity
  8
0
100
AcDbBlockBegin
  2
*D12
 70
     1
 71
     0
 10
0.0
 20
0.0
 30
0.0
  3
*D12
  1

  0
LINE
  5
270
330
26F
100
AcDbEntity
  8
PRO0
 62
     0
100
AcDbLine
 10
6595.282434
 20
3825.050979
 30
0.0
 11
7008.338388
 21
3825.050979
 31
0.0
  0
LINE
  5
271
330
26F
100
AcDbEntity
  8
PRO0
 62
     0
100
AcDbLine
 10
6597.711484
 20
3785.050979
 30
0.0
 11
7008.338388
 21
3785.050979
 31
0.0
  0
LINE
  5
272
330
26F
100
AcDbEntity
  8
PRO0
 62
     0
100
AcDbLine
 10
7008.158388
 20
3807.050979
 30
0.0
 11
7008.158388
 21
3803.050979
 31
0.0
  0
LINE
  5
273
330
26F
100
AcDbEntity
  8
PRO0
 62
     0
100
AcDbLine
 10
7008.158388
 20
3785.050979
 30
0.0
 11
7008.158388
 21
3725.050979
 31
0.0
  0
SOLID
  5
274
330
26F
100
AcDbEntity
  8
PRO0
 62
     0
100
AcDbTrace
 10
7011.158388
 20
3807.050979
 30
0.0
 11
7005.158388
 21
3807.050979
 31
0.0
 12
7008.158388
 22
3825.050979
 32
0.0
 13
7008.158388
 23
3825.050979
 33
0.0
  0
SOLID
  5
275
330
26F
100
AcDbEntity
  8
PRO0
 62
     0
100
AcDbTrace
 10
7005.158388
 20
3803.050979
 30
0.0
 11
7011.158388
 21
3803.050979
 31
0.0
 12
7008.158388
 22
3785.050979
 32
0.0
 13
7008.158388
 23
3785.050979
 33
0.0
  0
MTEXT
  5
276
330
26F
100
AcDbEntity
  8
PRO0
 62
     3
100
AcDbMText
 10
6968.158388
 20
3725.050979
 30
0.0
 40
60.0
 41
0.0
 71
     5
 72
     1
  1
\A1;４０
  7
DIMTEXTSTYLE
 11
6.123031769111886E-17
 21
1.0
 31
0.0
  0
POINT
  5
277
330
26F
100
AcDbEntity
  8
DEFPOINTS
 62
     0
100
AcDbPoint
 10
6595.219934
 20
3825.050979
 30
0.0
  0
POINT
  5
278
330
26F
100
AcDbEntity
  8
DEFPOINTS
 62
     0
100
AcDbPoint
 10
6597.648984
 20
3785.050979
 30
0.0
  0
POINT
  5
279
330
26F
100
AcDbEntity
  8
DEFPOINTS
 62
     0
100
AcDbPoint
 10
7008.158388
 20
3785.050979
 30
0.0
  0
ENDBLK
  5
27B
330
26F
100
AcDbEntity
  8
0
100
AcDbBlockEnd
  0
BLOCK
  5
27D
330
27C
100
AcDbEntity
  8
0
100
AcDbBlockBegin
  2
DIM_6
 70
     0
 71
     0
 10
2581.129719
 20
1553.153028
 30
0.0
  3
DIM_6
  1

  0
CIRCLE
  5
27F
330
27C
100
AcDbEntity
  8
PRO0
  6
CONTINUOUS
 62
     3
100
AcDbCircle
 10
3256.405081
 20
1553.153028
 30
0.0
 40
10.0
  0
CIRCLE
  5
280
330
27C
100
AcDbEntity
  8
PRO0
  6
CONTINUOUS
 62
     3
100
AcDbCircle
 10
3256.405081
 20
1165.153028
 30
0.0
 40
10.0
  0
LINE
  5
281
330
27C
100
AcDbEntity
  8
PRO0
  6
CONTINUOUS
 62
     3
100
AcDbLine
 10
3256.405081
 20
1553.153028
 30
0.0
 11
3256.405081
 21
1165.153028
 31
0.0
  0
LINE
  5
282
330
27C
100
AcDbEntity
  8
PRO0
  6
CONTINUOUS
 62
     3
100
AcDbLine
 10
2581.129719
 20
1553.153028
 30
0.0
 11
3276.405081
 21
1553.153028
 31
0.0
  0
LINE
  5
283
330
27C
100
AcDbEntity
  8
PRO0
  6
CONTINUOUS
 62
     3
100
AcDbLine
 10
2930.91264
 20
1165.153028
 30
0.0
 11
3276.405081
 21
1165.153028
 31
0.0
  0
TEXT
  5
284
330
27C
100
AcDbEntity
  8
PRO0
  6
CONTINUOUS
 62
     3
100
AcDbText
 10
3246.405081
 20
1292.943804
 30
0.0
 40
60.0
  1
３８８
 50
90.0
 41
0.858268
 51
0.0
  7
BIGFONT
 72
     1
 11
3246.405081
 21
1359.153028
 31
0.0
100
AcDbText
  0
ENDBLK
  5
27E
330
27C
100
AcDbEntity
  8
0
100
AcDbBlockEnd
  0
BLOCK
  5
290
330
286
100
AcDbEntity
  8
0
100
AcDbBlockBegin
  2
*D14
 70
     1
 71
     0
 10
0.0
 20
0.0
 30
0.0
  3
*D14
  1

  0
LINE
  5
287
330
286
100
AcDbEntity
  8
PRO0
 62
     0
100
AcDbLine
 10
2581.192219
 20
1553.153028
 30
0.0
 11
3256.585081
 21
1553.153028
 31
0.0
  0
LINE
  5
288
330
286
100
AcDbEntity
  8
PRO0
 62
     0
100
AcDbLine
 10
2930.97514
 20
1165.153028
 30
0.0
 11
3256.585081
 21
1165.153028
 31
0.0
  0
LINE
  5
289
330
286
100
AcDbEntity
  8
PRO0
 62
     0
100
AcDbLine
 10
3256.405081
 20
1533.153028
 30
0.0
 11
3256.405081
 21
1185.153028
 31
0.0
  0
SOLID
  5
28A
330
286
100
AcDbEntity
  8
PRO0
 62
     0
100
AcDbTrace
 10
3259.738414
 20
1533.153028
 30
0.0
 11
3253.071748
 21
1533.153028
 31
0.0
 12
3256.405081
 22
1553.153028
 32
0.0
 13
3256.405081
 23
1553.153028
 33
0.0
  0
SOLID
  5
28B
330
286
100
AcDbEntity
  8
PRO0
 62
     0
100
AcDbTrace
 10
3253.071748
 20
1185.153028
 30
0.0
 11
3259.738414
 21
1185.153028
 31
0.0
 12
3256.405081
 22
1165.153028
 32
0.0
 13
3256.405081
 23
1165.153028
 33
0.0
  0
MTEXT
  5
28C
330
286
100
AcDbEntity
  8
PRO0
 62
     3
100
AcDbMText
 10
3216.405081
 20
1359.153028
 30
0.0
 40
60.0
 41
0.0
 71
     5
 72
     1
  1
\A1;３８８
  7
DIMTEXTSTYLE
 11
6.123031769111886E-17
 21
1.0
 31
0.0
  0
POINT
  5
28D
330
286
100
AcDbEntity
  8
DEFPOINTS
 62
     0
100
AcDbPoint
 10
2581.129719
 20
1553.153028
 30
0.0
  0
POINT
  5
28E
330
286
100
AcDbEntity
  8
DEFPOINTS
 62
     0
100
AcDbPoint
 10
2930.91264
 20
1165.153028
 30
0.0
  0
POINT
  5
28F
330
286
100
AcDbEntity
  8
DEFPOINTS
 62
     0
100
AcDbPoint
 10
3256.405081
 20
1165.153028
 30
0.0
  0
ENDBLK
  5
291
330
286
100
AcDbEntity
  8
0
100
AcDbBlockEnd
  0
BLOCK
  5
293
330
292
100
AcDbEntity
  8
0
100
AcDbBlockBegin
  2
DIM_7
 70
     0
 71
     0
 10
2930.91264
 20
1165.153028
 30
0.0
  3
DIM_7
  1

  0
CIRCLE
  5
295
330
292
100
AcDbEntity
  8
PRO0
  6
CONTINUOUS
 62
     3
100
AcDbCircle
 10
3256.405081
 20
1165.153028
 30
0.0
 40
10.0
  0
CIRCLE
  5
296
330
292
100
AcDbEntity
  8
PRO0
  6
CONTINUOUS
 62
     3
100
AcDbCircle
 10
3256.405081
 20
916.228328
 30
0.0
 40
10.0
  0
LINE
  5
297
330
292
100
AcDbEntity
  8
PRO0
  6
CONTINUOUS
 62
     3
100
AcDbLine
 10
3256.405081
 20
1165.153028
 30
0.0
 11
3256.405081
 21
916.228328
 31
0.0
  0
LINE
  5
298
330
292
100
AcDbEntity
  8
PRO0
  6
CONTINUOUS
 62
     3
100
AcDbLine
 10
2743.875939
 20
916.228328
 30
0.0
 11
3276.405081
 21
916.228328
 31
0.0
  0
TEXT
  5
299
330
292
100
AcDbEntity
  8
PRO0
  6
CONTINUOUS
 62
     3
100
AcDbText
 10
3246.405081
 20
974.481454
 30
0.0
 40
60.0
  1
２５０
 50
90.0
 41
0.858268
  7
BIGFONT
 72
     1
 11
3246.405081
 21
1040.690678
 31
0.0
100
AcDbText
  0
ENDBLK
  5
294
330
292
100
AcDbEntity
  8
0
100
AcDbBlockEnd
  0
BLOCK
  5
2A5
330
29B
100
AcDbEntity
  8
0
100
AcDbBlockBegin
  2
*D16
 70
     1
 71
     0
 10
0.0
 20
0.0
 30
0.0
  3
*D16
  1

  0
LINE
  5
29C
330
29B
100
AcDbEntity
  8
PRO0
 62
     0
100
AcDbLine
 10
2930.97514
 20
1165.153028
 30
0.0
 11
3256.585081
 21
1165.153028
 31
0.0
  0
LINE
  5
29D
330
29B
100
AcDbEntity
  8
PRO0
 62
     0
100
AcDbLine
 10
2743.938439
 20
916.228328
 30
0.0
 11
3256.585081
 21
916.228328
 31
0.0
  0
LINE
  5
29E
330
29B
100
AcDbEntity
  8
PRO0
 62
     0
100
AcDbLine
 10
3256.405081
 20
1145.153028
 30
0.0
 11
3256.405081
 21
936.228328
 31
0.0
  0
SOLID
  5
29F
330
29B
100
AcDbEntity
  8
PRO0
 62
     0
100
AcDbTrace
 10
3259.738414
 20
1145.153028
 30
0.0
 11
3253.071748
 21
1145.153028
 31
0.0
 12
3256.405081
 22
1165.153028
 32
0.0
 13
3256.405081
 23
1165.153028
 33
0.0
  0
SOLID
  5
2A0
330
29B
100
AcDbEntity
  8
PRO0
 62
     0
100
AcDbTrace
 10
3253.071748
 20
936.228328
 30
0.0
 11
3259.738414
 21
936.228328
 31
0.0
 12
3256.405081
 22
916.228328
 32
0.0
 13
3256.405081
 23
916.228328
 33
0.0
  0
MTEXT
  5
2A1
330
29B
100
AcDbEntity
  8
PRO0
 62
     3
100
AcDbMText
 10
3216.405081
 20
1040.690678
 30
0.0
 40
60.0
 41
0.0
 71
     5
 72
     1
  1
\A1;２５０
  7
DIMTEXTSTYLE
 11
6.123031769111886E-17
 21
1.0
 31
0.0
  0
POINT
  5
2A2
330
29B
100
AcDbEntity
  8
DEFPOINTS
 62
     0
100
AcDbPoint
 10
2930.91264
 20
1165.153028
 30
0.0
  0
POINT
  5
2A3
330
29B
100
AcDbEntity
  8
DEFPOINTS
 62
     0
100
AcDbPoint
 10
2743.875939
 20
916.228328
 30
0.0
  0
POINT
  5
2A4
330
29B
100
AcDbEntity
  8
DEFPOINTS
 62
     0
100
AcDbPoint
 10
3256.405081
 20
916.228328
 30
0.0
  0
ENDBLK
  5
2A6
330
29B
100
AcDbEntity
  8
0
100
AcDbBlockEnd
  0
BLOCK
  5
2A8
330
2A7
100
AcDbEntity
  8
0
100
AcDbBlockBegin
  2
DIM_8
 70
     0
 71
     0
 10
2743.875939
 20
916.228328
 30
0.0
  3
DIM_8
  1

  0
CIRCLE
  5
2AA
330
2A7
100
AcDbEntity
  8
PRO0
  6
CONTINUOUS
 62
     3
100
AcDbCircle
 10
3256.405081
 20
876.228328
 30
0.0
 40
10.0
  0
LINE
  5
2AB
330
2A7
100
AcDbEntity
  8
PRO0
  6
CONTINUOUS
 62
     3
100
AcDbLine
 10
3256.405081
 20
916.228328
 30
0.0
 11
3256.405081
 21
876.228328
 31
0.0
  0
LINE
  5
2AC
330
2A7
100
AcDbEntity
  8
PRO0
  6
CONTINUOUS
 62
     3
100
AcDbLine
 10
2743.875939
 20
876.228328
 30
0.0
 11
3276.405081
 21
876.228328
 31
0.0
  0
TEXT
  5
2AD
330
2A7
100
AcDbEntity
  8
PRO0
  6
CONTINUOUS
 62
     3
100
AcDbText
 10
3246.405081
 20
772.088846
 30
0.0
 40
60.0
  1
４０
 50
90.0
 41
0.858268
 51
0.0
  7
BIGFONT
 72
     1
 11
3246.405081
 21
816.228328
 31
0.0
100
AcDbText
  0
ENDBLK
  5
2A9
330
2A7
100
AcDbEntity
  8
0
100
AcDbBlockEnd
  0
BLOCK
  5
2BA
330
2AF
100
AcDbEntity
  8
0
100
AcDbBlockBegin
  2
*D18
 70
     1
 71
     0
 10
0.0
 20
0.0
 30
0.0
  3
*D18
  1

  0
LINE
  5
2B0
330
2AF
100
AcDbEntity
  8
PRO0
 62
     0
100
AcDbLine
 10
2743.938439
 20
916.228328
 30
0.0
 11
3256.585081
 21
916.228328
 31
0.0
  0
LINE
  5
2B1
330
2AF
100
AcDbEntity
  8
PRO0
 62
     0
100
AcDbLine
 10
2743.938439
 20
876.228328
 30
0.0
 11
3256.585081
 21
876.228328
 31
0.0
  0
LINE
  5
2B2
330
2AF
100
AcDbEntity
  8
PRO0
 62
     0
100
AcDbLine
 10
3256.405081
 20
898.228328
 30
0.0
 11
3256.405081
 21
894.228328
 31
0.0
  0
LINE
  5
2B3
330
2AF
100
AcDbEntity
  8
PRO0
 62
     0
100
AcDbLine
 10
3256.405081
 20
876.228328
 30
0.0
 11
3256.405081
 21
816.228328
 31
0.0
  0
SOLID
  5
2B4
330
2AF
100
AcDbEntity
  8
PRO0
 62
     0
100
AcDbTrace
 10
3259.405081
 20
898.228328
 30
0.0
 11
3253.405081
 21
898.228328
 31
0.0
 12
3256.405081
 22
916.228328
 32
0.0
 13
3256.405081
 23
916.228328
 33
0.0
  0
SOLID
  5
2B5
330
2AF
100
AcDbEntity
  8
PRO0
 62
     0
100
AcDbTrace
 10
3253.405081
 20
894.228328
 30
0.0
 11
3259.405081
 21
894.228328
 31
0.0
 12
3256.405081
 22
876.228328
 32
0.0
 13
3256.405081
 23
876.228328
 33
0.0
  0
MTEXT
  5
2B6
330
2AF
100
AcDbEntity
  8
PRO0
 62
     3
100
AcDbMText
 10
3216.405081
 20
816.228328
 30
0.0
 40
60.0
 41
0.0
 71
     5
 72
     1
  1
\A1;４０
  7
DIMTEXTSTYLE
 11
6.123031769111886E-17
 21
1.0
 31
0.0
  0
POINT
  5
2B7
330
2AF
100
AcDbEntity
  8
DEFPOINTS
 62
     0
100
AcDbPoint
 10
2743.875939
 20
916.228328
 30
0.0
  0
POINT
  5
2B8
330
2AF
100
AcDbEntity
  8
DEFPOINTS
 62
     0
100
AcDbPoint
 10
2743.875939
 20
876.228328
 30
0.0
  0
POINT
  5
2B9
330
2AF
100
AcDbEntity
  8
DEFPOINTS
 62
     0
100
AcDbPoint
 10
3256.405081
 20
876.228328
 30
0.0
  0
ENDBLK
  5
2BB
330
2AF
100
AcDbEntity
  8
0
100
AcDbBlockEnd
  0
BLOCK
  5
2BD
330
2BC
100
AcDbEntity
  8
0
100
AcDbBlockBegin
  2
DIM_9
 70
     0
 71
     0
 10
6718.802663
 20
1660.228328
 30
0.0
  3
DIM_9
  1

  0
CIRCLE
  5
2BF
330
2BC
100
AcDbEntity
  8
PRO0
  6
CONTINUOUS
 62
     3
100
AcDbCircle
 10
7528.692252
 20
1660.228328
 30
0.0
 40
10.0
  0
CIRCLE
  5
2C0
330
2BC
100
AcDbEntity
  8
PRO0
  6
CONTINUOUS
 62
     3
100
AcDbCircle
 10
7528.692252
 20
1206.228328
 30
0.0
 40
10.0
  0
LINE
  5
2C1
330
2BC
100
AcDbEntity
  8
PRO0
  6
CONTINUOUS
 62
     3
100
AcDbLine
 10
7528.692252
 20
1660.228328
 30
0.0
 11
7528.692252
 21
1206.228328
 31
0.0
  0
LINE
  5
2C2
330
2BC
100
AcDbEntity
  8
PRO0
  6
CONTINUOUS
 62
     3
100
AcDbLine
 10
6718.802663
 20
1660.228328
 30
0.0
 11
7548.692252
 21
1660.228328
 31
0.0
  0
LINE
  5
2C3
330
2BC
100
AcDbEntity
  8
PRO0
  6
CONTINUOUS
 62
     3
100
AcDbLine
 10
7134.655413
 20
1206.228328
 30
0.0
 11
7548.692252
 21
1206.228328
 31
0.0
  0
TEXT
  5
2C4
330
2BC
100
AcDbEntity
  8
PRO0
  6
CONTINUOUS
 62
     3
100
AcDbText
 10
7518.692252
 20
1367.019104
 30
0.0
 40
60.0
  1
４５４
 50
90.0
 41
0.858268
 51
0.0
  7
BIGFONT
 72
     1
 11
7518.692252
 21
1433.228328
 31
0.0
100
AcDbText
  0
ENDBLK
  5
2BE
330
2BC
100
AcDbEntity
  8
0
100
AcDbBlockEnd
  0
BLOCK
  5
2D0
330
2C6
100
AcDbEntity
  8
0
100
AcDbBlockBegin
  2
*D20
 70
     1
 71
     0
 10
0.0
 20
0.0
 30
0.0
  3
*D20
  1

  0
LINE
  5
2C7
330
2C6
100
AcDbEntity
  8
PRO0
 62
     0
100
AcDbLine
 10
6718.865163
 20
1660.228328
 30
0.0
 11
7528.872252
 21
1660.228328
 31
0.0
  0
LINE
  5
2C8
330
2C6
100
AcDbEntity
  8
PRO0
 62
     0
100
AcDbLine
 10
7134.717913
 20
1206.228328
 30
0.0
 11
7528.872252
 21
1206.228328
 31
0.0
  0
LINE
  5
2C9
330
2C6
100
AcDbEntity
  8
PRO0
 62
     0
100
AcDbLine
 10
7528.692252
 20
1640.228328
 30
0.0
 11
7528.692252
 21
1226.228328
 31
0.0
  0
SOLID
  5
2CA
330
2C6
100
AcDbEntity
  8
PRO0
 62
     0
100
AcDbTrace
 10
7532.025585
 20
1640.228328
 30
0.0
 11
7525.358919
 21
1640.228328
 31
0.0
 12
7528.692252
 22
1660.228328
 32
0.0
 13
7528.692252
 23
1660.228328
 33
0.0
  0
SOLID
  5
2CB
330
2C6
100
AcDbEntity
  8
PRO0
 62
     0
100
AcDbTrace
 10
7525.358919
 20
1226.228328
 30
0.0
 11
7532.025585
 21
1226.228328
 31
0.0
 12
7528.692252
 22
1206.228328
 32
0.0
 13
7528.692252
 23
1206.228328
 33
0.0
  0
MTEXT
  5
2CC
330
2C6
100
AcDbEntity
  8
PRO0
 62
     3
100
AcDbMText
 10
7488.692252
 20
1433.228328
 30
0.0
 40
60.0
 41
0.0
 71
     5
 72
     1
  1
\A1;４５４
  7
DIMTEXTSTYLE
 11
6.123031769111886E-17
 21
1.0
 31
0.0
  0
POINT
  5
2CD
330
2C6
100
AcDbEntity
  8
DEFPOINTS
 62
     0
100
AcDbPoint
 10
6718.802663
 20
1660.228328
 30
0.0
  0
POINT
  5
2CE
330
2C6
100
AcDbEntity
  8
DEFPOINTS
 62
     0
100
AcDbPoint
 10
7134.655413
 20
1206.228328
 30
0.0
  0
POINT
  5
2CF
330
2C6
100
AcDbEntity
  8
DEFPOINTS
 62
     0
100
AcDbPoint
 10
7528.692252
 20
1206.228328
 30
0.0
  0
ENDBLK
  5
2D1
330
2C6
100
AcDbEntity
  8
0
100
AcDbBlockEnd
  0
BLOCK
  5
2D3
330
2D2
100
AcDbEntity
  8
0
100
AcDbBlockBegin
  2
DIM_10
 70
     0
 71
     0
 10
7134.655413
 20
1206.228328
 30
0.0
  3
DIM_10
  1

  0
CIRCLE
  5
2D5
330
2D2
100
AcDbEntity
  8
PRO0
  6
CONTINUOUS
 62
     3
100
AcDbCircle
 10
7528.692252
 20
1206.228328
 30
0.0
 40
10.0
  0
CIRCLE
  5
2D6
330
2D2
100
AcDbEntity
  8
PRO0
  6
CONTINUOUS
 62
     3
100
AcDbCircle
 10
7528.692252
 20
916.228328
 30
0.0
 40
10.0
  0
LINE
  5
2D7
330
2D2
100
AcDbEntity
  8
PRO0
  6
CONTINUOUS
 62
     3
100
AcDbLine
 10
7528.692252
 20
1206.228328
 30
0.0
 11
7528.692252
 21
916.228328
 31
0.0
  0
LINE
  5
2D8
330
2D2
100
AcDbEntity
  8
PRO0
  6
CONTINUOUS
 62
     3
100
AcDbLine
 10
6911.183141
 20
916.228328
 30
0.0
 11
7548.692252
 21
916.228328
 31
0.0
  0
TEXT
  5
2D9
330
2D2
100
AcDbEntity
  8
PRO0
  6
CONTINUOUS
 62
     3
100
AcDbText
 10
7518.692252
 20
995.019104
 30
0.0
 40
60.0
  1
２９０
 50
90.0
 41
0.858268
 51
0.0
  7
BIGFONT
 72
     1
 11
7518.692252
 21
1061.228328
 31
0.0
100
AcDbText
  0
ENDBLK
  5
2D4
330
2D2
100
AcDbEntity
  8
0
100
AcDbBlockEnd
  0
BLOCK
  5
2E5
330
2DB
100
AcDbEntity
  8
0
100
AcDbBlockBegin
  2
*D22
 70
     1
 71
     0
 10
0.0
 20
0.0
 30
0.0
  3
*D22
  1

  0
LINE
  5
2DC
330
2DB
100
AcDbEntity
  8
PRO0
 62
     0
100
AcDbLine
 10
7134.717913
 20
1206.228328
 30
0.0
 11
7528.872252
 21
1206.228328
 31
0.0
  0
LINE
  5
2DD
330
2DB
100
AcDbEntity
  8
PRO0
 62
     0
100
AcDbLine
 10
6911.245641
 20
916.228328
 30
0.0
 11
7528.872252
 21
916.228328
 31
0.0
  0
LINE
  5
2DE
330
2DB
100
AcDbEntity
  8
PRO0
 62
     0
100
AcDbLine
 10
7528.692252
 20
1186.228328
 30
0.0
 11
7528.692252
 21
936.228328
 31
0.0
  0
SOLID
  5
2DF
330
2DB
100
AcDbEntity
  8
PRO0
 62
     0
100
AcDbTrace
 10
7532.025585
 20
1186.228328
 30
0.0
 11
7525.358919
 21
1186.228328
 31
0.0
 12
7528.692252
 22
1206.228328
 32
0.0
 13
7528.692252
 23
1206.228328
 33
0.0
  0
SOLID
  5
2E0
330
2DB
100
AcDbEntity
  8
PRO0
 62
     0
100
AcDbTrace
 10
7525.358919
 20
936.228328
 30
0.0
 11
7532.025585
 21
936.228328
 31
0.0
 12
7528.692252
 22
916.228328
 32
0.0
 13
7528.692252
 23
916.228328
 33
0.0
  0
MTEXT
  5
2E1
330
2DB
100
AcDbEntity
  8
PRO0
 62
     3
100
AcDbMText
 10
7488.692252
 20
1061.228328
 30
0.0
 40
60.0
 41
0.0
 71
     5
 72
     1
  1
\A1;２９０
  7
DIMTEXTSTYLE
 11
6.123031769111886E-17
 21
1.0
 31
0.0
  0
POINT
  5
2E2
330
2DB
100
AcDbEntity
  8
DEFPOINTS
 62
     0
100
AcDbPoint
 10
7134.655413
 20
1206.228328
 30
0.0
  0
POINT
  5
2E3
330
2DB
100
AcDbEntity
  8
DEFPOINTS
 62
     0
100
AcDbPoint
 10
6911.183141
 20
916.228328
 30
0.0
  0
POINT
  5
2E4
330
2DB
100
AcDbEntity
  8
DEFPOINTS
 62
     0
100
AcDbPoint
 10
7528.692252
 20
916.228328
 30
0.0
  0
ENDBLK
  5
2E6
330
2DB
100
AcDbEntity
  8
0
100
AcDbBlockEnd
  0
BLOCK
  5
2E8
330
2E7
100
AcDbEntity
  8
0
100
AcDbBlockBegin
  2
DIM_11
 70
     0
 71
     0
 10
6911.183141
 20
916.228328
 30
0.0
  3
DIM_11
  1

  0
CIRCLE
  5
2EA
330
2E7
100
AcDbEntity
  8
PRO0
  6
CONTINUOUS
 62
     3
100
AcDbCircle
 10
7528.692252
 20
876.228328
 30
0.0
 40
10.0
  0
LINE
  5
2EB
330
2E7
100
AcDbEntity
  8
PRO0
  6
CONTINUOUS
 62
     3
100
AcDbLine
 10
7528.692252
 20
916.228328
 30
0.0
 11
7528.692252
 21
876.228328
 31
0.0
  0
LINE
  5
2EC
330
2E7
100
AcDbEntity
  8
PRO0
  6
CONTINUOUS
 62
     3
100
AcDbLine
 10
6909.239904
 20
876.228328
 30
0.0
 11
7548.692252
 21
876.228328
 31
0.0
  0
TEXT
  5
2ED
330
2E7
100
AcDbEntity
  8
PRO0
  6
CONTINUOUS
 62
     3
100
AcDbText
 10
7518.692252
 20
772.088846
 30
0.0
 40
60.0
  1
４０
 50
90.0
 41
0.858268
 51
0.0
  7
BIGFONT
 72
     1
 11
7518.692252
 21
816.228328
 31
0.0
100
AcDbText
  0
ENDBLK
  5
2E9
330
2E7
100
AcDbEntity
  8
0
100
AcDbBlockEnd
  0
BLOCK
  5
2FA
330
2EF
100
AcDbEntity
  8
0
100
AcDbBlockBegin
  2
*D24
 70
     1
 71
     0
 10
0.0
 20
0.0
 30
0.0
  3
*D24
  1

  0
LINE
  5
2F0
330
2EF
100
AcDbEntity
  8
PRO0
 62
     0
100
AcDbLine
 10
6911.245641
 20
916.228328
 30
0.0
 11
7528.872252
 21
916.228328
 31
0.0
  0
LINE
  5
2F1
330
2EF
100
AcDbEntity
  8
PRO0
 62
     0
100
AcDbLine
 10
6909.302404
 20
876.228328
 30
0.0
 11
7528.872252
 21
876.228328
 31
0.0
  0
LINE
  5
2F2
330
2EF
100
AcDbEntity
  8
PRO0
 62
     0
100
AcDbLine
 10
7528.692252
 20
898.228328
 30
0.0
 11
7528.692252
 21
894.228328
 31
0.0
  0
LINE
  5
2F3
330
2EF
100
AcDbEntity
  8
PRO0
 62
     0
100
AcDbLine
 10
7528.692252
 20
876.228328
 30
0.0
 11
7528.692252
 21
816.228328
 31
0.0
  0
SOLID
  5
2F4
330
2EF
100
AcDbEntity
  8
PRO0
 62
     0
100
AcDbTrace
 10
7531.692252
 20
898.228328
 30
0.0
 11
7525.692252
 21
898.228328
 31
0.0
 12
7528.692252
 22
916.228328
 32
0.0
 13
7528.692252
 23
916.228328
 33
0.0
  0
SOLID
  5
2F5
330
2EF
100
AcDbEntity
  8
PRO0
 62
     0
100
AcDbTrace
 10
7525.692252
 20
894.228328
 30
0.0
 11
7531.692252
 21
894.228328
 31
0.0
 12
7528.692252
 22
876.228328
 32
0.0
 13
7528.692252
 23
876.228328
 33
0.0
  0
MTEXT
  5
2F6
330
2EF
100
AcDbEntity
  8
PRO0
 62
     3
100
AcDbMText
 10
7488.692252
 20
816.228328
 30
0.0
 40
60.0
 41
0.0
 71
     5
 72
     1
  1
\A1;４０
  7
DIMTEXTSTYLE
 11
6.123031769111886E-17
 21
1.0
 31
0.0
  0
POINT
  5
2F7
330
2EF
100
AcDbEntity
  8
DEFPOINTS
 62
     0
100
AcDbPoint
 10
6911.183141
 20
916.228328
 30
0.0
  0
POINT
  5
2F8
330
2EF
100
AcDbEntity
  8
DEFPOINTS
 62
     0
100
AcDbPoint
 10
6909.239904
 20
876.228328
 30
0.0
  0
POINT
  5
2F9
330
2EF
100
AcDbEntity
  8
DEFPOINTS
 62
     0
100
AcDbPoint
 10
7528.692252
 20
876.228328
 30
0.0
  0
ENDBLK
  5
2FB
330
2EF
100
AcDbEntity
  8
0
100
AcDbBlockEnd
  0
BLOCK
  5
2FD
330
2FC
100
AcDbEntity
  8
0
100
AcDbBlockBegin
  2
DIM_12
 70
     0
 71
     0
 10
1315.0
 20
861.8574
 30
0.0
  3
DIM_12
  1

  0
CIRCLE
  5
2FF
330
2FC
100
AcDbEntity
  8
PRO0
  6
CONTINUOUS
 62
     3
100
AcDbCircle
 10
1315.0
 20
591.954089
 30
0.0
 40
10.0
  0
CIRCLE
  5
300
330
2FC
100
AcDbEntity
  8
PRO0
  6
CONTINUOUS
 62
     3
100
AcDbCircle
 10
2715.0
 20
591.954089
 30
0.0
 40
10.0
  0
LINE
  5
301
330
2FC
100
AcDbEntity
  8
PRO0
  6
CONTINUOUS
 62
     3
100
AcDbLine
 10
1315.0
 20
591.954089
 30
0.0
 11
2715.0
 21
591.954089
 31
0.0
  0
LINE
  5
302
330
2FC
100
AcDbEntity
  8
PRO0
  6
CONTINUOUS
 62
     3
100
AcDbLine
 10
1315.0
 20
861.8574
 30
0.0
 11
1315.0
 21
571.954089
 31
0.0
  0
LINE
  5
303
330
2FC
100
AcDbEntity
  8
PRO0
  6
CONTINUOUS
 62
     3
100
AcDbLine
 10
2715.0
 20
861.8574
 30
0.0
 11
2715.0
 21
571.954089
 31
0.0
  0
TEXT
  5
304
330
2FC
100
AcDbEntity
  8
PRO0
  6
CONTINUOUS
 62
     3
100
AcDbText
 10
1926.721035
 20
601.954089
 30
0.0
 40
60.0
  1
１４００
 41
0.858268
 51
0.0
  7
BIGFONT
 72
     1
 11
2015.0
 21
601.954089
 31
0.0
100
AcDbText
  0
ENDBLK
  5
2FE
330
2FC
100
AcDbEntity
  8
0
100
AcDbBlockEnd
  0
BLOCK
  5
310
330
306
100
AcDbEntity
  8
0
100
AcDbBlockBegin
  2
*D26
 70
     1
 71
     0
 10
0.0
 20
0.0
 30
0.0
  3
*D26
  1

  0
LINE
  5
307
330
306
100
AcDbEntity
  8
PRO0
 62
     0
100
AcDbLine
 10
1315.0
 20
861.7949
 30
0.0
 11
1315.0
 21
591.774089
 31
0.0
  0
LINE
  5
308
330
306
100
AcDbEntity
  8
PRO0
 62
     0
100
AcDbLine
 10
2715.0
 20
861.7949
 30
0.0
 11
2715.0
 21
591.774089
 31
0.0
  0
LINE
  5
309
330
306
100
AcDbEntity
  8
PRO0
 62
     0
100
AcDbLine
 10
1335.0
 20
591.954089
 30
0.0
 11
2695.0
 21
591.954089
 31
0.0
  0
SOLID
  5
30A
330
306
100
AcDbEntity
  8
PRO0
 62
     0
100
AcDbTrace
 10
1335.0
 20
595.287423
 30
0.0
 11
1335.0
 21
588.620756
 31
0.0
 12
1315.0
 22
591.954089
 32
0.0
 13
1315.0
 23
591.954089
 33
0.0
  0
SOLID
  5
30B
330
306
100
AcDbEntity
  8
PRO0
 62
     0
100
AcDbTrace
 10
2695.0
 20
588.620756
 30
0.0
 11
2695.0
 21
595.287423
 31
0.0
 12
2715.0
 22
591.954089
 32
0.0
 13
2715.0
 23
591.954089
 33
0.0
  0
MTEXT
  5
30C
330
306
100
AcDbEntity
  8
PRO0
 62
     3
100
AcDbMText
 10
2015.0
 20
631.954089
 30
0.0
 40
60.0
 41
0.0
 71
     5
 72
     1
  1
\A1;１４００
  7
DIMTEXTSTYLE
  0
POINT
  5
30D
330
306
100
AcDbEntity
  8
DEFPOINTS
 62
     0
100
AcDbPoint
 10
1315.0
 20
861.8574
 30
0.0
  0
POINT
  5
30E
330
306
100
AcDbEntity
  8
DEFPOINTS
 62
     0
100
AcDbPoint
 10
2715.0
 20
861.8574
 30
0.0
  0
POINT
  5
30F
330
306
100
AcDbEntity
  8
DEFPOINTS
 62
     0
100
AcDbPoint
 10
2715.0
 20
591.954089
 30
0.0
  0
ENDBLK
  5
311
330
306
100
AcDbEntity
  8
0
100
AcDbBlockEnd
  0
BLOCK
  5
313
330
312
100
AcDbEntity
  8
0
100
AcDbBlockBegin
  2
DIM_13
 70
     0
 71
     0
 10
5205.0
 20
859.913134
 30
0.0
  3
DIM_13
  1

  0
CIRCLE
  5
315
330
312
100
AcDbEntity
  8
PRO0
  6
CONTINUOUS
 62
     3
100
AcDbCircle
 10
5205.0
 20
591.954089
 30
0.0
 40
10.0
  0
CIRCLE
  5
316
330
312
100
AcDbEntity
  8
PRO0
  6
CONTINUOUS
 62
     3
100
AcDbCircle
 10
6885.0
 20
591.954089
 30
0.0
 40
10.0
  0
LINE
  5
317
330
312
100
AcDbEntity
  8
PRO0
  6
CONTINUOUS
 62
     3
100
AcDbLine
 10
5205.0
 20
591.954089
 30
0.0
 11
6885.0
 21
591.954089
 31
0.0
  0
LINE
  5
318
330
312
100
AcDbEntity
  8
PRO0
  6
CONTINUOUS
 62
     3
100
AcDbLine
 10
5205.0
 20
859.913134
 30
0.0
 11
5205.0
 21
571.954089
 31
0.0
  0
LINE
  5
319
330
312
100
AcDbEntity
  8
PRO0
  6
CONTINUOUS
 62
     3
100
AcDbLine
 10
6885.0
 20
859.913134
 30
0.0
 11
6885.0
 21
571.954089
 31
0.0
  0
TEXT
  5
31A
330
312
100
AcDbEntity
  8
PRO0
  6
CONTINUOUS
 62
     3
100
AcDbText
 10
5956.721035
 20
601.954089
 30
0.0
 40
60.0
  1
１６８０
 41
0.858268
 51
0.0
  7
BIGFONT
 72
     1
 11
6045.0
 21
601.954089
 31
0.0
100
AcDbText
  0
ENDBLK
  5
314
330
312
100
AcDbEntity
  8
0
100
AcDbBlockEnd
  0
BLOCK
  5
326
330
31C
100
AcDbEntity
  8
0
100
AcDbBlockBegin
  2
*D28
 70
     1
 71
     0
 10
0.0
 20
0.0
 30
0.0
  3
*D28
  1

  0
LINE
  5
31D
330
31C
100
AcDbEntity
  8
PRO0
 62
     0
100
AcDbLine
 10
5205.0
 20
859.850634
 30
0.0
 11
5205.0
 21
591.774089
 31
0.0
  0
LINE
  5
31E
330
31C
100
AcDbEntity
  8
PRO0
 62
     0
100
AcDbLine
 10
6885.0
 20
859.850634
 30
0.0
 11
6885.0
 21
591.774089
 31
0.0
  0
LINE
  5
31F
330
31C
100
AcDbEntity
  8
PRO0
 62
     0
100
AcDbLine
 10
5225.0
 20
591.954089
 30
0.0
 11
6865.0
 21
591.954089
 31
0.0
  0
SOLID
  5
320
330
31C
100
AcDbEntity
  8
PRO0
 62
     0
100
AcDbTrace
 10
5225.0
 20
595.287423
 30
0.0
 11
5225.0
 21
588.620756
 31
0.0
 12
5205.0
 22
591.954089
 32
0.0
 13
5205.0
 23
591.954089
 33
0.0
  0
SOLID
  5
321
330
31C
100
AcDbEntity
  8
PRO0
 62
     0
100
AcDbTrace
 10
6865.0
 20
588.620756
 30
0.0
 11
6865.0
 21
595.287423
 31
0.0
 12
6885.0
 22
591.954089
 32
0.0
 13
6885.0
 23
591.954089
 33
0.0
  0
MTEXT
  5
322
330
31C
100
AcDbEntity
  8
PRO0
 62
     3
100
AcDbMText
 10
6045.0
 20
631.954089
 30
0.0
 40
60.0
 41
0.0
 71
     5
 72
     1
  1
\A1;１６８０
  7
DIMTEXTSTYLE
  0
POINT
  5
323
330
31C
100
AcDbEntity
  8
DEFPOINTS
 62
     0
100
AcDbPoint
 10
5205.0
 20
859.913134
 30
0.0
  0
POINT
  5
324
330
31C
100
AcDbEntity
  8
DEFPOINTS
 62
     0
100
AcDbPoint
 10
6885.0
 20
859.913134
 30
0.0
  0
POINT
  5
325
330
31C
100
AcDbEntity
  8
DEFPOINTS
 62
     0
100
AcDbPoint
 10
6885.0
 20
591.954089
 30
0.0
  0
ENDBLK
  5
327
330
31C
100
AcDbEntity
  8
0
100
AcDbBlockEnd
  0
BLOCK
  5
329
330
328
100
AcDbEntity
  8
0
100
AcDbBlockBegin
  2
DIM_14
 70
     0
 71
     0
 10
1640.0
 20
3775.936877
 30
0.0
  3
DIM_14
  1

  0
CIRCLE
  5
32B
330
328
100
AcDbEntity
  8
PRO0
  6
CONTINUOUS
 62
     3
100
AcDbCircle
 10
1640.0
 20
3570.548439
 30
0.0
 40
10.0
  0
CIRCLE
  5
32C
330
328
100
AcDbEntity
  8
PRO0
  6
CONTINUOUS
 62
     3
100
AcDbCircle
 10
2390.0
 20
3570.548439
 30
0.0
 40
10.0
  0
LINE
  5
32D
330
328
100
AcDbEntity
  8
PRO0
  6
CONTINUOUS
 62
     3
100
AcDbLine
 10
1640.0
 20
3570.548439
 30
0.0
 11
2390.0
 21
3570.548439
 31
0.0
  0
LINE
  5
32E
330
328
100
AcDbEntity
  8
PRO0
  6
CONTINUOUS
 62
     3
100
AcDbLine
 10
1640.0
 20
3775.936877
 30
0.0
 11
1640.0
 21
3550.548439
 31
0.0
  0
LINE
  5
32F
330
328
100
AcDbEntity
  8
PRO0
  6
CONTINUOUS
 62
     3
100
AcDbLine
 10
2390.0
 20
3775.936877
 30
0.0
 11
2390.0
 21
3550.548439
 31
0.0
  0
TEXT
  5
330
330
328
100
AcDbEntity
  8
PRO0
  6
CONTINUOUS
 62
     3
100
AcDbText
 10
1948.790776
 20
3580.548439
 30
0.0
 40
60.0
  1
７５０
 41
0.858268
 51
0.0
  7
BIGFONT
 72
     1
 11
2015.0
 21
3580.548439
 31
0.0
100
AcDbText
  0
ENDBLK
  5
32A
330
328
100
AcDbEntity
  8
0
100
AcDbBlockEnd
  0
BLOCK
  5
33C
330
332
100
AcDbEntity
  8
0
100
AcDbBlockBegin
  2
*D30
 70
     1
 71
     0
 10
0.0
 20
0.0
 30
0.0
  3
*D30
  1

  0
LINE
  5
333
330
332
100
AcDbEntity
  8
PRO0
 62
     0
100
AcDbLine
 10
1640.0
 20
3775.874377
 30
0.0
 11
1640.0
 21
3570.368439
 31
0.0
  0
LINE
  5
334
330
332
100
AcDbEntity
  8
PRO0
 62
     0
100
AcDbLine
 10
2390.0
 20
3775.874377
 30
0.0
 11
2390.0
 21
3570.368439
 31
0.0
  0
LINE
  5
335
330
332
100
AcDbEntity
  8
PRO0
 62
     0
100
AcDbLine
 10
1660.0
 20
3570.548439
 30
0.0
 11
2370.0
 21
3570.548439
 31
0.0
  0
SOLID
  5
336
330
332
100
AcDbEntity
  8
PRO0
 62
     0
100
AcDbTrace
 10
1660.0
 20
3573.881772
 30
0.0
 11
1660.0
 21
3567.215106
 31
0.0
 12
1640.0
 22
3570.548439
 32
0.0
 13
1640.0
 23
3570.548439
 33
0.0
  0
SOLID
  5
337
330
332
100
AcDbEntity
  8
PRO0
 62
     0
100
AcDbTrace
 10
2370.0
 20
3567.215106
 30
0.0
 11
2370.0
 21
3573.881772
 31
0.0
 12
2390.0
 22
3570.548439
 32
0.0
 13
2390.0
 23
3570.548439
 33
0.0
  0
MTEXT
  5
338
330
332
100
AcDbEntity
  8
PRO0
 62
     3
100
AcDbMText
 10
2015.0
 20
3610.548439
 30
0.0
 40
60.0
 41
0.0
 71
     5
 72
     1
  1
\A1;７５０
  7
DIMTEXTSTYLE
  0
POINT
  5
339
330
332
100
AcDbEntity
  8
DEFPOINTS
 62
     0
100
AcDbPoint
 10
1640.0
 20
3775.936877
 30
0.0
  0
POINT
  5
33A
330
332
100
AcDbEntity
  8
DEFPOINTS
 62
     0
100
AcDbPoint
 10
2390.0
 20
3775.936877
 30
0.0
  0
POINT
  5
33B
330
332
100
AcDbEntity
  8
DEFPOINTS
 62
     0
100
AcDbPoint
 10
2390.0
 20
3570.548439
 30
0.0
  0
ENDBLK
  5
33D
330
332
100
AcDbEntity
  8
0
100
AcDbBlockEnd
  0
BLOCK
  5
33F
330
33E
100
AcDbEntity
  8
0
100
AcDbBlockBegin
  2
DIM_15
 70
     0
 71
     0
 10
5520.0
 20
3773.787579
 30
0.0
  3
DIM_15
  1

  0
CIRCLE
  5
341
330
33E
100
AcDbEntity
  8
PRO0
  6
CONTINUOUS
 62
     3
100
AcDbCircle
 10
5520.0
 20
3570.548439
 30
0.0
 40
10.0
  0
CIRCLE
  5
342
330
33E
100
AcDbEntity
  8
PRO0
  6
CONTINUOUS
 62
     3
100
AcDbCircle
 10
6570.0
 20
3570.548439
 30
0.0
 40
10.0
  0
LINE
  5
343
330
33E
100
AcDbEntity
  8
PRO0
  6
CONTINUOUS
 62
     3
100
AcDbLine
 10
5520.0
 20
3570.548439
 30
0.0
 11
6570.0
 21
3570.548439
 31
0.0
  0
LINE
  5
344
330
33E
100
AcDbEntity
  8
PRO0
  6
CONTINUOUS
 62
     3
100
AcDbLine
 10
5520.0
 20
3773.787579
 30
0.0
 11
5520.0
 21
3550.548439
 31
0.0
  0
LINE
  5
345
330
33E
100
AcDbEntity
  8
PRO0
  6
CONTINUOUS
 62
     3
100
AcDbLine
 10
6570.0
 20
3773.787579
 30
0.0
 11
6570.0
 21
3550.548439
 31
0.0
  0
TEXT
  5
346
330
33E
100
AcDbEntity
  8
PRO0
  6
CONTINUOUS
 62
     3
100
AcDbText
 10
5956.721035
 20
3580.548439
 30
0.0
 40
60.0
  1
１０５０
 41
0.858268
 51
0.0
  7
BIGFONT
 72
     1
 11
6045.0
 21
3580.548439
 31
0.0
100
AcDbText
  0
ENDBLK
  5
340
330
33E
100
AcDbEntity
  8
0
100
AcDbBlockEnd
  0
BLOCK
  5
352
330
348
100
AcDbEntity
  8
0
100
AcDbBlockBegin
  2
*D32
 70
     1
 71
     0
 10
0.0
 20
0.0
 30
0.0
  3
*D32
  1

  0
LINE
  5
349
330
348
100
AcDbEntity
  8
PRO0
 62
     0
100
AcDbLine
 10
5520.0
 20
3773.725079
 30
0.0
 11
5520.0
 21
3570.368439
 31
0.0
  0
LINE
  5
34A
330
348
100
AcDbEntity
  8
PRO0
 62
     0
100
AcDbLine
 10
6570.0
 20
3773.725079
 30
0.0
 11
6570.0
 21
3570.368439
 31
0.0
  0
LINE
  5
34B
330
348
100
AcDbEntity
  8
PRO0
 62
     0
100
AcDbLine
 10
5540.0
 20
3570.548439
 30
0.0
 11
6550.0
 21
3570.548439
 31
0.0
  0
SOLID
  5
34C
330
348
100
AcDbEntity
  8
PRO0
 62
     0
100
AcDbTrace
 10
5540.0
 20
3573.881772
 30
0.0
 11
5540.0
 21
3567.215106
 31
0.0
 12
5520.0
 22
3570.548439
 32
0.0
 13
5520.0
 23
3570.548439
 33
0.0
  0
SOLID
  5
34D
330
348
100
AcDbEntity
  8
PRO0
 62
     0
100
AcDbTrace
 10
6550.0
 20
3567.215106
 30
0.0
 11
6550.0
 21
3573.881772
 31
0.0
 12
6570.0
 22
3570.548439
 32
0.0
 13
6570.0
 23
3570.548439
 33
0.0
  0
MTEXT
  5
34E
330
348
100
AcDbEntity
  8
PRO0
 62
     3
100
AcDbMText
 10
6045.0
 20
3610.548439
 30
0.0
 40
60.0
 41
0.0
 71
     5
 72
     1
  1
\A1;１０５０
  7
DIMTEXTSTYLE
  0
POINT
  5
34F
330
348
100
AcDbEntity
  8
DEFPOINTS
 62
     0
100
AcDbPoint
 10
5520.0
 20
3773.787579
 30
0.0
  0
POINT
  5
350
330
348
100
AcDbEntity
  8
DEFPOINTS
 62
     0
100
AcDbPoint
 10
6570.0
 20
3773.787579
 30
0.0
  0
POINT
  5
351
330
348
100
AcDbEntity
  8
DEFPOINTS
 62
     0
100
AcDbPoint
 10
6570.0
 20
3570.548439
 30
0.0
  0
ENDBLK
  5
353
330
348
100
AcDbEntity
  8
0
100
AcDbBlockEnd
  0
BLOCK
  5
359
330
358
100
AcDbEntity
  8
0
100
AcDbBlockBegin
  2
DIM_16
 70
     0
 71
     0
 10
1120.0
 20
1238.677449
 30
0.0
  3
DIM_16
  1

  0
CIRCLE
  5
35B
330
358
100
AcDbEntity
  8
PRO0
  6
CONTINUOUS
 62
     3
100
AcDbCircle
 10
1120.0
 20
1840.241869
 30
0.0
 40
10.0
  0
CIRCLE
  5
35C
330
358
100
AcDbEntity
  8
PRO0
  6
CONTINUOUS
 62
     3
100
AcDbCircle
 10
2910.0
 20
1840.241869
 30
0.0
 40
10.0
  0
LINE
  5
35D
330
358
100
AcDbEntity
  8
PRO0
  6
CONTINUOUS
 62
     3
100
AcDbLine
 10
1120.0
 20
1840.241869
 30
0.0
 11
2910.0
 21
1840.241869
 31
0.0
  0
LINE
  5
35E
330
358
100
AcDbEntity
  8
PRO0
  6
CONTINUOUS
 62
     3
100
AcDbLine
 10
1120.0
 20
1238.677449
 30
0.0
 11
1120.0
 21
1860.241869
 31
0.0
  0
LINE
  5
35F
330
358
100
AcDbEntity
  8
PRO0
  6
CONTINUOUS
 62
     3
100
AcDbLine
 10
2910.0
 20
1238.677449
 30
0.0
 11
2910.0
 21
1860.241869
 31
0.0
  0
TEXT
  5
360
330
358
100
AcDbEntity
  8
PRO0
  6
CONTINUOUS
 62
     3
100
AcDbText
 10
1926.721035
 20
1850.241869
 30
0.0
 40
60.0
  1
１７９０
 41
0.858268
 51
0.0
  7
BIGFONT
 72
     1
 11
2015.0
 21
1850.241869
 31
0.0
100
AcDbText
  0
ENDBLK
  5
35A
330
358
100
AcDbEntity
  8
0
100
AcDbBlockEnd
  0
BLOCK
  5
36C
330
362
100
AcDbEntity
  8
0
100
AcDbBlockBegin
  2
*D34
 70
     1
 71
     0
 10
0.0
 20
0.0
 30
0.0
  3
*D34
  1

  0
LINE
  5
363
330
362
100
AcDbEntity
  8
PRO0
 62
     0
100
AcDbLine
 10
1120.0
 20
1238.739949
 30
0.0
 11
1120.0
 21
1840.421869
 31
0.0
  0
LINE
  5
364
330
362
100
AcDbEntity
  8
PRO0
 62
     0
100
AcDbLine
 10
2910.0
 20
1238.739949
 30
0.0
 11
2910.0
 21
1840.421869
 31
0.0
  0
LINE
  5
365
330
362
100
AcDbEntity
  8
PRO0
 62
     0
100
AcDbLine
 10
1140.0
 20
1840.241869
 30
0.0
 11
2890.0
 21
1840.241869
 31
0.0
  0
SOLID
  5
366
330
362
100
AcDbEntity
  8
PRO0
 62
     0
100
AcDbTrace
 10
1140.0
 20
1843.575203
 30
0.0
 11
1140.0
 21
1836.908536
 31
0.0
 12
1120.0
 22
1840.241869
 32
0.0
 13
1120.0
 23
1840.241869
 33
0.0
  0
SOLID
  5
367
330
362
100
AcDbEntity
  8
PRO0
 62
     0
100
AcDbTrace
 10
2890.0
 20
1836.908536
 30
0.0
 11
2890.0
 21
1843.575203
 31
0.0
 12
2910.0
 22
1840.241869
 32
0.0
 13
2910.0
 23
1840.241869
 33
0.0
  0
MTEXT
  5
368
330
362
100
AcDbEntity
  8
PRO0
 62
     3
100
AcDbMText
 10
2015.0
 20
1880.241869
 30
0.0
 40
60.0
 41
0.0
 71
     5
 72
     1
  1
\A1;１７９０
  7
DIMTEXTSTYLE
  0
POINT
  5
369
330
362
100
AcDbEntity
  8
DEFPOINTS
 62
     0
100
AcDbPoint
 10
1120.0
 20
1238.677449
 30
0.0
  0
POINT
  5
36A
330
362
100
AcDbEntity
  8
DEFPOINTS
 62
     0
100
AcDbPoint
 10
2910.0
 20
1238.677449
 30
0.0
  0
POINT
  5
36B
330
362
100
AcDbEntity
  8
DEFPOINTS
 62
     0
100
AcDbPoint
 10
2910.0
 20
1840.241869
 30
0.0
  0
ENDBLK
  5
36D
330
362
100
AcDbEntity
  8
0
100
AcDbBlockEnd
  0
BLOCK
  5
36F
330
36E
100
AcDbEntity
  8
0
100
AcDbBlockBegin
  2
DIM_17
 70
     0
 71
     0
 10
4975.0
 20
1262.438592
 30
0.0
  3
DIM_17
  1

  0
CIRCLE
  5
371
330
36E
100
AcDbEntity
  8
PRO0
  6
CONTINUOUS
 62
     3
100
AcDbCircle
 10
4975.0
 20
1966.857125
 30
0.0
 40
10.0
  0
CIRCLE
  5
372
330
36E
100
AcDbEntity
  8
PRO0
  6
CONTINUOUS
 62
     3
100
AcDbCircle
 10
7115.0
 20
1966.857125
 30
0.0
 40
10.0
  0
LINE
  5
373
330
36E
100
AcDbEntity
  8
PRO0
  6
CONTINUOUS
 62
     3
100
AcDbLine
 10
4975.0
 20
1966.857125
 30
0.0
 11
7115.0
 21
1966.857125
 31
0.0
  0
LINE
  5
374
330
36E
100
AcDbEntity
  8
PRO0
  6
CONTINUOUS
 62
     3
100
AcDbLine
 10
4975.0
 20
1262.438592
 30
0.0
 11
4975.0
 21
1986.857125
 31
0.0
  0
LINE
  5
375
330
36E
100
AcDbEntity
  8
PRO0
  6
CONTINUOUS
 62
     3
100
AcDbLine
 10
7115.0
 20
1262.438592
 30
0.0
 11
7115.0
 21
1986.857125
 31
0.0
  0
TEXT
  5
376
330
36E
100
AcDbEntity
  8
PRO0
  6
CONTINUOUS
 62
     3
100
AcDbText
 10
5956.721035
 20
1976.857125
 30
0.0
 40
60.0
  1
２１４０
 41
0.858268
 51
0.0
  7
BIGFONT
 72
     1
 11
6045.0
 21
1976.857125
 31
0.0
100
AcDbText
  0
ENDBLK
  5
370
330
36E
100
AcDbEntity
  8
0
100
AcDbBlockEnd
  0
BLOCK
  5
382
330
378
100
AcDbEntity
  8
0
100
AcDbBlockBegin
  2
*D36
 70
     1
 71
     0
 10
0.0
 20
0.0
 30
0.0
  3
*D36
  1

  0
LINE
  5
379
330
378
100
AcDbEntity
  8
PRO0
 62
     0
100
AcDbLine
 10
4975.0
 20
1262.501092
 30
0.0
 11
4975.0
 21
1967.037125
 31
0.0
  0
LINE
  5
37A
330
378
100
AcDbEntity
  8
PRO0
 62
     0
100
AcDbLine
 10
7115.0
 20
1262.501092
 30
0.0
 11
7115.0
 21
1967.037125
 31
0.0
  0
LINE
  5
37B
330
378
100
AcDbEntity
  8
PRO0
 62
     0
100
AcDbLine
 10
4995.0
 20
1966.857125
 30
0.0
 11
7095.0
 21
1966.857125
 31
0.0
  0
SOLID
  5
37C
330
378
100
AcDbEntity
  8
PRO0
 62
     0
100
AcDbTrace
 10
4995.0
 20
1970.190458
 30
0.0
 11
4995.0
 21
1963.523792
 31
0.0
 12
4975.0
 22
1966.857125
 32
0.0
 13
4975.0
 23
1966.857125
 33
0.0
  0
SOLID
  5
37D
330
378
100
AcDbEntity
  8
PRO0
 62
     0
100
AcDbTrace
 10
7095.0
 20
1963.523792
 30
0.0
 11
7095.0
 21
1970.190458
 31
0.0
 12
7115.0
 22
1966.857125
 32
0.0
 13
7115.0
 23
1966.857125
 33
0.0
  0
MTEXT
  5
37E
330
378
100
AcDbEntity
  8
PRO0
 62
     3
100
AcDbMText
 10
6045.0
 20
2006.857125
 30
0.0
 40
60.0
 41
0.0
 71
     5
 72
     1
  1
\A1;２１４０
  7
DIMTEXTSTYLE
  0
POINT
  5
37F
330
378
100
AcDbEntity
  8
DEFPOINTS
 62
     0
100
AcDbPoint
 10
4975.0
 20
1262.438592
 30
0.0
  0
POINT
  5
380
330
378
100
AcDbEntity
  8
DEFPOINTS
 62
     0
100
AcDbPoint
 10
7115.0
 20
1262.438592
 30
0.0
  0
POINT
  5
381
330
378
100
AcDbEntity
  8
DEFPOINTS
 62
     0
100
AcDbPoint
 10
7115.0
 20
1966.857125
 30
0.0
  0
ENDBLK
  5
383
330
378
100
AcDbEntity
  8
0
100
AcDbBlockEnd
  0
BLOCK
  5
385
330
384
100
AcDbEntity
  8
0
100
AcDbBlockBegin
  2
DIM_18
 70
     0
 71
     0
 10
1555.0
 20
4023.544258
 30
0.0
  3
DIM_18
  1

  0
CIRCLE
  5
387
330
384
100
AcDbEntity
  8
PRO0
  6
CONTINUOUS
 62
     3
100
AcDbCircle
 10
1555.0
 20
4432.007373
 30
0.0
 40
10.0
  0
CIRCLE
  5
388
330
384
100
AcDbEntity
  8
PRO0
  6
CONTINUOUS
 62
     3
100
AcDbCircle
 10
2475.0
 20
4432.007373
 30
0.0
 40
10.0
  0
LINE
  5
389
330
384
100
AcDbEntity
  8
PRO0
  6
CONTINUOUS
 62
     3
100
AcDbLine
 10
1555.0
 20
4432.007373
 30
0.0
 11
2475.0
 21
4432.007373
 31
0.0
  0
LINE
  5
38A
330
384
100
AcDbEntity
  8
PRO0
  6
CONTINUOUS
 62
     3
100
AcDbLine
 10
1555.0
 20
4023.544258
 30
0.0
 11
1555.0
 21
4452.007373
 31
0.0
  0
LINE
  5
38B
330
384
100
AcDbEntity
  8
PRO0
  6
CONTINUOUS
 62
     3
100
AcDbLine
 10
2475.0
 20
4023.544258
 30
0.0
 11
2475.0
 21
4452.007373
 31
0.0
  0
TEXT
  5
38C
330
384
100
AcDbEntity
  8
PRO0
  6
CONTINUOUS
 62
     3
100
AcDbText
 10
1948.790776
 20
4442.007373
 30
0.0
 40
60.0
  1
９２０
 41
0.858268
 51
0.0
  7
BIGFONT
 72
     1
 11
2015.0
 21
4442.007373
 31
0.0
100
AcDbText
  0
ENDBLK
  5
386
330
384
100
AcDbEntity
  8
0
100
AcDbBlockEnd
  0
BLOCK
  5
398
330
38E
100
AcDbEntity
  8
0
100
AcDbBlockBegin
  2
*D38
 70
     1
 71
     0
 10
0.0
 20
0.0
 30
0.0
  3
*D38
  1

  0
LINE
  5
38F
330
38E
100
AcDbEntity
  8
PRO0
 62
     0
100
AcDbLine
 10
1555.0
 20
4023.606758
 30
0.0
 11
1555.0
 21
4432.187373
 31
0.0
  0
LINE
  5
390
330
38E
100
AcDbEntity
  8
PRO0
 62
     0
100
AcDbLine
 10
2475.0
 20
4023.606758
 30
0.0
 11
2475.0
 21
4432.187373
 31
0.0
  0
LINE
  5
391
330
38E
100
AcDbEntity
  8
PRO0
 62
     0
100
AcDbLine
 10
1575.0
 20
4432.007373
 30
0.0
 11
2455.0
 21
4432.007373
 31
0.0
  0
SOLID
  5
392
330
38E
100
AcDbEntity
  8
PRO0
 62
     0
100
AcDbTrace
 10
1575.0
 20
4435.340707
 30
0.0
 11
1575.0
 21
4428.67404
 31
0.0
 12
1555.0
 22
4432.007373
 32
0.0
 13
1555.0
 23
4432.007373
 33
0.0
  0
SOLID
  5
393
330
38E
100
AcDbEntity
  8
PRO0
 62
     0
100
AcDbTrace
 10
2455.0
 20
4428.67404
 30
0.0
 11
2455.0
 21
4435.340707
 31
0.0
 12
2475.0
 22
4432.007373
 32
0.0
 13
2475.0
 23
4432.007373
 33
0.0
  0
MTEXT
  5
394
330
38E
100
AcDbEntity
  8
PRO0
 62
     3
100
AcDbMText
 10
2015.0
 20
4472.007373
 30
0.0
 40
60.0
 41
0.0
 71
     5
 72
     1
  1
\A1;９２０
  7
DIMTEXTSTYLE
  0
POINT
  5
395
330
38E
100
AcDbEntity
  8
DEFPOINTS
 62
     0
100
AcDbPoint
 10
1555.0
 20
4023.544258
 30
0.0
  0
POINT
  5
396
330
38E
100
AcDbEntity
  8
DEFPOINTS
 62
     0
100
AcDbPoint
 10
2475.0
 20
4023.544258
 30
0.0
  0
POINT
  5
397
330
38E
100
AcDbEntity
  8
DEFPOINTS
 62
     0
100
AcDbPoint
 10
2475.0
 20
4432.007373
 30
0.0
  0
ENDBLK
  5
399
330
38E
100
AcDbEntity
  8
0
100
AcDbBlockEnd
  0
BLOCK
  5
39B
330
39A
100
AcDbEntity
  8
0
100
AcDbBlockBegin
  2
DIM_19
 70
     0
 71
     0
 10
5400.0
 20
4082.062358
 30
0.0
  3
DIM_19
  1

  0
CIRCLE
  5
39D
330
39A
100
AcDbEntity
  8
PRO0
  6
CONTINUOUS
 62
     3
100
AcDbCircle
 10
5400.0
 20
4618.877596
 30
0.0
 40
10.0
  0
CIRCLE
  5
39E
330
39A
100
AcDbEntity
  8
PRO0
  6
CONTINUOUS
 62
     3
100
AcDbCircle
 10
6690.0
 20
4618.877596
 30
0.0
 40
10.0
  0
LINE
  5
39F
330
39A
100
AcDbEntity
  8
PRO0
  6
CONTINUOUS
 62
     3
100
AcDbLine
 10
5400.0
 20
4618.877596
 30
0.0
 11
6690.0
 21
4618.877596
 31
0.0
  0
LINE
  5
3A0
330
39A
100
AcDbEntity
  8
PRO0
  6
CONTINUOUS
 62
     3
100
AcDbLine
 10
5400.0
 20
4082.062358
 30
0.0
 11
5400.0
 21
4638.877596
 31
0.0
  0
LINE
  5
3A1
330
39A
100
AcDbEntity
  8
PRO0
  6
CONTINUOUS
 62
     3
100
AcDbLine
 10
6690.0
 20
4082.062358
 30
0.0
 11
6690.0
 21
4638.877596
 31
0.0
  0
TEXT
  5
3A2
330
39A
100
AcDbEntity
  8
PRO0
  6
CONTINUOUS
 62
     3
100
AcDbText
 10
5956.721035
 20
4628.877596
 30
0.0
 40
60.0
  1
１２９０
 41
0.858268
 51
0.0
  7
BIGFONT
 72
     1
 11
6045.0
 21
4628.877596
 31
0.0
100
AcDbText
  0
ENDBLK
  5
39C
330
39A
100
AcDbEntity
  8
0
100
AcDbBlockEnd
  0
BLOCK
  5
3AE
330
3A4
100
AcDbEntity
  8
0
100
AcDbBlockBegin
  2
*D40
 70
     1
 71
     0
 10
0.0
 20
0.0
 30
0.0
  3
*D40
  1

  0
LINE
  5
3A5
330
3A4
100
AcDbEntity
  8
PRO0
 62
     0
100
AcDbLine
 10
5400.0
 20
4082.124858
 30
0.0
 11
5400.0
 21
4619.057596
 31
0.0
  0
LINE
  5
3A6
330
3A4
100
AcDbEntity
  8
PRO0
 62
     0
100
AcDbLine
 10
6690.0
 20
4082.124858
 30
0.0
 11
6690.0
 21
4619.057596
 31
0.0
  0
LINE
  5
3A7
330
3A4
100
AcDbEntity
  8
PRO0
 62
     0
100
AcDbLine
 10
5420.0
 20
4618.877596
 30
0.0
 11
6670.0
 21
4618.877596
 31
0.0
  0
SOLID
  5
3A8
330
3A4
100
AcDbEntity
  8
PRO0
 62
     0
100
AcDbTrace
 10
5420.0
 20
4622.21093
 30
0.0
 11
5420.0
 21
4615.544263
 31
0.0
 12
5400.0
 22
4618.877596
 32
0.0
 13
5400.0
 23
4618.877596
 33
0.0
  0
SOLID
  5
3A9
330
3A4
100
AcDbEntity
  8
PRO0
 62
     0
100
AcDbTrace
 10
6670.0
 20
4615.544263
 30
0.0
 11
6670.0
 21
4622.21093
 31
0.0
 12
6690.0
 22
4618.877596
 32
0.0
 13
6690.0
 23
4618.877596
 33
0.0
  0
MTEXT
  5
3AA
330
3A4
100
AcDbEntity
  8
PRO0
 62
     3
100
AcDbMText
 10
6045.0
 20
4658.877596
 30
0.0
 40
60.0
 41
0.0
 71
     5
 72
     1
  1
\A1;１２９０
  7
DIMTEXTSTYLE
  0
POINT
  5
3AB
330
3A4
100
AcDbEntity
  8
DEFPOINTS
 62
     0
100
AcDbPoint
 10
5400.0
 20
4082.062358
 30
0.0
  0
POINT
  5
3AC
330
3A4
100
AcDbEntity
  8
DEFPOINTS
 62
     0
100
AcDbPoint
 10
6690.0
 20
4082.062358
 30
0.0
  0
POINT
  5
3AD
330
3A4
100
AcDbEntity
  8
DEFPOINTS
 62
     0
100
AcDbPoint
 10
6690.0
 20
4618.877596
 30
0.0
  0
ENDBLK
  5
3AF
330
3A4
100
AcDbEntity
  8
0
100
AcDbBlockEnd
  0
ENDSEC
  0
SECTION
  2
ENTITIES
  0
ARC
  5
3E
330
1F
100
AcDbEntity
  8
PRO0
  6
CONTINUOUS
 62
     4
100
AcDbCircle
 10
1413.50288
 20
1057.645888
 30
0.0
 40
1.0
100
AcDbArc
 50
135.0
 51
155.0
  0
LINE
  5
3F
330
1F
100
AcDbEntity
  8
PRO0
  6
CONTINUOUS
 62
     4
100
AcDbLine
 10
1412.79576
 20
1058.353008
 30
0.0
 11
1432.15216
 21
1077.709388
 31
0.0
  0
LINE
  5
40
330
1F
100
AcDbEntity
  8
PRO0
  6
CONTINUOUS
 62
     4
100
AcDbLine
 10
1312.5
 20
911.228328
 30
0.0
 11
1312.5
 21
876.228328
 31
0.0
  0
LINE
  5
41
330
1F
100
AcDbEntity
  8
PRO0
  6
CONTINUOUS
 62
     4
100
AcDbLine
 10
2717.5
 20
911.228328
 30
0.0
 11
2717.5
 21
876.228328
 31
0.0
  0
LINE
  5
42
330
1F
100
AcDbEntity
  8
PRO0
  6
CONTINUOUS
 62
     4
100
AcDbLine
 10
1475.0
 20
1528.328328
 30
0.0
 11
2555.0
 21
1528.328328
 31
0.0
  0
LINE
  5
43
330
1F
100
AcDbEntity
  8
PRO0
  6
CONTINUOUS
 62
     3
100
AcDbLine
 10
2830.8753
 20
1273.828328
 30
0.0
 11
1199.1247
 21
1273.828328
 31
0.0
  0
LINE
  5
44
330
1F
100
AcDbEntity
  8
PRO0
  6
CONTINUOUS
 62
     3
100
AcDbLine
 10
2810.8753
 20
1293.828328
 30
0.0
 11
1219.1247
 21
1293.828328
 31
0.0
  0
LINE
  5
45
330
1F
100
AcDbEntity
  8
PRO0
  6
CONTINUOUS
 62
     4
100
AcDbLine
 10
1130.0
 20
1165.153028
 30
0.0
 11
2900.0
 21
1165.153028
 31
0.0
  0
LINE
  5
46
330
1F
100
AcDbEntity
  8
PRO0
  6
CONTINUOUS
 62
     4
100
AcDbLine
 10
1130.0
 20
1185.153028
 30
0.0
 11
2900.0
 21
1185.153028
 31
0.0
  0
LINE
  5
47
330
1F
100
AcDbEntity
  8
PRO0
  6
CONTINUOUS
 62
     3
100
AcDbLine
 10
2617.32892
 20
1058.228328
 30
0.0
 11
1412.67108
 21
1058.228328
 31
0.0
  0
LINE
  5
48
330
1F
100
AcDbEntity
  8
PRO0
  6
CONTINUOUS
 62
     3
100
AcDbLine
 10
2597.53876
 20
1078.228328
 30
0.0
 11
1432.67108
 21
1078.228328
 31
0.0
  0
LINE
  5
49
330
1F
100
AcDbEntity
  8
PRO0
  6
CONTINUOUS
 62
     4
100
AcDbLine
 10
1317.5
 20
916.228328
 30
0.0
 11
2712.5
 21
916.228328
 31
0.0
  0
LINE
  5
4A
330
1F
100
AcDbEntity
  8
PRO0
  6
CONTINUOUS
 62
     4
100
AcDbLine
 10
1312.5
 20
876.228328
 30
0.0
 11
2717.5
 21
876.228328
 31
0.0
  0
LINE
  5
4B
330
1F
100
AcDbEntity
  8
PRO0
  6
CONTINUOUS
 62
     4
100
AcDbLine
 10
1503.26816
 20
1555.328328
 30
0.0
 11
1507.5
 21
1531.328328
 31
0.0
  0
LINE
  5
4C
330
1F
100
AcDbEntity
  8
PRO0
  6
CONTINUOUS
 62
     4
100
AcDbLine
 10
1501.30994
 20
1558.720068
 30
0.0
 11
1503.26816
 21
1555.328328
 31
0.0
  0
LINE
  5
4D
330
1F
100
AcDbEntity
  8
PRO0
  6
CONTINUOUS
 62
     4
100
AcDbLine
 10
1503.26816
 20
1555.328328
 30
0.0
 11
1486.73184
 21
1555.328328
 31
0.0
  0
LINE
  5
4E
330
1F
100
AcDbEntity
  8
PRO0
  6
CONTINUOUS
 62
     4
100
AcDbLine
 10
1475.0
 20
1531.328328
 30
0.0
 11
1515.0
 21
1531.328328
 31
0.0
  0
LINE
  5
4F
330
1F
100
AcDbEntity
  8
PRO0
  6
CONTINUOUS
 62
     4
100
AcDbLine
 10
1505.8011
 20
1540.963308
 30
0.0
 11
1507.5
 21
1531.328328
 31
0.0
  0
LINE
  5
50
330
1F
100
AcDbEntity
  8
PRO0
  6
CONTINUOUS
 62
     4
100
AcDbLine
 10
1486.73184
 20
1555.328328
 30
0.0
 11
1482.5
 21
1531.328328
 31
0.0
  0
ARC
  5
51
330
1F
100
AcDbEntity
  8
PRO0
  6
CONTINUOUS
 62
     4
100
AcDbCircle
 10
1517.61878
 20
1543.047088
 30
0.0
 40
12.0
100
AcDbArc
 50
127.6849
 51
190.0
  0
ARC
  5
52
330
1F
100
AcDbEntity
  8
PRO0
  6
CONTINUOUS
 62
     4
100
AcDbCircle
 10
1472.38122
 20
1543.047088
 30
0.0
 40
12.0
100
AcDbArc
 50
350.0
 51
52.3151
  0
ARC
  5
53
330
1F
100
AcDbEntity
  8
PRO0
  6
CONTINUOUS
 62
     4
100
AcDbCircle
 10
1495.0
 20
1572.328328
 30
0.0
 40
25.0
100
AcDbArc
 50
307.6849
 51
232.3151
  0
ARC
  5
54
330
1F
100
AcDbEntity
  8
PRO0
  6
CONTINUOUS
 62
     4
100
AcDbCircle
 10
1495.0
 20
1572.328328
 30
0.0
 40
15.0
100
AcDbArc
 50
294.876394
 51
245.123606
  0
LINE
  5
55
330
1F
100
AcDbEntity
  8
PRO0
  6
CONTINUOUS
 62
     4
100
AcDbLine
 10
1488.69008
 20
1558.720068
 30
0.0
 11
1486.73184
 21
1555.328328
 31
0.0
  0
LINE
  5
56
330
1F
100
AcDbEntity
  8
PRO0
  6
CONTINUOUS
 62
     4
100
AcDbLine
 10
1501.30994
 20
1558.720068
 30
0.0
 11
1488.69008
 21
1558.720068
 31
0.0
  0
LINE
  5
57
330
1F
100
AcDbEntity
  8
PRO0
  6
CONTINUOUS
 62
     4
100
AcDbLine
 10
1514.0
 20
1529.328328
 30
0.0
 11
1514.0
 21
1528.328328
 31
0.0
  0
LINE
  5
58
330
1F
100
AcDbEntity
  8
PRO0
  6
CONTINUOUS
 62
     4
100
AcDbLine
 10
1476.0
 20
1529.328328
 30
0.0
 11
1476.0
 21
1528.328328
 31
0.0
  0
LINE
  5
59
330
1F
100
AcDbEntity
  8
PRO0
  6
CONTINUOUS
 62
     4
100
AcDbLine
 10
1475.0
 20
1531.328328
 30
0.0
 11
1475.0
 21
1529.328328
 31
0.0
  0
LINE
  5
5A
330
1F
100
AcDbEntity
  8
PRO0
  6
CONTINUOUS
 62
     4
100
AcDbLine
 10
1515.0
 20
1529.328328
 30
0.0
 11
1475.0
 21
1529.328328
 31
0.0
  0
LINE
  5
5B
330
1F
100
AcDbEntity
  8
PRO0
  6
CONTINUOUS
 62
     4
100
AcDbLine
 10
1515.0
 20
1531.328328
 30
0.0
 11
1515.0
 21
1529.328328
 31
0.0
  0
ARC
  5
5C
330
1F
100
AcDbEntity
  8
PRO0
  6
CONTINUOUS
 62
     4
100
AcDbCircle
 10
2006.91814
 20
1544.104408
 30
0.0
 40
3.08508
100
AcDbArc
 50
272.722414
 51
357.378614
  0
LINE
  5
5D
330
1F
100
AcDbEntity
  8
PRO0
  6
CONTINUOUS
 62
     4
100
AcDbLine
 10
2010.0
 20
1592.328328
 30
0.0
 11
2010.0
 21
1543.963308
 31
0.0
  0
ARC
  5
5E
330
1F
100
AcDbEntity
  8
PRO0
  6
CONTINUOUS
 62
     4
100
AcDbCircle
 10
6053.0
 20
1644.855868
 30
0.0
 40
3.0
100
AcDbArc
 50
180.0
 51
252.201114
  0
ARC
  5
5F
330
1F
100
AcDbEntity
  8
PRO0
  6
CONTINUOUS
 62
     4
100
AcDbCircle
 10
6037.0
 20
1644.855868
 30
0.0
 40
3.0
100
AcDbArc
 50
287.798886
 51
0.0
  0
ARC
  5
60
330
1F
100
AcDbEntity
  8
PRO0
  6
CONTINUOUS
 62
     4
100
AcDbCircle
 10
5408.0
 20
4043.050979
 30
0.0
 40
8.0
100
AcDbArc
 50
100.0
 51
270.0
  0
LINE
  5
61
330
1F
100
AcDbEntity
  8
PRO0
  6
PLINE2
 62
     3
100
AcDbLine
 10
6045.0
 20
3727.388059
 30
0.0
 11
6045.0
 21
4415.202559
 31
0.0
  0
ARC
  5
62
330
1F
100
AcDbEntity
  8
PRO0
  6
CONTINUOUS
 62
     4
100
AcDbCircle
 10
1431.44506
 20
1078.416508
 30
0.0
 40
1.0
100
AcDbArc
 50
315.0
 51
334.887878
  0
LINE
  5
63
330
1F
100
AcDbEntity
  8
PRO0
  6
CONTINUOUS
 62
     4
100
AcDbLine
 10
5607.60278
 20
3944.494079
 30
0.0
 11
5556.32794
 21
3834.534839
 31
0.0
  0
LINE
  5
64
330
1F
100
AcDbEntity
  8
PRO0
  6
CONTINUOUS
 62
     4
100
AcDbLine
 10
5518.0
 20
3821.050979
 30
0.0
 11
5518.0
 21
3785.050979
 31
0.0
  0
ARC
  5
65
330
1F
100
AcDbEntity
  8
PRO0
  6
CONTINUOUS
 62
     4
100
AcDbCircle
 10
5522.0
 20
3821.050979
 30
0.0
 40
4.0
100
AcDbArc
 50
90.0
 51
180.0
  0
ARC
  5
66
330
1F
100
AcDbEntity
  8
PRO0
  6
CONTINUOUS
 62
     4
100
AcDbCircle
 10
5622.1037
 20
3937.732179
 30
0.0
 40
16.0
100
AcDbArc
 50
135.0
 51
155.0
  0
LINE
  5
67
330
1F
100
AcDbEntity
  8
PRO0
  6
CONTINUOUS
 62
     4
100
AcDbLine
 10
5622.80016
 20
3961.056059
 30
0.0
 11
5610.78998
 21
3949.045879
 31
0.0
  0
ARC
  5
68
330
1F
100
AcDbEntity
  8
PRO0
  6
CONTINUOUS
 62
     4
100
AcDbCircle
 10
5611.48646
 20
3972.369779
 30
0.0
 40
16.0
100
AcDbArc
 50
315.0
 51
335.0
  0
LINE
  5
69
330
1F
100
AcDbEntity
  8
PRO0
  6
CONTINUOUS
 62
     4
100
AcDbLine
 10
5658.36922
 20
4035.050979
 30
0.0
 11
5625.98738
 21
3965.607879
 31
0.0
  0
ARC
  5
6A
330
1F
100
AcDbEntity
  8
PRO0
  6
CONTINUOUS
 62
     4
100
AcDbCircle
 10
5541.44126
 20
3841.476619
 30
0.0
 40
16.42564
100
AcDbArc
 50
270.0
 51
335.000006
  0
LINE
  5
6B
330
1F
100
AcDbEntity
  8
PRO0
  6
CONTINUOUS
 62
     3
100
AcDbLine
 10
6480.90244
 20
3947.050979
 30
0.0
 11
5609.09754
 21
3947.050979
 31
0.0
  0
LINE
  5
6C
330
1F
100
AcDbEntity
  8
PRO0
  6
CONTINUOUS
 62
     3
100
AcDbLine
 10
6465.50738
 20
3963.050979
 30
0.0
 11
5624.4926
 21
3963.050979
 31
0.0
  0
LINE
  5
6D
330
1F
100
AcDbEntity
  8
PRO0
  6
CONTINUOUS
 62
     4
100
AcDbLine
 10
6682.0
 20
4035.050979
 30
0.0
 11
5408.0
 21
4035.050979
 31
0.0
  0
LINE
  5
6E
330
1F
100
AcDbEntity
  8
PRO0
  6
CONTINUOUS
 62
     4
100
AcDbLine
 10
6568.0
 20
3825.050979
 30
0.0
 11
5522.0
 21
3825.050979
 31
0.0
  0
LINE
  5
6F
330
1F
100
AcDbEntity
  8
PRO0
  6
CONTINUOUS
 62
     4
100
AcDbLine
 10
6572.0
 20
3785.050979
 30
0.0
 11
5518.0
 21
3785.050979
 31
0.0
  0
LINE
  5
70
330
1F
100
AcDbEntity
  8
PRO0
  6
CONTINUOUS
 62
     4
100
AcDbLine
 10
6482.39722
 20
3944.494079
 30
0.0
 11
6533.67204
 21
3834.534839
 31
0.0
  0
LINE
  5
71
330
1F
100
AcDbEntity
  8
PRO0
  6
CONTINUOUS
 62
     4
100
AcDbLine
 10
6572.0
 20
3821.050979
 30
0.0
 11
6572.0
 21
3785.050979
 31
0.0
  0
ARC
  5
72
330
1F
100
AcDbEntity
  8
PRO0
  6
CONTINUOUS
 62
     4
100
AcDbCircle
 10
6568.0
 20
3821.050979
 30
0.0
 40
4.0
100
AcDbArc
 50
0.0
 51
90.0
  0
ARC
  5
73
330
1F
100
AcDbEntity
  8
PRO0
  6
CONTINUOUS
 62
     4
100
AcDbCircle
 10
6467.89628
 20
3937.732179
 30
0.0
 40
16.0
100
AcDbArc
 50
25.0
 51
45.0
  0
LINE
  5
74
330
1F
100
AcDbEntity
  8
PRO0
  6
CONTINUOUS
 62
     4
100
AcDbLine
 10
6467.19982
 20
3961.056059
 30
0.0
 11
6479.21
 21
3949.045879
 31
0.0
  0
ARC
  5
75
330
1F
100
AcDbEntity
  8
PRO0
  6
CONTINUOUS
 62
     4
100
AcDbCircle
 10
6478.51352
 20
3972.369779
 30
0.0
 40
16.0
100
AcDbArc
 50
205.0
 51
225.0
  0
LINE
  5
76
330
1F
100
AcDbEntity
  8
PRO0
  6
CONTINUOUS
 62
     4
100
AcDbLine
 10
6431.63076
 20
4035.050979
 30
0.0
 11
6464.0126
 21
3965.607879
 31
0.0
  0
ARC
  5
77
330
1F
100
AcDbEntity
  8
PRO0
  6
CONTINUOUS
 62
     4
100
AcDbCircle
 10
6548.55874
 20
3841.476619
 30
0.0
 40
16.42564
100
AcDbArc
 50
204.999994
 51
270.0
  0
LINE
  5
78
330
1F
100
AcDbEntity
  8
PRO0
  6
CONTINUOUS
 62
     4
100
AcDbLine
 10
6400.0
 20
4320.050979
 30
0.0
 11
6420.0
 21
4320.050979
 31
0.0
  0
LINE
  5
79
330
1F
100
AcDbEntity
  8
PRO0
  6
CONTINUOUS
 62
     4
100
AcDbLine
 10
6672.81018
 20
4052.794799
 30
0.0
 11
6683.38918
 21
4050.929439
 31
0.0
  0
ARC
  5
7A
330
1F
100
AcDbEntity
  8
PRO0
  6
CONTINUOUS
 62
     4
100
AcDbCircle
 10
6678.01962
 20
4082.339039
 30
0.0
 40
30.0
100
AcDbArc
 50
205.0
 51
260.0
  0
LINE
  5
7B
330
1F
100
AcDbEntity
  8
PRO0
  6
CONTINUOUS
 62
     4
100
AcDbLine
 10
6627.1263
 20
4120.494079
 30
0.0
 11
6650.8304
 21
4069.660479
 31
0.0
  0
ARC
  5
7C
330
1F
100
AcDbEntity
  8
PRO0
  6
CONTINUOUS
 62
     4
100
AcDbCircle
 10
6612.62538
 20
4113.732179
 30
0.0
 40
16.0
100
AcDbArc
 50
25.0
 51
45.0
  0
LINE
  5
7D
330
1F
100
AcDbEntity
  8
PRO0
  6
CONTINUOUS
 62
     4
100
AcDbLine
 10
6611.9289
 20
4137.056059
 30
0.0
 11
6623.93908
 21
4125.045879
 31
0.0
  0
ARC
  5
7E
330
1F
100
AcDbEntity
  8
PRO0
  6
CONTINUOUS
 62
     4
100
AcDbCircle
 10
6623.24262
 20
4148.369779
 30
0.0
 40
16.0
100
AcDbArc
 50
205.0
 51
225.0
  0
LINE
  5
7F
330
1F
100
AcDbEntity
  8
PRO0
  6
CONTINUOUS
 62
     4
100
AcDbLine
 10
6570.00924
 20
4224.669899
 30
0.0
 11
6608.7417
 21
4141.607879
 31
0.0
  0
ARC
  5
80
330
1F
100
AcDbEntity
  8
PRO0
  6
CONTINUOUS
 62
     4
100
AcDbCircle
 10
6377.0967
 20
4333.050979
 30
0.0
 40
16.0
100
AcDbArc
 50
255.068583
 51
270.0
  0
ARC
  5
81
330
1F
100
AcDbEntity
  8
PRO0
  6
CONTINUOUS
 62
     4
100
AcDbCircle
 10
6425.0
 20
4157.050979
 30
0.0
 40
160.0
100
AcDbArc
 50
25.0
 51
90.0
  0
LINE
  5
82
330
1F
100
AcDbEntity
  8
PRO0
  6
CONTINUOUS
 62
     4
100
AcDbLine
 10
6393.5
 20
4318.050979
 30
0.0
 11
6393.5
 21
4317.050979
 31
0.0
  0
LINE
  5
83
330
1F
100
AcDbEntity
  8
PRO0
  6
CONTINUOUS
 62
     4
100
AcDbLine
 10
6426.5
 20
4318.050979
 30
0.0
 11
6426.5
 21
4317.043939
 31
0.0
  0
LINE
  5
84
330
1F
100
AcDbEntity
  8
PRO0
  6
CONTINUOUS
 62
     4
100
AcDbLine
 10
6392.5
 20
4320.050979
 30
0.0
 11
6400.0
 21
4320.050979
 31
0.0
  0
LINE
  5
85
330
1F
100
AcDbEntity
  8
PRO0
  6
CONTINUOUS
 62
     4
100
AcDbLine
 10
6392.5
 20
4318.050979
 30
0.0
 11
6392.5
 21
4320.050979
 31
0.0
  0
LINE
  5
86
330
1F
100
AcDbEntity
  8
PRO0
  6
CONTINUOUS
 62
     4
100
AcDbLine
 10
6427.5
 20
4318.050979
 30
0.0
 11
6392.5
 21
4318.050979
 31
0.0
  0
LINE
  5
87
330
1F
100
AcDbEntity
  8
PRO0
  6
CONTINUOUS
 62
     4
100
AcDbLine
 10
6427.5
 20
4320.050979
 30
0.0
 11
6427.5
 21
4318.050979
 31
0.0
  0
LINE
  5
88
330
1F
100
AcDbEntity
  8
PRO0
  6
CONTINUOUS
 62
     4
100
AcDbLine
 10
6427.5
 20
4320.050979
 30
0.0
 11
6420.0
 21
4320.050979
 31
0.0
  0
ARC
  5
89
330
1F
100
AcDbEntity
  8
PRO0
  6
CONTINUOUS
 62
     4
100
AcDbCircle
 10
6410.0
 20
4353.050979
 30
0.0
 40
20.5
100
AcDbArc
 50
247.124884
 51
247.320851
  0
LINE
  5
8A
330
1F
100
AcDbEntity
  8
PRO0
  6
CONTINUOUS
 62
     4
100
AcDbLine
 10
6402.90812
 20
4340.050979
 30
0.0
 11
6417.09186
 21
4340.050979
 31
0.0
  0
ARC
  5
8B
330
1F
100
AcDbEntity
  8
PRO0
  6
CONTINUOUS
 62
     4
100
AcDbCircle
 10
6391.20092
 20
4329.033379
 30
0.0
 40
10.0
100
AcDbArc
 50
351.726807
 51
51.948993
  0
ARC
  5
8C
330
1F
100
AcDbEntity
  8
PRO0
  6
CONTINUOUS
 62
     4
100
AcDbCircle
 10
6428.79906
 20
4329.033379
 30
0.0
 40
10.0
100
AcDbArc
 50
128.051007
 51
188.273193
  0
ARC
  5
8D
330
1F
100
AcDbEntity
  8
PRO0
  6
CONTINUOUS
 62
     4
100
AcDbCircle
 10
6410.0
 20
4353.050979
 30
0.0
 40
20.5
100
AcDbArc
 50
308.051007
 51
231.948993
  0
LINE
  5
8E
330
1F
100
AcDbEntity
  8
PRO0
  6
CONTINUOUS
 62
     4
100
AcDbLine
 10
6415.93716
 20
4342.050979
 30
0.0
 11
6417.09186
 21
4340.050979
 31
0.0
  0
LINE
  5
8F
330
1F
100
AcDbEntity
  8
PRO0
  6
CONTINUOUS
 62
     4
100
AcDbLine
 10
6402.90812
 20
4340.050979
 30
0.0
 11
6404.06282
 21
4342.050979
 31
0.0
  0
LINE
  5
90
330
1F
100
AcDbEntity
  8
PRO0
  6
CONTINUOUS
 62
     4
100
AcDbLine
 10
6404.06282
 20
4342.050979
 30
0.0
 11
6415.93716
 21
4342.050979
 31
0.0
  0
ARC
  5
91
330
1F
100
AcDbEntity
  8
PRO0
  6
CONTINUOUS
 62
     4
100
AcDbCircle
 10
6410.0
 20
4353.050979
 30
0.0
 40
12.5
100
AcDbArc
 50
298.357637
 51
241.642363
  0
ARC
  5
92
330
1F
100
AcDbEntity
  8
PRO0
  6
CONTINUOUS
 62
     4
100
AcDbCircle
 10
6312.78692
 20
4317.081999
 30
0.0
 40
16.0
100
AcDbArc
 50
75.068583
 51
89.151236
  0
LINE
  5
93
330
1F
100
AcDbEntity
  8
PRO0
  6
CONTINUOUS
 62
     4
100
AcDbLine
 10
6417.09186
 20
4340.050979
 30
0.0
 11
6420.0
 21
4320.050979
 31
0.0
  0
LINE
  5
94
330
1F
100
AcDbEntity
  8
PRO0
  6
CONTINUOUS
 62
     4
100
AcDbLine
 10
6400.0
 20
4320.050979
 30
0.0
 11
6402.90812
 21
4340.050979
 31
0.0
  0
LINE
  5
95
330
1F
100
AcDbEntity
  8
PRO0
  6
CONTINUOUS
 62
     4
100
AcDbLine
 10
6316.90954
 20
4332.541759
 30
0.0
 11
6372.97408
 21
4317.591219
 31
0.0
  0
LINE
  5
96
330
1F
100
AcDbEntity
  8
PRO0
  6
CONTINUOUS
 62
     4
100
AcDbLine
 10
6028.5
 20
4318.050979
 30
0.0
 11
6028.5
 21
4317.050979
 31
0.0
  0
LINE
  5
97
330
1F
100
AcDbEntity
  8
PRO0
  6
CONTINUOUS
 62
     4
100
AcDbLine
 10
6062.5
 20
4318.050979
 30
0.0
 11
6027.5
 21
4318.050979
 31
0.0
  0
LINE
  5
98
330
1F
100
AcDbEntity
  8
PRO0
  6
CONTINUOUS
 62
     4
100
AcDbLine
 10
6027.5
 20
4320.050979
 30
0.0
 11
6027.5
 21
4318.050979
 31
0.0
  0
LINE
  5
99
330
1F
100
AcDbEntity
  8
PRO0
  6
CONTINUOUS
 62
     4
100
AcDbLine
 10
5690.0
 20
4320.050979
 30
0.0
 11
5670.0
 21
4320.050979
 31
0.0
  0
LINE
  5
9A
330
1F
100
AcDbEntity
  8
PRO0
  6
CONTINUOUS
 62
     4
100
AcDbLine
 10
5417.1898
 20
4052.794799
 30
0.0
 11
5406.6108
 21
4050.929439
 31
0.0
  0
ARC
  5
9B
330
1F
100
AcDbEntity
  8
PRO0
  6
CONTINUOUS
 62
     4
100
AcDbCircle
 10
5411.98036
 20
4082.339039
 30
0.0
 40
30.0
100
AcDbArc
 50
280.0
 51
335.0
  0
LINE
  5
9C
330
1F
100
AcDbEntity
  8
PRO0
  6
CONTINUOUS
 62
     4
100
AcDbLine
 10
5462.87368
 20
4120.494079
 30
0.0
 11
5439.1696
 21
4069.660479
 31
0.0
  0
ARC
  5
9D
330
1F
100
AcDbEntity
  8
PRO0
  6
CONTINUOUS
 62
     4
100
AcDbCircle
 10
5477.3746
 20
4113.732179
 30
0.0
 40
16.0
100
AcDbArc
 50
135.0
 51
155.0
  0
LINE
  5
9E
330
1F
100
AcDbEntity
  8
PRO0
  6
CONTINUOUS
 62
     4
100
AcDbLine
 10
5478.07108
 20
4137.056059
 30
0.0
 11
5466.0609
 21
4125.045879
 31
0.0
  0
ARC
  5
9F
330
1F
100
AcDbEntity
  8
PRO0
  6
CONTINUOUS
 62
     4
100
AcDbCircle
 10
5466.75736
 20
4148.369779
 30
0.0
 40
16.0
100
AcDbArc
 50
315.0
 51
335.0
  0
LINE
  5
A0
330
1F
100
AcDbEntity
  8
PRO0
  6
CONTINUOUS
 62
     4
100
AcDbLine
 10
5519.99074
 20
4224.669899
 30
0.0
 11
5481.2583
 21
4141.607879
 31
0.0
  0
ARC
  5
A1
330
1F
100
AcDbEntity
  8
PRO0
  6
CONTINUOUS
 62
     4
100
AcDbCircle
 10
5712.9033
 20
4333.050979
 30
0.0
 40
16.0
100
AcDbArc
 50
270.0
 51
284.931417
  0
ARC
  5
A2
330
1F
100
AcDbEntity
  8
PRO0
  6
CONTINUOUS
 62
     4
100
AcDbCircle
 10
5665.0
 20
4157.050979
 30
0.0
 40
160.0
100
AcDbArc
 50
90.0
 51
155.0
  0
LINE
  5
A3
330
1F
100
AcDbEntity
  8
PRO0
  6
CONTINUOUS
 62
     4
100
AcDbLine
 10
5696.5
 20
4318.050979
 30
0.0
 11
5696.5
 21
4317.050979
 31
0.0
  0
LINE
  5
A4
330
1F
100
AcDbEntity
  8
PRO0
  6
CONTINUOUS
 62
     4
100
AcDbLine
 10
5663.5
 20
4318.050979
 30
0.0
 11
5663.5
 21
4317.043939
 31
0.0
  0
LINE
  5
A5
330
1F
100
AcDbEntity
  8
PRO0
  6
CONTINUOUS
 62
     4
100
AcDbLine
 10
5697.5
 20
4320.050979
 30
0.0
 11
5690.0
 21
4320.050979
 31
0.0
  0
LINE
  5
A6
330
1F
100
AcDbEntity
  8
PRO0
  6
CONTINUOUS
 62
     4
100
AcDbLine
 10
5697.5
 20
4318.050979
 30
0.0
 11
5697.5
 21
4320.050979
 31
0.0
  0
LINE
  5
A7
330
1F
100
AcDbEntity
  8
PRO0
  6
CONTINUOUS
 62
     4
100
AcDbLine
 10
5662.5
 20
4318.050979
 30
0.0
 11
5697.5
 21
4318.050979
 31
0.0
  0
LINE
  5
A8
330
1F
100
AcDbEntity
  8
PRO0
  6
CONTINUOUS
 62
     4
100
AcDbLine
 10
5662.5
 20
4320.050979
 30
0.0
 11
5662.5
 21
4318.050979
 31
0.0
  0
LINE
  5
A9
330
1F
100
AcDbEntity
  8
PRO0
  6
CONTINUOUS
 62
     4
100
AcDbLine
 10
5662.5
 20
4320.050979
 30
0.0
 11
5670.0
 21
4320.050979
 31
0.0
  0
ARC
  5
AA
330
1F
100
AcDbEntity
  8
PRO0
  6
CONTINUOUS
 62
     4
100
AcDbCircle
 10
5680.0
 20
4353.050979
 30
0.0
 40
20.5
100
AcDbArc
 50
292.679149
 51
292.875116
  0
LINE
  5
AB
330
1F
100
AcDbEntity
  8
PRO0
  6
CONTINUOUS
 62
     4
100
AcDbLine
 10
5687.09186
 20
4340.050979
 30
0.0
 11
5672.90812
 21
4340.050979
 31
0.0
  0
ARC
  5
AC
330
1F
100
AcDbEntity
  8
PRO0
  6
CONTINUOUS
 62
     4
100
AcDbCircle
 10
5698.79906
 20
4329.033379
 30
0.0
 40
10.0
100
AcDbArc
 50
128.051007
 51
188.273193
  0
ARC
  5
AD
330
1F
100
AcDbEntity
  8
PRO0
  6
CONTINUOUS
 62
     4
100
AcDbCircle
 10
5661.20092
 20
4329.033379
 30
0.0
 40
10.0
100
AcDbArc
 50
351.726807
 51
51.948993
  0
ARC
  5
AE
330
1F
100
AcDbEntity
  8
PRO0
  6
CONTINUOUS
 62
     4
100
AcDbCircle
 10
5680.0
 20
4353.050979
 30
0.0
 40
20.5
100
AcDbArc
 50
308.051007
 51
231.948993
  0
LINE
  5
AF
330
1F
100
AcDbEntity
  8
PRO0
  6
CONTINUOUS
 62
     4
100
AcDbLine
 10
5674.06282
 20
4342.050979
 30
0.0
 11
5672.90812
 21
4340.050979
 31
0.0
  0
LINE
  5
B0
330
1F
100
AcDbEntity
  8
PRO0
  6
CONTINUOUS
 62
     4
100
AcDbLine
 10
5687.09186
 20
4340.050979
 30
0.0
 11
5685.93716
 21
4342.050979
 31
0.0
  0
LINE
  5
B1
330
1F
100
AcDbEntity
  8
PRO0
  6
CONTINUOUS
 62
     4
100
AcDbLine
 10
5685.93716
 20
4342.050979
 30
0.0
 11
5674.06282
 21
4342.050979
 31
0.0
  0
ARC
  5
B2
330
1F
100
AcDbEntity
  8
PRO0
  6
CONTINUOUS
 62
     4
100
AcDbCircle
 10
5680.0
 20
4353.050979
 30
0.0
 40
12.5
100
AcDbArc
 50
298.357637
 51
241.642363
  0
ARC
  5
B3
330
1F
100
AcDbEntity
  8
PRO0
  6
CONTINUOUS
 62
     4
100
AcDbCircle
 10
5777.21306
 20
4317.081999
 30
0.0
 40
16.0
100
AcDbArc
 50
90.848764
 51
104.931417
  0
LINE
  5
B4
330
1F
100
AcDbEntity
  8
PRO0
  6
CONTINUOUS
 62
     4
100
AcDbLine
 10
5672.90812
 20
4340.050979
 30
0.0
 11
5670.0
 21
4320.050979
 31
0.0
  0
LINE
  5
B5
330
1F
100
AcDbEntity
  8
PRO0
  6
CONTINUOUS
 62
     4
100
AcDbLine
 10
5690.0
 20
4320.050979
 30
0.0
 11
5687.09186
 21
4340.050979
 31
0.0
  0
LINE
  5
B6
330
1F
100
AcDbEntity
  8
PRO0
  6
CONTINUOUS
 62
     4
100
AcDbLine
 10
5773.09046
 20
4332.541759
 30
0.0
 11
5717.0259
 21
4317.591219
 31
0.0
  0
LINE
  5
B7
330
1F
100
AcDbEntity
  8
PRO0
  6
CONTINUOUS
 62
     4
100
AcDbLine
 10
5665.0
 20
4317.050979
 30
0.0
 11
6425.0
 21
4317.050979
 31
0.0
  0
LINE
  5
B8
330
1F
100
AcDbEntity
  8
PRO0
  6
CONTINUOUS
 62
     3
100
AcDbLine
 10
6610.23646
 20
4139.050979
 30
0.0
 11
5479.76352
 21
4139.050979
 31
0.0
  0
LINE
  5
B9
330
1F
100
AcDbEntity
  8
PRO0
  6
CONTINUOUS
 62
     3
100
AcDbLine
 10
6625.63154
 20
4123.050979
 30
0.0
 11
5464.36846
 21
4123.050979
 31
0.0
  0
LINE
  5
BA
330
1F
100
AcDbEntity
  8
PRO0
  6
CONTINUOUS
 62
     4
100
AcDbLine
 10
6682.0
 20
4051.050979
 30
0.0
 11
5407.30008
 21
4051.050979
 31
0.0
  0
LINE
  5
BB
330
1F
100
AcDbEntity
  8
PRO0
  6
CONTINUOUS
 62
     4
100
AcDbLine
 10
5776.97604
 20
4333.080239
 30
0.0
 11
6036.8904
 21
4333.051859
 31
0.0
  0
LINE
  5
BC
330
1F
100
AcDbEntity
  8
PRO0
  6
CONTINUOUS
 62
     4
100
AcDbLine
 10
6037.45564
 20
4336.939199
 30
0.0
 11
5776.97604
 21
4333.080239
 31
0.0
  0
ARC
  5
BD
330
1F
100
AcDbEntity
  8
PRO0
  6
CONTINUOUS
 62
     4
100
AcDbCircle
 10
6042.5
 20
4369.220839
 30
0.0
 40
5.0
100
AcDbArc
 50
0.0
 51
60.0
  0
ARC
  5
BE
330
1F
100
AcDbEntity
  8
PRO0
  6
CONTINUOUS
 62
     4
100
AcDbCircle
 10
6050.5
 20
4332.685959
 30
0.0
 40
3.0
100
AcDbArc
 50
180.0
 51
270.0
  0
LINE
  5
BF
330
1F
100
AcDbEntity
  8
PRO0
  6
CONTINUOUS
 62
     4
100
AcDbLine
 10
6047.5
 20
4369.220839
 30
0.0
 11
6047.5
 21
4332.685959
 31
0.0
  0
LINE
  5
C0
330
1F
100
AcDbEntity
  8
PRO0
  6
CONTINUOUS
 62
     4
100
AcDbLine
 10
6047.5
 20
4338.659239
 30
0.0
 11
6050.76814
 21
4338.659239
 31
0.0
  0
LINE
  5
C1
330
1F
100
AcDbEntity
  8
PRO0
  6
CONTINUOUS
 62
     4
100
AcDbLine
 10
6048.80992
 20
4342.050979
 30
0.0
 11
6050.76814
 21
4338.659239
 31
0.0
  0
LINE
  5
C2
330
1F
100
AcDbEntity
  8
PRO0
  6
CONTINUOUS
 62
     4
100
AcDbLine
 10
6047.5
 20
4342.050979
 30
0.0
 11
6048.80992
 21
4342.050979
 31
0.0
  0
LINE
  5
C3
330
1F
100
AcDbEntity
  8
PRO0
  6
CONTINUOUS
 62
     4
100
AcDbLine
 10
6050.76814
 20
4338.659239
 30
0.0
 11
6055.0
 21
4320.050979
 31
0.0
  0
LINE
  5
C4
330
1F
100
AcDbEntity
  8
PRO0
  6
CONTINUOUS
 62
     4
100
AcDbLine
 10
6061.5
 20
4318.050979
 30
0.0
 11
6061.5
 21
4317.050979
 31
0.0
  0
LINE
  5
C5
330
1F
100
AcDbEntity
  8
PRO0
  6
CONTINUOUS
 62
     4
100
AcDbLine
 10
6062.5
 20
4320.050979
 30
0.0
 11
6062.5
 21
4318.050979
 31
0.0
  0
ARC
  5
C6
330
1F
100
AcDbEntity
  8
PRO0
  6
CONTINUOUS
 62
     4
100
AcDbCircle
 10
6682.0
 20
4043.050979
 30
0.0
 40
8.0
100
AcDbArc
 50
270.0
 51
80.0
  0
LINE
  5
C7
330
1F
100
AcDbEntity
  8
PRO0
  6
CONTINUOUS
 62
     4
100
AcDbLine
 10
6313.02394
 20
4333.080239
 30
0.0
 11
6053.10958
 21
4333.051859
 31
0.0
  0
LINE
  5
C8
330
1F
100
AcDbEntity
  8
PRO0
  6
CONTINUOUS
 62
     4
100
AcDbLine
 10
6052.54434
 20
4336.939199
 30
0.0
 11
6313.02394
 21
4333.080239
 31
0.0
  0
ARC
  5
C9
330
1F
100
AcDbEntity
  8
PRO0
  6
CONTINUOUS
 62
     4
100
AcDbCircle
 10
2270.0
 20
4222.550979
 30
0.0
 40
12.5
100
AcDbArc
 50
298.357637
 51
241.642363
  0
LINE
  5
CA
330
1F
100
AcDbEntity
  8
PRO0
  6
CONTINUOUS
 62
     4
100
AcDbLine
 10
2264.06284
 20
4211.550979
 30
0.0
 11
2275.93718
 21
4211.550979
 31
0.0
  0
LINE
  5
CB
330
1F
100
AcDbEntity
  8
PRO0
  6
CONTINUOUS
 62
     4
100
AcDbLine
 10
2262.90814
 20
4209.550979
 30
0.0
 11
2264.06284
 21
4211.550979
 31
0.0
  0
LINE
  5
CC
330
1F
100
AcDbEntity
  8
PRO0
  6
CONTINUOUS
 62
     4
100
AcDbLine
 10
2275.93718
 20
4211.550979
 30
0.0
 11
2277.09188
 21
4209.550979
 31
0.0
  0
LINE
  5
CD
330
1F
100
AcDbEntity
  8
PRO0
  6
CONTINUOUS
 62
     4
100
AcDbLine
 10
2260.0
 20
4189.550979
 30
0.0
 11
2262.90814
 21
4209.550979
 31
0.0
  0
LINE
  5
CE
330
1F
100
AcDbEntity
  8
PRO0
  6
CONTINUOUS
 62
     4
100
AcDbLine
 10
2277.09188
 20
4209.550979
 30
0.0
 11
2280.0
 21
4189.550979
 31
0.0
  0
ARC
  5
CF
330
1F
100
AcDbEntity
  8
PRO0
  6
CONTINUOUS
 62
     4
100
AcDbCircle
 10
2270.0
 20
4222.550979
 30
0.0
 40
20.5
100
AcDbArc
 50
308.051007
 51
231.948993
  0
ARC
  5
D0
330
1F
100
AcDbEntity
  8
PRO0
  6
CONTINUOUS
 62
     4
100
AcDbCircle
 10
2288.79908
 20
4198.533379
 30
0.0
 40
10.0
100
AcDbArc
 50
128.051007
 51
188.273193
  0
ARC
  5
D1
330
1F
100
AcDbEntity
  8
PRO0
  6
CONTINUOUS
 62
     4
100
AcDbCircle
 10
2251.20094
 20
4198.533379
 30
0.0
 40
10.0
100
AcDbArc
 50
351.726807
 51
51.948993
  0
LINE
  5
D2
330
1F
100
AcDbEntity
  8
PRO0
  6
CONTINUOUS
 62
     4
100
AcDbLine
 10
2262.90814
 20
4209.550979
 30
0.0
 11
2277.09188
 21
4209.550979
 31
0.0
  0
ARC
  5
D3
330
1F
100
AcDbEntity
  8
PRO0
  6
CONTINUOUS
 62
     4
100
AcDbCircle
 10
2270.0
 20
4222.550979
 30
0.0
 40
20.5
100
AcDbArc
 50
247.124884
 51
247.320851
  0
LINE
  5
D4
330
1F
100
AcDbEntity
  8
PRO0
  6
CONTINUOUS
 62
     4
100
AcDbLine
 10
2022.09188
 20
4209.550979
 30
0.0
 11
2025.0
 21
4189.550979
 31
0.0
  0
LINE
  5
D5
330
1F
100
AcDbEntity
  8
PRO0
  6
CONTINUOUS
 62
     4
100
AcDbLine
 10
2019.0
 20
4209.550979
 30
0.0
 11
2022.09188
 21
4209.550979
 31
0.0
  0
LINE
  5
D6
330
1F
100
AcDbEntity
  8
PRO0
  6
CONTINUOUS
 62
     4
100
AcDbLine
 10
2019.0
 20
4211.550979
 30
0.0
 11
2020.93718
 21
4211.550979
 31
0.0
  0
LINE
  5
D7
330
1F
100
AcDbEntity
  8
PRO0
  6
CONTINUOUS
 62
     4
100
AcDbLine
 10
2020.93718
 20
4211.550979
 30
0.0
 11
2022.09188
 21
4209.550979
 31
0.0
  0
ARC
  5
D8
330
1F
100
AcDbEntity
  8
PRO0
  6
CONTINUOUS
 62
     4
100
AcDbCircle
 10
2021.0
 20
4199.094439
 30
0.0
 40
2.0
100
AcDbArc
 50
180.0
 51
270.0
  0
ARC
  5
D9
330
1F
100
AcDbEntity
  8
PRO0
  6
CONTINUOUS
 62
     4
100
AcDbCircle
 10
2015.0
 20
4239.050979
 30
0.0
 40
4.0
100
AcDbArc
 50
0.0
 51
180.0
  0
LINE
  5
DA
330
1F
100
AcDbEntity
  8
PRO0
  6
CONTINUOUS
 62
     4
100
AcDbLine
 10
2019.0
 20
4239.050979
 30
0.0
 11
2019.0
 21
4199.094439
 31
0.0
  0
LINE
  5
DB
330
1F
100
AcDbEntity
  8
PRO0
  6
CONTINUOUS
 62
     4
100
AcDbLine
 10
2032.5
 20
4187.550979
 30
0.0
 11
2032.5
 21
4189.550979
 31
0.0
  0
LINE
  5
DC
330
1F
100
AcDbEntity
  8
PRO0
  6
CONTINUOUS
 62
     4
100
AcDbLine
 10
2031.5
 20
4187.550979
 30
0.0
 11
2031.5
 21
4186.550979
 31
0.0
  0
ARC
  5
DD
330
1F
100
AcDbEntity
  8
PRO0
  6
CONTINUOUS
 62
     4
100
AcDbCircle
 10
2285.0
 20
4080.550979
 30
0.0
 40
106.0
100
AcDbArc
 50
25.0
 51
90.0
  0
LINE
  5
DE
330
1F
100
AcDbEntity
  8
PRO0
  6
CONTINUOUS
 62
     4
100
AcDbLine
 10
2198.51002
 20
4198.571099
 30
0.0
 11
2023.69122
 21
4198.551919
 31
0.0
  0
ARC
  5
DF
330
1F
100
AcDbEntity
  8
PRO0
  6
CONTINUOUS
 62
     4
100
AcDbCircle
 10
2198.34788
 20
4186.572199
 30
0.0
 40
12.0
100
AcDbArc
 50
75.068583
 51
89.22578
  0
LINE
  5
E0
330
1F
100
AcDbEntity
  8
PRO0
  6
CONTINUOUS
 62
     4
100
AcDbLine
 10
2198.51002
 20
4198.571099
 30
0.0
 11
2023.34424
 21
4200.938219
 31
0.0
  0
LINE
  5
E1
330
1F
100
AcDbEntity
  8
PRO0
  6
CONTINUOUS
 62
     4
100
AcDbLine
 10
2243.48058
 20
4186.956159
 30
0.0
 11
2201.43982
 21
4198.167019
 31
0.0
  0
ARC
  5
E2
330
1F
100
AcDbEntity
  8
PRO0
  6
CONTINUOUS
 62
     4
100
AcDbCircle
 10
2246.57254
 20
4198.550979
 30
0.0
 40
12.0
100
AcDbArc
 50
255.068583
 51
270.0
  0
LINE
  5
E3
330
1F
100
AcDbEntity
  8
PRO0
  6
CONTINUOUS
 62
     4
100
AcDbLine
 10
1620.7758
 20
4064.968659
 30
0.0
 11
1648.93138
 21
4125.348519
 31
0.0
  0
LINE
  5
E4
330
1F
100
AcDbEntity
  8
PRO0
  6
CONTINUOUS
 62
     4
100
AcDbLine
 10
2409.22422
 20
4064.968659
 30
0.0
 11
2381.06864
 21
4125.348519
 31
0.0
  0
LINE
  5
E5
330
1F
100
AcDbEntity
  8
PRO0
  6
CONTINUOUS
 62
     4
100
AcDbLine
 10
1569.31238
 20
3998.609239
 30
0.0
 11
1559.95812
 21
3996.959819
 31
0.0
  0
LINE
  5
E6
330
1F
100
AcDbEntity
  8
PRO0
  6
CONTINUOUS
 62
     3
100
AcDbLine
 10
2421.8916
 20
4051.050979
 30
0.0
 11
1608.10842
 21
4051.050979
 31
0.0
  0
LINE
  5
E7
330
1F
100
AcDbEntity
  8
PRO0
  6
CONTINUOUS
 62
     3
100
AcDbLine
 10
2410.11846
 20
4063.050979
 30
0.0
 11
1619.65472
 21
4063.050979
 31
0.0
  0
ARC
  5
E8
330
1F
100
AcDbEntity
  8
PRO0
  6
CONTINUOUS
 62
     4
100
AcDbCircle
 10
1609.9001
 20
4070.040079
 30
0.0
 40
12.0
100
AcDbArc
 50
315.0
 51
335.0
  0
LINE
  5
E9
330
1F
100
AcDbEntity
  8
PRO0
  6
CONTINUOUS
 62
     4
100
AcDbLine
 10
1609.37774
 20
4052.547159
 30
0.0
 11
1618.38538
 21
4061.554799
 31
0.0
  0
ARC
  5
EA
330
1F
100
AcDbEntity
  8
PRO0
  6
CONTINUOUS
 62
     4
100
AcDbCircle
 10
1617.86304
 20
4044.061879
 30
0.0
 40
12.0
100
AcDbArc
 50
135.0
 51
155.0
  0
LINE
  5
EB
330
1F
100
AcDbEntity
  8
PRO0
  6
CONTINUOUS
 62
     4
100
AcDbLine
 10
1591.29218
 20
4015.474919
 30
0.0
 11
1606.98734
 21
4049.133299
 31
0.0
  0
LINE
  5
EC
330
1F
100
AcDbEntity
  8
PRO0
  6
CONTINUOUS
 62
     4
100
AcDbLine
 10
2469.0
 20
3997.050979
 30
0.0
 11
1560.47508
 21
3997.050979
 31
0.0
  0
ARC
  5
ED
330
1F
100
AcDbEntity
  8
PRO0
  6
CONTINUOUS
 62
     4
100
AcDbCircle
 10
1564.10294
 20
4028.153459
 30
0.0
 40
30.0
100
AcDbArc
 50
280.0
 51
335.0
  0
LINE
  5
EE
330
1F
100
AcDbEntity
  8
PRO0
  6
CONTINUOUS
 62
     4
100
AcDbLine
 10
2460.68762
 20
3998.609239
 30
0.0
 11
2470.0419
 21
3996.959819
 31
0.0
  0
ARC
  5
EF
330
1F
100
AcDbEntity
  8
PRO0
  6
CONTINUOUS
 62
     4
100
AcDbCircle
 10
2420.09992
 20
4070.040079
 30
0.0
 40
12.0
100
AcDbArc
 50
205.0
 51
225.0
  0
LINE
  5
F0
330
1F
100
AcDbEntity
  8
PRO0
  6
CONTINUOUS
 62
     4
100
AcDbLine
 10
2420.62226
 20
4052.547159
 30
0.0
 11
2411.61464
 21
4061.554799
 31
0.0
  0
ARC
  5
F1
330
1F
100
AcDbEntity
  8
PRO0
  6
CONTINUOUS
 62
     4
100
AcDbCircle
 10
2412.13698
 20
4044.061879
 30
0.0
 40
12.0
100
AcDbArc
 50
25.0
 51
45.0
  0
LINE
  5
F2
330
1F
100
AcDbEntity
  8
PRO0
  6
CONTINUOUS
 62
     4
100
AcDbLine
 10
2438.70784
 20
4015.474919
 30
0.0
 11
2423.01268
 21
4049.133299
 31
0.0
  0
ARC
  5
F3
330
1F
100
AcDbEntity
  8
PRO0
  6
CONTINUOUS
 62
     4
100
AcDbCircle
 10
2465.89708
 20
4028.153459
 30
0.0
 40
30.0
100
AcDbArc
 50
205.0
 51
260.0
  0
ARC
  5
F4
330
1F
100
AcDbEntity
  8
PRO0
  6
CONTINUOUS
 62
     4
100
AcDbCircle
 10
6047.5
 20
4369.220839
 30
0.0
 40
5.0
100
AcDbArc
 50
120.0
 51
180.0
  0
ARC
  5
F5
330
1F
100
AcDbEntity
  8
PRO0
  6
CONTINUOUS
 62
     4
100
AcDbCircle
 10
6039.5
 20
4332.685959
 30
0.0
 40
3.0
100
AcDbArc
 50
270.0
 51
0.0
  0
LINE
  5
F6
330
1F
100
AcDbEntity
  8
PRO0
  6
CONTINUOUS
 62
     4
100
AcDbLine
 10
6042.5
 20
4369.220839
 30
0.0
 11
6042.5
 21
4332.685959
 31
0.0
  0
LINE
  5
F7
330
1F
100
AcDbEntity
  8
PRO0
  6
CONTINUOUS
 62
     4
100
AcDbLine
 10
6042.5
 20
4338.659239
 30
0.0
 11
6039.23184
 21
4338.659239
 31
0.0
  0
LINE
  5
F8
330
1F
100
AcDbEntity
  8
PRO0
  6
CONTINUOUS
 62
     4
100
AcDbLine
 10
6041.19006
 20
4342.050979
 30
0.0
 11
6039.23184
 21
4338.659239
 31
0.0
  0
LINE
  5
F9
330
1F
100
AcDbEntity
  8
PRO0
  6
CONTINUOUS
 62
     4
100
AcDbLine
 10
6042.5
 20
4342.050979
 30
0.0
 11
6041.19006
 21
4342.050979
 31
0.0
  0
LINE
  5
FA
330
1F
100
AcDbEntity
  8
PRO0
  6
CONTINUOUS
 62
     4
100
AcDbLine
 10
6039.23184
 20
4338.659239
 30
0.0
 11
6035.0
 21
4320.050979
 31
0.0
  0
LINE
  5
FB
330
1F
100
AcDbEntity
  8
PRO0
  6
CONTINUOUS
 62
     4
100
AcDbLine
 10
6027.5
 20
4320.050979
 30
0.0
 11
6062.5
 21
4320.050979
 31
0.0
  0
LINE
  5
FC
330
1F
100
AcDbEntity
  8
PRO0
  6
CONTINUOUS
 62
     4
100
AcDbLine
 10
2391.5
 20
3822.050979
 30
0.0
 11
2391.5
 21
3785.050979
 31
0.0
  0
ARC
  5
FD
330
1F
100
AcDbEntity
  8
PRO0
  6
CONTINUOUS
 62
     4
100
AcDbCircle
 10
2388.5
 20
3822.050979
 30
0.0
 40
3.0
100
AcDbArc
 50
0.0
 51
90.0
  0
ARC
  5
FE
330
1F
100
AcDbEntity
  8
PRO0
  6
CONTINUOUS
 62
     4
100
AcDbCircle
 10
2306.17662
 20
3909.732179
 30
0.0
 40
16.0
100
AcDbArc
 50
25.0
 51
45.0
  0
LINE
  5
FF
330
1F
100
AcDbEntity
  8
PRO0
  6
CONTINUOUS
 62
     4
100
AcDbLine
 10
2309.48014
 20
3929.056059
 30
0.0
 11
2317.49032
 21
3921.045879
 31
0.0
  0
ARC
  5
100
330
1F
100
AcDbEntity
  8
PRO0
  6
CONTINUOUS
 62
     4
100
AcDbCircle
 10
2320.79386
 20
3940.369779
 30
0.0
 40
16.0
100
AcDbArc
 50
205.0
 51
225.0
  0
LINE
  5
101
330
1F
100
AcDbEntity
  8
PRO0
  6
CONTINUOUS
 62
     4
100
AcDbLine
 10
2306.29294
 20
3933.607879
 30
0.0
 11
2282.30462
 21
3985.050979
 31
0.0
  0
LINE
  5
102
330
1F
100
AcDbEntity
  8
PRO0
  6
CONTINUOUS
 62
     4
100
AcDbLine
 10
2320.67754
 20
3916.494079
 30
0.0
 11
2358.88824
 21
3834.550979
 31
0.0
  0
ARC
  5
103
330
1F
100
AcDbEntity
  8
PRO0
  6
CONTINUOUS
 62
     4
100
AcDbCircle
 10
1561.0
 20
3991.050979
 30
0.0
 40
6.0
100
AcDbArc
 50
100.000019
 51
270.0
  0
ARC
  5
104
330
1F
100
AcDbEntity
  8
PRO0
  6
CONTINUOUS
 62
     4
100
AcDbCircle
 10
2469.0
 20
3991.050979
 30
0.0
 40
6.0
100
AcDbArc
 50
270.0
 51
79.999981
  0
LINE
  5
105
330
1F
100
AcDbEntity
  8
PRO0
  6
PLINE2
 62
     3
100
AcDbLine
 10
2015.0
 20
4264.385679
 30
0.0
 11
2015.0
 21
3727.388059
 31
0.0
  0
LINE
  5
106
330
1F
100
AcDbEntity
  8
PRO0
  6
CONTINUOUS
 62
     4
100
AcDbLine
 10
1745.0
 20
4186.550979
 30
0.0
 11
2285.0
 21
4186.550979
 31
0.0
  0
LINE
  5
107
330
1F
100
AcDbEntity
  8
PRO0
  6
CONTINUOUS
 62
     4
100
AcDbLine
 10
1743.5
 20
4187.550979
 30
0.0
 11
1743.5
 21
4186.550979
 31
0.0
  0
LINE
  5
108
330
1F
100
AcDbEntity
  8
PRO0
  6
CONTINUOUS
 62
     4
100
AcDbLine
 10
1776.5
 20
4187.550979
 30
0.0
 11
1776.5
 21
4186.550979
 31
0.0
  0
LINE
  5
109
330
1F
100
AcDbEntity
  8
PRO0
  6
CONTINUOUS
 62
     4
100
AcDbLine
 10
1777.5
 20
4189.550979
 30
0.0
 11
1777.5
 21
4187.550979
 31
0.0
  0
LINE
  5
10A
330
1F
100
AcDbEntity
  8
PRO0
  6
CONTINUOUS
 62
     4
100
AcDbLine
 10
1777.5
 20
4187.550979
 30
0.0
 11
1742.5
 21
4187.550979
 31
0.0
  0
LINE
  5
10B
330
1F
100
AcDbEntity
  8
PRO0
  6
CONTINUOUS
 62
     4
100
AcDbLine
 10
1742.5
 20
4187.550979
 30
0.0
 11
1742.5
 21
4189.550979
 31
0.0
  0
LINE
  5
10C
330
1F
100
AcDbEntity
  8
PRO0
  6
CONTINUOUS
 62
     4
100
AcDbLine
 10
1742.5
 20
4189.550979
 30
0.0
 11
1777.5
 21
4189.550979
 31
0.0
  0
ARC
  5
10D
330
1F
100
AcDbEntity
  8
PRO0
  6
CONTINUOUS
 62
     4
100
AcDbCircle
 10
1760.0
 20
4222.550979
 30
0.0
 40
12.5
100
AcDbArc
 50
298.357637
 51
241.642363
  0
LINE
  5
10E
330
1F
100
AcDbEntity
  8
PRO0
  6
CONTINUOUS
 62
     4
100
AcDbLine
 10
1765.93718
 20
4211.550979
 30
0.0
 11
1754.06284
 21
4211.550979
 31
0.0
  0
LINE
  5
10F
330
1F
100
AcDbEntity
  8
PRO0
  6
CONTINUOUS
 62
     4
100
AcDbLine
 10
1767.09188
 20
4209.550979
 30
0.0
 11
1765.93718
 21
4211.550979
 31
0.0
  0
LINE
  5
110
330
1F
100
AcDbEntity
  8
PRO0
  6
CONTINUOUS
 62
     4
100
AcDbLine
 10
1754.06284
 20
4211.550979
 30
0.0
 11
1752.90814
 21
4209.550979
 31
0.0
  0
LINE
  5
111
330
1F
100
AcDbEntity
  8
PRO0
  6
CONTINUOUS
 62
     4
100
AcDbLine
 10
1770.0
 20
4189.550979
 30
0.0
 11
1767.09188
 21
4209.550979
 31
0.0
  0
LINE
  5
112
330
1F
100
AcDbEntity
  8
PRO0
  6
CONTINUOUS
 62
     4
100
AcDbLine
 10
1752.90814
 20
4209.550979
 30
0.0
 11
1750.0
 21
4189.550979
 31
0.0
  0
ARC
  5
113
330
1F
100
AcDbEntity
  8
PRO0
  6
CONTINUOUS
 62
     4
100
AcDbCircle
 10
1760.0
 20
4222.550979
 30
0.0
 40
20.5
100
AcDbArc
 50
308.051007
 51
231.948993
  0
ARC
  5
114
330
1F
100
AcDbEntity
  8
PRO0
  6
CONTINUOUS
 62
     4
100
AcDbCircle
 10
1741.20094
 20
4198.533379
 30
0.0
 40
10.0
100
AcDbArc
 50
351.726807
 51
51.948993
  0
ARC
  5
115
330
1F
100
AcDbEntity
  8
PRO0
  6
CONTINUOUS
 62
     4
100
AcDbCircle
 10
1778.79908
 20
4198.533379
 30
0.0
 40
10.0
100
AcDbArc
 50
128.051007
 51
188.273193
  0
LINE
  5
116
330
1F
100
AcDbEntity
  8
PRO0
  6
CONTINUOUS
 62
     4
100
AcDbLine
 10
1767.09188
 20
4209.550979
 30
0.0
 11
1752.90814
 21
4209.550979
 31
0.0
  0
ARC
  5
117
330
1F
100
AcDbEntity
  8
PRO0
  6
CONTINUOUS
 62
     4
100
AcDbCircle
 10
1760.0
 20
4222.550979
 30
0.0
 40
20.5
100
AcDbArc
 50
292.679149
 51
292.875116
  0
LINE
  5
118
330
1F
100
AcDbEntity
  8
PRO0
  6
CONTINUOUS
 62
     4
100
AcDbLine
 10
2007.90814
 20
4209.550979
 30
0.0
 11
2005.0
 21
4189.550979
 31
0.0
  0
LINE
  5
119
330
1F
100
AcDbEntity
  8
PRO0
  6
CONTINUOUS
 62
     4
100
AcDbLine
 10
2011.0
 20
4209.550979
 30
0.0
 11
2007.90814
 21
4209.550979
 31
0.0
  0
LINE
  5
11A
330
1F
100
AcDbEntity
  8
PRO0
  6
CONTINUOUS
 62
     4
100
AcDbLine
 10
2011.0
 20
4211.550979
 30
0.0
 11
2009.06284
 21
4211.550979
 31
0.0
  0
LINE
  5
11B
330
1F
100
AcDbEntity
  8
PRO0
  6
CONTINUOUS
 62
     4
100
AcDbLine
 10
2009.06284
 20
4211.550979
 30
0.0
 11
2007.90814
 21
4209.550979
 31
0.0
  0
ARC
  5
11C
330
1F
100
AcDbEntity
  8
PRO0
  6
CONTINUOUS
 62
     4
100
AcDbCircle
 10
2009.0
 20
4199.094439
 30
0.0
 40
2.0
100
AcDbArc
 50
270.0
 51
0.0
  0
ARC
  5
11D
330
1F
100
AcDbEntity
  8
PRO0
  6
CONTINUOUS
 62
     4
100
AcDbCircle
 10
2015.0
 20
4239.050979
 30
0.0
 40
4.0
100
AcDbArc
 50
0.0
 51
180.0
  0
LINE
  5
11E
330
1F
100
AcDbEntity
  8
PRO0
  6
CONTINUOUS
 62
     4
100
AcDbLine
 10
2011.0
 20
4239.050979
 30
0.0
 11
2011.0
 21
4199.094439
 31
0.0
  0
LINE
  5
11F
330
1F
100
AcDbEntity
  8
PRO0
  6
CONTINUOUS
 62
     4
100
AcDbLine
 10
1997.5
 20
4187.550979
 30
0.0
 11
1997.5
 21
4189.550979
 31
0.0
  0
LINE
  5
120
330
1F
100
AcDbEntity
  8
PRO0
  6
CONTINUOUS
 62
     4
100
AcDbLine
 10
1998.5
 20
4187.550979
 30
0.0
 11
1998.5
 21
4186.550979
 31
0.0
  0
LINE
  5
121
330
1F
100
AcDbEntity
  8
PRO0
  6
CONTINUOUS
 62
     4
100
AcDbLine
 10
2032.5
 20
4189.550979
 30
0.0
 11
1997.5
 21
4189.550979
 31
0.0
  0
LINE
  5
122
330
1F
100
AcDbEntity
  8
PRO0
  6
CONTINUOUS
 62
     4
100
AcDbLine
 10
2032.5
 20
4187.550979
 30
0.0
 11
1997.5
 21
4187.550979
 31
0.0
  0
ARC
  5
123
330
1F
100
AcDbEntity
  8
PRO0
  6
CONTINUOUS
 62
     4
100
AcDbCircle
 10
1745.0
 20
4080.550979
 30
0.0
 40
106.0
100
AcDbArc
 50
90.0
 51
155.0
  0
LINE
  5
124
330
1F
100
AcDbEntity
  8
PRO0
  6
CONTINUOUS
 62
     4
100
AcDbLine
 10
1831.49
 20
4198.571099
 30
0.0
 11
2006.3088
 21
4198.551919
 31
0.0
  0
ARC
  5
125
330
1F
100
AcDbEntity
  8
PRO0
  6
CONTINUOUS
 62
     4
100
AcDbCircle
 10
1831.65214
 20
4186.572199
 30
0.0
 40
12.0
100
AcDbArc
 50
90.77422
 51
104.931417
  0
LINE
  5
126
330
1F
100
AcDbEntity
  8
PRO0
  6
CONTINUOUS
 62
     4
100
AcDbLine
 10
1831.49
 20
4198.571099
 30
0.0
 11
2006.65578
 21
4200.938219
 31
0.0
  0
LINE
  5
127
330
1F
100
AcDbEntity
  8
PRO0
  6
CONTINUOUS
 62
     4
100
AcDbLine
 10
1786.51944
 20
4186.956159
 30
0.0
 11
1828.5602
 21
4198.167019
 31
0.0
  0
ARC
  5
128
330
1F
100
AcDbEntity
  8
PRO0
  6
CONTINUOUS
 62
     4
100
AcDbCircle
 10
1783.42748
 20
4198.550979
 30
0.0
 40
12.0
100
AcDbArc
 50
270.0
 51
284.931417
  0
LINE
  5
129
330
1F
100
AcDbEntity
  8
PRO0
  6
CONTINUOUS
 62
     4
100
AcDbLine
 10
2286.5
 20
4187.550979
 30
0.0
 11
2286.5
 21
4186.550979
 31
0.0
  0
LINE
  5
12A
330
1F
100
AcDbEntity
  8
PRO0
  6
CONTINUOUS
 62
     4
100
AcDbLine
 10
2253.5
 20
4187.550979
 30
0.0
 11
2253.5
 21
4186.550979
 31
0.0
  0
LINE
  5
12B
330
1F
100
AcDbEntity
  8
PRO0
  6
CONTINUOUS
 62
     4
100
AcDbLine
 10
2252.5
 20
4189.550979
 30
0.0
 11
2252.5
 21
4187.550979
 31
0.0
  0
LINE
  5
12C
330
1F
100
AcDbEntity
  8
PRO0
  6
CONTINUOUS
 62
     4
100
AcDbLine
 10
2252.5
 20
4187.550979
 30
0.0
 11
2287.5
 21
4187.550979
 31
0.0
  0
LINE
  5
12D
330
1F
100
AcDbEntity
  8
PRO0
  6
CONTINUOUS
 62
     4
100
AcDbLine
 10
2287.5
 20
4187.550979
 30
0.0
 11
2287.5
 21
4189.550979
 31
0.0
  0
LINE
  5
12E
330
1F
100
AcDbEntity
  8
PRO0
  6
CONTINUOUS
 62
     4
100
AcDbLine
 10
2287.5
 20
4189.550979
 30
0.0
 11
2252.5
 21
4189.550979
 31
0.0
  0
ARC
  5
12F
330
1F
100
AcDbEntity
  8
PRO0
  6
CONTINUOUS
 62
     4
100
AcDbCircle
 10
5072.15324
 20
1376.206508
 30
0.0
 40
24.0
100
AcDbArc
 50
315.0
 51
335.0
  0
ARC
  5
130
330
1F
100
AcDbEntity
  8
PRO0
  6
CONTINUOUS
 62
     4
100
AcDbCircle
 10
5088.07912
 20
1324.250128
 30
0.0
 40
24.0
100
AcDbArc
 50
135.0
 51
155.0
  0
LINE
  5
131
330
1F
100
AcDbEntity
  8
PRO0
  6
CONTINUOUS
 62
     4
100
AcDbLine
 10
5071.10854
 20
1341.220688
 30
0.0
 11
5089.12382
 21
1359.235948
 31
0.0
  0
LINE
  5
132
330
1F
100
AcDbEntity
  8
PRO0
  6
CONTINUOUS
 62
     4
100
AcDbLine
 10
5030.50436
 20
1257.569508
 30
0.0
 11
5066.32772
 21
1334.392968
 31
0.0
  0
ARC
  5
133
330
1F
100
AcDbEntity
  8
PRO0
  6
CONTINUOUS
 62
     4
100
AcDbCircle
 10
4989.72052
 20
1276.587348
 30
0.0
 40
45.0
100
AcDbArc
 50
280.0
 51
335.0
  0
LINE
  5
134
330
1F
100
AcDbEntity
  8
PRO0
  6
CONTINUOUS
 62
     4
100
AcDbLine
 10
4997.53468
 20
1232.270988
 30
0.0
 11
4984.91618
 21
1230.046008
 31
0.0
  0
LINE
  5
135
330
1F
100
AcDbEntity
  8
PRO0
  6
CONTINUOUS
 62
     4
100
AcDbLine
 10
5395.0
 20
1629.228328
 30
0.0
 11
6695.0
 21
1629.228328
 31
0.0
  0
LINE
  5
136
330
1F
100
AcDbEntity
  8
PRO0
  6
CONTINUOUS
 62
     4
100
AcDbLine
 10
5546.8576
 20
1653.228328
 30
0.0
 11
6036.20286
 21
1653.228328
 31
0.0
  0
ARC
  5
137
330
1F
100
AcDbEntity
  8
PRO0
  6
CONTINUOUS
 62
     4
100
AcDbCircle
 10
5548.31
 20
1629.272308
 30
0.0
 40
24.0
100
AcDbArc
 50
90.802089
 51
104.931417
  0
ARC
  5
138
330
1F
100
AcDbEntity
  8
PRO0
  6
CONTINUOUS
 62
     4
100
AcDbCircle
 10
5451.85496
 20
1653.228328
 30
0.0
 40
24.0
100
AcDbArc
 50
270.0
 51
284.931417
  0
LINE
  5
139
330
1F
100
AcDbEntity
  8
PRO0
  6
CONTINUOUS
 62
     4
100
AcDbLine
 10
5395.0
 20
1632.228328
 30
0.0
 11
5435.0
 21
1632.228328
 31
0.0
  0
LINE
  5
13A
330
1F
100
AcDbEntity
  8
PRO0
  6
CONTINUOUS
 62
     4
100
AcDbLine
 10
5435.0
 20
1632.228328
 30
0.0
 11
5435.0
 21
1630.228328
 31
0.0
  0
LINE
  5
13B
330
1F
100
AcDbEntity
  8
PRO0
  6
CONTINUOUS
 62
     4
100
AcDbLine
 10
5395.0
 20
1632.228328
 30
0.0
 11
5395.0
 21
1630.228328
 31
0.0
  0
LINE
  5
13C
330
1F
100
AcDbEntity
  8
PRO0
  6
CONTINUOUS
 62
     4
100
AcDbLine
 10
5395.0
 20
1630.228328
 30
0.0
 11
5435.0
 21
1630.228328
 31
0.0
  0
LINE
  5
13D
330
1F
100
AcDbEntity
  8
PRO0
  6
CONTINUOUS
 62
     4
100
AcDbLine
 10
5434.0
 20
1630.228328
 30
0.0
 11
5434.0
 21
1629.228328
 31
0.0
  0
LINE
  5
13E
330
1F
100
AcDbEntity
  8
PRO0
  6
CONTINUOUS
 62
     4
100
AcDbLine
 10
5396.0
 20
1630.228328
 30
0.0
 11
5396.0
 21
1629.228328
 31
0.0
  0
LINE
  5
13F
330
1F
100
AcDbEntity
  8
PRO0
  6
CONTINUOUS
 62
     4
100
AcDbLine
 10
6065.0
 20
1630.228328
 30
0.0
 11
6025.0
 21
1630.228328
 31
0.0
  0
LINE
  5
140
330
1F
100
AcDbEntity
  8
PRO0
  6
CONTINUOUS
 62
     4
100
AcDbLine
 10
6026.0
 20
1630.228328
 30
0.0
 11
6026.0
 21
1629.228328
 31
0.0
  0
LINE
  5
141
330
1F
100
AcDbEntity
  8
PRO0
  6
CONTINUOUS
 62
     4
100
AcDbLine
 10
6025.0
 20
1632.228328
 30
0.0
 11
6025.0
 21
1630.228328
 31
0.0
  0
LINE
  5
142
330
1F
100
AcDbEntity
  8
PRO0
  6
CONTINUOUS
 62
     4
100
AcDbLine
 10
6065.0
 20
1632.228328
 30
0.0
 11
6025.0
 21
1632.228328
 31
0.0
  0
LINE
  5
143
330
1F
100
AcDbEntity
  8
PRO0
  6
CONTINUOUS
 62
     4
100
AcDbLine
 10
5423.26816
 20
1656.228328
 30
0.0
 11
5421.30992
 21
1659.620068
 31
0.0
  0
LINE
  5
144
330
1F
100
AcDbEntity
  8
PRO0
  6
CONTINUOUS
 62
     4
100
AcDbLine
 10
5421.30992
 20
1659.620068
 30
0.0
 11
5408.69006
 21
1659.620068
 31
0.0
  0
LINE
  5
145
330
1F
100
AcDbEntity
  8
PRO0
  6
CONTINUOUS
 62
     4
100
AcDbLine
 10
5408.69006
 20
1659.620068
 30
0.0
 11
5406.73184
 21
1656.228328
 31
0.0
  0
ARC
  5
146
330
1F
100
AcDbEntity
  8
PRO0
  6
CONTINUOUS
 62
     4
100
AcDbCircle
 10
5415.0
 20
1673.228328
 30
0.0
 40
15.0
100
AcDbArc
 50
294.876394
 51
245.123606
  0
ARC
  5
147
330
1F
100
AcDbEntity
  8
PRO0
  6
CONTINUOUS
 62
     4
100
AcDbCircle
 10
5415.0
 20
1673.228328
 30
0.0
 40
25.0
100
AcDbArc
 50
307.6849
 51
232.3151
  0
ARC
  5
148
330
1F
100
AcDbEntity
  8
PRO0
  6
CONTINUOUS
 62
     4
100
AcDbCircle
 10
5392.38122
 20
1643.947088
 30
0.0
 40
12.0
100
AcDbArc
 50
350.0
 51
52.3151
  0
ARC
  5
149
330
1F
100
AcDbEntity
  8
PRO0
  6
CONTINUOUS
 62
     4
100
AcDbCircle
 10
5437.61878
 20
1643.947088
 30
0.0
 40
12.0
100
AcDbArc
 50
127.6849
 51
190.0
  0
LINE
  5
14A
330
1F
100
AcDbEntity
  8
PRO0
  6
CONTINUOUS
 62
     4
100
AcDbLine
 10
5406.73184
 20
1656.228328
 30
0.0
 11
5402.5
 21
1632.228328
 31
0.0
  0
LINE
  5
14B
330
1F
100
AcDbEntity
  8
PRO0
  6
CONTINUOUS
 62
     4
100
AcDbLine
 10
5423.26816
 20
1656.228328
 30
0.0
 11
5427.5
 21
1632.228328
 31
0.0
  0
LINE
  5
14C
330
1F
100
AcDbEntity
  8
PRO0
  6
CONTINUOUS
 62
     4
100
AcDbLine
 10
5427.5
 20
1632.228328
 30
0.0
 11
5402.5
 21
1632.228328
 31
0.0
  0
LINE
  5
14D
330
1F
100
AcDbEntity
  8
PRO0
  6
CONTINUOUS
 62
     4
100
AcDbLine
 10
5423.26816
 20
1656.228328
 30
0.0
 11
5406.73184
 21
1656.228328
 31
0.0
  0
LINE
  5
14E
330
1F
100
AcDbEntity
  8
PRO0
  6
CONTINUOUS
 62
     4
100
AcDbLine
 10
6036.73184
 20
1656.228328
 30
0.0
 11
6032.5
 21
1632.228328
 31
0.0
  0
LINE
  5
14F
330
1F
100
AcDbEntity
  8
PRO0
  6
CONTINUOUS
 62
     4
100
AcDbLine
 10
6040.0
 20
1659.620068
 30
0.0
 11
6038.69006
 21
1659.620068
 31
0.0
  0
LINE
  5
150
330
1F
100
AcDbEntity
  8
PRO0
  6
CONTINUOUS
 62
     4
100
AcDbLine
 10
6038.69006
 20
1659.620068
 30
0.0
 11
6036.73184
 21
1656.228328
 31
0.0
  0
LINE
  5
151
330
1F
100
AcDbEntity
  8
PRO0
  6
CONTINUOUS
 62
     4
100
AcDbLine
 10
6040.0
 20
1656.228328
 30
0.0
 11
6036.73184
 21
1656.228328
 31
0.0
  0
TEXT
  5
152
330
1F
100
AcDbEntity
  8
PRO0
  6
CONTINUOUS
 62
     3
100
AcDbText
 10
1135.062295
 20
5430.520301
 30
0.0
 40
100.0
  1
屋上換気扇　ＵＡＦ・ＵＦＲ－３０　４０用
 41
0.854554
  7
BIGFONT
100
AcDbText
  0
ARC
  5
153
330
1F
100
AcDbEntity
  8
PRO0
  6
CONTINUOUS
 62
     4
100
AcDbCircle
 10
1656.3206
 20
3841.314879
 30
0.0
 40
16.26392
100
AcDbArc
 50
270.0
 51
335.425688
  0
LINE
  5
154
330
1F
100
AcDbEntity
  8
PRO0
  6
CONTINUOUS
 62
     4
100
AcDbLine
 10
2391.5
 20
3785.050979
 30
0.0
 11
1638.5
 21
3785.050979
 31
0.0
  0
LINE
  5
155
330
1F
100
AcDbEntity
  8
PRO0
  6
CONTINUOUS
 62
     4
100
AcDbLine
 10
1641.5
 20
3825.050979
 30
0.0
 11
2388.5
 21
3825.050979
 31
0.0
  0
LINE
  5
156
330
1F
100
AcDbEntity
  8
PRO0
  6
CONTINUOUS
 62
     4
100
AcDbLine
 10
1638.5
 20
3822.050979
 30
0.0
 11
1638.5
 21
3785.050979
 31
0.0
  0
ARC
  5
157
330
1F
100
AcDbEntity
  8
PRO0
  6
CONTINUOUS
 62
     4
100
AcDbCircle
 10
1641.5
 20
3822.050979
 30
0.0
 40
3.0
100
AcDbArc
 50
90.0
 51
180.0
  0
LINE
  5
158
330
1F
100
AcDbEntity
  8
PRO0
  6
CONTINUOUS
 62
     3
100
AcDbLine
 10
2319.18276
 20
3919.050979
 30
0.0
 11
1710.81724
 21
3919.050979
 31
0.0
  0
LINE
  5
159
330
1F
100
AcDbEntity
  8
PRO0
  6
CONTINUOUS
 62
     3
100
AcDbLine
 10
2307.48524
 20
3931.050979
 30
0.0
 11
1722.21232
 21
3931.050979
 31
0.0
  0
ARC
  5
15A
330
1F
100
AcDbEntity
  8
PRO0
  6
CONTINUOUS
 62
     4
100
AcDbCircle
 10
1723.8234
 20
3909.732179
 30
0.0
 40
16.0
100
AcDbArc
 50
135.0
 51
155.0
  0
LINE
  5
15B
330
1F
100
AcDbEntity
  8
PRO0
  6
CONTINUOUS
 62
     4
100
AcDbLine
 10
1720.51988
 20
3929.056059
 30
0.0
 11
1712.5097
 21
3921.045879
 31
0.0
  0
ARC
  5
15C
330
1F
100
AcDbEntity
  8
PRO0
  6
CONTINUOUS
 62
     4
100
AcDbCircle
 10
1709.20616
 20
3940.369779
 30
0.0
 40
16.0
100
AcDbArc
 50
315.0
 51
335.0
  0
LINE
  5
15D
330
1F
100
AcDbEntity
  8
PRO0
  6
CONTINUOUS
 62
     4
100
AcDbLine
 10
1723.70708
 20
3933.607879
 30
0.0
 11
1747.6954
 21
3985.050979
 31
0.0
  0
LINE
  5
15E
330
1F
100
AcDbEntity
  8
PRO0
  6
CONTINUOUS
 62
     4
100
AcDbLine
 10
2469.0
 20
3985.050979
 30
0.0
 11
1561.0
 21
3985.050979
 31
0.0
  0
LINE
  5
15F
330
1F
100
AcDbEntity
  8
PRO0
  6
CONTINUOUS
 62
     4
100
AcDbLine
 10
1709.32248
 20
3916.494079
 30
0.0
 11
1671.11178
 21
3834.550979
 31
0.0
  0
ARC
  5
160
330
1F
100
AcDbEntity
  8
PRO0
  6
CONTINUOUS
 62
     4
100
AcDbCircle
 10
2373.67942
 20
3841.314879
 30
0.0
 40
16.26392
100
AcDbArc
 50
204.574312
 51
270.0
  0
ARC
  5
161
330
1F
100
AcDbEntity
  8
PRO0
  6
CONTINUOUS
 62
     4
100
AcDbCircle
 10
7001.92088
 20
1324.250128
 30
0.0
 40
24.0
100
AcDbArc
 50
25.0
 51
45.0
  0
LINE
  5
162
330
1F
100
AcDbEntity
  8
PRO0
  6
CONTINUOUS
 62
     4
100
AcDbLine
 10
7018.89144
 20
1341.220688
 30
0.0
 11
7000.87618
 21
1359.235948
 31
0.0
  0
LINE
  5
163
330
1F
100
AcDbEntity
  8
PRO0
  6
CONTINUOUS
 62
     4
100
AcDbLine
 10
7059.49564
 20
1257.569508
 30
0.0
 11
7023.67228
 21
1334.392968
 31
0.0
  0
ARC
  5
164
330
1F
100
AcDbEntity
  8
PRO0
  6
CONTINUOUS
 62
     4
100
AcDbCircle
 10
7100.27948
 20
1276.587348
 30
0.0
 40
45.0
100
AcDbArc
 50
205.0
 51
260.0
  0
LINE
  5
165
330
1F
100
AcDbEntity
  8
PRO0
  6
CONTINUOUS
 62
     4
100
AcDbLine
 10
7092.46532
 20
1232.270988
 30
0.0
 11
7105.08382
 21
1230.046008
 31
0.0
  0
ARC
  5
166
330
1F
100
AcDbEntity
  8
PRO0
  6
CONTINUOUS
 62
     4
100
AcDbCircle
 10
6541.69
 20
1629.272308
 30
0.0
 40
24.0
100
AcDbArc
 50
75.068583
 51
89.197911
  0
LINE
  5
167
330
1F
100
AcDbEntity
  8
PRO0
  6
CONTINUOUS
 62
     4
100
AcDbLine
 10
6542.02596
 20
1653.269968
 30
0.0
 11
6050.0
 21
1660.158328
 31
0.0
  0
ARC
  5
168
330
1F
100
AcDbEntity
  8
PRO0
  6
CONTINUOUS
 62
     4
100
AcDbCircle
 10
6638.14504
 20
1653.228328
 30
0.0
 40
24.0
100
AcDbArc
 50
255.068583
 51
270.0
  0
LINE
  5
169
330
1F
100
AcDbEntity
  8
PRO0
  6
CONTINUOUS
 62
     4
100
AcDbLine
 10
6695.0
 20
1632.228328
 30
0.0
 11
6655.0
 21
1632.228328
 31
0.0
  0
LINE
  5
16A
330
1F
100
AcDbEntity
  8
PRO0
  6
CONTINUOUS
 62
     4
100
AcDbLine
 10
6655.0
 20
1632.228328
 30
0.0
 11
6655.0
 21
1630.228328
 31
0.0
  0
LINE
  5
16B
330
1F
100
AcDbEntity
  8
PRO0
  6
CONTINUOUS
 62
     4
100
AcDbLine
 10
6695.0
 20
1632.228328
 30
0.0
 11
6695.0
 21
1630.228328
 31
0.0
  0
LINE
  5
16C
330
1F
100
AcDbEntity
  8
PRO0
  6
CONTINUOUS
 62
     4
100
AcDbLine
 10
6695.0
 20
1630.228328
 30
0.0
 11
6655.0
 21
1630.228328
 31
0.0
  0
LINE
  5
16D
330
1F
100
AcDbEntity
  8
PRO0
  6
CONTINUOUS
 62
     4
100
AcDbLine
 10
6656.0
 20
1630.228328
 30
0.0
 11
6656.0
 21
1629.228328
 31
0.0
  0
LINE
  5
16E
330
1F
100
AcDbEntity
  8
PRO0
  6
CONTINUOUS
 62
     4
100
AcDbLine
 10
6694.0
 20
1630.228328
 30
0.0
 11
6694.0
 21
1629.228328
 31
0.0
  0
LINE
  5
16F
330
1F
100
AcDbEntity
  8
PRO0
  6
CONTINUOUS
 62
     4
100
AcDbLine
 10
6064.0
 20
1630.228328
 30
0.0
 11
6064.0
 21
1629.228328
 31
0.0
  0
LINE
  5
170
330
1F
100
AcDbEntity
  8
PRO0
  6
CONTINUOUS
 62
     4
100
AcDbLine
 10
6065.0
 20
1632.228328
 30
0.0
 11
6065.0
 21
1630.228328
 31
0.0
  0
LINE
  5
171
330
1F
100
AcDbEntity
  8
PRO0
  6
CONTINUOUS
 62
     4
100
AcDbLine
 10
6666.73184
 20
1656.228328
 30
0.0
 11
6668.69006
 21
1659.620068
 31
0.0
  0
LINE
  5
172
330
1F
100
AcDbEntity
  8
PRO0
  6
CONTINUOUS
 62
     4
100
AcDbLine
 10
6668.69006
 20
1659.620068
 30
0.0
 11
6681.30992
 21
1659.620068
 31
0.0
  0
LINE
  5
173
330
1F
100
AcDbEntity
  8
PRO0
  6
CONTINUOUS
 62
     4
100
AcDbLine
 10
6681.30992
 20
1659.620068
 30
0.0
 11
6683.26816
 21
1656.228328
 31
0.0
  0
ARC
  5
174
330
1F
100
AcDbEntity
  8
PRO0
  6
CONTINUOUS
 62
     4
100
AcDbCircle
 10
6675.0
 20
1673.228328
 30
0.0
 40
15.0
100
AcDbArc
 50
294.876394
 51
245.123606
  0
ARC
  5
175
330
1F
100
AcDbEntity
  8
PRO0
  6
CONTINUOUS
 62
     4
100
AcDbCircle
 10
6675.0
 20
1673.228328
 30
0.0
 40
25.0
100
AcDbArc
 50
307.6849
 51
232.3151
  0
ARC
  5
176
330
1F
100
AcDbEntity
  8
PRO0
  6
CONTINUOUS
 62
     4
100
AcDbCircle
 10
6697.61878
 20
1643.947088
 30
0.0
 40
12.0
100
AcDbArc
 50
127.6849
 51
190.0
  0
ARC
  5
177
330
1F
100
AcDbEntity
  8
PRO0
  6
CONTINUOUS
 62
     4
100
AcDbCircle
 10
6652.38122
 20
1643.947088
 30
0.0
 40
12.0
100
AcDbArc
 50
350.0
 51
52.3151
  0
LINE
  5
178
330
1F
100
AcDbEntity
  8
PRO0
  6
CONTINUOUS
 62
     4
100
AcDbLine
 10
6683.26816
 20
1656.228328
 30
0.0
 11
6687.5
 21
1632.228328
 31
0.0
  0
LINE
  5
179
330
1F
100
AcDbEntity
  8
PRO0
  6
CONTINUOUS
 62
     4
100
AcDbLine
 10
6666.73184
 20
1656.228328
 30
0.0
 11
6662.5
 21
1632.228328
 31
0.0
  0
LINE
  5
17A
330
1F
100
AcDbEntity
  8
PRO0
  6
CONTINUOUS
 62
     4
100
AcDbLine
 10
6662.5
 20
1632.228328
 30
0.0
 11
6687.5
 21
1632.228328
 31
0.0
  0
LINE
  5
17B
330
1F
100
AcDbEntity
  8
PRO0
  6
CONTINUOUS
 62
     4
100
AcDbLine
 10
6666.73184
 20
1656.228328
 30
0.0
 11
6683.26816
 21
1656.228328
 31
0.0
  0
LINE
  5
17C
330
1F
100
AcDbEntity
  8
PRO0
  6
CONTINUOUS
 62
     4
100
AcDbLine
 10
6053.26816
 20
1656.228328
 30
0.0
 11
6057.5
 21
1632.228328
 31
0.0
  0
LINE
  5
17D
330
1F
100
AcDbEntity
  8
PRO0
  6
CONTINUOUS
 62
     4
100
AcDbLine
 10
6050.0
 20
1659.620068
 30
0.0
 11
6051.30992
 21
1659.620068
 31
0.0
  0
LINE
  5
17E
330
1F
100
AcDbEntity
  8
PRO0
  6
CONTINUOUS
 62
     4
100
AcDbLine
 10
6051.30992
 20
1659.620068
 30
0.0
 11
6053.26816
 21
1656.228328
 31
0.0
  0
LINE
  5
17F
330
1F
100
AcDbEntity
  8
PRO0
  6
CONTINUOUS
 62
     4
100
AcDbLine
 10
6050.0
 20
1656.228328
 30
0.0
 11
6053.26816
 21
1656.228328
 31
0.0
  0
LINE
  5
180
330
1F
100
AcDbEntity
  8
PRO0
  6
PLINE2
 62
     3
100
AcDbLine
 10
6045.0
 20
818.565408
 30
0.0
 11
6045.0
 21
1743.552321
 31
0.0
  0
LINE
  5
181
330
1F
100
AcDbEntity
  8
PRO0
  6
CONTINUOUS
 62
     3
100
AcDbLine
 10
6751.77184
 20
1098.228328
 30
0.0
 11
5338.22816
 21
1098.228328
 31
0.0
  0
LINE
  5
182
330
1F
100
AcDbEntity
  8
PRO0
  6
CONTINUOUS
 62
     4
100
AcDbLine
 10
5389.04308
 20
1206.228328
 30
0.0
 11
5340.4703
 21
1102.063688
 31
0.0
  0
LINE
  5
183
330
1F
100
AcDbEntity
  8
PRO0
  6
CONTINUOUS
 62
     3
100
AcDbLine
 10
6774.86444
 20
1074.228328
 30
0.0
 11
5315.13556
 21
1074.228328
 31
0.0
  0
LINE
  5
184
330
1F
100
AcDbEntity
  8
PRO0
  6
CONTINUOUS
 62
     4
100
AcDbLine
 10
6882.0
 20
916.228328
 30
0.0
 11
5208.0
 21
916.228328
 31
0.0
  0
LINE
  5
185
330
1F
100
AcDbEntity
  8
PRO0
  6
CONTINUOUS
 62
     4
100
AcDbLine
 10
6888.0
 20
876.228328
 30
0.0
 11
5202.0
 21
876.228328
 31
0.0
  0
ARC
  5
186
330
1F
100
AcDbEntity
  8
PRO0
  6
CONTINUOUS
 62
     4
100
AcDbCircle
 10
5395.0
 20
1349.228328
 30
0.0
 40
280.0
100
AcDbArc
 50
90.0
 51
154.999999
  0
LINE
  5
187
330
1F
100
AcDbEntity
  8
PRO0
  6
CONTINUOUS
 62
     4
100
AcDbLine
 10
7103.0
 20
1206.228328
 30
0.0
 11
4987.0
 21
1206.228328
 31
0.0
  0
LINE
  5
188
330
1F
100
AcDbEntity
  8
PRO0
  6
CONTINUOUS
 62
     4
100
AcDbLine
 10
7103.0
 20
1230.228328
 30
0.0
 11
4985.95014
 21
1230.228328
 31
0.0
  0
LINE
  5
189
330
1F
100
AcDbEntity
  8
PRO0
  6
CONTINUOUS
 62
     3
100
AcDbLine
 10
7021.43012
 20
1338.228328
 30
0.0
 11
5068.56988
 21
1338.228328
 31
0.0
  0
LINE
  5
18A
330
1F
100
AcDbEntity
  8
PRO0
  6
CONTINUOUS
 62
     3
100
AcDbLine
 10
6998.33752
 20
1362.228328
 30
0.0
 11
5091.66248
 21
1362.228328
 31
0.0
  0
ARC
  5
18B
330
1F
100
AcDbEntity
  8
PRO0
  6
CONTINUOUS
 62
     4
100
AcDbCircle
 10
5318.71892
 20
1112.206508
 30
0.0
 40
24.0
100
AcDbArc
 50
315.0
 51
335.0
  0
ARC
  5
18C
330
1F
100
AcDbEntity
  8
PRO0
  6
CONTINUOUS
 62
     4
100
AcDbCircle
 10
5225.71556
 20
940.228328
 30
0.0
 40
24.0
100
AcDbArc
 50
270.0
 51
335.0
  0
ARC
  5
18D
330
1F
100
AcDbEntity
  8
PRO0
  6
CONTINUOUS
 62
     4
100
AcDbCircle
 10
5208.0
 20
910.228328
 30
0.0
 40
6.0
100
AcDbArc
 50
90.0
 51
180.0
  0
LINE
  5
18E
330
1F
100
AcDbEntity
  8
PRO0
  6
CONTINUOUS
 62
     4
100
AcDbLine
 10
5202.0
 20
910.228328
 30
0.0
 11
5202.0
 21
876.228328
 31
0.0
  0
LINE
  5
18F
330
1F
100
AcDbEntity
  8
PRO0
  6
CONTINUOUS
 62
     4
100
AcDbLine
 10
5312.8934
 20
1070.392968
 30
0.0
 11
5247.46694
 21
930.085488
 31
0.0
  0
LINE
  5
190
330
1F
100
AcDbEntity
  8
PRO0
  6
CONTINUOUS
 62
     4
100
AcDbLine
 10
5335.68948
 20
1095.235948
 30
0.0
 11
5317.67422
 21
1077.220688
 31
0.0
  0
ARC
  5
191
330
1F
100
AcDbEntity
  8
PRO0
  6
CONTINUOUS
 62
     4
100
AcDbCircle
 10
5334.64478
 20
1060.250128
 30
0.0
 40
24.0
100
AcDbArc
 50
135.0
 51
155.0
  0
ARC
  5
192
330
1F
100
AcDbEntity
  8
PRO0
  6
CONTINUOUS
 62
     4
100
AcDbCircle
 10
4987.0
 20
1218.228328
 30
0.0
 40
12.0
100
AcDbArc
 50
99.99998
 51
270.0
  0
LINE
  5
193
330
1F
100
AcDbEntity
  8
PRO0
  6
CONTINUOUS
 62
     4
100
AcDbLine
 10
5093.90464
 20
1366.063688
 30
0.0
 11
5141.23382
 21
1467.561428
 31
0.0
  0
LINE
  5
194
330
1F
100
AcDbEntity
  8
PRO0
  6
CONTINUOUS
 62
     4
100
AcDbLine
 10
2035.0
 20
1529.328328
 30
0.0
 11
2035.0
 21
1531.328328
 31
0.0
  0
ARC
  5
195
330
1F
100
AcDbEntity
  8
PRO0
  6
CONTINUOUS
 62
     4
100
AcDbCircle
 10
2555.0
 20
1298.328328
 30
0.0
 40
230.0
100
AcDbArc
 50
25.0
 51
90.0
  0
ARC
  5
196
330
1F
100
AcDbEntity
  8
PRO0
  6
CONTINUOUS
 62
     4
100
AcDbCircle
 10
2900.0
 20
1175.153028
 30
0.0
 40
10.0
100
AcDbArc
 50
270.0
 51
90.0
  0
LINE
  5
197
330
1F
100
AcDbEntity
  8
PRO0
  6
CONTINUOUS
 62
     4
100
AcDbLine
 10
2890.24332
 20
1186.873388
 30
0.0
 11
2900.0
 21
1185.153028
 31
0.0
  0
ARC
  5
198
330
1F
100
AcDbEntity
  8
PRO0
  6
CONTINUOUS
 62
     4
100
AcDbCircle
 10
2897.18924
 20
1226.265708
 30
0.0
 40
40.0
100
AcDbArc
 50
205.0
 51
260.0
  0
LINE
  5
199
330
1F
100
AcDbEntity
  8
PRO0
  6
CONTINUOUS
 62
     4
100
AcDbLine
 10
2860.93692
 20
1209.360968
 30
0.0
 11
2832.36568
 21
1270.632188
 31
0.0
  0
ARC
  5
19A
330
1F
100
AcDbEntity
  8
PRO0
  6
CONTINUOUS
 62
     4
100
AcDbCircle
 10
2598.55494
 20
1078.416508
 30
0.0
 40
1.0
100
AcDbArc
 50
205.112122
 51
225.0
  0
LINE
  5
19B
330
1F
100
AcDbEntity
  8
PRO0
  6
CONTINUOUS
 62
     4
100
AcDbLine
 10
2556.79782
 20
1165.153028
 30
0.0
 11
2597.64948
 21
1077.992108
 31
0.0
  0
ARC
  5
19C
330
1F
100
AcDbEntity
  8
PRO0
  6
CONTINUOUS
 62
     4
100
AcDbCircle
 10
2616.49712
 20
1057.645888
 30
0.0
 40
1.0
100
AcDbArc
 50
25.0
 51
45.0
  0
LINE
  5
19D
330
1F
100
AcDbEntity
  8
PRO0
  6
CONTINUOUS
 62
     4
100
AcDbLine
 10
2617.20424
 20
1058.353008
 30
0.0
 11
2597.84784
 21
1077.709388
 31
0.0
  0
ARC
  5
19E
330
1F
100
AcDbEntity
  8
PRO0
  6
CONTINUOUS
 62
     4
100
AcDbCircle
 10
2696.28602
 20
936.228328
 30
0.0
 40
20.0
100
AcDbArc
 50
204.999995
 51
270.0
  0
ARC
  5
19F
330
1F
100
AcDbEntity
  8
PRO0
  6
CONTINUOUS
 62
     4
100
AcDbCircle
 10
2712.5
 20
911.228328
 30
0.0
 40
5.0
100
AcDbArc
 50
0.0
 51
90.0
  0
LINE
  5
1A0
330
1F
100
AcDbEntity
  8
PRO0
  6
CONTINUOUS
 62
     4
100
AcDbLine
 10
2678.15986
 20
927.775948
 30
0.0
 11
2617.40344
 21
1058.068508
 31
0.0
  0
ARC
  5
1A1
330
1F
100
AcDbEntity
  8
PRO0
  6
CONTINUOUS
 62
     4
100
AcDbCircle
 10
2814.23954
 20
1262.179828
 30
0.0
 40
20.0
100
AcDbArc
 50
25.0
 51
45.0
  0
LINE
  5
1A2
330
1F
100
AcDbEntity
  8
PRO0
  6
PLINE2
 62
     3
100
AcDbLine
 10
2015.0
 20
818.565408
 30
0.0
 11
2015.0
 21
1650.291288
 31
0.0
  0
LINE
  5
1A3
330
1F
100
AcDbEntity
  8
PRO0
  6
CONTINUOUS
 62
     4
100
AcDbLine
 10
1216.63106
 20
1291.334688
 30
0.0
 11
1201.61834
 21
1276.321968
 31
0.0
  0
ARC
  5
1A4
330
1F
100
AcDbEntity
  8
PRO0
  6
CONTINUOUS
 62
     4
100
AcDbCircle
 10
1202.48892
 20
1305.476808
 30
0.0
 40
20.0
100
AcDbArc
 50
315.0
 51
335.0
  0
LINE
  5
1A5
330
1F
100
AcDbEntity
  8
PRO0
  6
CONTINUOUS
 62
     4
100
AcDbLine
 10
1220.61508
 20
1297.024448
 30
0.0
 11
1266.54922
 21
1395.530528
 31
0.0
  0
LINE
  5
1A6
330
1F
100
AcDbEntity
  8
PRO0
  6
CONTINUOUS
 62
     4
100
AcDbLine
 10
1612.48264
 20
1547.686728
 30
0.0
 11
2006.32752
 21
1553.035248
 31
0.0
  0
LINE
  5
1A7
330
1F
100
AcDbEntity
  8
PRO0
  6
CONTINUOUS
 62
     4
100
AcDbLine
 10
2008.69008
 20
1558.720068
 30
0.0
 11
2006.73184
 21
1555.328328
 31
0.0
  0
LINE
  5
1A8
330
1F
100
AcDbEntity
  8
PRO0
  6
CONTINUOUS
 62
     4
100
AcDbLine
 10
2006.73184
 20
1555.328328
 30
0.0
 11
2002.5
 21
1531.328328
 31
0.0
  0
LINE
  5
1A9
330
1F
100
AcDbEntity
  8
PRO0
  6
CONTINUOUS
 62
     4
100
AcDbLine
 10
1996.0
 20
1529.328328
 30
0.0
 11
1996.0
 21
1528.328328
 31
0.0
  0
LINE
  5
1AA
330
1F
100
AcDbEntity
  8
PRO0
  6
CONTINUOUS
 62
     4
100
AcDbLine
 10
2035.0
 20
1529.328328
 30
0.0
 11
1995.0
 21
1529.328328
 31
0.0
  0
LINE
  5
1AB
330
1F
100
AcDbEntity
  8
PRO0
  6
CONTINUOUS
 62
     4
100
AcDbLine
 10
2035.0
 20
1531.328328
 30
0.0
 11
1995.0
 21
1531.328328
 31
0.0
  0
LINE
  5
1AC
330
1F
100
AcDbEntity
  8
PRO0
  6
CONTINUOUS
 62
     4
100
AcDbLine
 10
1995.0
 20
1529.328328
 30
0.0
 11
1995.0
 21
1531.328328
 31
0.0
  0
ARC
  5
1AD
330
1F
100
AcDbEntity
  8
PRO0
  6
CONTINUOUS
 62
     4
100
AcDbCircle
 10
1475.0
 20
1298.328328
 30
0.0
 40
230.0
100
AcDbArc
 50
90.0
 51
155.0
  0
ARC
  5
1AE
330
1F
100
AcDbEntity
  8
PRO0
  6
CONTINUOUS
 62
     4
100
AcDbCircle
 10
1130.0
 20
1175.153028
 30
0.0
 40
10.0
100
AcDbArc
 50
90.0
 51
270.0
  0
LINE
  5
1AF
330
1F
100
AcDbEntity
  8
PRO0
  6
CONTINUOUS
 62
     4
100
AcDbLine
 10
1139.7567
 20
1186.873388
 30
0.0
 11
1130.0
 21
1185.153028
 31
0.0
  0
ARC
  5
1B0
330
1F
100
AcDbEntity
  8
PRO0
  6
CONTINUOUS
 62
     4
100
AcDbCircle
 10
1132.81076
 20
1226.265708
 30
0.0
 40
40.0
100
AcDbArc
 50
280.0
 51
335.0
  0
LINE
  5
1B1
330
1F
100
AcDbEntity
  8
PRO0
  6
CONTINUOUS
 62
     4
100
AcDbLine
 10
1169.06308
 20
1209.360968
 30
0.0
 11
1197.63432
 21
1270.632188
 31
0.0
  0
LINE
  5
1B2
330
1F
100
AcDbEntity
  8
PRO0
  6
CONTINUOUS
 62
     4
100
AcDbLine
 10
1473.20218
 20
1165.153028
 30
0.0
 11
1432.46124
 21
1078.228328
 31
0.0
  0
ARC
  5
1B3
330
1F
100
AcDbEntity
  8
PRO0
  6
CONTINUOUS
 62
     4
100
AcDbCircle
 10
1333.71398
 20
936.228328
 30
0.0
 40
20.0
100
AcDbArc
 50
270.0
 51
335.000005
  0
ARC
  5
1B4
330
1F
100
AcDbEntity
  8
PRO0
  6
CONTINUOUS
 62
     4
100
AcDbCircle
 10
1317.5
 20
911.228328
 30
0.0
 40
5.0
100
AcDbArc
 50
90.0
 51
180.0
  0
LINE
  5
1B5
330
1F
100
AcDbEntity
  8
PRO0
  6
CONTINUOUS
 62
     4
100
AcDbLine
 10
1412.67108
 20
1058.228328
 30
0.0
 11
1351.84014
 21
927.775948
 31
0.0
  0
ARC
  5
1B6
330
1F
100
AcDbEntity
  8
PRO0
  6
CONTINUOUS
 62
     4
100
AcDbCircle
 10
1215.76048
 20
1262.179828
 30
0.0
 40
20.0
100
AcDbArc
 50
135.0
 51
155.0
  0
LINE
  5
1B7
330
1F
100
AcDbEntity
  8
PRO0
  6
CONTINUOUS
 62
     4
100
AcDbLine
 10
5458.03886
 20
1630.038688
 30
0.0
 11
5545.0
 21
1653.228328
 31
0.0
  0
LINE
  5
1B8
330
1F
100
AcDbEntity
  8
PRO0
  6
CONTINUOUS
 62
     4
100
AcDbLine
 10
5545.0
 20
1653.228328
 30
0.0
 11
6040.0
 21
1660.158328
 31
0.0
  0
LINE
  5
1B9
330
1F
100
AcDbEntity
  8
PRO0
  6
CONTINUOUS
 62
     4
100
AcDbLine
 10
6053.79714
 20
1653.228328
 30
0.0
 11
6545.0
 21
1653.228328
 31
0.0
  0
LINE
  5
1BA
330
1F
100
AcDbEntity
  8
PRO0
  6
CONTINUOUS
 62
     4
100
AcDbLine
 10
6545.0
 20
1653.228328
 30
0.0
 11
6631.96114
 21
1630.038688
 31
0.0
  0
LINE
  5
1BB
330
1F
100
AcDbEntity
  8
PRO0
  6
CONTINUOUS
 62
     4
100
AcDbLine
 10
6700.95692
 20
1206.228328
 30
0.0
 11
6749.52968
 21
1102.063688
 31
0.0
  0
ARC
  5
1BC
330
1F
100
AcDbEntity
  8
PRO0
  6
CONTINUOUS
 62
     4
100
AcDbCircle
 10
6695.0
 20
1349.228328
 30
0.0
 40
280.0
100
AcDbArc
 50
25.000001
 51
90.0
  0
ARC
  5
1BD
330
1F
100
AcDbEntity
  8
PRO0
  6
CONTINUOUS
 62
     4
100
AcDbCircle
 10
6771.28108
 20
1112.206508
 30
0.0
 40
24.0
100
AcDbArc
 50
205.0
 51
225.0
  0
ARC
  5
1BE
330
1F
100
AcDbEntity
  8
PRO0
  6
CONTINUOUS
 62
     4
100
AcDbCircle
 10
6864.28444
 20
940.228328
 30
0.0
 40
24.0
100
AcDbArc
 50
205.0
 51
270.0
  0
ARC
  5
1BF
330
1F
100
AcDbEntity
  8
PRO0
  6
CONTINUOUS
 62
     4
100
AcDbCircle
 10
6882.0
 20
910.228328
 30
0.0
 40
6.0
100
AcDbArc
 50
0.0
 51
90.0
  0
LINE
  5
1C0
330
1F
100
AcDbEntity
  8
PRO0
  6
CONTINUOUS
 62
     4
100
AcDbLine
 10
6888.0
 20
910.228328
 30
0.0
 11
6888.0
 21
876.228328
 31
0.0
  0
LINE
  5
1C1
330
1F
100
AcDbEntity
  8
PRO0
  6
CONTINUOUS
 62
     4
100
AcDbLine
 10
6777.1066
 20
1070.392968
 30
0.0
 11
6842.53306
 21
930.085488
 31
0.0
  0
LINE
  5
1C2
330
1F
100
AcDbEntity
  8
PRO0
  6
CONTINUOUS
 62
     4
100
AcDbLine
 10
6754.31052
 20
1095.235948
 30
0.0
 11
6772.32578
 21
1077.220688
 31
0.0
  0
ARC
  5
1C3
330
1F
100
AcDbEntity
  8
PRO0
  6
CONTINUOUS
 62
     4
100
AcDbCircle
 10
6755.35522
 20
1060.250128
 30
0.0
 40
24.0
100
AcDbArc
 50
25.0
 51
45.0
  0
ARC
  5
1C4
330
1F
100
AcDbEntity
  8
PRO0
  6
CONTINUOUS
 62
     4
100
AcDbCircle
 10
7103.0
 20
1218.228328
 30
0.0
 40
12.0
100
AcDbArc
 50
270.0
 51
80.00002
  0
LINE
  5
1C5
330
1F
100
AcDbEntity
  8
PRO0
  6
CONTINUOUS
 62
     4
100
AcDbLine
 10
6996.09536
 20
1366.063688
 30
0.0
 11
6948.76618
 21
1467.561428
 31
0.0
  0
ARC
  5
1C6
330
1F
100
AcDbEntity
  8
PRO0
  6
CONTINUOUS
 62
     4
100
AcDbCircle
 10
7017.84674
 20
1376.206508
 30
0.0
 40
24.0
100
AcDbArc
 50
205.0
 51
225.0
  0
ARC
  5
1C7
330
1F
100
AcDbEntity
  8
PRO0
  6
CONTINUOUS
 62
     3
100
AcDbCircle
 10
2015.0
 20
1592.328328
 30
0.0
 40
5.0
100
AcDbArc
 50
0.0
 51
180.0
  0
ARC
  5
1C8
330
1F
100
AcDbEntity
  8
PRO0
  6
CONTINUOUS
 62
     4
100
AcDbCircle
 10
2023.08186
 20
1544.104408
 30
0.0
 40
3.08508
100
AcDbArc
 50
182.621386
 51
267.277586
  0
LINE
  5
1C9
330
1F
100
AcDbEntity
  8
PRO0
  6
CONTINUOUS
 62
     4
100
AcDbLine
 10
2020.0
 20
1592.328328
 30
0.0
 11
2020.0
 21
1543.963308
 31
0.0
  0
LINE
  5
1CA
330
1F
100
AcDbEntity
  8
PRO0
  6
CONTINUOUS
 62
     4
100
AcDbLine
 10
2006.73184
 20
1555.328328
 30
0.0
 11
2010.0
 21
1555.328328
 31
0.0
  0
LINE
  5
1CB
330
1F
100
AcDbEntity
  8
PRO0
  6
CONTINUOUS
 62
     4
100
AcDbLine
 10
2020.0
 20
1555.328328
 30
0.0
 11
2023.26816
 21
1555.328328
 31
0.0
  0
LINE
  5
1CC
330
1F
100
AcDbEntity
  8
PRO0
  6
CONTINUOUS
 62
     4
100
AcDbLine
 10
2008.69008
 20
1558.720068
 30
0.0
 11
2010.0
 21
1558.720068
 31
0.0
  0
LINE
  5
1CD
330
1F
100
AcDbEntity
  8
PRO0
  6
CONTINUOUS
 62
     4
100
AcDbLine
 10
2020.0
 20
1558.720068
 30
0.0
 11
2021.30994
 21
1558.720068
 31
0.0
  0
ARC
  5
1CE
330
1F
100
AcDbEntity
  8
PRO0
  6
CONTINUOUS
 62
     4
100
AcDbCircle
 10
6045.0
 20
1693.283788
 30
0.0
 40
5.0
100
AcDbArc
 50
0.0
 51
90.121043
  0
LINE
  5
1CF
330
1F
100
AcDbEntity
  8
PRO0
  6
CONTINUOUS
 62
     4
100
AcDbLine
 10
6050.0
 20
1644.855868
 30
0.0
 11
6050.0
 21
1693.283788
 31
0.0
  0
ARC
  5
1D0
330
1F
100
AcDbEntity
  8
PRO0
  6
CONTINUOUS
 62
     4
100
AcDbCircle
 10
6045.0
 20
1693.283788
 30
0.0
 40
5.0
100
AcDbArc
 50
90.121043
 51
180.0
  0
LINE
  5
1D1
330
1F
100
AcDbEntity
  8
PRO0
  6
CONTINUOUS
 62
     4
100
AcDbLine
 10
6040.0
 20
1644.855868
 30
0.0
 11
6040.0
 21
1693.283788
 31
0.0
  0
LINE
  5
1D2
330
1F
100
AcDbEntity
  8
PRO0
  6
CONTINUOUS
 62
     4
100
AcDbLine
 10
1537.53238
 20
1528.328328
 30
0.0
 11
1610.0
 21
1547.653028
 31
0.0
  0
LINE
  5
1D3
330
1F
100
AcDbEntity
  8
PRO0
  6
CONTINUOUS
 62
     4
100
AcDbLine
 10
1610.0
 20
1547.653028
 30
0.0
 11
2005.37848
 21
1547.653028
 31
0.0
  0
LINE
  5
1D4
330
1F
100
AcDbEntity
  8
PRO0
  6
CONTINUOUS
 62
     4
100
AcDbLine
 10
2024.62152
 20
1547.653028
 30
0.0
 11
2420.0
 21
1547.653028
 31
0.0
  0
LINE
  5
1D5
330
1F
100
AcDbEntity
  8
PRO0
  6
CONTINUOUS
 62
     4
100
AcDbLine
 10
2420.0
 20
1547.653028
 30
0.0
 11
2492.46762
 21
1528.328328
 31
0.0
  0
LINE
  5
1D6
330
1F
100
AcDbEntity
  8
PRO0
  6
CONTINUOUS
 62
     4
100
AcDbLine
 10
2813.36894
 20
1291.334688
 30
0.0
 11
2828.38166
 21
1276.321968
 31
0.0
  0
ARC
  5
1D7
330
1F
100
AcDbEntity
  8
PRO0
  6
CONTINUOUS
 62
     4
100
AcDbCircle
 10
2827.51108
 20
1305.476808
 30
0.0
 40
20.0
100
AcDbArc
 50
205.0
 51
225.0
  0
LINE
  5
1D8
330
1F
100
AcDbEntity
  8
PRO0
  6
CONTINUOUS
 62
     4
100
AcDbLine
 10
2809.38492
 20
1297.024448
 30
0.0
 11
2763.4508
 21
1395.530528
 31
0.0
  0
LINE
  5
1D9
330
1F
100
AcDbEntity
  8
PRO0
  6
CONTINUOUS
 62
     4
100
AcDbLine
 10
2417.51736
 20
1547.686728
 30
0.0
 11
2023.67248
 21
1553.035248
 31
0.0
  0
ARC
  5
1DA
330
1F
100
AcDbEntity
  8
PRO0
  6
CONTINUOUS
 62
     4
100
AcDbCircle
 10
2015.0
 20
1592.328328
 30
0.0
 40
5.0
100
AcDbArc
 50
0.0
 51
180.0
  0
LINE
  5
1DB
330
1F
100
AcDbEntity
  8
PRO0
  6
CONTINUOUS
 62
     4
100
AcDbLine
 10
2021.30994
 20
1558.720068
 30
0.0
 11
2023.26816
 21
1555.328328
 31
0.0
  0
LINE
  5
1DC
330
1F
100
AcDbEntity
  8
PRO0
  6
CONTINUOUS
 62
     4
100
AcDbLine
 10
2023.26816
 20
1555.328328
 30
0.0
 11
2027.5
 21
1531.328328
 31
0.0
  0
LINE
  5
1DD
330
1F
100
AcDbEntity
  8
PRO0
  6
CONTINUOUS
 62
     4
100
AcDbLine
 10
2526.73184
 20
1555.328328
 30
0.0
 11
2522.5
 21
1531.328328
 31
0.0
  0
LINE
  5
1DE
330
1F
100
AcDbEntity
  8
PRO0
  6
CONTINUOUS
 62
     4
100
AcDbLine
 10
2528.69008
 20
1558.720068
 30
0.0
 11
2526.73184
 21
1555.328328
 31
0.0
  0
LINE
  5
1DF
330
1F
100
AcDbEntity
  8
PRO0
  6
CONTINUOUS
 62
     4
100
AcDbLine
 10
2526.73184
 20
1555.328328
 30
0.0
 11
2543.26816
 21
1555.328328
 31
0.0
  0
LINE
  5
1E0
330
1F
100
AcDbEntity
  8
PRO0
  6
CONTINUOUS
 62
     4
100
AcDbLine
 10
2555.0
 20
1531.328328
 30
0.0
 11
2515.0
 21
1531.328328
 31
0.0
  0
LINE
  5
1E1
330
1F
100
AcDbEntity
  8
PRO0
  6
CONTINUOUS
 62
     4
100
AcDbLine
 10
2524.19892
 20
1540.963308
 30
0.0
 11
2522.5
 21
1531.328328
 31
0.0
  0
LINE
  5
1E2
330
1F
100
AcDbEntity
  8
PRO0
  6
CONTINUOUS
 62
     4
100
AcDbLine
 10
2543.26816
 20
1555.328328
 30
0.0
 11
2547.5
 21
1531.328328
 31
0.0
  0
ARC
  5
1E3
330
1F
100
AcDbEntity
  8
PRO0
  6
CONTINUOUS
 62
     4
100
AcDbCircle
 10
2512.38122
 20
1543.047088
 30
0.0
 40
12.0
100
AcDbArc
 50
350.0
 51
52.3151
  0
ARC
  5
1E4
330
1F
100
AcDbEntity
  8
PRO0
  6
CONTINUOUS
 62
     4
100
AcDbCircle
 10
2557.61878
 20
1543.047088
 30
0.0
 40
12.0
100
AcDbArc
 50
127.6849
 51
190.0
  0
ARC
  5
1E5
330
1F
100
AcDbEntity
  8
PRO0
  6
CONTINUOUS
 62
     4
100
AcDbCircle
 10
2535.0
 20
1572.328328
 30
0.0
 40
25.0
100
AcDbArc
 50
307.6849
 51
232.3151
  0
ARC
  5
1E6
330
1F
100
AcDbEntity
  8
PRO0
  6
CONTINUOUS
 62
     4
100
AcDbCircle
 10
2535.0
 20
1572.328328
 30
0.0
 40
15.0
100
AcDbArc
 50
294.876394
 51
245.123606
  0
LINE
  5
1E7
330
1F
100
AcDbEntity
  8
PRO0
  6
CONTINUOUS
 62
     4
100
AcDbLine
 10
2541.30994
 20
1558.720068
 30
0.0
 11
2543.26816
 21
1555.328328
 31
0.0
  0
LINE
  5
1E8
330
1F
100
AcDbEntity
  8
PRO0
  6
CONTINUOUS
 62
     4
100
AcDbLine
 10
2528.69008
 20
1558.720068
 30
0.0
 11
2541.30994
 21
1558.720068
 31
0.0
  0
LINE
  5
1E9
330
1F
100
AcDbEntity
  8
PRO0
  6
CONTINUOUS
 62
     4
100
AcDbLine
 10
2516.0
 20
1529.328328
 30
0.0
 11
2516.0
 21
1528.328328
 31
0.0
  0
LINE
  5
1EA
330
1F
100
AcDbEntity
  8
PRO0
  6
CONTINUOUS
 62
     4
100
AcDbLine
 10
2554.0
 20
1529.328328
 30
0.0
 11
2554.0
 21
1528.328328
 31
0.0
  0
LINE
  5
1EB
330
1F
100
AcDbEntity
  8
PRO0
  6
CONTINUOUS
 62
     4
100
AcDbLine
 10
2555.0
 20
1531.328328
 30
0.0
 11
2555.0
 21
1529.328328
 31
0.0
  0
LINE
  5
1EC
330
1F
100
AcDbEntity
  8
PRO0
  6
CONTINUOUS
 62
     4
100
AcDbLine
 10
2515.0
 20
1529.328328
 30
0.0
 11
2555.0
 21
1529.328328
 31
0.0
  0
LINE
  5
1ED
330
1F
100
AcDbEntity
  8
PRO0
  6
CONTINUOUS
 62
     4
100
AcDbLine
 10
2515.0
 20
1531.328328
 30
0.0
 11
2515.0
 21
1529.328328
 31
0.0
  0
LINE
  5
1EE
330
1F
100
AcDbEntity
  8
PRO0
  6
CONTINUOUS
 62
     4
100
AcDbLine
 10
2034.0
 20
1529.328328
 30
0.0
 11
2034.0
 21
1528.328328
 31
0.0
  0
LINE
  5
1EF
330
1F
100
AcDbEntity
  8
PRO0
  6
CONTINUOUS
 62
     1
100
AcDbLine
 10
0.0
 20
0.0
 30
0.0
 11
0.0
 21
5640.0
 31
0.0
  0
LINE
  5
1F0
330
1F
100
AcDbEntity
  8
PRO0
  6
CONTINUOUS
 62
     1
100
AcDbLine
 10
0.0
 20
0.0
 30
0.0
 11
8060.0
 21
0.0
 31
0.0
  0
LINE
  5
1F1
330
1F
100
AcDbEntity
  8
PRO0
  6
CONTINUOUS
 62
     1
100
AcDbLine
 10
8060.0
 20
0.0
 30
0.0
 11
8060.0
 21
5640.0
 31
0.0
  0
LINE
  5
1F2
330
1F
100
AcDbEntity
  8
PRO0
  6
CONTINUOUS
 62
     1
100
AcDbLine
 10
0.0
 20
5640.0
 30
0.0
 11
8060.0
 21
5640.0
 31
0.0
  0
LINE
  5
1F3
330
1F
100
AcDbEntity
  8
PRO0
  6
CONTINUOUS
 62
     2
100
AcDbLine
 10
0.0
 20
2820.0
 30
0.0
 11
8060.0
 21
2820.0
 31
0.0
  0
LINE
  5
1F4
330
1F
100
AcDbEntity
  8
PRO0
  6
CONTINUOUS
 62
     2
100
AcDbLine
 10
4030.0
 20
5640.0
 30
0.0
 11
4030.0
 21
0.0
 31
0.0
  0
LINE
  5
1F5
330
1F
100
AcDbEntity
  8
PRO0
  6
CONTINUOUS
 62
     2
100
AcDbLine
 10
0.0
 20
5340.0
 30
0.0
 11
8060.0
 21
5340.0
 31
0.0
  0
LINE
  5
1F6
330
1F
100
AcDbEntity
  8
PRO0
  6
CONTINUOUS
 62
     2
100
AcDbLine
 10
0.0
 20
2520.0
 30
0.0
 11
8060.0
 21
2520.0
 31
0.0
  0
TEXT
  5
1F7
330
1F
100
AcDbEntity
  8
PRO0
  6
CONTINUOUS
 62
     3
100
AcDbText
 10
5167.668893
 20
5430.520301
 30
0.0
 40
100.0
  1
屋上換気扇　ＵＡＦ・ＵＦＲ－５０　６０用
 41
0.854554
  7
BIGFONT
100
AcDbText
  0
TEXT
  5
1F8
330
1F
100
AcDbEntity
  8
PRO0
  6
CONTINUOUS
 62
     3
100
AcDbText
 10
1135.062295
 20
2606.403045
 30
0.0
 40
100.0
  1
屋上換気扇　ＵＡＦ・ＵＦＲ－７５　９０用
 41
0.854554
  7
BIGFONT
100
AcDbText
  0
TEXT
  5
1F9
330
1F
100
AcDbEntity
  8
PRO0
  6
CONTINUOUS
 62
     3
100
AcDbText
 10
5167.668893
 20
2606.403045
 30
0.0
 40
100.0
  1
屋上換気扇　ＵＡＦ・ＵＦＲ－１０５用
 41
0.854576
  7
BIGFONT
100
AcDbText
  0
DIMENSION
  5
204
330
1F
100
AcDbEntity
  8
PRO0
  6
CONTINUOUS
 62
     3
100
AcDbDimension
  2
*D2
 10
2721.0284
 20
3985.050979
 30
0.0
 11
2681.0284
 21
4093.050979
 31
0.0
 70
   160
  1
２１６
 53
90.0
  3
STANDARD
100
AcDbAlignedDimension
 13
2302.89698
 23
4201.050979
 33
0.0
 14
2492.55731
 24
3985.050979
 34
0.0
 50
-90.0
100
AcDbRotatedDimension
1001
ACAD
1000
DSTYLE
1002
{
1070
   287
1070
     5
1070
   140
1040
60.0
1070
   178
1070
     3
1070
   340
1005
203
1070
   279
1070
     2
1070
    41
1040
20.0
1002
}
  0
DIMENSION
  5
21A
330
1F
100
AcDbEntity
  8
PRO0
  6
CONTINUOUS
 62
     3
100
AcDbDimension
  2
*D4
 10
2721.0284
 20
3825.050979
 30
0.0
 11
2681.0284
 21
3905.050979
 31
0.0
 70
   160
  1
１６０
 53
90.0
  3
STANDARD
100
AcDbAlignedDimension
 13
2492.55731
 23
3985.050979
 33
0.0
 14
2408.609295
 24
3825.050979
 34
0.0
 50
-90.0
100
AcDbRotatedDimension
1001
ACAD
1000
DSTYLE
1002
{
1070
   287
1070
     5
1070
   140
1040
60.0
1070
   178
1070
     3
1070
   340
1005
203
1070
   279
1070
     2
1070
    41
1040
20.0
1002
}
  0
DIMENSION
  5
22E
330
1F
100
AcDbEntity
  8
PRO0
  6
CONTINUOUS
 62
     3
100
AcDbDimension
  2
*D6
 10
2721.0284
 20
3785.050979
 30
0.0
 11
2681.0284
 21
3725.050979
 31
0.0
 70
   160
  1
４０
 53
90.0
  3
STANDARD
100
AcDbAlignedDimension
 13
2408.609295
 23
3825.050979
 33
0.0
 14
2407.054702
 24
3785.050979
 34
0.0
 50
-90.0
100
AcDbRotatedDimension
1001
ACAD
1000
DSTYLE
1002
{
1070
   287
1070
     5
1070
   140
1040
60.0
1070
   178
1070
     3
1070
   340
1005
203
1070
   279
1070
     2
1070
    41
1040
18.0
1002
}
  0
DIMENSION
  5
245
330
1F
100
AcDbEntity
  8
PRO0
  6
CONTINUOUS
 62
     3
100
AcDbDimension
  2
*D8
 10
7008.158388
 20
4035.050979
 30
0.0
 11
6968.158388
 21
4186.050979
 31
0.0
 70
   160
  1
３０２
 53
90.0
  3
STANDARD
100
AcDbAlignedDimension
 13
6459.193149
 23
4337.050979
 33
0.0
 14
6711.814321
 24
4035.050979
 34
0.0
 50
-90.0
100
AcDbRotatedDimension
1001
ACAD
1000
DSTYLE
1002
{
1070
   287
1070
     5
1070
   140
1040
60.0
1070
   178
1070
     3
1070
   340
1005
203
1070
   279
1070
     2
1070
    41
1040
20.0
1002
}
  0
DIMENSION
  5
25A
330
1F
100
AcDbEntity
  8
PRO0
  6
CONTINUOUS
 62
     3
100
AcDbDimension
  2
*D10
 10
7008.158388
 20
3825.050979
 30
0.0
 11
6968.158388
 21
3930.050979
 31
0.0
 70
   160
  1
２１０
 53
90.0
  3
STANDARD
100
AcDbAlignedDimension
 13
6711.814321
 23
4035.050979
 33
0.0
 14
6595.219934
 24
3825.050979
 34
0.0
 50
-90.0
100
AcDbRotatedDimension
1001
ACAD
1000
DSTYLE
1002
{
1070
   287
1070
     5
1070
   140
1040
60.0
1070
   178
1070
     3
1070
   340
1005
203
1070
   279
1070
     2
1070
    41
1040
20.0
1002
}
  0
DIMENSION
  5
26E
330
1F
100
AcDbEntity
  8
PRO0
  6
CONTINUOUS
 62
     3
100
AcDbDimension
  2
*D12
 10
7008.158388
 20
3785.050979
 30
0.0
 11
6968.158388
 21
3725.050979
 31
0.0
 70
   160
  1
４０
 53
90.0
  3
STANDARD
100
AcDbAlignedDimension
 13
6595.219934
 23
3825.050979
 33
0.0
 14
6597.648984
 24
3785.050979
 34
0.0
 50
-90.0
100
AcDbRotatedDimension
1001
ACAD
1000
DSTYLE
1002
{
1070
   287
1070
     5
1070
   140
1040
60.0
1070
   178
1070
     3
1070
   340
1005
203
1070
   279
1070
     2
1070
    41
1040
18.0
1002
}
  0
DIMENSION
  5
285
330
1F
100
AcDbEntity
  8
PRO0
  6
CONTINUOUS
 62
     3
100
AcDbDimension
  2
*D14
 10
3256.405081
 20
1165.153028
 30
0.0
 11
3216.405081
 21
1359.153028
 31
0.0
 70
   160
  1
３８８
 53
90.0
  3
STANDARD
100
AcDbAlignedDimension
 13
2581.129719
 23
1553.153028
 33
0.0
 14
2930.91264
 24
1165.153028
 34
0.0
 50
-90.0
100
AcDbRotatedDimension
1001
ACAD
1000
DSTYLE
1002
{
1070
   287
1070
     5
1070
   140
1040
60.0
1070
   178
1070
     3
1070
   340
1005
203
1070
   279
1070
     2
1070
    41
1040
20.0
1002
}
  0
DIMENSION
  5
29A
330
1F
100
AcDbEntity
  8
PRO0
  6
CONTINUOUS
 62
     3
100
AcDbDimension
  2
*D16
 10
3256.405081
 20
916.228328
 30
0.0
 11
3216.405081
 21
1040.690678
 31
0.0
 70
   160
  1
２５０
 53
90.0
  3
STANDARD
100
AcDbAlignedDimension
 13
2930.91264
 23
1165.153028
 33
0.0
 14
2743.875939
 24
916.228328
 34
0.0
 50
-90.0
100
AcDbRotatedDimension
1001
ACAD
1000
DSTYLE
1002
{
1070
   287
1070
     5
1070
   140
1040
60.0
1070
   178
1070
     3
1070
   340
1005
203
1070
   279
1070
     2
1070
    41
1040
20.0
1002
}
  0
DIMENSION
  5
2AE
330
1F
100
AcDbEntity
  8
PRO0
  6
CONTINUOUS
 62
     3
100
AcDbDimension
  2
*D18
 10
3256.405081
 20
876.228328
 30
0.0
 11
3216.405081
 21
816.228328
 31
0.0
 70
   160
  1
４０
 53
90.0
  3
STANDARD
100
AcDbAlignedDimension
 13
2743.875939
 23
916.228328
 33
0.0
 14
2743.875939
 24
876.228328
 34
0.0
 50
-90.0
100
AcDbRotatedDimension
1001
ACAD
1000
DSTYLE
1002
{
1070
   287
1070
     5
1070
   140
1040
60.0
1070
   178
1070
     3
1070
   340
1005
203
1070
   279
1070
     2
1070
    41
1040
18.0
1002
}
  0
DIMENSION
  5
2C5
330
1F
100
AcDbEntity
  8
PRO0
  6
CONTINUOUS
 62
     3
100
AcDbDimension
  2
*D20
 10
7528.692252
 20
1206.228328
 30
0.0
 11
7488.692252
 21
1433.228328
 31
0.0
 70
   160
  1
４５４
 53
90.0
  3
STANDARD
100
AcDbAlignedDimension
 13
6718.802663
 23
1660.228328
 33
0.0
 14
7134.655413
 24
1206.228328
 34
0.0
 50
-90.0
100
AcDbRotatedDimension
1001
ACAD
1000
DSTYLE
1002
{
1070
   287
1070
     5
1070
   140
1040
60.0
1070
   178
1070
     3
1070
   340
1005
203
1070
   279
1070
     2
1070
    41
1040
20.0
1002
}
  0
DIMENSION
  5
2DA
330
1F
100
AcDbEntity
  8
PRO0
  6
CONTINUOUS
 62
     3
100
AcDbDimension
  2
*D22
 10
7528.692252
 20
916.228328
 30
0.0
 11
7488.692252
 21
1061.228328
 31
0.0
 70
   160
  1
２９０
 53
90.0
  3
STANDARD
100
AcDbAlignedDimension
 13
7134.655413
 23
1206.228328
 33
0.0
 14
6911.183141
 24
916.228328
 34
0.0
 50
-90.0
100
AcDbRotatedDimension
1001
ACAD
1000
DSTYLE
1002
{
1070
   287
1070
     5
1070
   140
1040
60.0
1070
   178
1070
     3
1070
   340
1005
203
1070
   279
1070
     2
1070
    41
1040
20.0
1002
}
  0
DIMENSION
  5
2EE
330
1F
100
AcDbEntity
  8
PRO0
  6
CONTINUOUS
 62
     3
100
AcDbDimension
  2
*D24
 10
7528.692252
 20
876.228328
 30
0.0
 11
7488.692252
 21
816.228328
 31
0.0
 70
   160
  1
４０
 53
90.0
  3
STANDARD
100
AcDbAlignedDimension
 13
6911.183141
 23
916.228328
 33
0.0
 14
6909.239904
 24
876.228328
 34
0.0
 50
-90.0
100
AcDbRotatedDimension
1001
ACAD
1000
DSTYLE
1002
{
1070
   287
1070
     5
1070
   140
1040
60.0
1070
   178
1070
     3
1070
   340
1005
203
1070
   279
1070
     2
1070
    41
1040
18.0
1002
}
  0
DIMENSION
  5
305
330
1F
100
AcDbEntity
  8
PRO0
  6
CONTINUOUS
 62
     3
100
AcDbDimension
  2
*D26
 10
2715.0
 20
591.954089
 30
0.0
 11
2015.0
 21
631.954089
 31
0.0
 70
   160
  1
１４００
  3
STANDARD
100
AcDbAlignedDimension
 13
1315.0
 23
861.8574
 33
0.0
 14
2715.0
 24
861.8574
 34
0.0
100
AcDbRotatedDimension
1001
ACAD
1000
DSTYLE
1002
{
1070
   287
1070
     5
1070
   140
1040
60.0
1070
   178
1070
     3
1070
   340
1005
203
1070
   279
1070
     2
1070
    41
1040
20.0
1002
}
  0
DIMENSION
  5
31B
330
1F
100
AcDbEntity
  8
PRO0
  6
CONTINUOUS
 62
     3
100
AcDbDimension
  2
*D28
 10
6885.0
 20
591.954089
 30
0.0
 11
6045.0
 21
631.954089
 31
0.0
 70
   160
  1
１６８０
  3
STANDARD
100
AcDbAlignedDimension
 13
5205.0
 23
859.913134
 33
0.0
 14
6885.0
 24
859.913134
 34
0.0
100
AcDbRotatedDimension
1001
ACAD
1000
DSTYLE
1002
{
1070
   287
1070
     5
1070
   140
1040
60.0
1070
   178
1070
     3
1070
   340
1005
203
1070
   279
1070
     2
1070
    41
1040
20.0
1002
}
  0
DIMENSION
  5
331
330
1F
100
AcDbEntity
  8
PRO0
  6
CONTINUOUS
 62
     3
100
AcDbDimension
  2
*D30
 10
2390.0
 20
3570.548439
 30
0.0
 11
2015.0
 21
3610.548439
 31
0.0
 70
   160
  1
７５０
  3
STANDARD
100
AcDbAlignedDimension
 13
1640.0
 23
3775.936877
 33
0.0
 14
2390.0
 24
3775.936877
 34
0.0
100
AcDbRotatedDimension
1001
ACAD
1000
DSTYLE
1002
{
1070
   287
1070
     5
1070
   140
1040
60.0
1070
   178
1070
     3
1070
   340
1005
203
1070
   279
1070
     2
1070
    41
1040
20.0
1002
}
  0
DIMENSION
  5
347
330
1F
100
AcDbEntity
  8
PRO0
  6
CONTINUOUS
 62
     3
100
AcDbDimension
  2
*D32
 10
6570.0
 20
3570.548439
 30
0.0
 11
6045.0
 21
3610.548439
 31
0.0
 70
   160
  1
１０５０
  3
STANDARD
100
AcDbAlignedDimension
 13
5520.0
 23
3773.787579
 33
0.0
 14
6570.0
 24
3773.787579
 34
0.0
100
AcDbRotatedDimension
1001
ACAD
1000
DSTYLE
1002
{
1070
   287
1070
     5
1070
   140
1040
60.0
1070
   178
1070
     3
1070
   340
1005
203
1070
   279
1070
     2
1070
    41
1040
20.0
1002
}
  0
TEXT
  5
354
330
1F
100
AcDbEntity
  8
PRO0
  6
CONTINUOUS
 62
     3
100
AcDbText
 10
3607.108524
 20
2869.922127
 30
0.0
 40
60.0
  1
縮尺　１／２０
 41
0.858268
  7
BIGFONT
100
AcDbText
  0
TEXT
  5
355
330
1F
100
AcDbEntity
  8
PRO0
  6
CONTINUOUS
 62
     3
100
AcDbText
 10
7633.159873
 20
2867.846536
 30
0.0
 40
60.0
  1
縮尺　１／２０
 41
0.858268
  7
BIGFONT
100
AcDbText
  0
TEXT
  5
356
330
1F
100
AcDbEntity
  8
PRO0
  6
CONTINUOUS
 62
     3
100
AcDbText
 10
3600.585243
 20
50.974552
 30
0.0
 40
60.0
  1
縮尺　１／２０
 41
0.858268
  7
BIGFONT
100
AcDbText
  0
TEXT
  5
357
330
1F
100
AcDbEntity
  8
PRO0
  6
CONTINUOUS
 62
     3
100
AcDbText
 10
7647.985515
 20
43.561731
 30
0.0
 40
60.0
  1
縮尺　１／２０
 41
0.858268
  7
BIGFONT
100
AcDbText
  0
DIMENSION
  5
361
330
1F
100
AcDbEntity
  8
PRO0
  6
CONTINUOUS
 62
     3
100
AcDbDimension
  2
*D34
 10
2910.0
 20
1840.241869
 30
0.0
 11
2015.0
 21
1880.241869
 31
0.0
 70
   160
  1
１７９０
  3
STANDARD
100
AcDbAlignedDimension
 13
1120.0
 23
1238.677449
 33
0.0
 14
2910.0
 24
1238.677449
 34
0.0
100
AcDbRotatedDimension
1001
ACAD
1000
DSTYLE
1002
{
1070
   287
1070
     5
1070
   140
1040
60.0
1070
   178
1070
     3
1070
   340
1005
203
1070
   279
1070
     2
1070
    41
1040
20.0
1002
}
  0
DIMENSION
  5
377
330
1F
100
AcDbEntity
  8
PRO0
  6
CONTINUOUS
 62
     3
100
AcDbDimension
  2
*D36
 10
7115.0
 20
1966.857125
 30
0.0
 11
6045.0
 21
2006.857125
 31
0.0
 70
   160
  1
２１４０
  3
STANDARD
100
AcDbAlignedDimension
 13
4975.0
 23
1262.438592
 33
0.0
 14
7115.0
 24
1262.438592
 34
0.0
100
AcDbRotatedDimension
1001
ACAD
1000
DSTYLE
1002
{
1070
   287
1070
     5
1070
   140
1040
60.0
1070
   178
1070
     3
1070
   340
1005
203
1070
   279
1070
     2
1070
    41
1040
20.0
1002
}
  0
DIMENSION
  5
38D
330
1F
100
AcDbEntity
  8
PRO0
  6
CONTINUOUS
 62
     3
100
AcDbDimension
  2
*D38
 10
2475.0
 20
4432.007373
 30
0.0
 11
2015.0
 21
4472.007373
 31
0.0
 70
   160
  1
９２０
  3
STANDARD
100
AcDbAlignedDimension
 13
1555.0
 23
4023.544258
 33
0.0
 14
2475.0
 24
4023.544258
 34
0.0
100
AcDbRotatedDimension
1001
ACAD
1000
DSTYLE
1002
{
1070
   287
1070
     5
1070
   140
1040
60.0
1070
   178
1070
     3
1070
   340
1005
203
1070
   279
1070
     2
1070
    41
1040
20.0
1002
}
  0
DIMENSION
  5
3A3
330
1F
100
AcDbEntity
  8
PRO0
  6
CONTINUOUS
 62
     3
100
AcDbDimension
  2
*D40
 10
6690.0
 20
4618.877596
 30
0.0
 11
6045.0
 21
4658.877596
 31
0.0
 70
   160
  1
１２９０
  3
STANDARD
100
AcDbAlignedDimension
 13
5400.0
 23
4082.062358
 33
0.0
 14
6690.0
 24
4082.062358
 34
0.0
100
AcDbRotatedDimension
1001
ACAD
1000
DSTYLE
1002
{
1070
   287
1070
     5
1070
   140
1040
60.0
1070
   178
1070
     3
1070
   340
1005
203
1070
   279
1070
     2
1070
    41
1040
20.0
1002
}
  0
ENDSEC
  0
SECTION
  2
OBJECTS
  0
DICTIONARY
  5
C
330
0
100
AcDbDictionary
  3
ACAD_GROUP
350
D
  3
ACAD_LAYOUT
350
1A
  3
ACAD_MLINESTYLE
350
17
  3
ACAD_PLOTSETTINGS
350
19
  3
ACDBHEADERROUNDTRIPXREC
350
3B0
  0
DICTIONARY
  5
3D0
330
29
100
AcDbDictionary
280
     1
  3
ACAD_XREC_ROUNDTRIP
360
3D1
  0
DICTIONARY
  5
D
102
{ACAD_REACTORS
330
C
102
}
330
C
100
AcDbDictionary
  0
DICTIONARY
  5
1A
102
{ACAD_REACTORS
330
C
102
}
330
C
100
AcDbDictionary
  0
DICTIONARY
  5
17
102
{ACAD_REACTORS
330
C
102
}
330
C
100
AcDbDictionary
  3
STANDARD
350
18
  0
DICTIONARY
  5
19
102
{ACAD_REACTORS
330
C
102
}
330
C
100
AcDbDictionary
  0
DICTIONARY
  5
3B0
102
{ACAD_REACTORS
330
C
102
}
330
C
100
AcDbDictionary
  3
CEPSNTYPE
350
3B9
  3
DIMSTYLEDATA
350
3CF
  3
FINGERPRINTGUID
350
3BA
  3
HYPERLINKBASE
350
3B3
  3
INSUNITS
350
3B8
  3
LAYOUTDICT
350
3B5
  3
LWETCUNION
350
3B7
  3
PLOTSETDICT
350
3B6
  3
PSVPSCALE
350
3BC
  3
PUCSBASE
350
3BF
  3
PUCSORGBACK
350
3C5
  3
PUCSORGBOTTOM
350
3C1
  3
PUCSORGFRONT
350
3C4
  3
PUCSORGLEFT
350
3C2
  3
PUCSORGRIGHT
350
3C3
  3
PUCSORGTOP
350
3C0
  3
PUCSORTHOREF
350
3BD
  3
PUCSORTHOVIEW
350
3BE
  3
STYLESHEET
350
3B4
  3
TSTACKALIGN
350
3B1
  3
TSTACKSIZE
350
3B2
  3
UCSBASE
350
3C8
  3
UCSORGBACK
350
3CE
  3
UCSORGBOTTOM
350
3CA
  3
UCSORGFRONT
350
3CD
  3
UCSORGLEFT
350
3CB
  3
UCSORGRIGHT
350
3CC
  3
UCSORGTOP
350
3C9
  3
UCSORTHOREF
350
3C6
  3
UCSORTHOVIEW
350
3C7
  3
VERSIONGUID
350
3BB
  0
XRECORD
  5
3D1
102
{ACAD_REACTORS
330
3D0
102
}
330
3D0
100
AcDbXrecord
102
UCS
 74
     0
 71
     1
 10
0.0
 20
0.0
 30
0.0
 10
1.0
 20
0.0
 30
0.0
 10
0.0
 20
1.0
 30
0.0
146
0.0
 79
     0
102
VIEW
281
     0
  0
MLINESTYLE
  5
18
102
{ACAD_REACTORS
330
17
102
}
330
17
100
AcDbMlineStyle
  2
Standard
 70
     0
  3

 62
   256
 51
90.0
 52
90.0
 71
     2
 49
0.5
 62
   256
  6
BYLAYER
 49
-0.5
 62
   256
  6
BYLAYER
  0
XRECORD
  5
3B9
102
{ACAD_REACTORS
330
3B0
102
}
330
3B0
100
AcDbXrecord
 90
        0
  0
XRECORD
  5
3CF
102
{ACAD_REACTORS
330
3B0
102
}
330
3B0
100
AcDbXrecord
1000
DSTYLE
1002
{
1070
   340
340
11
1002
}
  0
XRECORD
  5
3BA
102
{ACAD_REACTORS
330
3B0
102
}
330
3B0
100
AcDbXrecord
  1
{FAEB1C30-E019-11D5-929B-00C0DF256EC4}
  0
XRECORD
  5
3B3
102
{ACAD_REACTORS
330
3B0
102
}
330
3B0
100
AcDbXrecord
  1

  0
XRECORD
  5
3B8
102
{ACAD_REACTORS
330
3B0
102
}
330
3B0
100
AcDbXrecord
 90
        1
  0
XRECORD
  5
3B5
102
{ACAD_REACTORS
330
3B0
102
}
330
3B0
100
AcDbXrecord
340
1A
  0
XRECORD
  5
3B7
102
{ACAD_REACTORS
330
3B0
102
}
330
3B0
100
AcDbXrecord
 90
    10781
  0
XRECORD
  5
3B6
102
{ACAD_REACTORS
330
3B0
102
}
330
3B0
100
AcDbXrecord
340
19
  0
XRECORD
  5
3BC
102
{ACAD_REACTORS
330
3B0
102
}
330
3B0
100
AcDbXrecord
 40
0.0
  0
XRECORD
  5
3BF
102
{ACAD_REACTORS
330
3B0
102
}
330
3B0
100
AcDbXrecord
340
0
  0
XRECORD
  5
3C5
102
{ACAD_REACTORS
330
3B0
102
}
330
3B0
100
AcDbXrecord
 10
0.0
 20
0.0
 30
0.0
  0
XRECORD
  5
3C1
102
{ACAD_REACTORS
330
3B0
102
}
330
3B0
100
AcDbXrecord
 10
0.0
 20
0.0
 30
0.0
  0
XRECORD
  5
3C4
102
{ACAD_REACTORS
330
3B0
102
}
330
3B0
100
AcDbXrecord
 10
0.0
 20
0.0
 30
0.0
  0
XRECORD
  5
3C2
102
{ACAD_REACTORS
330
3B0
102
}
330
3B0
100
AcDbXrecord
 10
0.0
 20
0.0
 30
0.0
  0
XRECORD
  5
3C3
102
{ACAD_REACTORS
330
3B0
102
}
330
3B0
100
AcDbXrecord
 10
0.0
 20
0.0
 30
0.0
  0
XRECORD
  5
3C0
102
{ACAD_REACTORS
330
3B0
102
}
330
3B0
100
AcDbXrecord
 10
0.0
 20
0.0
 30
0.0
  0
XRECORD
  5
3BD
102
{ACAD_REACTORS
330
3B0
102
}
330
3B0
100
AcDbXrecord
340
0
  0
XRECORD
  5
3BE
102
{ACAD_REACTORS
330
3B0
102
}
330
3B0
100
AcDbXrecord
 70
     0
  0
XRECORD
  5
3B4
102
{ACAD_REACTORS
330
3B0
102
}
330
3B0
100
AcDbXrecord
  1

  0
XRECORD
  5
3B1
102
{ACAD_REACTORS
330
3B0
102
}
330
3B0
100
AcDbXrecord
 90
        1
  0
XRECORD
  5
3B2
102
{ACAD_REACTORS
330
3B0
102
}
330
3B0
100
AcDbXrecord
 90
       70
  0
XRECORD
  5
3C8
102
{ACAD_REACTORS
330
3B0
102
}
330
3B0
100
AcDbXrecord
340
0
  0
XRECORD
  5
3CE
102
{ACAD_REACTORS
330
3B0
102
}
330
3B0
100
AcDbXrecord
 10
0.0
 20
0.0
 30
0.0
  0
XRECORD
  5
3CA
102
{ACAD_REACTORS
330
3B0
102
}
330
3B0
100
AcDbXrecord
 10
0.0
 20
0.0
 30
0.0
  0
XRECORD
  5
3CD
102
{ACAD_REACTORS
330
3B0
102
}
330
3B0
100
AcDbXrecord
 10
0.0
 20
0.0
 30
0.0
  0
XRECORD
  5
3CB
102
{ACAD_REACTORS
330
3B0
102
}
330
3B0
100
AcDbXrecord
 10
0.0
 20
0.0
 30
0.0
  0
XRECORD
  5
3CC
102
{ACAD_REACTORS
330
3B0
102
}
330
3B0
100
AcDbXrecord
 10
0.0
 20
0.0
 30
0.0
  0
XRECORD
  5
3C9
102
{ACAD_REACTORS
330
3B0
102
}
330
3B0
100
AcDbXrecord
 10
0.0
 20
0.0
 30
0.0
  0
XRECORD
  5
3C6
102
{ACAD_REACTORS
330
3B0
102
}
330
3B0
100
AcDbXrecord
340
0
  0
XRECORD
  5
3C7
102
{ACAD_REACTORS
330
3B0
102
}
330
3B0
100
AcDbXrecord
 70
     0
  0
XRECORD
  5
3BB
102
{ACAD_REACTORS
330
3B0
102
}
330
3B0
100
AcDbXrecord
  1
{FAEB1C32-E019-11D5-929B-00C0DF256EC4}
  0
ENDSEC
  0
EOF
