  0
SECTION
  2
HEADER
  9
$ACADVER
  1
AC1018
  9
$ACADMAINTVER
 70
   104
  9
$DWGCODEPAGE
  3
ANSI_932
  9
$LASTSAVEDBY
  1
HON1000CV
  9
$INSBASE
 10
0.0
 20
0.0
 30
0.0
  9
$EXTMIN
 10
2549.053740672986
 20
757.6212895484741
 30
-0.0000000000000053
  9
$EXTMAX
 10
3162.335953815576
 20
1055.817469829141
 30
0.0000000000000099
  9
$LIMMIN
 10
0.0
 20
0.0
  9
$LIMMAX
 10
420.0
 20
297.0
  9
$ORTHOMODE
 70
     0
  9
$REGENMODE
 70
     1
  9
$FILLMODE
 70
     1
  9
$QTEXTMODE
 70
     0
  9
$MIRRTEXT
 70
     1
  9
$LTSCALE
 40
3.0
  9
$ATTMODE
 70
     1
  9
$TEXTSIZE
 40
5.0
  9
$TRACEWID
 40
0.05
  9
$TEXTSTYLE
  7
ACAD
  9
$CLAYER
  8
0
  9
$CELTYPE
  6
CONTINUOUS
  9
$CECOLOR
 62
   256
  9
$CELTSCALE
 40
1.0
  9
$DISPSILH
 70
     0
  9
$DIMSCALE
 40
1.0
  9
$DIMASZ
 40
5.0
  9
$DIMEXO
 40
0.0
  9
$DIMDLI
 40
0.38
  9
$DIMRND
 40
0.0
  9
$DIMDLE
 40
0.0
  9
$DIMEXE
 40
0.0
  9
$DIMTP
 40
0.0
  9
$DIMTM
 40
0.0
  9
$DIMTXT
 40
6.5
  9
$DIMCEN
 40
0.09
  9
$DIMTSZ
 40
0.0
  9
$DIMTOL
 70
     0
  9
$DIMLIM
 70
     0
  9
$DIMTIH
 70
     0
  9
$DIMTOH
 70
     1
  9
$DIMSE1
 70
     0
  9
$DIMSE2
 70
     0
  9
$DIMTAD
 70
     1
  9
$DIMZIN
 70
     0
  9
$DIMBLK
  1
Small
  9
$DIMASO
 70
     1
  9
$DIMSHO
 70
     1
  9
$DIMPOST
  1

  9
$DIMAPOST
  1

  9
$DIMALT
 70
     0
  9
$DIMALTD
 70
     2
  9
$DIMALTF
 40
25.4
  9
$DIMLFAC
 40
1.0
  9
$DIMTOFL
 70
     0
  9
$DIMTVP
 40
0.0
  9
$DIMTIX
 70
     1
  9
$DIMSOXD
 70
     0
  9
$DIMSAH
 70
     0
  9
$DIMBLK1
  1

  9
$DIMBLK2
  1

  9
$DIMSTYLE
  2
AutoCAD
  9
$DIMCLRD
 70
     4
  9
$DIMCLRE
 70
     4
  9
$DIMCLRT
 70
     3
  9
$DIMTFAC
 40
1.0
  9
$DIMGAP
 40
3.0
  9
$DIMJUST
 70
     0
  9
$DIMSD1
 70
     0
  9
$DIMSD2
 70
     0
  9
$DIMTOLJ
 70
     1
  9
$DIMTZIN
 70
     0
  9
$DIMALTZ
 70
     0
  9
$DIMALTTZ
 70
     0
  9
$DIMUPT
 70
     0
  9
$DIMDEC
 70
     0
  9
$DIMTDEC
 70
     0
  9
$DIMALTU
 70
     2
  9
$DIMALTTD
 70
     2
  9
$DIMTXSTY
  7
ACAD
  9
$DIMAUNIT
 70
     0
  9
$DIMADEC
 70
     0
  9
$DIMALTRND
 40
0.0
  9
$DIMAZIN
 70
     0
  9
$DIMDSEP
 70
    46
  9
$DIMATFIT
 70
     0
  9
$DIMFRAC
 70
     0
  9
$DIMLDRBLK
  1
None
  9
$DIMLUNIT
 70
     2
  9
$DIMLWD
 70
    -2
  9
$DIMLWE
 70
    -2
  9
$DIMTMOVE
 70
     0
  9
$LUNITS
 70
     2
  9
$LUPREC
 70
     4
  9
$SKETCHINC
 40
0.1
  9
$FILLETRAD
 40
0.0
  9
$AUNITS
 70
     0
  9
$AUPREC
 70
     0
  9
$MENU
  1
.
  9
$ELEVATION
 40
0.0
  9
$PELEVATION
 40
0.0
  9
$THICKNESS
 40
0.0
  9
$LIMCHECK
 70
     0
  9
$CHAMFERA
 40
0.0
  9
$CHAMFERB
 40
0.0
  9
$CHAMFERC
 40
0.0
  9
$CHAMFERD
 40
0.0
  9
$SKPOLY
 70
     0
  9
$TDCREATE
 40
2454316.693457674
  9
$TDUCREATE
 40
2454316.318457674
  9
$TDUPDATE
 40
2455961.438489120
  9
$TDUUPDATE
 40
2455961.063489120
  9
$TDINDWG
 40
1.0765777778
  9
$TDUSRTIMER
 40
1.0765777778
  9
$USRTIMER
 70
     1
  9
$ANGBASE
 50
0.0
  9
$ANGDIR
 70
     0
  9
$PDMODE
 70
     0
  9
$PDSIZE
 40
0.0
  9
$PLINEWID
 40
0.0
  9
$SPLFRAME
 70
     0
  9
$SPLINETYPE
 70
     6
  9
$SPLINESEGS
 70
     8
  9
$HANDSEED
  5
C10A
  9
$SURFTAB1
 70
     6
  9
$SURFTAB2
 70
     6
  9
$SURFTYPE
 70
     6
  9
$SURFU
 70
     6
  9
$SURFV
 70
     6
  9
$UCSBASE
  2

  9
$UCSNAME
  2

  9
$UCSORG
 10
0.0
 20
0.0
 30
0.0
  9
$UCSXDIR
 10
1.0
 20
0.0
 30
0.0
  9
$UCSYDIR
 10
0.0
 20
1.0
 30
0.0
  9
$UCSORTHOREF
  2

  9
$UCSORTHOVIEW
 70
     0
  9
$UCSORGTOP
 10
0.0
 20
0.0
 30
0.0
  9
$UCSORGBOTTOM
 10
0.0
 20
0.0
 30
0.0
  9
$UCSORGLEFT
 10
0.0
 20
0.0
 30
0.0
  9
$UCSORGRIGHT
 10
0.0
 20
0.0
 30
0.0
  9
$UCSORGFRONT
 10
0.0
 20
0.0
 30
0.0
  9
$UCSORGBACK
 10
0.0
 20
0.0
 30
0.0
  9
$PUCSBASE
  2

  9
$PUCSNAME
  2

  9
$PUCSORG
 10
0.0
 20
0.0
 30
0.0
  9
$PUCSXDIR
 10
1.0
 20
0.0
 30
0.0
  9
$PUCSYDIR
 10
0.0
 20
1.0
 30
0.0
  9
$PUCSORTHOREF
  2

  9
$PUCSORTHOVIEW
 70
     0
  9
$PUCSORGTOP
 10
0.0
 20
0.0
 30
0.0
  9
$PUCSORGBOTTOM
 10
0.0
 20
0.0
 30
0.0
  9
$PUCSORGLEFT
 10
0.0
 20
0.0
 30
0.0
  9
$PUCSORGRIGHT
 10
0.0
 20
0.0
 30
0.0
  9
$PUCSORGFRONT
 10
0.0
 20
0.0
 30
0.0
  9
$PUCSORGBACK
 10
0.0
 20
0.0
 30
0.0
  9
$USERI1
 70
     0
  9
$USERI2
 70
     0
  9
$USERI3
 70
     0
  9
$USERI4
 70
     0
  9
$USERI5
 70
     0
  9
$USERR1
 40
0.0
  9
$USERR2
 40
0.0
  9
$USERR3
 40
0.0
  9
$USERR4
 40
0.0
  9
$USERR5
 40
0.0
  9
$WORLDVIEW
 70
     1
  9
$SHADEDGE
 70
     3
  9
$SHADEDIF
 70
    70
  9
$TILEMODE
 70
     1
  9
$MAXACTVP
 70
    48
  9
$PINSBASE
 10
0.0
 20
0.0
 30
0.0
  9
$PLIMCHECK
 70
     0
  9
$PEXTMIN
 10
1.000000000000000E+20
 20
1.000000000000000E+20
 30
1.000000000000000E+20
  9
$PEXTMAX
 10
-1.000000000000000E+20
 20
-1.000000000000000E+20
 30
-1.000000000000000E+20
  9
$PLIMMIN
 10
0.0
 20
0.0
  9
$PLIMMAX
 10
12.0
 20
9.0
  9
$UNITMODE
 70
     0
  9
$VISRETAIN
 70
     0
  9
$PLINEGEN
 70
     0
  9
$PSLTSCALE
 70
     1
  9
$TREEDEPTH
 70
  3020
  9
$CMLSTYLE
  2
Standard
  9
$CMLJUST
 70
     0
  9
$CMLSCALE
 40
1.0
  9
$PROXYGRAPHICS
 70
     1
  9
$MEASUREMENT
 70
     0
  9
$CELWEIGHT
370
    -1
  9
$ENDCAPS
280
     0
  9
$JOINSTYLE
280
     0
  9
$LWDISPLAY
290
     0
  9
$INSUNITS
 70
     0
  9
$HYPERLINKBASE
  1

  9
$STYLESHEET
  1
monochrome.ctb
  9
$XEDIT
290
     1
  9
$CEPSNTYPE
380
     0
  9
$PSTYLEMODE
290
     1
  9
$FINGERPRINTGUID
  2
{CC7D6DEE-A9F1-4F3E-AC95-C84B62CCA3FD}
  9
$VERSIONGUID
  2
{BD15EABC-CFED-4D17-A508-AAC36036DCF0}
  9
$EXTNAMES
290
     1
  9
$PSVPSCALE
 40
0.0
  9
$OLESTARTUP
290
     0
  9
$SORTENTS
280
   127
  9
$INDEXCTL
280
     0
  9
$HIDETEXT
280
     0
  9
$XCLIPFRAME
290
     0
  9
$HALOGAP
280
     0
  9
$OBSCOLOR
 70
   257
  9
$OBSLTYPE
280
     0
  9
$INTERSECTIONDISPLAY
280
     0
  9
$INTERSECTIONCOLOR
 70
   257
  9
$DIMASSOC
280
     1
  9
$PROJECTNAME
  1

  0
ENDSEC
  0
SECTION
  2
CLASSES
  0
CLASS
  1
ACDBDICTIONARYWDFLT
  2
AcDbDictionaryWithDefault
  3
ObjectDBX Classes
 90
        0
 91
        1
280
     0
281
     0
  0
CLASS
  1
DICTIONARYVAR
  2
AcDbDictionaryVar
  3
ObjectDBX Classes
 90
        0
 91
       10
280
     0
281
     0
  0
CLASS
  1
MATERIAL
  2
AcDbMaterial
  3
ObjectDBX Classes
 90
     1153
 91
        3
280
     0
281
     0
  0
CLASS
  1
VISUALSTYLE
  2
AcDbVisualStyle
  3
ObjectDBX Classes
 90
     4095
 91
       24
280
     0
281
     0
  0
CLASS
  1
TABLESTYLE
  2
AcDbTableStyle
  3
ObjectDBX Classes
 90
     4095
 91
        1
280
     0
281
     0
  0
CLASS
  1
SCALE
  2
AcDbScale
  3
ObjectDBX Classes
 90
     1153
 91
       17
280
     0
281
     0
  0
CLASS
  1
MLEADERSTYLE
  2
AcDbMLeaderStyle
  3
ACDB_MLEADERSTYLE_CLASS
 90
     4095
 91
        1
280
     0
281
     0
  0
CLASS
  1
SORTENTSTABLE
  2
AcDbSortentsTable
  3
ObjectDBX Classes
 90
        0
 91
        1
280
     0
281
     0
  0
CLASS
  1
EXACXREFPANELOBJECT
  2
ExAcXREFPanelObject
  3
EXAC_ESW
 90
     1025
 91
        0
280
     0
281
     0
  0
CLASS
  1
NPOCOLLECTION
  2
AcDbImpNonPersistentObjectsCollection
  3
ObjectDBX Classes
 90
     1153
 91
        0
280
     0
281
     0
  0
CLASS
  1
CELLSTYLEMAP
  2
AcDbCellStyleMap
  3
ObjectDBX Classes
 90
     1152
 91
        2
280
     0
281
     0
  0
ENDSEC
  0
SECTION
  2
TABLES
  0
TABLE
  2
VPORT
  5
8
102
{ACAD_XDICTIONARY
360
ACDD
102
}
330
0
100
AcDbSymbolTable
 70
     1
  0
VPORT
  5
6265
330
8
100
AcDbSymbolTableRecord
100
AcDbViewportTableRecord
  2
*Active
 70
     0
 10
0.0
 20
0.0
 11
1.0
 21
1.0
 12
2855.607694364542
 22
906.6803320876113
 13
0.0
 23
0.0
 14
1.0
 24
1.0
 15
0.0
 25
0.0
 16
0.0
 26
0.0
 36
1.0
 17
0.0
 27
0.0
 37
0.0
 40
300.5974575488229
 41
2.519736842105263
 42
50.0
 43
0.0
 44
0.0
 50
0.0
 51
0.0
 71
     0
 72
   100
 73
     1
 74
     1
 75
     0
 76
     0
 77
     0
 78
     0
281
     0
 65
     1
110
0.0
120
0.0
130
0.0
111
1.0
121
0.0
131
0.0
112
0.0
122
1.0
132
0.0
 79
     0
146
0.0
1001
ACAD_NAV_VCDISPLAY
1070
     3
  0
ENDTAB
  0
TABLE
  2
LTYPE
  5
5
330
0
100
AcDbSymbolTable
 70
     2
  0
LTYPE
  5
13
330
5
100
AcDbSymbolTableRecord
100
AcDbLinetypeTableRecord
  2
ByBlock
 70
     0
  3

 72
    65
 73
     0
 40
0.0
  0
LTYPE
  5
14
330
5
100
AcDbSymbolTableRecord
100
AcDbLinetypeTableRecord
  2
ByLayer
 70
     0
  3

 72
    65
 73
     0
 40
0.0
  0
LTYPE
  5
15
330
5
100
AcDbSymbolTableRecord
100
AcDbLinetypeTableRecord
  2
CONTINUOUS
 70
     0
  3
実線
 72
    65
 73
     0
 40
0.0
  0
LTYPE
  5
25
330
5
100
AcDbSymbolTableRecord
100
AcDbLinetypeTableRecord
  2
CENTER1
 70
     0
  3
----- - ----- - ----- - ----- - 
 72
    65
 73
     4
 40
10.0
 49
6.25
 74
     0
 49
-1.25
 74
     0
 49
1.25
 74
     0
 49
-1.25
 74
     0
  0
ENDTAB
  0
TABLE
  2
LAYER
  5
2
102
{ACAD_XDICTIONARY
360
175
102
}
330
0
100
AcDbSymbolTable
 70
     6
  0
LAYER
  5
10
102
{ACAD_XDICTIONARY
360
8065
102
}
330
2
100
AcDbSymbolTableRecord
100
AcDbLayerTableRecord
  2
0
 70
     0
 62
     7
  6
CONTINUOUS
370
    -3
390
F
  0
LAYER
  5
128
330
2
100
AcDbSymbolTableRecord
100
AcDbLayerTableRecord
  2
Defpoints
 70
     0
 62
     7
  6
CONTINUOUS
290
     0
370
    -3
390
F
  0
LAYER
  5
178
102
{ACAD_XDICTIONARY
360
8067
102
}
330
2
100
AcDbSymbolTableRecord
100
AcDbLayerTableRecord
  2
寸法
 70
     0
 62
     7
  6
CONTINUOUS
370
    -3
390
F
  0
LAYER
  5
179
102
{ACAD_XDICTIONARY
360
8069
102
}
330
2
100
AcDbSymbolTableRecord
100
AcDbLayerTableRecord
  2
躯体と製品
 70
     0
 62
     7
  6
CONTINUOUS
370
    -3
390
F
  0
LAYER
  5
4F62
102
{ACAD_XDICTIONARY
360
806B
102
}
330
2
100
AcDbSymbolTableRecord
100
AcDbLayerTableRecord
  2
文字-記号
 70
     0
 62
     7
  6
CONTINUOUS
370
    -3
390
F
  0
LAYER
  5
89C9
330
2
100
AcDbSymbolTableRecord
100
AcDbLayerTableRecord
  2
中心線
 70
     0
 62
     7
  6
CONTINUOUS
370
    -3
390
F
1001
AcAecLayerStandard
1000

1000

1001
AcCmTransparency
1071
        0
  0
ENDTAB
  0
TABLE
  2
STYLE
  5
3
330
0
100
AcDbSymbolTable
 70
     3
  0
STYLE
  5
11
330
3
100
AcDbSymbolTableRecord
100
AcDbTextStyleTableRecord
  2
STANDARD
 70
     0
 40
0.0
 41
1.0
 50
0.0
 71
     0
 42
0.2
  3
txt
  4
bigfont.shx
  0
STYLE
  5
123
330
3
100
AcDbSymbolTableRecord
100
AcDbTextStyleTableRecord
  2
ACAD
 70
     0
 40
0.0
 41
1.0
 50
0.0
 71
     0
 42
5.0
  3
romans.shx
  4
extfont.shx
  0
ENDTAB
  0
TABLE
  2
VIEW
  5
6
330
0
100
AcDbSymbolTable
 70
     0
  0
ENDTAB
  0
TABLE
  2
UCS
  5
7
330
0
100
AcDbSymbolTable
 70
     0
  0
ENDTAB
  0
TABLE
  2
APPID
  5
9
330
0
100
AcDbSymbolTable
 70
    10
  0
APPID
  5
12
330
9
100
AcDbSymbolTableRecord
100
AcDbRegAppTableRecord
  2
ACAD
 70
     0
  0
APPID
  5
6BBF
330
9
100
AcDbSymbolTableRecord
100
AcDbRegAppTableRecord
  2
ACAD_NAV_VCDISPLAY
 70
     0
  0
APPID
  5
8823
330
9
100
AcDbSymbolTableRecord
100
AcDbRegAppTableRecord
  2
ACAD_EXEMPT_FROM_CAD_STANDARDS
 70
     0
  0
APPID
  5
89CA
330
9
100
AcDbSymbolTableRecord
100
AcDbRegAppTableRecord
  2
AcAecLayerStandard
 70
     0
  0
APPID
  5
89CB
330
9
100
AcDbSymbolTableRecord
100
AcDbRegAppTableRecord
  2
AcCmTransparency
 70
     0
  0
APPID
  5
A4C1
330
9
100
AcDbSymbolTableRecord
100
AcDbRegAppTableRecord
  2
ACAD_PSEXT
 70
     0
  0
APPID
  5
AD13
330
9
100
AcDbSymbolTableRecord
100
AcDbRegAppTableRecord
  2
ACAD_MLEADERVER
 70
     0
  0
APPID
  5
AD5E
330
9
100
AcDbSymbolTableRecord
100
AcDbRegAppTableRecord
  2
AcadAnnoPO
 70
     0
  0
APPID
  5
AD5F
330
9
100
AcDbSymbolTableRecord
100
AcDbRegAppTableRecord
  2
ACAD_DSTYLE_DIMJAG
 70
     0
  0
APPID
  5
AD60
330
9
100
AcDbSymbolTableRecord
100
AcDbRegAppTableRecord
  2
ACAD_DSTYLE_DIMTALN
 70
     0
  0
ENDTAB
  0
TABLE
  2
DIMSTYLE
  5
A
330
0
100
AcDbSymbolTable
 70
     3
100
AcDbDimStyleTable
 71
     1
340
126
  0
DIMSTYLE
105
11C
330
A
100
AcDbSymbolTableRecord
100
AcDbDimStyleTableRecord
  2
Standard
 70
     0
340
11
  0
DIMSTYLE
105
126
102
{ACAD_REACTORS
330
9A7F
330
9A80
330
A07A
330
A090
102
}
330
A
100
AcDbSymbolTableRecord
100
AcDbDimStyleTableRecord
  2
AutoCAD
 70
     0
 41
5.0
 42
0.0
 44
0.0
 73
     0
 77
     1
140
6.5
147
3.0
174
     1
176
     4
177
     4
178
     3
271
     0
272
     0
289
     0
340
123
341
15B0
342
B052
1001
ACAD_DSTYLE_DIMJAG
1070
   388
1040
1.5
1001
ACAD_DSTYLE_DIMTALN
1070
   392
1070
     0
  0
ENDTAB
  0
TABLE
  2
BLOCK_RECORD
  5
1
330
0
100
AcDbSymbolTable
 70
     7
  0
BLOCK_RECORD
  5
1E
102
{ACAD_XDICTIONARY
360
28B
102
}
330
1
100
AcDbSymbolTableRecord
100
AcDbBlockTableRecord
  2
*Model_Space
340
21
  0
BLOCK_RECORD
  5
1A
102
{ACAD_XDICTIONARY
360
28D
102
}
330
1
100
AcDbSymbolTableRecord
100
AcDbBlockTableRecord
  2
*Paper_Space
340
1D
  0
BLOCK_RECORD
  5
15B0
330
1
100
AcDbSymbolTableRecord
100
AcDbBlockTableRecord
  2
_None
340
0
  0
BLOCK_RECORD
  5
9CC5
330
1
100
AcDbSymbolTableRecord
100
AcDbBlockTableRecord
  2
*D1
340
0
  0
BLOCK_RECORD
  5
9CD1
330
1
100
AcDbSymbolTableRecord
100
AcDbBlockTableRecord
  2
*D2
340
0
  0
BLOCK_RECORD
  5
A07B
330
1
100
AcDbSymbolTableRecord
100
AcDbBlockTableRecord
  2
*D3
340
0
  0
BLOCK_RECORD
  5
A091
330
1
100
AcDbSymbolTableRecord
100
AcDbBlockTableRecord
  2
*D4
340
0
  0
BLOCK_RECORD
  5
B052
330
1
100
AcDbSymbolTableRecord
100
AcDbBlockTableRecord
  2
_Small
340
0
102
{BLKREFS
331
B06B
331
B06C
331
B074
331
B075
331
B0E9
331
B0EA
331
B0F2
331
B0F3
102
}
  0
ENDTAB
  0
ENDSEC
  0
SECTION
  2
BLOCKS
  0
BLOCK
  5
1F
330
1E
100
AcDbEntity
  8
0
100
AcDbBlockBegin
  2
*Model_Space
 70
     0
 10
0.0
 20
0.0
 30
0.0
  3
*Model_Space
  1

  0
ENDBLK
  5
20
330
1E
100
AcDbEntity
  8
0
100
AcDbBlockEnd
  0
BLOCK
  5
1B
330
1A
100
AcDbEntity
 67
     1
  8
0
100
AcDbBlockBegin
  2
*Paper_Space
 70
     0
 10
0.0
 20
0.0
 30
0.0
  3
*Paper_Space
  1

  0
ENDBLK
  5
1C
330
1A
100
AcDbEntity
 67
     1
  8
0
100
AcDbBlockEnd
  0
BLOCK
  5
15B1
330
15B0
100
AcDbEntity
  8
0
100
AcDbBlockBegin
  2
_None
 70
     0
 10
0.0
 20
0.0
 30
0.0
  3
_None
  1

  0
ENDBLK
  5
15B2
330
15B0
100
AcDbEntity
  8
0
100
AcDbBlockEnd
  0
BLOCK
  5
9CC6
330
9CC5
100
AcDbEntity
  8
0
100
AcDbBlockBegin
  2
*D1
 70
     1
 10
0.0
 20
0.0
 30
0.0
  3
*D1
  1

  0
LINE
  5
B068
330
9CC5
100
AcDbEntity
  8
寸法
  6
Continuous
 62
     4
440
 16777216
370
    -2
100
AcDbLine
 10
3121.636224986215
 20
772.6425136729706
 30
0.0
 11
3160.868105986216
 21
772.6425136729706
 31
0.0
  0
LINE
  5
B069
330
9CC5
100
AcDbEntity
  8
寸法
  6
Continuous
 62
     4
440
 16777216
370
    -2
100
AcDbLine
 10
3121.636224986215
 20
939.6425136729705
 30
0.0
 11
3160.868105986216
 21
939.6425136729705
 31
0.0
  0
LINE
  5
B06A
330
9CC5
100
AcDbEntity
  8
寸法
  6
Continuous
 62
     4
440
 16777216
370
    -2
100
AcDbLine
 10
3160.868105986216
 20
772.6425136729706
 30
0.0
 11
3160.868105986216
 21
939.6425136729705
 31
0.0
  0
INSERT
  5
B06B
330
9CC5
100
AcDbEntity
  8
寸法
  6
Continuous
 62
     4
440
 16777216
370
    -2
100
AcDbBlockReference
  2
_Small
 10
3160.868105986216
 20
772.6425136729706
 30
0.0
 41
5.0
 42
5.0
 43
5.0
 50
270.0
  0
INSERT
  5
B06C
330
9CC5
100
AcDbEntity
  8
寸法
  6
Continuous
 62
     4
440
 16777216
370
    -2
100
AcDbBlockReference
  2
_Small
 10
3160.868105986216
 20
939.6425136729705
 30
0.0
 41
5.0
 42
5.0
 43
5.0
 50
90.0
  0
MTEXT
  5
B06D
330
9CC5
100
AcDbEntity
  8
寸法
  6
Continuous
 62
     3
440
 16777216
100
AcDbMText
 10
3154.618105986216
 20
856.142513672971
 30
0.0
 40
6.5
 41
0.0
 71
     5
 72
     1
  1
\A1;h
  7
ACAD
 11
0.0000000000000001
 21
1.0
 31
0.0
 73
     1
 44
1.0
  0
POINT
  5
B06E
330
9CC5
100
AcDbEntity
  8
Defpoints
  6
Continuous
 62
     0
440
 16777216
100
AcDbPoint
 10
3121.636224986215
 20
772.6425136729706
 30
0.0
  0
POINT
  5
B06F
330
9CC5
100
AcDbEntity
  8
Defpoints
  6
Continuous
 62
     0
440
 16777216
100
AcDbPoint
 10
3121.636224986215
 20
939.6425136729705
 30
0.0
  0
POINT
  5
B070
330
9CC5
100
AcDbEntity
  8
Defpoints
  6
Continuous
 62
     0
440
 16777216
100
AcDbPoint
 10
3160.868105986216
 20
939.6425136729705
 30
0.0
  0
ENDBLK
  5
9CC7
330
9CC5
100
AcDbEntity
  8
0
100
AcDbBlockEnd
  0
BLOCK
  5
9CD2
330
9CD1
100
AcDbEntity
  8
0
100
AcDbBlockBegin
  2
*D2
 70
     1
 10
0.0
 20
0.0
 30
0.0
  3
*D2
  1

  0
LINE
  5
B071
330
9CD1
100
AcDbEntity
  8
寸法
  6
Continuous
 62
     4
440
 16777216
370
    -2
100
AcDbLine
 10
2808.787421986216
 20
772.6425136729706
 30
0.0
 11
2848.019302986216
 21
772.6425136729704
 31
0.0
  0
LINE
  5
B072
330
9CD1
100
AcDbEntity
  8
寸法
  6
Continuous
 62
     4
440
 16777216
370
    -2
100
AcDbLine
 10
2808.787421986216
 20
939.6425136729705
 30
0.0
 11
2848.019302986216
 21
939.6425136729705
 31
0.0
  0
LINE
  5
B073
330
9CD1
100
AcDbEntity
  8
寸法
  6
Continuous
 62
     4
440
 16777216
370
    -2
100
AcDbLine
 10
2848.019302986216
 20
772.6425136729704
 30
0.0
 11
2848.019302986216
 21
939.6425136729705
 31
0.0
  0
INSERT
  5
B074
330
9CD1
100
AcDbEntity
  8
寸法
  6
Continuous
 62
     4
440
 16777216
370
    -2
100
AcDbBlockReference
  2
_Small
 10
2848.019302986216
 20
772.6425136729704
 30
0.0
 41
5.0
 42
5.0
 43
5.0
 50
270.0
  0
INSERT
  5
B075
330
9CD1
100
AcDbEntity
  8
寸法
  6
Continuous
 62
     4
440
 16777216
370
    -2
100
AcDbBlockReference
  2
_Small
 10
2848.019302986216
 20
939.6425136729705
 30
0.0
 41
5.0
 42
5.0
 43
5.0
 50
90.0
  0
MTEXT
  5
B076
330
9CD1
100
AcDbEntity
  8
寸法
  6
Continuous
 62
     3
440
 16777216
100
AcDbMText
 10
2841.769302986217
 20
856.142513672971
 30
0.0
 40
6.5
 41
0.0
 71
     5
 72
     1
  1
\A1;h
  7
ACAD
 11
0.0000000000000001
 21
1.0
 31
0.0
 73
     1
 44
1.0
  0
POINT
  5
B077
330
9CD1
100
AcDbEntity
  8
Defpoints
  6
Continuous
 62
     0
440
 16777216
100
AcDbPoint
 10
2808.787421986216
 20
772.6425136729706
 30
0.0
  0
POINT
  5
B078
330
9CD1
100
AcDbEntity
  8
Defpoints
  6
Continuous
 62
     0
440
 16777216
100
AcDbPoint
 10
2808.787421986216
 20
939.6425136729705
 30
0.0
  0
POINT
  5
B079
330
9CD1
100
AcDbEntity
  8
Defpoints
  6
Continuous
 62
     0
440
 16777216
100
AcDbPoint
 10
2848.019302986216
 20
939.6425136729705
 30
0.0
  0
ENDBLK
  5
9CD3
330
9CD1
100
AcDbEntity
  8
0
100
AcDbBlockEnd
  0
BLOCK
  5
A07C
330
A07B
100
AcDbEntity
  8
0
100
AcDbBlockBegin
  2
*D3
 70
     1
 10
0.0
 20
0.0
 30
0.0
  3
*D3
  1

  0
LINE
  5
B0E6
330
A07B
100
AcDbEntity
  8
寸法
  6
Continuous
 62
     4
440
 16777216
370
    -2
100
AcDbLine
 10
3003.98530950677
 20
879.6425136729705
 30
0.0
 11
3011.435142940213
 21
879.6425136729705
 31
0.0
  0
LINE
  5
B0E7
330
A07B
100
AcDbEntity
  8
寸法
  6
Continuous
 62
     4
440
 16777216
370
    -2
100
AcDbLine
 10
3003.98530950677
 20
908.6425136729706
 30
0.0
 11
3011.435142940213
 21
908.6425136729706
 31
0.0
  0
LINE
  5
B0E8
330
A07B
100
AcDbEntity
  8
寸法
  6
Continuous
 62
     4
440
 16777216
370
    -2
100
AcDbLine
 10
3011.435142940213
 20
879.6425136729705
 30
0.0
 11
3011.435142940213
 21
908.6425136729706
 31
0.0
  0
INSERT
  5
B0E9
330
A07B
100
AcDbEntity
  8
寸法
  6
Continuous
 62
     4
440
 16777216
370
    -2
100
AcDbBlockReference
  2
_Small
 10
3011.435142940213
 20
879.6425136729705
 30
0.0
 41
5.0
 42
5.0
 43
5.0
 50
270.0
  0
INSERT
  5
B0EA
330
A07B
100
AcDbEntity
  8
寸法
  6
Continuous
 62
     4
440
 16777216
370
    -2
100
AcDbBlockReference
  2
_Small
 10
3011.435142940213
 20
908.6425136729706
 30
0.0
 41
5.0
 42
5.0
 43
5.0
 50
90.0
  0
MTEXT
  5
B0EB
330
A07B
100
AcDbEntity
  8
寸法
  6
Continuous
 62
     3
440
 16777216
100
AcDbMText
 10
3005.185142940212
 20
894.142513672971
 30
0.0
 40
6.5
 41
0.0
 71
     5
 72
     1
  1
\A1;29
  7
ACAD
 11
0.0000000000000001
 21
1.0
 31
0.0
 73
     1
 44
1.0
  0
POINT
  5
B0EC
330
A07B
100
AcDbEntity
  8
Defpoints
  6
Continuous
 62
     0
440
 16777216
100
AcDbPoint
 10
3003.98530950677
 20
879.6425136729705
 30
0.0
  0
POINT
  5
B0ED
330
A07B
100
AcDbEntity
  8
Defpoints
  6
Continuous
 62
     0
440
 16777216
100
AcDbPoint
 10
3003.98530950677
 20
908.6425136729706
 30
0.0
  0
POINT
  5
B0EE
330
A07B
100
AcDbEntity
  8
Defpoints
  6
Continuous
 62
     0
440
 16777216
100
AcDbPoint
 10
3011.435142940213
 20
908.6425136729706
 30
0.0
  0
ENDBLK
  5
A07D
330
A07B
100
AcDbEntity
  8
0
100
AcDbBlockEnd
  0
BLOCK
  5
A092
330
A091
100
AcDbEntity
  8
0
100
AcDbBlockBegin
  2
*D4
 70
     1
 10
0.0
 20
0.0
 30
0.0
  3
*D4
  1

  0
LINE
  5
B0EF
330
A091
100
AcDbEntity
  8
寸法
  6
Continuous
 62
     4
440
 16777216
370
    -2
100
AcDbLine
 10
2777.63650650677
 20
910.6425136729706
 30
0.0
 11
2785.086339940213
 21
910.6425136729706
 31
0.0
  0
LINE
  5
B0F0
330
A091
100
AcDbEntity
  8
寸法
  6
Continuous
 62
     4
440
 16777216
370
    -2
100
AcDbLine
 10
2777.63650650677
 20
939.6425136729705
 30
0.0
 11
2785.086339940213
 21
939.6425136729705
 31
0.0
  0
LINE
  5
B0F1
330
A091
100
AcDbEntity
  8
寸法
  6
Continuous
 62
     4
440
 16777216
370
    -2
100
AcDbLine
 10
2785.086339940213
 20
910.6425136729706
 30
0.0
 11
2785.086339940213
 21
939.6425136729705
 31
0.0
  0
INSERT
  5
B0F2
330
A091
100
AcDbEntity
  8
寸法
  6
Continuous
 62
     4
440
 16777216
370
    -2
100
AcDbBlockReference
  2
_Small
 10
2785.086339940213
 20
910.6425136729706
 30
0.0
 41
5.0
 42
5.0
 43
5.0
 50
270.0
  0
INSERT
  5
B0F3
330
A091
100
AcDbEntity
  8
寸法
  6
Continuous
 62
     4
440
 16777216
370
    -2
100
AcDbBlockReference
  2
_Small
 10
2785.086339940213
 20
939.6425136729705
 30
0.0
 41
5.0
 42
5.0
 43
5.0
 50
90.0
  0
MTEXT
  5
B0F4
330
A091
100
AcDbEntity
  8
寸法
  6
Continuous
 62
     3
440
 16777216
100
AcDbMText
 10
2778.836339940213
 20
925.1425136729711
 30
0.0
 40
6.5
 41
0.0
 71
     5
 72
     1
  1
\A1;29
  7
ACAD
 11
0.0000000000000001
 21
1.0
 31
0.0
 73
     1
 44
1.0
  0
POINT
  5
B0F5
330
A091
100
AcDbEntity
  8
Defpoints
  6
Continuous
 62
     0
440
 16777216
100
AcDbPoint
 10
2777.63650650677
 20
910.6425136729706
 30
0.0
  0
POINT
  5
B0F6
330
A091
100
AcDbEntity
  8
Defpoints
  6
Continuous
 62
     0
440
 16777216
100
AcDbPoint
 10
2777.63650650677
 20
939.6425136729705
 30
0.0
  0
POINT
  5
B0F7
330
A091
100
AcDbEntity
  8
Defpoints
  6
Continuous
 62
     0
440
 16777216
100
AcDbPoint
 10
2785.086339940213
 20
939.6425136729705
 30
0.0
  0
ENDBLK
  5
A093
330
A091
100
AcDbEntity
  8
0
100
AcDbBlockEnd
  0
BLOCK
  5
B054
330
B052
100
AcDbEntity
  8
0
100
AcDbBlockBegin
  2
_Small
 70
     0
 10
0.0
 20
0.0
 30
0.0
  3
_Small
  1

  0
CIRCLE
  5
B053
330
B052
100
AcDbEntity
  8
0
  6
ByBlock
 62
     0
370
    -2
100
AcDbCircle
 10
0.0
 20
0.0
 30
0.0
 40
0.25
  0
ENDBLK
  5
B055
330
B052
100
AcDbEntity
  8
0
100
AcDbBlockEnd
  0
ENDSEC
  0
SECTION
  2
ENTITIES
  0
POINT
  5
953D
330
1E
100
AcDbEntity
  8
躯体と製品
  6
Continuous
 62
     4
100
AcDbPoint
 10
2681.787421986216
 20
877.6425136729706
 30
0.0
  0
POINT
  5
953E
330
1E
100
AcDbEntity
  8
躯体と製品
  6
Continuous
 62
     4
100
AcDbPoint
 10
2681.787421986216
 20
877.6425136729706
 30
0.0
  0
POINT
  5
953F
330
1E
100
AcDbEntity
  8
躯体と製品
  6
Continuous
 62
     4
100
AcDbPoint
 10
2681.787421986216
 20
772.6425136729706
 30
0.0
  0
POINT
  5
9540
330
1E
100
AcDbEntity
  8
躯体と製品
  6
Continuous
 62
     4
100
AcDbPoint
 10
2676.587421986216
 20
780.0855916729706
 30
0.0
  0
POINT
  5
9541
330
1E
100
AcDbEntity
  8
躯体と製品
  6
Continuous
 62
     4
100
AcDbPoint
 10
2647.287421986216
 20
776.6425136729706
 30
0.0
  0
POINT
  5
9542
330
1E
100
AcDbEntity
  8
躯体と製品
  6
Continuous
 62
     4
100
AcDbPoint
 10
2716.287423986216
 20
776.6425136729706
 30
0.0
  0
TEXT
  5
9577
330
1E
100
AcDbEntity
  8
文字-記号
  6
Continuous
 62
     7
100
AcDbText
 10
2951.570715986215
 20
793.0966986729706
 30
0.0
 40
6.5
  1
支持台
 41
0.9993183021399222
100
AcDbText
  0
TEXT
  5
9578
330
1E
100
AcDbEntity
  8
文字-記号
  6
Continuous
 62
     7
100
AcDbText
 10
3032.496967986216
 20
930.4956016729706
 30
0.0
 40
6.5
  1
根太鋼
 41
1.007498246740355
100
AcDbText
  0
TEXT
  5
961C
330
1E
100
AcDbEntity
  8
文字-記号
  6
Continuous
 62
     7
100
AcDbText
 10
3046.575970986215
 20
862.6919526729706
 30
0.0
 40
6.5
  1
大引鋼
 41
0.9965916181297359
100
AcDbText
  0
TEXT
  5
961F
330
1E
100
AcDbEntity
  8
文字-記号
  6
Continuous
 62
     7
100
AcDbText
 10
2712.279614986215
 20
793.0966986729706
 30
0.0
 40
6.5
  1
支持台
 41
0.9993183021399222
100
AcDbText
  0
TEXT
  5
9622
330
1E
100
AcDbEntity
  8
文字-記号
  6
Continuous
 62
     7
100
AcDbText
 10
2601.859804982268
 20
832.7903266729705
 30
0.0
 40
6.5
  1
調整ボルト Ｍ１２
 41
0.9837445587017262
100
AcDbText
  0
TEXT
  5
9625
330
1E
100
AcDbEntity
  8
文字-記号
  6
Continuous
 62
     7
100
AcDbText
 10
2633.854162986215
 20
897.0101916729705
 30
0.0
 40
6.5
  1
大引鋼
 41
0.9965916181297359
100
AcDbText
  0
TEXT
  5
962A
330
1E
100
AcDbEntity
  8
文字-記号
  6
Continuous
 62
     7
100
AcDbText
 10
2757.154581986215
 20
893.6919526729706
 30
0.0
 40
6.5
  1
根太鋼
 41
1.007498246740355
100
AcDbText
  0
TEXT
  5
962D
330
1E
100
AcDbEntity
  8
文字-記号
  6
Continuous
 62
     7
100
AcDbText
 10
2945.161258986215
 20
832.7903266729705
 30
0.0
 40
6.5
  1
調整ボルト Ｍ１２
 41
0.9837445587017262
100
AcDbText
  0
TEXT
  5
964A
330
1E
100
AcDbEntity
  8
文字-記号
  6
Continuous
 62
     7
100
AcDbText
 10
2965.795019986214
 20
849.6919526729707
 30
0.0
 40
6.5
  1
受けプレ－ト
 41
0.9621656191870224
100
AcDbText
  0
TEXT
  5
964D
330
1E
100
AcDbEntity
  8
文字-記号
  6
Continuous
 62
     7
100
AcDbText
 10
2719.946216986216
 20
849.6919526729707
 30
0.0
 40
6.5
  1
受けプレ－ト
 41
0.9621656191870224
100
AcDbText
  0
LWPOLYLINE
  5
9A74
330
1E
100
AcDbEntity
  8
中心線
  6
CENTER1
100
AcDbPolyline
 90
        2
 70
     0
 43
0.0
 10
2681.787421986216
 20
764.2104172084343
 10
2681.787421986216
 20
920.9649374196779
  0
LWPOLYLINE
  5
9A75
330
1E
100
AcDbEntity
  8
中心線
  6
CENTER1
100
AcDbPolyline
 90
        2
 70
     0
 43
0.0
 10
2927.636224986216
 20
764.2104172084343
 10
2927.636224986216
 20
892.0908762471826
  0
DIMENSION
  5
9A7F
330
1E
100
AcDbEntity
  8
寸法
  6
Continuous
100
AcDbDimension
  2
*D1
 10
3160.868105986216
 20
939.6425136729705
 30
0.0
 11
3154.618105986216
 21
856.142513672971
 31
0.0
 70
    32
  1
h
 71
     5
 42
167.0
  3
AutoCAD
100
AcDbAlignedDimension
 13
3121.636224986215
 23
772.6425136729706
 33
0.0
 14
3121.636224986215
 24
939.6425136729705
 34
0.0
 50
90.0
100
AcDbRotatedDimension
  0
DIMENSION
  5
9A80
330
1E
100
AcDbEntity
  8
寸法
  6
Continuous
100
AcDbDimension
  2
*D2
 10
2848.019302986216
 20
939.6425136729705
 30
0.0
 11
2841.769302986217
 21
856.142513672971
 31
0.0
 70
    32
  1
h
 71
     5
 42
167.0
  3
AutoCAD
100
AcDbAlignedDimension
 13
2808.787421986216
 23
772.6425136729706
 33
0.0
 14
2808.787421986216
 24
939.6425136729705
 34
0.0
 50
90.0
100
AcDbRotatedDimension
  0
LWPOLYLINE
  5
9B48
330
1E
100
AcDbEntity
  8
躯体と製品
  6
Continuous
 62
     4
100
AcDbPolyline
 90
        2
 70
     0
 43
0.0
 10
2671.399528786295
 20
864.0404820576593
 10
2671.399528786295
 20
866.6425136729706
  0
LWPOLYLINE
  5
9B49
330
1E
100
AcDbEntity
  8
躯体と製品
  6
Continuous
 62
     4
100
AcDbPolyline
 90
        2
 70
     0
 43
0.0
 10
2692.175315186136
 20
864.0404820576595
 10
2692.175315186136
 20
866.6425136729706
  0
LWPOLYLINE
  5
9B4A
330
1E
100
AcDbEntity
  8
躯体と製品
  6
Continuous
 62
     4
100
AcDbPolyline
 90
        2
 70
     0
 43
0.0
 10
2686.981368586177
 20
866.6425136729706
 10
2686.981368586179
 20
864.0404820576568
  0
LWPOLYLINE
  5
9B4B
330
1E
100
AcDbEntity
  8
躯体と製品
  6
Continuous
 62
     4
100
AcDbPolyline
 90
        2
 70
     0
 43
0.0
 10
2676.593475386253
 20
866.6425136729706
 10
2676.593475386255
 20
864.0404820576611
  0
LWPOLYLINE
  5
9B4E
330
1E
100
AcDbEntity
  8
躯体と製品
  6
Continuous
 62
     4
100
AcDbPolyline
 90
        2
 70
     0
 43
0.0
 10
2676.59348556011
 20
853.0404786729704
 10
2673.99651226013
 20
853.0404786729704
  0
LWPOLYLINE
  5
9B51
330
1E
100
AcDbEntity
  8
躯体と製品
  6
Continuous
 62
     4
100
AcDbPolyline
 90
        2
 70
     0
 43
0.0
 10
2671.399538960149
 20
854.0404786729705
 10
2671.399538960149
 20
859.0404786729706
  0
LWPOLYLINE
  5
9B52
330
1E
100
AcDbEntity
  8
躯体と製品
  6
Continuous
 62
     4
100
AcDbPolyline
 90
        2
 70
     0
 43
0.0
 10
2692.175325359991
 20
854.0404786729707
 10
2692.175325359992
 20
859.0404786729704
  0
LWPOLYLINE
  5
9B53
330
1E
100
AcDbEntity
  8
躯体と製品
  6
Continuous
 62
     4
100
AcDbPolyline
 90
        2
 70
     0
 43
0.0
 10
2686.981378760029
 20
859.0404786729711
 10
2686.981378760034
 20
854.0404786729679
  0
LWPOLYLINE
  5
9B54
330
1E
100
AcDbEntity
  8
躯体と製品
  6
Continuous
 62
     4
100
AcDbPolyline
 90
        2
 70
     0
 43
0.0
 10
2676.593485560105
 20
859.0404786729687
 10
2676.59348556011
 20
854.0404786729723
  0
LWPOLYLINE
  5
9C7B
330
1E
100
AcDbEntity
  8
躯体と製品
  6
Continuous
 62
     4
100
AcDbPolyline
 90
        2
 70
     0
 43
0.0
 10
2650.087421986216
 20
881.8915136729755
 10
2650.087421986216
 20
881.4425136729822
  0
LWPOLYLINE
  5
9C7C
330
1E
100
AcDbEntity
  8
躯体と製品
  6
Continuous
 62
     4
100
AcDbPolyline
 90
        2
 70
     0
 43
0.0
 10
2658.087421986216
 20
881.8915136729755
 10
2658.087421986216
 20
881.4425136729822
  0
LWPOLYLINE
  5
9C7D
330
1E
100
AcDbEntity
  8
躯体と製品
  6
Continuous
 62
     4
100
AcDbPolyline
 90
        2
 70
     0
 43
0.0
 10
2650.287421986198
 20
881.2425136729705
 10
2654.087421986216
 20
881.2425136729705
  0
LWPOLYLINE
  5
9C7E
330
1E
100
AcDbEntity
  8
躯体と製品
  6
Continuous
 62
     4
100
AcDbPolyline
 90
        2
 70
     0
 43
0.0
 10
2658.087421986216
 20
881.4425136520274
 42
-0.41421351636737
 10
2657.887421996682
 20
881.2425136729705
  0
LWPOLYLINE
  5
9C7F
330
1E
100
AcDbEntity
  8
躯体と製品
  6
Continuous
 62
     4
100
AcDbPolyline
 90
        2
 70
     0
 43
0.0
 10
2657.887421986204
 20
881.2425136729705
 10
2654.087421986216
 20
881.2425136729705
  0
LWPOLYLINE
  5
9C80
330
1E
100
AcDbEntity
  8
躯体と製品
  6
Continuous
 62
     4
100
AcDbPolyline
 90
        2
 70
     0
 43
0.0
 10
2650.287421996676
 20
881.2425136729705
 42
-0.4142135777083371
 10
2650.087421986187
 20
881.4425136729822
  0
LWPOLYLINE
  5
9C81
330
1E
100
AcDbEntity
  8
躯体と製品
  6
Continuous
 62
     4
100
AcDbPolyline
 90
        2
 70
     0
 43
0.0
 10
2650.322421986202
 20
883.042513672988
 10
2654.087421986216
 20
883.042513672988
  0
LWPOLYLINE
  5
9C82
330
1E
100
AcDbEntity
  8
躯体と製品
  6
Continuous
 62
     4
100
AcDbPolyline
 90
        2
 70
     0
 43
0.0
 10
2650.322872857039
 20
883.0420112131958
 42
-0.2144073790574085
 10
2654.087405819562
 20
884.2423701543282
  0
LWPOLYLINE
  5
9C83
330
1E
100
AcDbEntity
  8
躯体と製品
  6
Continuous
 62
     4
100
AcDbPolyline
 90
        2
 70
     0
 43
0.0
 10
2657.852421986201
 20
883.042513672988
 10
2658.087421986216
 20
881.8915136729755
  0
LWPOLYLINE
  5
9C84
330
1E
100
AcDbEntity
  8
躯体と製品
  6
Continuous
 62
     4
100
AcDbPolyline
 90
        2
 70
     0
 43
0.0
 10
2654.087438570801
 20
884.2423702020877
 42
-0.2144073836089342
 10
2657.851971491007
 20
883.042010876348
  0
LWPOLYLINE
  5
9C85
330
1E
100
AcDbEntity
  8
躯体と製品
  6
Continuous
 62
     4
100
AcDbPolyline
 90
        2
 70
     0
 43
0.0
 10
2657.852421986201
 20
883.042513672988
 10
2654.087421986216
 20
883.042513672988
  0
LWPOLYLINE
  5
9C86
330
1E
100
AcDbEntity
  8
躯体と製品
  6
Continuous
 62
     4
100
AcDbPolyline
 90
        2
 70
     0
 43
0.0
 10
2650.322421986202
 20
883.042513672988
 10
2650.087421986216
 20
881.8915136729755
  0
LWPOLYLINE
  5
9C88
330
1E
100
AcDbEntity
  8
躯体と製品
  6
Continuous
 62
     4
100
AcDbPolyline
 90
        2
 70
     0
 43
0.0
 10
2705.487421986215
 20
881.8915136729755
 10
2705.487421986215
 20
881.4425136729822
  0
LWPOLYLINE
  5
9C89
330
1E
100
AcDbEntity
  8
躯体と製品
  6
Continuous
 62
     4
100
AcDbPolyline
 90
        2
 70
     0
 43
0.0
 10
2713.487421986215
 20
881.8915136729755
 10
2713.487421986215
 20
881.4425136729822
  0
LWPOLYLINE
  5
9C8A
330
1E
100
AcDbEntity
  8
躯体と製品
  6
Continuous
 62
     4
100
AcDbPolyline
 90
        2
 70
     0
 43
0.0
 10
2705.687421986198
 20
881.2425136729705
 10
2709.487421986216
 20
881.2425136729705
  0
LWPOLYLINE
  5
9C8B
330
1E
100
AcDbEntity
  8
躯体と製品
  6
Continuous
 62
     4
100
AcDbPolyline
 90
        2
 70
     0
 43
0.0
 10
2713.487421986215
 20
881.4425136520274
 42
-0.41421351636737
 10
2713.287421996681
 20
881.2425136729705
  0
LWPOLYLINE
  5
9C8C
330
1E
100
AcDbEntity
  8
躯体と製品
  6
Continuous
 62
     4
100
AcDbPolyline
 90
        2
 70
     0
 43
0.0
 10
2713.287421986204
 20
881.2425136729705
 10
2709.487421986216
 20
881.2425136729705
  0
LWPOLYLINE
  5
9C8D
330
1E
100
AcDbEntity
  8
躯体と製品
  6
Continuous
 62
     4
100
AcDbPolyline
 90
        2
 70
     0
 43
0.0
 10
2705.687421996676
 20
881.2425136729705
 42
-0.4142135777083371
 10
2705.487421986186
 20
881.4425136729822
  0
LWPOLYLINE
  5
9C8E
330
1E
100
AcDbEntity
  8
躯体と製品
  6
Continuous
 62
     4
100
AcDbPolyline
 90
        2
 70
     0
 43
0.0
 10
2705.722421986202
 20
883.042513672988
 10
2709.487421986216
 20
883.042513672988
  0
LWPOLYLINE
  5
9C8F
330
1E
100
AcDbEntity
  8
躯体と製品
  6
Continuous
 62
     4
100
AcDbPolyline
 90
        2
 70
     0
 43
0.0
 10
2705.722872857039
 20
883.0420112131958
 42
-0.2144073790574085
 10
2709.487405819562
 20
884.2423701543282
  0
LWPOLYLINE
  5
9C90
330
1E
100
AcDbEntity
  8
躯体と製品
  6
Continuous
 62
     4
100
AcDbPolyline
 90
        2
 70
     0
 43
0.0
 10
2713.2524219862
 20
883.042513672988
 10
2713.487421986215
 20
881.8915136729755
  0
LWPOLYLINE
  5
9C91
330
1E
100
AcDbEntity
  8
躯体と製品
  6
Continuous
 62
     4
100
AcDbPolyline
 90
        2
 70
     0
 43
0.0
 10
2709.4874385708
 20
884.2423702020877
 42
-0.2144073836089342
 10
2713.251971491006
 20
883.042010876348
  0
LWPOLYLINE
  5
9C92
330
1E
100
AcDbEntity
  8
躯体と製品
  6
Continuous
 62
     4
100
AcDbPolyline
 90
        2
 70
     0
 43
0.0
 10
2713.2524219862
 20
883.042513672988
 10
2709.487421986216
 20
883.042513672988
  0
LWPOLYLINE
  5
9C93
330
1E
100
AcDbEntity
  8
躯体と製品
  6
Continuous
 62
     4
100
AcDbPolyline
 90
        2
 70
     0
 43
0.0
 10
2705.722421986202
 20
883.042513672988
 10
2705.487421986215
 20
881.8915136729755
  0
POINT
  5
9C94
330
1E
100
AcDbEntity
  8
躯体と製品
  6
Continuous
 62
     4
100
AcDbPoint
 10
2927.636224986216
 20
772.6425136729706
 30
0.0
  0
POINT
  5
9C95
330
1E
100
AcDbEntity
  8
躯体と製品
  6
Continuous
 62
     4
100
AcDbPoint
 10
2922.436224986215
 20
780.0855906729704
 30
0.0
  0
POINT
  5
9CA5
330
1E
100
AcDbEntity
  8
躯体と製品
  6
Continuous
 62
     4
100
AcDbPoint
 10
2914.636224986216
 20
776.6425136729706
 30
0.0
  0
POINT
  5
9CA7
330
1E
100
AcDbEntity
  8
躯体と製品
  6
Continuous
 62
     4
100
AcDbPoint
 10
2914.636224591456
 20
776.6425136729706
 30
0.0
 50
180.000011309032
  0
POINT
  5
9CA9
330
1E
100
AcDbEntity
  8
躯体と製品
  6
Continuous
 62
     4
100
AcDbPoint
 10
2940.636224986216
 20
776.6425136729706
 30
0.0
 50
180.0
  0
POINT
  5
9CAB
330
1E
100
AcDbEntity
  8
躯体と製品
  6
Continuous
 62
     4
100
AcDbPoint
 10
2940.636225380976
 20
776.6425136729706
 30
0.0
 50
359.999988690968
  0
LWPOLYLINE
  5
9F8C
330
1E
100
AcDbEntity
  8
躯体と製品
  6
Continuous
 62
     4
100
AcDbPolyline
 90
        2
 70
     0
 43
0.0
 10
2927.636224986215
 20
859.0428975672256
 10
2927.636224986215
 20
854.0405030576634
  0
LWPOLYLINE
  5
9F8D
330
1E
100
AcDbEntity
  8
躯体と製品
  6
Continuous
 62
     4
100
AcDbPolyline
 90
        2
 70
     0
 43
0.0
 10
2936.632404389146
 20
854.0405030576632
 10
2936.632404389151
 20
859.0404994423488
  0
LWPOLYLINE
  5
9F8E
330
1E
100
AcDbEntity
  8
躯体と製品
  6
Continuous
 62
     4
100
AcDbPolyline
 90
        2
 70
     0
 43
0.0
 10
2918.640045583283
 20
854.0405030576637
 10
2918.640045583289
 20
859.0404994423488
  0
LWPOLYLINE
  5
9F8F
330
1E
100
AcDbEntity
  8
躯体と製品
  6
Continuous
 62
     4
100
AcDbPolyline
 90
        2
 70
     0
 43
0.0
 10
2923.13813528475
 20
853.0405030576616
 10
2932.134314687682
 20
853.0405030576616
  0
LWPOLYLINE
  5
9F94
330
1E
100
AcDbEntity
  8
躯体と製品
  6
Continuous
 62
     4
100
AcDbPolyline
 90
        2
 70
     0
 43
0.0
 10
2927.636224986216
 20
866.6425136729706
 10
2927.636224986215
 20
864.0404820576614
  0
LWPOLYLINE
  5
9F95
330
1E
100
AcDbEntity
  8
躯体と製品
  6
Continuous
 62
     4
100
AcDbPolyline
 90
        2
 70
     0
 43
0.0
 10
2936.632404389146
 20
864.0404820576611
 10
2936.632404389149
 20
866.6425136729706
  0
LWPOLYLINE
  5
9F96
330
1E
100
AcDbEntity
  8
躯体と製品
  6
Continuous
 62
     4
100
AcDbPolyline
 90
        2
 70
     0
 43
0.0
 10
2918.640045583283
 20
864.0404820576616
 10
2918.640045583286
 20
866.6425136729706
  0
DIMENSION
  5
A07A
330
1E
100
AcDbEntity
  8
寸法
  6
Continuous
100
AcDbDimension
  2
*D3
 10
3011.435142940213
 20
908.6425136729706
 30
0.0
 11
3005.185142940212
 21
894.142513672971
 31
0.0
 70
    32
 71
     5
 42
29.0
  3
AutoCAD
100
AcDbAlignedDimension
 13
3003.98530950677
 23
879.6425136729705
 33
0.0
 14
3003.98530950677
 24
908.6425136729706
 34
0.0
 50
90.0
100
AcDbRotatedDimension
  0
DIMENSION
  5
A090
330
1E
100
AcDbEntity
  8
寸法
  6
Continuous
100
AcDbDimension
  2
*D4
 10
2785.086339940213
 20
939.6425136729705
 30
0.0
 11
2778.836339940213
 21
925.1425136729711
 31
0.0
 70
    32
 71
     5
 42
29.0
  3
AutoCAD
100
AcDbAlignedDimension
 13
2777.63650650677
 23
910.6425136729706
 33
0.0
 14
2777.63650650677
 24
939.6425136729705
 34
0.0
 50
90.0
100
AcDbRotatedDimension
  0
LWPOLYLINE
  5
A463
330
1E
100
AcDbEntity
  8
躯体と製品
  6
Continuous
 62
     4
100
AcDbPolyline
 90
       13
 70
     0
 43
0.0
 10
3043.636224986216
 20
908.6425136729706
 10
3111.636224986216
 20
908.6425136729706
 10
3111.636224986216
 20
915.6425136729707
 10
3106.636224986216
 20
915.6425136729707
 10
3106.636224986216
 20
913.6425136729705
 10
3109.636224986216
 20
913.6425136729705
 10
3109.636224986216
 20
910.6425136729706
 10
3045.636224986216
 20
910.6425136729706
 10
3045.636224986216
 20
913.6425136729705
 10
3048.636224986216
 20
913.6425136729705
 10
3048.636224986216
 20
915.6425136729707
 10
3043.636224986216
 20
915.6425136729707
 10
3043.636224986216
 20
908.6425136729706
  0
LWPOLYLINE
  5
A464
330
1E
100
AcDbEntity
  8
躯体と製品
  6
Continuous
 62
     4
100
AcDbPolyline
 90
       28
 70
     1
 43
0.0
 10
3093.436224986216
 20
939.6425136729703
 42
-0.4142135623730951
 10
3095.136224986215
 20
937.9425136729704
 10
3095.136224986215
 20
912.3425136729704
 42
0.4142135623730951
 10
3095.636224986216
 20
911.8425136729705
 10
3107.936224986216
 20
911.8425136729705
 42
0.4142135623730951
 10
3108.436224986216
 20
912.3425136729704
 10
3108.436224986216
 20
913.6425136729705
 10
3109.636224986216
 20
913.6425136729705
 10
3109.636224986216
 20
912.3425136729704
 42
-0.4142135623730951
 10
3107.936224986216
 20
910.6425136729706
 10
3095.636224986216
 20
910.6425136729706
 42
-0.4142135623730951
 10
3093.936224986216
 20
912.3425136729704
 10
3093.936224986216
 20
937.9425136729704
 42
0.4142135623730951
 10
3093.436224986216
 20
938.4425136729703
 10
3061.836224986216
 20
938.4425136729703
 42
0.4142135623730951
 10
3061.336224986216
 20
937.9425136729704
 10
3061.336224986216
 20
912.3425136729704
 42
-0.4142135623730951
 10
3059.636224986216
 20
910.6425136729706
 10
3047.336224986216
 20
910.6425136729706
 42
-0.4142135623730951
 10
3045.636224986216
 20
912.3425136729704
 10
3045.636224986216
 20
913.6425136729705
 10
3046.836224986216
 20
913.6425136729705
 10
3046.836224986216
 20
912.3425136729704
 42
0.4142135623730951
 10
3047.336224986216
 20
911.8425136729705
 10
3059.636224986216
 20
911.8425136729705
 42
0.4142135623730951
 10
3060.136224986216
 20
912.3425136729704
 10
3060.136224986216
 20
937.9425136729704
 42
-0.4142135623730951
 10
3061.836224986216
 20
939.6425136729703
  0
LWPOLYLINE
  5
A465
330
1E
100
AcDbEntity
  8
躯体と製品
  6
Continuous
 62
     4
100
AcDbPolyline
 90
        2
 70
     0
 43
0.0
 10
3056.837224986198
 20
912.4915136729752
 10
3056.837224986198
 20
912.0425136729821
  0
LWPOLYLINE
  5
A466
330
1E
100
AcDbEntity
  8
躯体と製品
  6
Continuous
 62
     4
100
AcDbPolyline
 90
        2
 70
     0
 43
0.0
 10
3048.837224986198
 20
912.4915136729752
 10
3048.837224986198
 20
912.0425136729821
  0
LWPOLYLINE
  5
A467
330
1E
100
AcDbEntity
  8
躯体と製品
  6
Continuous
 62
     4
100
AcDbPolyline
 90
        2
 70
     0
 43
0.0
 10
3056.637224986216
 20
911.8425136729705
 10
3052.837224986198
 20
911.8425136729705
  0
LWPOLYLINE
  5
A468
330
1E
100
AcDbEntity
  8
躯体と製品
  6
Continuous
 62
     4
100
AcDbPolyline
 90
        2
 70
     0
 43
0.0
 10
3048.837224986198
 20
912.0425136520273
 42
0.41421351636737
 10
3049.037224975732
 20
911.8425136729705
  0
LWPOLYLINE
  5
A469
330
1E
100
AcDbEntity
  8
躯体と製品
  6
Continuous
 62
     4
100
AcDbPolyline
 90
        2
 70
     0
 43
0.0
 10
3049.03722498621
 20
911.8425136729705
 10
3052.837224986198
 20
911.8425136729705
  0
LWPOLYLINE
  5
A46A
330
1E
100
AcDbEntity
  8
躯体と製品
  6
Continuous
 62
     4
100
AcDbPolyline
 90
        2
 70
     0
 43
0.0
 10
3056.637224975738
 20
911.8425136729705
 42
0.4142135777083371
 10
3056.837224986228
 20
912.0425136729821
  0
LWPOLYLINE
  5
A46B
330
1E
100
AcDbEntity
  8
躯体と製品
  6
Continuous
 62
     4
100
AcDbPolyline
 90
        2
 70
     0
 43
0.0
 10
3056.602224986213
 20
913.6425136729879
 10
3052.837224986198
 20
913.6425136729879
  0
LWPOLYLINE
  5
A46C
330
1E
100
AcDbEntity
  8
躯体と製品
  6
Continuous
 62
     4
100
AcDbPolyline
 90
        2
 70
     0
 43
0.0
 10
3056.601774115375
 20
913.6420112131956
 42
0.2144073790574085
 10
3052.837241152853
 20
914.8423701543281
  0
LWPOLYLINE
  5
A46D
330
1E
100
AcDbEntity
  8
躯体と製品
  6
Continuous
 62
     4
100
AcDbPolyline
 90
        2
 70
     0
 43
0.0
 10
3049.072224986213
 20
913.6425136729879
 10
3048.837224986198
 20
912.4915136729752
  0
LWPOLYLINE
  5
A46E
330
1E
100
AcDbEntity
  8
躯体と製品
  6
Continuous
 62
     4
100
AcDbPolyline
 90
        2
 70
     0
 43
0.0
 10
3052.837208401613
 20
914.8423702020876
 42
0.2144073836089342
 10
3049.072675481407
 20
913.6420108763479
  0
LWPOLYLINE
  5
A46F
330
1E
100
AcDbEntity
  8
躯体と製品
  6
Continuous
 62
     4
100
AcDbPolyline
 90
        2
 70
     0
 43
0.0
 10
3049.072224986213
 20
913.6425136729879
 10
3052.837224986198
 20
913.6425136729879
  0
LWPOLYLINE
  5
A470
330
1E
100
AcDbEntity
  8
躯体と製品
  6
Continuous
 62
     4
100
AcDbPolyline
 90
        2
 70
     0
 43
0.0
 10
3056.602224986213
 20
913.6425136729879
 10
3056.837224986198
 20
912.4915136729752
  0
LWPOLYLINE
  5
A471
330
1E
100
AcDbEntity
  8
躯体と製品
  6
Continuous
 62
     4
100
AcDbPolyline
 90
        2
 70
     0
 43
0.0
 10
3106.437224986204
 20
912.4915136729752
 10
3106.437224986204
 20
912.0425136729821
  0
LWPOLYLINE
  5
A472
330
1E
100
AcDbEntity
  8
躯体と製品
  6
Continuous
 62
     4
100
AcDbPolyline
 90
        2
 70
     0
 43
0.0
 10
3098.437224986204
 20
912.4915136729752
 10
3098.437224986204
 20
912.0425136729821
  0
LWPOLYLINE
  5
A473
330
1E
100
AcDbEntity
  8
躯体と製品
  6
Continuous
 62
     4
100
AcDbPolyline
 90
        2
 70
     0
 43
0.0
 10
3106.237224986192
 20
911.8425136729705
 10
3102.437224986204
 20
911.8425136729705
  0
LWPOLYLINE
  5
A474
330
1E
100
AcDbEntity
  8
躯体と製品
  6
Continuous
 62
     4
100
AcDbPolyline
 90
        2
 70
     0
 43
0.0
 10
3098.437224986204
 20
912.0425136520273
 42
0.41421351636737
 10
3098.637224975739
 20
911.8425136729705
  0
LWPOLYLINE
  5
A475
330
1E
100
AcDbEntity
  8
躯体と製品
  6
Continuous
 62
     4
100
AcDbPolyline
 90
        2
 70
     0
 43
0.0
 10
3098.637224986216
 20
911.8425136729705
 10
3102.437224986204
 20
911.8425136729705
  0
LWPOLYLINE
  5
A476
330
1E
100
AcDbEntity
  8
躯体と製品
  6
Continuous
 62
     4
100
AcDbPolyline
 90
        2
 70
     0
 43
0.0
 10
3106.237224975715
 20
911.8425136729705
 42
0.4142135777083371
 10
3106.437224986204
 20
912.0425136729821
  0
LWPOLYLINE
  5
A477
330
1E
100
AcDbEntity
  8
躯体と製品
  6
Continuous
 62
     4
100
AcDbPolyline
 90
        2
 70
     0
 43
0.0
 10
3106.202224986218
 20
913.6425136729879
 10
3102.437224986204
 20
913.6425136729879
  0
LWPOLYLINE
  5
A478
330
1E
100
AcDbEntity
  8
躯体と製品
  6
Continuous
 62
     4
100
AcDbPolyline
 90
        2
 70
     0
 43
0.0
 10
3106.201774115381
 20
913.6420112131956
 42
0.2144073790574085
 10
3102.437241152858
 20
914.8423701543281
  0
LWPOLYLINE
  5
A479
330
1E
100
AcDbEntity
  8
躯体と製品
  6
Continuous
 62
     4
100
AcDbPolyline
 90
        2
 70
     0
 43
0.0
 10
3098.67222498619
 20
913.6425136729879
 10
3098.437224986204
 20
912.4915136729752
  0
LWPOLYLINE
  5
A47A
330
1E
100
AcDbEntity
  8
躯体と製品
  6
Continuous
 62
     4
100
AcDbPolyline
 90
        2
 70
     0
 43
0.0
 10
3102.43720840159
 20
914.8423702020876
 42
0.2144073836089342
 10
3098.672675481384
 20
913.6420108763479
  0
LWPOLYLINE
  5
A47B
330
1E
100
AcDbEntity
  8
躯体と製品
  6
Continuous
 62
     4
100
AcDbPolyline
 90
        2
 70
     0
 43
0.0
 10
3098.67222498619
 20
913.6425136729879
 10
3102.437224986204
 20
913.6425136729879
  0
LWPOLYLINE
  5
A47C
330
1E
100
AcDbEntity
  8
躯体と製品
  6
Continuous
 62
     4
100
AcDbPolyline
 90
        2
 70
     0
 43
0.0
 10
3106.202224986218
 20
913.6425136729879
 10
3106.437224986204
 20
912.4915136729752
  0
LWPOLYLINE
  5
A61A
330
1E
100
AcDbEntity
  8
文字-記号
  6
Continuous
 62
     7
100
AcDbPolyline
 90
        3
 70
     0
 43
0.0
 10
2706.506470986216
 20
866.6425136729706
 10
2717.672422986215
 20
847.3025176729706
 10
2763.676532940981
 20
847.3025176729706
  0
LWPOLYLINE
  5
A61C
330
1E
100
AcDbEntity
  8
文字-記号
  6
Continuous
 62
     7
100
AcDbPolyline
 90
        3
 70
     0
 43
0.0
 10
2952.355273986214
 20
866.6425136729706
 10
2963.521225986216
 20
847.3025176729706
 10
3008.425795860377
 20
847.3025176729706
  0
LWPOLYLINE
  5
A62E
330
1E
100
AcDbEntity
  8
文字-記号
  6
Continuous
 62
     7
100
AcDbPolyline
 90
        3
 70
     0
 43
0.0
 10
2933.636224986215
 20
814.8414966729706
 10
2942.524393986215
 20
830.2362566729707
 10
3010.341237394805
 20
830.2362566729707
  0
LWPOLYLINE
  5
A630
330
1E
100
AcDbEntity
  8
文字-記号
  6
Continuous
 62
     7
100
AcDbPolyline
 90
        3
 70
     0
 43
0.0
 10
2743.714835986215
 20
910.6425136729706
 10
2754.880787986215
 20
891.3025176729705
 10
2781.084964986215
 20
891.3025176729705
  0
LWPOLYLINE
  5
A632
330
1E
100
AcDbEntity
  8
文字-記号
  6
Continuous
 62
     7
100
AcDbPolyline
 90
        3
 70
     0
 43
0.0
 10
3060.138224986216
 20
920.3282616729707
 10
3054.915915986215
 20
928.1061676729706
 10
3029.682900986215
 20
928.1061676729706
  0
LWPOLYLINE
  5
A634
330
1E
100
AcDbEntity
  8
文字-記号
  6
Continuous
 62
     7
100
AcDbPolyline
 90
        3
 70
     0
 43
0.0
 10
2661.787421986215
 20
887.6875726729705
 10
2657.784545986216
 20
894.6207566729706
 10
2632.467333986216
 20
894.6207566729706
  0
LWPOLYLINE
  5
A636
330
1E
100
AcDbEntity
  8
文字-記号
  6
Continuous
 62
     7
100
AcDbPolyline
 90
        3
 70
     0
 43
0.0
 10
2675.787421986215
 20
814.8414966729706
 10
2666.899252986214
 20
830.2362566729707
 10
2599.778988497166
 20
830.2362566729707
  0
LWPOLYLINE
  5
A638
330
1E
100
AcDbEntity
  8
文字-記号
  6
Continuous
 62
     7
100
AcDbPolyline
 90
        3
 70
     0
 43
0.0
 10
2701.521374986215
 20
776.6530196729705
 10
2709.365006986215
 20
790.1061216729706
 10
2735.153217986215
 20
790.1061216729706
  0
LWPOLYLINE
  5
A63A
330
1E
100
AcDbEntity
  8
文字-記号
  6
Continuous
 62
     7
100
AcDbPolyline
 90
        3
 70
     0
 43
0.0
 10
3033.136224986215
 20
879.6425136729705
 10
3044.302176986215
 20
860.3025176729707
 10
3070.506353986215
 20
860.3025176729707
  0
LWPOLYLINE
  5
A63C
330
1E
100
AcDbEntity
  8
文字-記号
  6
Continuous
 62
     7
100
AcDbPolyline
 90
        3
 70
     0
 43
0.0
 10
2940.812474986215
 20
776.6530196729705
 10
2948.656106986216
 20
790.1061216729706
 10
2974.444318986215
 20
790.1061216729706
  0
LWPOLYLINE
  5
A664
330
1E
100
AcDbEntity
  8
躯体と製品
  6
Continuous
 62
     4
100
AcDbPolyline
 90
        2
 70
     0
 43
0.0
 10
2927.63622498622
 20
864.0404820576595
 42
0.2223165980160384
 10
2936.632404389142
 20
864.0404820576595
  0
LWPOLYLINE
  5
A665
330
1E
100
AcDbEntity
  8
躯体と製品
  6
Continuous
 62
     4
100
AcDbPolyline
 90
        2
 70
     0
 43
0.0
 10
2918.640045583289
 20
864.0404820576595
 42
0.2223165980160384
 10
2927.636224986211
 20
864.0404820576595
  0
LWPOLYLINE
  5
A666
330
1E
100
AcDbEntity
  8
躯体と製品
  6
Continuous
 62
     4
100
AcDbPolyline
 90
        2
 70
     0
 43
0.0
 10
2936.632404389161
 20
859.0404750576507
 42
0.2223165980170796
 10
2927.636224986201
 20
859.0404750576507
  0
LWPOLYLINE
  5
A667
330
1E
100
AcDbEntity
  8
躯体と製品
  6
Continuous
 62
     4
100
AcDbPolyline
 90
        2
 70
     0
 43
0.0
 10
2927.63622498623
 20
859.0404750576507
 42
0.2223165980170796
 10
2918.64004558327
 20
859.0404750576507
  0
LWPOLYLINE
  5
A668
330
1E
100
AcDbEntity
  8
躯体と製品
  6
Continuous
 62
     4
100
AcDbPolyline
 90
        2
 70
     0
 43
0.0
 10
2927.63622498622
 20
854.0405030576616
 42
0.2223165980160384
 10
2936.632404389142
 20
854.0405030576616
  0
LWPOLYLINE
  5
A669
330
1E
100
AcDbEntity
  8
躯体と製品
  6
Continuous
 62
     4
100
AcDbPolyline
 90
        2
 70
     0
 43
0.0
 10
2918.640045583289
 20
854.0405030576616
 42
0.2223165980160384
 10
2927.636224986211
 20
854.0405030576616
  0
LWPOLYLINE
  5
A66A
330
1E
100
AcDbEntity
  8
躯体と製品
  6
Continuous
 62
     4
100
AcDbPolyline
 90
        2
 70
     0
 43
0.0
 10
2916.886226486216
 20
863.0404820576595
 10
2916.886226486216
 20
860.0404750576595
  0
LWPOLYLINE
  5
A66B
330
1E
100
AcDbEntity
  8
躯体と製品
  6
Continuous
 62
     4
100
AcDbPolyline
 90
        2
 70
     0
 43
0.0
 10
2938.386223486215
 20
863.0404820576595
 10
2916.886226486216
 20
863.0404820576595
  0
LWPOLYLINE
  5
A66C
330
1E
100
AcDbEntity
  8
躯体と製品
  6
Continuous
 62
     4
100
AcDbPolyline
 90
        2
 70
     0
 43
0.0
 10
2938.386223486215
 20
860.0404750576595
 10
2938.386223486215
 20
863.0404820576595
  0
LWPOLYLINE
  5
A66D
330
1E
100
AcDbEntity
  8
躯体と製品
  6
Continuous
 62
     4
100
AcDbPolyline
 90
        2
 70
     0
 43
0.0
 10
2916.886226486216
 20
860.0404750576595
 10
2938.386223486215
 20
860.0404750576595
  0
LWPOLYLINE
  5
A6B6
330
1E
100
AcDbEntity
  8
躯体と製品
  6
Continuous
 62
     4
100
AcDbPolyline
 90
        2
 70
     0
 43
0.0
 10
2940.636225183594
 20
776.6425096729705
 42
0.2499999717130531
 10
2936.88622514415
 20
774.6425106485749
  0
LWPOLYLINE
  5
A6B7
330
1E
100
AcDbEntity
  8
躯体と製品
  6
Continuous
 62
     4
100
AcDbPolyline
 90
        2
 70
     0
 43
0.0
 10
2944.386224828281
 20
774.6425099084015
 42
0.2499999717130966
 10
2940.636225183595
 20
776.6425096729705
  0
LWPOLYLINE
  5
A6B8
330
1E
100
AcDbEntity
  8
躯体と製品
  6
Continuous
 62
     4
100
AcDbPolyline
 90
        2
 70
     0
 43
0.0
 10
2918.386224828282
 20
774.6425106485749
 42
0.2499999717130531
 10
2914.636224788837
 20
776.6425096729705
  0
LWPOLYLINE
  5
A6B9
330
1E
100
AcDbEntity
  8
躯体と製品
  6
Continuous
 62
     4
100
AcDbPolyline
 90
        2
 70
     0
 43
0.0
 10
2914.636224788836
 20
776.6425096729705
 42
0.2499999717130966
 10
2910.88622514415
 20
774.6425099084015
  0
LWPOLYLINE
  5
A6BA
330
1E
100
AcDbEntity
  8
躯体と製品
  6
Continuous
 62
     4
100
AcDbPolyline
 90
        2
 70
     0
 43
0.0
 10
2932.836224986215
 20
780.0855906729704
 10
2936.886224986216
 20
777.8425146729705
  0
LWPOLYLINE
  5
A6BB
330
1E
100
AcDbEntity
  8
躯体と製品
  6
Continuous
 62
     4
100
AcDbPolyline
 90
        2
 70
     0
 43
0.0
 10
2927.636224986216
 20
772.6425136729706
 10
2952.636224986216
 20
772.6425136729706
  0
LWPOLYLINE
  5
A6BC
330
1E
100
AcDbEntity
  8
躯体と製品
  6
Continuous
 62
     4
100
AcDbPolyline
 90
        2
 70
     0
 43
0.0
 10
2914.636224986216
 20
776.6425136729706
 10
2940.636225380976
 20
776.6425136729706
  0
LWPOLYLINE
  5
A6BD
330
1E
100
AcDbEntity
  8
躯体と製品
  6
Continuous
 62
     4
100
AcDbPolyline
 90
        2
 70
     0
 43
0.0
 10
2927.636224986216
 20
774.6425136729706
 10
2952.636224986216
 20
774.6425136729706
  0
LWPOLYLINE
  5
A6BE
330
1E
100
AcDbEntity
  8
躯体と製品
  6
Continuous
 62
     4
100
AcDbPolyline
 90
        2
 70
     0
 43
0.0
 10
2932.836224986215
 20
780.0855906729704
 10
2927.636224986216
 20
780.0855906729704
  0
LWPOLYLINE
  5
A6BF
330
1E
100
AcDbEntity
  8
躯体と製品
  6
Continuous
 62
     4
100
AcDbPolyline
 90
        2
 70
     0
 43
0.0
 10
2952.636224986216
 20
774.6425136729706
 10
2952.636224986216
 20
772.6425136729706
  0
LWPOLYLINE
  5
A6C0
330
1E
100
AcDbEntity
  8
躯体と製品
  6
Continuous
 62
     4
100
AcDbPolyline
 90
        2
 70
     0
 43
0.0
 10
2936.886224986216
 20
777.8425146729705
 10
2927.636224986216
 20
777.8425146729705
  0
LWPOLYLINE
  5
A6C1
330
1E
100
AcDbEntity
  8
躯体と製品
  6
Continuous
 62
     4
100
AcDbPolyline
 90
        2
 70
     0
 43
0.0
 10
2936.886224986216
 20
777.8425146729705
 10
2936.886224986216
 20
776.6425136729706
  0
LWPOLYLINE
  5
A6C2
330
1E
100
AcDbEntity
  8
躯体と製品
  6
Continuous
 62
     4
100
AcDbPolyline
 90
        2
 70
     0
 43
0.0
 10
2902.636224986216
 20
774.6425136729706
 10
2902.636224986216
 20
772.6425136729706
  0
LWPOLYLINE
  5
A6C3
330
1E
100
AcDbEntity
  8
躯体と製品
  6
Continuous
 62
     4
100
AcDbPolyline
 90
        2
 70
     0
 43
0.0
 10
2922.436224986215
 20
780.0855906729704
 10
2927.636224986216
 20
780.0855906729704
  0
LWPOLYLINE
  5
A6C4
330
1E
100
AcDbEntity
  8
躯体と製品
  6
Continuous
 62
     4
100
AcDbPolyline
 90
        2
 70
     0
 43
0.0
 10
2927.636224986216
 20
774.6425136729706
 10
2902.636224986216
 20
774.6425136729706
  0
LWPOLYLINE
  5
A6C5
330
1E
100
AcDbEntity
  8
躯体と製品
  6
Continuous
 62
     4
100
AcDbPolyline
 90
        2
 70
     0
 43
0.0
 10
2927.636224986216
 20
772.6425136729706
 10
2902.636224986216
 20
772.6425136729706
  0
LWPOLYLINE
  5
A6C6
330
1E
100
AcDbEntity
  8
躯体と製品
  6
Continuous
 62
     4
100
AcDbPolyline
 90
        2
 70
     0
 43
0.0
 10
2922.436224986215
 20
780.0855906729704
 10
2918.386224986216
 20
777.8425146729705
  0
LWPOLYLINE
  5
A6C7
330
1E
100
AcDbEntity
  8
躯体と製品
  6
Continuous
 62
     4
100
AcDbPolyline
 90
        2
 70
     0
 43
0.0
 10
2918.386224986216
 20
777.8425146729705
 10
2927.636224986216
 20
777.8425146729705
  0
LWPOLYLINE
  5
A6C8
330
1E
100
AcDbEntity
  8
躯体と製品
  6
Continuous
 62
     4
100
AcDbPolyline
 90
        2
 70
     0
 43
0.0
 10
2918.386224986216
 20
777.8425146729705
 10
2918.386224986216
 20
776.6425136729706
  0
LWPOLYLINE
  5
A6ED
330
1E
100
AcDbEntity
  8
躯体と製品
  6
Continuous
 62
     4
100
AcDbPolyline
 90
        2
 70
     0
 43
0.0
 10
2683.519477486508
 20
860.0404750576593
 10
2681.787422486508
 20
863.0404820576595
  0
LWPOLYLINE
  5
A6EE
330
1E
100
AcDbEntity
  8
躯体と製品
  6
Continuous
 62
     4
100
AcDbPolyline
 90
        2
 70
     0
 43
0.0
 10
2681.787422486508
 20
860.0404750576593
 10
2680.055366486507
 20
863.0404820576595
  0
LWPOLYLINE
  5
A6EF
330
1E
100
AcDbEntity
  8
躯体と製品
  6
Continuous
 62
     4
100
AcDbPolyline
 90
        2
 70
     0
 43
0.0
 10
2671.037423486507
 20
863.0404820576595
 10
2671.037423486507
 20
860.0404750576593
  0
LWPOLYLINE
  5
A6F0
330
1E
100
AcDbEntity
  8
躯体と製品
  6
Continuous
 62
     4
100
AcDbPolyline
 90
        2
 70
     0
 43
0.0
 10
2692.537420486508
 20
863.0404820576595
 10
2671.037423486507
 20
863.0404820576595
  0
LWPOLYLINE
  5
A6F1
330
1E
100
AcDbEntity
  8
躯体と製品
  6
Continuous
 62
     4
100
AcDbPolyline
 90
        2
 70
     0
 43
0.0
 10
2692.537420486508
 20
860.0404750576593
 10
2692.537420486508
 20
863.0404820576595
  0
LWPOLYLINE
  5
A6F2
330
1E
100
AcDbEntity
  8
躯体と製品
  6
Continuous
 62
     4
100
AcDbPolyline
 90
        2
 70
     0
 43
0.0
 10
2671.037423486507
 20
860.0404750576593
 10
2692.537420486508
 20
860.0404750576593
  0
LWPOLYLINE
  5
A6F3
330
1E
100
AcDbEntity
  8
躯体と製品
  6
Continuous
 62
     4
100
AcDbPolyline
 90
        2
 70
     0
 43
0.0
 10
2692.175325359992
 20
859.0404786729701
 42
0.385063643129508
 10
2686.981378760029
 20
859.0404786729701
  0
LWPOLYLINE
  5
A6F4
330
1E
100
AcDbEntity
  8
躯体と製品
  6
Continuous
 62
     4
100
AcDbPolyline
 90
        2
 70
     0
 43
0.0
 10
2676.59348556011
 20
859.0404786729701
 42
0.385063643129508
 10
2671.399538960149
 20
859.0404786729701
  0
LWPOLYLINE
  5
A6F5
330
1E
100
AcDbEntity
  8
躯体と製品
  6
Continuous
 62
     4
100
AcDbPolyline
 90
        2
 70
     0
 43
0.0
 10
2686.981378760029
 20
859.040478672971
 42
0.1925318215646296
 10
2676.59348556011
 20
859.040478672971
  0
LWPOLYLINE
  5
A6F6
330
1E
100
AcDbEntity
  8
躯体と製品
  6
Continuous
 62
     4
100
AcDbPolyline
 90
        2
 70
     0
 43
0.0
 10
2686.981378760029
 20
854.0404786729711
 42
0.385063643129508
 10
2692.175325359992
 20
854.0404786729711
  0
LWPOLYLINE
  5
A6F7
330
1E
100
AcDbEntity
  8
躯体と製品
  6
Continuous
 62
     4
100
AcDbPolyline
 90
        2
 70
     0
 43
0.0
 10
2671.399538960149
 20
854.0404786729711
 42
0.385063643129508
 10
2676.59348556011
 20
854.0404786729711
  0
LWPOLYLINE
  5
A6F8
330
1E
100
AcDbEntity
  8
躯体と製品
  6
Continuous
 62
     4
100
AcDbPolyline
 90
        2
 70
     0
 43
0.0
 10
2676.59348556011
 20
854.0404786729702
 42
0.1925318215646298
 10
2686.981378760029
 20
854.0404786729702
  0
LWPOLYLINE
  5
A6F9
330
1E
100
AcDbEntity
  8
躯体と製品
  6
Continuous
 62
     4
100
AcDbPolyline
 90
        2
 70
     0
 43
0.0
 10
2673.99651226013
 20
853.0404786729707
 10
2689.57835206001
 20
853.0404786729704
  0
LWPOLYLINE
  5
A6FA
330
1E
100
AcDbEntity
  8
躯体と製品
  6
Continuous
 62
     4
100
AcDbPolyline
 90
        2
 70
     0
 43
0.0
 10
2686.981368586175
 20
864.0404820576598
 42
0.385063643129508
 10
2692.175315186137
 20
864.0404820576598
  0
LWPOLYLINE
  5
A6FB
330
1E
100
AcDbEntity
  8
躯体と製品
  6
Continuous
 62
     4
100
AcDbPolyline
 90
        2
 70
     0
 43
0.0
 10
2671.399528786294
 20
864.0404820576598
 42
0.385063643129508
 10
2676.593475386257
 20
864.0404820576598
  0
LWPOLYLINE
  5
A6FC
330
1E
100
AcDbEntity
  8
躯体と製品
  6
Continuous
 62
     4
100
AcDbPolyline
 90
        2
 70
     0
 43
0.0
 10
2676.593475386257
 20
864.0404820576589
 42
0.1925318215646298
 10
2686.981368586175
 20
864.0404820576589
  0
LWPOLYLINE
  5
A9D3
330
1E
100
AcDbEntity
  8
躯体と製品
  6
Continuous
 62
     4
100
AcDbPolyline
 90
        2
 70
     0
 43
0.0
 10
2775.537421986216
 20
961.1425136729705
 10
2775.537421986216
 20
954.6425136729705
  0
LWPOLYLINE
  5
A9D4
330
1E
100
AcDbEntity
  8
躯体と製品
  6
Continuous
 62
     4
100
AcDbPolyline
 90
        2
 70
     0
 43
0.0
 10
2781.037421986216
 20
961.1425136729705
 10
2775.537421986216
 20
961.1425136729705
  0
LWPOLYLINE
  5
A9D5
330
1E
100
AcDbEntity
  8
躯体と製品
  6
Continuous
 62
     4
100
AcDbPolyline
 90
        2
 70
     0
 43
0.0
 10
2781.037421986216
 20
966.1425136729706
 10
2781.037421986216
 20
961.1425136729705
  0
LWPOLYLINE
  5
A9D6
330
1E
100
AcDbEntity
  8
躯体と製品
  6
Continuous
 62
     4
100
AcDbPolyline
 90
        2
 70
     0
 43
0.0
 10
2775.537421986216
 20
966.1425136729706
 10
2781.037421986216
 20
966.1425136729706
  0
LWPOLYLINE
  5
A9D7
330
1E
100
AcDbEntity
  8
躯体と製品
  6
Continuous
 62
     4
100
AcDbPolyline
 90
        2
 70
     0
 43
0.0
 10
2775.537421986216
 20
972.6425136729705
 10
2775.537421986216
 20
966.1425136729706
  0
LWPOLYLINE
  5
A9D8
330
1E
100
AcDbEntity
  8
躯体と製品
  6
Continuous
 62
     4
100
AcDbPolyline
 90
        2
 70
     0
 43
0.0
 10
2700.537421986215
 20
961.1425136729705
 10
2700.537421986215
 20
954.6425136729705
  0
LWPOLYLINE
  5
A9D9
330
1E
100
AcDbEntity
  8
躯体と製品
  6
Continuous
 62
     4
100
AcDbPolyline
 90
        2
 70
     0
 43
0.0
 10
2706.037421986215
 20
961.1425136729705
 10
2700.537421986215
 20
961.1425136729705
  0
LWPOLYLINE
  5
A9DA
330
1E
100
AcDbEntity
  8
躯体と製品
  6
Continuous
 62
     4
100
AcDbPolyline
 90
        2
 70
     0
 43
0.0
 10
2706.037421986215
 20
966.1425136729706
 10
2706.037421986215
 20
961.1425136729705
  0
LWPOLYLINE
  5
A9DB
330
1E
100
AcDbEntity
  8
躯体と製品
  6
Continuous
 62
     4
100
AcDbPolyline
 90
        2
 70
     0
 43
0.0
 10
2700.537421986215
 20
966.1425136729706
 10
2706.037421986215
 20
966.1425136729706
  0
LWPOLYLINE
  5
A9DC
330
1E
100
AcDbEntity
  8
躯体と製品
  6
Continuous
 62
     4
100
AcDbPolyline
 90
        2
 70
     0
 43
0.0
 10
2700.537421986215
 20
972.6425136729705
 10
2700.537421986215
 20
966.1425136729706
  0
LWPOLYLINE
  5
A9DD
330
1E
100
AcDbEntity
  8
躯体と製品
  6
Continuous
 62
     4
100
AcDbPolyline
 90
        2
 70
     0
 43
0.0
 10
2625.537421986216
 20
961.1425136729705
 10
2625.537421986216
 20
954.6425136729705
  0
LWPOLYLINE
  5
A9DE
330
1E
100
AcDbEntity
  8
躯体と製品
  6
Continuous
 62
     4
100
AcDbPolyline
 90
        2
 70
     0
 43
0.0
 10
2631.037421986216
 20
961.1425136729705
 10
2625.537421986216
 20
961.1425136729705
  0
LWPOLYLINE
  5
A9DF
330
1E
100
AcDbEntity
  8
躯体と製品
  6
Continuous
 62
     4
100
AcDbPolyline
 90
        2
 70
     0
 43
0.0
 10
2631.037421986216
 20
966.1425136729706
 10
2631.037421986216
 20
961.1425136729705
  0
LWPOLYLINE
  5
A9E0
330
1E
100
AcDbEntity
  8
躯体と製品
  6
Continuous
 62
     4
100
AcDbPolyline
 90
        2
 70
     0
 43
0.0
 10
2625.537421986216
 20
966.1425136729706
 10
2631.037421986216
 20
966.1425136729706
  0
LWPOLYLINE
  5
A9E1
330
1E
100
AcDbEntity
  8
躯体と製品
  6
Continuous
 62
     4
100
AcDbPolyline
 90
        2
 70
     0
 43
0.0
 10
2625.537421986216
 20
972.6425136729705
 10
2625.537421986216
 20
966.1425136729706
  0
LWPOLYLINE
  5
A9FD
330
1E
100
AcDbEntity
  8
躯体と製品
  6
Continuous
 62
     4
100
AcDbPolyline
 90
        2
 70
     0
 43
0.0
 10
3064.636224986216
 20
772.6425136729706
 10
3049.636224986216
 20
757.6425136729706
  0
LWPOLYLINE
  5
A9FE
330
1E
100
AcDbEntity
  8
躯体と製品
  6
Continuous
 62
     4
100
AcDbPolyline
 90
        2
 70
     0
 43
0.0
 10
3069.636224986215
 20
772.6425136729706
 10
3054.636224986216
 20
757.6425136729706
  0
LWPOLYLINE
  5
A9FF
330
1E
100
AcDbEntity
  8
躯体と製品
  6
Continuous
 62
     4
100
AcDbPolyline
 90
        2
 70
     0
 43
0.0
 10
3074.636224986216
 20
772.6425136729706
 10
3059.636224986216
 20
757.6425136729706
  0
LWPOLYLINE
  5
AA00
330
1E
100
AcDbEntity
  8
躯体と製品
  6
Continuous
 62
     4
100
AcDbPolyline
 90
        2
 70
     0
 43
0.0
 10
2914.636224986216
 20
772.6425136729706
 10
2899.636224986215
 20
757.6425136729706
  0
LWPOLYLINE
  5
AA01
330
1E
100
AcDbEntity
  8
躯体と製品
  6
Continuous
 62
     4
100
AcDbPolyline
 90
        2
 70
     0
 43
0.0
 10
2919.636224986215
 20
772.6425136729706
 10
2904.636224986216
 20
757.6425136729706
  0
LWPOLYLINE
  5
AA02
330
1E
100
AcDbEntity
  8
躯体と製品
  6
Continuous
 62
     4
100
AcDbPolyline
 90
        2
 70
     0
 43
0.0
 10
2924.636224986216
 20
772.6425136729706
 10
2909.636224986215
 20
757.6425136729706
  0
LWPOLYLINE
  5
AA03
330
1E
100
AcDbEntity
  8
躯体と製品
  6
Continuous
 62
     4
100
AcDbPolyline
 90
        2
 70
     0
 43
0.0
 10
2751.787421986216
 20
772.6425136729706
 10
2736.787421986216
 20
757.6425136729706
  0
LWPOLYLINE
  5
AA04
330
1E
100
AcDbEntity
  8
躯体と製品
  6
Continuous
 62
     4
100
AcDbPolyline
 90
        2
 70
     0
 43
0.0
 10
2756.787421986216
 20
772.6425136729706
 10
2741.787421986216
 20
757.6425136729706
  0
LWPOLYLINE
  5
AA05
330
1E
100
AcDbEntity
  8
躯体と製品
  6
Continuous
 62
     4
100
AcDbPolyline
 90
        2
 70
     0
 43
0.0
 10
2761.787421986216
 20
772.6425136729706
 10
2746.787421986216
 20
757.6425136729706
  0
LWPOLYLINE
  5
AA06
330
1E
100
AcDbEntity
  8
躯体と製品
  6
Continuous
 62
     4
100
AcDbPolyline
 90
        2
 70
     0
 43
0.0
 10
2601.787421986216
 20
772.6425136729706
 10
2586.787421986216
 20
757.6425136729706
  0
LWPOLYLINE
  5
AA07
330
1E
100
AcDbEntity
  8
躯体と製品
  6
Continuous
 62
     4
100
AcDbPolyline
 90
        2
 70
     0
 43
0.0
 10
2606.787421986215
 20
772.6425136729706
 10
2591.787421986216
 20
757.6425136729706
  0
LWPOLYLINE
  5
AA08
330
1E
100
AcDbEntity
  8
躯体と製品
  6
Continuous
 62
     4
100
AcDbPolyline
 90
        2
 70
     0
 43
0.0
 10
2611.787421986216
 20
772.6425136729706
 10
2596.787421986216
 20
757.6425136729706
  0
LWPOLYLINE
  5
AA09
330
1E
100
AcDbEntity
  8
躯体と製品
  6
Continuous
 62
     4
100
AcDbPolyline
 90
        2
 70
     0
 43
0.0
 10
2687.787421986216
 20
891.8425136729707
 10
2686.987421986215
 20
892.6425136729706
  0
LWPOLYLINE
  5
AA0A
330
1E
100
AcDbEntity
  8
躯体と製品
  6
Continuous
 62
     4
100
AcDbPolyline
 90
        2
 70
     0
 43
0.0
 10
2675.787421986216
 20
891.8425136729707
 10
2676.587421986216
 20
892.6425136729706
  0
LWPOLYLINE
  5
AA0B
330
1E
100
AcDbEntity
  8
躯体と製品
  6
Continuous
 62
     4
100
AcDbPolyline
 90
        2
 70
     0
 43
0.0
 10
2686.987421986215
 20
879.6425136729705
 10
2686.987421986215
 20
892.6425136729706
  0
LWPOLYLINE
  5
AA0C
330
1E
100
AcDbEntity
  8
躯体と製品
  6
Continuous
 62
     4
100
AcDbPolyline
 90
        2
 70
     0
 43
0.0
 10
2687.787421986216
 20
879.6425136729705
 10
2687.787421986216
 20
891.8425136729707
  0
LWPOLYLINE
  5
AA0D
330
1E
100
AcDbEntity
  8
躯体と製品
  6
Continuous
 62
     4
100
AcDbPolyline
 90
        2
 70
     0
 43
0.0
 10
2676.587421986216
 20
879.6425136729705
 10
2676.587421986216
 20
892.6425136729706
  0
LWPOLYLINE
  5
AA0E
330
1E
100
AcDbEntity
  8
躯体と製品
  6
Continuous
 62
     4
100
AcDbPolyline
 90
        2
 70
     0
 43
0.0
 10
2675.787421986216
 20
879.6425136729705
 10
2675.787421986216
 20
891.8425136729707
  0
LWPOLYLINE
  5
AA0F
330
1E
100
AcDbEntity
  8
躯体と製品
  6
Continuous
 62
     4
100
AcDbPolyline
 90
        2
 70
     0
 43
0.0
 10
2676.587421986216
 20
892.6425136729706
 10
2686.987421986215
 20
892.6425136729706
  0
LWPOLYLINE
  5
AA10
330
1E
100
AcDbEntity
  8
躯体と製品
  6
Continuous
 62
     4
100
AcDbPolyline
 90
        2
 70
     0
 43
0.0
 10
2675.787421986216
 20
891.8425136729707
 10
2687.787421986216
 20
891.8425136729707
  0
LWPOLYLINE
  5
AA11
330
1E
100
AcDbEntity
  8
躯体と製品
  6
Continuous
 62
     4
100
AcDbPolyline
 90
        2
 70
     0
 43
0.0
 10
2701.787421986216
 20
906.5425136729706
 42
0.4142135777083371
 10
2699.687421876264
 20
908.6425136729706
  0
LWPOLYLINE
  5
AA12
330
1E
100
AcDbEntity
  8
躯体と製品
  6
Continuous
 62
     4
100
AcDbPolyline
 90
        2
 70
     0
 43
0.0
 10
2700.187421986216
 20
906.5425136729706
 42
0.4142135777083371
 10
2699.687421960037
 20
907.0425136729706
  0
LWPOLYLINE
  5
AA13
330
1E
100
AcDbEntity
  8
躯体と製品
  6
Continuous
 62
     4
100
AcDbPolyline
 90
        2
 70
     0
 43
0.0
 10
2663.887421960036
 20
907.0425136729706
 42
0.4142135777083371
 10
2663.387421986215
 20
906.5425136206128
  0
LWPOLYLINE
  5
AA14
330
1E
100
AcDbEntity
  8
躯体と製品
  6
Continuous
 62
     4
100
AcDbPolyline
 90
        2
 70
     0
 43
0.0
 10
2700.787421986216
 20
915.3425136729707
 10
2700.787421986216
 20
908.6425136729706
  0
LWPOLYLINE
  5
AA15
330
1E
100
AcDbEntity
  8
躯体と製品
  6
Continuous
 62
     4
100
AcDbPolyline
 90
        2
 70
     0
 43
0.0
 10
2662.787421986216
 20
915.3425136729707
 10
2700.787421986216
 20
915.3425136729707
  0
LWPOLYLINE
  5
AA16
330
1E
100
AcDbEntity
  8
躯体と製品
  6
Continuous
 62
     4
100
AcDbPolyline
 90
        2
 70
     0
 43
0.0
 10
2662.787421986216
 20
908.6425136729706
 10
2662.787421986216
 20
915.3425136729707
  0
LWPOLYLINE
  5
AA17
330
1E
100
AcDbEntity
  8
躯体と製品
  6
Continuous
 62
     4
100
AcDbPolyline
 90
        2
 70
     0
 43
0.0
 10
2700.787421986216
 20
908.6425136729706
 10
2662.787421986216
 20
908.6425136729706
  0
LWPOLYLINE
  5
AA18
330
1E
100
AcDbEntity
  8
躯体と製品
  6
Continuous
 62
     4
100
AcDbPolyline
 90
        2
 70
     0
 43
0.0
 10
2699.687421986216
 20
907.0425136729706
 10
2663.887421986215
 20
907.0425136729706
  0
LWPOLYLINE
  5
AA19
330
1E
100
AcDbEntity
  8
躯体と製品
  6
Continuous
 62
     4
100
AcDbPolyline
 90
        2
 70
     0
 43
0.0
 10
2699.687421986216
 20
908.6425136729706
 10
2663.887421986215
 20
908.6425136729706
  0
LWPOLYLINE
  5
AA1A
330
1E
100
AcDbEntity
  8
躯体と製品
  6
Continuous
 62
     4
100
AcDbPolyline
 90
        2
 70
     0
 43
0.0
 10
2717.187421986216
 20
882.3425136729706
 10
2718.787421986216
 20
882.3425136729706
  0
LWPOLYLINE
  5
AA1B
330
1E
100
AcDbEntity
  8
躯体と製品
  6
Continuous
 62
     4
100
AcDbPolyline
 90
        2
 70
     0
 43
0.0
 10
2717.187421986216
 20
881.7425136729706
 10
2717.187421986216
 20
882.3425136729706
  0
LWPOLYLINE
  5
AA1C
330
1E
100
AcDbEntity
  8
躯体と製品
  6
Continuous
 62
     4
100
AcDbPolyline
 90
        2
 70
     0
 43
0.0
 10
2718.787421986216
 20
881.7425136729706
 10
2718.787421986216
 20
882.3425136729706
  0
LWPOLYLINE
  5
AA1D
330
1E
100
AcDbEntity
  8
躯体と製品
  6
Continuous
 62
     4
100
AcDbPolyline
 90
        2
 70
     0
 43
0.0
 10
2716.687421960037
 20
881.2425136729705
 42
0.4142135777083371
 10
2717.187421986216
 20
881.7425136729706
  0
LWPOLYLINE
  5
AA1E
330
1E
100
AcDbEntity
  8
躯体と製品
  6
Continuous
 62
     4
100
AcDbPolyline
 90
        2
 70
     0
 43
0.0
 10
2716.687421876265
 20
879.6425136729705
 42
0.4142135777083371
 10
2718.787421986216
 20
881.7425136729706
  0
LWPOLYLINE
  5
AA1F
330
1E
100
AcDbEntity
  8
躯体と製品
  6
Continuous
 62
     4
100
AcDbPolyline
 90
        2
 70
     0
 43
0.0
 10
2700.187421986216
 20
881.7425134530678
 42
0.41421351636737
 10
2702.287421876264
 20
879.6425136729705
  0
LWPOLYLINE
  5
AA20
330
1E
100
AcDbEntity
  8
躯体と製品
  6
Continuous
 62
     4
100
AcDbPolyline
 90
        2
 70
     0
 43
0.0
 10
2701.787421986216
 20
881.7425136206129
 42
0.41421351636737
 10
2702.287421960037
 20
881.2425136729705
  0
LWPOLYLINE
  5
AA21
330
1E
100
AcDbEntity
  8
躯体と製品
  6
Continuous
 62
     4
100
AcDbPolyline
 90
        2
 70
     0
 43
0.0
 10
2702.287421986216
 20
879.6425136729705
 10
2716.687421986216
 20
879.6425136729705
  0
LWPOLYLINE
  5
AA22
330
1E
100
AcDbEntity
  8
躯体と製品
  6
Continuous
 62
     4
100
AcDbPolyline
 90
        2
 70
     0
 43
0.0
 10
2702.287421986216
 20
881.2425136729705
 10
2716.687421986216
 20
881.2425136729705
  0
LWPOLYLINE
  5
AA23
330
1E
100
AcDbEntity
  8
躯体と製品
  6
Continuous
 62
     4
100
AcDbPolyline
 90
        2
 70
     0
 43
0.0
 10
2700.187421986216
 20
881.7425136729706
 10
2700.187421986216
 20
906.5425136729706
  0
LWPOLYLINE
  5
AA24
330
1E
100
AcDbEntity
  8
躯体と製品
  6
Continuous
 62
     4
100
AcDbPolyline
 90
        2
 70
     0
 43
0.0
 10
2701.787421986216
 20
881.7425136729706
 10
2701.787421986216
 20
906.5425136729706
  0
LWPOLYLINE
  5
AA25
330
1E
100
AcDbEntity
  8
躯体と製品
  6
Continuous
 62
     4
100
AcDbPolyline
 90
        2
 70
     0
 43
0.0
 10
2663.387421986215
 20
881.7425136729706
 10
2663.387421986215
 20
906.5425136729706
  0
LWPOLYLINE
  5
AA26
330
1E
100
AcDbEntity
  8
躯体と製品
  6
Continuous
 62
     4
100
AcDbPolyline
 90
        2
 70
     0
 43
0.0
 10
2661.287421986216
 20
879.6425136729705
 10
2646.887421986215
 20
879.6425136729705
  0
LWPOLYLINE
  5
AA27
330
1E
100
AcDbEntity
  8
躯体と製品
  6
Continuous
 62
     4
100
AcDbPolyline
 90
        2
 70
     0
 43
0.0
 10
2661.287421986216
 20
881.2425136729705
 10
2646.887421986215
 20
881.2425136729705
  0
LWPOLYLINE
  5
AA28
330
1E
100
AcDbEntity
  8
躯体と製品
  6
Continuous
 62
     4
100
AcDbPolyline
 90
        2
 70
     0
 43
0.0
 10
2646.387421986216
 20
881.7425136729706
 10
2646.387421986216
 20
882.3425136729706
  0
LWPOLYLINE
  5
AA29
330
1E
100
AcDbEntity
  8
躯体と製品
  6
Continuous
 62
     4
100
AcDbPolyline
 90
        2
 70
     0
 43
0.0
 10
2646.387421986216
 20
881.7425136206129
 42
0.41421351636737
 10
2646.887421960036
 20
881.2425136729705
  0
LWPOLYLINE
  5
AA2A
330
1E
100
AcDbEntity
  8
躯体と製品
  6
Continuous
 62
     4
100
AcDbPolyline
 90
        2
 70
     0
 43
0.0
 10
2661.287421960037
 20
881.2425136729705
 42
0.4142135777083371
 10
2661.787421986216
 20
881.7425136729706
  0
LWPOLYLINE
  5
AA2B
330
1E
100
AcDbEntity
  8
躯体と製品
  6
Continuous
 62
     4
100
AcDbPolyline
 90
        2
 70
     0
 43
0.0
 10
2644.787421986216
 20
881.7425136729706
 10
2644.787421986216
 20
882.3425136729706
  0
LWPOLYLINE
  5
AA2C
330
1E
100
AcDbEntity
  8
躯体と製品
  6
Continuous
 62
     4
100
AcDbPolyline
 90
        2
 70
     0
 43
0.0
 10
2644.787421986215
 20
881.7425134530678
 42
0.41421351636737
 10
2646.887421876264
 20
879.6425136729705
  0
LWPOLYLINE
  5
AA2D
330
1E
100
AcDbEntity
  8
躯体と製品
  6
Continuous
 62
     4
100
AcDbPolyline
 90
        2
 70
     0
 43
0.0
 10
2646.387421986216
 20
882.3425136729706
 10
2644.787421986216
 20
882.3425136729706
  0
LWPOLYLINE
  5
AA2E
330
1E
100
AcDbEntity
  8
躯体と製品
  6
Continuous
 62
     4
100
AcDbPolyline
 90
        2
 70
     0
 43
0.0
 10
2661.787421986216
 20
881.7425136729706
 10
2661.787421986216
 20
906.5425136729706
  0
LWPOLYLINE
  5
AA2F
330
1E
100
AcDbEntity
  8
躯体と製品
  6
Continuous
 62
     4
100
AcDbPolyline
 90
        2
 70
     0
 43
0.0
 10
2720.787421986216
 20
877.6425136729706
 10
2720.787421986216
 20
884.3425136729706
  0
LWPOLYLINE
  5
AA30
330
1E
100
AcDbEntity
  8
躯体と製品
  6
Continuous
 62
     4
100
AcDbPolyline
 90
        2
 70
     0
 43
0.0
 10
2642.787421986216
 20
877.6425136729706
 10
2720.787421986216
 20
877.6425136729706
  0
LWPOLYLINE
  5
AA31
330
1E
100
AcDbEntity
  8
躯体と製品
  6
Continuous
 62
     4
100
AcDbPolyline
 90
        2
 70
     0
 43
0.0
 10
2642.787421986216
 20
884.3425136729706
 10
2642.787421986216
 20
877.6425136729706
  0
LWPOLYLINE
  5
AA32
330
1E
100
AcDbEntity
  8
躯体と製品
  6
Continuous
 62
     4
100
AcDbPolyline
 90
        2
 70
     0
 43
0.0
 10
2647.787421986216
 20
884.3425136729706
 10
2642.787421986216
 20
884.3425136729706
  0
LWPOLYLINE
  5
AA33
330
1E
100
AcDbEntity
  8
躯体と製品
  6
Continuous
 62
     4
100
AcDbPolyline
 90
        2
 70
     0
 43
0.0
 10
2647.787421986216
 20
882.3425136729706
 10
2647.787421986216
 20
884.3425136729706
  0
LWPOLYLINE
  5
AA34
330
1E
100
AcDbEntity
  8
躯体と製品
  6
Continuous
 62
     4
100
AcDbPolyline
 90
        2
 70
     0
 43
0.0
 10
2644.787421986216
 20
882.3425136729706
 10
2647.787421986216
 20
882.3425136729706
  0
LWPOLYLINE
  5
AA35
330
1E
100
AcDbEntity
  8
躯体と製品
  6
Continuous
 62
     4
100
AcDbPolyline
 90
        2
 70
     0
 43
0.0
 10
2644.787421986216
 20
879.6425136729705
 10
2644.787421986216
 20
882.3425136729706
  0
LWPOLYLINE
  5
AA36
330
1E
100
AcDbEntity
  8
躯体と製品
  6
Continuous
 62
     4
100
AcDbPolyline
 90
        2
 70
     0
 43
0.0
 10
2718.787421986216
 20
879.6425136729705
 10
2644.787421986216
 20
879.6425136729705
  0
LWPOLYLINE
  5
AA37
330
1E
100
AcDbEntity
  8
躯体と製品
  6
Continuous
 62
     4
100
AcDbPolyline
 90
        2
 70
     0
 43
0.0
 10
2718.787421986216
 20
882.3425136729706
 10
2718.787421986216
 20
879.6425136729705
  0
LWPOLYLINE
  5
AA38
330
1E
100
AcDbEntity
  8
躯体と製品
  6
Continuous
 62
     4
100
AcDbPolyline
 90
        2
 70
     0
 43
0.0
 10
2715.787421986215
 20
882.3425136729706
 10
2718.787421986216
 20
882.3425136729706
  0
LWPOLYLINE
  5
AA39
330
1E
100
AcDbEntity
  8
躯体と製品
  6
Continuous
 62
     4
100
AcDbPolyline
 90
        2
 70
     0
 43
0.0
 10
2715.787421986215
 20
884.3425136729706
 10
2715.787421986215
 20
882.3425136729706
  0
LWPOLYLINE
  5
AA3A
330
1E
100
AcDbEntity
  8
躯体と製品
  6
Continuous
 62
     4
100
AcDbPolyline
 90
        2
 70
     0
 43
0.0
 10
2720.787421986216
 20
884.3425136729706
 10
2715.787421986215
 20
884.3425136729706
  0
LWPOLYLINE
  5
AA3B
330
1E
100
AcDbEntity
  8
躯体と製品
  6
Continuous
 62
     4
100
AcDbPolyline
 90
        2
 70
     0
 43
0.0
 10
2661.287421876264
 20
879.6425136729705
 42
0.4142135777083371
 10
2663.387421986215
 20
881.7425136729706
  0
LWPOLYLINE
  5
AA3C
330
1E
100
AcDbEntity
  8
躯体と製品
  6
Continuous
 62
     4
100
AcDbPolyline
 90
        2
 70
     0
 43
0.0
 10
2663.887421876264
 20
908.6425136729706
 42
0.4142135777083371
 10
2661.787421986215
 20
906.5425134530679
  0
LWPOLYLINE
  5
AA3D
330
1E
100
AcDbEntity
  8
躯体と製品
  6
Continuous
 62
     4
100
AcDbPolyline
 90
        2
 70
     0
 43
0.0
 10
3119.636224986216
 20
908.6425136729706
 10
2869.636224986216
 20
908.6425136729706
  0
LWPOLYLINE
  5
AA3E
330
1E
100
AcDbEntity
  8
躯体と製品
  6
Continuous
 62
     4
100
AcDbPolyline
 90
        2
 70
     0
 43
0.0
 10
2946.636224986216
 20
884.3425136729706
 10
2946.636224986216
 20
877.6425136729706
  0
LWPOLYLINE
  5
AA3F
330
1E
100
AcDbEntity
  8
躯体と製品
  6
Continuous
 62
     4
100
AcDbPolyline
 90
        2
 70
     0
 43
0.0
 10
2908.636224986216
 20
884.3425136729706
 10
2946.636224986216
 20
884.3425136729706
  0
LWPOLYLINE
  5
AA40
330
1E
100
AcDbEntity
  8
躯体と製品
  6
Continuous
 62
     4
100
AcDbPolyline
 90
        2
 70
     0
 43
0.0
 10
2908.636224986216
 20
877.6425136729706
 10
2908.636224986216
 20
884.3425136729706
  0
LWPOLYLINE
  5
AA41
330
1E
100
AcDbEntity
  8
躯体と製品
  6
Continuous
 62
     4
100
AcDbPolyline
 90
        2
 70
     0
 43
0.0
 10
2946.636224986216
 20
877.6425136729706
 10
2908.636224986216
 20
877.6425136729706
  0
LWPOLYLINE
  5
AA42
330
1E
100
AcDbEntity
  8
躯体と製品
  6
Continuous
 62
     4
100
AcDbPolyline
 90
        2
 70
     0
 43
0.0
 10
2946.636224986216
 20
882.3425136729706
 10
3119.636224986216
 20
882.3425136729706
  0
LWPOLYLINE
  5
AA43
330
1E
100
AcDbEntity
  8
躯体と製品
  6
Continuous
 62
     4
100
AcDbPolyline
 90
        2
 70
     0
 43
0.0
 10
3119.636224986216
 20
879.6425136729705
 10
2946.636224986216
 20
879.6425136729705
  0
LWPOLYLINE
  5
AA44
330
1E
100
AcDbEntity
  8
躯体と製品
  6
Continuous
 62
     4
100
AcDbPolyline
 90
        2
 70
     0
 43
0.0
 10
2908.636224986216
 20
882.3425136729706
 10
2869.636224986216
 20
882.3425136729706
  0
LWPOLYLINE
  5
AA45
330
1E
100
AcDbEntity
  8
躯体と製品
  6
Continuous
 62
     4
100
AcDbPolyline
 90
        2
 70
     0
 43
0.0
 10
2908.636224986216
 20
879.6425136729705
 10
2869.636224986216
 20
879.6425136729705
  0
LWPOLYLINE
  5
AA46
330
1E
100
AcDbEntity
  8
躯体と製品
  6
Continuous
 62
     4
100
AcDbPolyline
 90
        2
 70
     0
 43
0.0
 10
3119.636224986216
 20
772.6425136729706
 10
2869.636224986216
 20
772.6425136729706
  0
LWPOLYLINE
  5
AA47
330
1E
100
AcDbEntity
  8
躯体と製品
  6
Continuous
 62
     4
100
AcDbPolyline
 90
        2
 70
     0
 43
0.0
 10
3119.636224986216
 20
944.6425136729706
 10
2869.636224986216
 20
944.6425136729706
  0
LWPOLYLINE
  5
AA48
330
1E
100
AcDbEntity
  8
躯体と製品
  6
Continuous
 62
     4
100
AcDbPolyline
 90
        2
 70
     0
 43
0.0
 10
3119.636224986216
 20
949.6425136729707
 10
2869.636224986216
 20
949.6425136729707
  0
LWPOLYLINE
  5
AA49
330
1E
100
AcDbEntity
  8
躯体と製品
  6
Continuous
 62
     4
100
AcDbPolyline
 90
        2
 70
     0
 43
0.0
 10
3119.636224986216
 20
972.6425136729705
 10
2869.636224986216
 20
972.6425136729705
  0
LWPOLYLINE
  5
AA4A
330
1E
100
AcDbEntity
  8
躯体と製品
  6
Continuous
 62
     4
100
AcDbPolyline
 90
        2
 70
     0
 43
0.0
 10
3119.636224986216
 20
954.6425136729705
 10
2869.636224986216
 20
954.6425136729705
  0
LWPOLYLINE
  5
AA4B
330
1E
100
AcDbEntity
  8
躯体と製品
  6
Continuous
 62
     4
100
AcDbPolyline
 90
        2
 70
     0
 43
0.0
 10
3119.636224986216
 20
939.6425136729705
 10
2869.636224986216
 20
939.6425136729705
  0
LWPOLYLINE
  5
AA4C
330
1E
100
AcDbEntity
  8
躯体と製品
  6
Continuous
 62
     4
100
AcDbPolyline
 90
        2
 70
     0
 43
0.0
 10
2977.636223986216
 20
871.8425146729707
 42
0.4142135751755501
 10
2971.836223732696
 20
877.6425146729705
  0
LWPOLYLINE
  5
AA4D
330
1E
100
AcDbEntity
  8
躯体と製品
  6
Continuous
 62
     4
100
AcDbPolyline
 90
        2
 70
     0
 43
0.0
 10
2883.436225732695
 20
877.6425146729705
 42
0.4142135751766157
 10
2877.636225986215
 20
871.8425141659098
  0
LWPOLYLINE
  5
AA4E
330
1E
100
AcDbEntity
  8
躯体と製品
  6
Continuous
 62
     4
100
AcDbPolyline
 90
        2
 70
     0
 43
0.0
 10
2932.836224986216
 20
780.0855916729706
 10
2932.836224986216
 20
853.0637320901254
  0
LWPOLYLINE
  5
AA4F
330
1E
100
AcDbEntity
  8
躯体と製品
  6
Continuous
 62
     4
100
AcDbPolyline
 90
        2
 70
     0
 43
0.0
 10
2933.636224986216
 20
779.6425136729705
 10
2933.636224986216
 20
853.1472781554272
  0
LWPOLYLINE
  5
AA50
330
1E
100
AcDbEntity
  8
躯体と製品
  6
Continuous
 62
     4
100
AcDbPolyline
 90
        2
 70
     0
 43
0.0
 10
2927.636224986216
 20
866.6425136729706
 10
2977.636226986216
 20
866.6425136729706
  0
LWPOLYLINE
  5
AA51
330
1E
100
AcDbEntity
  8
躯体と製品
  6
Continuous
 62
     4
100
AcDbPolyline
 90
        2
 70
     0
 43
0.0
 10
2883.436225986215
 20
877.6425136729706
 10
2971.836223986216
 20
877.6425136729706
  0
LWPOLYLINE
  5
AA52
330
1E
100
AcDbEntity
  8
躯体と製品
  6
Continuous
 62
     4
100
AcDbPolyline
 90
        2
 70
     0
 43
0.0
 10
2977.636226986216
 20
866.6425136729706
 10
2977.636226986216
 20
871.8425146729707
  0
LWPOLYLINE
  5
AA53
330
1E
100
AcDbEntity
  8
躯体と製品
  6
Continuous
 62
     4
100
AcDbPolyline
 90
        2
 70
     0
 43
0.0
 10
2877.636226986216
 20
866.6425136729706
 10
2877.636226986216
 20
871.8425146729707
  0
LWPOLYLINE
  5
AA54
330
1E
100
AcDbEntity
  8
躯体と製品
  6
Continuous
 62
     4
100
AcDbPolyline
 90
        2
 70
     0
 43
0.0
 10
2927.636224986216
 20
866.6425136729706
 10
2877.636226986216
 20
866.6425136729706
  0
LWPOLYLINE
  5
AA55
330
1E
100
AcDbEntity
  8
躯体と製品
  6
Continuous
 62
     4
100
AcDbPolyline
 90
        2
 70
     0
 43
0.0
 10
2922.436224986216
 20
780.0855916729706
 10
2922.436224986216
 20
853.0637320901252
  0
LWPOLYLINE
  5
AA56
330
1E
100
AcDbEntity
  8
躯体と製品
  6
Continuous
 62
     4
100
AcDbPolyline
 90
        2
 70
     0
 43
0.0
 10
2921.636224986216
 20
779.6425136729705
 10
2921.636224986216
 20
853.1472781554272
  0
LWPOLYLINE
  5
AA57
330
1E
100
AcDbEntity
  8
躯体と製品
  6
Continuous
 62
     4
100
AcDbPolyline
 90
        2
 70
     0
 43
0.0
 10
2806.787421986216
 20
772.6425136729706
 10
2556.787421986216
 20
772.6425136729706
  0
LWPOLYLINE
  5
AA58
330
1E
100
AcDbEntity
  8
躯体と製品
  6
Continuous
 62
     4
100
AcDbPolyline
 90
        2
 70
     0
 43
0.0
 10
2806.787421986216
 20
944.6425136729706
 10
2556.787421986216
 20
944.6425136729706
  0
LWPOLYLINE
  5
AA59
330
1E
100
AcDbEntity
  8
躯体と製品
  6
Continuous
 62
     4
100
AcDbPolyline
 90
        2
 70
     0
 43
0.0
 10
2806.787421986216
 20
949.6425136729707
 10
2556.787421986216
 20
949.6425136729707
  0
LWPOLYLINE
  5
AA5A
330
1E
100
AcDbEntity
  8
躯体と製品
  6
Continuous
 62
     4
100
AcDbPolyline
 90
        2
 70
     0
 43
0.0
 10
2806.787421986216
 20
972.6425136729705
 10
2556.787421986216
 20
972.6425136729705
  0
LWPOLYLINE
  5
AA5B
330
1E
100
AcDbEntity
  8
躯体と製品
  6
Continuous
 62
     4
100
AcDbPolyline
 90
        2
 70
     0
 43
0.0
 10
2806.787421986216
 20
954.6425136729705
 10
2556.787421986216
 20
954.6425136729705
  0
LWPOLYLINE
  5
AA5C
330
1E
100
AcDbEntity
  8
躯体と製品
  6
Continuous
 62
     4
100
AcDbPolyline
 90
        2
 70
     0
 43
0.0
 10
2700.787421986216
 20
913.3425136729707
 10
2806.787421986216
 20
913.3425136729707
  0
LWPOLYLINE
  5
AA5D
330
1E
100
AcDbEntity
  8
躯体と製品
  6
Continuous
 62
     4
100
AcDbPolyline
 90
        2
 70
     0
 43
0.0
 10
2806.787421986216
 20
910.6425136729706
 10
2700.787421986216
 20
910.6425136729706
  0
LWPOLYLINE
  5
AA5E
330
1E
100
AcDbEntity
  8
躯体と製品
  6
Continuous
 62
     4
100
AcDbPolyline
 90
        2
 70
     0
 43
0.0
 10
2662.787421986216
 20
913.3425136729707
 10
2556.787421986216
 20
913.3425136729707
  0
LWPOLYLINE
  5
AA5F
330
1E
100
AcDbEntity
  8
躯体と製品
  6
Continuous
 62
     4
100
AcDbPolyline
 90
        2
 70
     0
 43
0.0
 10
2662.787421986216
 20
910.6425136729706
 10
2556.787421986216
 20
910.6425136729706
  0
LWPOLYLINE
  5
AA60
330
1E
100
AcDbEntity
  8
躯体と製品
  6
Continuous
 62
     4
100
AcDbPolyline
 90
        2
 70
     0
 43
0.0
 10
2806.787421986216
 20
939.6425136729705
 10
2556.787421986216
 20
939.6425136729705
  0
LWPOLYLINE
  5
AA61
330
1E
100
AcDbEntity
  8
躯体と製品
  6
Continuous
 62
     4
100
AcDbPolyline
 90
        2
 70
     0
 43
0.0
 10
2720.037424058187
 20
774.6425105656844
 42
0.250000019209986
 10
2716.287423788836
 20
776.6425106729706
  0
LWPOLYLINE
  5
AA62
330
1E
100
AcDbEntity
  8
躯体と製品
  6
Continuous
 62
     4
100
AcDbPolyline
 90
        2
 70
     0
 43
0.0
 10
2647.287421788836
 20
776.6425106729706
 42
0.2499999717130966
 10
2643.53742214415
 20
774.6425109084015
  0
LWPOLYLINE
  5
AA63
330
1E
100
AcDbEntity
  8
躯体と製品
  6
Continuous
 62
     4
100
AcDbPolyline
 90
        2
 70
     0
 43
0.0
 10
2731.787420986215
 20
871.8425146729707
 42
0.4142135751755501
 10
2725.987420732695
 20
877.6425146729705
  0
LWPOLYLINE
  5
AA64
330
1E
100
AcDbEntity
  8
躯体と製品
  6
Continuous
 62
     4
100
AcDbPolyline
 90
        2
 70
     0
 43
0.0
 10
2637.587422732697
 20
877.6425146729705
 42
0.4142135751766157
 10
2631.787422986216
 20
871.8425141659098
  0
LWPOLYLINE
  5
AA65
330
1E
100
AcDbEntity
  8
躯体と製品
  6
Continuous
 62
     4
100
AcDbPolyline
 90
        2
 70
     0
 43
0.0
 10
2686.987421986215
 20
780.0855916729706
 10
2691.037421986216
 20
777.8425146729706
  0
LWPOLYLINE
  5
AA66
330
1E
100
AcDbEntity
  8
躯体と製品
  6
Continuous
 62
     4
100
AcDbPolyline
 90
        2
 70
     0
 43
0.0
 10
2681.787421986216
 20
772.6425136729706
 10
2726.787423986215
 20
772.6425136729706
  0
LWPOLYLINE
  5
AA67
330
1E
100
AcDbEntity
  8
躯体と製品
  6
Continuous
 62
     4
100
AcDbPolyline
 90
        2
 70
     0
 43
0.0
 10
2681.787421986216
 20
776.6425136729706
 10
2716.287423986216
 20
776.6425136729706
  0
LWPOLYLINE
  5
AA68
330
1E
100
AcDbEntity
  8
躯体と製品
  6
Continuous
 62
     4
100
AcDbPolyline
 90
        2
 70
     0
 43
0.0
 10
2681.787421986216
 20
774.6425136729706
 10
2726.787423986215
 20
774.6425136729706
  0
LWPOLYLINE
  5
AA69
330
1E
100
AcDbEntity
  8
躯体と製品
  6
Continuous
 62
     4
100
AcDbPolyline
 90
        2
 70
     0
 43
0.0
 10
2686.987421986215
 20
780.0855916729706
 10
2681.787421986216
 20
780.0855916729706
  0
LWPOLYLINE
  5
AA6A
330
1E
100
AcDbEntity
  8
躯体と製品
  6
Continuous
 62
     4
100
AcDbPolyline
 90
        2
 70
     0
 43
0.0
 10
2726.787423986215
 20
774.6425136729706
 10
2726.787423986215
 20
772.6425136729706
  0
LWPOLYLINE
  5
AA6B
330
1E
100
AcDbEntity
  8
躯体と製品
  6
Continuous
 62
     4
100
AcDbPolyline
 90
        2
 70
     0
 43
0.0
 10
2686.987421986215
 20
780.0855916729706
 10
2686.987421986215
 20
853.0404786729706
  0
LWPOLYLINE
  5
AA6C
330
1E
100
AcDbEntity
  8
躯体と製品
  6
Continuous
 62
     4
100
AcDbPolyline
 90
        2
 70
     0
 43
0.0
 10
2687.787421986216
 20
779.6425136729705
 10
2687.787421986216
 20
853.0404786729706
  0
LWPOLYLINE
  5
AA6D
330
1E
100
AcDbEntity
  8
躯体と製品
  6
Continuous
 62
     4
100
AcDbPolyline
 90
        2
 70
     0
 43
0.0
 10
2691.037421986216
 20
777.8425146729706
 10
2681.787421986216
 20
777.8425146729706
  0
LWPOLYLINE
  5
AA6E
330
1E
100
AcDbEntity
  8
躯体と製品
  6
Continuous
 62
     4
100
AcDbPolyline
 90
        2
 70
     0
 43
0.0
 10
2691.037421986216
 20
777.8425146729706
 10
2691.037421986216
 20
776.6425136729706
  0
LWPOLYLINE
  5
AA6F
330
1E
100
AcDbEntity
  8
躯体と製品
  6
Continuous
 62
     4
100
AcDbPolyline
 90
        2
 70
     0
 43
0.0
 10
2636.787423986215
 20
774.6425136729706
 10
2636.787423986215
 20
772.6425136729706
  0
LWPOLYLINE
  5
AA70
330
1E
100
AcDbEntity
  8
躯体と製品
  6
Continuous
 62
     4
100
AcDbPolyline
 90
        2
 70
     0
 43
0.0
 10
2676.587421986216
 20
780.0855916729706
 10
2681.787421986216
 20
780.0855916729706
  0
LWPOLYLINE
  5
AA71
330
1E
100
AcDbEntity
  8
躯体と製品
  6
Continuous
 62
     4
100
AcDbPolyline
 90
        2
 70
     0
 43
0.0
 10
2681.787421986216
 20
774.6425136729706
 10
2636.787423986215
 20
774.6425136729706
  0
LWPOLYLINE
  5
AA72
330
1E
100
AcDbEntity
  8
躯体と製品
  6
Continuous
 62
     4
100
AcDbPolyline
 90
        2
 70
     0
 43
0.0
 10
2681.787421986216
 20
776.6425136729706
 10
2647.287421986216
 20
776.6425136729706
  0
LWPOLYLINE
  5
AA73
330
1E
100
AcDbEntity
  8
躯体と製品
  6
Continuous
 62
     4
100
AcDbPolyline
 90
        2
 70
     0
 43
0.0
 10
2681.787421986216
 20
772.6425136729706
 10
2636.787423986215
 20
772.6425136729706
  0
LWPOLYLINE
  5
AA74
330
1E
100
AcDbEntity
  8
躯体と製品
  6
Continuous
 62
     4
100
AcDbPolyline
 90
        2
 70
     0
 43
0.0
 10
2676.587421986216
 20
780.0855916729706
 10
2672.537421986216
 20
777.8425146729706
  0
LWPOLYLINE
  5
AA75
330
1E
100
AcDbEntity
  8
躯体と製品
  6
Continuous
 62
     4
100
AcDbPolyline
 90
        2
 70
     0
 43
0.0
 10
2672.537421986216
 20
777.8425146729706
 10
2681.787421986216
 20
777.8425146729706
  0
LWPOLYLINE
  5
AA76
330
1E
100
AcDbEntity
  8
躯体と製品
  6
Continuous
 62
     4
100
AcDbPolyline
 90
        2
 70
     0
 43
0.0
 10
2672.537421986216
 20
777.8425146729706
 10
2672.537421986216
 20
776.6425136729706
  0
LWPOLYLINE
  5
AA77
330
1E
100
AcDbEntity
  8
躯体と製品
  6
Continuous
 62
     4
100
AcDbPolyline
 90
        2
 70
     0
 43
0.0
 10
2681.787421986216
 20
866.6425136729706
 10
2731.787423986216
 20
866.6425136729706
  0
LWPOLYLINE
  5
AA78
330
1E
100
AcDbEntity
  8
躯体と製品
  6
Continuous
 62
     4
100
AcDbPolyline
 90
        2
 70
     0
 43
0.0
 10
2637.587422986217
 20
877.6425136729706
 10
2725.987420986215
 20
877.6425136729706
  0
LWPOLYLINE
  5
AA79
330
1E
100
AcDbEntity
  8
躯体と製品
  6
Continuous
 62
     4
100
AcDbPolyline
 90
        2
 70
     0
 43
0.0
 10
2731.787423986216
 20
866.6425136729706
 10
2731.787423986216
 20
871.8425146729707
  0
LWPOLYLINE
  5
AA7A
330
1E
100
AcDbEntity
  8
躯体と製品
  6
Continuous
 62
     4
100
AcDbPolyline
 90
        2
 70
     0
 43
0.0
 10
2631.787423986216
 20
866.6425136729706
 10
2631.787423986216
 20
871.8425146729707
  0
LWPOLYLINE
  5
AA7B
330
1E
100
AcDbEntity
  8
躯体と製品
  6
Continuous
 62
     4
100
AcDbPolyline
 90
        2
 70
     0
 43
0.0
 10
2681.787421986216
 20
866.6425136729706
 10
2631.787423986216
 20
866.6425136729706
  0
LWPOLYLINE
  5
AA7C
330
1E
100
AcDbEntity
  8
躯体と製品
  6
Continuous
 62
     4
100
AcDbPolyline
 90
        2
 70
     0
 43
0.0
 10
2676.587421986216
 20
780.0855916729706
 10
2676.587421986216
 20
853.0404786729706
  0
LWPOLYLINE
  5
AA7D
330
1E
100
AcDbEntity
  8
躯体と製品
  6
Continuous
 62
     4
100
AcDbPolyline
 90
        2
 70
     0
 43
0.0
 10
2675.787421986216
 20
779.6425136729705
 10
2675.787421986216
 20
853.0404786729706
  0
LWPOLYLINE
  5
AC76
330
1E
100
AcDbEntity
  8
文字-記号
  6
Continuous
 62
     7
100
AcDbPolyline
 90
        3
 70
     0
 43
0.0
 10
2666.943422983357
 20
972.6425136729705
 10
2685.71250525723
 20
1005.151517782759
 10
2759.776780813249
 20
1005.151517782759
  0
TEXT
  5
AC77
330
1E
100
AcDbEntity
  8
文字-記号
  6
Continuous
 62
     7
100
AcDbText
 10
2692.432824695621
 20
1006.981799060447
 30
0.0
 40
6.5
  1
フローリング貼り
 41
1.007498246740355
100
AcDbText
  0
LWPOLYLINE
  5
AC78
330
1E
100
AcDbEntity
  8
文字-記号
  6
Continuous
 62
     7
100
AcDbPolyline
 90
        3
 70
     0
 43
0.0
 10
2679.022779190331
 20
949.6425136729707
 10
2702.422349017172
 20
990.1717574883146
 10
2747.465300943205
 20
990.1717574883146
  0
TEXT
  5
AC79
330
1E
100
AcDbEntity
  8
文字-記号
  6
Continuous
 62
     7
100
AcDbText
 10
2710.808773539931
 20
992.0020387660033
 30
0.0
 40
6.5
  1
捨板貼り
 41
1.007498246740355
100
AcDbText
  0
TEXT
  5
BE27
330
1E
100
AcDbEntity
  8
文字-記号
  6
Continuous
 62
     3
100
AcDbText
 10
2547.366155650224
 20
1042.784310770451
 30
0.0
 40
12.999999999
  1
■スリーベース512-Ｐ型（公共施設・一般事務室等 低床用：プレートタイプ）
  7
ACAD
100
AcDbText
  0
TEXT
  5
BE28
330
1E
100
AcDbEntity
  8
文字-記号
  6
Continuous
 62
     3
100
AcDbText
 10
2810.109472739434
 20
1022.831050316437
 30
0.0
 40
12.999999999
  1
ネタ・クロス h=95mm～185mm
  7
ACAD
100
AcDbText
  0
ENDSEC
  0
SECTION
  2
OBJECTS
  0
DICTIONARY
  5
C
330
0
100
AcDbDictionary
281
     1
  3
ACAD_CIP_PREVIOUS_PRODUCT_INFO
350
62FF
  3
ACAD_COLOR
350
62E3
  3
ACAD_GROUP
350
D
  3
ACAD_LAYOUT
350
19
  3
ACAD_MATERIAL
350
62B1
  3
ACAD_MLEADERSTYLE
350
62F8
  3
ACAD_MLINESTYLE
350
16
  3
ACAD_PLOTSETTINGS
350
18
  3
ACAD_PLOTSTYLENAME
350
E
  3
ACAD_SCALELIST
350
62E6
  3
ACAD_TABLESTYLE
350
62E4
  3
ACAD_VISUALSTYLE
350
62CA
  3
ACDB_RECOMPOSE_DATA
350
C0D5
  3
AcDbVariableDictionary
350
169
  3
AEC_PROPERTY_SET_DEFS
350
8ABE
  0
DICTIONARY
  5
ACDD
330
8
100
AcDbDictionary
280
     1
281
     1
  0
DICTIONARY
  5
175
330
2
100
AcDbDictionary
280
     1
281
     1
  3
ACAD_LAYERFILTERS
360
185
  3
ACAD_LAYERSTATES
360
176
  0
DICTIONARY
  5
8065
330
10
100
AcDbDictionary
280
     1
281
     1
  3
ADSK_XREC_LAYER_RECONCILED
360
8066
  0
DICTIONARY
  5
8067
330
178
100
AcDbDictionary
280
     1
281
     1
  3
ADSK_XREC_LAYER_RECONCILED
360
8068
  0
DICTIONARY
  5
8069
330
179
100
AcDbDictionary
280
     1
281
     1
  3
ADSK_XREC_LAYER_RECONCILED
360
806A
  0
DICTIONARY
  5
806B
330
4F62
100
AcDbDictionary
280
     1
281
     1
  3
ADSK_XREC_LAYER_RECONCILED
360
806C
  0
DICTIONARY
  5
28B
330
1E
100
AcDbDictionary
280
     1
281
     1
  3
ACAD_LAYOUTSELFREF
360
62AA
  3
ACAD_SORTENTS
360
89B0
  0
DICTIONARY
  5
28D
330
1A
100
AcDbDictionary
280
     1
281
     1
  3
ACAD_LAYOUTSELFREF
360
62A9
  0
XRECORD
  5
62FF
102
{ACAD_REACTORS
330
C
102
}
330
C
100
AcDbXrecord
280
     1
300
ACD
300
2012
300
ACD_F_S
  0
DICTIONARY
  5
62E3
102
{ACAD_REACTORS
330
C
102
}
330
C
100
AcDbDictionary
281
     1
  0
DICTIONARY
  5
D
102
{ACAD_REACTORS
330
C
102
}
330
C
100
AcDbDictionary
281
     1
  0
DICTIONARY
  5
19
102
{ACAD_REACTORS
330
C
102
}
330
C
100
AcDbDictionary
281
     1
  3
Model
350
21
  3
ﾚｲｱｳﾄ1
350
1D
  0
DICTIONARY
  5
62B1
102
{ACAD_REACTORS
330
C
102
}
330
C
100
AcDbDictionary
281
     1
  3
ByBlock
350
62BA
  3
ByLayer
350
62B2
  3
Global
350
62C2
  0
DICTIONARY
  5
62F8
102
{ACAD_REACTORS
330
C
102
}
330
C
100
AcDbDictionary
281
     1
  3
Standard
350
62F9
  0
DICTIONARY
  5
16
102
{ACAD_REACTORS
330
C
102
}
330
C
100
AcDbDictionary
281
     1
  3
Standard
350
17
  0
DICTIONARY
  5
18
102
{ACAD_REACTORS
330
C
102
}
330
C
100
AcDbDictionary
281
     1
  0
ACDBDICTIONARYWDFLT
  5
E
102
{ACAD_REACTORS
330
C
102
}
330
C
100
AcDbDictionary
281
     1
  3
Normal
350
F
100
AcDbDictionaryWithDefault
340
F
  0
DICTIONARY
  5
62E6
102
{ACAD_REACTORS
330
C
102
}
330
C
100
AcDbDictionary
281
     1
  3
A0
350
62E7
  3
A1
350
62E8
  3
A2
350
62E9
  3
A3
350
62EA
  3
A4
350
62EB
  3
A5
350
62EC
  3
A6
350
62ED
  3
A7
350
62EE
  3
A8
350
62EF
  3
A9
350
62F0
  3
B0
350
62F1
  3
B1
350
62F2
  3
B2
350
62F3
  3
B3
350
62F4
  3
B4
350
62F5
  3
B5
350
62F6
  3
B6
350
62F7
  0
DICTIONARY
  5
62E4
102
{ACAD_REACTORS
330
C
102
}
330
C
100
AcDbDictionary
281
     1
  3
Standard
350
62E5
  0
DICTIONARY
  5
62CA
102
{ACAD_REACTORS
330
C
102
}
330
C
100
AcDbDictionary
281
     1
  3
2dWireframe
350
62D0
  3
Basic
350
62CF
  3
Brighten
350
62D6
  3
ColorChange
350
62DA
  3
Conceptual
350
62D3
  3
Dim
350
62D5
  3
EdgeColorOff
350
62E2
  3
Facepattern
350
62D9
  3
Flat
350
62CB
  3
FlatWithEdges
350
62CC
  3
Gouraud
350
62CD
  3
GouraudWithEdges
350
62CE
  3
Hidden
350
62D2
  3
JitterOff
350
62E0
  3
Linepattern
350
62D8
  3
OverhangOff
350
62E1
  3
Realistic
350
62D4
  3
Shaded
350
62DF
  3
Shaded with edges
350
62DE
  3
Shades of Gray
350
62DB
  3
Sketchy
350
62DC
  3
Thicken
350
62D7
  3
Wireframe
350
62D1
  3
X-Ray
350
62DD
  0
XRECORD
  5
C0D5
102
{ACAD_REACTORS
330
C
102
}
330
C
100
AcDbXrecord
280
     1
 90
        1
330
62E5
  0
DICTIONARY
  5
169
102
{ACAD_REACTORS
330
C
102
}
330
C
100
AcDbDictionary
281
     1
  3
CANNOSCALE
350
8AA3
  3
CMLEADERSTYLE
350
8AA1
  3
CTABLESTYLE
350
8AA0
  3
DIMASSOC
350
16A
  3
LAYEREVAL
350
8AA5
  3
LAYERNOTIFY
350
8AA6
  3
LIGHTINGUNITS
350
8AA4
  3
MSLTSCALE
350
8AA2
  3
XCLIPFRAME
350
C0D1
  0
DICTIONARY
  5
8ABE
102
{ACAD_REACTORS
330
C
102
}
330
C
100
AcDbDictionary
281
     1
  0
DICTIONARY
  5
185
102
{ACAD_REACTORS
330
175
102
}
330
175
100
AcDbDictionary
280
     1
281
     1
  0
DICTIONARY
  5
176
102
{ACAD_REACTORS
330
175
102
}
330
175
100
AcDbDictionary
281
     1
  3
ACAD
350
177
  0
XRECORD
  5
8066
102
{ACAD_REACTORS
330
8065
102
}
330
8065
100
AcDbXrecord
280
     1
290
     1
  0
XRECORD
  5
8068
102
{ACAD_REACTORS
330
8067
102
}
330
8067
100
AcDbXrecord
280
     1
290
     1
  0
XRECORD
  5
806A
102
{ACAD_REACTORS
330
8069
102
}
330
8069
100
AcDbXrecord
280
     1
290
     1
  0
XRECORD
  5
806C
102
{ACAD_REACTORS
330
806B
102
}
330
806B
100
AcDbXrecord
280
     1
290
     1
  0
XRECORD
  5
62AA
102
{ACAD_REACTORS
330
28B
102
}
330
28B
100
AcDbXrecord
280
     1
340
1E
  0
SORTENTSTABLE
  5
89B0
102
{ACAD_REACTORS
330
28B
102
}
330
28B
100
AcDbSortentsTable
330
1E
331
AA58
  5
9B3F
331
A47C
  5
AA98
331
9F8D
  5
A9E0
331
9C7E
  5
A93A
331
AA21
  5
9C8C
331
AA60
  5
9B37
331
AA29
  5
9C72
331
A6BB
  5
A95E
331
9F95
  5
A9E8
331
9C86
  5
A942
331
A9DA
  5
9F00
331
AA68
  5
9B2F
331
A6C3
  5
A956
331
A61C
  5
9FB1
331
9C8E
  5
A949
331
9540
  5
9A36
331
AA31
  5
9C0C
331
AA70
  5
9A4E
331
AA78
  5
9A43
331
AA39
  5
9BA6
331
A634
  5
9F69
331
9A7F
  5
A850
331
9578
  5
9B5B
331
AA02
  5
9EA9
331
AA41
  5
9B7C
331
A63C
  5
9B57
331
A465
  5
AA81
331
AA0A
  5
9EA1
331
AA49
  5
9B60
331
AA12
  5
9CAC
331
A664
  5
A9EB
331
A46D
  5
AA89
331
A6F3
  5
A8C6
331
AA51
  5
9B46
331
AA1A
  5
9CA0
331
A66C
  5
A9DC
331
A475
  5
AA91
331
A6FB
  5
A8B5
331
AA59
  5
9B3E
331
AA22
  5
9C8B
331
9F8E
  5
A9E1
331
9C7F
  5
A93B
331
A9D3
  5
9F07
331
AA61
  5
9B36
331
AA2A
  5
9C71
331
A6BC
  5
A95D
331
9F96
  5
A9E9
331
A9DB
  5
9EFF
331
AA69
  5
9A58
331
A6C4
  5
A955
331
9C8F
  5
A94A
331
9541
  5
9A38
331
AA32
  5
9C09
331
AA71
  5
9A4C
331
AA79
  5
9A41
331
AA3A
  5
9BA3
331
9CA7
  5
A962
331
9A80
  5
A851
331
AA03
  5
9EA8
331
AA42
  5
9B7B
331
A466
  5
AA82
331
9B48
  5
A8B7
331
AA0B
  5
9EA0
331
AA4A
  5
9B5F
331
AA13
  5
9CAB
331
A665
  5
A9EA
331
A46E
  5
AA8A
331
A6F4
  5
A8C5
331
AA52
  5
9B45
331
AA1B
  5
9C96
331
A66D
  5
A9DB
331
A476
  5
AA92
331
A6FC
  5
A8B4
331
AA5A
  5
9B3D
331
AA23
  5
9C8A
331
9F8F
  5
A9E2
331
9C80
  5
A93C
331
A9D4
  5
9F06
331
AA62
  5
9B35
331
AA2B
  5
9C70
331
A6BD
  5
A95C
331
9C88
  5
A943
331
A9DC
  5
9EFE
331
AA6A
  5
9A57
331
A6C5
  5
A954
331
9C90
  5
A94B
331
9542
  5
9A3A
331
AA33
  5
9C08
331
A62E
  5
9F76
331
AA72
  5
9A4B
331
AA7A
  5
9A3F
331
AA3B
  5
9B8E
331
A636
  5
9F0C
331
AA04
  5
9EA7
331
AA43
  5
9B78
331
AA0C
  5
9E9F
331
A467
  5
AA83
331
9B49
  5
A8B8
331
A6ED
  5
A8CC
331
AA4B
  5
9B5E
331
AA14
  5
9CAA
331
A666
  5
A9E6
331
A46F
  5
AA8B
331
9B51
  5
A8C0
331
9622
  5
9F53
331
A6F5
  5
A8C4
331
AA53
  5
9B44
331
A477
  5
AA93
331
AA1C
  5
9C95
331
962A
  5
9F73
331
AA5B
  5
9B3C
331
AA24
  5
9C7C
331
A6B6
  5
A967
331
9C81
  5
A93D
331
964A
  5
9FB5
331
A9D5
  5
9F05
331
AA63
  5
9B34
331
AA2C
  5
9C6F
331
A6BE
  5
A95B
331
9C89
  5
A944
331
A9DD
  5
9EFD
331
AA6B
  5
9A55
331
A6C6
  5
A953
331
9C91
  5
A94C
331
AA34
  5
9C07
331
AA73
  5
9A4A
331
A9FD
  5
9EC1
331
A090
  5
AA2D
331
AA7B
  5
9A3E
331
AA3C
  5
9B8D
331
9CA9
  5
A964
331
AA05
  5
9EA6
331
AA44
  5
9B75
331
AA0D
  5
9E9E
331
A468
  5
AA84
331
9B4A
  5
A8B9
331
A6EE
  5
A8CB
331
AA4C
  5
9B56
331
AA15
  5
9CA9
331
A667
  5
A9E5
331
A470
  5
AA8C
331
9B52
  5
A8C1
331
A6F6
  5
A8BF
331
AA54
  5
9B43
331
AA1D
  5
9C94
331
A478
  5
AA94
331
AA5C
  5
9B3B
331
AA25
  5
9C7B
331
A6B7
  5
A965
331
9C82
  5
A93E
331
A9D6
  5
9F04
331
AA64
  5
9B33
331
AA2D
  5
9C61
331
A6BF
  5
A95A
331
9C8A
  5
A945
331
A9DE
  5
9EFC
331
AA6C
  5
9A54
331
A6C7
  5
A952
331
9C92
  5
A94D
331
AA35
  5
9C06
331
AA74
  5
9A49
331
A9FE
  5
9EC0
331
A630
  5
9F6F
331
AA7C
  5
9A3D
331
AA3D
  5
9B8C
331
A638
  5
9F0A
331
AA06
  5
9EA5
331
AA45
  5
9B74
331
AA0E
  5
9E9D
331
A469
  5
AA85
331
9B4B
  5
A8BA
331
961C
  5
9F09
331
A6EF
  5
A8CA
331
AA4D
  5
9B55
331
AA16
  5
9CA8
331
A668
  5
A9E4
331
A471
  5
AA8D
331
9B53
  5
A8C2
331
A6F7
  5
A8BE
331
AA55
  5
9B42
331
AA1E
  5
9C93
331
A479
  5
AA95
331
9C7B
  5
A937
331
AA5D
  5
9B3A
331
AA26
  5
9C79
331
A6B8
  5
A963
331
9C83
  5
A93F
331
A9D7
  5
9F03
331
AA65
  5
9B32
331
AA2E
  5
9C11
331
A6C0
  5
A959
331
A07A
  5
AA2C
331
9C8B
  5
A946
331
9A74
  5
A845
331
953D
  5
9A32
331
A9DF
  5
9EFB
331
AA6D
  5
9A52
331
9C93
  5
A94E
331
AA36
  5
9BA9
331
AA75
  5
9A47
331
A9FF
  5
9EBF
331
A6C8
  5
A951
331
AA7D
  5
9A3B
331
AA3E
  5
9B8B
331
9CAB
  5
A966
331
AA07
  5
9EA4
331
AA46
  5
9B73
331
AA0F
  5
9E9C
331
A46A
  5
AA86
331
A6F0
  5
A8C9
331
AA4E
  5
9B51
331
AA17
  5
9CA6
331
A669
  5
A9E3
331
A472
  5
AA8E
331
9B54
  5
A8C3
331
9625
  5
9F6B
331
A6F8
  5
A8BC
331
AA56
  5
9B41
331
AA1F
  5
9C90
331
A47A
  5
AA96
331
9C7C
  5
A938
331
962D
  5
9F77
331
AA5E
  5
9B39
331
AA27
  5
9C78
331
A6B9
  5
A961
331
9C84
  5
A940
331
964D
  5
9FB7
331
A9D8
  5
9F02
331
AA66
  5
9B31
331
AA2F
  5
9C10
331
A6C1
  5
A958
331
A61A
  5
9FB6
331
9C8C
  5
A947
331
9A75
  5
A846
331
953E
  5
9A33
331
A9E0
  5
9EFA
331
AA6E
  5
9A51
331
9C94
  5
A94F
331
AA37
  5
9BA8
331
AA76
  5
9A46
331
AA00
  5
9EAB
331
A632
  5
9F6D
331
AA3F
  5
9B7E
331
A63A
  5
9F08
331
A463
  5
AA7F
331
AA08
  5
9EA3
331
AA47
  5
9B72
331
AA10
  5
9E9B
331
A46B
  5
AA87
331
A6F1
  5
A8C8
331
AA4F
  5
9B50
331
AA18
  5
9CA4
331
A66A
  5
A9DE
331
A473
  5
AA8F
331
A6F9
  5
A8BB
331
AA57
  5
9B40
331
AA20
  5
9C8D
331
A47B
  5
AA97
331
9F8C
  5
A9DF
331
9C7D
  5
A939
331
AA5F
  5
9B38
331
AA28
  5
9C75
331
A6BA
  5
A95F
331
9F94
  5
A9E7
331
9C85
  5
A941
331
A9D9
  5
9F01
331
AA67
  5
9B30
331
AA30
  5
9C0F
331
A6C2
  5
A957
331
9C8D
  5
A948
331
953F
  5
9A35
331
A9E1
  5
9EF9
331
9C95
  5
A950
331
AA6F
  5
9A4F
331
AA77
  5
9A44
331
AA01
  5
9EAA
331
9CA5
  5
A960
331
9577
  5
9B58
331
AA38
  5
9BA7
331
AA40
  5
9B7D
331
A464
  5
AA80
331
AA09
  5
9EA2
331
AA48
  5
9B61
331
AA11
  5
9E9A
331
A46C
  5
AA88
331
9B4E
  5
A8BD
331
961F
  5
9F0B
331
A6F2
  5
A8C7
331
AA50
  5
9B4F
331
AA19
  5
9CA2
331
A66B
  5
A9DD
331
A474
  5
AA90
331
A6FA
  5
A8B6
  0
XRECORD
  5
62A9
102
{ACAD_REACTORS
330
28D
102
}
330
28D
100
AcDbXrecord
280
     1
340
1A
  0
LAYOUT
  5
21
102
{ACAD_XDICTIONARY
360
8088
102
}
102
{ACAD_REACTORS
330
19
102
}
330
19
100
AcDbPlotSettings
  1

  2
none_device
  4
Letter_(8.50_x_11.00_Inches)
  6

 40
6.349999904632568
 41
6.349999904632568
 42
6.350006103515625
 43
6.350006103515625
 44
215.8999938964844
 45
279.3999938964844
 46
0.0
 47
0.0
 48
0.0
 49
0.0
140
0.0
141
0.0
142
1.0
143
287.5966853151187
 70
 11952
 72
     0
 73
     1
 74
     0
  7
monochrome.ctb
 75
     0
147
0.0034770915349887
 76
     0
 77
     2
 78
   300
148
-43408.05097288533
149
-3026.751107198562
100
AcDbLayout
  1
Model
 70
     1
 71
     0
 10
0.0
 20
0.0
 11
12.0
 21
9.0
 12
0.0
 22
0.0
 32
0.0
 14
0.0
 24
0.0
 34
0.0
 15
0.0
 25
0.0
 35
0.0
146
0.0
 13
0.0
 23
0.0
 33
0.0
 16
1.0
 26
0.0
 36
0.0
 17
0.0
 27
1.0
 37
0.0
 76
     0
330
1E
331
6265
1001
ACAD_PSEXT
1000
なし
1000
なし
1000
適切ではありません
1000
新しいプロッタ環境設定名を選択しない限り、レイアウトは印刷されません。
1070
     0
  0
LAYOUT
  5
1D
102
{ACAD_REACTORS
330
19
102
}
330
19
100
AcDbPlotSettings
  1

  2
\\MEISEI-1\EPSON Stylus Photo EX3
  4

  6

 40
0.0
 41
0.0
 42
0.0
 43
0.0
 44
0.0
 45
0.0
 46
0.0
 47
0.0
 48
0.0
 49
0.0
140
0.0
141
0.0
142
1.0
143
1.0
 70
   688
 72
     0
 73
     0
 74
     5
  7
monochrome.ctb
 75
    16
147
1.0
 76
     0
 77
     2
 78
   300
148
0.0
149
0.0
100
AcDbLayout
  1
ﾚｲｱｳﾄ1
 70
     1
 71
     1
 10
0.0
 20
0.0
 11
12.0
 21
9.0
 12
0.0
 22
0.0
 32
0.0
 14
1.000000000000000E+20
 24
1.000000000000000E+20
 34
1.000000000000000E+20
 15
-1.000000000000000E+20
 25
-1.000000000000000E+20
 35
-1.000000000000000E+20
146
0.0
 13
0.0
 23
0.0
 33
0.0
 16
1.0
 26
0.0
 36
0.0
 17
0.0
 27
1.0
 37
0.0
 76
     0
330
1A
  0
MATERIAL
  5
62BA
102
{ACAD_XDICTIONARY
360
62BB
102
}
102
{ACAD_REACTORS
330
62B1
102
}
330
62B1
100
AcDbMaterial
  1
ByBlock
 72
     0
 43
0.0208333333333333
 43
0.0
 43
0.0
 43
0.0
 43
0.0
 43
0.0208333333333333
 43
0.0
 43
0.0
 43
0.0
 43
0.0
 43
1.0
 43
0.0
 43
0.0
 43
0.0
 43
0.0
 43
1.0
 77
     0
 47
0.0208333333333333
 47
0.0
 47
0.0
 47
0.0
 47
0.0
 47
0.0208333333333333
 47
0.0
 47
0.0
 47
0.0
 47
0.0
 47
1.0
 47
0.0
 47
0.0
 47
0.0
 47
0.0
 47
1.0
171
     0
 49
0.0208333333333333
 49
0.0
 49
0.0
 49
0.0
 49
0.0
 49
0.0208333333333333
 49
0.0
 49
0.0
 49
0.0
 49
0.0
 49
1.0
 49
0.0
 49
0.0
 49
0.0
 49
0.0
 49
1.0
175
     0
142
0.0208333333333333
142
0.0
142
0.0
142
0.0
142
0.0
142
0.0208333333333333
142
0.0
142
0.0
142
0.0
142
0.0
142
1.0
142
0.0
142
0.0
142
0.0
142
0.0
142
1.0
179
     0
144
0.0208333333333333
144
0.0
144
0.0
144
0.0
144
0.0
144
0.0208333333333333
144
0.0
144
0.0
144
0.0
144
0.0
144
1.0
144
0.0
144
0.0
144
0.0
144
0.0
144
1.0
147
0.0208333333333333
147
0.0
147
0.0
147
0.0
147
0.0
147
0.0208333333333333
147
0.0
147
0.0
147
0.0
147
0.0
147
1.0
147
0.0
147
0.0
147
0.0
147
0.0
147
1.0
  0
MATERIAL
  5
62B2
102
{ACAD_XDICTIONARY
360
62B3
102
}
102
{ACAD_REACTORS
330
62B1
102
}
330
62B1
100
AcDbMaterial
  1
ByLayer
 72
     0
 43
0.0208333333333333
 43
0.0
 43
0.0
 43
0.0
 43
0.0
 43
0.0208333333333333
 43
0.0
 43
0.0
 43
0.0
 43
0.0
 43
1.0
 43
0.0
 43
0.0
 43
0.0
 43
0.0
 43
1.0
 77
     0
 47
0.0208333333333333
 47
0.0
 47
0.0
 47
0.0
 47
0.0
 47
0.0208333333333333
 47
0.0
 47
0.0
 47
0.0
 47
0.0
 47
1.0
 47
0.0
 47
0.0
 47
0.0
 47
0.0
 47
1.0
171
     0
 49
0.0208333333333333
 49
0.0
 49
0.0
 49
0.0
 49
0.0
 49
0.0208333333333333
 49
0.0
 49
0.0
 49
0.0
 49
0.0
 49
1.0
 49
0.0
 49
0.0
 49
0.0
 49
0.0
 49
1.0
175
     0
142
0.0208333333333333
142
0.0
142
0.0
142
0.0
142
0.0
142
0.0208333333333333
142
0.0
142
0.0
142
0.0
142
0.0
142
1.0
142
0.0
142
0.0
142
0.0
142
0.0
142
1.0
179
     0
144
0.0208333333333333
144
0.0
144
0.0
144
0.0
144
0.0
144
0.0208333333333333
144
0.0
144
0.0
144
0.0
144
0.0
144
1.0
144
0.0
144
0.0
144
0.0
144
0.0
144
1.0
147
0.0208333333333333
147
0.0
147
0.0
147
0.0
147
0.0
147
0.0208333333333333
147
0.0
147
0.0
147
0.0
147
0.0
147
1.0
147
0.0
147
0.0
147
0.0
147
0.0
147
1.0
  0
MATERIAL
  5
62C2
102
{ACAD_XDICTIONARY
360
62C3
102
}
102
{ACAD_REACTORS
330
62B1
102
}
330
62B1
100
AcDbMaterial
  1
Global
 72
     0
 43
0.0208333333333333
 43
0.0
 43
0.0
 43
0.0
 43
0.0
 43
0.0208333333333333
 43
0.0
 43
0.0
 43
0.0
 43
0.0
 43
1.0
 43
0.0
 43
0.0
 43
0.0
 43
0.0
 43
1.0
 77
     0
 47
0.0208333333333333
 47
0.0
 47
0.0
 47
0.0
 47
0.0
 47
0.0208333333333333
 47
0.0
 47
0.0
 47
0.0
 47
0.0
 47
1.0
 47
0.0
 47
0.0
 47
0.0
 47
0.0
 47
1.0
171
     0
 49
0.0208333333333333
 49
0.0
 49
0.0
 49
0.0
 49
0.0
 49
0.0208333333333333
 49
0.0
 49
0.0
 49
0.0
 49
0.0
 49
1.0
 49
0.0
 49
0.0
 49
0.0
 49
0.0
 49
1.0
175
     0
142
0.0208333333333333
142
0.0
142
0.0
142
0.0
142
0.0
142
0.0208333333333333
142
0.0
142
0.0
142
0.0
142
0.0
142
1.0
142
0.0
142
0.0
142
0.0
142
0.0
142
1.0
179
     0
144
0.0208333333333333
144
0.0
144
0.0
144
0.0
144
0.0
144
0.0208333333333333
144
0.0
144
0.0
144
0.0
144
0.0
144
1.0
144
0.0
144
0.0
144
0.0
144
0.0
144
1.0
147
0.0208333333333333
147
0.0
147
0.0
147
0.0
147
0.0
147
0.0208333333333333
147
0.0
147
0.0
147
0.0
147
0.0
147
1.0
147
0.0
147
0.0
147
0.0
147
0.0
147
1.0
  0
MLEADERSTYLE
  5
62F9
102
{ACAD_XDICTIONARY
360
C0D3
102
}
102
{ACAD_REACTORS
330
62F8
102
}
330
62F8
100
AcDbMLeaderStyle
170
     2
171
     1
172
     0
 90
        2
 40
0.0
 41
0.0
173
     1
 91
-1056964608
340
13
 92
       -2
290
     1
 42
0.09
291
     1
 43
0.36
  3
Standard
 44
0.18
300

342
11
174
     1
178
     6
175
     1
176
     0
 93
-1056964608
 45
0.18
292
     0
297
     0
 46
0.18
 94
-1056964608
 47
1.0
 49
1.0
140
1.0
293
     1
141
0.0
294
     1
177
     0
142
1.0
295
     0
296
     0
143
0.125
1001
ACAD_MLEADERVER
1070
     2
  0
MLINESTYLE
  5
17
102
{ACAD_REACTORS
330
16
102
}
330
16
100
AcDbMlineStyle
  2
STANDARD
 70
     0
  3

 62
   256
 51
90.0
 52
90.0
 71
     2
 49
0.5
 62
   256
  6
BYLAYER
 49
-0.5
 62
   256
  6
BYLAYER
  0
ACDBPLACEHOLDER
  5
F
102
{ACAD_REACTORS
330
E
102
}
330
E
  0
SCALE
  5
62E7
102
{ACAD_REACTORS
330
62E6
102
}
330
62E6
100
AcDbScale
 70
     0
300
1:1
140
1.0
141
1.0
290
     1
  0
SCALE
  5
62E8
102
{ACAD_REACTORS
330
62E6
102
}
330
62E6
100
AcDbScale
 70
     0
300
1/128" = 1'-0"
140
0.0078125
141
12.0
290
     0
  0
SCALE
  5
62E9
102
{ACAD_REACTORS
330
62E6
102
}
330
62E6
100
AcDbScale
 70
     0
300
1/64" = 1'-0"
140
0.015625
141
12.0
290
     0
  0
SCALE
  5
62EA
102
{ACAD_REACTORS
330
62E6
102
}
330
62E6
100
AcDbScale
 70
     0
300
1/32" = 1'-0"
140
0.03125
141
12.0
290
     0
  0
SCALE
  5
62EB
102
{ACAD_REACTORS
330
62E6
102
}
330
62E6
100
AcDbScale
 70
     0
300
1/16" = 1'-0"
140
0.0625
141
12.0
290
     0
  0
SCALE
  5
62EC
102
{ACAD_REACTORS
330
62E6
102
}
330
62E6
100
AcDbScale
 70
     0
300
3/32" = 1'-0"
140
0.09375
141
12.0
290
     0
  0
SCALE
  5
62ED
102
{ACAD_REACTORS
330
62E6
102
}
330
62E6
100
AcDbScale
 70
     0
300
1/8" = 1'-0"
140
0.125
141
12.0
290
     0
  0
SCALE
  5
62EE
102
{ACAD_REACTORS
330
62E6
102
}
330
62E6
100
AcDbScale
 70
     0
300
3/16" = 1'-0"
140
0.1875
141
12.0
290
     0
  0
SCALE
  5
62EF
102
{ACAD_REACTORS
330
62E6
102
}
330
62E6
100
AcDbScale
 70
     0
300
1/4" = 1'-0"
140
0.25
141
12.0
290
     0
  0
SCALE
  5
62F0
102
{ACAD_REACTORS
330
62E6
102
}
330
62E6
100
AcDbScale
 70
     0
300
3/8" = 1'-0"
140
0.375
141
12.0
290
     0
  0
SCALE
  5
62F1
102
{ACAD_REACTORS
330
62E6
102
}
330
62E6
100
AcDbScale
 70
     0
300
1/2" = 1'-0"
140
0.5
141
12.0
290
     0
  0
SCALE
  5
62F2
102
{ACAD_REACTORS
330
62E6
102
}
330
62E6
100
AcDbScale
 70
     0
300
3/4" = 1'-0"
140
0.75
141
12.0
290
     0
  0
SCALE
  5
62F3
102
{ACAD_REACTORS
330
62E6
102
}
330
62E6
100
AcDbScale
 70
     0
300
1" = 1'-0"
140
1.0
141
12.0
290
     0
  0
SCALE
  5
62F4
102
{ACAD_REACTORS
330
62E6
102
}
330
62E6
100
AcDbScale
 70
     0
300
1-1/2" = 1'-0"
140
1.5
141
12.0
290
     0
  0
SCALE
  5
62F5
102
{ACAD_REACTORS
330
62E6
102
}
330
62E6
100
AcDbScale
 70
     0
300
3" = 1'-0"
140
3.0
141
12.0
290
     0
  0
SCALE
  5
62F6
102
{ACAD_REACTORS
330
62E6
102
}
330
62E6
100
AcDbScale
 70
     0
300
6" = 1'-0"
140
6.0
141
12.0
290
     0
  0
SCALE
  5
62F7
102
{ACAD_REACTORS
330
62E6
102
}
330
62E6
100
AcDbScale
 70
     0
300
1'-0" = 1'-0"
140
12.0
141
12.0
290
     0
  0
TABLESTYLE
  5
62E5
102
{ACAD_XDICTIONARY
360
ACD8
102
}
102
{ACAD_REACTORS
330
62E4
102
}
330
62E4
100
AcDbTableStyle
  3
Standard
 70
     0
 71
     0
 40
0.06
 41
0.06
280
     0
281
     0
  7
STANDARD
140
0.18
170
     2
 62
     0
 63
     7
283
     0
274
    -2
284
     1
 64
     0
275
    -2
285
     1
 65
     0
276
    -2
286
     1
 66
     0
277
    -2
287
     1
 67
     0
278
    -2
288
     1
 68
     0
279
    -2
289
     1
 69
     0
  7
STANDARD
140
0.25
170
     5
 62
     0
 63
     7
283
     0
274
    -2
284
     1
 64
     0
275
    -2
285
     1
 65
     0
276
    -2
286
     1
 66
     0
277
    -2
287
     1
 67
     0
278
    -2
288
     1
 68
     0
279
    -2
289
     1
 69
     0
  7
STANDARD
140
0.18
170
     5
 62
     0
 63
     7
283
     0
274
    -2
284
     1
 64
     0
275
    -2
285
     1
 65
     0
276
    -2
286
     1
 66
     0
277
    -2
287
     1
 67
     0
278
    -2
288
     1
 68
     0
279
    -2
289
     1
 69
     0
  0
VISUALSTYLE
  5
62D0
102
{ACAD_XDICTIONARY
360
C0E3
102
}
102
{ACAD_REACTORS
330
62CA
102
}
330
62CA
100
AcDbVisualStyle
  2
2dWireframe
 70
     4
 71
     0
 72
     2
 73
     0
 90
        0
 40
-0.6
 41
-30.0
 62
     5
 63
     7
421
 16777215
 74
     1
 91
        4
 64
     7
 65
   257
 75
     1
175
     1
 42
1.0
 92
        0
 66
   257
 43
1.0
 76
     1
 77
     6
 78
     2
 67
     7
 79
     5
170
     0
171
     0
290
     0
174
     0
 93
        1
 44
0.0
173
     0
291
     0
 45
0.0
1001
ACAD
1000
AcDbSavedByObjectVersion
1070
     0
  0
VISUALSTYLE
  5
62CF
102
{ACAD_XDICTIONARY
360
C0E1
102
}
102
{ACAD_REACTORS
330
62CA
102
}
330
62CA
100
AcDbVisualStyle
  2
Basic
 70
     7
 71
     1
 72
     0
 73
     1
 90
        0
 40
-0.6
 41
-30.0
 62
     5
 63
     7
421
 16777215
 74
     0
 91
        4
 64
     7
 65
   257
 75
     1
175
     1
 42
1.0
 92
        8
 66
     7
 43
1.0
 76
     1
 77
     6
 78
     2
 67
     7
 79
     5
170
     0
171
     0
290
     0
174
     0
 93
        1
 44
0.0
173
     0
291
     1
 45
0.0
1001
ACAD
1000
AcDbSavedByObjectVersion
1070
     0
  0
VISUALSTYLE
  5
62D6
102
{ACAD_XDICTIONARY
360
C0EF
102
}
102
{ACAD_REACTORS
330
62CA
102
}
330
62CA
100
AcDbVisualStyle
  2
Brighten
 70
    12
 71
     2
 72
     2
 73
     0
 90
        0
 40
-0.6
 41
-30.0
 62
     5
 63
     7
421
 16777215
 74
     1
 91
        4
 64
     7
 65
   257
 75
     1
175
     1
 42
1.0
 92
        8
 66
     7
 43
1.0
 76
     1
 77
     6
 78
     2
 67
     7
 79
     5
170
     0
171
     0
290
     0
174
     0
 93
        1
 44
50.0
173
     0
291
     1
 45
0.0
1001
ACAD
1000
AcDbSavedByObjectVersion
1070
     0
  0
VISUALSTYLE
  5
62DA
102
{ACAD_XDICTIONARY
360
C0F7
102
}
102
{ACAD_REACTORS
330
62CA
102
}
330
62CA
100
AcDbVisualStyle
  2
ColorChange
 70
    16
 71
     2
 72
     2
 73
     3
 90
        0
 40
-0.6
 41
-30.0
 62
     5
 63
     8
421
  8421504
 74
     1
 91
        4
 64
     7
 65
   257
 75
     1
175
     1
 42
1.0
 92
        8
 66
     8
424
  8421504
 43
1.0
 76
     1
 77
     6
 78
     2
 67
     7
 79
     5
170
     0
171
     0
290
     0
174
     0
 93
        1
 44
0.0
173
     0
291
     1
 45
0.0
1001
ACAD
1000
AcDbSavedByObjectVersion
1070
     0
  0
VISUALSTYLE
  5
62D3
102
{ACAD_XDICTIONARY
360
C0E9
102
}
102
{ACAD_REACTORS
330
62CA
102
}
330
62CA
100
AcDbVisualStyle
  2
Conceptual
 70
     9
 71
     3
 72
     2
 73
     0
 90
        0
 40
-0.6
 41
-30.0
 62
     5
 63
     7
421
 16777215
 74
     2
 91
        2
 64
     7
 65
   257
 75
     1
175
     1
 42
179.0
 92
        8
 66
     7
 43
1.0
 76
     1
 77
     6
 78
     2
 67
     7
 79
     3
170
     0
171
     0
290
     0
174
     0
 93
        1
 44
0.0
173
     0
291
     0
 45
0.0
1001
ACAD
1000
AcDbSavedByObjectVersion
1070
     0
  0
VISUALSTYLE
  5
62D5
102
{ACAD_XDICTIONARY
360
C0ED
102
}
102
{ACAD_REACTORS
330
62CA
102
}
330
62CA
100
AcDbVisualStyle
  2
Dim
 70
    11
 71
     2
 72
     2
 73
     0
 90
        0
 40
-0.6
 41
-30.0
 62
     5
 63
     7
421
 16777215
 74
     1
 91
        4
 64
     7
 65
   257
 75
     1
175
     1
 42
1.0
 92
        8
 66
     7
 43
1.0
 76
     1
 77
     6
 78
     2
 67
     7
 79
     5
170
     0
171
     0
290
     0
174
     0
 93
        1
 44
-50.0
173
     0
291
     1
 45
0.0
1001
ACAD
1000
AcDbSavedByObjectVersion
1070
     0
  0
VISUALSTYLE
  5
62E2
102
{ACAD_XDICTIONARY
360
C107
102
}
102
{ACAD_REACTORS
330
62CA
102
}
330
62CA
100
AcDbVisualStyle
  2
EdgeColorOff
 70
    22
 71
     2
 72
     2
 73
     0
 90
        0
 40
-0.6
 41
-30.0
 62
     5
 63
     7
421
 16777215
 74
     1
 91
        4
 64
     7
 65
   257
 75
     1
175
     1
 42
1.0
 92
        8
 66
     7
 43
1.0
 76
     1
 77
     6
 78
     2
 67
     7
 79
     5
170
     0
171
     0
290
     0
174
     0
 93
        1
 44
0.0
173
     0
291
     1
 45
0.0
1001
ACAD
1000
AcDbSavedByObjectVersion
1070
     0
  0
VISUALSTYLE
  5
62D9
102
{ACAD_XDICTIONARY
360
C0F5
102
}
102
{ACAD_REACTORS
330
62CA
102
}
330
62CA
100
AcDbVisualStyle
  2
Facepattern
 70
    15
 71
     2
 72
     2
 73
     0
 90
        0
 40
-0.6
 41
-30.0
 62
     5
 63
     7
421
 16777215
 74
     1
 91
        4
 64
     7
 65
   257
 75
     1
175
     1
 42
1.0
 92
        8
 66
     7
 43
1.0
 76
     1
 77
     6
 78
     2
 67
     7
 79
     5
170
     0
171
     0
290
     0
174
     0
 93
        1
 44
0.0
173
     0
291
     1
 45
0.0
1001
ACAD
1000
AcDbSavedByObjectVersion
1070
     0
  0
VISUALSTYLE
  5
62CB
102
{ACAD_XDICTIONARY
360
C0D9
102
}
102
{ACAD_REACTORS
330
62CA
102
}
330
62CA
100
AcDbVisualStyle
  2
Flat
 70
     0
 71
     2
 72
     1
 73
     1
 90
        2
 40
-0.6
 41
30.0
 62
     5
 63
     7
421
 16777215
 74
     0
 91
        0
 64
     7
 65
   257
 75
     1
175
     1
 42
1.0
 92
        8
 66
     7
 43
1.0
 76
     1
 77
     6
 78
     2
 67
     7
 79
     5
170
     0
171
     0
290
     0
174
     0
 93
       13
 44
0.0
173
     0
291
     1
 45
0.0
1001
ACAD
1000
AcDbSavedByObjectVersion
1070
     0
  0
VISUALSTYLE
  5
62CC
102
{ACAD_XDICTIONARY
360
C0DB
102
}
102
{ACAD_REACTORS
330
62CA
102
}
330
62CA
100
AcDbVisualStyle
  2
FlatWithEdges
 70
     1
 71
     2
 72
     1
 73
     1
 90
        2
 40
-0.6
 41
30.0
 62
     5
 63
     7
421
 16777215
 74
     1
 91
        0
 64
     7
 65
   257
 75
     1
175
     1
 42
1.0
 92
        0
 66
   257
 43
1.0
 76
     1
 77
     6
 78
     2
 67
     7
 79
     5
170
     0
171
     0
290
     0
174
     0
 93
       13
 44
0.0
173
     0
291
     1
 45
0.0
1001
ACAD
1000
AcDbSavedByObjectVersion
1070
     0
  0
VISUALSTYLE
  5
62CD
102
{ACAD_XDICTIONARY
360
C0DD
102
}
102
{ACAD_REACTORS
330
62CA
102
}
330
62CA
100
AcDbVisualStyle
  2
Gouraud
 70
     2
 71
     2
 72
     2
 73
     1
 90
        2
 40
-0.6
 41
30.0
 62
     5
 63
     7
421
 16777215
 74
     0
 91
        0
 64
     7
 65
   257
 75
     1
175
     1
 42
1.0
 92
        0
 66
     7
 43
1.0
 76
     1
 77
     6
 78
     2
 67
     7
 79
     5
170
     0
171
     0
290
     0
174
     0
 93
       13
 44
0.0
173
     0
291
     1
 45
0.0
1001
ACAD
1000
AcDbSavedByObjectVersion
1070
     0
  0
VISUALSTYLE
  5
62CE
102
{ACAD_XDICTIONARY
360
C0DF
102
}
102
{ACAD_REACTORS
330
62CA
102
}
330
62CA
100
AcDbVisualStyle
  2
GouraudWithEdges
 70
     3
 71
     2
 72
     2
 73
     1
 90
        2
 40
-0.6
 41
30.0
 62
     5
 63
     7
421
 16777215
 74
     1
 91
        0
 64
     7
 65
   257
 75
     1
175
     1
 42
1.0
 92
        0
 66
   257
 43
1.0
 76
     1
 77
     6
 78
     2
 67
     7
 79
     5
170
     0
171
     0
290
     0
174
     0
 93
       13
 44
0.0
173
     0
291
     1
 45
0.0
1001
ACAD
1000
AcDbSavedByObjectVersion
1070
     0
  0
VISUALSTYLE
  5
62D2
102
{ACAD_XDICTIONARY
360
C0E7
102
}
102
{ACAD_REACTORS
330
62CA
102
}
330
62CA
100
AcDbVisualStyle
  2
Hidden
 70
     6
 71
     1
 72
     2
 73
     2
 90
        0
 40
-0.6
 41
-30.0
 62
     5
 63
     7
421
 16777215
 74
     2
 91
        2
 64
     7
 65
   257
 75
     2
175
     1
 42
40.0
 92
        0
 66
   257
 43
1.0
 76
     1
 77
     6
 78
     2
 67
     7
 79
     3
170
     0
171
     0
290
     0
174
     0
 93
        1
 44
0.0
173
     0
291
     0
 45
0.0
1001
ACAD
1000
AcDbSavedByObjectVersion
1070
     0
  0
VISUALSTYLE
  5
62E0
102
{ACAD_XDICTIONARY
360
C103
102
}
102
{ACAD_REACTORS
330
62CA
102
}
330
62CA
100
AcDbVisualStyle
  2
JitterOff
 70
    20
 71
     2
 72
     2
 73
     0
 90
        0
 40
-0.6
 41
-30.0
 62
     5
 63
     7
421
 16777215
 74
     1
 91
        4
 64
     7
 65
   257
 75
     1
175
     1
 42
1.0
 92
       10
 66
     7
 43
1.0
 76
     1
 77
     6
 78
     2
 67
     7
 79
     5
170
     0
171
     0
290
     0
174
     0
 93
        1
 44
0.0
173
     0
291
     1
 45
0.0
1001
ACAD
1000
AcDbSavedByObjectVersion
1070
     0
  0
VISUALSTYLE
  5
62D8
102
{ACAD_XDICTIONARY
360
C0F3
102
}
102
{ACAD_REACTORS
330
62CA
102
}
330
62CA
100
AcDbVisualStyle
  2
Linepattern
 70
    14
 71
     2
 72
     2
 73
     0
 90
        0
 40
-0.6
 41
-30.0
 62
     5
 63
     7
421
 16777215
 74
     1
 91
        4
 64
     7
 65
   257
 75
     7
175
     7
 42
1.0
 92
        8
 66
     7
 43
1.0
 76
     1
 77
     6
 78
     2
 67
     7
 79
     5
170
     0
171
     0
290
     0
174
     0
 93
        1
 44
0.0
173
     0
291
     1
 45
0.0
1001
ACAD
1000
AcDbSavedByObjectVersion
1070
     0
  0
VISUALSTYLE
  5
62E1
102
{ACAD_XDICTIONARY
360
C105
102
}
102
{ACAD_REACTORS
330
62CA
102
}
330
62CA
100
AcDbVisualStyle
  2
OverhangOff
 70
    21
 71
     2
 72
     2
 73
     0
 90
        0
 40
-0.6
 41
-30.0
 62
     5
 63
     7
421
 16777215
 74
     1
 91
        4
 64
     7
 65
   257
 75
     1
175
     1
 42
1.0
 92
        9
 66
     7
 43
1.0
 76
     1
 77
     6
 78
     2
 67
     7
 79
     5
170
     0
171
     0
290
     0
174
     0
 93
        1
 44
0.0
173
     0
291
     1
 45
0.0
1001
ACAD
1000
AcDbSavedByObjectVersion
1070
     0
  0
VISUALSTYLE
  5
62D4
102
{ACAD_XDICTIONARY
360
C0EB
102
}
102
{ACAD_REACTORS
330
62CA
102
}
330
62CA
100
AcDbVisualStyle
  2
Realistic
 70
     8
 71
     2
 72
     2
 73
     0
 90
        2
 40
-0.6
 41
30.0
 62
     5
 63
     7
421
 16777215
 74
     0
 91
        0
 64
     7
 65
   257
 75
     1
175
     1
 42
1.0
 92
        8
 66
   257
 43
1.0
 76
     1
 77
     6
 78
     2
 67
     7
 79
     3
170
     0
171
     0
290
     0
174
     0
 93
       13
 44
0.0
173
     0
291
     0
 45
0.0
1001
ACAD
1000
AcDbSavedByObjectVersion
1070
     0
  0
VISUALSTYLE
  5
62DF
102
{ACAD_XDICTIONARY
360
C101
102
}
102
{ACAD_REACTORS
330
62CA
102
}
330
62CA
100
AcDbVisualStyle
  2
Shaded
 70
    27
 71
     2
 72
     2
 73
     1
 90
        2
 40
-0.6
 41
30.0
 62
     5
 63
     7
421
 16777215
 74
     0
 91
        4
 64
     7
 65
   257
 75
     1
175
     1
 42
1.0
 92
        8
 66
   257
 43
1.0
 76
     1
 77
     6
 78
     2
 67
     8
425
  7895160
 79
     3
170
     0
171
     0
290
     0
174
     0
 93
        5
 44
0.0
173
     0
291
     0
 45
0.0
1001
ACAD
1000
AcDbSavedByObjectVersion
1070
     0
  0
VISUALSTYLE
  5
62DE
102
{ACAD_XDICTIONARY
360
C0FF
102
}
102
{ACAD_REACTORS
330
62CA
102
}
330
62CA
100
AcDbVisualStyle
  2
Shaded with edges
 70
    26
 71
     2
 72
     2
 73
     1
 90
        2
 40
-0.6
 41
30.0
 62
     5
 63
     7
421
 16777215
 74
     1
 91
       10
 64
     7
 65
   257
 75
     2
175
     1
 42
1.0
 92
        8
 66
   257
 43
1.0
 76
     1
 77
     6
 78
     2
 67
     7
 79
     3
170
     0
171
     0
290
     0
174
     0
 93
        5
 44
0.0
173
     0
291
     0
 45
0.0
1001
ACAD
1000
AcDbSavedByObjectVersion
1070
     0
  0
VISUALSTYLE
  5
62DB
102
{ACAD_XDICTIONARY
360
C0F9
102
}
102
{ACAD_REACTORS
330
62CA
102
}
330
62CA
100
AcDbVisualStyle
  2
Shades of Gray
 70
    23
 71
     2
 72
     2
 73
     3
 90
        0
 40
-0.6
 41
-30.0
 62
     5
 63
     7
421
 16777215
 74
     2
 91
        2
 64
     7
 65
     7
 75
     1
175
     1
 42
40.0
 92
        8
 66
     7
 43
1.0
 76
     1
 77
     6
 78
     2
 67
     7
 79
     3
170
     0
171
     0
290
     0
174
     0
 93
        1
 44
0.0
173
     0
291
     0
 45
0.0
1001
ACAD
1000
AcDbSavedByObjectVersion
1070
     0
  0
VISUALSTYLE
  5
62DC
102
{ACAD_XDICTIONARY
360
C0FB
102
}
102
{ACAD_REACTORS
330
62CA
102
}
330
62CA
100
AcDbVisualStyle
  2
Sketchy
 70
    24
 71
     1
 72
     2
 73
     2
 90
        0
 40
-0.6
 41
-30.0
 62
     5
 63
     7
421
 16777215
 74
     2
 91
        2
 64
     7
 65
     7
 75
     1
175
     1
 42
40.0
 92
       11
 66
     7
 43
1.0
 76
     1
 77
     6
 78
     2
 67
     7
 79
     6
170
     0
171
     0
290
     0
174
     0
 93
        1
 44
0.0
173
     0
291
     0
 45
0.0
1001
ACAD
1000
AcDbSavedByObjectVersion
1070
     0
  0
VISUALSTYLE
  5
62D7
102
{ACAD_XDICTIONARY
360
C0F1
102
}
102
{ACAD_REACTORS
330
62CA
102
}
330
62CA
100
AcDbVisualStyle
  2
Thicken
 70
    13
 71
     2
 72
     2
 73
     0
 90
        0
 40
-0.6
 41
-30.0
 62
     5
 63
     7
421
 16777215
 74
     1
 91
        4
 64
     7
 65
   257
 75
     1
175
     1
 42
1.0
 92
       12
 66
     7
 43
1.0
 76
     1
 77
     6
 78
     2
 67
     7
 79
     5
170
     0
171
     0
290
     0
174
     0
 93
        1
 44
0.0
173
     0
291
     1
 45
0.0
1001
ACAD
1000
AcDbSavedByObjectVersion
1070
     0
  0
VISUALSTYLE
  5
62D1
102
{ACAD_XDICTIONARY
360
C0E5
102
}
102
{ACAD_REACTORS
330
62CA
102
}
330
62CA
100
AcDbVisualStyle
  2
Wireframe
 70
     5
 71
     0
 72
     2
 73
     0
 90
        0
 40
-0.6
 41
-30.0
 62
     5
 63
     7
421
 16777215
 74
     1
 91
        4
 64
     7
 65
   257
 75
     1
175
     1
 42
1.0
 92
        0
 66
   257
 43
1.0
 76
     1
 77
     6
 78
     2
 67
     7
 79
     3
170
     0
171
     0
290
     0
174
     0
 93
        1
 44
0.0
173
     0
291
     0
 45
0.0
1001
ACAD
1000
AcDbSavedByObjectVersion
1070
     0
  0
VISUALSTYLE
  5
62DD
102
{ACAD_XDICTIONARY
360
C0FD
102
}
102
{ACAD_REACTORS
330
62CA
102
}
330
62CA
100
AcDbVisualStyle
  2
X-Ray
 70
    25
 71
     2
 72
     2
 73
     1
 90
        1
 40
0.5
 41
-30.0
 62
     5
 63
     7
421
 16777215
 74
     1
 91
        0
 64
     7
 65
   257
 75
     1
175
     1
 42
1.0
 92
        8
 66
     7
 43
1.0
 76
     1
 77
     6
 78
     2
 67
     7
 79
     3
170
     0
171
     0
290
     0
174
     0
 93
       13
 44
0.0
173
     0
291
     0
 45
0.0
1001
ACAD
1000
AcDbSavedByObjectVersion
1070
     0
  0
DICTIONARYVAR
  5
8AA3
102
{ACAD_REACTORS
330
169
102
}
330
169
100
DictionaryVariables
280
     0
  1
1:1
  0
DICTIONARYVAR
  5
8AA1
102
{ACAD_REACTORS
330
169
102
}
330
169
100
DictionaryVariables
280
     0
  1
STANDARD
  0
DICTIONARYVAR
  5
8AA0
102
{ACAD_REACTORS
330
169
102
}
330
169
100
DictionaryVariables
280
     0
  1
STANDARD
  0
DICTIONARYVAR
  5
16A
102
{ACAD_REACTORS
330
169
102
}
330
169
100
DictionaryVariables
280
     0
  1
1
  0
DICTIONARYVAR
  5
8AA5
102
{ACAD_REACTORS
330
169
102
}
330
169
100
DictionaryVariables
280
     0
  1
1
  0
DICTIONARYVAR
  5
8AA6
102
{ACAD_REACTORS
330
169
102
}
330
169
100
DictionaryVariables
280
     0
  1
15
  0
DICTIONARYVAR
  5
8AA4
102
{ACAD_REACTORS
330
169
102
}
330
169
100
DictionaryVariables
280
     0
  1
0
  0
DICTIONARYVAR
  5
8AA2
102
{ACAD_REACTORS
330
169
102
}
330
169
100
DictionaryVariables
280
     0
  1
0
  0
DICTIONARYVAR
  5
C0D1
102
{ACAD_REACTORS
330
169
102
}
330
169
100
DictionaryVariables
280
     0
  1
2
  0
XRECORD
  5
177
102
{ACAD_REACTORS
330
176
102
}
330
176
100
AcDbXrecord
280
     1
 91
      476
330
179
 90
        8
 62
     7
370
    -3
331
15
  1
Color_7
330
178
 90
        8
 62
     7
370
    -3
331
15
  1
Color_7
330
128
 90
        0
 62
     7
370
    -3
331
15
  1
Color_7
330
10
 90
        8
 62
     7
370
    -3
331
15
  1
Color_7
  0
DICTIONARY
  5
8088
330
21
100
AcDbDictionary
280
     1
281
     1
  3
ADSK_XREC_LAYOUTTHUMBNAIL
360
8089
  0
DICTIONARY
  5
62BB
330
62BA
100
AcDbDictionary
280
     1
281
     1
  3
ACAD_XREC_ROUNDTRIP
360
C0D7
  3
BUMPTILE
360
62BD
  3
DIFFUSETILE
360
62BC
  3
OPACITYTILE
360
62C0
  3
REFLECTIONTILE
360
62BF
  3
REFRACTIONTILE
360
62C1
  3
SPECULARTILE
360
62BE
  0
DICTIONARY
  5
62B3
330
62B2
100
AcDbDictionary
280
     1
281
     1
  3
ACAD_XREC_ROUNDTRIP
360
C0D6
  3
BUMPTILE
360
62B5
  3
DIFFUSETILE
360
62B4
  3
OPACITYTILE
360
62B8
  3
REFLECTIONTILE
360
62B7
  3
REFRACTIONTILE
360
62B9
  3
SPECULARTILE
360
62B6
  0
DICTIONARY
  5
62C3
330
62C2
100
AcDbDictionary
280
     1
281
     1
  3
ACAD_XREC_ROUNDTRIP
360
C0D8
  3
BUMPTILE
360
62C5
  3
DIFFUSETILE
360
62C4
  3
OPACITYTILE
360
62C8
  3
REFLECTIONTILE
360
62C7
  3
REFRACTIONTILE
360
62C9
  3
SPECULARTILE
360
62C6
  0
DICTIONARY
  5
C0D3
330
62F9
100
AcDbDictionary
280
     1
281
     1
  3
ACAD_XREC_ROUNDTRIP
360
C0D4
  0
DICTIONARY
  5
ACD8
330
62E5
100
AcDbDictionary
280
     1
281
     1
  3
ACAD_ROUNDTRIP_2008_TABLESTYLE_CELLSTYLEMAP
360
C0D2
  3
ACAD_XREC_ROUNDTRIP
360
C109
  0
DICTIONARY
  5
C0E3
330
62D0
100
AcDbDictionary
280
     1
281
     1
  3
ACAD_XREC_ROUNDTRIP
360
C0E4
  0
DICTIONARY
  5
C0E1
330
62CF
100
AcDbDictionary
280
     1
281
     1
  3
ACAD_XREC_ROUNDTRIP
360
C0E2
  0
DICTIONARY
  5
C0EF
330
62D6
100
AcDbDictionary
280
     1
281
     1
  3
ACAD_XREC_ROUNDTRIP
360
C0F0
  0
DICTIONARY
  5
C0F7
330
62DA
100
AcDbDictionary
280
     1
281
     1
  3
ACAD_XREC_ROUNDTRIP
360
C0F8
  0
DICTIONARY
  5
C0E9
330
62D3
100
AcDbDictionary
280
     1
281
     1
  3
ACAD_XREC_ROUNDTRIP
360
C0EA
  0
DICTIONARY
  5
C0ED
330
62D5
100
AcDbDictionary
280
     1
281
     1
  3
ACAD_XREC_ROUNDTRIP
360
C0EE
  0
DICTIONARY
  5
C107
330
62E2
100
AcDbDictionary
280
     1
281
     1
  3
ACAD_XREC_ROUNDTRIP
360
C108
  0
DICTIONARY
  5
C0F5
330
62D9
100
AcDbDictionary
280
     1
281
     1
  3
ACAD_XREC_ROUNDTRIP
360
C0F6
  0
DICTIONARY
  5
C0D9
330
62CB
100
AcDbDictionary
280
     1
281
     1
  3
ACAD_XREC_ROUNDTRIP
360
C0DA
  0
DICTIONARY
  5
C0DB
330
62CC
100
AcDbDictionary
280
     1
281
     1
  3
ACAD_XREC_ROUNDTRIP
360
C0DC
  0
DICTIONARY
  5
C0DD
330
62CD
100
AcDbDictionary
280
     1
281
     1
  3
ACAD_XREC_ROUNDTRIP
360
C0DE
  0
DICTIONARY
  5
C0DF
330
62CE
100
AcDbDictionary
280
     1
281
     1
  3
ACAD_XREC_ROUNDTRIP
360
C0E0
  0
DICTIONARY
  5
C0E7
330
62D2
100
AcDbDictionary
280
     1
281
     1
  3
ACAD_XREC_ROUNDTRIP
360
C0E8
  0
DICTIONARY
  5
C103
330
62E0
100
AcDbDictionary
280
     1
281
     1
  3
ACAD_XREC_ROUNDTRIP
360
C104
  0
DICTIONARY
  5
C0F3
330
62D8
100
AcDbDictionary
280
     1
281
     1
  3
ACAD_XREC_ROUNDTRIP
360
C0F4
  0
DICTIONARY
  5
C105
330
62E1
100
AcDbDictionary
280
     1
281
     1
  3
ACAD_XREC_ROUNDTRIP
360
C106
  0
DICTIONARY
  5
C0EB
330
62D4
100
AcDbDictionary
280
     1
281
     1
  3
ACAD_XREC_ROUNDTRIP
360
C0EC
  0
DICTIONARY
  5
C101
330
62DF
100
AcDbDictionary
280
     1
281
     1
  3
ACAD_XREC_ROUNDTRIP
360
C102
  0
DICTIONARY
  5
C0FF
330
62DE
100
AcDbDictionary
280
     1
281
     1
  3
ACAD_XREC_ROUNDTRIP
360
C100
  0
DICTIONARY
  5
C0F9
330
62DB
100
AcDbDictionary
280
     1
281
     1
  3
ACAD_XREC_ROUNDTRIP
360
C0FA
  0
DICTIONARY
  5
C0FB
330
62DC
100
AcDbDictionary
280
     1
281
     1
  3
ACAD_XREC_ROUNDTRIP
360
C0FC
  0
DICTIONARY
  5
C0F1
330
62D7
100
AcDbDictionary
280
     1
281
     1
  3
ACAD_XREC_ROUNDTRIP
360
C0F2
  0
DICTIONARY
  5
C0E5
330
62D1
100
AcDbDictionary
280
     1
281
     1
  3
ACAD_XREC_ROUNDTRIP
360
C0E6
  0
DICTIONARY
  5
C0FD
330
62DD
100
AcDbDictionary
280
     1
281
     1
  3
ACAD_XREC_ROUNDTRIP
360
C0FE
  0
XRECORD
  5
8089
102
{ACAD_REACTORS
330
8088
102
}
330
8088
100
AcDbXrecord
280
     1
310
280000000001000065000000010008000000000000650000000000000000000000010000000000003028210000000000FFFFFF000000000000000000000000000000000000000000000000000000000000000000330000006600000099000000CC000000FF00000000330000333300006633000099330000CC330000FF3300
310
0000660000336600006666000099660000CC660000FF66000000990000339900006699000099990000CC990000FF99000000CC000033CC000066CC000099CC0000CCCC0000FFCC000000FF000033FF000066FF000099FF0000CCFF0000FFFF000000003300330033006600330099003300CC003300FF003300003333003333
310
33006633330099333300CC333300FF33330000663300336633006666330099663300CC663300FF66330000993300339933006699330099993300CC993300FF99330000CC330033CC330066CC330099CC3300CCCC3300FFCC330000FF330033FF330066FF330099FF3300CCFF3300FFFF330000006600330066006600660099
310
006600CC006600FF00660000336600333366006633660099336600CC336600FF33660000666600336666006666660099666600CC666600FF66660000996600339966006699660099996600CC996600FF99660000CC660033CC660066CC660099CC6600CCCC6600FFCC660000FF660033FF660066FF660099FF6600CCFF6600
310
FFFF660000009900330099006600990099009900CC009900FF00990000339900333399006633990099339900CC339900FF33990000669900336699006666990099669900CC669900FF66990000999900339999006699990099999900CC999900FF99990000CC990033CC990066CC990099CC9900CCCC9900FFCC990000FF99
310
0033FF990066FF990099FF9900CCFF9900FFFF99000000CC003300CC006600CC009900CC00CC00CC00FF00CC000033CC003333CC006633CC009933CC00CC33CC00FF33CC000066CC003366CC006666CC009966CC00CC66CC00FF66CC000099CC003399CC006699CC009999CC00CC99CC00FF99CC0000CCCC0033CCCC0066CC
310
CC0099CCCC00CCCCCC00FFCCCC0000FFCC0033FFCC0066FFCC0099FFCC00CCFFCC00FFFFCC000000FF003300FF006600FF009900FF00CC00FF00FF00FF000033FF003333FF006633FF009933FF00CC33FF00FF33FF000066FF003366FF006666FF009966FF00CC66FF00FF66FF000099FF003399FF006699FF009999FF00CC
310
99FF00FF99FF0000CCFF0033CCFF0066CCFF0099CCFF00CCCCFF00FFCCFF0000FFFF0033FFFF0066FFFF0099FFFF00CCFFFF00FFFFFF00000000000D0D0D001A1A1A00282828003535350043434300505050005D5D5D006B6B6B00787878008686860093939300A1A1A100AEAEAE00BBBBBB00C9C9C900D6D6D600E4E4E400
310
F1F1F100FFFFFF0000000000000000000000000000000000000000000000000000000000000000000000000000000000000000000000000000000000000000000000000000000000000000000000000000000000002D002D2D0000000000000000000000000000000000000000000000000000000000000000000000000000
310
00000000000000002D002D002D00000000000000000000000000000000000000000000000000000000000000000000000000000000000000000000000000002D002D002D000000000000000000000000000000000000000000000000000000000000000000000000000000000000000000002D002D2D000000000000000000
310
000000000000000000000000000000000000000000000000000000000000000000000000000000000000000000000000000000000000000000000000000000000000000000000000000000000000000000000000000000002D002D2D0000000000000000000000000000000000000000000000000000000000000000000000
310
00000000000000000000002D002D002D00000000000000000000000000000000000000000000000000000000000000000000000000000000000000000000000000002D002D002D000000000000000000000000000000000000000000000000000000000000000000000000000000000000000000002D002D2D000000000000
310
000000000000000000000000000000000000000000000000000000000000000000000000000000000000000000000000000000000000000000000000000000000000000000000000000000000000000000000000000000000000002D002D2D0000000000000000000000000000000000000000000000000000000000000000
310
00000000000000000000000000002D2D2D002D00000000000000000000000000000000000000000000000000000000000000000000000000000000000000000000000000002D002D002D000000000000000000000000000000000000000000000000000000000000000000000000000000000000000000002D002D2D000000
310
000000000000000000000000000000000000000000000000000000000000000000000000000000000000000000000000000000000000000000000000000000000000000000000000000000000000000000000000000000000000000000002D002D2D00000000000000000000000000000000000000000000000000F5000000
310
0000000000000000000000000000000000002D2D002D00000000000000000000000000000000000000000000000000000000000000000000000000000000000000000000000000002D002D002D0000F5000000000000000000000000000000000000000000000000000000000000000000000000000000000000002D002D2D
310
000000000000000000000000000000000000000000000000000000000000000000000000000000000000000000000000000000000000000000000000000000000000000000000000000000000000000000000000000000000000000000000000002D002D2D000000000000000000000000000000000000000000000000F500
310
0000000000000000000000000000000000000000002D2D002D00000000000000000000000000000000000000000000000000000000000000000000000000000000000000000000000000002D002D002D00F500000000000000000000000000000000000000000000000000000000000000000000000000000000000000002D
310
002D2D000000000000000000000000000000000000000000000000000000000000000000000000000000000000000000000000000000000000000000000000000000000000000000000000000000000000000000002D2D2D2D2D2D2D2D2D2D2D2D2D2D2D2D2D2D2D2D2D2D2D2D2D2D2D2D2D2D2D2D2D2D2D2D2D2D2D2D2D2D
310
F52D2D2D2D2D2D2D2D2D2D2D2D2D2D2D2D2D2D2D2D2D2D2D2D2D2D2D2D2D2D2D2D2D2D2D2D2D2D2D2D2D2DF52D2D2D2D2D2D2D2D2D2D2D2D2D0000000000002D2D2D2D2D2D2D2D2D2D2D2D2D2D2D2D2D2D2D2D2D2D2D2D2D2D2D2D2D2D2D2D2D2D2D2D2D2D2D2D2D2D2D2D2D2D2D2D2D2D2D2D2D2D2D2D2D2D2D2D2D2D2D2D
310
2D2D2D2D2D2D2D2D2D2D2D2D2D2D2D2D2D2D2D2D2DF52D2D2D2D2D2D2D2D2D2D2D2D2D2D0000000000000000000000000000000000000000000000000000000000000000000000000000000000000000000000000000000000000000000000000000000000000000000000000000000000002D2D2D2D2D2D2D2D2D2D2D2D2D
310
2D2DF52D2D2D2D2D2D2D2D2D2D2D2D2D2D2D000000000000000000000000000000000000000000000000000000000000000000000000000000002D00000000000000000000000000000000002D2D2D2D2D2D2D2D2D2D2D2D2D2D2D2D2D2D000000000000000000000000000000000000000000000000000000000000000000
310
0000000000000000000000000000000000000000000000000000000000000000000000002D2D0000000000000000000000000000000000000000000000000000000000000000000000000000000000000000000000000000000000000000000000000000000000000000000000000000000000000000002D2D2D2D2D2D2D2D
310
2D2D2D2DF52D2D2D2D2D2DF52D2D2D2D2D000000000000000000000000000000000000000000000000000000000000000000000000000000000000002D0000000000000000000000000000000000000000002D2D2D2D2D2D2D2D2D2D2D00000000000000000000000000000000000000000000000000000000000000000000
310
00000000000000000000000000000000000000000000000000000000000000000000000000002D00000000000000000000000000000000000000000000000000000000000000000000000000000000000000000000000000000000000000000000000000000000000000000000000000000000000000000000000000000000
310
000000002D2DF52D2D0000000000F500000000000000000000000000000000000000000000000000000000000000000000000000000000000000000000002D0000000000000000000000000000000000000000000000002D2D2D2D2D0000F50000000000000000000000000000000000000000000000000000000000000000
310
000000000000000000000000000000000000000000000000000000000000000000000000000000002D0000000000000000000000000000000000000000000000000000000000000000000000000000000000000000000000000000000000000000000000000000000000000000000000000000000000000000000000000000
310
0000000000002D00F5002D0000000000F500000000000000000000000000000000000000000000000000000000000000000000000000000000000000000000002D0000000000000000000000000000000000000000000000002D00F5002D000000F50000000000000000000000000000000000000000000000000000000000
310
0000000000000000000000000000000000000000000000000000000000000000000000000000000000002D000000000000000000000000000000000000000000000000000000000000000000000000000000000000000000000000000000000000000000000000000000000000000000000000000000000000000000000000
310
00000000000000002D0000002D000000000000F5000000000000000000000000000000000000000000000000000000000000000000000000000000000000000000002D0000000000000000000000000000000000000000000000002D00F5002D000000F5000000000000000000000000000000000000000000000000000000
310
00000000000000000000000000000000000000000000000000000000000000000000000000000000000000002D00000000000000000000000000000000000000000000000000000000000000000000000000000000000000000000000000000000000000000000000000000000000000000000000000000000000000000000
310
000000000000000000002D00F5002D000000000000F5F5F5F5F5F5F5F5F5F5000000000000000000000000000000000000000000000000000000000000000000000000002D0000000000000000000000000000000000000000000000002D00F5002D00000000F5F5F5F5F5F5F5F5F5F5000000000000000000000000000000
310
000000000000000000000000000000000000000000000000000000000000000000000000000000000000000000002D0000000000000000000000000000000000000000000000000000000000000000000000000000000000000000000000000000000000000000000000000000000000000000000000000000000000000000
310
0000000000000000000000002D00F5002D00000000000000F5F5F5F5F5F5F5F500000000000000000000000000000000000000000000000000000000000000000000000000002D0000000000000000000000000000000000000000000000002D00F5002D0000000000F5F5F5F5F5F5F5F50000000000000000000000000000
310
0000000000000000000000000000000000000000000000000000000000000000000000000000000000000000000000002D000000000000000000000000000000000000000000000000000000000000000000000000000000000000000000000000000000000000000000000000000000000000000000000000000000000000
310
00000000000000000000000000002D00F5002D0000000000000000F5F5F5F5F5F5F500000000000000000000000000000000000000000000000000000000000000000000000000002D0000000000000000000000000000000000000000000000002D00F5002D0000000000F5F5F5F5F5F5F5F5000000000000000000000000
310
00000000000000000000000000000000000000000000000000000000000000000000000000000000000000000000000000002D00000000000000000000000000000000000000000000000000000000000000000000000000000000000000000000000000000000000000000000000000000000000000000000000000000000
310
000000000000000000000000000000002D00F5002D00000000000000F5F5F5F5F5F5F5F5F5000000000000000000000000000000000000000000000000000000000000000000000000002D0000000000000000000000000000000000000000000000002D00F5002D0000000000F5F5F5F5F5F5F5F500000000000000000000
310
000000000000000000000000000000000000000000000000000000000000000000000000000000000000000000000000000000002D0000000000000000000000000000000000000000000000000000000000000000000000000000000000000000000000000000000000000000000000000000000000000000000000000000
310
0000000000000000000000000000000000002D00F5002D00000000000000000000000000000000000000000000000000000000000000000000000000000000000000000000000000000000002D0000000000000000000000000000000000000000000000002D00F5002D000000000000000000000000000000000000000000
310
0000000000000000000000000000000000000000000000000000000000000000000000000000000000000000000000000000000000002D000000000000000000000000000000000000000000000000000000000000000000000000000000000000000000000000000000000000000000000000000000000000000000000000
310
00000000000000000000000000000000000000002D00F5002D00000000000000000000000000000000000000000000000000000000000000000000000000000000000000000000000000000000002D0000000000000000000000000000000000000000000000002D00F5002D00000000000000000000000000000000000000
310
00000000000000000000000000000000000000000000000000000000000000000000000000000000000000000000000000000000000000002D00000000000000000000000000000000000000000000000000000000000000000000000000000000000000000000000000000000000000000000000000000000000000000000
310
000000000000000000000000000000000000000000002D00F5002D00000000000000000000000000000000000000000000000000000000000000000000000000000000000000000000000000000000002D0000000000000000000000000000000000000000000000002D00F5002D0000000000000000000000000000000000
310
000000000000000000000000000000000000000000000000000000000000000000000000000000000000000000000000000000000000000000002D0000000000000000000000000000000000000000000000000000000000000000000000000000000000000000000000000000000000000000000000000000000000000000
310
0000000000000000000000000000000000000000000000002D00F5002D00000000000000000000000000000000000000000000000000000000000000000000000000000000000000000000000000000000002D0000000000000000000000000000000000000000000000002D00F5002D000000000000000000000000000000
310
0000000000000000000000000000000000000000000000000000000000000000000000000000000000000000000000000000000000000000000000002D000000000000000000000000000000000000000000000000000000000000000000000000000000000000000000000000000000000000000000000000000000000000
310
0000000000000000000000000000000000000000000000000000F500F5002D00000000000000000000000000000000000000000000000000000000000000000000000000000000000000000000000000000000002D0000000000000000000000000000000000000000000000002D00F500F500000000000000000000000000
310
00000000000000000000000000000000000000000000000000000000000000000000000000000000000000000000000000000000000000000000000000002D00000000000000000000000000000000000000000000000000000000000000000000000000000000000000000000000000000000000000000000000000000000
310
00000000000000000000000000000000000000000000000000000000F50000002D00000000000000000000000000000000000000000000000000000000000000000000000000000000000000000000000000000000002D0000000000000000000000000000000000000000000000002D00F5002DF500000000000000000000
310
000000000000000000000000000000000000000000000000000000000000000000000000000000000000000000000000000000000000000000000000000000002D0000000000000000000000000000000000000000000000000000000000000000000000000000000000000000000000000000000000000000000000000000
310
0000000000000000000000000000000000000000000000000000000000F52D00F5002D00000000000000000000000000000000000000000000000000000000000000000000000000000000000000000000000000000000002D0000000000000000000000000000000000000000000000002D00F5002DF50000000000000000
310
0000000000000000000000000000000000000000000000000000000000000000000000000000000000000000000000000000000000000000000000000000000000002D000000000000000000000000000000000000000000000000000000000000000000000000000000000000000000000000000000000000000000000000
310
00000000000000000000000000000000000000000000000000000000000000F52D00F5002D00000000000000000000000000000000000000000000000000000000000000000000000000000000000000000000000000000000002D0000000000000000000000000000000000000000000000002D00F5002D00F50000000000
310
00000000000000000000000000000000000000000000000000000000000000000000000000000000000000000000000000000000000000000000000000000000000000002D00000000000000000000000000000000000000000000000000000000000000000000000000000000000000000000000000000000000000000000
310
0000000000000000000000000000000000000000000000000000000000000000F5002D00F5002D00000000000000000000000000000000000000000000000000000000000000000000000000000000000000000000000000000000002D0000000000000000000000000000000000000000000000002D00F5002D00F5000000
310
000000000000000000000000000000000000000000000000000000000000000000000000000000000000000000000000000000000000000000000000000000000000000000002D0000000000000000000000000000000000000000000000000000000000000000000000000000000000000000000000000000000000000000
310
00000000000000000000000000000000000000000000000000000000000000000000F5002D00F5002D00000000000000000000000000000000000000000000000000000000000000000000000000000000000000000000000000000000002D0000000000000000000000000000000000000000000000002D00F5002D0000F5
310
0000000000000000000000000000000000000000000000000000000000000000000000000000000000000000000000000000000000000000000000000000000000000000000000002D000000000000000000000000000000000000000000000000000000000000000000000000000000000000000000000000000000000000
310
000000000000000000000000F5F5F5F5F5F5F5F5F5F5F5F5F5F5F5F5F5F5F5F5F5F5F5F500002D00F5002D00000000000000000000000000000000000000000000000000000000000000000000000000000000000000000000000000000000002D0000000000000000000000000000000000000000000000002D00F5002D00
310
00F5F5F5F5F5F5F5F5F5F5F5F5F5F5F5F5F5F5F5F5F5F5F5F5000000000000000000000000000000000000000000000000000000000000000000000000000000000000000000000000002D00000000000000000000000000000000000000000000000000000000000000000000000000000000000000000000000000000000
310
000000000000000000000000000000F5F5F5F5F5F5F5F5F5F5F5F5F500F5F5F500F500F5F50000002D00F5002D00000000000000000000000000000000000000000000000000000000000000000000000000000000000000000000000000000000002D0000000000000000000000000000000000000000000000002D00F500
310
2D000000F5F5F5F5F5F5F5F5F5F500F5F500F5F5F5F5F5F5F5F500000000000000000000000000000000000000000000000000000000000000000000000000000000000000000000000000002D0000000000000000000000000000000000000000000000000000000000000000000000000000000000000000000000000000
310
0000000000000000000000000000000000F5F5F5F5F5F5F5F5F5F5F5F5F500F5F5F500F500F5F50000002D00F5002D00000000000000000000000000000000000000000000000000000000000000000000000000000000000000000000000000000000002D0000000000000000000000000000000000000000000000002D00
310
F5002D000000F5F5F5F5F5F5F5F5F5F500F50000F500F5F500F5F5F500000000000000000000000000000000000000000000000000000000000000000000000000000000000000000000000000002D000000000000000000000000000000000000000000000000000000000000000000000000000000000000000000000000
310
00000000000000000000000000000000000000F50000F5F50000F500000000000000000000000000000000002D00F5002D00000000000000000000000000000000000000000000000000000000000000000000000000000000000000000000000000000000002D000000000000000000000000000000000000000000000000
310
2D00F5002D000000F50000F5F50000F5000000000000000000000000000000000000000000000000000000000000000000000000000000000000000000000000000000000000000000000000000000002D00000000000000000000000000000000000000000000000000000000000000000000000000000000000000000000
310
000000000000000000000000000000000000000000000000000000000000000000000000000000000000000000002D00F5002D00000000000000000000000000000000000000000000000000000000000000000000000000000000000000000000000000000000002D00000000000000000000000000000000000000000000
310
00002D00F5002D0000000000000000000000000000000000000000000000000000000000000000000000000000000000000000000000000000000000000000000000000000000000000000000000000000002D0000000000000000000000000000000000000000000000000000000000000000000000000000000000000000
310
0000000000000000000000000000000000000000000000000000000000000000000000000000000000000000000000002D0000002D000000000000000000F5F5F5F5F5F5F5F5F5F5F5F5F5F5F5F5F50000000000000000000000000000000000000000000000000000002D0000000000000000000000000000000000000000
310
000000002D0000002D000000000000000000F5F5F5F5F5F5F5F5F5F5F5F5F5F5F5F500000000000000000000000000000000000000000000000000000000000000000000000000000000000000000000000000002D000000000000000000000000000000000000000000000000000000000000000000000000000000000000
310
00000000000000000000000000000000000000000000000000000000000000000000000000000000000000000000000000002D00F5002D0000000000000000F500F5F5F5F500F5F500F5F5000000F500000000000000000000000000000000000000000000000000000000002D000000000000000000000000000000000000
310
0000000000002D00F5002D0000000000000000F500F5F5F5F500F5F500F500000000F50000000000000000000000000000000000000000000000000000000000000000000000000000000000000000000000000000002D00000000000000000000000000000000000000000000000000000000000000000000000000000000
310
00000000000000000000000000000000000000000000000000000000000000000000000000000000000000000000000000002D2D2D2D2D2D2D2D00000000000000F500F5F5F5F5F500F5F5F5F5F5F5F5F5F5000000000000000000000000000000000000000000000000000000002D00000000000000000000000000000000
310
000000000000002D2D2D2D2D2D2D00000000000000F500F5F5F5F5F500F500F5F5F5F500F5F500000000000000000000000000000000000000000000000000000000000000000000000000000000000000000000000000002D0000000000000000000000000000000000000000000000000000000000000000000000000000
310
000000000000000000000000000000000000000000000000000000000000000000000000000000000000000000000000000000002D002D00F5002D2D000000000000F50000F5F5F5F5F5F5F5F5F500000000F500000000000000000000000000000000000000000000000000002828282D0000000000000000000000000000
310
0000000000000000002D00002D00002D000000000000F50000F5F5F5F5F5F5F5F5F500000000F50000000000000000000000000000000000000000000000000000000000000000000000000000000000000000000000002828282D000000000000000000000000000000000000000000000000000000000000000000000000
310
0000000000000000000000000000000000000000000000000000000000000000000000000000000000000000000000000000000000002D2D2D2D2D2D2D2D2D0000000000F50000000000000000000000000000000000000000000000000000000000000000000000000000000000000028282D000000000000000000000000
310
000000000000000000002D2D2D2D2D2D2D2D000000000000F5000000000000000000000000000000000000000000000000000000000000000000000000000000000000000000000000000000000000000000000000000000000028282D00000000000000000000000000000000000000000000000000000000000000000000
310
00000000000000000000000000000000000000000000000000000000000000000000000000000000000000000000000000000000000000002D2D2D2D2D2D2D2D2D00000000F5000000000000000000000000000000000000000000000000000000000000000000000000000000000000000000002D00000000000000000000
310
0000000000000000000000002D2D2D2D2D2D2D2D0000000000F50000000000000000000000000000000000000000000000000000000000F5F5F5F5F5F5F5F5F5F500000000000000000000000000000000000000000000000000000000002D0000000000000000000000000000000000000000000000000000000000000000
310
000000000000000000000000000000000000000000000000000000000000000000000000000000000000000000000000000000000000000000002D2D2D2DF52D2D2D0000000000F5000000000000000000000000000000000000000000000000000000000000000000000000000000000000000000002D0000000000000000
310
0000000000000000000000000000002D002D2D002D2D0000000000F500000000000000000000000000000000000000000000000000000000F500F5F500F5F5F5F5F50000000000000000000000000000000000000000000000000000000000002D000000000000000000000000000000000000000000000000000000000000
310
00000000000000000000000000000000000000000000000000000000000000000000000000000000000000000000002D2D2D2D2D2D2D2D2D2D2D2D2D2D2D2D2DF52D2D2D2D2D2D2DF52D2D2D2D2D2D2D2D2D00000000000000000000000000000000000000000000000000000000000000000000000000002D000000000000
310
0000002D2D2D2D2D2D2D2D2D2D2D2D2D2D2D2D2D2D2D2D2D2D2D2D2DF52D2D2D2D2D2D2D2D2D0000000000000000000000000000000000000000F500F5F5F5F5F5F5F5F50000000000000000000000000000000000000000000000000000000000002D00000000000000000000000000000000000000000000000000000000
310
000000000000000000000000000000000000000000000000000000000000000000000000000000000000000000000000002D00000000000000000000000000000000F5000000000000000000000000000000002D00000000000000000000000000000000000000000000000000000000000000000000000000002D00000000
310
00000000002D00000000000000000000000000000000F5000000000000000000000000000000002D00000000000000000000000000000000000000F5000000F50000F5F500000000000000000000000000000000000000000000000000000000000000002D0000000000000000000000000000000000000000000000000000
310
0000000000000000000000000000000000000000000000000000000000000000000000000000000000000000000000000000002D00000000000000000000000000000000F5000000000000000000000000000000002D00000000000000000000000000000000000000000000000000000000000000000000000000002D0000
310
000000000000002D00000000000000000000000000000000F50000000000000000000000000000002D00000000000000000000000000000000000000F500000000000000000000000000000000000000000000000000000000000000000000000000000000002D000000000000000000000000000000000000000000000000
310
0000000000000000000000000000000000000000000000000000000000000000000000000000000000000000000000000000000000002D2D2D2D2D2D2D2D2D2D2D2D2D2D2D2D2D2D2D2D2D2D2D2D2D2D2D2D2D2D2D2D2D0000000000000000000000000000000000000000000000000000000000000000000000000000002D
310
000000000000000000002D2D2D2D2D2D2D2D2D2D2D2D2D2D2D2D2D2D2D2D2D2D2D2D2D2D2D2D2D2D2D2D2D00000000000000000000000000000000000000F500000000000000000000000000000000000000000000000000000000000000000000000000000000002D00000000000000000000000000000000000000000000
310
00000000000000000000000000000000000000000000000000000000000000000000000000000000000000000000000000000000000000000000002D2D2D2D2D2D2D2D2D2D2D2D2DF52D2D2D2D2D2D2D2D2D2D2D2D2D0000000000000000000000000000000000000000000000000000000000000000000000000000000000
310
002D0000000000002D2D2D2D2D2D2D2D2D2D2D2D2D2D000000000000F500000000002D2D2D2D2D2D2D2D2D2D2D2D2D2D2D2D2D2D2DF52D2D2D2D2D2D2D2D2DF52D2D2D2D2D2D2D2D2D2D2D2D2D2D2D2D2D2D2D2D2D2D2D2D2D2D2D2D2D000000000000000000000000002D0000000000000000000000000000000000000000
310
000000000000000000000000000000000000000000000000000000000000000000000000000000000000000000000000000000000000000000000000002D2D2D2D2D2D2D2D0000002D00F5002D0000002D2D2D2D2D2D2D2D000000000000000000000000000000000000000000000000000000000000000000000000000000
310
0000002D0000000000002D2D2D2D2D2D2D2D2D2D2D2D2D2D000000000000F500000000002D2D2D2D2D2D2D2D2D2D2D2D2D2D2D2D2D2D2D2D2D2D2D2D2D2D2D2D2D2D2D2D2D2D2D2D2D2D2D2D2D2D2D2D2D2D2D2D2D2D2D2D2D2D2D2D2D2D2D000000000000000000000000002D000000000000000000000000000000000000
310
0000000000000000000000000000000000000000000000000000000000000000000000000000000000000000000000000000000000000000000000000000002D2D2D002D002D2D0000002D00F5002D0000002D2D002D002D2D2D00000000000000000000000000000000000000000000000000000000000000000000000000
310
00000000002D000000000000000000000000000000000000002D2D2D2D2D2D2DF52D2D2D2D2D2D0000000000000000000000000000000000000000002D000000000000000000000000000000000000000000000000000000000000000000000000000000000000000000000000002D00000000000000000000000000000000
310
0000000000000000000000000000000000000000000000000000000000000000000000000000000000000000000000000000000000000000000000000000000000000000000000F52D0000002D00F5002D0000002D2D0000000000000000000000000000000000000000000000000000000000000000000000000000000000
310
000000000000002D0000000000000000000000000000000000000000000000000000F50000000000000000000000000000000000000000000000002800282D000000000000000000000000000000000000000000000000000000000000000000000000000000000000000000000000002D0000000000000000000000000000
310
00000000000000000000000000000000000000000000000000000000000000000000000000000000000000000000000000000000000000000000000000000000000000000000000000F52D0000002D2DF52D2D0000002D2D0000000000000000000000000000000000F5F5F5F5F5F5F5F5F500000000000000000000000000
310
0000000000000000002D0000000000000000000000000000000000000000000000000000F50000000000000000000000000000000000000000000000002828282D000000000000000000000000000000000000000000000000000000000000000000000000000000000000000000000000002D000000000000000000000000
310
0000000000000000000000000000000000000000000000000000000000000000000000000000000000000000000000000000000000000000000000000000000000F5F5F5F5F5F5F5F5F5F52D2D0000000000F500000000002D2D00000000000000000000000000000000F5F5F5F5F5F5F5F5F5F50000000000000000000000
310
00000000000000000000002D0000000000000000000000000000000000000000000000000000000000000000000000000000000000000000000000000000002828282D000000000000000000000000000000000000000000000000000000000000000000000000000000000000000000000000002D00000000000000000000
310
0000000000000000000000000000000000000000000000000000000000000000000000000000000000000000000000000000000000000000000000000000000000000000F5F5F5F5F5F5F5F5002D2D0000000000F500000000002D2D00000000000000000000000000000000F5F5F5F5F5F5F5F5F5F5000000000000000000
310
000000000000000000000000002D0000000000000000000000000000000000000000000000000000000000000000000000000000000000000000000000000000002828282D000000000000000000000000000000000000000000000000000000000000000000000000000000000000000000000000002D0000000000000000
310
00000000000000000000000000000000000000000000000000000000000000000000000000000000000000000000000000000000000000000000000000000000000000000000F5F5F5F5F5F5F5F5002D2D0000000000F500000000002D2D000000000000000000000000000000F50000F5F500F500F5F5F500000000000000
310
0000000000000000000000000000002D0000000000000000000000000000000000000000000000000000000000000000000000000000000000000000000000000000002828002D000000000000000000000000000000000000000000000000000000000000000000000000000000000000000000000000002D000000000000
310
00000000000000000000000000000000000000000000000000000000000000000000000000000000000000000000000000000000000000000000000000000000000000000000000000F500F5F5F5F5F5002D2D0000000000F500000000002D2D0000000000000000000000000000F500000000000000000000000000000000
310
00000000000000000000000000000000002D0000000000000000000000000000000000000000000000000000000000000000000000000000000000000000000000000000000000002D000000000000000000000000000000000000000000000000000000000000000000000000000000000000000000000000002D00000000
310
00000000000000000000000000000000000000000000000000000000000000000000000000000000000000000000000000000000000000000000000000000000000000000000000000000000000000000000002D2D2D2D2D2D2D2D2D2D2D2D2D2D2D0000000000000000000000000000F50000000000000000000000000000
310
000000000000000000000000000000000000002D0000000000000000000000000000000000000000000000000000000000000000000000000000000000000000000000000000000000002D000000000000000000000000000000000000000000000000000000000000000000000000000000000000000000000000002D0000
310
00000000000000000000000000000000000000000000000000000000000000000000000000000000000000000000000000002D2D2D2D2D2D2D2D2D2D2D2D2D2D2D2D2D2D2D2D2D2D2D2D2D2D2D2D2D2D2D2D2D2D2D2D2D2D2D2D2D2DF52D2D2D2D2D2D2D2D2D2D2D2D2D2D2D2D2D2D2D2DF52D2D2D2D2D2D2D2D2D2DF52D2D
310
2D2D2D2D2D2D2D2D000000000000000000000000002D0000000000002D2D2D2D2D2D2D2D2D2D2D2D2D2D2D2D2D2D2D2D2D2D2D2D2D2D2D2D2D2D2D2D2D2D2D2D2D2D2D2D2D2D2D2D2DF52D2DF52D2D2D2D2D2D2D2D2D2D2D2D2D2D2D2D2D2D2D2D2D2D2D2D2D2D2D2D2D2D2D2D2D2D2D2D000000000000000000000000002D
310
000000000000000000000000000000000000000000000000000000000000000000000000000000000000000000000000000000002D2D2D2D2D2D2D2D2D2D2D2D2D2D2D2D2D2D2D2D2D2D2D2D2D2D2D2D2D2D2D2D2D2D2D2D2D0000000000F500000000002D2D2D2D2D2D2D2D2D2D2D2D2D2D2D2D2D2D2D2D2D2D2D2D2D2D2D
310
2D2D2D2D2D2D2D2D2D2D000000000000000000000000002D00000000000000000000000000000000000000000000000000000000000000000000000000000000000000000000000000000000000000000000000000000000002D2D2D2D2D2D2D000000000000000000002D2D2D2D2D2D2D0000000000000000000000000000
310
002D000000000000000000000000000000000000000000000000000000000000000000000000000000000000000000000000000000000000000000000000000000000000000000000000000000000000000000000000000000002D2D2D2D2D2DF52D2D2D2D2D2D000000000000000000000000000000000000000000000000
310
000000002D00000000000000000000000000000000000000002D00000000000000000000000000000000000000000000000000000000000000000000000000000000000000000000000000000000000000000000000000000000002D2D2D2D2D2D2D000000000000000000002D002D2D2D2D2D000000000000000000000000
310
0000002D00000000000000000000000000000000000000000000000000000000000000000000000000000000000000000000000000000000000000000000000000000000000000000000000000000000000000000000000000000000000000000000F500000000000000000000000000000000000000000000000000000000
310
0000000000282D00000000000000000000000000000000000000002D000000000000000000000000000000000000000000000000000000000000000000000000000000000000000000000000000000000000000000000000000000000000000000002D2D000000000000000000002D00000000000000000000000000000000
310
00000000002D00000000000000000000000000000000000000000000000000000000000000000000000000000000000000000000000000000000000000000000000000000000000000000000000000000000000000000000000000000000000000000000F50000000000000000000000000000000000000000000000000000
310
00000000002828282D00000000000000000000000000000000000000002D000000000000000000000000000000000000000000000000000000000000000000000000000000000000000000000000000000000000000000000000000000000000000000002D2D000000000000000000002D0000000000000000000000000000
310
000000000000002D0000000000000000000000000000000000000000000000000000000000000000000000000000000000000000000000000000000000000000000000000000000000000000000000000000000000000000000000000000000000000000000000000000000000000000000000000000000000000000000000
310
000000000000002800282D00000000000000000000000000000000000000002D000000000000000000000000000000000000000000000000000000000000000000000000000000000000000000000000000000000000000000000000000000000000000000002D2D000000000000000000002D000000000000000000000000
310
0000000000000000002D000000000000000000000000000000000000000000000000000000000000000000000000000000000000000000000000000000000000000000000000000000000000000000000000000000000000000000000000000000000000000000000000000000000000000000000000000000000000000000
310
0000000000000000002828282D00000000000000000000000000000000000000002D000000000000000000000000000000000000000000000000000000000000000000000000000000000000000000000000000000000000000000000000F5F5F5F5F5F5F5F5F5F52D2D000000000000000000002D00000000000000000000
310
00000000000000000000002D00000000000000000000000000000000000000000000000000000000000000000000000000000000000000000000000000000000000000000000000000000000000000000000000000000000000000000000000000000000000000000000000000000000000000000000000000000000000000
310
00000000000000000000002828282D00000000000000000000000000000000000000002D0000000000000000000000000000000000000000000000000000000000000000000000000000000000000000000000000000000000000000000000000000F5F5F5F5F5F5F5002D2D000000000000000000002D0000000000000000
310
000000000000000000000000002D0000000000000000000000000000000000000000000000000000000000000000000000000000000000000000000000000000000000000000000000000000000000000000000000000000000000000000000000000000000000000000000000000000000000000000000000000000000000
310
000000000000000000000000000000002D00000000000000000000000000000000000000002D00000000000000000000000000000000000000000000000000000000000000000000000000000000000000000000000000000000000000000000000000F5F5F5F5F5F5F5F5002D2D000000000000000000002D000000000000
310
0000000000000000000000000000002D000000000000000000000000000000000000000000000000000000000000000000000000000000000000000000000000000000000000000000000000000000000000000000000000000000000000000000000000000000000000000000000000000000000000000000000000000000
310
0000000000000000000000000000000000002D00000000000000000000000000000000000000002D00000000000000000000000000000000000000000000000000000000000000000000000000000000000000000000000000000000000000000000000000F5F5F5F5F5F5F5F5002D2D000000000000000000002D00000000
310
00000000000000000000000000000000002D000000000000000000000000000000000000000000000000000000000000000000000000000000000000000000000000000000002D2D2D2D2D2D2D2D2D2D2D2D2D2D2D2D2D2D2D2D2D2D2D2D2D2D2D2D2D2D2D2D2D2D2D2D2D2D2D2D2D2D2D2D2D2D2D2D2D2D2D2D2D2D2D2D2D
310
2D2D2D2D2D2D2D2D2D2D2D2D2D2D2D2D2DF52D2DF52D2D2D2D2D2D2DF52D2D2D2D2D2D2D2D2D2D2D2DF50000000000002D2D2D2D2D2D2D2D2D2D2D2D2D2D2D2D2D2D2D2D2D2D2D2D2D2D2D2D2D2D2D2D2D2D2D2D2D2D2D2D2D2D2D2D2D2D2D2D2D2D2D2D2D2D2D2D2D2D2D2D2D2D2D2D2D2D2D2D2D2D2D2D2D2D2D2D2D2D2D
310
2D2D2D2D2D2DF52D2D2D2D2D2D2D2D2D2D2D2DF52D00000000000000000000000000000000000000000000000000000000000000000000000000000000000000000000000000000000000000000000000000000000000000000000000000000000000000000000000000000000000000000000000000000000000000000000
310
00000000000000000000000000000000000000000000000000000000000000000000000000000000000000000000000000000000000000000000000000000000000000000000000000000000000000000000000000000000000000000000000000000000000000000000000000000000000000000000000000000000000000
310
00000000000000000000000000000000000000000000000000000000000000000000000000000000000000000000000000000000000000000000000000000000000000000000000000002D2D2D2D2D2D2D2D2D2D2D2D2D2D2D2D2D2D2D2D2D2D2D2D2D2D2D2D2D2D2D2D2D2D2D2D2D2D2D2D2D2D2D2D2D2D2D2D2D2D2D2D2D
310
2D2D2D2D2D2D2D2D2D2D2D2D2D2D2D2D2D2D2D2D2D2D2D2D2D2D2D2D2D2D2D2D00000000000000000000000000000000000000002D2D2D2D2D2D2D2D2D2D2D2D2D2D2D2D2D2D2D2D2D2D2D2D2D2D2D2D2D2D2D2D2D2D2D2D2D2D2D2D2D2D2D2D2D2D2D2D2D2D2D2D2D2D2D2D2D2D2D2D2D2D2D2D2D2D2D2D2D2D2D2D2D2D2D
310
2D2D2D2D2D2D2D2D2D2D0000000000000000000000000000000000000000000000000000000000000000000000000000000000000000000000000000000000000000000000000000000000002D2D2D2D2D2D2D2D2D2D2D2D2D2D2D2D2D2D2D2D2D2D2D2D2D2D2D2D2D2D2D2D2D2D2D2D2D2D2D2D2DF52D2D2D2D2D2D2D2D2D
310
2D2D2D2D2D2D2D2D2D2D2D2D2D2D2D2D2D2D2D2D2D2D2D2D2D2D2D2D2D2D2D2D2D2D00000000000000000000000000000000000000002D2D2D2D2D2D2D2D2D2D2D2D2D2D2D2D2D2D2D2D2D2D2D2D2D2D2D2D2D2D2D2D2D2D2D2D2D2D2D2D2D2D2D2D2D2D2D2D2D2D2D2D2D2D2D2D2D2D2D2D2D2D2D2D2D2D2D2D2D2D2D2D2D
310
2D2D2D2D2D2D2D2D2D2D2D2D000000000000000000000000000000000000000000000000000000000000000000000000000000000000000000000000000000000000000000000000000000000000000000000000000000000000000000000000000000000000000000000000000000000000000000000000F5000000000000
310
00000000000000000000000000000000000000000000000000000000000000000000000000000000000000000000000000000000000000000000000000000000000000000000000000000000000000000000000000000000000000000000000000000000000000000000000000000000000000000000000000000000000000
310
00000000000000000000000000000000000000000000000000000000000000000000000000000000000000000000000000000000000000000000000000000000000000000000000000000000000000002D2D2D2D2D2D2D2D2D2D2D2D2D2D2D2D2D2D2D2D2D2D2D2D2D2D2D2D2D2D2D2D2D2D2D2D2D2D2D2D2D2DF52D2D2D2D
310
2D2D2D2D2D2D2D2D2D2D2D2D2D2D2D2D2D2D2D2D2D2D2D2D2D2D2D2D2D2D2D2D2D2D2D2D2D2D00000000000000000000000000000000000000002D2D2D2D2D2D2D2D2D2D2D2D2D2D2D2D2D2D2D2D2D2D2D2D2D2D2D2D2D2D2D2D2D2D2D2D2D2D2D2D2D2D2D2D2D2D2D2D2D2D2D2D2D2D2D2D2D2D2D2D2D2D2D2D2D2D2D2D2D
310
2D2D2D2D2D2D2D2D2D2D2D2D2D2D2D2D00000000000000000000000000000000000000000000000000000000000000000000000000000000000000000000000000000000000000000000000000000000000000000000000000000000000000000000000000000000002D00000000000000000000000000000000000000F500
310
0000002D000000000000000000000000000000000000000000000000002D00000000000000000000000000000000000000000000000000000000000000000000000000000000000000000000000000000000000000000000000000000000000000000000000000000000000000000000000000000000000000000000000000
310
00000000000000000000000000000000000000000000000000000000000000000000000000000000000000000000000000000000000000000000000000000000000000000000000000000000000000000000000000000000000000000000000000000000000000000000002D2D2D0000000000000000000000000000000000
310
F5000000002D2D2D00000000000000000000000000000000000000000000002D2D00000000000000000000000000000000000000000000000000000000000000000000000000000000000000000000000000000000000000000000000000000000000000000000000000000000000000000000000000000000000000000000
310
0000000000000000000000000000000000000000000000000000000000000000000000000000000000000000000000000000000000000000000000000000000000000000000000000000000000000000000000000000000000000000000000000000000000000000000000000000002D000000000000000000000000000000
310
000000F500000000002D0000000000000000000000000000000000000000000000002D0000000000000000000000000000000000000000000000000000000000000000000000000000000000000000000000000000000000000000000000000000000000000000000000000000000000000000000000000000000000000000
310
0000000000000000000000000000000000000000000000000000000000000000000000000000000000000000000000000000000000000000000000000000000000000000000000000000000000000000000000000000000000000000000000000000000000000000000000000000002D2D2D00000000000000000000000000
310
0000000000F50000002D2D2D00000000000000000000000000000000000000000000002D2D000000000000000000000000000000000000000000000000000000000000000000000000000000000000000000000000000000000000000000000000000000000000000000000000000000000000000000000000000000000000
310
00000000000000000000000000000000000000000000000000000000000000000000000000000000000000000000000000000000000000000000000000000000000000000000000000000000000000000000000000000000000000000000000000000000000000000000000000000000002D00000000000000000000000000
310
0000000000000000F500002D000000000000000000000000000000000000000000000000002D0000000000000000000000000000000000000000000000000000000000000000000000000000000000000000000000000000000000000000000000000000000000000000000000000000000000000000000000000000000000
310
00000000000000000000000000000000000000000000000000000000000000000000000000000000000000000000000000000000000000000000000000000000000000000000000000000000000000000000000000000000000000002D2D2D2D2D2D2D2D2D2D2D2D2D2D2D2D2D2D2D2D2D2D2D2D2D2D2D2D2D2D2D2D2D2D2D
310
2D2DF52D2D2D2D2D2D2D2DF52D2D2D2D2D2D2D2D2D2D2D2D2D2D2D2D2D2D2D2D2D2D2D2D2D2D2D2D2D2D2D2D2D2D2D2D2D2D00000000000000000000000000000000000000002D2D2D2D2D2D2D2D2D2D2D2D2D2D2D2D2D2D2D2D2D2D2D2D2D2D2D2D2D2D2D2D2D2D2D2D2D2D2D2D2D2D2D2D2D2D2D2D2D2D2D2D2D2D2D2D2D
310
2D2D2D2D2D2D2D2D2D2D2D2D2D2D2D2D2D2D2D2D2D2D2D2D2D2D2D2D000000000000000000000000000000000000000000000000000000000000000000000000000000000000000000000000000000000000000000000000000000000000000000000000000000000000000000000000000000000000000000000000000000
310
0000000000F500000000000000F50000000000000000000000000000000000000000000000000000000000000000000000000000000000000000000000000000000000000000000000000000000000000000000000000000000000000000000000000000000000000000000000000000000000000000000000000000000000
310
00000000000000000000000000000000000000000000000000000000000000000000000000000000000000000000000000000000000000000000000000000000000000000000000000000000000000000000000000000000000000000000000000000000000000000000000000000000000000000000000000000000000000
310
00000000000000F50000000000000000F50000000000000000000000000000000000000000000000000000000000000000000000000000000000000000000000000000000000000000000000000000000000000000000000000000000000000000000000000000000000000000000000000000000000000000000000000000
310
00000000000000000000000000000000000000000000000000000000000000000000000000000000000000000000000000000000000000000000000000000000000000000000000000000000000000000000000000000000000000000000000000000000000000000000000000000000000000000000000000000000000000
310
00000000000000000000F500000000000000F5000000000000000000000000000000000000000000000000000000000000000000000000000000000000000000000000000000000000000000000000000000000000000000000000000000000000000000000000000000000000000000000000000000000000000000000000
310
00000000000000000000000000000000000000000000000000000000000000000000000000000000000000000000000000000000000000000000000000000000000000000000000000000000000000000000000000000000000000000000000000000000000000000000000000000000000000000000000000000000000000
310
000000000000000000000000F50000000000000000F5000000000000000000000000000000000000000000000000000000000000000000000000000000000000000000000000000000000000000000000000000000000000000000000000000000000000000000000000000000000000000000000000000000000000000000
310
00000000000000000000000000000000000000000000000000000000000000000000000000000000000000000000000000000000000000000000000000000000000000000000000000000000000000000000000000000000000000000000000000000000000000000000000000000000000000000000000000000000000000
310
000000000000000000000000000000F500000000000000F500000000000000000000000000000000000000000000000000000000000000000000000000000000000000000000000000000000000000000000000000000000000000000000000000000000000000000000000000000000000000000000000000000000000000
310
00000000000000000000000000000000000000000000000000000000000000000000000000000000000000000000000000000000000000000000000000000000000000000000000000000000000000000000000000000000000000000000000000000000000000000000000000000000000000000000000000000000000000
310
0000000000000000000000000000000000F50000000000000000F5F5F5F5F5F5F5F5F5F5F5F5F5F5F5F500000000000000000000000000000000000000000000000000000000000000000000000000000000000000000000000000000000000000000000000000000000000000000000000000000000000000000000000000
310
00000000000000000000000000000000000000000000000000000000000000000000000000000000000000000000000000000000000000000000000000000000000000000000000000000000000000000000000000000000000000000000000000000000000000000000000000000000000000000000000000000000000000
310
0000000000000000000000000000000000000000F500000000000000000000F5F5F5F5F5F5F5F5F5F50000000000000000000000000000000000000000000000000000000000000000000000000000000000000000000000000000000000000000000000000000000000000000000000000000000000000000000000000000
310
00000000000000000000000000000000000000000000000000000000000000000000000000000000000000000000000000000000000000000000000000000000000000000000000000000000000000000000000000000000000000000000000000000000000000000000000000000000000000000000000000000000000000
310
00000000000000000000000000000000000000000000F500000000000000000000F5F5F5F5F5F5F5F5F5F5000000000000000000000000000000000000000000000000000000000000000000000000000000000000000000000000000000000000000000000000000000000000000000000000000000000000000000000000
310
00000000000000000000000000000000000000000000000000000000000000000000000000000000000000000000000000000000000000000000000000000000000000000000000000000000000000000000000000000000000000000000000000000000000000000000000000000000000000000000000000000000000000
310
00000000000000000000000000000000000000000000000000F5000000000000000000F5F500F5000000F5000000000000000000000000000000000000000000000000000000000000000000000000000000000000000000000000000000000000000000000000000000000000000000000000000000000000000000000000
310
00000000000000000000000000000000000000000000000000000000000000000000000000000000000000000000000000000000000000000000000000000000000000000000000000000000000000000000000000000000000000000000000000000000000000000000000000000000000000000000000000000000000000
310
000000000000000000000000000000000000000000000000000000F5000000000000000000000000000000000000000000000000000000000000000000000000000000000000000000000000000000000000000000000000000000000000000000000000000000000000000000000000000000000000000000000000000000
310
00000000000000000000000000000000000000000000000000000000000000000000000000000000000000000000000000000000000000000000000000000000000000000000000000000000000000000000000000000000000000000000000000000000000000000000000000000000000000000000000000000000000000
310
000000000000000000000000000000000000000000000000000000000000F5F5F5F5F5F5F5F5F5F5F5F5F5F5F5F5F5F5F5F5F5F5F5F5F5F50000000000000000000000000000000000000000000000000000000000000000000000000000000000000000000000000000000000000000000000000000000000000000000000
310
00000000000000000000000000000000000000000000000000000000000000000000000000000000000000000000000000000000000000000000000000000000000000000000000000000000000000000000000000000000000000000000000000000000000000000000000000000000000000000000000000000000000000
310
0000000000000000000000000000000000000000000000000000000000000000000000F5F5F5F5F5000000F5F500F5F5F5F500F5F500F5F50000000000000000000000000000000000000000000000000000000000000000000000000000000000000000000000000000000000000000000000000000000000000000000000
310
00000000000000000000000000000000000000000000000000000000000000000000000000000000000000000000000000000000000000000000000000000000000000000000000000000000000000000000000000000000000000000000000000000000000000000000000000000000000000000000000000000000000000
310
00000000000000000000000000000000000000000000000000000000000000000000000000F5F5F5F5F5F5F5F5F5F5F5F5F5F5F5F5F5F500F5F5000000000000000000000000000000000000000000000000000000000000000000000000000000000000000000000000000000000000000000000000000000000000000000
310
00000000000000000000000000000000000000000000000000000000000000000000000000000000000000000000000000000000000000000000000000000000000000000000000000000000000000000000000000000000000000000000000000000000000000000000000000000000000000000000000000000000000000
310
0000000000000000000000000000000000000000000000000000000000000000000000000000000000000000000000000000000000F5F500F500000000000000000000000000000000000000000000000000000000000000000000000000000000000000000000000000000000000000000000000000000000000000000000
310
00000000000000000000000000000000000000000000000000000000000000000000000000000000000000000000000000000000000000000000000000000000000000000000000000000000000000000000000000000000000000000000000000000000000000000000000000000000000000000000000000000000000000
310
00000000000000000000000000000000000000000000000000000000000000000000000000000000000000000000000000000000000000000000000000000000000000000000000000000000000000000000000000000000000000000000000000000000000000000000000000000000000000000000000000000000000000
310
00000000000000000000000000000000000000000000000000000000000000000000000000000000000000000000000000000000000000000000000000000000000000000000000000000000000000000000000000000000000000000000000000000000000000000000000000000000000000000000000000000000000000
310
00000000000000000000000000000000000000000000000000000000000000000000000000000000000000000000000000000000000000000000000000000000000000000000000000000000000000000000000000000000000000000000000000000000000000000000000000000000000000000000000000000000000000
310
00000000000000000000000000000000000000000000000000000000000000000000000000000000000000000000000000000000000000000000000000000000000000000000000000000000000000000000000000000000000000000000000000000000000000000000000000000000000000000000000000000000000000
310
00000000000000000000000000000000000000000000000000000000000000000000000000000000000000000000000000000000000000000000000000000000000000000000000000000000000000000000000000002800000000280000000000000000002828000000282828280028280028000000002800280000000000
310
00002828282828282800280028002800280028000028000000000000002800002828282828282800280028000028280000280028000000000000000000000000000000000000000000000000000000000000000000000000000000000000000000000000000000000000000000000000000000000000000000000000000000
310
00000000000000000000000000000000000000000000000000000000000000000000000000000000000000000000000000000000000000000000000000000000000000000000000000000000000000000000000000000028282828000000280000002828000000002800000028000028000028280000000000280028002828
310
28282800282828000000280028002800280028002800002828002828000000280000280028280000002828002800002828000028002800000000000000000000000000000000000000000000000000000000000000000000000000000000000000000000000000000000000000000000000000000000000000000000000000
310
00000000000000000000000000000000000000000000000000000000000000000000000000000000000000000000000000000000000000000000000000000000000000000000000000000000000000000000000000000000000000280000282828000000282800000028002800002800002800000028000000000028282800
310
28282828280028002800280028002800282828002828282800280028000028000028000028282800280028002828282800282828282800280000000000000000000000000000000000000000000000000000000000000000000000000000000000000000000000000000000000000000000000000000000000000000000000
310
00000000000000000000000000000000000000000000000000000000000000000000000000000000000000000000000000000000000000000000000000000000000000000000000000000000000000000000000000000000000000282828000000282828000000000000000028280000282828280028282800000000002828
310
28000000000000282800280028280000282828282800282828282800000000000000282800002800280028280000282828282800282828002800000000000000000000000000000000000000000000000000000000000000000000000000000000000000000000000000000000000000000000000000000000000000000000
310
00000000000000000000000000000000000000000000000000000000000000000000000000000000000000000000000000000000000000000000000000000000000000000000000000000000000000000000000000000000000000000000280000000000000000000000000000000000000000000000000000000000000000
310
28000000000000000000282800002828280000000000000000000000000000000000000000280000282828002828280000000000000000000000000000000000000000000000000000000000000000000000000000000000000000000000000000000000000000000000000000000000000000000000000000000000000000
310
00000000000000000000000000000000000000000000000000000000000000000000000000000000000000000000000000000000000000000000000000000000000000000000000000000000000000000000000000000000000000000000000000000000000000000000000000000000000000000000000000000000000000
310
00000000000000000000000000000000000000000000000000000000000000000000000000000000000000000000000000000000000000000000000000000000000000000000000000000000000000000000000000000000000000000000000000000000000000000000000000000000000000000000000000000000000000
310
00000000000000000000000000000000000000000000000000000000000000000000000000000000000000000000282800000028002828282800000000000000000000002828282828000000000028282800282800000000282828282828000028002800000000000000000000002828000028002828000000282828282828
310
28282828002828280000000028282828002800280000280028282800000000000000000000000000000000000000000000000000000000000000000000000000000000000000000000000000000000000000000000000000000000000000000000000000000000000000000000000000000000000000000000000000000000
310
00000000000000000000282828280000282828000000282800000000000000000000280000000000000028280028002800002800002800002828000000000000002800000000282828280000000028280028002800002828002800282828282828282828000000000000000000000000282828280000282828002828002828
310
00282828280028000028000000002828282828282828002800282800280000282800000028280000002828000000000000000000280000000028280000000028000000282800000028000000000000000000000000000000000000000000000000000000000000000000000000000000000000000000000000000000000000
310
00000000000000000000000028282828000000282800002800280000000000000028280028000000000000000000280000000000280000280000000028002828282828280000000028002800280000002800280028282828282828282828282828282828282828000028000000000000000028282828002828282828002828
310
28280028280028002828282828000000282800280028002828000028282828000000000000000028000000280028000000000000000028002800280000280028282800000000002800000028000000000000000000000000000000000000000000000000000000000000000000000000000000000000000000000000000000
310
00000000000000000000000000002828282800000000280000280028000028282828000028282800002828280000000028000028282828000028000000002800000000000028282828002800282828000000280000282828280028282828002828282828282828282800000000002828282828282828282828002828280028
310
28282800282828282800282828280000000028282828282828282828002828282800002828000000002800000028002800002828282800002828000000282828000000280000000000280000002800000000000000000000000000000000000000000000000000000000000000000000000000000000000000000000000000
310
00000000000000000000000000000000282828280000282828000028002800000000000000000028280000000000000028282800000028000000282800002800280000000000002828282800282828282800000028280028282800000028280000282828282828282828000000000000000000000000282828280028282828
310
28282828282800282828282828282828280000000028280000282828282800282828280000000000002828282828002800000000000000000000280000000000280000000000280000282828280028000000000000000000000000000000000000000000000000000000000000000000000000000000000000000000000000
310
00000000000000000000000000000000000000000000000000000000000000000000000000000000000000000000000000000000000000002828280000280000282800000000000000000000000000000000280000000000000000000000002828000000282800002828282800000000000000000000000000280000000000
310
280000000000280000002800000000280028000000000028002800000028000000000000000000000000000000000000000000000000000000000000000000000000000000000000000000000000000000000000000000000000000000000000000000000000000000000000000000000000000000000000000000
  0
XRECORD
  5
C0D7
102
{ACAD_REACTORS
330
62BB
102
}
330
62BB
100
AcDbXrecord
280
     1
102
MATERIAL
148
0.0
149
0.0
149
0.0
 93
        0
 94
      127
282
     0
 72
     0
 77
     0
171
     0
175
     0
179
     0
273
     0
  0
XRECORD
  5
62BD
102
{ACAD_REACTORS
330
62BB
102
}
330
62BB
100
AcDbXrecord
280
     1
270
     1
271
     1
  0
XRECORD
  5
62BC
102
{ACAD_REACTORS
330
62BB
102
}
330
62BB
100
AcDbXrecord
280
     1
270
     1
271
     1
  0
XRECORD
  5
62C0
102
{ACAD_REACTORS
330
62BB
102
}
330
62BB
100
AcDbXrecord
280
     1
270
     1
271
     1
  0
XRECORD
  5
62BF
102
{ACAD_REACTORS
330
62BB
102
}
330
62BB
100
AcDbXrecord
280
     1
270
     1
271
     1
  0
XRECORD
  5
62C1
102
{ACAD_REACTORS
330
62BB
102
}
330
62BB
100
AcDbXrecord
280
     1
270
     1
271
     1
  0
XRECORD
  5
62BE
102
{ACAD_REACTORS
330
62BB
102
}
330
62BB
100
AcDbXrecord
280
     1
270
     1
271
     1
  0
XRECORD
  5
C0D6
102
{ACAD_REACTORS
330
62B3
102
}
330
62B3
100
AcDbXrecord
280
     1
102
MATERIAL
148
0.0
149
0.0
149
0.0
 93
        0
 94
      127
282
     0
 72
     0
 77
     0
171
     0
175
     0
179
     0
273
     0
  0
XRECORD
  5
62B5
102
{ACAD_REACTORS
330
62B3
102
}
330
62B3
100
AcDbXrecord
280
     1
270
     1
271
     1
  0
XRECORD
  5
62B4
102
{ACAD_REACTORS
330
62B3
102
}
330
62B3
100
AcDbXrecord
280
     1
270
     1
271
     1
  0
XRECORD
  5
62B8
102
{ACAD_REACTORS
330
62B3
102
}
330
62B3
100
AcDbXrecord
280
     1
270
     1
271
     1
  0
XRECORD
  5
62B7
102
{ACAD_REACTORS
330
62B3
102
}
330
62B3
100
AcDbXrecord
280
     1
270
     1
271
     1
  0
XRECORD
  5
62B9
102
{ACAD_REACTORS
330
62B3
102
}
330
62B3
100
AcDbXrecord
280
     1
270
     1
271
     1
  0
XRECORD
  5
62B6
102
{ACAD_REACTORS
330
62B3
102
}
330
62B3
100
AcDbXrecord
280
     1
270
     1
271
     1
  0
XRECORD
  5
C0D8
102
{ACAD_REACTORS
330
62C3
102
}
330
62C3
100
AcDbXrecord
280
     1
102
MATERIAL
148
0.0
149
0.0
149
0.0
 93
        0
 94
      127
282
     0
 72
     0
 77
     0
171
     0
175
     0
179
     0
273
     0
  0
XRECORD
  5
62C5
102
{ACAD_REACTORS
330
62C3
102
}
330
62C3
100
AcDbXrecord
280
     1
270
     1
271
     1
  0
XRECORD
  5
62C4
102
{ACAD_REACTORS
330
62C3
102
}
330
62C3
100
AcDbXrecord
280
     1
270
     1
271
     1
  0
XRECORD
  5
62C8
102
{ACAD_REACTORS
330
62C3
102
}
330
62C3
100
AcDbXrecord
280
     1
270
     1
271
     1
  0
XRECORD
  5
62C7
102
{ACAD_REACTORS
330
62C3
102
}
330
62C3
100
AcDbXrecord
280
     1
270
     1
271
     1
  0
XRECORD
  5
62C9
102
{ACAD_REACTORS
330
62C3
102
}
330
62C3
100
AcDbXrecord
280
     1
270
     1
271
     1
  0
XRECORD
  5
62C6
102
{ACAD_REACTORS
330
62C3
102
}
330
62C3
100
AcDbXrecord
280
     1
270
     1
271
     1
  0
XRECORD
  5
C0D4
102
{ACAD_REACTORS
330
C0D3
102
}
330
C0D3
100
AcDbXrecord
280
     1
102
ACAD_ROUNDTRIP_2012_MLEADER_STYLE
298
     1
  0
CELLSTYLEMAP
  5
C0D2
102
{ACAD_REACTORS
330
ACD8
102
}
330
ACD8
100
AcDbCellStyleMap
 90
        3
300
CELLSTYLE
  1
TABLEFORMAT_BEGIN
 90
        5
170
     1
 91
        0
 92
    32768
 62
   257
 93
        1
300
CONTENTFORMAT
  1
CONTENTFORMAT_BEGIN
 90
        0
 91
        0
 92
      512
 93
        0
300

 40
0.0
140
1.0
 94
        5
 62
     0
340
11
144
0.25
309
CONTENTFORMAT_END
171
     0
 94
        0
309
TABLEFORMAT_END
  1
CELLSTYLE_BEGIN
 90
        1
 91
        1
300
_TITLE
309
CELLSTYLE_END
300
CELLSTYLE
  1
TABLEFORMAT_BEGIN
 90
        5
170
     1
 91
        0
 92
        0
 62
   257
 93
        1
300
CONTENTFORMAT
  1
CONTENTFORMAT_BEGIN
 90
        0
 91
        0
 92
      512
 93
        0
300

 40
0.0
140
1.0
 94
        5
 62
     0
340
11
144
0.18
309
CONTENTFORMAT_END
171
     0
 94
        0
309
TABLEFORMAT_END
  1
CELLSTYLE_BEGIN
 90
        2
 91
        1
300
_HEADER
309
CELLSTYLE_END
300
CELLSTYLE
  1
TABLEFORMAT_BEGIN
 90
        5
170
     1
 91
        0
 92
        0
 62
   257
 93
        1
300
CONTENTFORMAT
  1
CONTENTFORMAT_BEGIN
 90
        0
 91
        0
 92
      512
 93
        0
300

 40
0.0
140
1.0
 94
        2
 62
     0
340
11
144
0.18
309
CONTENTFORMAT_END
171
     0
 94
        0
309
TABLEFORMAT_END
  1
CELLSTYLE_BEGIN
 90
        3
 91
        2
300
_DATA
309
CELLSTYLE_END
  0
XRECORD
  5
C109
102
{ACAD_REACTORS
330
ACD8
102
}
330
ACD8
100
AcDbXrecord
280
     1
102
ACAD_ROUNDTRIP_PRE2007_TABLESTYLE
 90
      512
 91
        0
  1

 92
      512
 93
        0
  2

 94
      512
 95
        0
  3

  0
XRECORD
  5
C0E4
102
{ACAD_REACTORS
330
C0E3
102
}
330
C0E3
100
AcDbXrecord
280
     1
102
RTVSPropertyOp0
 70
     1
102
RTVSPropertyOp1
 70
     1
102
RTVSPropertyOp2
 70
     1
102
RTVSPropertyOp3
 70
     1
102
RTVSPropertyOp4
 70
     1
102
RTVSPropertyOp5
 70
     1
102
RTVSPropertyOp6
 70
     1
102
RTVSPropertyOp7
 70
     1
102
RTVSPropertyOp8
 70
     1
102
RTVSPropertyOp9
 70
     1
102
RTVSPropertyOp10
 70
     1
102
RTVSPropertyOp11
 70
     1
102
RTVSPropertyOp12
 70
     1
102
RTVSPropertyOp13
 70
     1
102
RTVSPropertyOp14
 70
     1
102
RTVSPropertyOp15
 70
     1
102
RTVSPropertyOp16
 70
     1
102
RTVSPropertyOp17
 70
     1
102
RTVSPropertyOp18
 70
     1
102
RTVSPropertyOp19
 70
     1
102
RTVSPropertyOp20
 70
     1
102
RTVSPropertyOp21
 70
     1
102
RTVSPropertyOp22
 70
     1
102
RTVSPropertyOp23
 70
     1
102
RTVSPropertyOp24
 70
     1
102
RTVSPropertyOp25
 70
     1
102
RTVSPropertyOp26
 70
     1
102
RTVSPropertyOp27
 70
     1
102
RTVSPropertyOp28
 70
     1
102
RTVSPropertyOp29
 70
     1
102
RTVSPropertyOp30
 70
     1
102
RTVSPropertyOp31
 70
     1
102
RTVSPropertyOp32
 70
     1
  0
XRECORD
  5
C0E2
102
{ACAD_REACTORS
330
C0E1
102
}
330
C0E1
100
AcDbXrecord
280
     1
102
RTVSPropertyOp0
 70
     1
102
RTVSPropertyOp1
 70
     1
102
RTVSPropertyOp2
 70
     1
102
RTVSPropertyOp3
 70
     1
102
RTVSPropertyOp4
 70
     1
102
RTVSPropertyOp5
 70
     1
102
RTVSPropertyOp6
 70
     1
102
RTVSPropertyOp7
 70
     1
102
RTVSPropertyOp8
 70
     1
102
RTVSPropertyOp9
 70
     1
102
RTVSPropertyOp10
 70
     1
102
RTVSPropertyOp11
 70
     1
102
RTVSPropertyOp12
 70
     1
102
RTVSPropertyOp13
 70
     1
102
RTVSPropertyOp14
 70
     1
102
RTVSPropertyOp15
 70
     1
102
RTVSPropertyOp16
 70
     1
102
RTVSPropertyOp17
 70
     1
102
RTVSPropertyOp18
 70
     1
102
RTVSPropertyOp19
 70
     1
102
RTVSPropertyOp20
 70
     1
102
RTVSPropertyOp21
 70
     1
102
RTVSPropertyOp22
 70
     1
102
RTVSPropertyOp23
 70
     1
102
RTVSPropertyOp24
 70
     1
102
RTVSPropertyOp25
 70
     1
102
RTVSPropertyOp26
 70
     1
102
RTVSPropertyOp27
 70
     1
102
RTVSPropertyOp28
 70
     1
102
RTVSPropertyOp29
 70
     1
102
RTVSPropertyOp30
 70
     1
102
RTVSPropertyOp31
 70
     1
102
RTVSPropertyOp32
 70
     1
  0
XRECORD
  5
C0F0
102
{ACAD_REACTORS
330
C0EF
102
}
330
C0EF
100
AcDbXrecord
280
     1
102
RTVSPropertyOp0
 70
     1
102
RTVSPropertyOp1
 70
     1
102
RTVSPropertyOp2
 70
     1
102
RTVSPropertyOp3
 70
     1
102
RTVSPropertyOp4
 70
     1
102
RTVSPropertyOp5
 70
     1
102
RTVSPropertyOp6
 70
     1
102
RTVSPropertyOp7
 70
     1
102
RTVSPropertyOp8
 70
     1
102
RTVSPropertyOp9
 70
     1
102
RTVSPropertyOp10
 70
     1
102
RTVSPropertyOp11
 70
     1
102
RTVSPropertyOp12
 70
     1
102
RTVSPropertyOp13
 70
     1
102
RTVSPropertyOp14
 70
     1
102
RTVSPropertyOp15
 70
     1
102
RTVSPropertyOp16
 70
     1
102
RTVSPropertyOp17
 70
     1
102
RTVSPropertyOp18
 70
     1
102
RTVSPropertyOp19
 70
     1
102
RTVSPropertyOp20
 70
     1
102
RTVSPropertyOp21
 70
     1
102
RTVSPropertyOp22
 70
     1
102
RTVSPropertyOp23
 70
     1
102
RTVSPropertyOp24
 70
     1
102
RTVSPropertyOp25
 70
     1
102
RTVSPropertyOp26
 70
     1
102
RTVSPropertyOp27
 70
     1
102
RTVSPropertyOp28
 70
     1
102
RTVSPropertyOp29
 70
     1
102
RTVSPropertyOp30
 70
     1
102
RTVSPropertyOp31
 70
     1
102
RTVSPropertyOp32
 70
     1
  0
XRECORD
  5
C0F8
102
{ACAD_REACTORS
330
C0F7
102
}
330
C0F7
100
AcDbXrecord
280
     1
102
RTVSPropertyOp0
 70
     1
102
RTVSPropertyOp1
 70
     1
102
RTVSPropertyOp2
 70
     1
102
RTVSPropertyOp3
 70
     1
102
RTVSPropertyOp4
 70
     1
102
RTVSPropertyOp5
 70
     1
102
RTVSPropertyOp6
 70
     1
102
RTVSPropertyOp7
 70
     1
102
RTVSPropertyOp8
 70
     1
102
RTVSPropertyOp9
 70
     1
102
RTVSPropertyOp10
 70
     1
102
RTVSPropertyOp11
 70
     1
102
RTVSPropertyOp12
 70
     1
102
RTVSPropertyOp13
 70
     1
102
RTVSPropertyOp14
 70
     1
102
RTVSPropertyOp15
 70
     1
102
RTVSPropertyOp16
 70
     1
102
RTVSPropertyOp17
 70
     1
102
RTVSPropertyOp18
 70
     1
102
RTVSPropertyOp19
 70
     1
102
RTVSPropertyOp20
 70
     1
102
RTVSPropertyOp21
 70
     1
102
RTVSPropertyOp22
 70
     1
102
RTVSPropertyOp23
 70
     1
102
RTVSPropertyOp24
 70
     1
102
RTVSPropertyOp25
 70
     1
102
RTVSPropertyOp26
 70
     1
102
RTVSPropertyOp27
 70
     1
102
RTVSPropertyOp28
 70
     1
102
RTVSPropertyOp29
 70
     1
102
RTVSPropertyOp30
 70
     1
102
RTVSPropertyOp31
 70
     1
102
RTVSPropertyOp32
 70
     1
  0
XRECORD
  5
C0EA
102
{ACAD_REACTORS
330
C0E9
102
}
330
C0E9
100
AcDbXrecord
280
     1
102
RTVSPropertyOp0
 70
     1
102
RTVSPropertyOp1
 70
     1
102
RTVSPropertyOp2
 70
     1
102
RTVSPropertyOp3
 70
     1
102
RTVSPropertyOp4
 70
     1
102
RTVSPropertyOp5
 70
     1
102
RTVSPropertyOp6
 70
     1
102
RTVSPropertyOp7
 70
     1
102
RTVSPropertyOp8
 70
     1
102
RTVSPropertyOp9
 70
     1
102
RTVSPropertyOp10
 70
     1
102
RTVSPropertyOp11
 70
     1
102
RTVSPropertyOp12
 70
     1
102
RTVSPropertyOp13
 70
     1
102
RTVSPropertyOp14
 70
     1
102
RTVSPropertyOp15
 70
     1
102
RTVSPropertyOp16
 70
     1
102
RTVSPropertyOp17
 70
     1
102
RTVSPropertyOp18
 70
     1
102
RTVSPropertyOp19
 70
     1
102
RTVSPropertyOp20
 70
     1
102
RTVSPropertyOp21
 70
     1
102
RTVSPropertyOp22
 70
     1
102
RTVSPropertyOp23
 70
     1
102
RTVSPropertyOp24
 70
     1
102
RTVSPropertyOp25
 70
     1
102
RTVSPropertyOp26
 70
     1
102
RTVSPropertyOp27
 70
     1
102
RTVSPropertyOp28
 70
     1
102
RTVSPropertyOp29
 70
     1
102
RTVSPropertyOp30
 70
     1
102
RTVSPropertyOp31
 70
     1
102
RTVSPropertyOp32
 70
     1
  0
XRECORD
  5
C0EE
102
{ACAD_REACTORS
330
C0ED
102
}
330
C0ED
100
AcDbXrecord
280
     1
102
RTVSPropertyOp0
 70
     1
102
RTVSPropertyOp1
 70
     1
102
RTVSPropertyOp2
 70
     1
102
RTVSPropertyOp3
 70
     1
102
RTVSPropertyOp4
 70
     1
102
RTVSPropertyOp5
 70
     1
102
RTVSPropertyOp6
 70
     1
102
RTVSPropertyOp7
 70
     1
102
RTVSPropertyOp8
 70
     1
102
RTVSPropertyOp9
 70
     1
102
RTVSPropertyOp10
 70
     1
102
RTVSPropertyOp11
 70
     1
102
RTVSPropertyOp12
 70
     1
102
RTVSPropertyOp13
 70
     1
102
RTVSPropertyOp14
 70
     1
102
RTVSPropertyOp15
 70
     1
102
RTVSPropertyOp16
 70
     1
102
RTVSPropertyOp17
 70
     1
102
RTVSPropertyOp18
 70
     1
102
RTVSPropertyOp19
 70
     1
102
RTVSPropertyOp20
 70
     1
102
RTVSPropertyOp21
 70
     1
102
RTVSPropertyOp22
 70
     1
102
RTVSPropertyOp23
 70
     1
102
RTVSPropertyOp24
 70
     1
102
RTVSPropertyOp25
 70
     1
102
RTVSPropertyOp26
 70
     1
102
RTVSPropertyOp27
 70
     1
102
RTVSPropertyOp28
 70
     1
102
RTVSPropertyOp29
 70
     1
102
RTVSPropertyOp30
 70
     1
102
RTVSPropertyOp31
 70
     1
102
RTVSPropertyOp32
 70
     1
  0
XRECORD
  5
C108
102
{ACAD_REACTORS
330
C107
102
}
330
C107
100
AcDbXrecord
280
     1
102
RTVSPropertyOp0
 70
     0
102
RTVSPropertyOp1
 70
     0
102
RTVSPropertyOp2
 70
     0
102
RTVSPropertyOp3
 70
     0
102
RTVSPropertyOp4
 70
     0
102
RTVSPropertyOp5
 70
     0
102
RTVSPropertyOp6
 70
     0
102
RTVSPropertyOp7
 70
     0
102
RTVSPropertyOp8
 70
     0
102
RTVSPropertyOp9
 70
     0
102
RTVSPropertyOp10
 70
     0
102
RTVSPropertyOp11
 70
     0
102
RTVSPropertyOp12
 70
     0
102
RTVSPropertyOp13
 70
     0
102
RTVSPropertyOp14
 70
     2
102
RTVSPropertyOp15
 70
     0
102
RTVSPropertyOp16
 70
     0
102
RTVSPropertyOp17
 70
     0
102
RTVSPropertyOp18
 70
     0
102
RTVSPropertyOp19
 70
     0
102
RTVSPropertyOp20
 70
     0
102
RTVSPropertyOp21
 70
     0
102
RTVSPropertyOp22
 70
     0
102
RTVSPropertyOp23
 70
     0
102
RTVSPropertyOp24
 70
     0
102
RTVSPropertyOp25
 70
     0
102
RTVSPropertyOp26
 70
     0
102
RTVSPropertyOp27
 70
     0
102
RTVSPropertyOp28
 70
     1
102
RTVSPropertyOp29
 70
     1
102
RTVSPropertyOp30
 70
     1
102
RTVSPropertyOp31
 70
     1
102
RTVSPropertyOp32
 70
     1
  0
XRECORD
  5
C0F6
102
{ACAD_REACTORS
330
C0F5
102
}
330
C0F5
100
AcDbXrecord
280
     1
102
RTVSPropertyOp0
 70
     1
102
RTVSPropertyOp1
 70
     1
102
RTVSPropertyOp2
 70
     1
102
RTVSPropertyOp3
 70
     1
102
RTVSPropertyOp4
 70
     1
102
RTVSPropertyOp5
 70
     1
102
RTVSPropertyOp6
 70
     1
102
RTVSPropertyOp7
 70
     1
102
RTVSPropertyOp8
 70
     1
102
RTVSPropertyOp9
 70
     1
102
RTVSPropertyOp10
 70
     1
102
RTVSPropertyOp11
 70
     1
102
RTVSPropertyOp12
 70
     1
102
RTVSPropertyOp13
 70
     1
102
RTVSPropertyOp14
 70
     1
102
RTVSPropertyOp15
 70
     1
102
RTVSPropertyOp16
 70
     1
102
RTVSPropertyOp17
 70
     1
102
RTVSPropertyOp18
 70
     1
102
RTVSPropertyOp19
 70
     1
102
RTVSPropertyOp20
 70
     1
102
RTVSPropertyOp21
 70
     1
102
RTVSPropertyOp22
 70
     1
102
RTVSPropertyOp23
 70
     1
102
RTVSPropertyOp24
 70
     1
102
RTVSPropertyOp25
 70
     1
102
RTVSPropertyOp26
 70
     1
102
RTVSPropertyOp27
 70
     1
102
RTVSPropertyOp28
 70
     1
102
RTVSPropertyOp29
 70
     1
102
RTVSPropertyOp30
 70
     1
102
RTVSPropertyOp31
 70
     1
102
RTVSPropertyOp32
 70
     1
  0
XRECORD
  5
C0DA
102
{ACAD_REACTORS
330
C0D9
102
}
330
C0D9
100
AcDbXrecord
280
     1
102
RTVSPropertyOp0
 70
     1
102
RTVSPropertyOp1
 70
     1
102
RTVSPropertyOp2
 70
     1
102
RTVSPropertyOp3
 70
     1
102
RTVSPropertyOp4
 70
     1
102
RTVSPropertyOp5
 70
     1
102
RTVSPropertyOp6
 70
     1
102
RTVSPropertyOp7
 70
     1
102
RTVSPropertyOp8
 70
     1
102
RTVSPropertyOp9
 70
     1
102
RTVSPropertyOp10
 70
     1
102
RTVSPropertyOp11
 70
     1
102
RTVSPropertyOp12
 70
     1
102
RTVSPropertyOp13
 70
     1
102
RTVSPropertyOp14
 70
     1
102
RTVSPropertyOp15
 70
     1
102
RTVSPropertyOp16
 70
     1
102
RTVSPropertyOp17
 70
     1
102
RTVSPropertyOp18
 70
     1
102
RTVSPropertyOp19
 70
     1
102
RTVSPropertyOp20
 70
     1
102
RTVSPropertyOp21
 70
     1
102
RTVSPropertyOp22
 70
     1
102
RTVSPropertyOp23
 70
     1
102
RTVSPropertyOp24
 70
     1
102
RTVSPropertyOp25
 70
     1
102
RTVSPropertyOp26
 70
     1
102
RTVSPropertyOp27
 70
     1
102
RTVSPropertyOp28
 70
     1
102
RTVSPropertyOp29
 70
     1
102
RTVSPropertyOp30
 70
     1
102
RTVSPropertyOp31
 70
     1
102
RTVSPropertyOp32
 70
     1
  0
XRECORD
  5
C0DC
102
{ACAD_REACTORS
330
C0DB
102
}
330
C0DB
100
AcDbXrecord
280
     1
102
RTVSPropertyOp0
 70
     1
102
RTVSPropertyOp1
 70
     1
102
RTVSPropertyOp2
 70
     1
102
RTVSPropertyOp3
 70
     1
102
RTVSPropertyOp4
 70
     1
102
RTVSPropertyOp5
 70
     1
102
RTVSPropertyOp6
 70
     1
102
RTVSPropertyOp7
 70
     1
102
RTVSPropertyOp8
 70
     1
102
RTVSPropertyOp9
 70
     1
102
RTVSPropertyOp10
 70
     1
102
RTVSPropertyOp11
 70
     1
102
RTVSPropertyOp12
 70
     1
102
RTVSPropertyOp13
 70
     1
102
RTVSPropertyOp14
 70
     1
102
RTVSPropertyOp15
 70
     1
102
RTVSPropertyOp16
 70
     1
102
RTVSPropertyOp17
 70
     1
102
RTVSPropertyOp18
 70
     1
102
RTVSPropertyOp19
 70
     1
102
RTVSPropertyOp20
 70
     1
102
RTVSPropertyOp21
 70
     1
102
RTVSPropertyOp22
 70
     1
102
RTVSPropertyOp23
 70
     1
102
RTVSPropertyOp24
 70
     1
102
RTVSPropertyOp25
 70
     1
102
RTVSPropertyOp26
 70
     1
102
RTVSPropertyOp27
 70
     1
102
RTVSPropertyOp28
 70
     1
102
RTVSPropertyOp29
 70
     1
102
RTVSPropertyOp30
 70
     1
102
RTVSPropertyOp31
 70
     1
102
RTVSPropertyOp32
 70
     1
  0
XRECORD
  5
C0DE
102
{ACAD_REACTORS
330
C0DD
102
}
330
C0DD
100
AcDbXrecord
280
     1
102
RTVSPropertyOp0
 70
     1
102
RTVSPropertyOp1
 70
     1
102
RTVSPropertyOp2
 70
     1
102
RTVSPropertyOp3
 70
     1
102
RTVSPropertyOp4
 70
     1
102
RTVSPropertyOp5
 70
     1
102
RTVSPropertyOp6
 70
     1
102
RTVSPropertyOp7
 70
     1
102
RTVSPropertyOp8
 70
     1
102
RTVSPropertyOp9
 70
     1
102
RTVSPropertyOp10
 70
     1
102
RTVSPropertyOp11
 70
     1
102
RTVSPropertyOp12
 70
     1
102
RTVSPropertyOp13
 70
     1
102
RTVSPropertyOp14
 70
     1
102
RTVSPropertyOp15
 70
     1
102
RTVSPropertyOp16
 70
     1
102
RTVSPropertyOp17
 70
     1
102
RTVSPropertyOp18
 70
     1
102
RTVSPropertyOp19
 70
     1
102
RTVSPropertyOp20
 70
     1
102
RTVSPropertyOp21
 70
     1
102
RTVSPropertyOp22
 70
     1
102
RTVSPropertyOp23
 70
     1
102
RTVSPropertyOp24
 70
     1
102
RTVSPropertyOp25
 70
     1
102
RTVSPropertyOp26
 70
     1
102
RTVSPropertyOp27
 70
     1
102
RTVSPropertyOp28
 70
     1
102
RTVSPropertyOp29
 70
     1
102
RTVSPropertyOp30
 70
     1
102
RTVSPropertyOp31
 70
     1
102
RTVSPropertyOp32
 70
     1
  0
XRECORD
  5
C0E0
102
{ACAD_REACTORS
330
C0DF
102
}
330
C0DF
100
AcDbXrecord
280
     1
102
RTVSPropertyOp0
 70
     1
102
RTVSPropertyOp1
 70
     1
102
RTVSPropertyOp2
 70
     1
102
RTVSPropertyOp3
 70
     1
102
RTVSPropertyOp4
 70
     1
102
RTVSPropertyOp5
 70
     1
102
RTVSPropertyOp6
 70
     1
102
RTVSPropertyOp7
 70
     1
102
RTVSPropertyOp8
 70
     1
102
RTVSPropertyOp9
 70
     1
102
RTVSPropertyOp10
 70
     1
102
RTVSPropertyOp11
 70
     1
102
RTVSPropertyOp12
 70
     1
102
RTVSPropertyOp13
 70
     1
102
RTVSPropertyOp14
 70
     1
102
RTVSPropertyOp15
 70
     1
102
RTVSPropertyOp16
 70
     1
102
RTVSPropertyOp17
 70
     1
102
RTVSPropertyOp18
 70
     1
102
RTVSPropertyOp19
 70
     1
102
RTVSPropertyOp20
 70
     1
102
RTVSPropertyOp21
 70
     1
102
RTVSPropertyOp22
 70
     1
102
RTVSPropertyOp23
 70
     1
102
RTVSPropertyOp24
 70
     1
102
RTVSPropertyOp25
 70
     1
102
RTVSPropertyOp26
 70
     1
102
RTVSPropertyOp27
 70
     1
102
RTVSPropertyOp28
 70
     1
102
RTVSPropertyOp29
 70
     1
102
RTVSPropertyOp30
 70
     1
102
RTVSPropertyOp31
 70
     1
102
RTVSPropertyOp32
 70
     1
  0
XRECORD
  5
C0E8
102
{ACAD_REACTORS
330
C0E7
102
}
330
C0E7
100
AcDbXrecord
280
     1
102
RTVSPropertyOp0
 70
     1
102
RTVSPropertyOp1
 70
     1
102
RTVSPropertyOp2
 70
     1
102
RTVSPropertyOp3
 70
     1
102
RTVSPropertyOp4
 70
     1
102
RTVSPropertyOp5
 70
     1
102
RTVSPropertyOp6
 70
     1
102
RTVSPropertyOp7
 70
     1
102
RTVSPropertyOp8
 70
     1
102
RTVSPropertyOp9
 70
     1
102
RTVSPropertyOp10
 70
     1
102
RTVSPropertyOp11
 70
     1
102
RTVSPropertyOp12
 70
     1
102
RTVSPropertyOp13
 70
     1
102
RTVSPropertyOp14
 70
     1
102
RTVSPropertyOp15
 70
     1
102
RTVSPropertyOp16
 70
     1
102
RTVSPropertyOp17
 70
     1
102
RTVSPropertyOp18
 70
     1
102
RTVSPropertyOp19
 70
     1
102
RTVSPropertyOp20
 70
     1
102
RTVSPropertyOp21
 70
     1
102
RTVSPropertyOp22
 70
     1
102
RTVSPropertyOp23
 70
     1
102
RTVSPropertyOp24
 70
     1
102
RTVSPropertyOp25
 70
     1
102
RTVSPropertyOp26
 70
     1
102
RTVSPropertyOp27
 70
     1
102
RTVSPropertyOp28
 70
     1
102
RTVSPropertyOp29
 70
     1
102
RTVSPropertyOp30
 70
     1
102
RTVSPropertyOp31
 70
     1
102
RTVSPropertyOp32
 70
     1
  0
XRECORD
  5
C104
102
{ACAD_REACTORS
330
C103
102
}
330
C103
100
AcDbXrecord
280
     1
102
RTVSPropertyOp0
 70
     0
102
RTVSPropertyOp1
 70
     0
102
RTVSPropertyOp2
 70
     0
102
RTVSPropertyOp3
 70
     0
102
RTVSPropertyOp4
 70
     0
102
RTVSPropertyOp5
 70
     0
102
RTVSPropertyOp6
 70
     0
102
RTVSPropertyOp7
 70
     0
102
RTVSPropertyOp8
 70
     0
102
RTVSPropertyOp9
 70
     0
102
RTVSPropertyOp10
 70
     0
102
RTVSPropertyOp11
 70
     0
102
RTVSPropertyOp12
 70
     0
102
RTVSPropertyOp13
 70
     0
102
RTVSPropertyOp14
 70
     2
102
RTVSPropertyOp15
 70
     0
102
RTVSPropertyOp16
 70
     0
102
RTVSPropertyOp17
 70
     0
102
RTVSPropertyOp18
 70
     0
102
RTVSPropertyOp19
 70
     0
102
RTVSPropertyOp20
 70
     0
102
RTVSPropertyOp21
 70
     0
102
RTVSPropertyOp22
 70
     0
102
RTVSPropertyOp23
 70
     0
102
RTVSPropertyOp24
 70
     0
102
RTVSPropertyOp25
 70
     0
102
RTVSPropertyOp26
 70
     0
102
RTVSPropertyOp27
 70
     0
102
RTVSPropertyOp28
 70
     1
102
RTVSPropertyOp29
 70
     1
102
RTVSPropertyOp30
 70
     1
102
RTVSPropertyOp31
 70
     1
102
RTVSPropertyOp32
 70
     1
  0
XRECORD
  5
C0F4
102
{ACAD_REACTORS
330
C0F3
102
}
330
C0F3
100
AcDbXrecord
280
     1
102
RTVSPropertyOp0
 70
     1
102
RTVSPropertyOp1
 70
     1
102
RTVSPropertyOp2
 70
     1
102
RTVSPropertyOp3
 70
     1
102
RTVSPropertyOp4
 70
     1
102
RTVSPropertyOp5
 70
     1
102
RTVSPropertyOp6
 70
     1
102
RTVSPropertyOp7
 70
     1
102
RTVSPropertyOp8
 70
     1
102
RTVSPropertyOp9
 70
     1
102
RTVSPropertyOp10
 70
     1
102
RTVSPropertyOp11
 70
     1
102
RTVSPropertyOp12
 70
     1
102
RTVSPropertyOp13
 70
     1
102
RTVSPropertyOp14
 70
     1
102
RTVSPropertyOp15
 70
     1
102
RTVSPropertyOp16
 70
     1
102
RTVSPropertyOp17
 70
     1
102
RTVSPropertyOp18
 70
     1
102
RTVSPropertyOp19
 70
     1
102
RTVSPropertyOp20
 70
     1
102
RTVSPropertyOp21
 70
     1
102
RTVSPropertyOp22
 70
     1
102
RTVSPropertyOp23
 70
     1
102
RTVSPropertyOp24
 70
     1
102
RTVSPropertyOp25
 70
     1
102
RTVSPropertyOp26
 70
     1
102
RTVSPropertyOp27
 70
     1
102
RTVSPropertyOp28
 70
     1
102
RTVSPropertyOp29
 70
     1
102
RTVSPropertyOp30
 70
     1
102
RTVSPropertyOp31
 70
     1
102
RTVSPropertyOp32
 70
     1
  0
XRECORD
  5
C106
102
{ACAD_REACTORS
330
C105
102
}
330
C105
100
AcDbXrecord
280
     1
102
RTVSPropertyOp0
 70
     0
102
RTVSPropertyOp1
 70
     0
102
RTVSPropertyOp2
 70
     0
102
RTVSPropertyOp3
 70
     0
102
RTVSPropertyOp4
 70
     0
102
RTVSPropertyOp5
 70
     0
102
RTVSPropertyOp6
 70
     0
102
RTVSPropertyOp7
 70
     0
102
RTVSPropertyOp8
 70
     0
102
RTVSPropertyOp9
 70
     0
102
RTVSPropertyOp10
 70
     0
102
RTVSPropertyOp11
 70
     0
102
RTVSPropertyOp12
 70
     0
102
RTVSPropertyOp13
 70
     0
102
RTVSPropertyOp14
 70
     2
102
RTVSPropertyOp15
 70
     0
102
RTVSPropertyOp16
 70
     0
102
RTVSPropertyOp17
 70
     0
102
RTVSPropertyOp18
 70
     0
102
RTVSPropertyOp19
 70
     0
102
RTVSPropertyOp20
 70
     0
102
RTVSPropertyOp21
 70
     0
102
RTVSPropertyOp22
 70
     0
102
RTVSPropertyOp23
 70
     0
102
RTVSPropertyOp24
 70
     0
102
RTVSPropertyOp25
 70
     0
102
RTVSPropertyOp26
 70
     0
102
RTVSPropertyOp27
 70
     0
102
RTVSPropertyOp28
 70
     1
102
RTVSPropertyOp29
 70
     1
102
RTVSPropertyOp30
 70
     1
102
RTVSPropertyOp31
 70
     1
102
RTVSPropertyOp32
 70
     1
  0
XRECORD
  5
C0EC
102
{ACAD_REACTORS
330
C0EB
102
}
330
C0EB
100
AcDbXrecord
280
     1
102
RTVSPropertyOp0
 70
     1
102
RTVSPropertyOp1
 70
     1
102
RTVSPropertyOp2
 70
     1
102
RTVSPropertyOp3
 70
     1
102
RTVSPropertyOp4
 70
     1
102
RTVSPropertyOp5
 70
     1
102
RTVSPropertyOp6
 70
     1
102
RTVSPropertyOp7
 70
     1
102
RTVSPropertyOp8
 70
     1
102
RTVSPropertyOp9
 70
     1
102
RTVSPropertyOp10
 70
     1
102
RTVSPropertyOp11
 70
     1
102
RTVSPropertyOp12
 70
     1
102
RTVSPropertyOp13
 70
     1
102
RTVSPropertyOp14
 70
     1
102
RTVSPropertyOp15
 70
     1
102
RTVSPropertyOp16
 70
     1
102
RTVSPropertyOp17
 70
     1
102
RTVSPropertyOp18
 70
     1
102
RTVSPropertyOp19
 70
     1
102
RTVSPropertyOp20
 70
     1
102
RTVSPropertyOp21
 70
     1
102
RTVSPropertyOp22
 70
     1
102
RTVSPropertyOp23
 70
     1
102
RTVSPropertyOp24
 70
     1
102
RTVSPropertyOp25
 70
     1
102
RTVSPropertyOp26
 70
     1
102
RTVSPropertyOp27
 70
     1
102
RTVSPropertyOp28
 70
     1
102
RTVSPropertyOp29
 70
     1
102
RTVSPropertyOp30
 70
     1
102
RTVSPropertyOp31
 70
     1
102
RTVSPropertyOp32
 70
     1
  0
XRECORD
  5
C102
102
{ACAD_REACTORS
330
C101
102
}
330
C101
100
AcDbXrecord
280
     1
102
RTVSPropertyOp0
 70
     1
102
RTVSPropertyOp1
 70
     1
102
RTVSPropertyOp2
 70
     1
102
RTVSPropertyOp3
 70
     1
102
RTVSPropertyOp4
 70
     1
102
RTVSPropertyOp5
 70
     1
102
RTVSPropertyOp6
 70
     1
102
RTVSPropertyOp7
 70
     1
102
RTVSPropertyOp8
 70
     1
102
RTVSPropertyOp9
 70
     1
102
RTVSPropertyOp10
 70
     1
102
RTVSPropertyOp11
 70
     1
102
RTVSPropertyOp12
 70
     1
102
RTVSPropertyOp13
 70
     1
102
RTVSPropertyOp14
 70
     1
102
RTVSPropertyOp15
 70
     1
102
RTVSPropertyOp16
 70
     1
102
RTVSPropertyOp17
 70
     1
102
RTVSPropertyOp18
 70
     1
102
RTVSPropertyOp19
 70
     1
102
RTVSPropertyOp20
 70
     1
102
RTVSPropertyOp21
 70
     1
102
RTVSPropertyOp22
 70
     1
102
RTVSPropertyOp23
 70
     1
102
RTVSPropertyOp24
 70
     1
102
RTVSPropertyOp25
 70
     1
102
RTVSPropertyOp26
 70
     1
102
RTVSPropertyOp27
 70
     1
102
RTVSPropertyOp28
 70
     1
102
RTVSPropertyOp29
 70
     1
102
RTVSPropertyOp30
 70
     1
102
RTVSPropertyOp31
 70
     1
102
RTVSPropertyOp32
 70
     1
  0
XRECORD
  5
C100
102
{ACAD_REACTORS
330
C0FF
102
}
330
C0FF
100
AcDbXrecord
280
     1
102
RTVSPropertyOp0
 70
     1
102
RTVSPropertyOp1
 70
     1
102
RTVSPropertyOp2
 70
     1
102
RTVSPropertyOp3
 70
     1
102
RTVSPropertyOp4
 70
     1
102
RTVSPropertyOp5
 70
     1
102
RTVSPropertyOp6
 70
     1
102
RTVSPropertyOp7
 70
     1
102
RTVSPropertyOp8
 70
     1
102
RTVSPropertyOp9
 70
     1
102
RTVSPropertyOp10
 70
     1
102
RTVSPropertyOp11
 70
     1
102
RTVSPropertyOp12
 70
     1
102
RTVSPropertyOp13
 70
     1
102
RTVSPropertyOp14
 70
     1
102
RTVSPropertyOp15
 70
     1
102
RTVSPropertyOp16
 70
     1
102
RTVSPropertyOp17
 70
     1
102
RTVSPropertyOp18
 70
     1
102
RTVSPropertyOp19
 70
     1
102
RTVSPropertyOp20
 70
     1
102
RTVSPropertyOp21
 70
     1
102
RTVSPropertyOp22
 70
     1
102
RTVSPropertyOp23
 70
     1
102
RTVSPropertyOp24
 70
     1
102
RTVSPropertyOp25
 70
     1
102
RTVSPropertyOp26
 70
     1
102
RTVSPropertyOp27
 70
     1
102
RTVSPropertyOp28
 70
     1
102
RTVSPropertyOp29
 70
     1
102
RTVSPropertyOp30
 70
     1
102
RTVSPropertyOp31
 70
     1
102
RTVSPropertyOp32
 70
     1
  0
XRECORD
  5
C0FA
102
{ACAD_REACTORS
330
C0F9
102
}
330
C0F9
100
AcDbXrecord
280
     1
102
RTVSPropertyOp0
 70
     1
102
RTVSPropertyOp1
 70
     1
102
RTVSPropertyOp2
 70
     1
102
RTVSPropertyOp3
 70
     1
102
RTVSPropertyOp4
 70
     1
102
RTVSPropertyOp5
 70
     1
102
RTVSPropertyOp6
 70
     1
102
RTVSPropertyOp7
 70
     1
102
RTVSPropertyOp8
 70
     1
102
RTVSPropertyOp9
 70
     1
102
RTVSPropertyOp10
 70
     1
102
RTVSPropertyOp11
 70
     1
102
RTVSPropertyOp12
 70
     1
102
RTVSPropertyOp13
 70
     1
102
RTVSPropertyOp14
 70
     1
102
RTVSPropertyOp15
 70
     1
102
RTVSPropertyOp16
 70
     1
102
RTVSPropertyOp17
 70
     1
102
RTVSPropertyOp18
 70
     1
102
RTVSPropertyOp19
 70
     1
102
RTVSPropertyOp20
 70
     1
102
RTVSPropertyOp21
 70
     1
102
RTVSPropertyOp22
 70
     1
102
RTVSPropertyOp23
 70
     1
102
RTVSPropertyOp24
 70
     1
102
RTVSPropertyOp25
 70
     1
102
RTVSPropertyOp26
 70
     1
102
RTVSPropertyOp27
 70
     1
102
RTVSPropertyOp28
 70
     1
102
RTVSPropertyOp29
 70
     1
102
RTVSPropertyOp30
 70
     1
102
RTVSPropertyOp31
 70
     1
102
RTVSPropertyOp32
 70
     1
  0
XRECORD
  5
C0FC
102
{ACAD_REACTORS
330
C0FB
102
}
330
C0FB
100
AcDbXrecord
280
     1
102
RTVSPropertyOp0
 70
     1
102
RTVSPropertyOp1
 70
     1
102
RTVSPropertyOp2
 70
     1
102
RTVSPropertyOp3
 70
     1
102
RTVSPropertyOp4
 70
     1
102
RTVSPropertyOp5
 70
     1
102
RTVSPropertyOp6
 70
     1
102
RTVSPropertyOp7
 70
     1
102
RTVSPropertyOp8
 70
     1
102
RTVSPropertyOp9
 70
     1
102
RTVSPropertyOp10
 70
     1
102
RTVSPropertyOp11
 70
     1
102
RTVSPropertyOp12
 70
     1
102
RTVSPropertyOp13
 70
     1
102
RTVSPropertyOp14
 70
     1
102
RTVSPropertyOp15
 70
     1
102
RTVSPropertyOp16
 70
     1
102
RTVSPropertyOp17
 70
     1
102
RTVSPropertyOp18
 70
     1
102
RTVSPropertyOp19
 70
     1
102
RTVSPropertyOp20
 70
     1
102
RTVSPropertyOp21
 70
     1
102
RTVSPropertyOp22
 70
     1
102
RTVSPropertyOp23
 70
     1
102
RTVSPropertyOp24
 70
     1
102
RTVSPropertyOp25
 70
     1
102
RTVSPropertyOp26
 70
     1
102
RTVSPropertyOp27
 70
     1
102
RTVSPropertyOp28
 70
     1
102
RTVSPropertyOp29
 70
     1
102
RTVSPropertyOp30
 70
     1
102
RTVSPropertyOp31
 70
     1
102
RTVSPropertyOp32
 70
     1
  0
XRECORD
  5
C0F2
102
{ACAD_REACTORS
330
C0F1
102
}
330
C0F1
100
AcDbXrecord
280
     1
102
RTVSPropertyOp0
 70
     1
102
RTVSPropertyOp1
 70
     1
102
RTVSPropertyOp2
 70
     1
102
RTVSPropertyOp3
 70
     1
102
RTVSPropertyOp4
 70
     1
102
RTVSPropertyOp5
 70
     1
102
RTVSPropertyOp6
 70
     1
102
RTVSPropertyOp7
 70
     1
102
RTVSPropertyOp8
 70
     1
102
RTVSPropertyOp9
 70
     1
102
RTVSPropertyOp10
 70
     1
102
RTVSPropertyOp11
 70
     1
102
RTVSPropertyOp12
 70
     1
102
RTVSPropertyOp13
 70
     1
102
RTVSPropertyOp14
 70
     1
102
RTVSPropertyOp15
 70
     1
102
RTVSPropertyOp16
 70
     1
102
RTVSPropertyOp17
 70
     1
102
RTVSPropertyOp18
 70
     1
102
RTVSPropertyOp19
 70
     1
102
RTVSPropertyOp20
 70
     1
102
RTVSPropertyOp21
 70
     1
102
RTVSPropertyOp22
 70
     1
102
RTVSPropertyOp23
 70
     1
102
RTVSPropertyOp24
 70
     1
102
RTVSPropertyOp25
 70
     1
102
RTVSPropertyOp26
 70
     1
102
RTVSPropertyOp27
 70
     1
102
RTVSPropertyOp28
 70
     1
102
RTVSPropertyOp29
 70
     1
102
RTVSPropertyOp30
 70
     1
102
RTVSPropertyOp31
 70
     1
102
RTVSPropertyOp32
 70
     1
  0
XRECORD
  5
C0E6
102
{ACAD_REACTORS
330
C0E5
102
}
330
C0E5
100
AcDbXrecord
280
     1
102
RTVSPropertyOp0
 70
     1
102
RTVSPropertyOp1
 70
     1
102
RTVSPropertyOp2
 70
     1
102
RTVSPropertyOp3
 70
     1
102
RTVSPropertyOp4
 70
     1
102
RTVSPropertyOp5
 70
     1
102
RTVSPropertyOp6
 70
     1
102
RTVSPropertyOp7
 70
     1
102
RTVSPropertyOp8
 70
     1
102
RTVSPropertyOp9
 70
     1
102
RTVSPropertyOp10
 70
     1
102
RTVSPropertyOp11
 70
     1
102
RTVSPropertyOp12
 70
     1
102
RTVSPropertyOp13
 70
     1
102
RTVSPropertyOp14
 70
     1
102
RTVSPropertyOp15
 70
     1
102
RTVSPropertyOp16
 70
     1
102
RTVSPropertyOp17
 70
     1
102
RTVSPropertyOp18
 70
     1
102
RTVSPropertyOp19
 70
     1
102
RTVSPropertyOp20
 70
     1
102
RTVSPropertyOp21
 70
     1
102
RTVSPropertyOp22
 70
     1
102
RTVSPropertyOp23
 70
     1
102
RTVSPropertyOp24
 70
     1
102
RTVSPropertyOp25
 70
     1
102
RTVSPropertyOp26
 70
     1
102
RTVSPropertyOp27
 70
     1
102
RTVSPropertyOp28
 70
     1
102
RTVSPropertyOp29
 70
     1
102
RTVSPropertyOp30
 70
     1
102
RTVSPropertyOp31
 70
     1
102
RTVSPropertyOp32
 70
     1
  0
XRECORD
  5
C0FE
102
{ACAD_REACTORS
330
C0FD
102
}
330
C0FD
100
AcDbXrecord
280
     1
102
RTVSPropertyOp0
 70
     1
102
RTVSPropertyOp1
 70
     1
102
RTVSPropertyOp2
 70
     1
102
RTVSPropertyOp3
 70
     1
102
RTVSPropertyOp4
 70
     1
102
RTVSPropertyOp5
 70
     1
102
RTVSPropertyOp6
 70
     1
102
RTVSPropertyOp7
 70
     1
102
RTVSPropertyOp8
 70
     1
102
RTVSPropertyOp9
 70
     1
102
RTVSPropertyOp10
 70
     1
102
RTVSPropertyOp11
 70
     1
102
RTVSPropertyOp12
 70
     1
102
RTVSPropertyOp13
 70
     1
102
RTVSPropertyOp14
 70
     1
102
RTVSPropertyOp15
 70
     1
102
RTVSPropertyOp16
 70
     1
102
RTVSPropertyOp17
 70
     1
102
RTVSPropertyOp18
 70
     1
102
RTVSPropertyOp19
 70
     1
102
RTVSPropertyOp20
 70
     1
102
RTVSPropertyOp21
 70
     1
102
RTVSPropertyOp22
 70
     1
102
RTVSPropertyOp23
 70
     1
102
RTVSPropertyOp24
 70
     1
102
RTVSPropertyOp25
 70
     1
102
RTVSPropertyOp26
 70
     1
102
RTVSPropertyOp27
 70
     1
102
RTVSPropertyOp28
 70
     1
102
RTVSPropertyOp29
 70
     1
102
RTVSPropertyOp30
 70
     1
102
RTVSPropertyOp31
 70
     1
102
RTVSPropertyOp32
 70
     1
  0
ENDSEC
  0
EOF
