  0
SECTION
  2
HEADER
  9
$ACADVER
  1
AC1015
  9
$ACADMAINTVER
 70
    13
  9
$DWGCODEPAGE
  3
ANSI_932
  9
$INSBASE
 10
0.0
 20
0.0
 30
0.0
  9
$EXTMIN
 10
-1434.218777821002
 20
-1202.079863003165
 30
0.0
  9
$EXTMAX
 10
-1088.871493821002
 20
-1000.550466003165
 30
0.0
  9
$LIMMIN
 10
0.0
 20
0.0
  9
$LIMMAX
 10
420.0
 20
297.0
  9
$ORTHOMODE
 70
     0
  9
$REGENMODE
 70
     1
  9
$FILLMODE
 70
     1
  9
$QTEXTMODE
 70
     0
  9
$MIRRTEXT
 70
     1
  9
$LTSCALE
 40
1.0
  9
$ATTMODE
 70
     1
  9
$TEXTSIZE
 40
5.0
  9
$TRACEWID
 40
0.05
  9
$TEXTSTYLE
  7
ACAD
  9
$CLAYER
  8
受金具
  9
$CELTYPE
  6
CONTINUOUS
  9
$CECOLOR
 62
   256
  9
$CELTSCALE
 40
1.0
  9
$DISPSILH
 70
     0
  9
$DIMSCALE
 40
1.0
  9
$DIMASZ
 40
1.0
  9
$DIMEXO
 40
0.0
  9
$DIMDLI
 40
0.38
  9
$DIMRND
 40
0.0
  9
$DIMDLE
 40
0.0
  9
$DIMEXE
 40
0.0
  9
$DIMTP
 40
0.0
  9
$DIMTM
 40
0.0
  9
$DIMTXT
 40
5.0
  9
$DIMCEN
 40
0.09
  9
$DIMTSZ
 40
0.0
  9
$DIMTOL
 70
     0
  9
$DIMLIM
 70
     0
  9
$DIMTIH
 70
     0
  9
$DIMTOH
 70
     1
  9
$DIMSE1
 70
     0
  9
$DIMSE2
 70
     0
  9
$DIMTAD
 70
     1
  9
$DIMZIN
 70
     0
  9
$DIMBLK
  1
Dot
  9
$DIMASO
 70
     1
  9
$DIMSHO
 70
     1
  9
$DIMPOST
  1

  9
$DIMAPOST
  1

  9
$DIMALT
 70
     0
  9
$DIMALTD
 70
     2
  9
$DIMALTF
 40
25.4
  9
$DIMLFAC
 40
1.0
  9
$DIMTOFL
 70
     0
  9
$DIMTVP
 40
0.0
  9
$DIMTIX
 70
     1
  9
$DIMSOXD
 70
     0
  9
$DIMSAH
 70
     0
  9
$DIMBLK1
  1

  9
$DIMBLK2
  1

  9
$DIMSTYLE
  2
AutoCAD
  9
$DIMCLRD
 70
     4
  9
$DIMCLRE
 70
     4
  9
$DIMCLRT
 70
     3
  9
$DIMTFAC
 40
1.0
  9
$DIMGAP
 40
1.0
  9
$DIMJUST
 70
     0
  9
$DIMSD1
 70
     0
  9
$DIMSD2
 70
     0
  9
$DIMTOLJ
 70
     1
  9
$DIMTZIN
 70
     0
  9
$DIMALTZ
 70
     0
  9
$DIMALTTZ
 70
     0
  9
$DIMUPT
 70
     0
  9
$DIMDEC
 70
     0
  9
$DIMTDEC
 70
     0
  9
$DIMALTU
 70
     2
  9
$DIMALTTD
 70
     2
  9
$DIMTXSTY
  7
ACAD
  9
$DIMAUNIT
 70
     0
  9
$DIMADEC
 70
     0
  9
$DIMALTRND
 40
0.0
  9
$DIMAZIN
 70
     0
  9
$DIMDSEP
 70
    46
  9
$DIMATFIT
 70
     0
  9
$DIMFRAC
 70
     0
  9
$DIMLDRBLK
  1
None
  9
$DIMLUNIT
 70
     2
  9
$DIMLWD
 70
    -2
  9
$DIMLWE
 70
    -2
  9
$DIMTMOVE
 70
     0
  9
$LUNITS
 70
     2
  9
$LUPREC
 70
     4
  9
$SKETCHINC
 40
0.1
  9
$FILLETRAD
 40
0.0
  9
$AUNITS
 70
     0
  9
$AUPREC
 70
     0
  9
$MENU
  1
.
  9
$ELEVATION
 40
0.0
  9
$PELEVATION
 40
0.0
  9
$THICKNESS
 40
0.0
  9
$LIMCHECK
 70
     0
  9
$CHAMFERA
 40
0.0
  9
$CHAMFERB
 40
0.0
  9
$CHAMFERC
 40
0.0
  9
$CHAMFERD
 40
0.0
  9
$SKPOLY
 70
     0
  9
$TDCREATE
 40
2454316.693457673
  9
$TDUCREATE
 40
2454316.318457673
  9
$TDUPDATE
 40
2454365.615344687
  9
$TDUUPDATE
 40
2454365.240344687
  9
$TDINDWG
 40
0.2617037037
  9
$TDUSRTIMER
 40
0.2617037037
  9
$USRTIMER
 70
     1
  9
$ANGBASE
 50
0.0
  9
$ANGDIR
 70
     0
  9
$PDMODE
 70
     0
  9
$PDSIZE
 40
0.0
  9
$PLINEWID
 40
0.0
  9
$SPLFRAME
 70
     0
  9
$SPLINETYPE
 70
     6
  9
$SPLINESEGS
 70
     8
  9
$HANDSEED
  5
59BD
  9
$SURFTAB1
 70
     6
  9
$SURFTAB2
 70
     6
  9
$SURFTYPE
 70
     6
  9
$SURFU
 70
     6
  9
$SURFV
 70
     6
  9
$UCSBASE
  2

  9
$UCSNAME
  2

  9
$UCSORG
 10
0.0
 20
0.0
 30
0.0
  9
$UCSXDIR
 10
1.0
 20
0.0
 30
0.0
  9
$UCSYDIR
 10
0.0
 20
1.0
 30
0.0
  9
$UCSORTHOREF
  2

  9
$UCSORTHOVIEW
 70
     0
  9
$UCSORGTOP
 10
0.0
 20
0.0
 30
0.0
  9
$UCSORGBOTTOM
 10
0.0
 20
0.0
 30
0.0
  9
$UCSORGLEFT
 10
0.0
 20
0.0
 30
0.0
  9
$UCSORGRIGHT
 10
0.0
 20
0.0
 30
0.0
  9
$UCSORGFRONT
 10
0.0
 20
0.0
 30
0.0
  9
$UCSORGBACK
 10
0.0
 20
0.0
 30
0.0
  9
$PUCSBASE
  2

  9
$PUCSNAME
  2

  9
$PUCSORG
 10
0.0
 20
0.0
 30
0.0
  9
$PUCSXDIR
 10
1.0
 20
0.0
 30
0.0
  9
$PUCSYDIR
 10
0.0
 20
1.0
 30
0.0
  9
$PUCSORTHOREF
  2

  9
$PUCSORTHOVIEW
 70
     0
  9
$PUCSORGTOP
 10
0.0
 20
0.0
 30
0.0
  9
$PUCSORGBOTTOM
 10
0.0
 20
0.0
 30
0.0
  9
$PUCSORGLEFT
 10
0.0
 20
0.0
 30
0.0
  9
$PUCSORGRIGHT
 10
0.0
 20
0.0
 30
0.0
  9
$PUCSORGFRONT
 10
0.0
 20
0.0
 30
0.0
  9
$PUCSORGBACK
 10
0.0
 20
0.0
 30
0.0
  9
$USERI1
 70
     0
  9
$USERI2
 70
     0
  9
$USERI3
 70
     0
  9
$USERI4
 70
     0
  9
$USERI5
 70
     0
  9
$USERR1
 40
0.0
  9
$USERR2
 40
0.0
  9
$USERR3
 40
0.0
  9
$USERR4
 40
0.0
  9
$USERR5
 40
0.0
  9
$WORLDVIEW
 70
     1
  9
$SHADEDGE
 70
     3
  9
$SHADEDIF
 70
    70
  9
$TILEMODE
 70
     1
  9
$MAXACTVP
 70
    48
  9
$PINSBASE
 10
0.0
 20
0.0
 30
0.0
  9
$PLIMCHECK
 70
     0
  9
$PEXTMIN
 10
1.000000000000000E+20
 20
1.000000000000000E+20
 30
1.000000000000000E+20
  9
$PEXTMAX
 10
-1.000000000000000E+20
 20
-1.000000000000000E+20
 30
-1.000000000000000E+20
  9
$PLIMMIN
 10
0.0
 20
0.0
  9
$PLIMMAX
 10
12.0
 20
9.0
  9
$UNITMODE
 70
     0
  9
$VISRETAIN
 70
     0
  9
$PLINEGEN
 70
     0
  9
$PSLTSCALE
 70
     1
  9
$TREEDEPTH
 70
  3020
  9
$CMLSTYLE
  2
Standard
  9
$CMLJUST
 70
     0
  9
$CMLSCALE
 40
1.0
  9
$PROXYGRAPHICS
 70
     1
  9
$MEASUREMENT
 70
     0
  9
$CELWEIGHT
370
    -1
  9
$ENDCAPS
280
     0
  9
$JOINSTYLE
280
     0
  9
$LWDISPLAY
290
     0
  9
$INSUNITS
 70
     0
  9
$HYPERLINKBASE
  1

  9
$STYLESHEET
  1

  9
$XEDIT
290
     1
  9
$CEPSNTYPE
380
     0
  9
$PSTYLEMODE
290
     1
  9
$FINGERPRINTGUID
  2
{CC7D6DEE-A9F1-4F3E-AC95-C84B62CCA3FD}
  9
$VERSIONGUID
  2
{1ACFE2E5-43E2-402F-A088-54B91EF816E9}
  9
$EXTNAMES
290
     1
  9
$PSVPSCALE
 40
0.0
  9
$OLESTARTUP
290
     0
  0
ENDSEC
  0
SECTION
  2
CLASSES
  0
CLASS
  1
ACDBDICTIONARYWDFLT
  2
AcDbDictionaryWithDefault
  3
AutoCAD 2000
 90
        0
280
     0
281
     0
  0
CLASS
  1
ACDBPLACEHOLDER
  2
AcDbPlaceHolder
  3
AutoCAD 2000
 90
        0
280
     0
281
     0
  0
CLASS
  1
LAYOUT
  2
AcDbLayout
  3
AutoCAD 2000
 90
        0
280
     0
281
     0
  0
CLASS
  1
DICTIONARYVAR
  2
AcDbDictionaryVar
  3
AutoCAD 2000
 90
        0
280
     0
281
     0
  0
CLASS
  1
LONG_TRANSACTION
  2
AcDbLongTransaction
  3
AutoCAD 2000
 90
    32768
280
     0
281
     0
  0
CLASS
  1
LWPOLYLINE
  2
AcDbPolyline
  3
AutoCAD 2000
 90
    32768
280
     0
281
     1
  0
CLASS
  1
HATCH
  2
AcDbHatch
  3
AutoCAD 2000
 90
    32768
280
     0
281
     1
  0
CLASS
  1
XRECORD
  2
AcDbXrecord
  3
AutoCAD 2000
 90
    32768
280
     0
281
     0
  0
CLASS
  1
LONG_TRANSACTION
  2
AcDbLongTransaction
  3
AutoCAD 2000
 90
    32768
280
     0
281
     0
  0
CLASS
  1
LWPOLYLINE
  2
AcDbPolyline
  3
AutoCAD 2000
 90
    32768
280
     0
281
     1
  0
CLASS
  1
HATCH
  2
AcDbHatch
  3
AutoCAD 2000
 90
    32768
280
     0
281
     1
  0
CLASS
  1
XRECORD
  2
AcDbXrecord
  3
AutoCAD 2000
 90
    32768
280
     0
281
     0
  0
CLASS
  1
LONG_TRANSACTION
  2
AcDbLongTransaction
  3
AutoCAD 2000
 90
    32768
280
     0
281
     0
  0
CLASS
  1
LWPOLYLINE
  2
AcDbPolyline
  3
AutoCAD 2000
 90
    32768
280
     0
281
     1
  0
CLASS
  1
HATCH
  2
AcDbHatch
  3
AutoCAD 2000
 90
    32768
280
     0
281
     1
  0
CLASS
  1
XRECORD
  2
AcDbXrecord
  3
AutoCAD 2000
 90
    32768
280
     0
281
     0
  0
CLASS
  1
LONG_TRANSACTION
  2
AcDbLongTransaction
  3
AutoCAD 2000
 90
    32768
280
     0
281
     0
  0
CLASS
  1
LWPOLYLINE
  2
AcDbPolyline
  3
AutoCAD 2000
 90
    32768
280
     0
281
     1
  0
CLASS
  1
HATCH
  2
AcDbHatch
  3
AutoCAD 2000
 90
    32768
280
     0
281
     1
  0
CLASS
  1
XRECORD
  2
AcDbXrecord
  3
AutoCAD 2000
 90
    32768
280
     0
281
     0
  0
CLASS
  1
LONG_TRANSACTION
  2
AcDbLongTransaction
  3
AutoCAD 2000
 90
    32768
280
     0
281
     0
  0
CLASS
  1
LWPOLYLINE
  2
AcDbPolyline
  3
AutoCAD 2000
 90
    32768
280
     0
281
     1
  0
CLASS
  1
HATCH
  2
AcDbHatch
  3
AutoCAD 2000
 90
    32768
280
     0
281
     1
  0
CLASS
  1
XRECORD
  2
AcDbXrecord
  3
AutoCAD 2000
 90
    32768
280
     0
281
     0
  0
CLASS
  1
LONG_TRANSACTION
  2
AcDbLongTransaction
  3
AutoCAD 2000
 90
    32768
280
     0
281
     0
  0
CLASS
  1
LWPOLYLINE
  2
AcDbPolyline
  3
AutoCAD 2000
 90
    32768
280
     0
281
     1
  0
CLASS
  1
HATCH
  2
AcDbHatch
  3
AutoCAD 2000
 90
    32768
280
     0
281
     1
  0
CLASS
  1
XRECORD
  2
AcDbXrecord
  3
AutoCAD 2000
 90
    32768
280
     0
281
     0
  0
CLASS
  1
LONG_TRANSACTION
  2
AcDbLongTransaction
  3
AutoCAD 2000
 90
    32768
280
     0
281
     0
  0
CLASS
  1
LWPOLYLINE
  2
AcDbPolyline
  3
AutoCAD 2000
 90
    32768
280
     0
281
     1
  0
CLASS
  1
HATCH
  2
AcDbHatch
  3
AutoCAD 2000
 90
    32768
280
     0
281
     1
  0
CLASS
  1
XRECORD
  2
AcDbXrecord
  3
AutoCAD 2000
 90
    32768
280
     0
281
     0
  0
CLASS
  1
LONG_TRANSACTION
  2
AcDbLongTransaction
  3
AutoCAD 2000
 90
    32768
280
     0
281
     0
  0
CLASS
  1
LWPOLYLINE
  2
AcDbPolyline
  3
AutoCAD 2000
 90
    32768
280
     0
281
     1
  0
CLASS
  1
HATCH
  2
AcDbHatch
  3
AutoCAD 2000
 90
    32768
280
     0
281
     1
  0
CLASS
  1
XRECORD
  2
AcDbXrecord
  3
AutoCAD 2000
 90
    32768
280
     0
281
     0
  0
CLASS
  1
LONG_TRANSACTION
  2
AcDbLongTransaction
  3
AutoCAD 2000
 90
    32768
280
     0
281
     0
  0
CLASS
  1
LWPOLYLINE
  2
AcDbPolyline
  3
AutoCAD 2000
 90
    32768
280
     0
281
     1
  0
CLASS
  1
HATCH
  2
AcDbHatch
  3
AutoCAD 2000
 90
    32768
280
     0
281
     1
  0
CLASS
  1
XRECORD
  2
AcDbXrecord
  3
AutoCAD 2000
 90
    32768
280
     0
281
     0
  0
CLASS
  1
LONG_TRANSACTION
  2
AcDbLongTransaction
  3
AutoCAD 2000
 90
    32768
280
     0
281
     0
  0
CLASS
  1
LWPOLYLINE
  2
AcDbPolyline
  3
AutoCAD 2000
 90
    32768
280
     0
281
     1
  0
CLASS
  1
HATCH
  2
AcDbHatch
  3
AutoCAD 2000
 90
    32768
280
     0
281
     1
  0
CLASS
  1
XRECORD
  2
AcDbXrecord
  3
AutoCAD 2000
 90
    32768
280
     0
281
     0
  0
CLASS
  1
LONG_TRANSACTION
  2
AcDbLongTransaction
  3
AutoCAD 2000
 90
    32768
280
     0
281
     0
  0
CLASS
  1
LWPOLYLINE
  2
AcDbPolyline
  3
AutoCAD 2000
 90
    32768
280
     0
281
     1
  0
CLASS
  1
HATCH
  2
AcDbHatch
  3
AutoCAD 2000
 90
    32768
280
     0
281
     1
  0
CLASS
  1
XRECORD
  2
AcDbXrecord
  3
AutoCAD 2000
 90
    32768
280
     0
281
     0
  0
CLASS
  1
LONG_TRANSACTION
  2
AcDbLongTransaction
  3
AutoCAD 2000
 90
    32768
280
     0
281
     0
  0
CLASS
  1
LWPOLYLINE
  2
AcDbPolyline
  3
AutoCAD 2000
 90
    32768
280
     0
281
     1
  0
CLASS
  1
HATCH
  2
AcDbHatch
  3
AutoCAD 2000
 90
    32768
280
     0
281
     1
  0
CLASS
  1
XRECORD
  2
AcDbXrecord
  3
AutoCAD 2000
 90
    32768
280
     0
281
     0
  0
CLASS
  1
LONG_TRANSACTION
  2
AcDbLongTransaction
  3
AutoCAD 2000
 90
    32768
280
     0
281
     0
  0
CLASS
  1
LWPOLYLINE
  2
AcDbPolyline
  3
AutoCAD 2000
 90
    32768
280
     0
281
     1
  0
CLASS
  1
HATCH
  2
AcDbHatch
  3
AutoCAD 2000
 90
    32768
280
     0
281
     1
  0
CLASS
  1
XRECORD
  2
AcDbXrecord
  3
AutoCAD 2000
 90
    32768
280
     0
281
     0
  0
CLASS
  1
LONG_TRANSACTION
  2
AcDbLongTransaction
  3
AutoCAD 2000
 90
    32768
280
     0
281
     0
  0
CLASS
  1
LWPOLYLINE
  2
AcDbPolyline
  3
AutoCAD 2000
 90
    32768
280
     0
281
     1
  0
CLASS
  1
HATCH
  2
AcDbHatch
  3
AutoCAD 2000
 90
    32768
280
     0
281
     1
  0
CLASS
  1
XRECORD
  2
AcDbXrecord
  3
AutoCAD 2000
 90
    32768
280
     0
281
     0
  0
CLASS
  1
LONG_TRANSACTION
  2
AcDbLongTransaction
  3
AutoCAD 2000
 90
    32768
280
     0
281
     0
  0
CLASS
  1
LWPOLYLINE
  2
AcDbPolyline
  3
AutoCAD 2000
 90
    32768
280
     0
281
     1
  0
CLASS
  1
HATCH
  2
AcDbHatch
  3
AutoCAD 2000
 90
    32768
280
     0
281
     1
  0
CLASS
  1
XRECORD
  2
AcDbXrecord
  3
AutoCAD 2000
 90
    32768
280
     0
281
     0
  0
CLASS
  1
LONG_TRANSACTION
  2
AcDbLongTransaction
  3
AutoCAD 2000
 90
    32768
280
     0
281
     0
  0
CLASS
  1
LWPOLYLINE
  2
AcDbPolyline
  3
AutoCAD 2000
 90
    32768
280
     0
281
     1
  0
CLASS
  1
HATCH
  2
AcDbHatch
  3
AutoCAD 2000
 90
    32768
280
     0
281
     1
  0
CLASS
  1
XRECORD
  2
AcDbXrecord
  3
AutoCAD 2000
 90
    32768
280
     0
281
     0
  0
CLASS
  1
LONG_TRANSACTION
  2
AcDbLongTransaction
  3
AutoCAD 2000
 90
    32768
280
     0
281
     0
  0
CLASS
  1
LWPOLYLINE
  2
AcDbPolyline
  3
AutoCAD 2000
 90
    32768
280
     0
281
     1
  0
CLASS
  1
HATCH
  2
AcDbHatch
  3
AutoCAD 2000
 90
    32768
280
     0
281
     1
  0
CLASS
  1
XRECORD
  2
AcDbXrecord
  3
AutoCAD 2000
 90
    32768
280
     0
281
     0
  0
CLASS
  1
LONG_TRANSACTION
  2
AcDbLongTransaction
  3
AutoCAD 2000
 90
    32768
280
     0
281
     0
  0
CLASS
  1
LWPOLYLINE
  2
AcDbPolyline
  3
AutoCAD 2000
 90
    32768
280
     0
281
     1
  0
CLASS
  1
HATCH
  2
AcDbHatch
  3
AutoCAD 2000
 90
    32768
280
     0
281
     1
  0
CLASS
  1
XRECORD
  2
AcDbXrecord
  3
AutoCAD 2000
 90
    32768
280
     0
281
     0
  0
CLASS
  1
LONG_TRANSACTION
  2
AcDbLongTransaction
  3
AutoCAD 2000
 90
    32768
280
     0
281
     0
  0
CLASS
  1
LWPOLYLINE
  2
AcDbPolyline
  3
AutoCAD 2000
 90
    32768
280
     0
281
     1
  0
CLASS
  1
HATCH
  2
AcDbHatch
  3
AutoCAD 2000
 90
    32768
280
     0
281
     1
  0
CLASS
  1
XRECORD
  2
AcDbXrecord
  3
AutoCAD 2000
 90
    32768
280
     0
281
     0
  0
CLASS
  1
LONG_TRANSACTION
  2
AcDbLongTransaction
  3
AutoCAD 2000
 90
    32768
280
     0
281
     0
  0
CLASS
  1
LWPOLYLINE
  2
AcDbPolyline
  3
AutoCAD 2000
 90
    32768
280
     0
281
     1
  0
CLASS
  1
HATCH
  2
AcDbHatch
  3
AutoCAD 2000
 90
    32768
280
     0
281
     1
  0
CLASS
  1
XRECORD
  2
AcDbXrecord
  3
AutoCAD 2000
 90
    32768
280
     0
281
     0
  0
CLASS
  1
LONG_TRANSACTION
  2
AcDbLongTransaction
  3
AutoCAD 2000
 90
    32768
280
     0
281
     0
  0
CLASS
  1
LWPOLYLINE
  2
AcDbPolyline
  3
AutoCAD 2000
 90
    32768
280
     0
281
     1
  0
CLASS
  1
HATCH
  2
AcDbHatch
  3
AutoCAD 2000
 90
    32768
280
     0
281
     1
  0
CLASS
  1
XRECORD
  2
AcDbXrecord
  3
AutoCAD 2000
 90
    32768
280
     0
281
     0
  0
CLASS
  1
LONG_TRANSACTION
  2
AcDbLongTransaction
  3
AutoCAD 2000
 90
    32768
280
     0
281
     0
  0
CLASS
  1
LWPOLYLINE
  2
AcDbPolyline
  3
AutoCAD 2000
 90
    32768
280
     0
281
     1
  0
CLASS
  1
HATCH
  2
AcDbHatch
  3
AutoCAD 2000
 90
    32768
280
     0
281
     1
  0
CLASS
  1
XRECORD
  2
AcDbXrecord
  3
AutoCAD 2000
 90
    32768
280
     0
281
     0
  0
ENDSEC
  0
SECTION
  2
TABLES
  0
TABLE
  2
VPORT
  5
8
330
0
100
AcDbSymbolTable
 70
     3
  0
VPORT
  5
59BC
330
8
100
AcDbSymbolTableRecord
100
AcDbViewportTableRecord
  2
*Active
 70
     0
 10
0.0
 20
0.0
 11
1.0
 21
1.0
 12
-1287.996510694925
 22
-1086.280897801009
 13
0.0
 23
0.0
 14
1.0
 24
1.0
 15
0.0
 25
0.0
 16
0.0
 26
0.0
 36
1.0
 17
0.0
 27
0.0
 37
0.0
 40
338.0735535804689
 41
1.467171717171717
 42
50.0
 43
0.0
 44
0.0
 50
0.0
 51
0.0
 71
     0
 72
   100
 73
     1
 74
     1
 75
     0
 76
     0
 77
     0
 78
     0
281
     0
 65
     1
110
0.0
120
0.0
130
0.0
111
1.0
121
0.0
131
0.0
112
0.0
122
1.0
132
0.0
 79
     0
146
0.0
  0
ENDTAB
  0
TABLE
  2
LTYPE
  5
5
330
0
100
AcDbSymbolTable
 70
    50
  0
LTYPE
  5
13
330
5
100
AcDbSymbolTableRecord
100
AcDbLinetypeTableRecord
  2
ByBlock
 70
     0
  3

 72
    65
 73
     0
 40
0.0
  0
LTYPE
  5
14
330
5
100
AcDbSymbolTableRecord
100
AcDbLinetypeTableRecord
  2
ByLayer
 70
     0
  3

 72
    65
 73
     0
 40
0.0
  0
LTYPE
  5
15
330
5
100
AcDbSymbolTableRecord
100
AcDbLinetypeTableRecord
  2
CONTINUOUS
 70
     0
  3
実線
 72
    65
 73
     0
 40
0.0
  0
LTYPE
  5
22
330
5
100
AcDbSymbolTableRecord
100
AcDbLinetypeTableRecord
  2
DASHED1
 70
     0
  3
--  --  --  --  --  --  --  --  
 72
    65
 73
     2
 40
2.5
 49
1.25
 74
     0
 49
-1.25
 74
     0
  0
LTYPE
  5
23
330
5
100
AcDbSymbolTableRecord
100
AcDbLinetypeTableRecord
  2
DASHED2
 70
     0
  3
----    ----    ----    ----    
 72
    65
 73
     2
 40
5.0
 49
2.5
 74
     0
 49
-2.5
 74
     0
  0
LTYPE
  5
24
330
5
100
AcDbSymbolTableRecord
100
AcDbLinetypeTableRecord
  2
DASHED3
 70
     0
  3
------  ------  ------  ------  
 72
    65
 73
     2
 40
5.0
 49
3.75
 74
     0
 49
-1.25
 74
     0
  0
LTYPE
  5
25
330
5
100
AcDbSymbolTableRecord
100
AcDbLinetypeTableRecord
  2
CENTER1
 70
     0
  3
----- - ----- - ----- - ----- - 
 72
    65
 73
     4
 40
10.0
 49
6.25
 74
     0
 49
-1.25
 74
     0
 49
1.25
 74
     0
 49
-1.25
 74
     0
  0
LTYPE
  5
26
330
5
100
AcDbSymbolTableRecord
100
AcDbLinetypeTableRecord
  2
CENTER2
 70
     0
  3
----------  --  ----------  --  
 72
    65
 73
     4
 40
20.0
 49
12.5
 74
     0
 49
-2.5
 74
     0
 49
2.5
 74
     0
 49
-2.5
 74
     0
  0
LTYPE
  5
27
330
5
100
AcDbSymbolTableRecord
100
AcDbLinetypeTableRecord
  2
PHANTOM1
 70
     0
  3
--- - - --- - - --- - - --- - - 
 72
    65
 73
     6
 40
10.0
 49
3.25
 74
     0
 49
-1.25
 74
     0
 49
1.25
 74
     0
 49
-1.25
 74
     0
 49
1.25
 74
     0
 49
-1.25
 74
     0
  0
LTYPE
  5
28
330
5
100
AcDbSymbolTableRecord
100
AcDbLinetypeTableRecord
  2
PHANTOM2
 70
     0
  3
--------  -  -  --------  -  -  
 72
    65
 73
     6
 40
20.0
 49
10.0
 74
     0
 49
-2.5
 74
     0
 49
1.25
 74
     0
 49
-2.5
 74
     0
 49
1.25
 74
     0
 49
-2.5
 74
     0
  0
LTYPE
  5
29
330
5
100
AcDbSymbolTableRecord
100
AcDbLinetypeTableRecord
  2
DOT
 70
     0
  3
-   -   -   -   -   -   -   -   
 72
    65
 73
     2
 40
2.5
 49
0.625
 74
     0
 49
-1.875
 74
     0
  0
LTYPE
  5
2A
330
5
100
AcDbSymbolTableRecord
100
AcDbLinetypeTableRecord
  2
DUMMY
 70
     0
  3
ダミー
 72
    65
 73
     0
 40
0.0
  0
LTYPE
  5
2B
330
5
100
AcDbSymbolTableRecord
100
AcDbLinetypeTableRecord
  2
RAND1
 70
     0
  3
ランダム線1
 72
    65
 73
     4
 40
10.0
 49
1.0
 74
     0
 49
-2.0
 74
     0
 49
3.0
 74
     0
 49
-4.0
 74
     0
  0
LTYPE
  5
2C
330
5
100
AcDbSymbolTableRecord
100
AcDbLinetypeTableRecord
  2
RAND2
 70
     0
  3
ランダム線2
 72
    65
 73
     4
 40
14.0
 49
2.0
 74
     0
 49
-3.0
 74
     0
 49
4.0
 74
     0
 49
-5.0
 74
     0
  0
LTYPE
  5
2D
330
5
100
AcDbSymbolTableRecord
100
AcDbLinetypeTableRecord
  2
RAND3
 70
     0
  3
ランダム線3
 72
    65
 73
     4
 40
18.0
 49
3.0
 74
     0
 49
-4.0
 74
     0
 49
5.0
 74
     0
 49
-6.0
 74
     0
  0
LTYPE
  5
2E
330
5
100
AcDbSymbolTableRecord
100
AcDbLinetypeTableRecord
  2
RAND4
 70
     0
  3
ランダム線4
 72
    65
 73
     4
 40
22.0
 49
4.0
 74
     0
 49
-5.0
 74
     0
 49
6.0
 74
     0
 49
-7.0
 74
     0
  0
LTYPE
  5
2F
330
5
100
AcDbSymbolTableRecord
100
AcDbLinetypeTableRecord
  2
RAND5
 70
     0
  3
ランダム線5
 72
    65
 73
     4
 40
26.0
 49
5.0
 74
     0
 49
-6.0
 74
     0
 49
7.0
 74
     0
 49
-8.0
 74
     0
  0
LTYPE
  5
30
330
5
100
AcDbSymbolTableRecord
100
AcDbLinetypeTableRecord
  2
LONG1
 70
     0
  3
----------  --  ----------  --  
 72
    65
 73
     4
 40
40.0
 49
32.5
 74
     0
 49
-2.5
 74
     0
 49
2.5
 74
     0
 49
-2.5
 74
     0
  0
LTYPE
  5
31
330
5
100
AcDbSymbolTableRecord
100
AcDbLinetypeTableRecord
  2
LONG2
 70
     0
  3
--------  -  -  --------  -  -  
 72
    65
 73
     6
 40
40.0
 49
30.0
 74
     0
 49
-2.5
 74
     0
 49
1.25
 74
     0
 49
-2.5
 74
     0
 49
1.25
 74
     0
 49
-2.5
 74
     0
  0
LTYPE
  5
32
330
5
100
AcDbSymbolTableRecord
100
AcDbLinetypeTableRecord
  2
LONG3
 70
     0
  3
+++++++++++++++..+++++++++++++++
 72
    65
 73
     2
 40
40.0
 49
37.5
 74
     0
 49
-2.5
 74
     0
  0
LTYPE
  5
33
330
5
100
AcDbSymbolTableRecord
100
AcDbLinetypeTableRecord
  2
LONG4
 70
     0
  3
+++++++++++++++..+++++++++++++++
 72
    65
 73
     2
 40
80.0
 49
75.0
 74
     0
 49
-5.0
 74
     0
  0
LTYPE
  5
34
330
5
100
AcDbSymbolTableRecord
100
AcDbLinetypeTableRecord
  2
LONG5
 70
     0
  3
----------  --  ----------  --  
 72
    65
 73
     4
 40
60.0
 49
37.5
 74
     0
 49
-7.5
 74
     0
 49
7.5
 74
     0
 49
-7.5
 74
     0
  0
LTYPE
  5
35
330
5
100
AcDbSymbolTableRecord
100
AcDbLinetypeTableRecord
  2
DASHED
 70
     0
  3
-------   -------------   ------
 72
    65
 73
     2
 40
7.5
 49
6.0
 74
     0
 49
-1.5
 74
     0
  0
LTYPE
  5
36
330
5
100
AcDbSymbolTableRecord
100
AcDbLinetypeTableRecord
  2
DASHED_SPACED
 70
     0
  3
----        --------        ----
 72
    65
 73
     2
 40
12.0
 49
6.0
 74
     0
 49
-6.0
 74
     0
  0
LTYPE
  5
37
330
5
100
AcDbSymbolTableRecord
100
AcDbLinetypeTableRecord
  2
LONG_DASHED_DOTTED
 70
     0
  3
------------- --- --------------
 72
    65
 73
     4
 40
15.25
 49
12.0
 74
     0
 49
-1.5
 74
     0
 49
0.25
 74
     0
 49
-1.5
 74
     0
  0
LTYPE
  5
38
330
5
100
AcDbSymbolTableRecord
100
AcDbLinetypeTableRecord
  2
LONG_DASHED_DOUBLE-DOTTED
 70
     0
  3
----------- --- --- ------------
 72
    65
 73
     6
 40
17.0
 49
12.0
 74
     0
 49
-1.5
 74
     0
 49
0.25
 74
     0
 49
-1.5
 74
     0
 49
0.25
 74
     0
 49
-1.5
 74
     0
  0
LTYPE
  5
39
330
5
100
AcDbSymbolTableRecord
100
AcDbLinetypeTableRecord
  2
LONG_DASHED_TRIPLICATE-DOTTED
 70
     0
  3
--------- --- --- --- ----------
 72
    65
 73
     8
 40
18.75
 49
12.0
 74
     0
 49
-1.5
 74
     0
 49
0.25
 74
     0
 49
-1.5
 74
     0
 49
0.25
 74
     0
 49
-1.5
 74
     0
 49
0.25
 74
     0
 49
-1.5
 74
     0
  0
LTYPE
  5
3A
330
5
100
AcDbSymbolTableRecord
100
AcDbLinetypeTableRecord
  2
DOTTED
 70
     0
  3
   -       -       -       -    
 72
    65
 73
     2
 40
1.75
 49
0.25
 74
     0
 49
-1.5
 74
     0
  0
LTYPE
  5
3B
330
5
100
AcDbSymbolTableRecord
100
AcDbLinetypeTableRecord
  2
CHAIN
 70
     0
  3
-------------- -- --------------
 72
    65
 73
     4
 40
18.5
 49
12.0
 74
     0
 49
-1.5
 74
     0
 49
3.5
 74
     0
 49
-1.5
 74
     0
  0
LTYPE
  5
3C
330
5
100
AcDbSymbolTableRecord
100
AcDbLinetypeTableRecord
  2
CHAIN_DOUBLE_DASH
 70
     0
  3
------------ -- -- -------------
 72
    65
 73
     6
 40
23.5
 49
12.0
 74
     0
 49
-1.5
 74
     0
 49
3.5
 74
     0
 49
-1.5
 74
     0
 49
3.5
 74
     0
 49
-1.5
 74
     0
  0
LTYPE
  5
3D
330
5
100
AcDbSymbolTableRecord
100
AcDbLinetypeTableRecord
  2
DASHED_DOTTED
 70
     0
  3
-----------     -     ----------
 72
    65
 73
     4
 40
9.25
 49
6.0
 74
     0
 49
-1.5
 74
     0
 49
0.25
 74
     0
 49
-1.5
 74
     0
  0
LTYPE
  5
3E
330
5
100
AcDbSymbolTableRecord
100
AcDbLinetypeTableRecord
  2
DOUBLE-DASHED_DOTTED
 70
     0
  3
------   -----------   -   -----
 72
    65
 73
     6
 40
16.75
 49
6.0
 74
     0
 49
-1.5
 74
     0
 49
6.0
 74
     0
 49
-1.5
 74
     0
 49
0.25
 74
     0
 49
-1.5
 74
     0
  0
LTYPE
  5
3F
330
5
100
AcDbSymbolTableRecord
100
AcDbLinetypeTableRecord
  2
DASHED_DOUBLE-DOTTED
 70
     0
  3
---------    -    -    ---------
 72
    65
 73
     6
 40
11.0
 49
6.0
 74
     0
 49
-1.5
 74
     0
 49
0.25
 74
     0
 49
-1.5
 74
     0
 49
0.25
 74
     0
 49
-1.5
 74
     0
  0
LTYPE
  5
40
330
5
100
AcDbSymbolTableRecord
100
AcDbLinetypeTableRecord
  2
DOUBLE-DASHED_DOUBLE-DOTTED
 70
     0
  3
-----   ---------   -   -   ----
 72
    65
 73
     8
 40
18.5
 49
6.0
 74
     0
 49
-1.5
 74
     0
 49
6.0
 74
     0
 49
-1.5
 74
     0
 49
0.25
 74
     0
 49
-1.5
 74
     0
 49
0.25
 74
     0
 49
-1.5
 74
     0
  0
LTYPE
  5
41
330
5
100
AcDbSymbolTableRecord
100
AcDbLinetypeTableRecord
  2
DASHED_TRIPLICATE-DOTTED
 70
     0
  3
-------    -    -    -    ------
 72
    65
 73
     8
 40
12.75
 49
6.0
 74
     0
 49
-1.5
 74
     0
 49
0.25
 74
     0
 49
-1.5
 74
     0
 49
0.25
 74
     0
 49
-1.5
 74
     0
 49
0.25
 74
     0
 49
-1.5
 74
     0
  0
LTYPE
  5
42
330
5
100
AcDbSymbolTableRecord
100
AcDbLinetypeTableRecord
  2
DOUBLE-DASHED_TRIPLICATE-DOTTED
 70
     0
  3
-----  ---------  -  -  -  -----
 72
    65
 73
    10
 40
20.24999999999999
 49
6.0
 74
     0
 49
-1.5
 74
     0
 49
6.0
 74
     0
 49
-1.5
 74
     0
 49
0.25
 74
     0
 49
-1.5
 74
     0
 49
0.25
 74
     0
 49
-1.5
 74
     0
 49
0.25
 74
     0
 49
-1.5
 74
     0
  0
LTYPE
  5
43
330
5
100
AcDbSymbolTableRecord
100
AcDbLinetypeTableRecord
  2
UNDEFINED
 70
     0
  3
--------------------------------
 72
    65
 73
     0
 40
0.0
  0
LTYPE
  5
44
330
5
100
AcDbSymbolTableRecord
100
AcDbLinetypeTableRecord
  2
PLINE2
 70
     0
  3
------     -----------     -----
 72
    65
 73
     2
 40
3.0
 49
2.1
 74
     0
 49
-0.9
 74
     0
  0
LTYPE
  5
45
330
5
100
AcDbSymbolTableRecord
100
AcDbLinetypeTableRecord
  2
PLINE3
 70
     0
  3
------------   ---   -----------
 72
    65
 73
     4
 40
10.0
 49
7.0
 74
     0
 49
-1.0
 74
     0
 49
1.0
 74
     0
 49
-1.0
 74
     0
  0
LTYPE
  5
46
330
5
100
AcDbSymbolTableRecord
100
AcDbLinetypeTableRecord
  2
PLINE4
 70
     0
  3
---------   ---   ---   --------
 72
    65
 73
     6
 40
10.0
 49
5.0
 74
     0
 49
-1.0
 74
     0
 49
1.0
 74
     0
 49
-1.0
 74
     0
 49
1.0
 74
     0
 49
-1.0
 74
     0
  0
LTYPE
  5
47
330
5
100
AcDbSymbolTableRecord
100
AcDbLinetypeTableRecord
  2
PLINE5
 70
     0
  3
------     -----------     -----
 72
    65
 73
     2
 40
5.0
 49
3.5
 74
     0
 49
-1.5
 74
     0
  0
LTYPE
  5
48
330
5
100
AcDbSymbolTableRecord
100
AcDbLinetypeTableRecord
  2
PLINE6
 70
     0
  3
------------   ---   -----------
 72
    65
 73
     4
 40
15.0
 49
10.5
 74
     0
 49
-1.5
 74
     0
 49
1.5
 74
     0
 49
-1.5
 74
     0
  0
LTYPE
  5
49
330
5
100
AcDbSymbolTableRecord
100
AcDbLinetypeTableRecord
  2
PLINE7
 70
     0
  3
---------   ---   ---   --------
 72
    65
 73
     6
 40
15.0
 49
7.5
 74
     0
 49
-1.5
 74
     0
 49
1.5
 74
     0
 49
-1.5
 74
     0
 49
1.5
 74
     0
 49
-1.5
 74
     0
  0
LTYPE
  5
4A
330
5
100
AcDbSymbolTableRecord
100
AcDbLinetypeTableRecord
  2
PLINE8
 70
     0
  3
------     -----------     -----
 72
    65
 73
     2
 40
7.0
 49
4.9
 74
     0
 49
-2.1
 74
     0
  0
LTYPE
  5
4B
330
5
100
AcDbSymbolTableRecord
100
AcDbLinetypeTableRecord
  2
PLINE9
 70
     0
  3
------------   ---   -----------
 72
    65
 73
     4
 40
20.0
 49
14.0
 74
     0
 49
-2.0
 74
     0
 49
2.0
 74
     0
 49
-2.0
 74
     0
  0
LTYPE
  5
4C
330
5
100
AcDbSymbolTableRecord
100
AcDbLinetypeTableRecord
  2
PLINE10
 70
     0
  3
---------   ---   ---   --------
 72
    65
 73
     6
 40
20.0
 49
10.0
 74
     0
 49
-2.0
 74
     0
 49
2.0
 74
     0
 49
-2.0
 74
     0
 49
2.0
 74
     0
 49
-2.0
 74
     0
  0
LTYPE
  5
4D
330
5
100
AcDbSymbolTableRecord
100
AcDbLinetypeTableRecord
  2
PLINE11
 70
     0
  3
------     -----------     -----
 72
    65
 73
     2
 40
9.0
 49
6.299999999999999
 74
     0
 49
-2.7
 74
     0
  0
LTYPE
  5
4E
330
5
100
AcDbSymbolTableRecord
100
AcDbLinetypeTableRecord
  2
PLINE12
 70
     0
  3
------------   ---   -----------
 72
    65
 73
     4
 40
25.0
 49
17.5
 74
     0
 49
-2.5
 74
     0
 49
2.5
 74
     0
 49
-2.5
 74
     0
  0
LTYPE
  5
4F
330
5
100
AcDbSymbolTableRecord
100
AcDbLinetypeTableRecord
  2
PLINE13
 70
     0
  3
---------   ---   ---   --------
 72
    65
 73
     6
 40
25.0
 49
12.5
 74
     0
 49
-2.5
 74
     0
 49
2.5
 74
     0
 49
-2.5
 74
     0
 49
2.5
 74
     0
 49
-2.5
 74
     0
  0
LTYPE
  5
50
330
5
100
AcDbSymbolTableRecord
100
AcDbLinetypeTableRecord
  2
PLINE14
 70
     0
  3
------     -----------     -----
 72
    65
 73
     2
 40
11.0
 49
7.7
 74
     0
 49
-3.299999999999999
 74
     0
  0
LTYPE
  5
51
330
5
100
AcDbSymbolTableRecord
100
AcDbLinetypeTableRecord
  2
PLINE15
 70
     0
  3
------------   ---   -----------
 72
    65
 73
     4
 40
30.0
 49
21.0
 74
     0
 49
-3.0
 74
     0
 49
3.0
 74
     0
 49
-3.0
 74
     0
  0
LTYPE
  5
52
330
5
100
AcDbSymbolTableRecord
100
AcDbLinetypeTableRecord
  2
PLINE16
 70
     0
  3
---------   ---   ---   --------
 72
    65
 73
     6
 40
30.0
 49
15.0
 74
     0
 49
-3.0
 74
     0
 49
3.0
 74
     0
 49
-3.0
 74
     0
 49
3.0
 74
     0
 49
-3.0
 74
     0
  0
ENDTAB
  0
TABLE
  2
LAYER
  5
2
102
{ACAD_XDICTIONARY
360
175
102
}
330
0
100
AcDbSymbolTable
 70
     8
  0
LAYER
  5
10
330
2
100
AcDbSymbolTableRecord
100
AcDbLayerTableRecord
  2
0
 70
     0
 62
     7
  6
CONTINUOUS
370
    -3
390
F
  0
LAYER
  5
128
330
2
100
AcDbSymbolTableRecord
100
AcDbLayerTableRecord
  2
Defpoints
 70
     0
 62
     7
  6
CONTINUOUS
290
     0
370
    -3
390
F
  0
LAYER
  5
178
330
2
100
AcDbSymbolTableRecord
100
AcDbLayerTableRecord
  2
寸法
 70
     0
 62
     7
  6
CONTINUOUS
370
    -3
390
F
  0
LAYER
  5
179
330
2
100
AcDbSymbolTableRecord
100
AcDbLayerTableRecord
  2
躯体
 70
     0
 62
     7
  6
CONTINUOUS
370
    -3
390
F
  0
LAYER
  5
17A
330
2
100
AcDbSymbolTableRecord
100
AcDbLayerTableRecord
  2
笠木
 70
     0
 62
     7
  6
CONTINUOUS
370
    -3
390
F
  0
LAYER
  5
40B6
330
2
100
AcDbSymbolTableRecord
100
AcDbLayerTableRecord
  2
受金具
 70
     0
 62
     7
  6
CONTINUOUS
370
    -3
390
F
  0
ENDTAB
  0
TABLE
  2
STYLE
  5
3
330
0
100
AcDbSymbolTable
 70
     4
  0
STYLE
  5
11
330
3
100
AcDbSymbolTableRecord
100
AcDbTextStyleTableRecord
  2
STANDARD
 70
     0
 40
0.0
 41
1.0
 50
0.0
 71
     0
 42
0.2
  3
txt
  4
bigfont.shx
  0
STYLE
  5
53
330
3
100
AcDbSymbolTableRecord
100
AcDbTextStyleTableRecord
  2
TATEGAKI
 70
     4
 40
0.0
 41
1.0
 50
0.0
 71
     0
 42
1.0
  3
txt
  4
bigfont.shx
  0
STYLE
  5
123
330
3
100
AcDbSymbolTableRecord
100
AcDbTextStyleTableRecord
  2
ACAD
 70
     0
 40
5.0
 41
0.8
 50
0.0
 71
     0
 42
5.0
  3
romans.shx
  4
extfont.shx
  0
STYLE
  5
3A5F
330
3
100
AcDbSymbolTableRecord
100
AcDbTextStyleTableRecord
  2
VERTXT
 70
     4
 40
0.0
 41
0.8582679999999999
 50
0.0
 71
     0
 42
3.5
  3
txt.shx
  4
BIGFONT
  0
ENDTAB
  0
TABLE
  2
VIEW
  5
6
330
0
100
AcDbSymbolTable
 70
     0
  0
ENDTAB
  0
TABLE
  2
UCS
  5
7
330
0
100
AcDbSymbolTable
 70
     0
  0
ENDTAB
  0
TABLE
  2
APPID
  5
9
330
0
100
AcDbSymbolTable
 70
     1
  0
APPID
  5
12
330
9
100
AcDbSymbolTableRecord
100
AcDbRegAppTableRecord
  2
ACAD
 70
     0
  0
ENDTAB
  0
TABLE
  2
DIMSTYLE
  5
A
330
0
100
AcDbSymbolTable
 70
     3
100
AcDbDimStyleTable
 71
     0
  0
DIMSTYLE
105
11C
330
A
100
AcDbSymbolTableRecord
100
AcDbDimStyleTableRecord
  2
Standard
 70
     0
340
11
  0
DIMSTYLE
105
126
102
{ACAD_REACTORS
330
583B
330
585A
330
5867
330
5874
330
5881
330
5897
330
58A4
330
58B1
330
58BE
330
58CB
330
58D8
330
58E5
330
58F2
330
58FF
330
590D
102
}
330
A
100
AcDbSymbolTableRecord
100
AcDbDimStyleTableRecord
  2
AutoCAD
 70
     0
 41
1.0
 42
0.0
 44
0.0
 73
     0
 77
     1
140
5.0
147
1.0
174
     1
176
     4
177
     4
178
     3
271
     0
272
     0
289
     0
340
123
341
15B0
342
11E
  0
DIMSTYLE
105
2CBB
330
A
100
AcDbSymbolTableRecord
100
AcDbDimStyleTableRecord
  2
111
 70
     0
 41
1.0
 42
0.0
 44
0.0
 73
     0
 77
     1
140
5.0
147
1.0
174
     1
176
     4
177
     4
178
     3
271
     0
272
     0
289
     0
340
123
341
15B0
342
2CB5
  0
ENDTAB
  0
TABLE
  2
BLOCK_RECORD
  5
1
330
0
100
AcDbSymbolTable
 70
    89
  0
BLOCK_RECORD
  5
1E
102
{ACAD_XDICTIONARY
360
28B
102
}
330
1
100
AcDbSymbolTableRecord
100
AcDbBlockTableRecord
  2
*Model_Space
340
21
  0
BLOCK_RECORD
  5
1A
102
{ACAD_XDICTIONARY
360
28D
102
}
330
1
100
AcDbSymbolTableRecord
100
AcDbBlockTableRecord
  2
*Paper_Space
340
1D
  0
BLOCK_RECORD
  5
11E
330
1
100
AcDbSymbolTableRecord
100
AcDbBlockTableRecord
  2
_Dot
340
0
102
{BLKREFS
331
40BD
331
40BE
331
40CA
331
40CB
331
40D7
331
40D8
331
4112
331
4113
331
411B
331
411C
331
4126
331
4127
331
4133
331
4134
331
4140
331
4141
331
414D
331
414E
331
415A
331
415B
331
4174
331
4175
331
43CC
331
43CD
331
4623
331
4624
331
4632
331
4633
331
463F
331
4640
331
46E4
331
46E5
331
46DA
331
46DB
331
4666
331
4667
331
4673
331
4674
331
4680
331
4681
331
468D
331
468E
331
469A
331
469B
331
46EE
331
46EF
331
46B5
331
46B6
331
46C2
331
46C3
331
46CF
331
46D0
331
4A2A
331
4A2B
331
4A37
331
4A38
331
4A44
331
4A45
331
4AFA
331
4AFB
331
4B03
331
4B04
331
4A7E
331
4A7F
331
4A8B
331
4A8C
331
4A98
331
4A99
331
4AA5
331
4AA6
331
4AB2
331
4AB3
331
4ABF
331
4AC0
331
4ACC
331
4ACD
331
4AE6
331
4AE7
331
4EB6
331
4EB7
331
4EC3
331
4EC4
331
4ED0
331
4ED1
331
4EDD
331
4EDE
331
4EEA
331
4EEB
331
4EF7
331
4EF8
331
4F40
331
4F41
331
4F11
331
4F12
331
4F4B
331
4F4C
331
4F58
331
4F59
331
4FA5
331
4FA6
331
4F72
331
4F73
331
4F7F
331
4F80
331
4F8C
331
4F8D
331
4F99
331
4F9A
331
535E
331
535F
331
536B
331
536C
331
5378
331
5379
331
5385
331
5386
331
5392
331
5393
331
539F
331
53A0
331
53AC
331
53AD
331
53B9
331
53BA
331
53C6
331
53C7
331
53D3
331
53D4
331
53E0
331
53E1
331
53ED
331
53EE
331
53FA
331
53FB
331
5407
331
5408
331
5421
331
5422
331
5854
331
5855
331
5975
331
5976
331
597E
331
597F
331
5879
331
587A
331
5987
331
5988
331
589C
331
589D
331
5990
331
5991
331
5999
331
599A
331
58C3
331
58C4
331
58D0
331
58D1
331
59A2
331
59A3
331
58EA
331
58EB
331
58F7
331
58F8
331
59AB
331
59AC
331
591E
331
591F
102
}
  0
BLOCK_RECORD
  5
15B0
330
1
100
AcDbSymbolTableRecord
100
AcDbBlockTableRecord
  2
_None
340
0
  0
BLOCK_RECORD
  5
2CB5
330
1
100
AcDbSymbolTableRecord
100
AcDbBlockTableRecord
  2
_Open30
340
0
  0
BLOCK_RECORD
  5
35E3
330
1
100
AcDbSymbolTableRecord
100
AcDbBlockTableRecord
  2
_DotBlank
340
0
  0
BLOCK_RECORD
  5
583C
330
1
100
AcDbSymbolTableRecord
100
AcDbBlockTableRecord
  2
*D74
340
0
  0
BLOCK_RECORD
  5
585B
330
1
100
AcDbSymbolTableRecord
100
AcDbBlockTableRecord
  2
*D75
340
0
  0
BLOCK_RECORD
  5
5868
330
1
100
AcDbSymbolTableRecord
100
AcDbBlockTableRecord
  2
*D76
340
0
  0
BLOCK_RECORD
  5
5875
330
1
100
AcDbSymbolTableRecord
100
AcDbBlockTableRecord
  2
*D77
340
0
  0
BLOCK_RECORD
  5
5882
330
1
100
AcDbSymbolTableRecord
100
AcDbBlockTableRecord
  2
*D78
340
0
  0
BLOCK_RECORD
  5
5898
330
1
100
AcDbSymbolTableRecord
100
AcDbBlockTableRecord
  2
*D79
340
0
  0
BLOCK_RECORD
  5
58A5
330
1
100
AcDbSymbolTableRecord
100
AcDbBlockTableRecord
  2
*D80
340
0
  0
BLOCK_RECORD
  5
58B2
330
1
100
AcDbSymbolTableRecord
100
AcDbBlockTableRecord
  2
*D81
340
0
  0
BLOCK_RECORD
  5
58BF
330
1
100
AcDbSymbolTableRecord
100
AcDbBlockTableRecord
  2
*D82
340
0
  0
BLOCK_RECORD
  5
58CC
330
1
100
AcDbSymbolTableRecord
100
AcDbBlockTableRecord
  2
*D83
340
0
  0
BLOCK_RECORD
  5
58D9
330
1
100
AcDbSymbolTableRecord
100
AcDbBlockTableRecord
  2
*D84
340
0
  0
BLOCK_RECORD
  5
58E6
330
1
100
AcDbSymbolTableRecord
100
AcDbBlockTableRecord
  2
*D85
340
0
  0
BLOCK_RECORD
  5
58F3
330
1
100
AcDbSymbolTableRecord
100
AcDbBlockTableRecord
  2
*D86
340
0
  0
BLOCK_RECORD
  5
5900
330
1
100
AcDbSymbolTableRecord
100
AcDbBlockTableRecord
  2
*D87
340
0
  0
BLOCK_RECORD
  5
590E
330
1
100
AcDbSymbolTableRecord
100
AcDbBlockTableRecord
  2
*D88
340
0
  0
ENDTAB
  0
ENDSEC
  0
SECTION
  2
BLOCKS
  0
BLOCK
  5
1F
330
1E
100
AcDbEntity
  8
0
100
AcDbBlockBegin
  2
*Model_Space
 70
     0
 10
0.0
 20
0.0
 30
0.0
  3
*Model_Space
  1

  0
ENDBLK
  5
20
330
1E
100
AcDbEntity
  8
0
100
AcDbBlockEnd
  0
BLOCK
  5
1B
330
1A
100
AcDbEntity
 67
     1
  8
0
100
AcDbBlockBegin
  2
*Paper_Space
 70
     0
 10
0.0
 20
0.0
 30
0.0
  3
*Paper_Space
  1

  0
ENDBLK
  5
1C
330
1A
100
AcDbEntity
 67
     1
  8
0
100
AcDbBlockEnd
  0
BLOCK
  5
121
330
11E
100
AcDbEntity
  8
0
100
AcDbBlockBegin
  2
_Dot
 70
     0
 10
0.0
 20
0.0
 30
0.0
  3
_Dot
  1

  0
LWPOLYLINE
  5
11F
330
11E
100
AcDbEntity
  8
0
  6
ByBlock
 62
     0
100
AcDbPolyline
 90
        2
 70
     1
 43
0.5
 10
-0.25
 20
0.0
 42
1.0
 10
0.25
 20
0.0
 42
1.0
  0
LINE
  5
120
330
11E
100
AcDbEntity
  8
0
  6
ByBlock
 62
     0
370
    -2
100
AcDbLine
 10
-0.5
 20
0.0
 30
0.0
 11
-1.0
 21
0.0
 31
0.0
  0
ENDBLK
  5
122
330
11E
100
AcDbEntity
  8
0
100
AcDbBlockEnd
  0
BLOCK
  5
15B1
330
15B0
100
AcDbEntity
  8
0
100
AcDbBlockBegin
  2
_None
 70
     0
 10
0.0
 20
0.0
 30
0.0
  3
_None
  1

  0
ENDBLK
  5
15B2
330
15B0
100
AcDbEntity
  8
0
100
AcDbBlockEnd
  0
BLOCK
  5
2CB9
330
2CB5
100
AcDbEntity
  8
0
100
AcDbBlockBegin
  2
_Open30
 70
     0
 10
0.0
 20
0.0
 30
0.0
  3
_Open30
  1

  0
LINE
  5
2CB6
330
2CB5
100
AcDbEntity
  8
0
  6
ByBlock
 62
     0
370
    -2
100
AcDbLine
 10
-1.0
 20
0.26794919
 30
0.0
 11
0.0
 21
0.0
 31
0.0
  0
LINE
  5
2CB7
330
2CB5
100
AcDbEntity
  8
0
  6
ByBlock
 62
     0
370
    -2
100
AcDbLine
 10
0.0
 20
0.0
 30
0.0
 11
-1.0
 21
-0.26794919
 31
0.0
  0
LINE
  5
2CB8
330
2CB5
100
AcDbEntity
  8
0
  6
ByBlock
 62
     0
370
    -2
100
AcDbLine
 10
0.0
 20
0.0
 30
0.0
 11
-1.0
 21
0.0
 31
0.0
  0
ENDBLK
  5
2CBA
330
2CB5
100
AcDbEntity
  8
0
100
AcDbBlockEnd
  0
BLOCK
  5
35E6
330
35E3
100
AcDbEntity
  8
0
100
AcDbBlockBegin
  2
_DotBlank
 70
     0
 10
0.0
 20
0.0
 30
0.0
  3
_DotBlank
  1

  0
CIRCLE
  5
35E4
330
35E3
100
AcDbEntity
  8
0
  6
ByBlock
 62
     0
370
    -2
100
AcDbCircle
 10
0.0
 20
0.0
 30
0.0
 40
0.5
  0
LINE
  5
35E5
330
35E3
100
AcDbEntity
  8
0
  6
ByBlock
 62
     0
370
    -2
100
AcDbLine
 10
-0.5
 20
0.0
 30
0.0
 11
-1.0
 21
0.0
 31
0.0
  0
ENDBLK
  5
35E7
330
35E3
100
AcDbEntity
  8
0
100
AcDbBlockEnd
  0
BLOCK
  5
5846
330
583C
100
AcDbEntity
  8
0
100
AcDbBlockBegin
  2
*D74
 70
     1
 10
0.0
 20
0.0
 30
0.0
  3
*D74
  1

  0
LINE
  5
5851
330
583C
100
AcDbEntity
  8
寸法
  6
Continuous
 62
     4
370
    -2
100
AcDbLine
 10
-1130.276639821002
 20
-1038.767473589906
 30
0.0
 11
-1130.276639821002
 21
-1009.825924003165
 31
0.0
  0
LINE
  5
5852
330
583C
100
AcDbEntity
  8
寸法
  6
Continuous
 62
     4
370
    -2
100
AcDbLine
 10
-1136.276639821002
 20
-1038.767473589906
 30
0.0
 11
-1136.276639821002
 21
-1009.825924003165
 31
0.0
  0
LINE
  5
5853
330
583C
100
AcDbEntity
  8
寸法
  6
Continuous
 62
     4
370
    -2
100
AcDbLine
 10
-1131.276639821002
 20
-1009.825924003165
 30
0.0
 11
-1135.276639821002
 21
-1009.825924003165
 31
0.0
  0
INSERT
  5
5854
330
583C
100
AcDbEntity
  8
寸法
  6
Continuous
 62
     4
370
    -2
100
AcDbBlockReference
  2
_Dot
 10
-1130.276639821002
 20
-1009.825924003165
 30
0.0
  0
INSERT
  5
5855
330
583C
100
AcDbEntity
  8
寸法
  6
Continuous
 62
     4
370
    -2
100
AcDbBlockReference
  2
_Dot
 10
-1136.276639821002
 20
-1009.825924003165
 30
0.0
 50
180.0
  0
MTEXT
  5
5856
330
583C
100
AcDbEntity
  8
寸法
  6
Continuous
 62
     3
100
AcDbMText
 10
-1133.276639821002
 20
-1006.325924003165
 30
0.0
 40
5.0
 41
0.0
 71
     5
 72
     5
  1
\A1;6
  7
ACAD
 73
     1
 44
1.0
  0
POINT
  5
5857
330
583C
100
AcDbEntity
  8
Defpoints
  6
Continuous
 62
     0
100
AcDbPoint
 10
-1130.276639821002
 20
-1038.767473589906
 30
0.0
  0
POINT
  5
5858
330
583C
100
AcDbEntity
  8
Defpoints
  6
Continuous
 62
     0
100
AcDbPoint
 10
-1136.276639821002
 20
-1038.767473589906
 30
0.0
  0
POINT
  5
5859
330
583C
100
AcDbEntity
  8
Defpoints
  6
Continuous
 62
     0
100
AcDbPoint
 10
-1136.276639821002
 20
-1009.825924003165
 30
0.0
  0
ENDBLK
  5
5847
330
583C
100
AcDbEntity
  8
0
100
AcDbBlockEnd
  0
BLOCK
  5
5865
330
585B
100
AcDbEntity
  8
0
100
AcDbBlockBegin
  2
*D75
 70
     1
 10
0.0
 20
0.0
 30
0.0
  3
*D75
  1

  0
LINE
  5
5972
330
585B
100
AcDbEntity
  8
寸法
  6
Continuous
 62
     4
100
AcDbLine
 10
-1136.276639821002
 20
-1038.767473589906
 30
0.0
 11
-1136.276639821002
 21
-1009.825924003165
 31
0.0
  0
LINE
  5
5973
330
585B
100
AcDbEntity
  8
寸法
  6
Continuous
 62
     4
100
AcDbLine
 10
-1155.276639821002
 20
-1038.767473589906
 30
0.0
 11
-1155.276639821002
 21
-1009.825924003165
 31
0.0
  0
LINE
  5
5974
330
585B
100
AcDbEntity
  8
寸法
  6
Continuous
 62
     4
100
AcDbLine
 10
-1137.276639821002
 20
-1009.825924003165
 30
0.0
 11
-1154.276639821002
 21
-1009.825924003165
 31
0.0
  0
INSERT
  5
5975
330
585B
100
AcDbEntity
  8
寸法
  6
Continuous
 62
     4
100
AcDbBlockReference
  2
_Dot
 10
-1136.276639821002
 20
-1009.825924003165
 30
0.0
  0
INSERT
  5
5976
330
585B
100
AcDbEntity
  8
寸法
  6
Continuous
 62
     4
100
AcDbBlockReference
  2
_Dot
 10
-1155.276639821002
 20
-1009.825924003165
 30
0.0
 50
180.0
  0
MTEXT
  5
5977
330
585B
100
AcDbEntity
  8
寸法
  6
Continuous
 62
     3
100
AcDbMText
 10
-1145.776639821002
 20
-1006.325924003165
 30
0.0
 40
5.0
 41
0.0
 71
     5
 72
     5
  1
\A1;19
  7
ACAD
 73
     1
 44
1.0
  0
POINT
  5
5978
330
585B
100
AcDbEntity
  8
Defpoints
  6
Continuous
 62
     0
100
AcDbPoint
 10
-1136.276639821002
 20
-1038.767473589906
 30
0.0
  0
POINT
  5
5979
330
585B
100
AcDbEntity
  8
Defpoints
  6
Continuous
 62
     0
100
AcDbPoint
 10
-1155.276639821002
 20
-1038.767473589906
 30
0.0
  0
POINT
  5
597A
330
585B
100
AcDbEntity
  8
Defpoints
  6
Continuous
 62
     0
100
AcDbPoint
 10
-1155.276639821002
 20
-1009.825924003165
 30
0.0
  0
ENDBLK
  5
5866
330
585B
100
AcDbEntity
  8
0
100
AcDbBlockEnd
  0
BLOCK
  5
5872
330
5868
100
AcDbEntity
  8
0
100
AcDbBlockBegin
  2
*D76
 70
     1
 10
0.0
 20
0.0
 30
0.0
  3
*D76
  1

  0
LINE
  5
597B
330
5868
100
AcDbEntity
  8
寸法
  6
Continuous
 62
     4
100
AcDbLine
 10
-1155.276639821002
 20
-1038.767473589906
 30
0.0
 11
-1155.276639821002
 21
-1009.825924003165
 31
0.0
  0
LINE
  5
597C
330
5868
100
AcDbEntity
  8
寸法
  6
Continuous
 62
     4
100
AcDbLine
 10
-1380.276639821002
 20
-1038.767473589906
 30
0.0
 11
-1380.276639821002
 21
-1009.825924003165
 31
0.0
  0
LINE
  5
597D
330
5868
100
AcDbEntity
  8
寸法
  6
Continuous
 62
     4
100
AcDbLine
 10
-1156.276639821002
 20
-1009.825924003165
 30
0.0
 11
-1379.276639821002
 21
-1009.825924003165
 31
0.0
  0
INSERT
  5
597E
330
5868
100
AcDbEntity
  8
寸法
  6
Continuous
 62
     4
100
AcDbBlockReference
  2
_Dot
 10
-1155.276639821002
 20
-1009.825924003165
 30
0.0
  0
INSERT
  5
597F
330
5868
100
AcDbEntity
  8
寸法
  6
Continuous
 62
     4
100
AcDbBlockReference
  2
_Dot
 10
-1380.276639821002
 20
-1009.825924003165
 30
0.0
 50
180.0
  0
MTEXT
  5
5980
330
5868
100
AcDbEntity
  8
寸法
  6
Continuous
 62
     3
100
AcDbMText
 10
-1267.776639821002
 20
-1006.325924003165
 30
0.0
 40
5.0
 41
0.0
 71
     5
 72
     5
  1
\A1;225
  7
ACAD
 73
     1
 44
1.0
  0
POINT
  5
5981
330
5868
100
AcDbEntity
  8
Defpoints
  6
Continuous
 62
     0
100
AcDbPoint
 10
-1155.276639821002
 20
-1038.767473589906
 30
0.0
  0
POINT
  5
5982
330
5868
100
AcDbEntity
  8
Defpoints
  6
Continuous
 62
     0
100
AcDbPoint
 10
-1380.276639821002
 20
-1038.767473589906
 30
0.0
  0
POINT
  5
5983
330
5868
100
AcDbEntity
  8
Defpoints
  6
Continuous
 62
     0
100
AcDbPoint
 10
-1380.276639821002
 20
-1009.825924003165
 30
0.0
  0
ENDBLK
  5
5873
330
5868
100
AcDbEntity
  8
0
100
AcDbBlockEnd
  0
BLOCK
  5
587F
330
5875
100
AcDbEntity
  8
0
100
AcDbBlockBegin
  2
*D77
 70
     1
 10
0.0
 20
0.0
 30
0.0
  3
*D77
  1

  0
LINE
  5
5876
330
5875
100
AcDbEntity
  8
寸法
  6
Continuous
 62
     4
370
    -2
100
AcDbLine
 10
-1130.276639821002
 20
-1038.579863003165
 30
0.0
 11
-1130.276639821002
 21
-1030.064178003165
 31
0.0
  0
LINE
  5
5877
330
5875
100
AcDbEntity
  8
寸法
  6
Continuous
 62
     4
370
    -2
100
AcDbLine
 10
-1155.276639821002
 20
-1038.767473589906
 30
0.0
 11
-1155.276639821002
 21
-1030.064178003165
 31
0.0
  0
LINE
  5
5878
330
5875
100
AcDbEntity
  8
寸法
  6
Continuous
 62
     4
370
    -2
100
AcDbLine
 10
-1131.276639821002
 20
-1030.064178003165
 30
0.0
 11
-1154.276639821002
 21
-1030.064178003165
 31
0.0
  0
INSERT
  5
5879
330
5875
100
AcDbEntity
  8
寸法
  6
Continuous
 62
     4
370
    -2
100
AcDbBlockReference
  2
_Dot
 10
-1130.276639821002
 20
-1030.064178003165
 30
0.0
  0
INSERT
  5
587A
330
5875
100
AcDbEntity
  8
寸法
  6
Continuous
 62
     4
370
    -2
100
AcDbBlockReference
  2
_Dot
 10
-1155.276639821002
 20
-1030.064178003165
 30
0.0
 50
180.0
  0
MTEXT
  5
587B
330
5875
100
AcDbEntity
  8
寸法
  6
Continuous
 62
     3
100
AcDbMText
 10
-1142.776639821002
 20
-1026.564178003165
 30
0.0
 40
5.0
 41
0.0
 71
     5
 72
     5
  1
\A1;25
  7
ACAD
 73
     1
 44
1.0
  0
POINT
  5
587C
330
5875
100
AcDbEntity
  8
Defpoints
  6
Continuous
 62
     0
100
AcDbPoint
 10
-1130.276639821002
 20
-1038.579863003165
 30
0.0
  0
POINT
  5
587D
330
5875
100
AcDbEntity
  8
Defpoints
  6
Continuous
 62
     0
100
AcDbPoint
 10
-1155.276639821002
 20
-1038.767473589906
 30
0.0
  0
POINT
  5
587E
330
5875
100
AcDbEntity
  8
Defpoints
  6
Continuous
 62
     0
100
AcDbPoint
 10
-1155.276639821002
 20
-1030.064178003165
 30
0.0
  0
ENDBLK
  5
5880
330
5875
100
AcDbEntity
  8
0
100
AcDbBlockEnd
  0
BLOCK
  5
588C
330
5882
100
AcDbEntity
  8
0
100
AcDbBlockBegin
  2
*D78
 70
     1
 10
0.0
 20
0.0
 30
0.0
  3
*D78
  1

  0
LINE
  5
5984
330
5882
100
AcDbEntity
  8
寸法
  6
Continuous
 62
     4
100
AcDbLine
 10
-1155.276639821002
 20
-1038.767473589906
 30
0.0
 11
-1155.276639821002
 21
-1030.064178003165
 31
0.0
  0
LINE
  5
5985
330
5882
100
AcDbEntity
  8
寸法
  6
Continuous
 62
     4
100
AcDbLine
 10
-1267.776639821002
 20
-1038.767473589906
 30
0.0
 11
-1267.776639821002
 21
-1030.064178003165
 31
0.0
  0
LINE
  5
5986
330
5882
100
AcDbEntity
  8
寸法
  6
Continuous
 62
     4
100
AcDbLine
 10
-1156.276639821002
 20
-1030.064178003165
 30
0.0
 11
-1266.776639821002
 21
-1030.064178003165
 31
0.0
  0
INSERT
  5
5987
330
5882
100
AcDbEntity
  8
寸法
  6
Continuous
 62
     4
100
AcDbBlockReference
  2
_Dot
 10
-1155.276639821002
 20
-1030.064178003165
 30
0.0
  0
INSERT
  5
5988
330
5882
100
AcDbEntity
  8
寸法
  6
Continuous
 62
     4
100
AcDbBlockReference
  2
_Dot
 10
-1267.776639821002
 20
-1030.064178003165
 30
0.0
 50
180.0
  0
MTEXT
  5
5989
330
5882
100
AcDbEntity
  8
寸法
  6
Continuous
 62
     3
100
AcDbMText
 10
-1211.526639821002
 20
-1026.564178003165
 30
0.0
 40
5.0
 41
0.0
 71
     5
 72
     5
  1
\A1;112.5
  7
ACAD
 73
     1
 44
1.0
  0
POINT
  5
598A
330
5882
100
AcDbEntity
  8
Defpoints
  6
Continuous
 62
     0
100
AcDbPoint
 10
-1155.276639821002
 20
-1038.767473589906
 30
0.0
  0
POINT
  5
598B
330
5882
100
AcDbEntity
  8
Defpoints
  6
Continuous
 62
     0
100
AcDbPoint
 10
-1267.776639821002
 20
-1038.767473589906
 30
0.0
  0
POINT
  5
598C
330
5882
100
AcDbEntity
  8
Defpoints
  6
Continuous
 62
     0
100
AcDbPoint
 10
-1267.776639821002
 20
-1030.064178003165
 30
0.0
  0
ENDBLK
  5
588D
330
5882
100
AcDbEntity
  8
0
100
AcDbBlockEnd
  0
BLOCK
  5
58A2
330
5898
100
AcDbEntity
  8
0
100
AcDbBlockBegin
  2
*D79
 70
     1
 10
0.0
 20
0.0
 30
0.0
  3
*D79
  1

  0
LINE
  5
5899
330
5898
100
AcDbEntity
  8
寸法
  6
Continuous
 62
     4
370
    -2
100
AcDbLine
 10
-1386.902146450113
 20
-1055.579863003165
 30
0.0
 11
-1428.218777821002
 21
-1055.579863003165
 31
0.0
  0
LINE
  5
589A
330
5898
100
AcDbEntity
  8
寸法
  6
Continuous
 62
     4
370
    -2
100
AcDbLine
 10
-1386.902146450113
 20
-1065.579863003165
 30
0.0
 11
-1428.218777821002
 21
-1065.579863003165
 31
0.0
  0
LINE
  5
589B
330
5898
100
AcDbEntity
  8
寸法
  6
Continuous
 62
     4
370
    -2
100
AcDbLine
 10
-1428.218777821002
 20
-1056.579863003165
 30
0.0
 11
-1428.218777821002
 21
-1064.579863003165
 31
0.0
  0
INSERT
  5
589C
330
5898
100
AcDbEntity
  8
寸法
  6
Continuous
 62
     4
370
    -2
100
AcDbBlockReference
  2
_Dot
 10
-1428.218777821002
 20
-1055.579863003165
 30
0.0
 50
90.0
  0
INSERT
  5
589D
330
5898
100
AcDbEntity
  8
寸法
  6
Continuous
 62
     4
370
    -2
100
AcDbBlockReference
  2
_Dot
 10
-1428.218777821002
 20
-1065.579863003165
 30
0.0
 50
270.0
  0
MTEXT
  5
589E
330
5898
100
AcDbEntity
  8
寸法
  6
Continuous
 62
     3
100
AcDbMText
 10
-1431.718777821002
 20
-1060.579863003165
 30
0.0
 40
5.0
 41
0.0
 71
     5
 72
     5
  1
\A1;10
  7
ACAD
 11
0.0000000000000001
 21
1.0
 31
0.0
 73
     1
 44
1.0
  0
POINT
  5
589F
330
5898
100
AcDbEntity
  8
Defpoints
  6
Continuous
 62
     0
100
AcDbPoint
 10
-1386.902146450113
 20
-1055.579863003165
 30
0.0
  0
POINT
  5
58A0
330
5898
100
AcDbEntity
  8
Defpoints
  6
Continuous
 62
     0
100
AcDbPoint
 10
-1386.902146450113
 20
-1065.579863003165
 30
0.0
  0
POINT
  5
58A1
330
5898
100
AcDbEntity
  8
Defpoints
  6
Continuous
 62
     0
100
AcDbPoint
 10
-1428.218777821002
 20
-1065.579863003165
 30
0.0
  0
ENDBLK
  5
58A3
330
5898
100
AcDbEntity
  8
0
100
AcDbBlockEnd
  0
BLOCK
  5
58AF
330
58A5
100
AcDbEntity
  8
0
100
AcDbBlockBegin
  2
*D80
 70
     1
 10
0.0
 20
0.0
 30
0.0
  3
*D80
  1

  0
LINE
  5
598D
330
58A5
100
AcDbEntity
  8
寸法
  6
Continuous
 62
     4
100
AcDbLine
 10
-1386.902146450113
 20
-1065.579863003165
 30
0.0
 11
-1428.218777821002
 21
-1065.579863003165
 31
0.0
  0
LINE
  5
598E
330
58A5
100
AcDbEntity
  8
寸法
  6
Continuous
 62
     4
100
AcDbLine
 10
-1386.902146450113
 20
-1075.579863003165
 30
0.0
 11
-1428.218777821002
 21
-1075.579863003165
 31
0.0
  0
LINE
  5
598F
330
58A5
100
AcDbEntity
  8
寸法
  6
Continuous
 62
     4
100
AcDbLine
 10
-1428.218777821002
 20
-1066.579863003165
 30
0.0
 11
-1428.218777821002
 21
-1074.579863003165
 31
0.0
  0
INSERT
  5
5990
330
58A5
100
AcDbEntity
  8
寸法
  6
Continuous
 62
     4
100
AcDbBlockReference
  2
_Dot
 10
-1428.218777821002
 20
-1065.579863003165
 30
0.0
 50
90.0
  0
INSERT
  5
5991
330
58A5
100
AcDbEntity
  8
寸法
  6
Continuous
 62
     4
100
AcDbBlockReference
  2
_Dot
 10
-1428.218777821002
 20
-1075.579863003165
 30
0.0
 50
270.0
  0
MTEXT
  5
5992
330
58A5
100
AcDbEntity
  8
寸法
  6
Continuous
 62
     3
100
AcDbMText
 10
-1431.718777821002
 20
-1070.579863003165
 30
0.0
 40
5.0
 41
0.0
 71
     5
 72
     5
  1
\A1;10
  7
ACAD
 11
0.0000000000000001
 21
1.0
 31
0.0
 73
     1
 44
1.0
  0
POINT
  5
5993
330
58A5
100
AcDbEntity
  8
Defpoints
  6
Continuous
 62
     0
100
AcDbPoint
 10
-1386.902146450113
 20
-1065.579863003165
 30
0.0
  0
POINT
  5
5994
330
58A5
100
AcDbEntity
  8
Defpoints
  6
Continuous
 62
     0
100
AcDbPoint
 10
-1386.902146450113
 20
-1075.579863003165
 30
0.0
  0
POINT
  5
5995
330
58A5
100
AcDbEntity
  8
Defpoints
  6
Continuous
 62
     0
100
AcDbPoint
 10
-1428.218777821002
 20
-1075.579863003165
 30
0.0
  0
ENDBLK
  5
58B0
330
58A5
100
AcDbEntity
  8
0
100
AcDbBlockEnd
  0
BLOCK
  5
58BC
330
58B2
100
AcDbEntity
  8
0
100
AcDbBlockBegin
  2
*D81
 70
     1
 10
0.0
 20
0.0
 30
0.0
  3
*D81
  1

  0
LINE
  5
5996
330
58B2
100
AcDbEntity
  8
寸法
  6
Continuous
 62
     4
100
AcDbLine
 10
-1386.902146450113
 20
-1075.579863003165
 30
0.0
 11
-1428.218777821002
 21
-1075.579863003165
 31
0.0
  0
LINE
  5
5997
330
58B2
100
AcDbEntity
  8
寸法
  6
Continuous
 62
     4
100
AcDbLine
 10
-1386.902146450113
 20
-1135.579863003165
 30
0.0
 11
-1428.218777821002
 21
-1135.579863003165
 31
0.0
  0
LINE
  5
5998
330
58B2
100
AcDbEntity
  8
寸法
  6
Continuous
 62
     4
100
AcDbLine
 10
-1428.218777821002
 20
-1076.579863003165
 30
0.0
 11
-1428.218777821002
 21
-1134.579863003165
 31
0.0
  0
INSERT
  5
5999
330
58B2
100
AcDbEntity
  8
寸法
  6
Continuous
 62
     4
100
AcDbBlockReference
  2
_Dot
 10
-1428.218777821002
 20
-1075.579863003165
 30
0.0
 50
90.0
  0
INSERT
  5
599A
330
58B2
100
AcDbEntity
  8
寸法
  6
Continuous
 62
     4
100
AcDbBlockReference
  2
_Dot
 10
-1428.218777821002
 20
-1135.579863003165
 30
0.0
 50
270.0
  0
MTEXT
  5
599B
330
58B2
100
AcDbEntity
  8
寸法
  6
Continuous
 62
     3
100
AcDbMText
 10
-1431.718777821002
 20
-1105.579863003165
 30
0.0
 40
5.0
 41
0.0
 71
     5
 72
     5
  1
\A1;60
  7
ACAD
 11
0.0000000000000001
 21
1.0
 31
0.0
 73
     1
 44
1.0
  0
POINT
  5
599C
330
58B2
100
AcDbEntity
  8
Defpoints
  6
Continuous
 62
     0
100
AcDbPoint
 10
-1386.902146450113
 20
-1075.579863003165
 30
0.0
  0
POINT
  5
599D
330
58B2
100
AcDbEntity
  8
Defpoints
  6
Continuous
 62
     0
100
AcDbPoint
 10
-1386.902146450113
 20
-1135.579863003165
 30
0.0
  0
POINT
  5
599E
330
58B2
100
AcDbEntity
  8
Defpoints
  6
Continuous
 62
     0
100
AcDbPoint
 10
-1428.218777821002
 20
-1135.579863003165
 30
0.0
  0
ENDBLK
  5
58BD
330
58B2
100
AcDbEntity
  8
0
100
AcDbBlockEnd
  0
BLOCK
  5
58C9
330
58BF
100
AcDbEntity
  8
0
100
AcDbBlockBegin
  2
*D82
 70
     1
 10
0.0
 20
0.0
 30
0.0
  3
*D82
  1

  0
LINE
  5
58C0
330
58BF
100
AcDbEntity
  8
寸法
  6
Continuous
 62
     4
370
    -2
100
AcDbLine
 10
-1386.902146450113
 20
-1089.579863003165
 30
0.0
 11
-1403.926687821002
 21
-1089.579863003165
 31
0.0
  0
LINE
  5
58C1
330
58BF
100
AcDbEntity
  8
寸法
  6
Continuous
 62
     4
370
    -2
100
AcDbLine
 10
-1386.902146450113
 20
-1135.579863003165
 30
0.0
 11
-1403.926687821002
 21
-1135.579863003165
 31
0.0
  0
LINE
  5
58C2
330
58BF
100
AcDbEntity
  8
寸法
  6
Continuous
 62
     4
370
    -2
100
AcDbLine
 10
-1403.926687821002
 20
-1090.579863003165
 30
0.0
 11
-1403.926687821002
 21
-1134.579863003165
 31
0.0
  0
INSERT
  5
58C3
330
58BF
100
AcDbEntity
  8
寸法
  6
Continuous
 62
     4
370
    -2
100
AcDbBlockReference
  2
_Dot
 10
-1403.926687821002
 20
-1089.579863003165
 30
0.0
 50
90.0
  0
INSERT
  5
58C4
330
58BF
100
AcDbEntity
  8
寸法
  6
Continuous
 62
     4
370
    -2
100
AcDbBlockReference
  2
_Dot
 10
-1403.926687821002
 20
-1135.579863003165
 30
0.0
 50
270.0
  0
MTEXT
  5
58C5
330
58BF
100
AcDbEntity
  8
寸法
  6
Continuous
 62
     3
100
AcDbMText
 10
-1407.426687821002
 20
-1112.579863003165
 30
0.0
 40
5.0
 41
0.0
 71
     5
 72
     5
  1
\A1;46
  7
ACAD
 11
0.0000000000000001
 21
1.0
 31
0.0
 73
     1
 44
1.0
  0
POINT
  5
58C6
330
58BF
100
AcDbEntity
  8
Defpoints
  6
Continuous
 62
     0
100
AcDbPoint
 10
-1386.902146450113
 20
-1089.579863003165
 30
0.0
  0
POINT
  5
58C7
330
58BF
100
AcDbEntity
  8
Defpoints
  6
Continuous
 62
     0
100
AcDbPoint
 10
-1386.902146450113
 20
-1135.579863003165
 30
0.0
  0
POINT
  5
58C8
330
58BF
100
AcDbEntity
  8
Defpoints
  6
Continuous
 62
     0
100
AcDbPoint
 10
-1403.926687821002
 20
-1135.579863003165
 30
0.0
  0
ENDBLK
  5
58CA
330
58BF
100
AcDbEntity
  8
0
100
AcDbBlockEnd
  0
BLOCK
  5
58D6
330
58CC
100
AcDbEntity
  8
0
100
AcDbBlockBegin
  2
*D83
 70
     1
 10
0.0
 20
0.0
 30
0.0
  3
*D83
  1

  0
LINE
  5
58CD
330
58CC
100
AcDbEntity
  8
寸法
  6
Continuous
 62
     4
370
    -2
100
AcDbLine
 10
-1122.416933591465
 20
-1039.579863003165
 30
0.0
 11
-1111.348465821002
 21
-1039.579863003165
 31
0.0
  0
LINE
  5
58CE
330
58CC
100
AcDbEntity
  8
寸法
  6
Continuous
 62
     4
370
    -2
100
AcDbLine
 10
-1122.416933591465
 20
-1055.579863003165
 30
0.0
 11
-1111.348465821002
 21
-1055.579863003165
 31
0.0
  0
LINE
  5
58CF
330
58CC
100
AcDbEntity
  8
寸法
  6
Continuous
 62
     4
370
    -2
100
AcDbLine
 10
-1111.348465821002
 20
-1040.579863003165
 30
0.0
 11
-1111.348465821002
 21
-1054.579863003165
 31
0.0
  0
INSERT
  5
58D0
330
58CC
100
AcDbEntity
  8
寸法
  6
Continuous
 62
     4
370
    -2
100
AcDbBlockReference
  2
_Dot
 10
-1111.348465821002
 20
-1039.579863003165
 30
0.0
 50
90.0
  0
INSERT
  5
58D1
330
58CC
100
AcDbEntity
  8
寸法
  6
Continuous
 62
     4
370
    -2
100
AcDbBlockReference
  2
_Dot
 10
-1111.348465821002
 20
-1055.579863003165
 30
0.0
 50
270.0
  0
MTEXT
  5
58D2
330
58CC
100
AcDbEntity
  8
寸法
  6
Continuous
 62
     3
100
AcDbMText
 10
-1114.848465821002
 20
-1047.579863003165
 30
0.0
 40
5.0
 41
0.0
 71
     5
 72
     5
  1
\A1;16
  7
ACAD
 11
0.0000000000000001
 21
1.0
 31
0.0
 73
     1
 44
1.0
  0
POINT
  5
58D3
330
58CC
100
AcDbEntity
  8
Defpoints
  6
Continuous
 62
     0
100
AcDbPoint
 10
-1122.416933591465
 20
-1039.579863003165
 30
0.0
  0
POINT
  5
58D4
330
58CC
100
AcDbEntity
  8
Defpoints
  6
Continuous
 62
     0
100
AcDbPoint
 10
-1122.416933591465
 20
-1055.579863003165
 30
0.0
  0
POINT
  5
58D5
330
58CC
100
AcDbEntity
  8
Defpoints
  6
Continuous
 62
     0
100
AcDbPoint
 10
-1111.348465821002
 20
-1055.579863003165
 30
0.0
  0
ENDBLK
  5
58D7
330
58CC
100
AcDbEntity
  8
0
100
AcDbBlockEnd
  0
BLOCK
  5
58E3
330
58D9
100
AcDbEntity
  8
0
100
AcDbBlockBegin
  2
*D84
 70
     1
 10
0.0
 20
0.0
 30
0.0
  3
*D84
  1

  0
LINE
  5
599F
330
58D9
100
AcDbEntity
  8
寸法
  6
Continuous
 62
     4
100
AcDbLine
 10
-1122.416933591465
 20
-1055.579863003165
 30
0.0
 11
-1111.348465821002
 21
-1055.579863003165
 31
0.0
  0
LINE
  5
59A0
330
58D9
100
AcDbEntity
  8
寸法
  6
Continuous
 62
     4
100
AcDbLine
 10
-1122.416933591465
 20
-1089.579863003165
 30
0.0
 11
-1111.348465821002
 21
-1089.579863003165
 31
0.0
  0
LINE
  5
59A1
330
58D9
100
AcDbEntity
  8
寸法
  6
Continuous
 62
     4
100
AcDbLine
 10
-1111.348465821002
 20
-1056.579863003165
 30
0.0
 11
-1111.348465821002
 21
-1088.579863003165
 31
0.0
  0
INSERT
  5
59A2
330
58D9
100
AcDbEntity
  8
寸法
  6
Continuous
 62
     4
100
AcDbBlockReference
  2
_Dot
 10
-1111.348465821002
 20
-1055.579863003165
 30
0.0
 50
90.0
  0
INSERT
  5
59A3
330
58D9
100
AcDbEntity
  8
寸法
  6
Continuous
 62
     4
100
AcDbBlockReference
  2
_Dot
 10
-1111.348465821002
 20
-1089.579863003165
 30
0.0
 50
270.0
  0
MTEXT
  5
59A4
330
58D9
100
AcDbEntity
  8
寸法
  6
Continuous
 62
     3
100
AcDbMText
 10
-1114.848465821002
 20
-1072.579863003165
 30
0.0
 40
5.0
 41
0.0
 71
     5
 72
     5
  1
\A1;34
  7
ACAD
 11
0.0000000000000001
 21
1.0
 31
0.0
 73
     1
 44
1.0
  0
POINT
  5
59A5
330
58D9
100
AcDbEntity
  8
Defpoints
  6
Continuous
 62
     0
100
AcDbPoint
 10
-1122.416933591465
 20
-1055.579863003165
 30
0.0
  0
POINT
  5
59A6
330
58D9
100
AcDbEntity
  8
Defpoints
  6
Continuous
 62
     0
100
AcDbPoint
 10
-1122.416933591465
 20
-1089.579863003165
 30
0.0
  0
POINT
  5
59A7
330
58D9
100
AcDbEntity
  8
Defpoints
  6
Continuous
 62
     0
100
AcDbPoint
 10
-1111.348465821002
 20
-1089.579863003165
 30
0.0
  0
ENDBLK
  5
58E4
330
58D9
100
AcDbEntity
  8
0
100
AcDbBlockEnd
  0
BLOCK
  5
58F0
330
58E6
100
AcDbEntity
  8
0
100
AcDbBlockBegin
  2
*D85
 70
     1
 10
0.0
 20
0.0
 30
0.0
  3
*D85
  1

  0
LINE
  5
58E7
330
58E6
100
AcDbEntity
  8
寸法
  6
Continuous
 62
     4
370
    -2
100
AcDbLine
 10
-1122.416933591465
 20
-1089.579863003165
 30
0.0
 11
-1090.763601821002
 21
-1089.579863003165
 31
0.0
  0
LINE
  5
58E8
330
58E6
100
AcDbEntity
  8
寸法
  6
Continuous
 62
     4
370
    -2
100
AcDbLine
 10
-1122.416933591465
 20
-1039.579863003165
 30
0.0
 11
-1090.763601821002
 21
-1039.579863003165
 31
0.0
  0
LINE
  5
58E9
330
58E6
100
AcDbEntity
  8
寸法
  6
Continuous
 62
     4
370
    -2
100
AcDbLine
 10
-1090.763601821002
 20
-1088.579863003165
 30
0.0
 11
-1090.763601821002
 21
-1040.579863003165
 31
0.0
  0
INSERT
  5
58EA
330
58E6
100
AcDbEntity
  8
寸法
  6
Continuous
 62
     4
370
    -2
100
AcDbBlockReference
  2
_Dot
 10
-1090.763601821002
 20
-1089.579863003165
 30
0.0
 50
270.0
  0
INSERT
  5
58EB
330
58E6
100
AcDbEntity
  8
寸法
  6
Continuous
 62
     4
370
    -2
100
AcDbBlockReference
  2
_Dot
 10
-1090.763601821002
 20
-1039.579863003165
 30
0.0
 50
90.0
  0
MTEXT
  5
58EC
330
58E6
100
AcDbEntity
  8
寸法
  6
Continuous
 62
     3
100
AcDbMText
 10
-1094.263601821002
 20
-1064.579863003165
 30
0.0
 40
5.0
 41
0.0
 71
     5
 72
     5
  1
\A1;50
  7
ACAD
 11
0.0000000000000001
 21
1.0
 31
0.0
 73
     1
 44
1.0
  0
POINT
  5
58ED
330
58E6
100
AcDbEntity
  8
Defpoints
  6
Continuous
 62
     0
100
AcDbPoint
 10
-1122.416933591465
 20
-1089.579863003165
 30
0.0
  0
POINT
  5
58EE
330
58E6
100
AcDbEntity
  8
Defpoints
  6
Continuous
 62
     0
100
AcDbPoint
 10
-1122.416933591465
 20
-1039.579863003165
 30
0.0
  0
POINT
  5
58EF
330
58E6
100
AcDbEntity
  8
Defpoints
  6
Continuous
 62
     0
100
AcDbPoint
 10
-1090.763601821002
 20
-1039.579863003165
 30
0.0
  0
ENDBLK
  5
58F1
330
58E6
100
AcDbEntity
  8
0
100
AcDbBlockEnd
  0
BLOCK
  5
58FD
330
58F3
100
AcDbEntity
  8
0
100
AcDbBlockBegin
  2
*D86
 70
     1
 10
0.0
 20
0.0
 30
0.0
  3
*D86
  1

  0
LINE
  5
58F4
330
58F3
100
AcDbEntity
  8
寸法
  6
Continuous
 62
     4
370
    -2
100
AcDbLine
 10
-1312.776639821002
 20
-1138.251352628635
 30
0.0
 11
-1312.776639821002
 21
-1153.061652003165
 31
0.0
  0
LINE
  5
58F5
330
58F3
100
AcDbEntity
  8
寸法
  6
Continuous
 62
     4
370
    -2
100
AcDbLine
 10
-1267.776639821002
 20
-1138.251352628635
 30
0.0
 11
-1267.776639821002
 21
-1153.061652003165
 31
0.0
  0
LINE
  5
58F6
330
58F3
100
AcDbEntity
  8
寸法
  6
Continuous
 62
     4
370
    -2
100
AcDbLine
 10
-1311.776639821002
 20
-1153.061652003165
 30
0.0
 11
-1268.776639821002
 21
-1153.061652003165
 31
0.0
  0
INSERT
  5
58F7
330
58F3
100
AcDbEntity
  8
寸法
  6
Continuous
 62
     4
370
    -2
100
AcDbBlockReference
  2
_Dot
 10
-1312.776639821002
 20
-1153.061652003165
 30
0.0
 50
180.0
  0
INSERT
  5
58F8
330
58F3
100
AcDbEntity
  8
寸法
  6
Continuous
 62
     4
370
    -2
100
AcDbBlockReference
  2
_Dot
 10
-1267.776639821002
 20
-1153.061652003165
 30
0.0
  0
MTEXT
  5
58F9
330
58F3
100
AcDbEntity
  8
寸法
  6
Continuous
 62
     3
100
AcDbMText
 10
-1290.276639821002
 20
-1149.561652003165
 30
0.0
 40
5.0
 41
0.0
 71
     5
 72
     5
  1
\A1;45
  7
ACAD
 73
     1
 44
1.0
  0
POINT
  5
58FA
330
58F3
100
AcDbEntity
  8
Defpoints
  6
Continuous
 62
     0
100
AcDbPoint
 10
-1312.776639821002
 20
-1138.251352628635
 30
0.0
  0
POINT
  5
58FB
330
58F3
100
AcDbEntity
  8
Defpoints
  6
Continuous
 62
     0
100
AcDbPoint
 10
-1267.776639821002
 20
-1138.251352628635
 30
0.0
  0
POINT
  5
58FC
330
58F3
100
AcDbEntity
  8
Defpoints
  6
Continuous
 62
     0
100
AcDbPoint
 10
-1267.776639821002
 20
-1153.061652003165
 30
0.0
  0
ENDBLK
  5
58FE
330
58F3
100
AcDbEntity
  8
0
100
AcDbBlockEnd
  0
BLOCK
  5
590A
330
5900
100
AcDbEntity
  8
0
100
AcDbBlockBegin
  2
*D87
 70
     1
 10
0.0
 20
0.0
 30
0.0
  3
*D87
  1

  0
LINE
  5
59A8
330
5900
100
AcDbEntity
  8
寸法
  6
Continuous
 62
     4
100
AcDbLine
 10
-1267.776639821002
 20
-1138.251352628635
 30
0.0
 11
-1267.776639821002
 21
-1153.061652003165
 31
0.0
  0
LINE
  5
59A9
330
5900
100
AcDbEntity
  8
寸法
  6
Continuous
 62
     4
100
AcDbLine
 10
-1222.776639821002
 20
-1138.251352628635
 30
0.0
 11
-1222.776639821002
 21
-1153.061652003165
 31
0.0
  0
LINE
  5
59AA
330
5900
100
AcDbEntity
  8
寸法
  6
Continuous
 62
     4
100
AcDbLine
 10
-1266.776639821002
 20
-1153.061652003165
 30
0.0
 11
-1223.776639821002
 21
-1153.061652003165
 31
0.0
  0
INSERT
  5
59AB
330
5900
100
AcDbEntity
  8
寸法
  6
Continuous
 62
     4
100
AcDbBlockReference
  2
_Dot
 10
-1267.776639821002
 20
-1153.061652003165
 30
0.0
 50
180.0
  0
INSERT
  5
59AC
330
5900
100
AcDbEntity
  8
寸法
  6
Continuous
 62
     4
100
AcDbBlockReference
  2
_Dot
 10
-1222.776639821002
 20
-1153.061652003165
 30
0.0
  0
MTEXT
  5
59AD
330
5900
100
AcDbEntity
  8
寸法
  6
Continuous
 62
     3
100
AcDbMText
 10
-1245.276639821002
 20
-1149.561652003165
 30
0.0
 40
5.0
 41
0.0
 71
     5
 72
     5
  1
\A1;45
  7
ACAD
 73
     1
 44
1.0
  0
POINT
  5
59AE
330
5900
100
AcDbEntity
  8
Defpoints
  6
Continuous
 62
     0
100
AcDbPoint
 10
-1267.776639821002
 20
-1138.251352628635
 30
0.0
  0
POINT
  5
59AF
330
5900
100
AcDbEntity
  8
Defpoints
  6
Continuous
 62
     0
100
AcDbPoint
 10
-1222.776639821002
 20
-1138.251352628635
 30
0.0
  0
POINT
  5
59B0
330
5900
100
AcDbEntity
  8
Defpoints
  6
Continuous
 62
     0
100
AcDbPoint
 10
-1222.776639821002
 20
-1153.061652003165
 30
0.0
  0
ENDBLK
  5
590B
330
5900
100
AcDbEntity
  8
0
100
AcDbBlockEnd
  0
BLOCK
  5
5918
330
590E
100
AcDbEntity
  8
0
100
AcDbBlockBegin
  2
*D88
 70
     1
 10
0.0
 20
0.0
 30
0.0
  3
*D88
  1

  0
LINE
  5
591A
330
590E
100
AcDbEntity
  8
寸法
  6
Continuous
 62
     4
370
    -2
100
AcDbLine
 10
-1365.276639821002
 20
-1154.507830440877
 30
0.0
 11
-1365.276639821002
 21
-1170.109731003165
 31
0.0
  0
LINE
  5
591B
330
590E
100
AcDbEntity
  8
寸法
  6
Continuous
 62
     4
370
    -2
100
AcDbLine
 10
-1380.276639821002
 20
-1154.507830440877
 30
0.0
 11
-1380.276639821002
 21
-1170.109731003165
 31
0.0
  0
LINE
  5
591C
330
590E
100
AcDbEntity
  8
寸法
  6
Continuous
 62
     4
370
    -2
100
AcDbLine
 10
-1364.276639821002
 20
-1170.109731003165
 30
0.0
 11
-1363.276639821002
 21
-1170.109731003165
 31
0.0
  0
LINE
  5
591D
330
590E
100
AcDbEntity
  8
寸法
  6
Continuous
 62
     4
370
    -2
100
AcDbLine
 10
-1381.276639821002
 20
-1170.109731003165
 30
0.0
 11
-1382.276639821002
 21
-1170.109731003165
 31
0.0
  0
INSERT
  5
591E
330
590E
100
AcDbEntity
  8
寸法
  6
Continuous
 62
     4
370
    -2
100
AcDbBlockReference
  2
_Dot
 10
-1365.276639821002
 20
-1170.109731003165
 30
0.0
 50
180.0
  0
INSERT
  5
591F
330
590E
100
AcDbEntity
  8
寸法
  6
Continuous
 62
     4
370
    -2
100
AcDbBlockReference
  2
_Dot
 10
-1380.276639821002
 20
-1170.109731003165
 30
0.0
  0
MTEXT
  5
5920
330
590E
100
AcDbEntity
  8
寸法
  6
Continuous
 62
     3
100
AcDbMText
 10
-1372.776639821002
 20
-1166.609731003165
 30
0.0
 40
5.0
 41
0.0
 71
     5
 72
     5
  1
\A1;15~20
  7
ACAD
 73
     1
 44
1.0
  0
POINT
  5
5921
330
590E
100
AcDbEntity
  8
Defpoints
  6
Continuous
 62
     0
100
AcDbPoint
 10
-1365.276639821002
 20
-1154.507830440877
 30
0.0
  0
POINT
  5
5922
330
590E
100
AcDbEntity
  8
Defpoints
  6
Continuous
 62
     0
100
AcDbPoint
 10
-1380.276639821002
 20
-1154.507830440877
 30
0.0
  0
POINT
  5
5923
330
590E
100
AcDbEntity
  8
Defpoints
  6
Continuous
 62
     0
100
AcDbPoint
 10
-1380.276639821002
 20
-1170.109731003165
 30
0.0
  0
ENDBLK
  5
5919
330
590E
100
AcDbEntity
  8
0
100
AcDbBlockEnd
  0
ENDSEC
  0
SECTION
  2
ENTITIES
  0
ARC
  5
5679
330
1E
100
AcDbEntity
  8
受金具
  6
Continuous
 62
     4
100
AcDbCircle
 10
-1267.776639821002
 20
-1098.022133003165
 30
0.0
 40
25.6578
100
AcDbArc
 50
76.47633199999707
 51
103.5236680000029
  0
LINE
  5
567D
330
1E
100
AcDbEntity
  8
躯体
  6
Continuous
 62
     4
100
AcDbLine
 10
-1355.276639821002
 20
-1091.079863003165
 30
0.0
 11
-1130.276639821002
 21
-1091.079863003165
 31
0.0
  0
LINE
  5
5680
330
1E
100
AcDbEntity
  8
寸法
  6
Continuous
 62
     3
100
AcDbLine
 10
-1267.776639821002
 20
-1030.064178003165
 30
0.0
 11
-1155.276639821002
 21
-1030.064178003165
 31
0.0
  0
LINE
  5
5681
330
1E
100
AcDbEntity
  8
受金具
  6
Continuous
 62
     4
100
AcDbLine
 10
-1265.276639821002
 20
-1077.379863003165
 30
0.0
 11
-1261.776639821002
 21
-1077.379863003165
 31
0.0
  0
LINE
  5
5682
330
1E
100
AcDbEntity
  8
受金具
  6
Continuous
 62
     4
100
AcDbLine
 10
-1223.276639821002
 20
-1085.579863003165
 30
0.0
 11
-1265.276639821002
 21
-1085.579863003165
 31
0.0
  0
ARC
  5
5683
330
1E
100
AcDbEntity
  8
受金具
  6
Continuous
 62
     4
100
AcDbCircle
 10
-1267.776639821002
 20
-1100.379863003165
 30
0.0
 40
25.0
100
AcDbArc
 50
76.11345999999823
 51
88.8652469999935
  0
LINE
  5
5684
330
1E
100
AcDbEntity
  8
笠木
  6
Continuous
 62
     4
100
AcDbLine
 10
-1375.610978821002
 20
-1077.167738003165
 30
0.0
 11
-1156.497193821002
 21
-1067.346001003165
 31
0.0
  0
LINE
  5
5685
330
1E
100
AcDbEntity
  8
笠木
  6
Continuous
 62
     4
100
AcDbLine
 10
-1378.180485821002
 20
-1075.483709003165
 30
0.0
 11
-1157.276639821002
 21
-1065.579863003165
 31
0.0
  0
LINE
  5
5686
330
1E
100
AcDbEntity
  8
受金具
  6
Continuous
 62
     4
100
AcDbLine
 10
-1185.831339821002
 20
-1089.579863003165
 30
0.0
 11
-1267.276639821002
 21
-1089.579863003165
 31
0.0
  0
LINE
  5
5687
330
1E
100
AcDbEntity
  8
受金具
  6
Continuous
 62
     3
100
AcDbLine
 10
-1263.552604821002
 20
-1075.739296003165
 30
0.0
 11
-1261.776639821002
 21
-1073.963331003165
 31
0.0
  0
LINE
  5
5688
330
1E
100
AcDbEntity
  8
受金具
  6
Continuous
 62
     3
100
AcDbLine
 10
-1264.162846821002
 20
-1075.642432003165
 30
0.0
 11
-1261.776639821002
 21
-1073.256224003165
 31
0.0
  0
LINE
  5
5689
330
1E
100
AcDbEntity
  8
受金具
  6
Continuous
 62
     3
100
AcDbLine
 10
-1262.204268821002
 20
-1072.976746003165
 30
0.0
 11
-1264.786810821002
 21
-1075.559288003165
 31
0.0
  0
LINE
  5
568A
330
1E
100
AcDbEntity
  8
受金具
  6
Continuous
 62
     3
100
AcDbLine
 10
-1262.788503821002
 20
-1072.853875003165
 30
0.0
 11
-1265.425311821002
 21
-1075.490683003165
 31
0.0
  0
LINE
  5
568B
330
1E
100
AcDbEntity
  8
受金具
  6
Continuous
 62
     3
100
AcDbLine
 10
-1263.384746821002
 20
-1072.743011003165
 30
0.0
 11
-1266.079285821002
 21
-1075.437550003165
 31
0.0
  0
LINE
  5
568D
330
1E
100
AcDbEntity
  8
受金具
  6
PLINE2
 62
     3
100
AcDbLine
 10
-1317.732168821002
 20
-1104.380241003165
 30
0.0
 11
-1318.649969821002
 21
-1098.873438003165
 31
0.0
  0
LINE
  5
568E
330
1E
100
AcDbEntity
  8
受金具
  6
PLINE2
 62
     3
100
AcDbLine
 10
-1318.745962821002
 20
-1104.380241003165
 30
0.0
 11
-1319.636363821002
 21
-1099.037837003165
 31
0.0
  0
LINE
  5
568F
330
1E
100
AcDbEntity
  8
受金具
  6
PLINE2
 62
     3
100
AcDbLine
 10
-1306.656648821002
 20
-1104.380241003165
 30
0.0
 11
-1305.766248821002
 21
-1099.037837003165
 31
0.0
  0
LINE
  5
5690
330
1E
100
AcDbEntity
  8
受金具
  6
PLINE2
 62
     3
100
AcDbLine
 10
-1307.670442821002
 20
-1104.380241003165
 30
0.0
 11
-1306.752642821002
 21
-1098.873438003165
 31
0.0
  0
LINE
  5
5691
330
1E
100
AcDbEntity
  8
躯体
  6
Continuous
 62
     4
100
AcDbLine
 10
-1363.776639821002
 20
-1202.079863003165
 30
0.0
 11
-1363.776639821002
 21
-1098.966445003165
 31
0.0
  0
LINE
  5
5692
330
1E
100
AcDbEntity
  8
寸法
  6
Continuous
 62
     3
100
AcDbLine
 10
-1312.776639821002
 20
-1079.624445003165
 30
0.0
 11
-1312.776639821002
 21
-1154.061652003165
 31
0.0
  0
LINE
  5
5694
330
1E
100
AcDbEntity
  8
躯体
  6
Continuous
 62
     4
100
AcDbLine
 10
-1365.276639821002
 20
-1202.079863003165
 30
0.0
 11
-1365.276639821002
 21
-1098.311368003165
 31
0.0
  0
LINE
  5
5695
330
1E
100
AcDbEntity
  8
笠木
  6
Continuous
 62
     4
100
AcDbLine
 10
-1380.276639821002
 20
-1135.079863003165
 30
0.0
 11
-1380.276639821002
 21
-1077.579863003165
 31
0.0
  0
LINE
  5
5696
330
1E
100
AcDbEntity
  8
寸法
  6
Continuous
 62
     3
100
AcDbLine
 10
-1267.776639821002
 20
-1152.061652003165
 30
0.0
 11
-1267.776639821002
 21
-1029.064178003165
 31
0.0
  0
LINE
  5
5697
330
1E
100
AcDbEntity
  8
受金具
  6
Continuous
 62
     4
100
AcDbLine
 10
-1378.476639821002
 20
-1120.579863003165
 30
0.0
 11
-1372.280523821002
 21
-1089.599282003165
 31
0.0
  0
LINE
  5
5698
330
1E
100
AcDbEntity
  8
受金具
  6
Continuous
 62
     4
100
AcDbLine
 10
-1375.870883821002
 20
-1125.397651003165
 30
0.0
 11
-1369.109267821002
 21
-1091.589572003165
 31
0.0
  0
LINE
  5
5699
330
1E
100
AcDbEntity
  8
笠木
  6
Continuous
 62
     4
100
AcDbLine
 10
-1378.476639821002
 20
-1125.579863003165
 30
0.0
 11
-1378.476639821002
 21
-1080.164728003165
 31
0.0
  0
LINE
  5
569A
330
1E
100
AcDbEntity
  8
受金具
  6
PLINE2
 62
     3
100
AcDbLine
 10
-1314.899053821003
 20
-1128.537378003165
 30
0.0
 11
-1313.276639821002
 21
-1097.579863003165
 31
0.0
  0
LINE
  5
569B
330
1E
100
AcDbEntity
  8
受金具
  6
PLINE2
 62
     3
100
AcDbLine
 10
-1315.036263821002
 20
-1102.494507003165
 30
0.0
 11
-1315.140935821002
 21
-1104.491766003165
 31
0.0
  0
LINE
  5
569C
330
1E
100
AcDbEntity
  8
受金具
  6
PLINE2
 62
     3
100
AcDbLine
 10
-1310.654224821002
 20
-1128.537378003165
 30
0.0
 11
-1312.276639821002
 21
-1097.579863003165
 31
0.0
  0
LINE
  5
569D
330
1E
100
AcDbEntity
  8
受金具
  6
PLINE2
 62
     3
100
AcDbLine
 10
-1310.517015821002
 20
-1102.494507003165
 30
0.0
 11
-1310.412343821002
 21
-1104.491766003165
 31
0.0
  0
LINE
  5
56A3
330
1E
100
AcDbEntity
  8
躯体
  6
Continuous
 62
     3
100
AcDbLine
 10
-1273.509728821002
 20
-1202.079863003165
 30
0.0
 11
-1363.776639821002
 21
-1111.812952003165
 31
0.0
  0
LINE
  5
56A4
330
1E
100
AcDbEntity
  8
躯体
  6
Continuous
 62
     3
100
AcDbLine
 10
-1363.776639821002
 20
-1114.641379003165
 30
0.0
 11
-1276.338155821002
 21
-1202.079863003165
 31
0.0
  0
LINE
  5
56A5
330
1E
100
AcDbEntity
  8
躯体
  6
Continuous
 62
     3
100
AcDbLine
 10
-1279.166582821003
 20
-1202.079863003165
 30
0.0
 11
-1363.776639821002
 21
-1117.469806003165
 31
0.0
  0
LINE
  5
56AC
330
1E
100
AcDbEntity
  8
受金具
  6
Continuous
 62
     4
100
AcDbLine
 10
-1378.476639821002
 20
-1120.579863003165
 30
0.0
 11
-1378.476639821002
 21
-1125.043678003165
 31
0.0
  0
LINE
  5
56AD
330
1E
100
AcDbEntity
  8
笠木
  6
Continuous
 62
     4
100
AcDbLine
 10
-1378.476639821002
 20
-1128.579863003165
 30
0.0
 11
-1378.476639821002
 21
-1135.079863003165
 31
0.0
  0
ARC
  5
56AE
330
1E
100
AcDbEntity
  8
笠木
  6
Continuous
 62
     4
100
AcDbCircle
 10
-1379.776639821002
 20
-1135.079863003165
 30
0.0
 40
0.5
100
AcDbArc
 50
180.0
 51
270.0
  0
LINE
  5
56AF
330
1E
100
AcDbEntity
  8
笠木
  6
Continuous
 62
     4
100
AcDbLine
 10
-1378.976639821002
 20
-1135.579863003165
 30
0.0
 11
-1379.776639821002
 21
-1135.579863003165
 31
0.0
  0
ARC
  5
56B0
330
1E
100
AcDbEntity
  8
笠木
  6
Continuous
 62
     4
100
AcDbCircle
 10
-1378.976639821002
 20
-1135.079863003165
 30
0.0
 40
0.5
100
AcDbArc
 50
270.0
 51
0.0
  0
LINE
  5
56B1
330
1E
100
AcDbEntity
  8
笠木
  6
Continuous
 62
     4
100
AcDbLine
 10
-1375.519570821002
 20
-1127.633817003165
 30
0.0
 11
-1378.476639821002
 21
-1128.579863003165
 31
0.0
  0
LINE
  5
56B2
330
1E
100
AcDbEntity
  8
笠木
  6
Continuous
 62
     4
100
AcDbLine
 10
-1378.476639821002
 20
-1125.579863003165
 30
0.0
 11
-1375.011517821002
 21
-1125.337558003165
 31
0.0
  0
LINE
  5
56B3
330
1E
100
AcDbEntity
  8
受金具
  6
Continuous
 62
     4
100
AcDbLine
 10
-1377.941760821002
 20
-1125.542460003165
 30
0.0
 11
-1375.870883821002
 21
-1125.397651003165
 31
0.0
  0
ARC
  5
56B4
330
1E
100
AcDbEntity
  8
受金具
  6
Continuous
 62
     4
100
AcDbCircle
 10
-1377.976639821002
 20
-1125.043678003165
 30
0.0
 40
0.5
100
AcDbArc
 50
180.0
 51
273.9999999999964
  0
ARC
  5
56B5
330
1E
100
AcDbEntity
  8
笠木
  6
Continuous
 62
     4
100
AcDbCircle
 10
-1375.976639821002
 20
-1126.205151003165
 30
0.0
 40
1.5
100
AcDbArc
 50
287.7408680000005
 51
0.0
  0
LINE
  5
56B6
330
1E
100
AcDbEntity
  8
笠木
  6
Continuous
 62
     4
100
AcDbLine
 10
-1374.476639821002
 20
-1125.836340003165
 30
0.0
 11
-1374.476639821002
 21
-1126.205151003165
 31
0.0
  0
ARC
  5
56B7
330
1E
100
AcDbEntity
  8
笠木
  6
Continuous
 62
     4
100
AcDbCircle
 10
-1374.976639821002
 20
-1125.836340003165
 30
0.0
 40
0.5
100
AcDbArc
 50
0.0
 51
93.9999999999965
  0
LINE
  5
56BD
330
1E
100
AcDbEntity
  8
受金具
  6
PLINE2
 62
     3
100
AcDbLine
 10
-1316.082982821002
 20
-1122.467097003165
 30
0.0
 11
-1316.187654821002
 21
-1124.464356003165
 31
0.0
  0
LINE
  5
56BE
330
1E
100
AcDbEntity
  8
受金具
  6
PLINE2
 62
     3
100
AcDbLine
 10
-1312.835945821002
 20
-1125.520557003165
 30
0.0
 11
-1310.902243821002
 21
-1123.804886003165
 31
0.0
  0
LINE
  5
56BF
330
1E
100
AcDbEntity
  8
受金具
  6
PLINE2
 62
     3
100
AcDbLine
 10
-1314.646083821003
 20
-1123.710418003165
 30
0.0
 11
-1312.776639821002
 21
-1125.579863003165
 31
0.0
  0
LINE
  5
56C0
330
1E
100
AcDbEntity
  8
受金具
  6
PLINE2
 62
     3
100
AcDbLine
 10
-1309.470295821002
 20
-1122.467097003165
 30
0.0
 11
-1309.365624821002
 21
-1124.464356003165
 31
0.0
  0
LINE
  5
56C1
330
1E
100
AcDbEntity
  8
受金具
  6
PLINE2
 62
     3
100
AcDbLine
 10
-1309.365624821002
 20
-1124.464356003165
 30
0.0
 11
-1307.368364821002
 21
-1124.359684003165
 31
0.0
  0
LINE
  5
56C2
330
1E
100
AcDbEntity
  8
受金具
  6
PLINE2
 62
     3
100
AcDbLine
 10
-1307.263693821002
 20
-1126.356943003165
 30
0.0
 11
-1309.156280821002
 21
-1128.458874003165
 31
0.0
  0
LINE
  5
56C3
330
1E
100
AcDbEntity
  8
受金具
  6
PLINE2
 62
     3
100
AcDbLine
 10
-1310.758896821002
 20
-1126.540119003165
 30
0.0
 11
-1307.263693821002
 21
-1126.356943003165
 31
0.0
  0
LINE
  5
56C4
330
1E
100
AcDbEntity
  8
受金具
  6
PLINE2
 62
     3
100
AcDbLine
 10
-1316.187654821002
 20
-1124.464356003165
 30
0.0
 11
-1318.184913821002
 21
-1124.359684003165
 31
0.0
  0
LINE
  5
56C5
330
1E
100
AcDbEntity
  8
受金具
  6
PLINE2
 62
     3
100
AcDbLine
 10
-1318.289585821002
 20
-1126.356943003165
 30
0.0
 11
-1316.396998821002
 21
-1128.458874003165
 31
0.0
  0
LINE
  5
56C6
330
1E
100
AcDbEntity
  8
受金具
  6
PLINE2
 62
     3
100
AcDbLine
 10
-1314.794381821002
 20
-1126.540119003165
 30
0.0
 11
-1318.289585821002
 21
-1126.356943003165
 31
0.0
  0
LINE
  5
56C7
330
1E
100
AcDbEntity
  8
受金具
  6
PLINE2
 62
     3
100
AcDbLine
 10
-1318.184913821002
 20
-1124.359684003165
 30
0.0
 11
-1318.289585821002
 21
-1126.356943003165
 31
0.0
  0
LINE
  5
56C8
330
1E
100
AcDbEntity
  8
受金具
  6
PLINE2
 62
     3
100
AcDbLine
 10
-1316.396998821002
 20
-1128.458874003165
 30
0.0
 11
-1314.899053821003
 21
-1128.537378003165
 31
0.0
  0
LINE
  5
56C9
330
1E
100
AcDbEntity
  8
受金具
  6
PLINE2
 62
     3
100
AcDbLine
 10
-1309.156280821002
 20
-1128.458874003165
 30
0.0
 11
-1310.654224821002
 21
-1128.537378003165
 31
0.0
  0
LINE
  5
56CA
330
1E
100
AcDbEntity
  8
受金具
  6
PLINE2
 62
     3
100
AcDbLine
 10
-1307.368364821002
 20
-1124.359684003165
 30
0.0
 11
-1307.263693821002
 21
-1126.356943003165
 31
0.0
  0
LINE
  5
56CB
330
1E
100
AcDbEntity
  8
受金具
  6
PLINE2
 62
     3
100
AcDbLine
 10
-1309.216123821002
 20
-1109.435936003165
 30
0.0
 11
-1307.670442821002
 21
-1104.380241003165
 31
0.0
  0
LINE
  5
56CC
330
1E
100
AcDbEntity
  8
受金具
  6
PLINE2
 62
     3
100
AcDbLine
 10
-1307.525372821002
 20
-1121.363796003165
 30
0.0
 11
-1309.470295821002
 21
-1122.467097003165
 31
0.0
  0
LINE
  5
56CD
330
1E
100
AcDbEntity
  8
受金具
  6
PLINE2
 62
     3
100
AcDbLine
 10
-1309.627303821002
 20
-1119.471209003165
 30
0.0
 11
-1307.630044821002
 21
-1119.366537003165
 31
0.0
  0
LINE
  5
56CE
330
1E
100
AcDbEntity
  8
受金具
  6
PLINE2
 62
     3
100
AcDbLine
 10
-1307.787052821002
 20
-1116.370648003165
 30
0.0
 11
-1309.731975821002
 21
-1117.473950003165
 31
0.0
  0
LINE
  5
56CF
330
1E
100
AcDbEntity
  8
受金具
  6
PLINE2
 62
     3
100
AcDbLine
 10
-1309.888983821002
 20
-1114.478061003165
 30
0.0
 11
-1307.891724821002
 21
-1114.373389003165
 31
0.0
  0
LINE
  5
56D0
330
1E
100
AcDbEntity
  8
受金具
  6
PLINE2
 62
     3
100
AcDbLine
 10
-1308.048732821002
 20
-1111.377500003165
 30
0.0
 11
-1309.993655821002
 21
-1112.480802003165
 31
0.0
  0
LINE
  5
56D1
330
1E
100
AcDbEntity
  8
受金具
  6
PLINE2
 62
     3
100
AcDbLine
 10
-1310.150663821002
 20
-1109.484913003165
 30
0.0
 11
-1308.153404821002
 21
-1109.380241003165
 31
0.0
  0
LINE
  5
56D2
330
1E
100
AcDbEntity
  8
受金具
  6
PLINE2
 62
     3
100
AcDbLine
 10
-1308.310412821002
 20
-1106.384353003165
 30
0.0
 11
-1310.255335821002
 21
-1107.487654003165
 31
0.0
  0
LINE
  5
56D3
330
1E
100
AcDbEntity
  8
受金具
  6
PLINE2
 62
     3
100
AcDbLine
 10
-1310.412343821002
 20
-1104.491766003165
 30
0.0
 11
-1308.415084821002
 21
-1104.387094003165
 31
0.0
  0
LINE
  5
56D4
330
1E
100
AcDbEntity
  8
受金具
  6
PLINE2
 62
     3
100
AcDbLine
 10
-1315.559622821002
 20
-1112.480802003165
 30
0.0
 11
-1315.664294821002
 21
-1114.478061003165
 31
0.0
  0
LINE
  5
56D5
330
1E
100
AcDbEntity
  8
受金具
  6
PLINE2
 62
     3
100
AcDbLine
 10
-1309.993655821002
 20
-1112.480802003165
 30
0.0
 11
-1309.888983821002
 21
-1114.478061003165
 31
0.0
  0
LINE
  5
56D6
330
1E
100
AcDbEntity
  8
受金具
  6
PLINE2
 62
     3
100
AcDbLine
 10
-1318.027905821002
 20
-1121.363796003165
 30
0.0
 11
-1316.082982821002
 21
-1122.467097003165
 31
0.0
  0
LINE
  5
56D7
330
1E
100
AcDbEntity
  8
受金具
  6
PLINE2
 62
     3
100
AcDbLine
 10
-1315.925974821002
 20
-1119.471209003165
 30
0.0
 11
-1317.923233821002
 21
-1119.366537003165
 31
0.0
  0
LINE
  5
56D8
330
1E
100
AcDbEntity
  8
受金具
  6
PLINE2
 62
     3
100
AcDbLine
 10
-1317.766225821002
 20
-1116.370648003165
 30
0.0
 11
-1315.821302821002
 21
-1117.473950003165
 31
0.0
  0
LINE
  5
56D9
330
1E
100
AcDbEntity
  8
受金具
  6
PLINE2
 62
     3
100
AcDbLine
 10
-1315.664294821002
 20
-1114.478061003165
 30
0.0
 11
-1317.661553821002
 21
-1114.373389003165
 31
0.0
  0
LINE
  5
56DA
330
1E
100
AcDbEntity
  8
受金具
  6
PLINE2
 62
     3
100
AcDbLine
 10
-1317.923233821002
 20
-1119.366537003165
 30
0.0
 11
-1318.027905821002
 21
-1121.363796003165
 31
0.0
  0
LINE
  5
56DB
330
1E
100
AcDbEntity
  8
受金具
  6
PLINE2
 62
     3
100
AcDbLine
 10
-1317.661553821002
 20
-1114.373389003165
 30
0.0
 11
-1317.766225821002
 21
-1116.370648003165
 31
0.0
  0
LINE
  5
56DC
330
1E
100
AcDbEntity
  8
受金具
  6
PLINE2
 62
     3
100
AcDbLine
 10
-1315.821302821002
 20
-1117.473950003165
 30
0.0
 11
-1315.925974821002
 21
-1119.471209003165
 31
0.0
  0
LINE
  5
56DD
330
1E
100
AcDbEntity
  8
受金具
  6
PLINE2
 62
     3
100
AcDbLine
 10
-1309.731975821002
 20
-1117.473950003165
 30
0.0
 11
-1309.627303821002
 21
-1119.471209003165
 31
0.0
  0
LINE
  5
56DE
330
1E
100
AcDbEntity
  8
受金具
  6
PLINE2
 62
     3
100
AcDbLine
 10
-1316.186487821002
 20
-1109.435936003165
 30
0.0
 11
-1317.732168821002
 21
-1104.380241003165
 31
0.0
  0
LINE
  5
56DF
330
1E
100
AcDbEntity
  8
受金具
  6
PLINE2
 62
     3
100
AcDbLine
 10
-1317.504545821002
 20
-1111.377500003165
 30
0.0
 11
-1315.559622821002
 21
-1112.480802003165
 31
0.0
  0
LINE
  5
56E0
330
1E
100
AcDbEntity
  8
受金具
  6
PLINE2
 62
     3
100
AcDbLine
 10
-1315.402614821002
 20
-1109.484913003165
 30
0.0
 11
-1317.399873821002
 21
-1109.380241003165
 31
0.0
  0
LINE
  5
56E1
330
1E
100
AcDbEntity
  8
受金具
  6
PLINE2
 62
     3
100
AcDbLine
 10
-1317.242866821002
 20
-1106.384353003165
 30
0.0
 11
-1315.297943821002
 21
-1107.487654003165
 31
0.0
  0
LINE
  5
56E2
330
1E
100
AcDbEntity
  8
受金具
  6
PLINE2
 62
     3
100
AcDbLine
 10
-1315.140935821002
 20
-1104.491766003165
 30
0.0
 11
-1317.138194821002
 21
-1104.387094003165
 31
0.0
  0
LINE
  5
56E3
330
1E
100
AcDbEntity
  8
受金具
  6
PLINE2
 62
     3
100
AcDbLine
 10
-1317.249206821002
 20
-1109.380241003165
 30
0.0
 11
-1318.745962821002
 21
-1104.380241003165
 31
0.0
  0
LINE
  5
56E4
330
1E
100
AcDbEntity
  8
受金具
  6
PLINE2
 62
     3
100
AcDbLine
 10
-1317.399873821002
 20
-1109.380241003165
 30
0.0
 11
-1317.504545821002
 21
-1111.377500003165
 31
0.0
  0
LINE
  5
56E5
330
1E
100
AcDbEntity
  8
受金具
  6
PLINE2
 62
     3
100
AcDbLine
 10
-1317.138194821002
 20
-1104.387094003165
 30
0.0
 11
-1317.242866821002
 21
-1106.384353003165
 31
0.0
  0
LINE
  5
56E6
330
1E
100
AcDbEntity
  8
受金具
  6
PLINE2
 62
     3
100
AcDbLine
 10
-1315.297943821002
 20
-1107.487654003165
 30
0.0
 11
-1315.402614821002
 21
-1109.484913003165
 31
0.0
  0
LINE
  5
56E7
330
1E
100
AcDbEntity
  8
受金具
  6
PLINE2
 62
     3
100
AcDbLine
 10
-1310.255335821002
 20
-1107.487654003165
 30
0.0
 11
-1310.150663821002
 21
-1109.484913003165
 31
0.0
  0
LINE
  5
56E8
330
1E
100
AcDbEntity
  8
受金具
  6
PLINE2
 62
     3
100
AcDbLine
 10
-1307.630044821002
 20
-1119.366537003165
 30
0.0
 11
-1307.525372821002
 21
-1121.363796003165
 31
0.0
  0
LINE
  5
56E9
330
1E
100
AcDbEntity
  8
受金具
  6
PLINE2
 62
     3
100
AcDbLine
 10
-1307.891724821002
 20
-1114.373389003165
 30
0.0
 11
-1307.787052821002
 21
-1116.370648003165
 31
0.0
  0
LINE
  5
56EA
330
1E
100
AcDbEntity
  8
受金具
  6
PLINE2
 62
     3
100
AcDbLine
 10
-1308.153404821002
 20
-1109.380241003165
 30
0.0
 11
-1306.656648821002
 21
-1104.380241003165
 31
0.0
  0
LINE
  5
56EB
330
1E
100
AcDbEntity
  8
受金具
  6
PLINE2
 62
     3
100
AcDbLine
 10
-1308.153404821002
 20
-1109.380241003165
 30
0.0
 11
-1308.048732821002
 21
-1111.377500003165
 31
0.0
  0
LINE
  5
56EC
330
1E
100
AcDbEntity
  8
受金具
  6
PLINE2
 62
     3
100
AcDbLine
 10
-1308.415084821002
 20
-1104.387094003165
 30
0.0
 11
-1308.310412821002
 21
-1106.384353003165
 31
0.0
  0
LINE
  5
56FA
330
1E
100
AcDbEntity
  8
受金具
  6
Continuous
 62
     4
100
AcDbLine
 10
-1313.276639821002
 20
-1085.579863003165
 30
0.0
 11
-1345.976639821002
 21
-1085.579863003165
 31
0.0
  0
LINE
  5
56FB
330
1E
100
AcDbEntity
  8
受金具
  6
Continuous
 62
     4
100
AcDbLine
 10
-1366.657815821002
 20
-1089.579863003165
 30
0.0
 11
-1268.276639821002
 21
-1089.579863003165
 31
0.0
  0
LINE
  5
56FC
330
1E
100
AcDbEntity
  8
受金具
  6
Continuous
 62
     3
100
AcDbLine
 10
-1325.276639821002
 20
-1084.579863003165
 30
0.0
 11
-1300.276639821002
 21
-1084.579863003165
 31
0.0
  0
LINE
  5
56FD
330
1E
100
AcDbEntity
  8
受金具
  6
Continuous
 62
     4
100
AcDbLine
 10
-1367.377619821002
 20
-1085.579863003165
 30
0.0
 11
-1350.976639821002
 21
-1085.579863003165
 31
0.0
  0
ARC
  5
56FE
330
1E
100
AcDbEntity
  8
受金具
  6
Continuous
 62
     4
100
AcDbCircle
 10
-1367.377619821002
 20
-1090.579863003165
 30
0.0
 40
5.0
100
AcDbArc
 50
90.0
 51
168.690068000003
  0
LINE
  5
56FF
330
1E
100
AcDbEntity
  8
躯体
  6
Continuous
 62
     4
100
AcDbLine
 10
-1363.776639821002
 20
-1098.966445003165
 30
0.0
 11
-1355.276639821002
 21
-1091.079863003165
 31
0.0
  0
LINE
  5
5700
330
1E
100
AcDbEntity
  8
躯体
  6
Continuous
 62
     4
100
AcDbLine
 10
-1365.276639821002
 20
-1098.311368003165
 30
0.0
 11
-1355.852918821002
 21
-1089.579863003165
 31
0.0
  0
ARC
  5
5701
330
1E
100
AcDbEntity
  8
受金具
  6
Continuous
 62
     4
100
AcDbCircle
 10
-1366.657815821002
 20
-1092.079863003165
 30
0.0
 40
2.5
100
AcDbArc
 50
90.0
 51
168.690068000003
  0
ARC
  5
5702
330
1E
100
AcDbEntity
  8
笠木
  6
Continuous
 62
     4
100
AcDbCircle
 10
-1375.476639821002
 20
-1080.164728003165
 30
0.0
 40
3.0
100
AcDbArc
 50
92.5665549999946
 51
180.0
  0
LINE
  5
5703
330
1E
100
AcDbEntity
  8
笠木
  6
Continuous
 62
     4
100
AcDbLine
 10
-1380.276639821002
 20
-1077.579863003165
 30
0.0
 11
-1378.180485821002
 21
-1075.483709003165
 31
0.0
  0
LINE
  5
5704
330
1E
100
AcDbEntity
  8
寸法
  6
PLINE3
 62
     3
100
AcDbLine
 10
-1348.476639821002
 20
-1070.476395003165
 30
0.0
 11
-1348.476639821002
 21
-1095.486026003165
 31
0.0
  0
LINE
  5
5705
330
1E
100
AcDbEntity
  8
受金具
  6
Continuous
 62
     4
100
AcDbLine
 10
-1349.976639821002
 20
-1084.579863003165
 30
0.0
 11
-1349.976639821002
 21
-1081.564687003165
 31
0.0
  0
LINE
  5
5706
330
1E
100
AcDbEntity
  8
受金具
  6
Continuous
 62
     4
100
AcDbLine
 10
-1346.976639821002
 20
-1084.579863003165
 30
0.0
 11
-1346.976639821002
 21
-1081.564687003165
 31
0.0
  0
ARC
  5
5707
330
1E
100
AcDbEntity
  8
受金具
  6
Continuous
 62
     4
100
AcDbCircle
 10
-1350.976639821002
 20
-1084.579863003165
 30
0.0
 40
1.0
100
AcDbArc
 50
270.0
 51
0.0
  0
ARC
  5
5708
330
1E
100
AcDbEntity
  8
受金具
  6
Continuous
 62
     4
100
AcDbCircle
 10
-1345.976639821002
 20
-1084.579863003165
 30
0.0
 40
1.0
100
AcDbArc
 50
180.0
 51
270.0
  0
LINE
  5
5709
330
1E
100
AcDbEntity
  8
受金具
  6
Continuous
 62
     3
100
AcDbLine
 10
-1325.276639821002
 20
-1085.579863003165
 30
0.0
 11
-1325.276639821002
 21
-1084.579863003165
 31
0.0
  0
ARC
  5
570A
330
1E
100
AcDbEntity
  8
受金具
  6
Continuous
 62
     4
100
AcDbCircle
 10
-1348.476639821002
 20
-1101.885612087176
 30
0.0
 40
25.9341660817321
100
AcDbArc
 50
76.62313804294455
 51
103.3768619570554
  0
ARC
  5
570B
330
1E
100
AcDbEntity
  8
受金具
  6
Continuous
 62
     4
100
AcDbCircle
 10
-1348.476639821002
 20
-1103.564687003165
 30
0.0
 40
25.0
100
AcDbArc
 50
76.11345999999823
 51
103.8865400000017
  0
LINE
  5
570C
330
1E
100
AcDbEntity
  8
受金具
  6
Continuous
 62
     3
100
AcDbLine
 10
-1344.932114821002
 20
-1076.194810003165
 30
0.0
 11
-1347.328376821002
 21
-1078.591071003165
 31
0.0
  0
LINE
  5
570D
330
1E
100
AcDbEntity
  8
受金具
  6
Continuous
 62
     3
100
AcDbLine
 10
-1345.560347821002
 20
-1076.115936003165
 30
0.0
 11
-1348.013391821002
 21
-1078.568979003165
 31
0.0
  0
LINE
  5
570E
330
1E
100
AcDbEntity
  8
受金具
  6
Continuous
 62
     3
100
AcDbLine
 10
-1346.202835821002
 20
-1076.051317003165
 30
0.0
 11
-1348.717364821002
 21
-1078.565846003165
 31
0.0
  0
LINE
  5
570F
330
1E
100
AcDbEntity
  8
受金具
  6
Continuous
 62
     3
100
AcDbLine
 10
-1346.860478821002
 20
-1076.001853003165
 30
0.0
 11
-1349.441956821002
 21
-1078.583331003165
 31
0.0
  0
LINE
  5
5710
330
1E
100
AcDbEntity
  8
受金具
  6
Continuous
 62
     3
100
AcDbLine
 10
-1347.534304821002
 20
-1075.968572003165
 30
0.0
 11
-1350.189141821002
 21
-1078.623409003165
 31
0.0
  0
LINE
  5
5711
330
1E
100
AcDbEntity
  8
受金具
  6
Continuous
 62
     3
100
AcDbLine
 10
-1348.225501821002
 20
-1075.952662003165
 30
0.0
 11
-1350.961303821002
 21
-1078.688464003165
 31
0.0
  0
LINE
  5
5712
330
1E
100
AcDbEntity
  8
受金具
  6
Continuous
 62
     3
100
AcDbLine
 10
-1348.935450821002
 20
-1075.955505003165
 30
0.0
 11
-1351.761360821002
 21
-1078.781414003165
 31
0.0
  0
LINE
  5
5713
330
1E
100
AcDbEntity
  8
受金具
  6
Continuous
 62
     3
100
AcDbLine
 10
-1349.665775821002
 20
-1075.978722003165
 30
0.0
 11
-1352.592948821002
 21
-1078.905895003165
 31
0.0
  0
LINE
  5
5714
330
1E
100
AcDbEntity
  8
受金具
  6
Continuous
 62
     3
100
AcDbLine
 10
-1350.418399821002
 20
-1076.024240003165
 30
0.0
 11
-1353.460701821002
 21
-1079.066541003165
 31
0.0
  0
LINE
  5
5715
330
1E
100
AcDbEntity
  8
受金具
  6
Continuous
 62
     3
100
AcDbLine
 10
-1352.835928821002
 20
-1076.320449003165
 30
0.0
 11
-1354.476639821002
 21
-1077.961159003165
 31
0.0
  0
LINE
  5
5716
330
1E
100
AcDbEntity
  8
受金具
  6
Continuous
 62
     3
100
AcDbLine
 10
-1352.000315821002
 20
-1076.191942003165
 30
0.0
 11
-1354.476639821002
 21
-1078.668266003165
 31
0.0
  0
LINE
  5
5717
330
1E
100
AcDbEntity
  8
受金具
  6
Continuous
 62
     3
100
AcDbLine
 10
-1351.195639821002
 20
-1076.094373003165
 30
0.0
 11
-1354.370680821002
 21
-1079.269414003165
 31
0.0
  0
LINE
  5
5718
330
1E
100
AcDbEntity
  8
受金具
  6
Continuous
 62
     4
100
AcDbLine
 10
-1350.976639821002
 20
-1080.564687003165
 30
0.0
 11
-1354.476639821002
 21
-1080.564687003165
 31
0.0
  0
LINE
  5
5719
330
1E
100
AcDbEntity
  8
受金具
  6
Continuous
 62
     4
100
AcDbLine
 10
-1354.476639821002
 20
-1079.295365003165
 30
0.0
 11
-1354.476639821002
 21
-1076.655056003165
 31
0.0
  0
LINE
  5
571A
330
1E
100
AcDbEntity
  8
受金具
  6
Continuous
 62
     4
100
AcDbLine
 10
-1354.476639821002
 20
-1080.564687003165
 30
0.0
 11
-1354.476639821002
 21
-1079.295365003165
 31
0.0
  0
LINE
  5
571B
330
1E
100
AcDbEntity
  8
受金具
  6
Continuous
 62
     3
100
AcDbLine
 10
-1353.706915821002
 20
-1076.484329003165
 30
0.0
 11
-1354.476639821002
 21
-1077.254052003165
 31
0.0
  0
ARC
  5
571C
330
1E
100
AcDbEntity
  8
受金具
  6
Continuous
 62
     4
100
AcDbCircle
 10
-1350.976639821002
 20
-1081.564687003165
 30
0.0
 40
1.0
100
AcDbArc
 50
0.0
 51
90.0
  0
LINE
  5
571D
330
1E
100
AcDbEntity
  8
受金具
  6
Continuous
 62
     3
100
AcDbLine
 10
-1343.715349821002
 20
-1076.392258003165
 30
0.0
 11
-1346.009783821002
 21
-1078.686692003165
 31
0.0
  0
LINE
  5
571E
330
1E
100
AcDbEntity
  8
受金具
  6
Continuous
 62
     3
100
AcDbLine
 10
-1344.317348821002
 20
-1076.287150003165
 30
0.0
 11
-1346.660910821002
 21
-1078.630711003165
 31
0.0
  0
LINE
  5
571F
330
1E
100
AcDbEntity
  8
受金具
  6
Continuous
 62
     4
100
AcDbLine
 10
-1345.976639821002
 20
-1080.564687003165
 30
0.0
 11
-1342.476639821002
 21
-1080.564687003165
 31
0.0
  0
LINE
  5
5720
330
1E
100
AcDbEntity
  8
受金具
  6
Continuous
 62
     3
100
AcDbLine
 10
-1343.549661821002
 20
-1079.054997003165
 30
0.0
 11
-1342.476639821002
 21
-1077.981974003165
 31
0.0
  0
LINE
  5
5721
330
1E
100
AcDbEntity
  8
受金具
  6
Continuous
 62
     3
100
AcDbLine
 10
-1344.144642821002
 20
-1078.942871003165
 30
0.0
 11
-1342.476639821002
 21
-1077.274868003165
 31
0.0
  0
LINE
  5
5722
330
1E
100
AcDbEntity
  8
受金具
  6
Continuous
 62
     3
100
AcDbLine
 10
-1342.547247821002
 20
-1076.638369003165
 30
0.0
 11
-1344.752504821002
 21
-1078.843626003165
 31
0.0
  0
LINE
  5
5723
330
1E
100
AcDbEntity
  8
受金具
  6
Continuous
 62
     3
100
AcDbLine
 10
-1343.125500821003
 20
-1076.509515003165
 30
0.0
 11
-1345.373952821002
 21
-1078.757967003165
 31
0.0
  0
ARC
  5
5724
330
1E
100
AcDbEntity
  8
受金具
  6
Continuous
 62
     4
100
AcDbCircle
 10
-1345.976639821002
 20
-1081.564687003165
 30
0.0
 40
1.0
100
AcDbArc
 50
90.0
 51
180.0
  0
LINE
  5
5725
330
1E
100
AcDbEntity
  8
受金具
  6
Continuous
 62
     4
100
AcDbLine
 10
-1342.476639821002
 20
-1076.655056003165
 30
0.0
 11
-1342.476639821002
 21
-1079.361696003165
 31
0.0
  0
LINE
  5
5726
330
1E
100
AcDbEntity
  8
受金具
  6
Continuous
 62
     3
100
AcDbLine
 10
-1343.121550821003
 20
-1079.144961003165
 30
0.0
 11
-1342.476639821002
 21
-1078.500049003165
 31
0.0
  0
LINE
  5
5727
330
1E
100
AcDbEntity
  8
受金具
  6
Continuous
 62
     4
100
AcDbLine
 10
-1342.476639821002
 20
-1079.295365003165
 30
0.0
 11
-1342.476639821002
 21
-1080.564687003165
 31
0.0
  0
LINE
  5
5728
330
1E
100
AcDbEntity
  8
受金具
  6
Continuous
 62
     3
100
AcDbLine
 10
-1342.966937821002
 20
-1079.179380003165
 30
0.0
 11
-1342.476639821002
 21
-1078.689081003165
 31
0.0
  0
LINE
  5
5729
330
1E
100
AcDbEntity
  8
受金具
  6
Continuous
 62
     4
100
AcDbLine
 10
-1312.276639821002
 20
-1085.579863003165
 30
0.0
 11
-1270.276639821002
 21
-1085.579863003165
 31
0.0
  0
ARC
  5
572A
330
1E
100
AcDbEntity
  8
受金具
  6
Continuous
 62
     4
100
AcDbCircle
 10
-1312.776639821002
 20
-1086.579863003165
 30
0.0
 40
5.4
100
AcDbArc
 50
51.31781300000675
 51
90.0
  0
ARC
  5
572B
330
1E
100
AcDbEntity
  8
受金具
  6
Continuous
 62
     4
100
AcDbCircle
 10
-1312.776639821002
 20
-1086.579863003165
 30
0.0
 40
5.4
100
AcDbArc
 50
90.0
 51
128.8510620000062
  0
LINE
  5
572C
330
1E
100
AcDbEntity
  8
受金具
  6
PLINE2
 62
     3
100
AcDbLine
 10
-1307.776639821002
 20
-1089.579863003165
 30
0.0
 11
-1312.776639821002
 21
-1089.579863003165
 31
0.0
  0
LINE
  5
572D
330
1E
100
AcDbEntity
  8
受金具
  6
PLINE2
 62
     3
100
AcDbLine
 10
-1308.776639821002
 20
-1101.579863003165
 30
0.0
 11
-1310.517015821002
 21
-1102.494507003165
 31
0.0
  0
ARC
  5
572E
330
1E
100
AcDbEntity
  8
受金具
  6
Continuous
 62
     4
100
AcDbCircle
 10
-1311.273876821002
 20
-1084.708572003165
 30
0.0
 40
3.0
100
AcDbArc
 50
2.458925999996144
 51
51.38536200000189
  0
LINE
  5
572F
330
1E
100
AcDbEntity
  8
受金具
  6
PLINE2
 62
     3
100
AcDbLine
 10
-1312.776639821002
 20
-1094.579863003165
 30
0.0
 11
-1312.776639821002
 21
-1089.579863003165
 31
0.0
  0
LINE
  5
5730
330
1E
100
AcDbEntity
  8
受金具
  6
PLINE2
 62
     3
100
AcDbLine
 10
-1311.776639821002
 20
-1089.579863003165
 30
0.0
 11
-1312.776639821002
 21
-1094.579863003165
 31
0.0
  0
LINE
  5
5731
330
1E
100
AcDbEntity
  8
受金具
  6
PLINE2
 62
     3
100
AcDbLine
 10
-1313.776639821002
 20
-1089.579863003165
 30
0.0
 11
-1312.776639821002
 21
-1094.579863003165
 31
0.0
  0
LINE
  5
5732
330
1E
100
AcDbEntity
  8
受金具
  6
PLINE2
 62
     3
100
AcDbLine
 10
-1317.776639821002
 20
-1089.579863003165
 30
0.0
 11
-1316.776639821002
 21
-1094.579863003165
 31
0.0
  0
LINE
  5
5733
330
1E
100
AcDbEntity
  8
受金具
  6
PLINE2
 62
     3
100
AcDbLine
 10
-1316.776639821002
 20
-1089.579863003165
 30
0.0
 11
-1316.776639821002
 21
-1097.579863003165
 31
0.0
  0
LINE
  5
5734
330
1E
100
AcDbEntity
  8
受金具
  6
PLINE2
 62
     3
100
AcDbLine
 10
-1316.776639821002
 20
-1101.579863003165
 30
0.0
 11
-1315.036263821002
 21
-1102.494507003165
 31
0.0
  0
ARC
  5
5735
330
1E
100
AcDbEntity
  8
受金具
  6
PLINE2
 62
     3
100
AcDbCircle
 10
-1319.143166821002
 20
-1098.955638003165
 30
0.0
 40
0.5
100
AcDbArc
 50
9.462322000007134
 51
189.4623219999942
  0
LINE
  5
5736
330
1E
100
AcDbEntity
  8
受金具
  6
PLINE2
 62
     3
100
AcDbLine
 10
-1316.776639821002
 20
-1101.579863003165
 30
0.0
 11
-1316.776639821002
 21
-1097.579863003165
 31
0.0
  0
LINE
  5
5737
330
1E
100
AcDbEntity
  8
受金具
  6
PLINE2
 62
     3
100
AcDbLine
 10
-1313.276639821002
 20
-1097.579863003165
 30
0.0
 11
-1312.776639821002
 21
-1097.579863003165
 31
0.0
  0
LINE
  5
5738
330
1E
100
AcDbEntity
  8
受金具
  6
PLINE2
 62
     3
100
AcDbLine
 10
-1312.276639821002
 20
-1097.579863003165
 30
0.0
 11
-1312.776639821002
 21
-1097.579863003165
 31
0.0
  0
LINE
  5
5739
330
1E
100
AcDbEntity
  8
受金具
  6
PLINE2
 62
     3
100
AcDbLine
 10
-1317.776639821002
 20
-1089.579863003165
 30
0.0
 11
-1312.776639821002
 21
-1089.579863003165
 31
0.0
  0
ARC
  5
573A
330
1E
100
AcDbEntity
  8
受金具
  6
Continuous
 62
     4
100
AcDbCircle
 10
-1314.279401821002
 20
-1084.708572003165
 30
0.0
 40
3.0
100
AcDbArc
 50
128.6146379999981
 51
177.5410740000038
  0
LINE
  5
573B
330
1E
100
AcDbEntity
  8
受金具
  6
Continuous
 62
     4
100
AcDbLine
 10
-1313.276639821002
 20
-1085.579863003165
 30
0.0
 11
-1312.776639821002
 21
-1086.079863003165
 31
0.0
  0
LINE
  5
573C
330
1E
100
AcDbEntity
  8
受金具
  6
Continuous
 62
     4
100
AcDbLine
 10
-1312.776639821002
 20
-1086.079863003165
 30
0.0
 11
-1312.276639821002
 21
-1085.579863003165
 31
0.0
  0
LINE
  5
573D
330
1E
100
AcDbEntity
  8
受金具
  6
PLINE2
 62
     3
100
AcDbLine
 10
-1308.776639821002
 20
-1089.579863003165
 30
0.0
 11
-1308.776639821002
 21
-1097.579863003165
 31
0.0
  0
LINE
  5
573E
330
1E
100
AcDbEntity
  8
受金具
  6
PLINE2
 62
     3
100
AcDbLine
 10
-1307.776639821002
 20
-1089.579863003165
 30
0.0
 11
-1308.776639821002
 21
-1094.579863003165
 31
0.0
  0
ARC
  5
573F
330
1E
100
AcDbEntity
  8
受金具
  6
PLINE2
 62
     3
100
AcDbCircle
 10
-1306.259445821002
 20
-1098.955638003165
 30
0.0
 40
0.5
100
AcDbArc
 50
350.5376779999928
 51
170.5376779999928
  0
LINE
  5
5740
330
1E
100
AcDbEntity
  8
受金具
  6
PLINE2
 62
     3
100
AcDbLine
 10
-1308.776639821002
 20
-1101.579863003165
 30
0.0
 11
-1308.776639821002
 21
-1097.579863003165
 31
0.0
  0
LINE
  5
5741
330
1E
100
AcDbEntity
  8
受金具
  6
Continuous
 62
     3
100
AcDbLine
 10
-1300.276639821002
 20
-1084.579863003165
 30
0.0
 11
-1300.276639821002
 21
-1085.579863003165
 31
0.0
  0
LINE
  5
5742
330
1E
100
AcDbEntity
  8
受金具
  6
Continuous
 62
     4
100
AcDbLine
 10
-1266.276639821002
 20
-1084.579863003165
 30
0.0
 11
-1266.276639821002
 21
-1078.379863003165
 31
0.0
  0
LINE
  5
5743
330
1E
100
AcDbEntity
  8
受金具
  6
Continuous
 62
     4
100
AcDbLine
 10
-1269.276639821002
 20
-1084.579863003165
 30
0.0
 11
-1269.276639821002
 21
-1078.379863003165
 31
0.0
  0
LINE
  5
5744
330
1E
100
AcDbEntity
  8
受金具
  6
Continuous
 62
     4
100
AcDbLine
 10
-1267.776639821002
 20
-1089.079863003165
 30
0.0
 11
-1267.276639821002
 21
-1089.579863003165
 31
0.0
  0
LINE
  5
5745
330
1E
100
AcDbEntity
  8
受金具
  6
Continuous
 62
     4
100
AcDbLine
 10
-1268.276639821002
 20
-1089.579863003165
 30
0.0
 11
-1267.776639821002
 21
-1089.079863003165
 31
0.0
  0
ARC
  5
5746
330
1E
100
AcDbEntity
  8
受金具
  6
Continuous
 62
     4
100
AcDbCircle
 10
-1270.276639821002
 20
-1084.579863003165
 30
0.0
 40
1.0
100
AcDbArc
 50
270.0
 51
0.0
  0
ARC
  5
5747
330
1E
100
AcDbEntity
  8
受金具
  6
Continuous
 62
     4
100
AcDbCircle
 10
-1265.276639821002
 20
-1084.579863003165
 30
0.0
 40
1.0
100
AcDbArc
 50
180.0
 51
270.0
  0
LINE
  5
5748
330
1E
100
AcDbEntity
  8
受金具
  6
Continuous
 62
     4
100
AcDbLine
 10
-1270.276639821002
 20
-1077.379863003165
 30
0.0
 11
-1273.776639821002
 21
-1077.379863003165
 31
0.0
  0
ARC
  5
5749
330
1E
100
AcDbEntity
  8
受金具
  6
Continuous
 62
     4
100
AcDbCircle
 10
-1267.776639821002
 20
-1100.379863003165
 30
0.0
 40
25.0
100
AcDbArc
 50
91.13475299999347
 51
103.8865400000017
  0
LINE
  5
574A
330
1E
100
AcDbEntity
  8
受金具
  6
Continuous
 62
     3
100
AcDbLine
 10
-1267.956445821002
 20
-1072.364963003165
 30
0.0
 11
-1271.207942821002
 21
-1075.616459003165
 31
0.0
  0
LINE
  5
574B
330
1E
100
AcDbEntity
  8
受金具
  6
Continuous
 62
     3
100
AcDbLine
 10
-1268.678787821002
 20
-1072.380198003165
 30
0.0
 11
-1272.045635821002
 21
-1075.747046003165
 31
0.0
  0
LINE
  5
574C
330
1E
100
AcDbEntity
  8
受金具
  6
Continuous
 62
     3
100
AcDbLine
 10
-1269.422897821002
 20
-1072.417201003165
 30
0.0
 11
-1272.920459821002
 21
-1075.914763003165
 31
0.0
  0
LINE
  5
574D
330
1E
100
AcDbEntity
  8
受金具
  6
Continuous
 62
     3
100
AcDbLine
 10
-1270.985717821002
 20
-1072.565807003165
 30
0.0
 11
-1273.776639821002
 21
-1075.356729003165
 31
0.0
  0
LINE
  5
574E
330
1E
100
AcDbEntity
  8
受金具
  6
Continuous
 62
     3
100
AcDbLine
 10
-1270.190980821002
 20
-1072.478177003165
 30
0.0
 11
-1273.776639821002
 21
-1076.063836003165
 31
0.0
  0
LINE
  5
574F
330
1E
100
AcDbEntity
  8
受金具
  6
Continuous
 62
     4
100
AcDbLine
 10
-1273.776639821002
 20
-1077.379863003165
 30
0.0
 11
-1273.776639821002
 21
-1076.110541003165
 31
0.0
  0
LINE
  5
5750
330
1E
100
AcDbEntity
  8
受金具
  6
Continuous
 62
     4
100
AcDbLine
 10
-1273.776639821002
 20
-1076.110541003165
 30
0.0
 11
-1273.776639821002
 21
-1073.075736003165
 31
0.0
  0
LINE
  5
5751
330
1E
100
AcDbEntity
  8
受金具
  6
Continuous
 62
     3
100
AcDbLine
 10
-1273.567618821002
 20
-1073.026388003165
 30
0.0
 11
-1273.776639821002
 21
-1073.235409003165
 31
0.0
  0
LINE
  5
5752
330
1E
100
AcDbEntity
  8
受金具
  6
Continuous
 62
     3
100
AcDbLine
 10
-1272.669255821002
 20
-1072.835132003165
 30
0.0
 11
-1273.776639821002
 21
-1073.942515003165
 31
0.0
  0
LINE
  5
5753
330
1E
100
AcDbEntity
  8
受金具
  6
Continuous
 62
     3
100
AcDbLine
 10
-1271.810417821002
 20
-1072.683401003165
 30
0.0
 11
-1273.776639821002
 21
-1074.649622003165
 31
0.0
  0
ARC
  5
5754
330
1E
100
AcDbEntity
  8
受金具
  6
Continuous
 62
     4
100
AcDbCircle
 10
-1270.276639821002
 20
-1078.379863003165
 30
0.0
 40
1.0
100
AcDbArc
 50
0.0
 51
90.0
  0
ARC
  5
5755
330
1E
100
AcDbEntity
  8
受金具
  6
Continuous
 62
     4
100
AcDbCircle
 10
-1265.276639821002
 20
-1078.379863003165
 30
0.0
 40
1.0
100
AcDbArc
 50
90.0
 51
180.0
  0
LINE
  5
5756
330
1E
100
AcDbEntity
  8
受金具
  6
Continuous
 62
     3
100
AcDbLine
 10
-1264.615730821002
 20
-1072.559781003165
 30
0.0
 11
-1267.856225821002
 21
-1075.800276003165
 31
0.0
  0
LINE
  5
5757
330
1E
100
AcDbEntity
  8
受金具
  6
Continuous
 62
     3
100
AcDbLine
 10
-1265.251907821002
 20
-1072.488852003165
 30
0.0
 11
-1268.209778821002
 21
-1075.446723003165
 31
0.0
  0
LINE
  5
5758
330
1E
100
AcDbEntity
  8
受金具
  6
Continuous
 62
     3
100
AcDbLine
 10
-1265.902997821002
 20
-1072.432835003165
 30
0.0
 11
-1268.874126821002
 21
-1075.403964003165
 31
0.0
  0
LINE
  5
5759
330
1E
100
AcDbEntity
  8
受金具
  6
Continuous
 62
     3
100
AcDbLine
 10
-1266.569991821002
 20
-1072.392722003165
 30
0.0
 11
-1269.625599821002
 21
-1075.448330003165
 31
0.0
  0
LINE
  5
575A
330
1E
100
AcDbEntity
  8
受金具
  6
Continuous
 62
     3
100
AcDbLine
 10
-1268.272891821002
 20
-1075.384789003165
 30
0.0
 11
-1268.271736821002
 21
-1075.384766003165
 31
0.0
  0
LINE
  5
575B
330
1E
100
AcDbEntity
  8
受金具
  6
Continuous
 62
     4
100
AcDbLine
 10
-1267.776639821002
 20
-1075.879863003165
 30
0.0
 11
-1267.281542821002
 21
-1075.384766003165
 31
0.0
  0
LINE
  5
575C
330
1E
100
AcDbEntity
  8
受金具
  6
Continuous
 62
     4
100
AcDbLine
 10
-1268.271736821002
 20
-1075.384766003165
 30
0.0
 11
-1267.776639821002
 21
-1075.879863003165
 31
0.0
  0
LINE
  5
575D
330
1E
100
AcDbEntity
  8
受金具
  6
Continuous
 62
     3
100
AcDbLine
 10
-1267.254031821002
 20
-1072.369656003165
 30
0.0
 11
-1270.402527821002
 21
-1075.518151003165
 31
0.0
  0
LINE
  5
575E
330
1E
100
AcDbEntity
  8
受金具
  6
Continuous
 62
     3
100
AcDbLine
 10
-1263.993597821002
 20
-1072.644755003165
 30
0.0
 11
-1266.749801821002
 21
-1075.400960003165
 31
0.0
  0
LINE
  5
5761
330
1E
100
AcDbEntity
  8
躯体
  6
Continuous
 62
     3
100
AcDbLine
 10
-1160.276639821002
 20
-1172.714336003165
 30
0.0
 11
-1088.871493821002
 21
-1101.309191003165
 31
0.0
  0
LINE
  5
5762
330
1E
100
AcDbEntity
  8
躯体
  6
Continuous
 62
     4
100
AcDbLine
 10
-1130.276639821002
 20
-1091.079863003165
 30
0.0
 11
-1130.276639821002
 21
-1121.378157003165
 31
0.0
  0
LINE
  5
5763
330
1E
100
AcDbEntity
  8
寸法
  6
Continuous
 62
     3
100
AcDbLine
 10
-1222.776639821002
 20
-1079.624445003165
 30
0.0
 11
-1222.776639821002
 21
-1154.061652003165
 31
0.0
  0
LINE
  5
5764
330
1E
100
AcDbEntity
  8
受金具
  6
PLINE2
 62
     3
100
AcDbLine
 10
-1225.036263821002
 20
-1102.494507003165
 30
0.0
 11
-1225.140935821002
 21
-1104.491766003165
 31
0.0
  0
LINE
  5
5765
330
1E
100
AcDbEntity
  8
受金具
  6
PLINE2
 62
     3
100
AcDbLine
 10
-1227.732168821002
 20
-1104.380241003165
 30
0.0
 11
-1228.649969821002
 21
-1098.873438003165
 31
0.0
  0
LINE
  5
5766
330
1E
100
AcDbEntity
  8
受金具
  6
PLINE2
 62
     3
100
AcDbLine
 10
-1228.745962821002
 20
-1104.380241003165
 30
0.0
 11
-1229.636363821002
 21
-1099.037837003165
 31
0.0
  0
LINE
  5
5767
330
1E
100
AcDbEntity
  8
受金具
  6
PLINE2
 62
     3
100
AcDbLine
 10
-1216.656648821002
 20
-1104.380241003165
 30
0.0
 11
-1215.766248821002
 21
-1099.037837003165
 31
0.0
  0
LINE
  5
5768
330
1E
100
AcDbEntity
  8
受金具
  6
PLINE2
 62
     3
100
AcDbLine
 10
-1217.670442821003
 20
-1104.380241003165
 30
0.0
 11
-1216.752642821002
 21
-1098.873438003165
 31
0.0
  0
LINE
  5
5769
330
1E
100
AcDbEntity
  8
受金具
  6
PLINE2
 62
     3
100
AcDbLine
 10
-1220.654224821002
 20
-1128.537378003165
 30
0.0
 11
-1222.276639821002
 21
-1097.579863003165
 31
0.0
  0
LINE
  5
576A
330
1E
100
AcDbEntity
  8
受金具
  6
PLINE2
 62
     3
100
AcDbLine
 10
-1220.517015821002
 20
-1102.494507003165
 30
0.0
 11
-1220.412343821002
 21
-1104.491766003165
 31
0.0
  0
LINE
  5
576B
330
1E
100
AcDbEntity
  8
受金具
  6
PLINE2
 62
     3
100
AcDbLine
 10
-1224.899053821002
 20
-1128.537378003165
 30
0.0
 11
-1223.276639821002
 21
-1097.579863003165
 31
0.0
  0
LINE
  5
576C
330
1E
100
AcDbEntity
  8
躯体
  6
Continuous
 62
     3
100
AcDbLine
 10
-1228.899288821002
 20
-1103.460285003165
 30
0.0
 11
-1240.835548821002
 21
-1091.079863003165
 31
0.0
  0
LINE
  5
576D
330
1E
100
AcDbEntity
  8
躯体
  6
Continuous
 62
     3
100
AcDbLine
 10
-1160.276639821002
 20
-1178.371191003165
 30
0.0
 11
-1088.871493821002
 21
-1106.966045003165
 31
0.0
  0
LINE
  5
576E
330
1E
100
AcDbEntity
  8
躯体
  6
Continuous
 62
     3
100
AcDbLine
 10
-1088.871493821002
 20
-1104.137618003165
 30
0.0
 11
-1160.276639821002
 21
-1175.542764003165
 31
0.0
  0
LINE
  5
576F
330
1E
100
AcDbEntity
  8
躯体
  6
Continuous
 62
     3
100
AcDbLine
 10
-1131.496638821002
 20
-1119.773123003165
 30
0.0
 11
-1160.276639821002
 21
-1136.389264003165
 31
0.0
  0
LINE
  5
5770
330
1E
100
AcDbEntity
  8
躯体
  6
Continuous
 62
     3
100
AcDbLine
 10
-1161.276639821002
 20
-1134.657213003165
 30
0.0
 11
-1133.204842821002
 21
-1118.449954003165
 31
0.0
  0
LINE
  5
5771
330
1E
100
AcDbEntity
  8
躯体
  6
Continuous
 62
     3
100
AcDbLine
 10
-1162.276639821002
 20
-1132.925162003165
 30
0.0
 11
-1135.622266821002
 21
-1117.536253003165
 31
0.0
  0
LINE
  5
5772
330
1E
100
AcDbEntity
  8
躯体
  6
Continuous
 62
     4
100
AcDbLine
 10
-1130.276639821002
 20
-1121.378157003165
 30
0.0
 11
-1159.276639821002
 21
-1138.121315003165
 31
0.0
  0
LINE
  5
5773
330
1E
100
AcDbEntity
  8
躯体
  6
Continuous
 62
     4
100
AcDbLine
 10
-1141.204840821002
 20
-1118.449952003165
 30
0.0
 11
-1163.276639821002
 21
-1131.193111003165
 31
0.0
  0
LINE
  5
5774
330
1E
100
AcDbEntity
  8
躯体
  6
Continuous
 62
     3
100
AcDbLine
 10
-1162.276639821002
 20
-1139.853365003165
 30
0.0
 11
-1162.276639821002
 21
-1202.079863003165
 31
0.0
  0
LINE
  5
5775
330
1E
100
AcDbEntity
  8
躯体
  6
Continuous
 62
     3
100
AcDbLine
 10
-1164.276639821002
 20
-1202.079863003165
 30
0.0
 11
-1164.276639821002
 21
-1139.853365003165
 31
0.0
  0
LINE
  5
5776
330
1E
100
AcDbEntity
  8
躯体
  6
Continuous
 62
     3
100
AcDbLine
 10
-1166.276639821002
 20
-1202.079863003165
 30
0.0
 11
-1166.276639821002
 21
-1139.853365003165
 31
0.0
  0
LINE
  5
5777
330
1E
100
AcDbEntity
  8
躯体
  6
Continuous
 62
     4
100
AcDbLine
 10
-1160.276639821002
 20
-1139.853365003165
 30
0.0
 11
-1160.276639821002
 21
-1202.079863003165
 31
0.0
  0
LINE
  5
5778
330
1E
100
AcDbEntity
  8
躯体
  6
Continuous
 62
     4
100
AcDbLine
 10
-1168.276639821002
 20
-1139.853365003165
 30
0.0
 11
-1168.276639821002
 21
-1202.079863003165
 31
0.0
  0
LINE
  5
5779
330
1E
100
AcDbEntity
  8
躯体
  6
Continuous
 62
     3
100
AcDbLine
 10
-1168.276639821002
 20
-1166.338773003165
 30
0.0
 11
-1218.143588821002
 21
-1114.616217003165
 31
0.0
  0
LINE
  5
577A
330
1E
100
AcDbEntity
  8
躯体
  6
Continuous
 62
     3
100
AcDbLine
 10
-1218.318690821002
 20
-1111.530640003165
 30
0.0
 11
-1168.276639821002
 21
-1163.510345003165
 31
0.0
  0
LINE
  5
577B
330
1E
100
AcDbEntity
  8
躯体
  6
Continuous
 62
     3
100
AcDbLine
 10
-1168.276639821002
 20
-1160.681918003165
 30
0.0
 11
-1217.859639821002
 21
-1109.097872003165
 31
0.0
  0
LINE
  5
577E
330
1E
100
AcDbEntity
  8
受金具
  6
PLINE2
 62
     3
100
AcDbLine
 10
-1222.835945821002
 20
-1125.520557003165
 30
0.0
 11
-1220.902243821002
 21
-1123.804886003165
 31
0.0
  0
LINE
  5
577F
330
1E
100
AcDbEntity
  8
受金具
  6
PLINE2
 62
     3
100
AcDbLine
 10
-1224.646083821002
 20
-1123.710418003165
 30
0.0
 11
-1222.776639821002
 21
-1125.579863003165
 31
0.0
  0
LINE
  5
5780
330
1E
100
AcDbEntity
  8
受金具
  6
PLINE2
 62
     3
100
AcDbLine
 10
-1219.470295821002
 20
-1122.467097003165
 30
0.0
 11
-1219.365624821002
 21
-1124.464356003165
 31
0.0
  0
LINE
  5
5781
330
1E
100
AcDbEntity
  8
受金具
  6
PLINE2
 62
     3
100
AcDbLine
 10
-1226.082982821002
 20
-1122.467097003165
 30
0.0
 11
-1226.187654821002
 21
-1124.464356003165
 31
0.0
  0
LINE
  5
5782
330
1E
100
AcDbEntity
  8
受金具
  6
PLINE2
 62
     3
100
AcDbLine
 10
-1219.365624821002
 20
-1124.464356003165
 30
0.0
 11
-1217.368364821002
 21
-1124.359684003165
 31
0.0
  0
LINE
  5
5783
330
1E
100
AcDbEntity
  8
受金具
  6
PLINE2
 62
     3
100
AcDbLine
 10
-1217.263693821002
 20
-1126.356943003165
 30
0.0
 11
-1219.156280821002
 21
-1128.458874003165
 31
0.0
  0
LINE
  5
5784
330
1E
100
AcDbEntity
  8
受金具
  6
PLINE2
 62
     3
100
AcDbLine
 10
-1220.758896821002
 20
-1126.540119003165
 30
0.0
 11
-1217.263693821002
 21
-1126.356943003165
 31
0.0
  0
LINE
  5
5785
330
1E
100
AcDbEntity
  8
受金具
  6
PLINE2
 62
     3
100
AcDbLine
 10
-1226.396998821002
 20
-1128.458874003165
 30
0.0
 11
-1224.899053821002
 21
-1128.537378003165
 31
0.0
  0
LINE
  5
5786
330
1E
100
AcDbEntity
  8
受金具
  6
PLINE2
 62
     3
100
AcDbLine
 10
-1224.794381821002
 20
-1126.540119003165
 30
0.0
 11
-1228.289585821002
 21
-1126.356943003165
 31
0.0
  0
LINE
  5
5787
330
1E
100
AcDbEntity
  8
受金具
  6
PLINE2
 62
     3
100
AcDbLine
 10
-1228.184913821002
 20
-1124.359684003165
 30
0.0
 11
-1228.289585821002
 21
-1126.356943003165
 31
0.0
  0
LINE
  5
5788
330
1E
100
AcDbEntity
  8
受金具
  6
PLINE2
 62
     3
100
AcDbLine
 10
-1226.187654821002
 20
-1124.464356003165
 30
0.0
 11
-1228.184913821002
 21
-1124.359684003165
 31
0.0
  0
LINE
  5
5789
330
1E
100
AcDbEntity
  8
受金具
  6
PLINE2
 62
     3
100
AcDbLine
 10
-1228.289585821002
 20
-1126.356943003165
 30
0.0
 11
-1226.396998821002
 21
-1128.458874003165
 31
0.0
  0
LINE
  5
578A
330
1E
100
AcDbEntity
  8
受金具
  6
PLINE2
 62
     3
100
AcDbLine
 10
-1219.156280821002
 20
-1128.458874003165
 30
0.0
 11
-1220.654224821002
 21
-1128.537378003165
 31
0.0
  0
LINE
  5
578B
330
1E
100
AcDbEntity
  8
受金具
  6
PLINE2
 62
     3
100
AcDbLine
 10
-1217.368364821002
 20
-1124.359684003165
 30
0.0
 11
-1217.263693821002
 21
-1126.356943003165
 31
0.0
  0
LINE
  5
578C
330
1E
100
AcDbEntity
  8
受金具
  6
PLINE2
 62
     3
100
AcDbLine
 10
-1218.153404821002
 20
-1109.380241003165
 30
0.0
 11
-1216.656648821002
 21
-1104.380241003165
 31
0.0
  0
LINE
  5
578D
330
1E
100
AcDbEntity
  8
受金具
  6
PLINE2
 62
     3
100
AcDbLine
 10
-1219.216123821002
 20
-1109.435936003165
 30
0.0
 11
-1217.670442821003
 21
-1104.380241003165
 31
0.0
  0
LINE
  5
578E
330
1E
100
AcDbEntity
  8
受金具
  6
PLINE2
 62
     3
100
AcDbLine
 10
-1217.525372821002
 20
-1121.363796003165
 30
0.0
 11
-1219.470295821002
 21
-1122.467097003165
 31
0.0
  0
LINE
  5
578F
330
1E
100
AcDbEntity
  8
受金具
  6
PLINE2
 62
     3
100
AcDbLine
 10
-1219.627303821002
 20
-1119.471209003165
 30
0.0
 11
-1217.630044821002
 21
-1119.366537003165
 31
0.0
  0
LINE
  5
5790
330
1E
100
AcDbEntity
  8
受金具
  6
PLINE2
 62
     3
100
AcDbLine
 10
-1219.993655821002
 20
-1112.480802003165
 30
0.0
 11
-1219.888983821002
 21
-1114.478061003165
 31
0.0
  0
LINE
  5
5791
330
1E
100
AcDbEntity
  8
受金具
  6
PLINE2
 62
     3
100
AcDbLine
 10
-1225.559622821002
 20
-1112.480802003165
 30
0.0
 11
-1225.664294821002
 21
-1114.478061003165
 31
0.0
  0
LINE
  5
5792
330
1E
100
AcDbEntity
  8
受金具
  6
PLINE2
 62
     3
100
AcDbLine
 10
-1225.821302821002
 20
-1117.473950003165
 30
0.0
 11
-1225.925974821002
 21
-1119.471209003165
 31
0.0
  0
LINE
  5
5793
330
1E
100
AcDbEntity
  8
受金具
  6
PLINE2
 62
     3
100
AcDbLine
 10
-1228.027905821002
 20
-1121.363796003165
 30
0.0
 11
-1226.082982821002
 21
-1122.467097003165
 31
0.0
  0
LINE
  5
5794
330
1E
100
AcDbEntity
  8
受金具
  6
PLINE2
 62
     3
100
AcDbLine
 10
-1227.923233821002
 20
-1119.366537003165
 30
0.0
 11
-1228.027905821002
 21
-1121.363796003165
 31
0.0
  0
LINE
  5
5795
330
1E
100
AcDbEntity
  8
受金具
  6
PLINE2
 62
     3
100
AcDbLine
 10
-1225.925974821002
 20
-1119.471209003165
 30
0.0
 11
-1227.923233821002
 21
-1119.366537003165
 31
0.0
  0
LINE
  5
5796
330
1E
100
AcDbEntity
  8
受金具
  6
PLINE2
 62
     3
100
AcDbLine
 10
-1227.766225821002
 20
-1116.370648003165
 30
0.0
 11
-1225.821302821002
 21
-1117.473950003165
 31
0.0
  0
LINE
  5
5797
330
1E
100
AcDbEntity
  8
受金具
  6
PLINE2
 62
     3
100
AcDbLine
 10
-1227.661553821002
 20
-1114.373389003165
 30
0.0
 11
-1227.766225821002
 21
-1116.370648003165
 31
0.0
  0
LINE
  5
5798
330
1E
100
AcDbEntity
  8
受金具
  6
PLINE2
 62
     3
100
AcDbLine
 10
-1225.664294821002
 20
-1114.478061003165
 30
0.0
 11
-1227.661553821002
 21
-1114.373389003165
 31
0.0
  0
LINE
  5
5799
330
1E
100
AcDbEntity
  8
受金具
  6
PLINE2
 62
     3
100
AcDbLine
 10
-1219.731975821002
 20
-1117.473950003165
 30
0.0
 11
-1219.627303821002
 21
-1119.471209003165
 31
0.0
  0
LINE
  5
579A
330
1E
100
AcDbEntity
  8
受金具
  6
PLINE2
 62
     3
100
AcDbLine
 10
-1217.787052821002
 20
-1116.370648003165
 30
0.0
 11
-1219.731975821002
 21
-1117.473950003165
 31
0.0
  0
LINE
  5
579B
330
1E
100
AcDbEntity
  8
受金具
  6
PLINE2
 62
     3
100
AcDbLine
 10
-1217.891724821002
 20
-1114.373389003165
 30
0.0
 11
-1217.787052821002
 21
-1116.370648003165
 31
0.0
  0
LINE
  5
579C
330
1E
100
AcDbEntity
  8
受金具
  6
PLINE2
 62
     3
100
AcDbLine
 10
-1219.888983821002
 20
-1114.478061003165
 30
0.0
 11
-1217.891724821002
 21
-1114.373389003165
 31
0.0
  0
LINE
  5
579D
330
1E
100
AcDbEntity
  8
受金具
  6
PLINE2
 62
     3
100
AcDbLine
 10
-1225.140935821002
 20
-1104.491766003165
 30
0.0
 11
-1227.138194821002
 21
-1104.387094003165
 31
0.0
  0
LINE
  5
579E
330
1E
100
AcDbEntity
  8
受金具
  6
PLINE2
 62
     3
100
AcDbLine
 10
-1225.297943821002
 20
-1107.487654003165
 30
0.0
 11
-1225.402614821002
 21
-1109.484913003165
 31
0.0
  0
LINE
  5
579F
330
1E
100
AcDbEntity
  8
受金具
  6
PLINE2
 62
     3
100
AcDbLine
 10
-1227.242866821002
 20
-1106.384353003165
 30
0.0
 11
-1225.297943821002
 21
-1107.487654003165
 31
0.0
  0
LINE
  5
57A0
330
1E
100
AcDbEntity
  8
受金具
  6
PLINE2
 62
     3
100
AcDbLine
 10
-1227.249206821002
 20
-1109.380241003165
 30
0.0
 11
-1228.745962821002
 21
-1104.380241003165
 31
0.0
  0
LINE
  5
57A1
330
1E
100
AcDbEntity
  8
受金具
  6
PLINE2
 62
     3
100
AcDbLine
 10
-1226.186487821002
 20
-1109.435936003165
 30
0.0
 11
-1227.732168821002
 21
-1104.380241003165
 31
0.0
  0
LINE
  5
57A2
330
1E
100
AcDbEntity
  8
受金具
  6
PLINE2
 62
     3
100
AcDbLine
 10
-1227.504545821002
 20
-1111.377500003165
 30
0.0
 11
-1225.559622821002
 21
-1112.480802003165
 31
0.0
  0
LINE
  5
57A3
330
1E
100
AcDbEntity
  8
受金具
  6
PLINE2
 62
     3
100
AcDbLine
 10
-1227.399873821002
 20
-1109.380241003165
 30
0.0
 11
-1227.504545821002
 21
-1111.377500003165
 31
0.0
  0
LINE
  5
57A4
330
1E
100
AcDbEntity
  8
受金具
  6
PLINE2
 62
     3
100
AcDbLine
 10
-1225.402614821002
 20
-1109.484913003165
 30
0.0
 11
-1227.399873821002
 21
-1109.380241003165
 31
0.0
  0
LINE
  5
57A5
330
1E
100
AcDbEntity
  8
受金具
  6
PLINE2
 62
     3
100
AcDbLine
 10
-1227.138194821002
 20
-1104.387094003165
 30
0.0
 11
-1227.242866821002
 21
-1106.384353003165
 31
0.0
  0
LINE
  5
57A6
330
1E
100
AcDbEntity
  8
受金具
  6
PLINE2
 62
     3
100
AcDbLine
 10
-1220.255335821002
 20
-1107.487654003165
 30
0.0
 11
-1220.150663821002
 21
-1109.484913003165
 31
0.0
  0
LINE
  5
57A7
330
1E
100
AcDbEntity
  8
受金具
  6
PLINE2
 62
     3
100
AcDbLine
 10
-1218.048732821002
 20
-1111.377500003165
 30
0.0
 11
-1219.993655821002
 21
-1112.480802003165
 31
0.0
  0
LINE
  5
57A8
330
1E
100
AcDbEntity
  8
受金具
  6
PLINE2
 62
     3
100
AcDbLine
 10
-1218.153404821002
 20
-1109.380241003165
 30
0.0
 11
-1218.048732821002
 21
-1111.377500003165
 31
0.0
  0
LINE
  5
57A9
330
1E
100
AcDbEntity
  8
受金具
  6
PLINE2
 62
     3
100
AcDbLine
 10
-1220.150663821002
 20
-1109.484913003165
 30
0.0
 11
-1218.153404821002
 21
-1109.380241003165
 31
0.0
  0
LINE
  5
57AA
330
1E
100
AcDbEntity
  8
受金具
  6
PLINE2
 62
     3
100
AcDbLine
 10
-1218.310412821002
 20
-1106.384353003165
 30
0.0
 11
-1220.255335821002
 21
-1107.487654003165
 31
0.0
  0
LINE
  5
57AB
330
1E
100
AcDbEntity
  8
受金具
  6
PLINE2
 62
     3
100
AcDbLine
 10
-1218.415084821002
 20
-1104.387094003165
 30
0.0
 11
-1218.310412821002
 21
-1106.384353003165
 31
0.0
  0
LINE
  5
57AC
330
1E
100
AcDbEntity
  8
受金具
  6
PLINE2
 62
     3
100
AcDbLine
 10
-1220.412343821002
 20
-1104.491766003165
 30
0.0
 11
-1218.415084821002
 21
-1104.387094003165
 31
0.0
  0
LINE
  5
57AD
330
1E
100
AcDbEntity
  8
受金具
  6
PLINE2
 62
     3
100
AcDbLine
 10
-1217.630044821002
 20
-1119.366537003165
 30
0.0
 11
-1217.525372821002
 21
-1121.363796003165
 31
0.0
  0
ARC
  5
57AE
330
1E
100
AcDbEntity
  8
躯体
  6
Continuous
 62
     3
100
AcDbCircle
 10
-1158.276639821002
 20
-1139.853365003165
 30
0.0
 40
6.0
100
AcDbArc
 50
119.9999999999973
 51
180.0
  0
ARC
  5
57AF
330
1E
100
AcDbEntity
  8
躯体
  6
Continuous
 62
     3
100
AcDbCircle
 10
-1158.276639821002
 20
-1139.853365003165
 30
0.0
 40
8.0
100
AcDbArc
 50
119.9999999999973
 51
180.0
  0
ARC
  5
57B0
330
1E
100
AcDbEntity
  8
躯体
  6
Continuous
 62
     4
100
AcDbCircle
 10
-1158.276639821002
 20
-1139.853365003165
 30
0.0
 40
10.0
100
AcDbArc
 50
119.9999999999973
 51
180.0
  0
ARC
  5
57B1
330
1E
100
AcDbEntity
  8
躯体
  6
Continuous
 62
     3
100
AcDbCircle
 10
-1158.276639821002
 20
-1139.853365003165
 30
0.0
 40
4.0
100
AcDbArc
 50
119.9999999999973
 51
180.0
  0
ARC
  5
57B2
330
1E
100
AcDbEntity
  8
躯体
  6
Continuous
 62
     4
100
AcDbCircle
 10
-1158.276639821002
 20
-1139.853365003165
 30
0.0
 40
2.0
100
AcDbArc
 50
119.9999999999973
 51
180.0
  0
LINE
  5
57B3
330
1E
100
AcDbEntity
  8
寸法
  6
PLINE2
 62
     3
100
AcDbLine
 10
-1130.276639821002
 20
-1121.378157003165
 30
0.0
 11
-1130.276639821002
 21
-1202.079863003165
 31
0.0
  0
ARC
  5
57B4
330
1E
100
AcDbEntity
  8
躯体
  6
Continuous
 62
     4
100
AcDbCircle
 10
-1137.204842821002
 20
-1125.378157003165
 30
0.0
 40
8.0
100
AcDbArc
 50
30.00000400000096
 51
119.9999999999973
  0
LINE
  5
57B5
330
1E
100
AcDbEntity
  8
躯体
  6
Continuous
 62
     3
100
AcDbLine
 10
-1155.276639821002
 20
-1037.062417003165
 30
0.0
 11
-1118.764687821002
 21
-1000.550466003165
 31
0.0
  0
LINE
  5
57B6
330
1E
100
AcDbEntity
  8
躯体
  6
Continuous
 62
     3
100
AcDbLine
 10
-1121.593114821002
 20
-1000.550466003165
 30
0.0
 11
-1155.276639821002
 21
-1034.233990003165
 31
0.0
  0
LINE
  5
57B7
330
1E
100
AcDbEntity
  8
躯体
  6
Continuous
 62
     3
100
AcDbLine
 10
-1155.276639821002
 20
-1031.405563003165
 30
0.0
 11
-1124.421541821002
 21
-1000.550466003165
 31
0.0
  0
LINE
  5
57B8
330
1E
100
AcDbEntity
  8
躯体
  6
Continuous
 62
     4
100
AcDbLine
 10
-1130.276639821002
 20
-1039.579863003165
 30
0.0
 11
-1155.276639821002
 21
-1039.579863003165
 31
0.0
  0
LINE
  5
57B9
330
1E
100
AcDbEntity
  8
躯体
  6
Continuous
 62
     4
100
AcDbLine
 10
-1355.852918821002
 20
-1089.579863003165
 30
0.0
 11
-1130.276639821002
 21
-1089.579863003165
 31
0.0
  0
LINE
  5
57BA
330
1E
100
AcDbEntity
  8
笠木
  6
Continuous
 62
     4
100
AcDbLine
 10
-1141.549588821002
 20
-1065.379863003165
 30
0.0
 11
-1140.676639821002
 21
-1065.379863003165
 31
0.0
  0
LINE
  5
57BB
330
1E
100
AcDbEntity
  8
笠木
  6
Continuous
 62
     4
100
AcDbLine
 10
-1155.276639821002
 20
-1055.579863003165
 30
0.0
 11
-1137.776639821002
 21
-1055.579863003165
 31
0.0
  0
LINE
  5
57BF
330
1E
100
AcDbEntity
  8
受金具
  6
Continuous
 62
     3
100
AcDbLine
 10
-1142.583578821002
 20
-1039.579863003165
 30
0.0
 11
-1137.776639821002
 21
-1044.386802003165
 31
0.0
  0
LINE
  5
57C0
330
1E
100
AcDbEntity
  8
受金具
  6
Continuous
 62
     3
100
AcDbLine
 10
-1146.119112821002
 20
-1039.579863003165
 30
0.0
 11
-1137.776639821002
 21
-1047.922336003165
 31
0.0
  0
LINE
  5
57C1
330
1E
100
AcDbEntity
  8
受金具
  6
Continuous
 62
     3
100
AcDbLine
 10
-1149.654646821002
 20
-1039.579863003165
 30
0.0
 11
-1137.776639821002
 21
-1051.457870003165
 31
0.0
  0
LINE
  5
57C2
330
1E
100
AcDbEntity
  8
受金具
  6
Continuous
 62
     3
100
AcDbLine
 10
-1153.190179821002
 20
-1039.579863003165
 30
0.0
 11
-1137.776639821002
 21
-1054.993404003165
 31
0.0
  0
LINE
  5
57C3
330
1E
100
AcDbEntity
  8
受金具
  6
Continuous
 62
     3
100
AcDbLine
 10
-1154.561749821002
 20
-1041.743827003165
 30
0.0
 11
-1140.725713821002
 21
-1055.579863003165
 31
0.0
  0
LINE
  5
57C4
330
1E
100
AcDbEntity
  8
受金具
  6
Continuous
 62
     3
100
AcDbLine
 10
-1144.688153821002
 20
-1055.579863003165
 30
0.0
 11
-1137.776639821002
 21
-1048.668348003165
 31
0.0
  0
LINE
  5
57C5
330
1E
100
AcDbEntity
  8
受金具
  6
Continuous
 62
     3
100
AcDbLine
 10
-1148.223687821002
 20
-1055.579863003165
 30
0.0
 11
-1137.776639821002
 21
-1045.132814003165
 31
0.0
  0
LINE
  5
57C6
330
1E
100
AcDbEntity
  8
受金具
  6
Continuous
 62
     3
100
AcDbLine
 10
-1151.759221821002
 20
-1055.579863003165
 30
0.0
 11
-1137.776639821002
 21
-1041.597280003165
 31
0.0
  0
LINE
  5
57C7
330
1E
100
AcDbEntity
  8
受金具
  6
Continuous
 62
     3
100
AcDbLine
 10
-1139.294755821002
 20
-1039.579863003165
 30
0.0
 11
-1155.265161821002
 21
-1055.550269003165
 31
0.0
  0
LINE
  5
57C8
330
1E
100
AcDbEntity
  8
躯体
  6
Continuous
 62
     4
100
AcDbLine
 10
-1155.276639821002
 20
-1039.579863003165
 30
0.0
 11
-1155.276639821002
 21
-1000.550466003165
 31
0.0
  0
LINE
  5
57C9
330
1E
100
AcDbEntity
  8
受金具
  6
Continuous
 62
     4
100
AcDbLine
 10
-1222.276639821002
 20
-1085.579863003165
 30
0.0
 11
-1187.563390821002
 21
-1085.579863003165
 31
0.0
  0
LINE
  5
57CA
330
1E
100
AcDbEntity
  8
躯体
  6
Continuous
 62
     3
100
AcDbLine
 10
-1238.007121821002
 20
-1091.079863003165
 30
0.0
 11
-1230.004549821002
 21
-1099.392299003165
 31
0.0
  0
LINE
  5
57CB
330
1E
100
AcDbEntity
  8
躯体
  6
Continuous
 62
     3
100
AcDbLine
 10
-1226.776639821002
 20
-1099.821004003165
 30
0.0
 11
-1235.178694821002
 21
-1091.079863003165
 31
0.0
  0
LINE
  5
57CC
330
1E
100
AcDbEntity
  8
受金具
  6
Continuous
 62
     3
100
AcDbLine
 10
-1235.276639821002
 20
-1084.579863003165
 30
0.0
 11
-1210.276639821002
 21
-1084.579863003165
 31
0.0
  0
LINE
  5
57CD
330
1E
100
AcDbEntity
  8
受金具
  6
Continuous
 62
     3
100
AcDbLine
 10
-1235.276639821002
 20
-1085.579863003165
 30
0.0
 11
-1235.276639821002
 21
-1084.579863003165
 31
0.0
  0
LINE
  5
57CE
330
1E
100
AcDbEntity
  8
受金具
  6
Continuous
 62
     4
100
AcDbLine
 10
-1261.776639821002
 20
-1076.110541003165
 30
0.0
 11
-1261.776639821002
 21
-1077.379863003165
 31
0.0
  0
LINE
  5
57CF
330
1E
100
AcDbEntity
  8
受金具
  6
Continuous
 62
     4
100
AcDbLine
 10
-1261.776639821002
 20
-1076.110541003165
 30
0.0
 11
-1261.776639821002
 21
-1073.075736003165
 31
0.0
  0
LINE
  5
57D0
330
1E
100
AcDbEntity
  8
受金具
  6
Continuous
 62
     3
100
AcDbLine
 10
-1261.897914821002
 20
-1076.080879003165
 30
0.0
 11
-1261.776639821002
 21
-1075.959604003165
 31
0.0
  0
LINE
  5
57D1
330
1E
100
AcDbEntity
  8
受金具
  6
Continuous
 62
     3
100
AcDbLine
 10
-1261.797404821002
 20
-1076.105416003165
 30
0.0
 11
-1261.776639821002
 21
-1076.084651003165
 31
0.0
  0
LINE
  5
57D2
330
1E
100
AcDbEntity
  8
受金具
  6
Continuous
 62
     3
100
AcDbLine
 10
-1262.370485821002
 20
-1075.971391003165
 30
0.0
 11
-1261.776639821002
 21
-1075.377544003165
 31
0.0
  0
LINE
  5
57D3
330
1E
100
AcDbEntity
  8
受金具
  6
Continuous
 62
     3
100
AcDbLine
 10
-1262.955363821002
 20
-1075.849162003165
 30
0.0
 11
-1261.776639821002
 21
-1074.670437003165
 31
0.0
  0
ARC
  5
57D4
330
1E
100
AcDbEntity
  8
受金具
  6
Continuous
 62
     4
100
AcDbCircle
 10
-1222.776639821002
 20
-1086.579863003165
 30
0.0
 40
5.4
100
AcDbArc
 50
51.31781300000675
 51
90.0
  0
ARC
  5
57D5
330
1E
100
AcDbEntity
  8
受金具
  6
Continuous
 62
     4
100
AcDbCircle
 10
-1222.776639821002
 20
-1086.579863003165
 30
0.0
 40
5.4
100
AcDbArc
 50
90.0
 51
128.8510620000062
  0
LINE
  5
57D6
330
1E
100
AcDbEntity
  8
受金具
  6
PLINE2
 62
     3
100
AcDbLine
 10
-1222.776639821002
 20
-1094.579863003165
 30
0.0
 11
-1222.776639821002
 21
-1089.579863003165
 31
0.0
  0
LINE
  5
57D7
330
1E
100
AcDbEntity
  8
受金具
  6
PLINE2
 62
     3
100
AcDbLine
 10
-1221.776639821002
 20
-1089.579863003165
 30
0.0
 11
-1222.776639821002
 21
-1094.579863003165
 31
0.0
  0
LINE
  5
57D8
330
1E
100
AcDbEntity
  8
受金具
  6
PLINE2
 62
     3
100
AcDbLine
 10
-1223.776639821002
 20
-1089.579863003165
 30
0.0
 11
-1222.776639821002
 21
-1094.579863003165
 31
0.0
  0
LINE
  5
57D9
330
1E
100
AcDbEntity
  8
受金具
  6
PLINE2
 62
     3
100
AcDbLine
 10
-1227.776639821002
 20
-1089.579863003165
 30
0.0
 11
-1226.776639821002
 21
-1094.579863003165
 31
0.0
  0
LINE
  5
57DA
330
1E
100
AcDbEntity
  8
受金具
  6
PLINE2
 62
     3
100
AcDbLine
 10
-1226.776639821002
 20
-1089.579863003165
 30
0.0
 11
-1226.776639821002
 21
-1097.579863003165
 31
0.0
  0
LINE
  5
57DB
330
1E
100
AcDbEntity
  8
受金具
  6
PLINE2
 62
     3
100
AcDbLine
 10
-1217.776639821002
 20
-1089.579863003165
 30
0.0
 11
-1218.776639821002
 21
-1094.579863003165
 31
0.0
  0
LINE
  5
57DC
330
1E
100
AcDbEntity
  8
受金具
  6
PLINE2
 62
     3
100
AcDbLine
 10
-1218.776639821002
 20
-1089.579863003165
 30
0.0
 11
-1218.776639821002
 21
-1097.579863003165
 31
0.0
  0
LINE
  5
57DD
330
1E
100
AcDbEntity
  8
受金具
  6
PLINE2
 62
     3
100
AcDbLine
 10
-1226.776639821002
 20
-1101.579863003165
 30
0.0
 11
-1225.036263821002
 21
-1102.494507003165
 31
0.0
  0
ARC
  5
57DE
330
1E
100
AcDbEntity
  8
受金具
  6
PLINE2
 62
     3
100
AcDbCircle
 10
-1229.143166821002
 20
-1098.955638003165
 30
0.0
 40
0.5
100
AcDbArc
 50
9.462322000007134
 51
189.4623219999942
  0
LINE
  5
57DF
330
1E
100
AcDbEntity
  8
受金具
  6
PLINE2
 62
     3
100
AcDbLine
 10
-1226.776639821002
 20
-1101.579863003165
 30
0.0
 11
-1226.776639821002
 21
-1097.579863003165
 31
0.0
  0
LINE
  5
57E0
330
1E
100
AcDbEntity
  8
受金具
  6
PLINE2
 62
     3
100
AcDbLine
 10
-1223.276639821002
 20
-1097.579863003165
 30
0.0
 11
-1222.776639821002
 21
-1097.579863003165
 31
0.0
  0
LINE
  5
57E1
330
1E
100
AcDbEntity
  8
受金具
  6
PLINE2
 62
     3
100
AcDbLine
 10
-1222.276639821002
 20
-1097.579863003165
 30
0.0
 11
-1222.776639821002
 21
-1097.579863003165
 31
0.0
  0
LINE
  5
57E2
330
1E
100
AcDbEntity
  8
受金具
  6
PLINE2
 62
     3
100
AcDbLine
 10
-1218.776639821002
 20
-1101.579863003165
 30
0.0
 11
-1220.517015821002
 21
-1102.494507003165
 31
0.0
  0
LINE
  5
57E3
330
1E
100
AcDbEntity
  8
受金具
  6
PLINE2
 62
     3
100
AcDbLine
 10
-1218.776639821002
 20
-1101.579863003165
 30
0.0
 11
-1218.776639821002
 21
-1097.579863003165
 31
0.0
  0
LINE
  5
57E4
330
1E
100
AcDbEntity
  8
受金具
  6
PLINE2
 62
     3
100
AcDbLine
 10
-1227.776639821002
 20
-1089.579863003165
 30
0.0
 11
-1222.776639821002
 21
-1089.579863003165
 31
0.0
  0
ARC
  5
57E5
330
1E
100
AcDbEntity
  8
受金具
  6
Continuous
 62
     4
100
AcDbCircle
 10
-1224.279401821002
 20
-1084.708572003165
 30
0.0
 40
3.0
100
AcDbArc
 50
128.6146379999981
 51
177.5410740000038
  0
LINE
  5
57E6
330
1E
100
AcDbEntity
  8
受金具
  6
PLINE2
 62
     3
100
AcDbLine
 10
-1217.776639821002
 20
-1089.579863003165
 30
0.0
 11
-1222.776639821002
 21
-1089.579863003165
 31
0.0
  0
LINE
  5
57E7
330
1E
100
AcDbEntity
  8
受金具
  6
Continuous
 62
     4
100
AcDbLine
 10
-1222.776639821002
 20
-1086.079863003165
 30
0.0
 11
-1222.276639821002
 21
-1085.579863003165
 31
0.0
  0
LINE
  5
57E8
330
1E
100
AcDbEntity
  8
受金具
  6
Continuous
 62
     4
100
AcDbLine
 10
-1222.776639821002
 20
-1086.079863003165
 30
0.0
 11
-1223.276639821002
 21
-1085.579863003165
 31
0.0
  0
ARC
  5
57E9
330
1E
100
AcDbEntity
  8
受金具
  6
Continuous
 62
     4
100
AcDbCircle
 10
-1221.273876821002
 20
-1084.708572003165
 30
0.0
 40
3.0
100
AcDbArc
 50
2.458925999996144
 51
51.38536200000189
  0
ARC
  5
57EA
330
1E
100
AcDbEntity
  8
受金具
  6
PLINE2
 62
     3
100
AcDbCircle
 10
-1216.259445821002
 20
-1098.955638003165
 30
0.0
 40
0.5
100
AcDbArc
 50
350.5376779999928
 51
170.5376779999928
  0
LINE
  5
57EB
330
1E
100
AcDbEntity
  8
受金具
  6
Continuous
 62
     3
100
AcDbLine
 10
-1210.276639821002
 20
-1084.579863003165
 30
0.0
 11
-1210.276639821002
 21
-1085.579863003165
 31
0.0
  0
LINE
  5
57ED
330
1E
100
AcDbEntity
  8
笠木
  6
Continuous
 62
     4
100
AcDbLine
 10
-1142.476639821002
 20
-1062.379863003165
 30
0.0
 11
-1142.476639821002
 21
-1057.379863003165
 31
0.0
  0
LINE
  5
57EE
330
1E
100
AcDbEntity
  8
笠木
  6
Continuous
 62
     4
100
AcDbLine
 10
-1153.476639821002
 20
-1064.325447003165
 30
0.0
 11
-1153.476639821002
 21
-1057.379863003165
 31
0.0
  0
LINE
  5
57EF
330
1E
100
AcDbEntity
  8
笠木
  6
Continuous
 62
     4
100
AcDbLine
 10
-1155.276639821002
 20
-1063.579863003165
 30
0.0
 11
-1155.276639821002
 21
-1055.579863003165
 31
0.0
  0
LINE
  5
57F0
330
1E
100
AcDbEntity
  8
受金具
  6
Continuous
 62
     4
100
AcDbLine
 10
-1144.143732821002
 20
-1059.152257003165
 30
0.0
 11
-1142.676639821002
 21
-1062.379863003165
 31
0.0
  0
LINE
  5
57F1
330
1E
100
AcDbEntity
  8
受金具
  6
Continuous
 62
     4
100
AcDbLine
 10
-1147.676639821002
 20
-1073.079863003165
 30
0.0
 11
-1147.676639821002
 21
-1058.479863003165
 31
0.0
  0
LINE
  5
57F2
330
1E
100
AcDbEntity
  8
受金具
  6
Continuous
 62
     4
100
AcDbLine
 10
-1146.676639821002
 20
-1077.579863003165
 30
0.0
 11
-1176.593735821002
 21
-1077.579863003165
 31
0.0
  0
LINE
  5
57F3
330
1E
100
AcDbEntity
  8
受金具
  6
Continuous
 62
     4
100
AcDbLine
 10
-1177.748435821002
 20
-1074.579863003165
 30
0.0
 11
-1149.176639821002
 21
-1074.579863003165
 31
0.0
  0
LINE
  5
57F4
330
1E
100
AcDbEntity
  8
受金具
  6
Continuous
 62
     4
100
AcDbLine
 10
-1184.965314821002
 20
-1084.079863003165
 30
0.0
 11
-1180.346512821002
 21
-1076.079863003165
 31
0.0
  0
LINE
  5
57F5
330
1E
100
AcDbEntity
  8
受金具
  6
Continuous
 62
     4
100
AcDbLine
 10
-1178.325786821002
 20
-1078.579863003165
 30
0.0
 11
-1184.099288821002
 21
-1088.579863003165
 31
0.0
  0
ARC
  5
57F6
330
1E
100
AcDbEntity
  8
受金具
  6
Continuous
 62
     4
100
AcDbCircle
 10
-1187.563390821002
 20
-1082.579863003165
 30
0.0
 40
3.0
100
AcDbArc
 50
270.0
 51
330.0000000000027
  0
ARC
  5
57F7
330
1E
100
AcDbEntity
  8
受金具
  6
Continuous
 62
     4
100
AcDbCircle
 10
-1185.831339821002
 20
-1087.579863003165
 30
0.0
 40
2.0
100
AcDbArc
 50
270.0
 51
330.0000000000027
  0
ARC
  5
57F8
330
1E
100
AcDbEntity
  8
受金具
  6
Continuous
 62
     4
100
AcDbCircle
 10
-1177.748435821002
 20
-1077.579863003165
 30
0.0
 40
3.0
100
AcDbArc
 50
90.0
 51
150.0000000000027
  0
ARC
  5
57F9
330
1E
100
AcDbEntity
  8
受金具
  6
Continuous
 62
     4
100
AcDbCircle
 10
-1176.593735821002
 20
-1079.579863003165
 30
0.0
 40
2.0
100
AcDbArc
 50
90.0
 51
150.0000000000027
  0
LINE
  5
57FA
330
1E
100
AcDbEntity
  8
笠木
  6
Continuous
 62
     4
100
AcDbLine
 10
-1157.276639821002
 20
-1065.579863003165
 30
0.0
 11
-1155.276639821002
 21
-1063.579863003165
 31
0.0
  0
LINE
  5
57FB
330
1E
100
AcDbEntity
  8
受金具
  6
Continuous
 62
     4
100
AcDbLine
 10
-1144.676639821002
 20
-1062.379863003165
 30
0.0
 11
-1144.676639821002
 21
-1075.579863003165
 31
0.0
  0
ARC
  5
57FC
330
1E
100
AcDbEntity
  8
受金具
  6
Continuous
 62
     4
100
AcDbCircle
 10
-1149.176639821002
 20
-1073.079863003165
 30
0.0
 40
1.5
100
AcDbArc
 50
270.0
 51
0.0
  0
ARC
  5
57FD
330
1E
100
AcDbEntity
  8
受金具
  6
Continuous
 62
     4
100
AcDbCircle
 10
-1146.676639821002
 20
-1075.579863003165
 30
0.0
 40
2.0
100
AcDbArc
 50
270.0
 51
0.0
  0
LINE
  5
57FE
330
1E
100
AcDbEntity
  8
笠木
  6
Continuous
 62
     4
100
AcDbLine
 10
-1156.497193821002
 20
-1067.346001003165
 30
0.0
 11
-1153.476639821002
 21
-1064.325447003165
 31
0.0
  0
ARC
  5
57FF
330
1E
100
AcDbEntity
  8
笠木
  6
Continuous
 62
     4
100
AcDbCircle
 10
-1141.549588821002
 20
-1063.879863003165
 30
0.0
 40
1.5
100
AcDbArc
 50
206.5650509999937
 51
270.0
  0
LINE
  5
5800
330
1E
100
AcDbEntity
  8
笠木
  6
Continuous
 62
     4
100
AcDbLine
 10
-1143.976639821002
 20
-1062.379863003165
 30
0.0
 11
-1142.891228821002
 21
-1064.550683003165
 31
0.0
  0
LINE
  5
5801
330
1E
100
AcDbEntity
  8
笠木
  6
Continuous
 62
     4
100
AcDbLine
 10
-1143.976639821002
 20
-1062.379863003165
 30
0.0
 11
-1142.476639821002
 21
-1062.379863003165
 31
0.0
  0
LINE
  5
5802
330
1E
100
AcDbEntity
  8
受金具
  6
Continuous
 62
     4
100
AcDbLine
 10
-1142.676639821002
 20
-1062.379863003165
 30
0.0
 11
-1144.676639821002
 21
-1062.379863003165
 31
0.0
  0
ARC
  5
5803
330
1E
100
AcDbEntity
  8
受金具
  6
Continuous
 62
     4
100
AcDbCircle
 10
-1175.859972821002
 20
-1047.579863003165
 30
0.0
 40
22.083333
100
AcDbArc
 50
338.7606890000017
 51
21.23931099999825
  0
LINE
  5
5804
330
1E
100
AcDbEntity
  8
受金具
  6
Continuous
 62
     3
100
AcDbLine
 10
-1153.832616821002
 20
-1046.008494003165
 30
0.0
 11
-1144.261247821002
 21
-1055.579863003165
 31
0.0
  0
LINE
  5
5805
330
1E
100
AcDbEntity
  8
受金具
  6
Continuous
 62
     3
100
AcDbLine
 10
-1153.861593821002
 20
-1049.515051003165
 30
0.0
 11
-1147.796781821002
 21
-1055.579863003165
 31
0.0
  0
LINE
  5
5806
330
1E
100
AcDbEntity
  8
受金具
  6
Continuous
 62
     3
100
AcDbLine
 10
-1142.830289821002
 20
-1039.579863003165
 30
0.0
 11
-1154.006204821002
 21
-1050.755778003165
 31
0.0
  0
LINE
  5
5807
330
1E
100
AcDbEntity
  8
笠木
  6
Continuous
 62
     4
100
AcDbLine
 10
-1142.476639821002
 20
-1057.379863003165
 30
0.0
 11
-1153.476639821002
 21
-1057.379863003165
 31
0.0
  0
LINE
  5
5808
330
1E
100
AcDbEntity
  8
受金具
  6
Continuous
 62
     3
100
AcDbLine
 10
-1154.346768821002
 20
-1052.565410003165
 30
0.0
 11
-1151.332315821002
 21
-1055.579863003165
 31
0.0
  0
LINE
  5
5809
330
1E
100
AcDbEntity
  8
受金具
  6
Continuous
 62
     3
100
AcDbLine
 10
-1155.163981821002
 20
-1055.283731003165
 30
0.0
 11
-1154.867849821002
 21
-1055.579863003165
 31
0.0
  0
LINE
  5
580A
330
1E
100
AcDbEntity
  8
受金具
  6
Continuous
 62
     3
100
AcDbLine
 10
-1155.266102821002
 20
-1055.552699003165
 30
0.0
 11
-1155.238937821002
 21
-1055.579863003165
 31
0.0
  0
ARC
  5
580B
330
1E
100
AcDbEntity
  8
受金具
  6
Continuous
 62
     4
100
AcDbCircle
 10
-1145.964465821002
 20
-1059.979863003165
 30
0.0
 40
2.0
100
AcDbArc
 50
24.44395499999944
 51
90.0
  0
LINE
  5
580C
330
1E
100
AcDbEntity
  8
受金具
  6
Continuous
 62
     4
100
AcDbLine
 10
-1147.176639821002
 20
-1057.979863003165
 30
0.0
 11
-1145.964465821002
 21
-1057.979863003165
 31
0.0
  0
ARC
  5
580D
330
1E
100
AcDbEntity
  8
受金具
  6
Continuous
 62
     4
100
AcDbCircle
 10
-1147.176639821002
 20
-1058.479863003165
 30
0.0
 40
0.5
100
AcDbArc
 50
90.0
 51
180.0
  0
LINE
  5
580E
330
1E
100
AcDbEntity
  8
受金具
  6
Continuous
 62
     3
100
AcDbLine
 10
-1146.365823821002
 20
-1039.579863003165
 30
0.0
 11
-1153.784297821002
 21
-1046.998337003165
 31
0.0
  0
LINE
  5
580F
330
1E
100
AcDbEntity
  8
受金具
  6
Continuous
 62
     3
100
AcDbLine
 10
-1149.901357821002
 20
-1039.579863003165
 30
0.0
 11
-1154.105343821002
 21
-1043.783849003165
 31
0.0
  0
LINE
  5
5810
330
1E
100
AcDbEntity
  8
受金具
  6
Continuous
 62
     3
100
AcDbLine
 10
-1153.436890821002
 20
-1039.579863003165
 30
0.0
 11
-1154.798143821002
 21
-1040.941115003165
 31
0.0
  0
LINE
  5
5819
330
1E
100
AcDbEntity
  8
躯体
  6
Continuous
 62
     4
100
AcDbLine
 10
-1130.276639821002
 20
-1091.079863003165
 30
0.0
 11
-1130.276639821002
 21
-1039.579863003165
 31
0.0
  0
LINE
  5
581B
330
1E
100
AcDbEntity
  8
笠木
  6
Continuous
 62
     4
100
AcDbLine
 10
-1140.676639821002
 20
-1057.379863003165
 30
0.0
 11
-1140.676639821002
 21
-1065.379863003165
 31
0.0
  0
LINE
  5
5826
330
1E
100
AcDbEntity
  8
受金具
  6
Continuous
 62
     3
100
AcDbLine
 10
-1137.776639821002
 20
-1039.579863003165
 30
0.0
 11
-1130.276639821002
 21
-1055.579863003165
 31
0.0
  0
LINE
  5
5827
330
1E
100
AcDbEntity
  8
受金具
  6
Continuous
 62
     4
100
AcDbLine
 10
-1137.776639821002
 20
-1055.579863003165
 30
0.0
 11
-1137.776639821002
 21
-1039.579863003165
 31
0.0
  0
LINE
  5
5828
330
1E
100
AcDbEntity
  8
受金具
  6
Continuous
 62
     4
100
AcDbLine
 10
-1136.276639821002
 20
-1055.579863003165
 30
0.0
 11
-1130.276639821002
 21
-1055.579863003165
 31
0.0
  0
LINE
  5
5829
330
1E
100
AcDbEntity
  8
笠木
  6
Continuous
 62
     4
100
AcDbLine
 10
-1136.276639821002
 20
-1052.579863003165
 30
0.0
 11
-1136.276639821002
 21
-1055.579863003165
 31
0.0
  0
LINE
  5
582A
330
1E
100
AcDbEntity
  8
笠木
  6
Continuous
 62
     4
100
AcDbLine
 10
-1137.776639821002
 20
-1055.579863003165
 30
0.0
 11
-1137.776639821002
 21
-1052.579863003165
 31
0.0
  0
LINE
  5
582B
330
1E
100
AcDbEntity
  8
受金具
  6
Continuous
 62
     3
100
AcDbLine
 10
-1141.152619821002
 20
-1055.579863003165
 30
0.0
 11
-1137.776639821002
 21
-1052.203882003165
 31
0.0
  0
LINE
  5
582C
330
1E
100
AcDbEntity
  8
笠木
  6
Continuous
 62
     4
100
AcDbLine
 10
-1140.676639821002
 20
-1057.379863003165
 30
0.0
 11
-1136.276639821002
 21
-1057.379863003165
 31
0.0
  0
LINE
  5
582D
330
1E
100
AcDbEntity
  8
笠木
  6
Continuous
 62
     4
100
AcDbLine
 10
-1136.276639821002
 20
-1055.579863003165
 30
0.0
 11
-1136.276639821002
 21
-1057.379863003165
 31
0.0
  0
LINE
  5
582E
330
1E
100
AcDbEntity
  8
笠木
  6
Continuous
 62
     4
100
AcDbLine
 10
-1137.776639821002
 20
-1052.579863003165
 30
0.0
 11
-1136.276639821002
 21
-1052.579863003165
 31
0.0
  0
LINE
  5
582F
330
1E
100
AcDbEntity
  8
受金具
  6
Continuous
 62
     3
100
AcDbLine
 10
-1139.048044821002
 20
-1039.579863003165
 30
0.0
 11
-1137.776639821002
 21
-1040.851268003165
 31
0.0
  0
DIMENSION
  5
583B
330
1E
100
AcDbEntity
  8
寸法
  6
Continuous
100
AcDbDimension
  2
*D74
 10
-1136.276639821002
 20
-1009.825924003165
 30
0.0
 11
-1133.276639821002
 21
-1006.325924003165
 31
0.0
 70
    32
 71
     5
 42
-1.0
  3
AutoCAD
100
AcDbAlignedDimension
 13
-1130.276639821002
 23
-1038.767473589906
 33
0.0
 14
-1136.276639821002
 24
-1038.767473589906
 34
0.0
100
AcDbRotatedDimension
  0
DIMENSION
  5
585A
330
1E
100
AcDbEntity
  8
寸法
  6
Continuous
100
AcDbDimension
  2
*D75
 10
-1155.276639821002
 20
-1009.825924003165
 30
0.0
 11
-1145.776639821002
 21
-1006.325924003165
 31
0.0
 70
    32
 71
     5
 42
-1.0
  3
AutoCAD
100
AcDbAlignedDimension
 13
-1136.276639821002
 23
-1038.767473589906
 33
0.0
 14
-1155.276639821002
 24
-1038.767473589906
 34
0.0
100
AcDbRotatedDimension
1001
ACAD
1000
DSTYLE
1002
{
1070
   279
1070
     1
1070
   289
1070
     3
1002
}
  0
DIMENSION
  5
5867
330
1E
100
AcDbEntity
  8
寸法
  6
Continuous
100
AcDbDimension
  2
*D76
 10
-1380.276639821002
 20
-1009.825924003165
 30
0.0
 11
-1267.776639821002
 21
-1006.325924003165
 31
0.0
 70
    32
 71
     5
 42
-1.0
  3
AutoCAD
100
AcDbAlignedDimension
 13
-1155.276639821002
 23
-1038.767473589906
 33
0.0
 14
-1380.276639821002
 24
-1038.767473589906
 34
0.0
100
AcDbRotatedDimension
1001
ACAD
1000
DSTYLE
1002
{
1070
   279
1070
     1
1070
   289
1070
     3
1002
}
  0
DIMENSION
  5
5874
330
1E
100
AcDbEntity
  8
寸法
  6
Continuous
100
AcDbDimension
  2
*D77
 10
-1155.276639821002
 20
-1030.064178003165
 30
0.0
 11
-1142.776639821002
 21
-1026.564178003165
 31
0.0
 70
    32
 71
     5
 42
-1.0
  3
AutoCAD
100
AcDbAlignedDimension
 13
-1130.276639821002
 23
-1038.579863003165
 33
0.0
 14
-1155.276639821002
 24
-1038.767473589906
 34
0.0
100
AcDbRotatedDimension
  0
DIMENSION
  5
5881
330
1E
100
AcDbEntity
  8
寸法
  6
Continuous
100
AcDbDimension
  2
*D78
 10
-1267.776639821002
 20
-1030.064178003165
 30
0.0
 11
-1211.526639821002
 21
-1026.564178003165
 31
0.0
 70
    32
  1
112.5
 71
     5
 42
-1.0
  3
AutoCAD
100
AcDbAlignedDimension
 13
-1155.276639821002
 23
-1038.767473589906
 33
0.0
 14
-1267.776639821002
 24
-1038.767473589906
 34
0.0
100
AcDbRotatedDimension
1001
ACAD
1000
DSTYLE
1002
{
1070
   279
1070
     1
1070
   289
1070
     3
1002
}
  0
DIMENSION
  5
5897
330
1E
100
AcDbEntity
  8
寸法
  6
Continuous
100
AcDbDimension
  2
*D79
 10
-1428.218777821002
 20
-1065.579863003165
 30
0.0
 11
-1431.718777821002
 21
-1060.579863003165
 31
0.0
 70
    32
 71
     5
 42
-1.0
  3
AutoCAD
100
AcDbAlignedDimension
 13
-1386.902146450113
 23
-1055.579863003165
 33
0.0
 14
-1386.902146450113
 24
-1065.579863003165
 34
0.0
 50
90.0
100
AcDbRotatedDimension
  0
DIMENSION
  5
58A4
330
1E
100
AcDbEntity
  8
寸法
  6
Continuous
100
AcDbDimension
  2
*D80
 10
-1428.218777821002
 20
-1075.579863003165
 30
0.0
 11
-1431.718777821002
 21
-1070.579863003165
 31
0.0
 70
    32
 71
     5
 42
-1.0
  3
AutoCAD
100
AcDbAlignedDimension
 13
-1386.902146450113
 23
-1065.579863003165
 33
0.0
 14
-1386.902146450113
 24
-1075.579863003165
 34
0.0
 50
90.0
100
AcDbRotatedDimension
1001
ACAD
1000
DSTYLE
1002
{
1070
   279
1070
     1
1070
   289
1070
     3
1002
}
  0
DIMENSION
  5
58B1
330
1E
100
AcDbEntity
  8
寸法
  6
Continuous
100
AcDbDimension
  2
*D81
 10
-1428.218777821002
 20
-1135.579863003165
 30
0.0
 11
-1431.718777821002
 21
-1105.579863003165
 31
0.0
 70
    32
 71
     5
 42
-1.0
  3
AutoCAD
100
AcDbAlignedDimension
 13
-1386.902146450113
 23
-1075.579863003165
 33
0.0
 14
-1386.902146450113
 24
-1135.579863003165
 34
0.0
 50
90.0
100
AcDbRotatedDimension
1001
ACAD
1000
DSTYLE
1002
{
1070
   279
1070
     1
1070
   289
1070
     3
1002
}
  0
DIMENSION
  5
58BE
330
1E
100
AcDbEntity
  8
寸法
  6
Continuous
100
AcDbDimension
  2
*D82
 10
-1403.926687821002
 20
-1135.579863003165
 30
0.0
 11
-1407.426687821002
 21
-1112.579863003165
 31
0.0
 70
    32
 71
     5
 42
-1.0
  3
AutoCAD
100
AcDbAlignedDimension
 13
-1386.902146450113
 23
-1089.579863003165
 33
0.0
 14
-1386.902146450113
 24
-1135.579863003165
 34
0.0
 50
90.0
100
AcDbRotatedDimension
  0
DIMENSION
  5
58CB
330
1E
100
AcDbEntity
  8
寸法
  6
Continuous
100
AcDbDimension
  2
*D83
 10
-1111.348465821002
 20
-1055.579863003165
 30
0.0
 11
-1114.848465821002
 21
-1047.579863003165
 31
0.0
 70
    32
 71
     5
 42
-1.0
  3
AutoCAD
100
AcDbAlignedDimension
 13
-1122.416933591465
 23
-1039.579863003165
 33
0.0
 14
-1122.416933591465
 24
-1055.579863003165
 34
0.0
 50
90.0
100
AcDbRotatedDimension
  0
DIMENSION
  5
58D8
330
1E
100
AcDbEntity
  8
寸法
  6
Continuous
100
AcDbDimension
  2
*D84
 10
-1111.348465821002
 20
-1089.579863003165
 30
0.0
 11
-1114.848465821002
 21
-1072.579863003165
 31
0.0
 70
    32
 71
     5
 42
-1.0
  3
AutoCAD
100
AcDbAlignedDimension
 13
-1122.416933591465
 23
-1055.579863003165
 33
0.0
 14
-1122.416933591465
 24
-1089.579863003165
 34
0.0
 50
90.0
100
AcDbRotatedDimension
1001
ACAD
1000
DSTYLE
1002
{
1070
   279
1070
     1
1070
   289
1070
     3
1002
}
  0
DIMENSION
  5
58E5
330
1E
100
AcDbEntity
  8
寸法
  6
Continuous
100
AcDbDimension
  2
*D85
 10
-1090.763601821002
 20
-1039.579863003165
 30
0.0
 11
-1094.263601821002
 21
-1064.579863003165
 31
0.0
 70
    32
 71
     5
 42
-1.0
  3
AutoCAD
100
AcDbAlignedDimension
 13
-1122.416933591465
 23
-1089.579863003165
 33
0.0
 14
-1122.416933591465
 24
-1039.579863003165
 34
0.0
 50
90.0
100
AcDbRotatedDimension
  0
DIMENSION
  5
58F2
330
1E
100
AcDbEntity
  8
寸法
  6
Continuous
100
AcDbDimension
  2
*D86
 10
-1267.776639821002
 20
-1153.061652003165
 30
0.0
 11
-1290.276639821002
 21
-1149.561652003165
 31
0.0
 70
    32
 71
     5
 42
-1.0
  3
AutoCAD
100
AcDbAlignedDimension
 13
-1312.776639821002
 23
-1138.251352628635
 33
0.0
 14
-1267.776639821002
 24
-1138.251352628635
 34
0.0
100
AcDbRotatedDimension
  0
DIMENSION
  5
58FF
330
1E
100
AcDbEntity
  8
寸法
  6
Continuous
100
AcDbDimension
  2
*D87
 10
-1222.776639821002
 20
-1153.061652003165
 30
0.0
 11
-1245.276639821002
 21
-1149.561652003165
 31
0.0
 70
    32
 71
     5
 42
-1.0
  3
AutoCAD
100
AcDbAlignedDimension
 13
-1267.776639821002
 23
-1138.251352628635
 33
0.0
 14
-1222.776639821002
 24
-1138.251352628635
 34
0.0
100
AcDbRotatedDimension
1001
ACAD
1000
DSTYLE
1002
{
1070
   279
1070
     1
1070
   289
1070
     3
1002
}
  0
DIMENSION
  5
590D
330
1E
100
AcDbEntity
  8
寸法
  6
Continuous
100
AcDbDimension
  2
*D88
 10
-1380.276639821002
 20
-1170.109731003165
 30
0.0
 11
-1372.776639821002
 21
-1166.609731003165
 31
0.0
 70
    32
  1
15~20
 71
     5
 42
-1.0
  3
AutoCAD
100
AcDbAlignedDimension
 13
-1365.276639821002
 23
-1154.507830440877
 33
0.0
 14
-1380.276639821002
 24
-1154.507830440877
 34
0.0
100
AcDbRotatedDimension
  0
LINE
  5
59B7
330
1E
100
AcDbEntity
  8
受金具
  6
Continuous
 62
     4
100
AcDbLine
 10
-1155.276639821002
 20
-1039.579862923013
 30
0.0
 11
-1130.276639821002
 21
-1039.579862923013
 31
0.0
  0
LINE
  5
59B9
330
1E
100
AcDbEntity
  8
受金具
  6
Continuous
 62
     4
100
AcDbLine
 10
-1130.276639821002
 20
-1055.579863003165
 30
0.0
 11
-1130.276639821002
 21
-1039.579862923013
 31
0.0
  0
LINE
  5
59BA
330
1E
100
AcDbEntity
  8
受金具
  6
Continuous
 62
     4
100
AcDbLine
 10
-1155.276639821002
 20
-1055.579863003165
 30
0.0
 11
-1137.776639821002
 21
-1055.579863003165
 31
0.0
  0
ENDSEC
  0
SECTION
  2
OBJECTS
  0
DICTIONARY
  5
C
330
0
100
AcDbDictionary
281
     1
  3
ACAD_GROUP
350
D
  3
ACAD_LAYOUT
350
19
  3
ACAD_MLINESTYLE
350
16
  3
ACAD_PLOTSETTINGS
350
18
  3
ACAD_PLOTSTYLENAME
350
E
  3
AcDbVariableDictionary
350
169
  0
DICTIONARY
  5
175
330
2
100
AcDbDictionary
280
     1
281
     1
  3
ACAD_LAYERFILTERS
360
185
  3
ACAD_LAYERSTATES
360
176
  0
DICTIONARY
  5
28B
330
1E
100
AcDbDictionary
280
     1
281
     1
  3
ACAD_LAYOUTSELFREF
360
596C
  0
DICTIONARY
  5
28D
330
1A
100
AcDbDictionary
280
     1
281
     1
  3
ACAD_LAYOUTSELFREF
360
596B
  0
DICTIONARY
  5
D
102
{ACAD_REACTORS
330
C
102
}
330
C
100
AcDbDictionary
281
     1
  0
DICTIONARY
  5
19
102
{ACAD_REACTORS
330
C
102
}
330
C
100
AcDbDictionary
281
     1
  3
Model
350
21
  3
ﾚｲｱｳﾄ1
350
1D
  0
DICTIONARY
  5
16
102
{ACAD_REACTORS
330
C
102
}
330
C
100
AcDbDictionary
281
     1
  3
Standard
350
17
  0
DICTIONARY
  5
18
102
{ACAD_REACTORS
330
C
102
}
330
C
100
AcDbDictionary
281
     1
  0
ACDBDICTIONARYWDFLT
  5
E
102
{ACAD_REACTORS
330
C
102
}
330
C
100
AcDbDictionary
281
     1
  3
Normal
350
F
100
AcDbDictionaryWithDefault
340
F
1001
ACAD
1000
TREAT_AS_HARD
1070
     0
1000
TREAT_AS_HARD
1070
     0
1000
TREAT_AS_HARD
1070
     0
1000
TREAT_AS_HARD
1070
     0
1000
TREAT_AS_HARD
1070
     0
1000
TREAT_AS_HARD
1070
     0
1000
TREAT_AS_HARD
1070
     0
1000
TREAT_AS_HARD
1070
     0
1000
TREAT_AS_HARD
1070
     0
1000
TREAT_AS_HARD
1070
     0
1000
TREAT_AS_HARD
1070
     0
1000
TREAT_AS_HARD
1070
     0
1000
TREAT_AS_HARD
1070
     0
1000
TREAT_AS_HARD
1070
     0
1000
TREAT_AS_HARD
1070
     0
1000
TREAT_AS_HARD
1070
     0
1000
TREAT_AS_HARD
1070
     0
1000
TREAT_AS_HARD
1070
     0
1000
TREAT_AS_HARD
1070
     0
1000
TREAT_AS_HARD
1070
     0
1000
TREAT_AS_HARD
1070
     0
1000
TREAT_AS_HARD
1070
     0
  0
DICTIONARY
  5
169
102
{ACAD_REACTORS
330
C
102
}
330
C
100
AcDbDictionary
281
     1
  3
DIMASSOC
350
16A
  0
DICTIONARY
  5
185
102
{ACAD_REACTORS
330
175
102
}
330
175
100
AcDbDictionary
280
     1
281
     1
  0
DICTIONARY
  5
176
102
{ACAD_REACTORS
330
175
102
}
330
175
100
AcDbDictionary
281
     1
  3
ACAD
350
177
  0
XRECORD
  5
596C
102
{ACAD_REACTORS
330
28B
102
}
330
28B
100
AcDbXrecord
280
     1
340
1E
  0
XRECORD
  5
596B
102
{ACAD_REACTORS
330
28D
102
}
330
28D
100
AcDbXrecord
280
     1
340
1A
  0
LAYOUT
  5
21
102
{ACAD_REACTORS
330
19
102
}
330
19
100
AcDbPlotSettings
  1

  2
\\MEISEI-1\EPSON Stylus Photo EX3
  4

  6

 40
0.0
 41
0.0
 42
0.0
 43
0.0
 44
0.0
 45
0.0
 46
0.0
 47
0.0
 48
0.0
 49
0.0
140
0.0
141
0.0
142
1.0
143
1.0
 70
  1712
 72
     0
 73
     0
 74
     0
  7

 75
     0
147
1.0
148
0.0
149
0.0
100
AcDbLayout
  1
Model
 70
     1
 71
     0
 10
0.0
 20
0.0
 11
12.0
 21
9.0
 12
0.0
 22
0.0
 32
0.0
 14
0.0
 24
0.0
 34
0.0
 15
0.0
 25
0.0
 35
0.0
146
0.0
 13
0.0
 23
0.0
 33
0.0
 16
1.0
 26
0.0
 36
0.0
 17
0.0
 27
1.0
 37
0.0
 76
     0
330
1E
  0
LAYOUT
  5
1D
102
{ACAD_REACTORS
330
19
102
}
330
19
100
AcDbPlotSettings
  1

  2
\\MEISEI-1\EPSON Stylus Photo EX3
  4

  6

 40
0.0
 41
0.0
 42
0.0
 43
0.0
 44
0.0
 45
0.0
 46
0.0
 47
0.0
 48
0.0
 49
0.0
140
0.0
141
0.0
142
1.0
143
1.0
 70
   688
 72
     0
 73
     0
 74
     5
  7

 75
    16
147
1.0
148
0.0
149
0.0
100
AcDbLayout
  1
ﾚｲｱｳﾄ1
 70
     1
 71
     1
 10
0.0
 20
0.0
 11
12.0
 21
9.0
 12
0.0
 22
0.0
 32
0.0
 14
1.000000000000000E+20
 24
1.000000000000000E+20
 34
1.000000000000000E+20
 15
-1.000000000000000E+20
 25
-1.000000000000000E+20
 35
-1.000000000000000E+20
146
0.0
 13
0.0
 23
0.0
 33
0.0
 16
1.0
 26
0.0
 36
0.0
 17
0.0
 27
1.0
 37
0.0
 76
     0
330
1A
  0
MLINESTYLE
  5
17
102
{ACAD_REACTORS
330
16
102
}
330
16
100
AcDbMlineStyle
  2
STANDARD
 70
     0
  3

 62
   256
 51
90.0
 52
90.0
 71
     2
 49
0.5
 62
   256
  6
BYLAYER
 49
-0.5
 62
   256
  6
BYLAYER
  0
ACDBPLACEHOLDER
  5
F
102
{ACAD_REACTORS
330
E
102
}
330
E
  0
DICTIONARYVAR
  5
16A
102
{ACAD_REACTORS
330
169
102
}
330
169
100
DictionaryVariables
280
     0
  1
1
  0
XRECORD
  5
177
102
{ACAD_REACTORS
330
176
102
}
330
176
100
AcDbXrecord
280
     1
 91
      476
330
17A
 90
        8
 62
     7
370
    -3
331
15
  1
Color_7
330
179
 90
        8
 62
     7
370
    -3
331
15
  1
Color_7
330
178
 90
        8
 62
     7
370
    -3
331
15
  1
Color_7
330
128
 90
        0
 62
     7
370
    -3
331
15
  1
Color_7
330
10
 90
        8
 62
     7
370
    -3
331
15
  1
Color_7
  0
ENDSEC
  0
EOF
