  0
SECTION
  2
HEADER
  9
$ACADVER
  1
AC1015
  9
$ACADMAINTVER
 70
    20
  9
$DWGCODEPAGE
  3
ANSI_932
  9
$INSBASE
 10
0.0
 20
0.0
 30
0.0
  9
$EXTMIN
 10
828.0872688863482
 20
1683.041666531598
 30
-0.0000000349181948
  9
$EXTMAX
 10
1860.641223516875
 20
2317.878131375002
 30
0.0000000814935746
  9
$LIMMIN
 10
0.0
 20
0.0
  9
$LIMMAX
 10
420.0
 20
297.0
  9
$ORTHOMODE
 70
     0
  9
$REGENMODE
 70
     1
  9
$FILLMODE
 70
     1
  9
$QTEXTMODE
 70
     0
  9
$MIRRTEXT
 70
     1
  9
$LTSCALE
 40
1.0
  9
$ATTMODE
 70
     1
  9
$TEXTSIZE
 40
5.0
  9
$TRACEWID
 40
0.05
  9
$TEXTSTYLE
  7
ACAD
  9
$CLAYER
  8
0
  9
$CELTYPE
  6
CONTINUOUS
  9
$CECOLOR
 62
   256
  9
$CELTSCALE
 40
1.0
  9
$DISPSILH
 70
     0
  9
$DIMSCALE
 40
1.0
  9
$DIMASZ
 40
1.0
  9
$DIMEXO
 40
0.0
  9
$DIMDLI
 40
0.38
  9
$DIMRND
 40
0.0
  9
$DIMDLE
 40
0.0
  9
$DIMEXE
 40
0.0
  9
$DIMTP
 40
0.0
  9
$DIMTM
 40
0.0
  9
$DIMTXT
 40
5.0
  9
$DIMCEN
 40
0.09
  9
$DIMTSZ
 40
0.0
  9
$DIMTOL
 70
     0
  9
$DIMLIM
 70
     0
  9
$DIMTIH
 70
     0
  9
$DIMTOH
 70
     1
  9
$DIMSE1
 70
     0
  9
$DIMSE2
 70
     0
  9
$DIMTAD
 70
     1
  9
$DIMZIN
 70
     0
  9
$DIMBLK
  1
DotSmall
  9
$DIMASO
 70
     1
  9
$DIMSHO
 70
     1
  9
$DIMPOST
  1

  9
$DIMAPOST
  1

  9
$DIMALT
 70
     0
  9
$DIMALTD
 70
     2
  9
$DIMALTF
 40
25.4
  9
$DIMLFAC
 40
1.0
  9
$DIMTOFL
 70
     0
  9
$DIMTVP
 40
0.0
  9
$DIMTIX
 70
     1
  9
$DIMSOXD
 70
     0
  9
$DIMSAH
 70
     0
  9
$DIMBLK1
  1

  9
$DIMBLK2
  1

  9
$DIMSTYLE
  2
111
  9
$DIMCLRD
 70
     4
  9
$DIMCLRE
 70
     4
  9
$DIMCLRT
 70
     3
  9
$DIMTFAC
 40
1.0
  9
$DIMGAP
 40
1.0
  9
$DIMJUST
 70
     0
  9
$DIMSD1
 70
     0
  9
$DIMSD2
 70
     0
  9
$DIMTOLJ
 70
     1
  9
$DIMTZIN
 70
     0
  9
$DIMALTZ
 70
     0
  9
$DIMALTTZ
 70
     0
  9
$DIMUPT
 70
     0
  9
$DIMDEC
 70
     0
  9
$DIMTDEC
 70
     0
  9
$DIMALTU
 70
     2
  9
$DIMALTTD
 70
     2
  9
$DIMTXSTY
  7
ACAD
  9
$DIMAUNIT
 70
     0
  9
$DIMADEC
 70
     0
  9
$DIMALTRND
 40
0.0
  9
$DIMAZIN
 70
     0
  9
$DIMDSEP
 70
    46
  9
$DIMATFIT
 70
     0
  9
$DIMFRAC
 70
     0
  9
$DIMLDRBLK
  1
None
  9
$DIMLUNIT
 70
     2
  9
$DIMLWD
 70
    -2
  9
$DIMLWE
 70
    -2
  9
$DIMTMOVE
 70
     0
  9
$LUNITS
 70
     2
  9
$LUPREC
 70
     4
  9
$SKETCHINC
 40
0.1
  9
$FILLETRAD
 40
0.0
  9
$AUNITS
 70
     0
  9
$AUPREC
 70
     0
  9
$MENU
  1
.
  9
$ELEVATION
 40
0.0
  9
$PELEVATION
 40
0.0
  9
$THICKNESS
 40
0.0
  9
$LIMCHECK
 70
     0
  9
$CHAMFERA
 40
0.0
  9
$CHAMFERB
 40
0.0
  9
$CHAMFERC
 40
0.0
  9
$CHAMFERD
 40
0.0
  9
$SKPOLY
 70
     0
  9
$TDCREATE
 40
2454316.693457674
  9
$TDUCREATE
 40
2454316.318457674
  9
$TDUPDATE
 40
2454726.558121736
  9
$TDUUPDATE
 40
2454726.183121736
  9
$TDINDWG
 40
0.2563874074
  9
$TDUSRTIMER
 40
0.2563874074
  9
$USRTIMER
 70
     1
  9
$ANGBASE
 50
0.0
  9
$ANGDIR
 70
     0
  9
$PDMODE
 70
     0
  9
$PDSIZE
 40
0.0
  9
$PLINEWID
 40
0.0
  9
$SPLFRAME
 70
     0
  9
$SPLINETYPE
 70
     6
  9
$SPLINESEGS
 70
     8
  9
$HANDSEED
  5
6438
  9
$SURFTAB1
 70
     6
  9
$SURFTAB2
 70
     6
  9
$SURFTYPE
 70
     6
  9
$SURFU
 70
     6
  9
$SURFV
 70
     6
  9
$UCSBASE
  2

  9
$UCSNAME
  2

  9
$UCSORG
 10
0.0
 20
0.0
 30
0.0
  9
$UCSXDIR
 10
1.0
 20
0.0
 30
0.0
  9
$UCSYDIR
 10
0.0
 20
1.0
 30
0.0
  9
$UCSORTHOREF
  2

  9
$UCSORTHOVIEW
 70
     0
  9
$UCSORGTOP
 10
0.0
 20
0.0
 30
0.0
  9
$UCSORGBOTTOM
 10
0.0
 20
0.0
 30
0.0
  9
$UCSORGLEFT
 10
0.0
 20
0.0
 30
0.0
  9
$UCSORGRIGHT
 10
0.0
 20
0.0
 30
0.0
  9
$UCSORGFRONT
 10
0.0
 20
0.0
 30
0.0
  9
$UCSORGBACK
 10
0.0
 20
0.0
 30
0.0
  9
$PUCSBASE
  2

  9
$PUCSNAME
  2

  9
$PUCSORG
 10
0.0
 20
0.0
 30
0.0
  9
$PUCSXDIR
 10
1.0
 20
0.0
 30
0.0
  9
$PUCSYDIR
 10
0.0
 20
1.0
 30
0.0
  9
$PUCSORTHOREF
  2

  9
$PUCSORTHOVIEW
 70
     0
  9
$PUCSORGTOP
 10
0.0
 20
0.0
 30
0.0
  9
$PUCSORGBOTTOM
 10
0.0
 20
0.0
 30
0.0
  9
$PUCSORGLEFT
 10
0.0
 20
0.0
 30
0.0
  9
$PUCSORGRIGHT
 10
0.0
 20
0.0
 30
0.0
  9
$PUCSORGFRONT
 10
0.0
 20
0.0
 30
0.0
  9
$PUCSORGBACK
 10
0.0
 20
0.0
 30
0.0
  9
$USERI1
 70
     0
  9
$USERI2
 70
     0
  9
$USERI3
 70
     0
  9
$USERI4
 70
     0
  9
$USERI5
 70
     0
  9
$USERR1
 40
0.0
  9
$USERR2
 40
0.0
  9
$USERR3
 40
0.0
  9
$USERR4
 40
0.0
  9
$USERR5
 40
0.0
  9
$WORLDVIEW
 70
     1
  9
$SHADEDGE
 70
     3
  9
$SHADEDIF
 70
    70
  9
$TILEMODE
 70
     1
  9
$MAXACTVP
 70
    48
  9
$PINSBASE
 10
0.0
 20
0.0
 30
0.0
  9
$PLIMCHECK
 70
     0
  9
$PEXTMIN
 10
1.000000000000000E+20
 20
1.000000000000000E+20
 30
1.000000000000000E+20
  9
$PEXTMAX
 10
-1.000000000000000E+20
 20
-1.000000000000000E+20
 30
-1.000000000000000E+20
  9
$PLIMMIN
 10
0.0
 20
0.0
  9
$PLIMMAX
 10
12.0
 20
9.0
  9
$UNITMODE
 70
     0
  9
$VISRETAIN
 70
     0
  9
$PLINEGEN
 70
     0
  9
$PSLTSCALE
 70
     1
  9
$TREEDEPTH
 70
  3020
  9
$CMLSTYLE
  2
Standard
  9
$CMLJUST
 70
     0
  9
$CMLSCALE
 40
1.0
  9
$PROXYGRAPHICS
 70
     1
  9
$MEASUREMENT
 70
     0
  9
$CELWEIGHT
370
    -1
  9
$ENDCAPS
280
     0
  9
$JOINSTYLE
280
     0
  9
$LWDISPLAY
290
     0
  9
$INSUNITS
 70
     0
  9
$HYPERLINKBASE
  1

  9
$STYLESHEET
  1

  9
$XEDIT
290
     1
  9
$CEPSNTYPE
380
     0
  9
$PSTYLEMODE
290
     1
  9
$FINGERPRINTGUID
  2
{CC7D6DEE-A9F1-4F3E-AC95-C84B62CCA3FD}
  9
$VERSIONGUID
  2
{5D83876F-A48E-4B01-8DB4-9ABDEE597B99}
  9
$EXTNAMES
290
     1
  9
$PSVPSCALE
 40
0.0
  9
$OLESTARTUP
290
     0
  0
ENDSEC
  0
SECTION
  2
CLASSES
  0
CLASS
  1
ACDBDICTIONARYWDFLT
  2
AcDbDictionaryWithDefault
  3
ObjectDBX Classes
 90
        0
280
     0
281
     0
  0
CLASS
  1
ACDBPLACEHOLDER
  2
AcDbPlaceHolder
  3
ObjectDBX Classes
 90
        0
280
     0
281
     0
  0
CLASS
  1
LAYOUT
  2
AcDbLayout
  3
ObjectDBX Classes
 90
        0
280
     0
281
     0
  0
CLASS
  1
DICTIONARYVAR
  2
AcDbDictionaryVar
  3
ObjectDBX Classes
 90
        0
280
     0
281
     0
  0
CLASS
  1
TABLESTYLE
  2
AcDbTableStyle
  3
ObjectDBX Classes
 90
     4095
280
     0
281
     0
  0
CLASS
  1
MATERIAL
  2
AcDbMaterial
  3
ObjectDBX Classes
 90
     1153
280
     0
281
     0
  0
CLASS
  1
VISUALSTYLE
  2
AcDbVisualStyle
  3
ObjectDBX Classes
 90
     4095
280
     0
281
     0
  0
ENDSEC
  0
SECTION
  2
TABLES
  0
TABLE
  2
VPORT
  5
8
102
{ACAD_XDICTIONARY
360
63DE
102
}
330
0
100
AcDbSymbolTable
 70
     1
  0
VPORT
  5
632E
330
8
100
AcDbSymbolTableRecord
100
AcDbViewportTableRecord
  2
*Active
 70
     0
 10
0.0
 20
0.0
 11
1.0
 21
1.0
 12
1344.364246201612
 22
2000.4598989533
 13
0.0
 23
0.0
 14
1.0
 24
1.0
 15
0.0
 25
0.0
 16
0.0
 26
0.0
 36
1.0
 17
0.0
 27
0.0
 37
0.0
 40
660.2637308349287
 41
1.571614583333333
 42
50.0
 43
0.0
 44
0.0
 50
0.0
 51
0.0
 71
     0
 72
   100
 73
     1
 74
     1
 75
     0
 76
     0
 77
     0
 78
     0
281
     0
 65
     1
110
0.0
120
0.0
130
0.0
111
1.0
121
0.0
131
0.0
112
0.0
122
1.0
132
0.0
 79
     0
146
0.0
  0
ENDTAB
  0
TABLE
  2
LTYPE
  5
5
330
0
100
AcDbSymbolTable
 70
    50
  0
LTYPE
  5
13
330
5
100
AcDbSymbolTableRecord
100
AcDbLinetypeTableRecord
  2
ByBlock
 70
     0
  3

 72
    65
 73
     0
 40
0.0
  0
LTYPE
  5
14
330
5
100
AcDbSymbolTableRecord
100
AcDbLinetypeTableRecord
  2
ByLayer
 70
     0
  3

 72
    65
 73
     0
 40
0.0
  0
LTYPE
  5
15
330
5
100
AcDbSymbolTableRecord
100
AcDbLinetypeTableRecord
  2
CONTINUOUS
 70
     0
  3
実線
 72
    65
 73
     0
 40
0.0
  0
LTYPE
  5
22
330
5
100
AcDbSymbolTableRecord
100
AcDbLinetypeTableRecord
  2
DASHED1
 70
     0
  3
--  --  --  --  --  --  --  --  
 72
    65
 73
     2
 40
2.5
 49
1.25
 74
     0
 49
-1.25
 74
     0
  0
LTYPE
  5
23
330
5
100
AcDbSymbolTableRecord
100
AcDbLinetypeTableRecord
  2
DASHED2
 70
     0
  3
----    ----    ----    ----    
 72
    65
 73
     2
 40
5.0
 49
2.5
 74
     0
 49
-2.5
 74
     0
  0
LTYPE
  5
24
330
5
100
AcDbSymbolTableRecord
100
AcDbLinetypeTableRecord
  2
DASHED3
 70
     0
  3
------  ------  ------  ------  
 72
    65
 73
     2
 40
5.0
 49
3.75
 74
     0
 49
-1.25
 74
     0
  0
LTYPE
  5
25
330
5
100
AcDbSymbolTableRecord
100
AcDbLinetypeTableRecord
  2
CENTER1
 70
     0
  3
----- - ----- - ----- - ----- - 
 72
    65
 73
     4
 40
10.0
 49
6.25
 74
     0
 49
-1.25
 74
     0
 49
1.25
 74
     0
 49
-1.25
 74
     0
  0
LTYPE
  5
26
330
5
100
AcDbSymbolTableRecord
100
AcDbLinetypeTableRecord
  2
CENTER2
 70
     0
  3
----------  --  ----------  --  
 72
    65
 73
     4
 40
20.0
 49
12.5
 74
     0
 49
-2.5
 74
     0
 49
2.5
 74
     0
 49
-2.5
 74
     0
  0
LTYPE
  5
27
330
5
100
AcDbSymbolTableRecord
100
AcDbLinetypeTableRecord
  2
PHANTOM1
 70
     0
  3
--- - - --- - - --- - - --- - - 
 72
    65
 73
     6
 40
10.0
 49
3.25
 74
     0
 49
-1.25
 74
     0
 49
1.25
 74
     0
 49
-1.25
 74
     0
 49
1.25
 74
     0
 49
-1.25
 74
     0
  0
LTYPE
  5
28
330
5
100
AcDbSymbolTableRecord
100
AcDbLinetypeTableRecord
  2
PHANTOM2
 70
     0
  3
--------  -  -  --------  -  -  
 72
    65
 73
     6
 40
20.0
 49
10.0
 74
     0
 49
-2.5
 74
     0
 49
1.25
 74
     0
 49
-2.5
 74
     0
 49
1.25
 74
     0
 49
-2.5
 74
     0
  0
LTYPE
  5
29
330
5
100
AcDbSymbolTableRecord
100
AcDbLinetypeTableRecord
  2
DOT
 70
     0
  3
-   -   -   -   -   -   -   -   
 72
    65
 73
     2
 40
2.5
 49
0.625
 74
     0
 49
-1.875
 74
     0
  0
LTYPE
  5
2A
330
5
100
AcDbSymbolTableRecord
100
AcDbLinetypeTableRecord
  2
DUMMY
 70
     0
  3
ダミー
 72
    65
 73
     0
 40
0.0
  0
LTYPE
  5
2B
330
5
100
AcDbSymbolTableRecord
100
AcDbLinetypeTableRecord
  2
RAND1
 70
     0
  3
ランダム線1
 72
    65
 73
     4
 40
10.0
 49
1.0
 74
     0
 49
-2.0
 74
     0
 49
3.0
 74
     0
 49
-4.0
 74
     0
  0
LTYPE
  5
2C
330
5
100
AcDbSymbolTableRecord
100
AcDbLinetypeTableRecord
  2
RAND2
 70
     0
  3
ランダム線2
 72
    65
 73
     4
 40
14.0
 49
2.0
 74
     0
 49
-3.0
 74
     0
 49
4.0
 74
     0
 49
-5.0
 74
     0
  0
LTYPE
  5
2D
330
5
100
AcDbSymbolTableRecord
100
AcDbLinetypeTableRecord
  2
RAND3
 70
     0
  3
ランダム線3
 72
    65
 73
     4
 40
18.0
 49
3.0
 74
     0
 49
-4.0
 74
     0
 49
5.0
 74
     0
 49
-6.0
 74
     0
  0
LTYPE
  5
2E
330
5
100
AcDbSymbolTableRecord
100
AcDbLinetypeTableRecord
  2
RAND4
 70
     0
  3
ランダム線4
 72
    65
 73
     4
 40
22.0
 49
4.0
 74
     0
 49
-5.0
 74
     0
 49
6.0
 74
     0
 49
-7.0
 74
     0
  0
LTYPE
  5
2F
330
5
100
AcDbSymbolTableRecord
100
AcDbLinetypeTableRecord
  2
RAND5
 70
     0
  3
ランダム線5
 72
    65
 73
     4
 40
26.0
 49
5.0
 74
     0
 49
-6.0
 74
     0
 49
7.0
 74
     0
 49
-8.0
 74
     0
  0
LTYPE
  5
30
330
5
100
AcDbSymbolTableRecord
100
AcDbLinetypeTableRecord
  2
LONG1
 70
     0
  3
----------  --  ----------  --  
 72
    65
 73
     4
 40
40.0
 49
32.5
 74
     0
 49
-2.5
 74
     0
 49
2.5
 74
     0
 49
-2.5
 74
     0
  0
LTYPE
  5
31
330
5
100
AcDbSymbolTableRecord
100
AcDbLinetypeTableRecord
  2
LONG2
 70
     0
  3
--------  -  -  --------  -  -  
 72
    65
 73
     6
 40
40.0
 49
30.0
 74
     0
 49
-2.5
 74
     0
 49
1.25
 74
     0
 49
-2.5
 74
     0
 49
1.25
 74
     0
 49
-2.5
 74
     0
  0
LTYPE
  5
32
330
5
100
AcDbSymbolTableRecord
100
AcDbLinetypeTableRecord
  2
LONG3
 70
     0
  3
+++++++++++++++..+++++++++++++++
 72
    65
 73
     2
 40
40.0
 49
37.5
 74
     0
 49
-2.5
 74
     0
  0
LTYPE
  5
33
330
5
100
AcDbSymbolTableRecord
100
AcDbLinetypeTableRecord
  2
LONG4
 70
     0
  3
+++++++++++++++..+++++++++++++++
 72
    65
 73
     2
 40
80.0
 49
75.0
 74
     0
 49
-5.0
 74
     0
  0
LTYPE
  5
34
330
5
100
AcDbSymbolTableRecord
100
AcDbLinetypeTableRecord
  2
LONG5
 70
     0
  3
----------  --  ----------  --  
 72
    65
 73
     4
 40
60.0
 49
37.5
 74
     0
 49
-7.5
 74
     0
 49
7.5
 74
     0
 49
-7.5
 74
     0
  0
LTYPE
  5
35
330
5
100
AcDbSymbolTableRecord
100
AcDbLinetypeTableRecord
  2
DASHED
 70
     0
  3
-------   -------------   ------
 72
    65
 73
     2
 40
7.5
 49
6.0
 74
     0
 49
-1.5
 74
     0
  0
LTYPE
  5
36
330
5
100
AcDbSymbolTableRecord
100
AcDbLinetypeTableRecord
  2
DASHED_SPACED
 70
     0
  3
----        --------        ----
 72
    65
 73
     2
 40
12.0
 49
6.0
 74
     0
 49
-6.0
 74
     0
  0
LTYPE
  5
37
330
5
100
AcDbSymbolTableRecord
100
AcDbLinetypeTableRecord
  2
LONG_DASHED_DOTTED
 70
     0
  3
------------- --- --------------
 72
    65
 73
     4
 40
15.25
 49
12.0
 74
     0
 49
-1.5
 74
     0
 49
0.25
 74
     0
 49
-1.5
 74
     0
  0
LTYPE
  5
38
330
5
100
AcDbSymbolTableRecord
100
AcDbLinetypeTableRecord
  2
LONG_DASHED_DOUBLE-DOTTED
 70
     0
  3
----------- --- --- ------------
 72
    65
 73
     6
 40
17.0
 49
12.0
 74
     0
 49
-1.5
 74
     0
 49
0.25
 74
     0
 49
-1.5
 74
     0
 49
0.25
 74
     0
 49
-1.5
 74
     0
  0
LTYPE
  5
39
330
5
100
AcDbSymbolTableRecord
100
AcDbLinetypeTableRecord
  2
LONG_DASHED_TRIPLICATE-DOTTED
 70
     0
  3
--------- --- --- --- ----------
 72
    65
 73
     8
 40
18.75
 49
12.0
 74
     0
 49
-1.5
 74
     0
 49
0.25
 74
     0
 49
-1.5
 74
     0
 49
0.25
 74
     0
 49
-1.5
 74
     0
 49
0.25
 74
     0
 49
-1.5
 74
     0
  0
LTYPE
  5
3A
330
5
100
AcDbSymbolTableRecord
100
AcDbLinetypeTableRecord
  2
DOTTED
 70
     0
  3
   -       -       -       -    
 72
    65
 73
     2
 40
1.75
 49
0.25
 74
     0
 49
-1.5
 74
     0
  0
LTYPE
  5
3B
330
5
100
AcDbSymbolTableRecord
100
AcDbLinetypeTableRecord
  2
CHAIN
 70
     0
  3
-------------- -- --------------
 72
    65
 73
     4
 40
18.5
 49
12.0
 74
     0
 49
-1.5
 74
     0
 49
3.5
 74
     0
 49
-1.5
 74
     0
  0
LTYPE
  5
3C
330
5
100
AcDbSymbolTableRecord
100
AcDbLinetypeTableRecord
  2
CHAIN_DOUBLE_DASH
 70
     0
  3
------------ -- -- -------------
 72
    65
 73
     6
 40
23.5
 49
12.0
 74
     0
 49
-1.5
 74
     0
 49
3.5
 74
     0
 49
-1.5
 74
     0
 49
3.5
 74
     0
 49
-1.5
 74
     0
  0
LTYPE
  5
3D
330
5
100
AcDbSymbolTableRecord
100
AcDbLinetypeTableRecord
  2
DASHED_DOTTED
 70
     0
  3
-----------     -     ----------
 72
    65
 73
     4
 40
9.25
 49
6.0
 74
     0
 49
-1.5
 74
     0
 49
0.25
 74
     0
 49
-1.5
 74
     0
  0
LTYPE
  5
3E
330
5
100
AcDbSymbolTableRecord
100
AcDbLinetypeTableRecord
  2
DOUBLE-DASHED_DOTTED
 70
     0
  3
------   -----------   -   -----
 72
    65
 73
     6
 40
16.75
 49
6.0
 74
     0
 49
-1.5
 74
     0
 49
6.0
 74
     0
 49
-1.5
 74
     0
 49
0.25
 74
     0
 49
-1.5
 74
     0
  0
LTYPE
  5
3F
330
5
100
AcDbSymbolTableRecord
100
AcDbLinetypeTableRecord
  2
DASHED_DOUBLE-DOTTED
 70
     0
  3
---------    -    -    ---------
 72
    65
 73
     6
 40
11.0
 49
6.0
 74
     0
 49
-1.5
 74
     0
 49
0.25
 74
     0
 49
-1.5
 74
     0
 49
0.25
 74
     0
 49
-1.5
 74
     0
  0
LTYPE
  5
40
330
5
100
AcDbSymbolTableRecord
100
AcDbLinetypeTableRecord
  2
DOUBLE-DASHED_DOUBLE-DOTTED
 70
     0
  3
-----   ---------   -   -   ----
 72
    65
 73
     8
 40
18.5
 49
6.0
 74
     0
 49
-1.5
 74
     0
 49
6.0
 74
     0
 49
-1.5
 74
     0
 49
0.25
 74
     0
 49
-1.5
 74
     0
 49
0.25
 74
     0
 49
-1.5
 74
     0
  0
LTYPE
  5
41
330
5
100
AcDbSymbolTableRecord
100
AcDbLinetypeTableRecord
  2
DASHED_TRIPLICATE-DOTTED
 70
     0
  3
-------    -    -    -    ------
 72
    65
 73
     8
 40
12.75
 49
6.0
 74
     0
 49
-1.5
 74
     0
 49
0.25
 74
     0
 49
-1.5
 74
     0
 49
0.25
 74
     0
 49
-1.5
 74
     0
 49
0.25
 74
     0
 49
-1.5
 74
     0
  0
LTYPE
  5
42
330
5
100
AcDbSymbolTableRecord
100
AcDbLinetypeTableRecord
  2
DOUBLE-DASHED_TRIPLICATE-DOTTED
 70
     0
  3
-----  ---------  -  -  -  -----
 72
    65
 73
    10
 40
20.25
 49
6.0
 74
     0
 49
-1.5
 74
     0
 49
6.0
 74
     0
 49
-1.5
 74
     0
 49
0.25
 74
     0
 49
-1.5
 74
     0
 49
0.25
 74
     0
 49
-1.5
 74
     0
 49
0.25
 74
     0
 49
-1.5
 74
     0
  0
LTYPE
  5
43
330
5
100
AcDbSymbolTableRecord
100
AcDbLinetypeTableRecord
  2
UNDEFINED
 70
     0
  3
--------------------------------
 72
    65
 73
     0
 40
0.0
  0
LTYPE
  5
44
330
5
100
AcDbSymbolTableRecord
100
AcDbLinetypeTableRecord
  2
PLINE2
 70
     0
  3
------     -----------     -----
 72
    65
 73
     2
 40
3.0
 49
2.1
 74
     0
 49
-0.9
 74
     0
  0
LTYPE
  5
45
330
5
100
AcDbSymbolTableRecord
100
AcDbLinetypeTableRecord
  2
PLINE3
 70
     0
  3
------------   ---   -----------
 72
    65
 73
     4
 40
10.0
 49
7.0
 74
     0
 49
-1.0
 74
     0
 49
1.0
 74
     0
 49
-1.0
 74
     0
  0
LTYPE
  5
46
330
5
100
AcDbSymbolTableRecord
100
AcDbLinetypeTableRecord
  2
PLINE4
 70
     0
  3
---------   ---   ---   --------
 72
    65
 73
     6
 40
10.0
 49
5.0
 74
     0
 49
-1.0
 74
     0
 49
1.0
 74
     0
 49
-1.0
 74
     0
 49
1.0
 74
     0
 49
-1.0
 74
     0
  0
LTYPE
  5
47
330
5
100
AcDbSymbolTableRecord
100
AcDbLinetypeTableRecord
  2
PLINE5
 70
     0
  3
------     -----------     -----
 72
    65
 73
     2
 40
5.0
 49
3.5
 74
     0
 49
-1.5
 74
     0
  0
LTYPE
  5
48
330
5
100
AcDbSymbolTableRecord
100
AcDbLinetypeTableRecord
  2
PLINE6
 70
     0
  3
------------   ---   -----------
 72
    65
 73
     4
 40
15.0
 49
10.5
 74
     0
 49
-1.5
 74
     0
 49
1.5
 74
     0
 49
-1.5
 74
     0
  0
LTYPE
  5
49
330
5
100
AcDbSymbolTableRecord
100
AcDbLinetypeTableRecord
  2
PLINE7
 70
     0
  3
---------   ---   ---   --------
 72
    65
 73
     6
 40
15.0
 49
7.5
 74
     0
 49
-1.5
 74
     0
 49
1.5
 74
     0
 49
-1.5
 74
     0
 49
1.5
 74
     0
 49
-1.5
 74
     0
  0
LTYPE
  5
4A
330
5
100
AcDbSymbolTableRecord
100
AcDbLinetypeTableRecord
  2
PLINE8
 70
     0
  3
------     -----------     -----
 72
    65
 73
     2
 40
7.0
 49
4.9
 74
     0
 49
-2.1
 74
     0
  0
LTYPE
  5
4B
330
5
100
AcDbSymbolTableRecord
100
AcDbLinetypeTableRecord
  2
PLINE9
 70
     0
  3
------------   ---   -----------
 72
    65
 73
     4
 40
20.0
 49
14.0
 74
     0
 49
-2.0
 74
     0
 49
2.0
 74
     0
 49
-2.0
 74
     0
  0
LTYPE
  5
4C
330
5
100
AcDbSymbolTableRecord
100
AcDbLinetypeTableRecord
  2
PLINE10
 70
     0
  3
---------   ---   ---   --------
 72
    65
 73
     6
 40
20.0
 49
10.0
 74
     0
 49
-2.0
 74
     0
 49
2.0
 74
     0
 49
-2.0
 74
     0
 49
2.0
 74
     0
 49
-2.0
 74
     0
  0
LTYPE
  5
4D
330
5
100
AcDbSymbolTableRecord
100
AcDbLinetypeTableRecord
  2
PLINE11
 70
     0
  3
------     -----------     -----
 72
    65
 73
     2
 40
9.0
 49
6.299999999999999
 74
     0
 49
-2.7
 74
     0
  0
LTYPE
  5
4E
330
5
100
AcDbSymbolTableRecord
100
AcDbLinetypeTableRecord
  2
PLINE12
 70
     0
  3
------------   ---   -----------
 72
    65
 73
     4
 40
25.0
 49
17.5
 74
     0
 49
-2.5
 74
     0
 49
2.5
 74
     0
 49
-2.5
 74
     0
  0
LTYPE
  5
4F
330
5
100
AcDbSymbolTableRecord
100
AcDbLinetypeTableRecord
  2
PLINE13
 70
     0
  3
---------   ---   ---   --------
 72
    65
 73
     6
 40
25.0
 49
12.5
 74
     0
 49
-2.5
 74
     0
 49
2.5
 74
     0
 49
-2.5
 74
     0
 49
2.5
 74
     0
 49
-2.5
 74
     0
  0
LTYPE
  5
50
330
5
100
AcDbSymbolTableRecord
100
AcDbLinetypeTableRecord
  2
PLINE14
 70
     0
  3
------     -----------     -----
 72
    65
 73
     2
 40
11.0
 49
7.7
 74
     0
 49
-3.299999999999999
 74
     0
  0
LTYPE
  5
51
330
5
100
AcDbSymbolTableRecord
100
AcDbLinetypeTableRecord
  2
PLINE15
 70
     0
  3
------------   ---   -----------
 72
    65
 73
     4
 40
30.0
 49
21.0
 74
     0
 49
-3.0
 74
     0
 49
3.0
 74
     0
 49
-3.0
 74
     0
  0
LTYPE
  5
52
330
5
100
AcDbSymbolTableRecord
100
AcDbLinetypeTableRecord
  2
PLINE16
 70
     0
  3
---------   ---   ---   --------
 72
    65
 73
     6
 40
30.0
 49
15.0
 74
     0
 49
-3.0
 74
     0
 49
3.0
 74
     0
 49
-3.0
 74
     0
 49
3.0
 74
     0
 49
-3.0
 74
     0
  0
ENDTAB
  0
TABLE
  2
LAYER
  5
2
102
{ACAD_XDICTIONARY
360
175
102
}
330
0
100
AcDbSymbolTable
 70
     6
  0
LAYER
  5
10
330
2
100
AcDbSymbolTableRecord
100
AcDbLayerTableRecord
  2
0
 70
     0
 62
     7
  6
CONTINUOUS
370
    -3
390
F
  0
LAYER
  5
128
330
2
100
AcDbSymbolTableRecord
100
AcDbLayerTableRecord
  2
Defpoints
 70
     0
 62
     7
  6
CONTINUOUS
290
     0
370
    -3
390
F
  0
LAYER
  5
178
330
2
100
AcDbSymbolTableRecord
100
AcDbLayerTableRecord
  2
寸法
 70
     0
 62
     7
  6
CONTINUOUS
370
    -3
390
F
  0
LAYER
  5
179
330
2
100
AcDbSymbolTableRecord
100
AcDbLayerTableRecord
  2
躯体と製品
 70
     0
 62
     7
  6
CONTINUOUS
370
    -3
390
F
  0
LAYER
  5
4F62
330
2
100
AcDbSymbolTableRecord
100
AcDbLayerTableRecord
  2
文字-記号
 70
     0
 62
     7
  6
CONTINUOUS
370
    -3
390
F
  0
LAYER
  5
50A3
330
2
100
AcDbSymbolTableRecord
100
AcDbLayerTableRecord
  2
PRO0
 70
     0
 62
     7
  6
CONTINUOUS
370
    -3
390
F
  0
ENDTAB
  0
TABLE
  2
STYLE
  5
3
330
0
100
AcDbSymbolTable
 70
     4
  0
STYLE
  5
11
330
3
100
AcDbSymbolTableRecord
100
AcDbTextStyleTableRecord
  2
STANDARD
 70
     0
 40
0.0
 41
1.0
 50
0.0
 71
     0
 42
0.2
  3
txt
  4
bigfont.shx
  0
STYLE
  5
53
330
3
100
AcDbSymbolTableRecord
100
AcDbTextStyleTableRecord
  2
TATEGAKI
 70
     4
 40
0.0
 41
1.0
 50
0.0
 71
     0
 42
1.0
  3
txt
  4
bigfont.shx
  0
STYLE
  5
123
330
3
100
AcDbSymbolTableRecord
100
AcDbTextStyleTableRecord
  2
ACAD
 70
     0
 40
5.0
 41
0.8
 50
0.0
 71
     0
 42
5.0
  3
romans.shx
  4
extfont.shx
  0
STYLE
  5
3A5F
330
3
100
AcDbSymbolTableRecord
100
AcDbTextStyleTableRecord
  2
VERTXT
 70
     4
 40
0.0
 41
0.8582679999999999
 50
0.0
 71
     0
 42
3.5
  3
txt.shx
  4
BIGFONT
  0
ENDTAB
  0
TABLE
  2
VIEW
  5
6
330
0
100
AcDbSymbolTable
 70
     0
  0
ENDTAB
  0
TABLE
  2
UCS
  5
7
330
0
100
AcDbSymbolTable
 70
     0
  0
ENDTAB
  0
TABLE
  2
APPID
  5
9
330
0
100
AcDbSymbolTable
 70
    10
  0
APPID
  5
12
330
9
100
AcDbSymbolTableRecord
100
AcDbRegAppTableRecord
  2
ACAD
 70
     0
  0
APPID
  5
60F8
330
9
100
AcDbSymbolTableRecord
100
AcDbRegAppTableRecord
  2
ACAD_DSTYLE_DIMTEXT_FILL
 70
     0
  0
APPID
  5
60F9
330
9
100
AcDbSymbolTableRecord
100
AcDbRegAppTableRecord
  2
ACAD_DSTYLE_DIMEXT_LENGTH
 70
     0
  0
APPID
  5
60FA
330
9
100
AcDbSymbolTableRecord
100
AcDbRegAppTableRecord
  2
ACAD_DSTYLE_DIMEXT_ENABLED
 70
     0
  0
APPID
  5
60FB
330
9
100
AcDbSymbolTableRecord
100
AcDbRegAppTableRecord
  2
ACAD_DSTYLE_DIM_LINETYPE
 70
     0
  0
APPID
  5
60FC
330
9
100
AcDbSymbolTableRecord
100
AcDbRegAppTableRecord
  2
ACAD_DSTYLE_DIM_EXT1_LINETYPE
 70
     0
  0
APPID
  5
60FD
330
9
100
AcDbSymbolTableRecord
100
AcDbRegAppTableRecord
  2
ACAD_DSTYLE_DIM_EXT2_LINETYPE
 70
     0
  0
APPID
  5
61B9
330
9
100
AcDbSymbolTableRecord
100
AcDbRegAppTableRecord
  2
ACAD_DSTYLE_DIMJOGGED_JOGANGLE_SYMBOL
 70
     0
  0
APPID
  5
6221
330
9
100
AcDbSymbolTableRecord
100
AcDbRegAppTableRecord
  2
ACAD_DSTYLE_DIMARC_LENGTH_SYMBOL
 70
     0
  0
APPID
  5
634F
330
9
100
AcDbSymbolTableRecord
100
AcDbRegAppTableRecord
  2
ACAD_EXEMPT_FROM_CAD_STANDARDS
 70
     0
  0
ENDTAB
  0
TABLE
  2
DIMSTYLE
  5
A
330
0
100
AcDbSymbolTable
 70
     3
100
AcDbDimStyleTable
 71
     1
340
2CBB
  0
DIMSTYLE
105
11C
330
A
100
AcDbSymbolTableRecord
100
AcDbDimStyleTableRecord
  2
Standard
 70
     0
340
11
  0
DIMSTYLE
105
126
330
A
100
AcDbSymbolTableRecord
100
AcDbDimStyleTableRecord
  2
AutoCAD
 70
     0
 41
1.0
 42
0.0
 44
0.0
 73
     0
 77
     1
140
5.0
147
1.0
174
     1
176
     4
177
     4
178
     3
271
     0
272
     0
289
     0
340
123
341
15B0
342
11E
  0
DIMSTYLE
105
2CBB
102
{ACAD_REACTORS
330
5BF3
330
5AB7
330
5AD0
330
5AC3
330
5ADC
330
5B9C
330
5B82
330
5AF6
330
5B76
330
5BE8
330
5B6A
330
5B54
330
5B5F
330
5B8F
330
5BCF
330
5BDC
330
5BB6
330
5BC2
330
5BA9
330
6355
330
638E
330
63A2
102
}
330
A
100
AcDbSymbolTableRecord
100
AcDbDimStyleTableRecord
  2
111
 70
     0
 41
1.0
 42
0.0
 44
0.0
 73
     0
 77
     1
140
5.0
147
1.0
174
     1
176
     4
177
     4
178
     3
271
     0
272
     0
289
     0
340
123
341
15B0
342
61EA
1001
ACAD_DSTYLE_DIMJOGGED_JOGANGLE_SYMBOL
1070
   384
1040
0.7853981633974483
1001
ACAD_DSTYLE_DIMEXT_LENGTH
1070
   378
1040
0.0
  0
ENDTAB
  0
TABLE
  2
BLOCK_RECORD
  5
1
330
0
100
AcDbSymbolTable
 70
    27
  0
BLOCK_RECORD
  5
1E
102
{ACAD_XDICTIONARY
360
28B
102
}
330
1
100
AcDbSymbolTableRecord
100
AcDbBlockTableRecord
  2
*Model_Space
340
21
  0
BLOCK_RECORD
  5
1A
102
{ACAD_XDICTIONARY
360
28D
102
}
330
1
100
AcDbSymbolTableRecord
100
AcDbBlockTableRecord
  2
*Paper_Space
340
1D
  0
BLOCK_RECORD
  5
11E
330
1
100
AcDbSymbolTableRecord
100
AcDbBlockTableRecord
  2
_Dot
340
0
  0
BLOCK_RECORD
  5
15B0
330
1
100
AcDbSymbolTableRecord
100
AcDbBlockTableRecord
  2
_None
340
0
  0
BLOCK_RECORD
  5
2CB5
330
1
100
AcDbSymbolTableRecord
100
AcDbBlockTableRecord
  2
_Open30
340
0
  0
BLOCK_RECORD
  5
35E3
330
1
100
AcDbSymbolTableRecord
100
AcDbBlockTableRecord
  2
_DotBlank
340
0
  0
BLOCK_RECORD
  5
5AB8
330
1
100
AcDbSymbolTableRecord
100
AcDbBlockTableRecord
  2
*D4
340
0
  0
BLOCK_RECORD
  5
5AC4
330
1
100
AcDbSymbolTableRecord
100
AcDbBlockTableRecord
  2
*D5
340
0
  0
BLOCK_RECORD
  5
5AD1
330
1
100
AcDbSymbolTableRecord
100
AcDbBlockTableRecord
  2
*D6
340
0
  0
BLOCK_RECORD
  5
5ADD
330
1
100
AcDbSymbolTableRecord
100
AcDbBlockTableRecord
  2
*D7
340
0
  0
BLOCK_RECORD
  5
5AF7
330
1
100
AcDbSymbolTableRecord
100
AcDbBlockTableRecord
  2
*D8
340
0
  0
BLOCK_RECORD
  5
5B55
330
1
100
AcDbSymbolTableRecord
100
AcDbBlockTableRecord
  2
*D9
340
0
  0
BLOCK_RECORD
  5
5B60
330
1
100
AcDbSymbolTableRecord
100
AcDbBlockTableRecord
  2
*D10
340
0
  0
BLOCK_RECORD
  5
5B6B
330
1
100
AcDbSymbolTableRecord
100
AcDbBlockTableRecord
  2
*D11
340
0
  0
BLOCK_RECORD
  5
5B77
330
1
100
AcDbSymbolTableRecord
100
AcDbBlockTableRecord
  2
*D12
340
0
  0
BLOCK_RECORD
  5
5B83
330
1
100
AcDbSymbolTableRecord
100
AcDbBlockTableRecord
  2
*D13
340
0
  0
BLOCK_RECORD
  5
5B90
330
1
100
AcDbSymbolTableRecord
100
AcDbBlockTableRecord
  2
*D14
340
0
  0
BLOCK_RECORD
  5
5B9D
330
1
100
AcDbSymbolTableRecord
100
AcDbBlockTableRecord
  2
*D15
340
0
  0
BLOCK_RECORD
  5
5BAA
330
1
100
AcDbSymbolTableRecord
100
AcDbBlockTableRecord
  2
*D16
340
0
  0
BLOCK_RECORD
  5
5BB7
330
1
100
AcDbSymbolTableRecord
100
AcDbBlockTableRecord
  2
*D17
340
0
  0
BLOCK_RECORD
  5
5BC3
330
1
100
AcDbSymbolTableRecord
100
AcDbBlockTableRecord
  2
*D18
340
0
  0
BLOCK_RECORD
  5
5BD0
330
1
100
AcDbSymbolTableRecord
100
AcDbBlockTableRecord
  2
*D19
340
0
  0
BLOCK_RECORD
  5
5BDD
330
1
100
AcDbSymbolTableRecord
100
AcDbBlockTableRecord
  2
*D20
340
0
  0
BLOCK_RECORD
  5
5BE9
330
1
100
AcDbSymbolTableRecord
100
AcDbBlockTableRecord
  2
*D21
340
0
  0
BLOCK_RECORD
  5
5BF4
330
1
100
AcDbSymbolTableRecord
100
AcDbBlockTableRecord
  2
*D22
340
0
  0
BLOCK_RECORD
  5
61EA
330
1
100
AcDbSymbolTableRecord
100
AcDbBlockTableRecord
  2
_DotSmall
340
0
102
{BLKREFS
331
6229
331
622A
331
6231
331
6232
331
6239
331
623A
331
6242
331
6243
331
624B
331
624C
331
6254
331
6255
331
625D
331
625E
331
6266
331
6267
331
626E
331
626F
331
6275
331
6276
331
627D
331
627E
331
6284
331
6285
331
628B
331
628C
331
6294
331
6295
331
629D
331
629E
331
62A5
331
62A6
331
62AD
331
62AE
331
62B6
331
62B7
331
62BF
331
62C0
331
6388
331
6389
331
63AF
331
63B0
331
6401
331
6402
102
}
  0
BLOCK_RECORD
  5
6356
330
1
100
AcDbSymbolTableRecord
100
AcDbBlockTableRecord
  2
*D24
340
0
  0
BLOCK_RECORD
  5
638F
330
1
100
AcDbSymbolTableRecord
100
AcDbBlockTableRecord
  2
*D25
340
0
  0
BLOCK_RECORD
  5
63A3
330
1
100
AcDbSymbolTableRecord
100
AcDbBlockTableRecord
  2
*D26
340
0
  0
ENDTAB
  0
ENDSEC
  0
SECTION
  2
BLOCKS
  0
BLOCK
  5
1F
330
1E
100
AcDbEntity
  8
0
100
AcDbBlockBegin
  2
*Model_Space
 70
     0
 10
0.0
 20
0.0
 30
0.0
  3
*Model_Space
  1

  0
ENDBLK
  5
20
330
1E
100
AcDbEntity
  8
0
100
AcDbBlockEnd
  0
BLOCK
  5
1B
330
1A
100
AcDbEntity
 67
     1
  8
0
100
AcDbBlockBegin
  2
*Paper_Space
 70
     0
 10
0.0
 20
0.0
 30
0.0
  3
*Paper_Space
  1

  0
ENDBLK
  5
1C
330
1A
100
AcDbEntity
 67
     1
  8
0
100
AcDbBlockEnd
  0
BLOCK
  5
121
330
11E
100
AcDbEntity
  8
0
100
AcDbBlockBegin
  2
_Dot
 70
     0
 10
0.0
 20
0.0
 30
0.0
  3
_Dot
  1

  0
LWPOLYLINE
  5
11F
330
11E
100
AcDbEntity
  8
0
  6
ByBlock
 62
     0
100
AcDbPolyline
 90
        2
 70
     1
 43
0.5
 10
-0.25
 20
0.0
 42
1.0
 10
0.25
 20
0.0
 42
1.0
  0
LINE
  5
120
330
11E
100
AcDbEntity
  8
0
  6
ByBlock
 62
     0
370
    -2
100
AcDbLine
 10
-0.5
 20
0.0
 30
0.0
 11
-1.0
 21
0.0
 31
0.0
  0
ENDBLK
  5
122
330
11E
100
AcDbEntity
  8
0
100
AcDbBlockEnd
  0
BLOCK
  5
15B1
330
15B0
100
AcDbEntity
  8
0
100
AcDbBlockBegin
  2
_None
 70
     0
 10
0.0
 20
0.0
 30
0.0
  3
_None
  1

  0
ENDBLK
  5
15B2
330
15B0
100
AcDbEntity
  8
0
100
AcDbBlockEnd
  0
BLOCK
  5
2CB9
330
2CB5
100
AcDbEntity
  8
0
100
AcDbBlockBegin
  2
_Open30
 70
     0
 10
0.0
 20
0.0
 30
0.0
  3
_Open30
  1

  0
LINE
  5
2CB6
330
2CB5
100
AcDbEntity
  8
0
  6
ByBlock
 62
     0
370
    -2
100
AcDbLine
 10
-1.0
 20
0.26794919
 30
0.0
 11
0.0
 21
0.0
 31
0.0
  0
LINE
  5
2CB7
330
2CB5
100
AcDbEntity
  8
0
  6
ByBlock
 62
     0
370
    -2
100
AcDbLine
 10
0.0
 20
0.0
 30
0.0
 11
-1.0
 21
-0.26794919
 31
0.0
  0
LINE
  5
2CB8
330
2CB5
100
AcDbEntity
  8
0
  6
ByBlock
 62
     0
370
    -2
100
AcDbLine
 10
0.0
 20
0.0
 30
0.0
 11
-1.0
 21
0.0
 31
0.0
  0
ENDBLK
  5
2CBA
330
2CB5
100
AcDbEntity
  8
0
100
AcDbBlockEnd
  0
BLOCK
  5
35E6
330
35E3
100
AcDbEntity
  8
0
100
AcDbBlockBegin
  2
_DotBlank
 70
     0
 10
0.0
 20
0.0
 30
0.0
  3
_DotBlank
  1

  0
CIRCLE
  5
35E4
330
35E3
100
AcDbEntity
  8
0
  6
ByBlock
 62
     0
370
    -2
100
AcDbCircle
 10
0.0
 20
0.0
 30
0.0
 40
0.5
  0
LINE
  5
35E5
330
35E3
100
AcDbEntity
  8
0
  6
ByBlock
 62
     0
370
    -2
100
AcDbLine
 10
-0.5
 20
0.0
 30
0.0
 11
-1.0
 21
0.0
 31
0.0
  0
ENDBLK
  5
35E7
330
35E3
100
AcDbEntity
  8
0
100
AcDbBlockEnd
  0
BLOCK
  5
5AC1
330
5AB8
100
AcDbEntity
  8
0
100
AcDbBlockBegin
  2
*D4
 70
     1
 10
0.0
 20
0.0
 30
0.0
  3
*D4
  1

  0
LINE
  5
622F
330
5AB8
100
AcDbEntity
  8
寸法
  6
Continuous
 62
     4
370
    -2
100
AcDbLine
 10
984.4711825238089
 20
1813.96822200426
 30
0.0
 11
901.3711825238088
 21
1813.96822200426
 31
0.0
  0
LINE
  5
6230
330
5AB8
100
AcDbEntity
  8
寸法
  6
Continuous
 62
     4
370
    -2
100
AcDbLine
 10
901.3711825238088
 20
1706.87706600426
 30
0.0
 11
901.3711825238088
 21
1813.96822200426
 31
0.0
  0
INSERT
  5
6231
330
5AB8
100
AcDbEntity
  8
寸法
  6
Continuous
 62
     4
370
    -2
100
AcDbBlockReference
  2
_DotSmall
 10
901.3711825238088
 20
1706.87706600426
 30
0.0
 41
5.0
 42
5.0
 43
5.0
 50
270.0
  0
INSERT
  5
6232
330
5AB8
100
AcDbEntity
  8
寸法
  6
Continuous
 62
     4
370
    -2
100
AcDbBlockReference
  2
_DotSmall
 10
901.3711825238088
 20
1813.96822200426
 30
0.0
 41
5.0
 42
5.0
 43
5.0
 50
90.0
  0
MTEXT
  5
6233
330
5AB8
100
AcDbEntity
  8
寸法
  6
Continuous
 62
     3
100
AcDbMText
 10
896.5616587142847
 20
1760.42264400426
 30
0.0
 40
5.0
 41
0.0
 71
     5
 72
     1
  1
\A1;100(125)
  7
ACAD
 11
0.0000000000000001
 21
1.0
 31
0.0
 73
     1
 44
1.0
1001
ACAD
1000
MTEXTBEGIN
1070
    73
1070
     1
1070
    44
1040
1.0
1070
    74
1070
     0
1000
MTEXTEND
  0
POINT
  5
6234
330
5AB8
100
AcDbEntity
  8
Defpoints
  6
Continuous
 62
     0
100
AcDbPoint
 10
901.3711825238088
 20
1706.87706600426
 30
0.0
  0
POINT
  5
6235
330
5AB8
100
AcDbEntity
  8
Defpoints
  6
Continuous
 62
     0
100
AcDbPoint
 10
984.4711825238089
 20
1813.96822200426
 30
0.0
  0
POINT
  5
6236
330
5AB8
100
AcDbEntity
  8
Defpoints
  6
Continuous
 62
     0
100
AcDbPoint
 10
901.3711825238088
 20
1813.96822200426
 30
0.0
  0
ENDBLK
  5
5AC2
330
5AB8
100
AcDbEntity
  8
0
100
AcDbBlockEnd
  0
BLOCK
  5
5ACE
330
5AC4
100
AcDbEntity
  8
0
100
AcDbBlockBegin
  2
*D5
 70
     1
 10
0.0
 20
0.0
 30
0.0
  3
*D5
  1

  0
LINE
  5
623F
330
5AC4
100
AcDbEntity
  8
寸法
  6
Continuous
 62
     4
370
    -2
100
AcDbLine
 10
984.4711825238089
 20
1813.96822200426
 30
0.0
 11
901.3711825238088
 21
1813.96822200426
 31
0.0
  0
LINE
  5
6240
330
5AC4
100
AcDbEntity
  8
寸法
  6
Continuous
 62
     4
370
    -2
100
AcDbLine
 10
984.4711825238089
 20
1914.610260004261
 30
0.0
 11
901.3711825238088
 21
1914.610260004261
 31
0.0
  0
LINE
  5
6241
330
5AC4
100
AcDbEntity
  8
寸法
  6
Continuous
 62
     4
370
    -2
100
AcDbLine
 10
901.3711825238088
 20
1813.96822200426
 30
0.0
 11
901.3711825238088
 21
1914.610260004261
 31
0.0
  0
INSERT
  5
6242
330
5AC4
100
AcDbEntity
  8
寸法
  6
Continuous
 62
     4
370
    -2
100
AcDbBlockReference
  2
_DotSmall
 10
901.3711825238088
 20
1813.96822200426
 30
0.0
 41
5.0
 42
5.0
 43
5.0
 50
270.0
  0
INSERT
  5
6243
330
5AC4
100
AcDbEntity
  8
寸法
  6
Continuous
 62
     4
370
    -2
100
AcDbBlockReference
  2
_DotSmall
 10
901.3711825238088
 20
1914.610260004261
 30
0.0
 41
5.0
 42
5.0
 43
5.0
 50
90.0
  0
MTEXT
  5
6244
330
5AC4
100
AcDbEntity
  8
寸法
  6
Continuous
 62
     3
100
AcDbMText
 10
896.5616587142847
 20
1864.28924100426
 30
0.0
 40
5.0
 41
0.0
 71
     5
 72
     1
  1
\A1;100(125)
  7
ACAD
 11
0.0000000000000001
 21
1.0
 31
0.0
 73
     1
 44
1.0
1001
ACAD
1000
MTEXTBEGIN
1070
    73
1070
     1
1070
    44
1040
1.0
1070
    74
1070
     0
1000
MTEXTEND
  0
POINT
  5
6245
330
5AC4
100
AcDbEntity
  8
Defpoints
  6
Continuous
 62
     0
100
AcDbPoint
 10
984.4711825238089
 20
1813.96822200426
 30
0.0
  0
POINT
  5
6246
330
5AC4
100
AcDbEntity
  8
Defpoints
  6
Continuous
 62
     0
100
AcDbPoint
 10
984.4711825238089
 20
1914.610260004261
 30
0.0
  0
POINT
  5
6247
330
5AC4
100
AcDbEntity
  8
Defpoints
  6
Continuous
 62
     0
100
AcDbPoint
 10
901.3711825238088
 20
1914.610260004261
 30
0.0
  0
ENDBLK
  5
5ACF
330
5AC4
100
AcDbEntity
  8
0
100
AcDbBlockEnd
  0
BLOCK
  5
5ADA
330
5AD1
100
AcDbEntity
  8
0
100
AcDbBlockBegin
  2
*D6
 70
     1
 10
0.0
 20
0.0
 30
0.0
  3
*D6
  1

  0
LINE
  5
6237
330
5AD1
100
AcDbEntity
  8
寸法
  6
Continuous
 62
     4
370
    -2
100
AcDbLine
 10
983.590016523809
 20
2130.974535004261
 30
0.0
 11
901.3711825238088
 21
2130.974535004261
 31
0.0
  0
LINE
  5
6238
330
5AD1
100
AcDbEntity
  8
寸法
  6
Continuous
 62
     4
370
    -2
100
AcDbLine
 10
901.3711825238088
 20
2030.332497004261
 30
0.0
 11
901.3711825238088
 21
2130.974535004261
 31
0.0
  0
INSERT
  5
6239
330
5AD1
100
AcDbEntity
  8
寸法
  6
Continuous
 62
     4
370
    -2
100
AcDbBlockReference
  2
_DotSmall
 10
901.3711825238088
 20
2030.332497004261
 30
0.0
 41
5.0
 42
5.0
 43
5.0
 50
270.0
  0
INSERT
  5
623A
330
5AD1
100
AcDbEntity
  8
寸法
  6
Continuous
 62
     4
370
    -2
100
AcDbBlockReference
  2
_DotSmall
 10
901.3711825238088
 20
2130.974535004261
 30
0.0
 41
5.0
 42
5.0
 43
5.0
 50
90.0
  0
MTEXT
  5
623B
330
5AD1
100
AcDbEntity
  8
寸法
  6
Continuous
 62
     3
100
AcDbMText
 10
896.5616587142847
 20
2080.65351600426
 30
0.0
 40
5.0
 41
0.0
 71
     5
 72
     1
  1
\A1;100(125)
  7
ACAD
 11
0.0000000000000001
 21
1.0
 31
0.0
 73
     1
 44
1.0
1001
ACAD
1000
MTEXTBEGIN
1070
    73
1070
     1
1070
    44
1040
1.0
1070
    74
1070
     0
1000
MTEXTEND
  0
POINT
  5
623C
330
5AD1
100
AcDbEntity
  8
Defpoints
  6
Continuous
 62
     0
100
AcDbPoint
 10
901.3711825238088
 20
2030.332497004261
 30
0.0
  0
POINT
  5
623D
330
5AD1
100
AcDbEntity
  8
Defpoints
  6
Continuous
 62
     0
100
AcDbPoint
 10
983.590016523809
 20
2130.974535004261
 30
0.0
  0
POINT
  5
623E
330
5AD1
100
AcDbEntity
  8
Defpoints
  6
Continuous
 62
     0
100
AcDbPoint
 10
901.3711825238088
 20
2130.974535004261
 30
0.0
  0
ENDBLK
  5
5ADB
330
5AD1
100
AcDbEntity
  8
0
100
AcDbBlockEnd
  0
BLOCK
  5
5AE7
330
5ADD
100
AcDbEntity
  8
0
100
AcDbBlockBegin
  2
*D7
 70
     1
 10
0.0
 20
0.0
 30
0.0
  3
*D7
  1

  0
LINE
  5
6248
330
5ADD
100
AcDbEntity
  8
寸法
  6
Continuous
 62
     4
370
    -2
100
AcDbLine
 10
983.590016523809
 20
2130.974535004261
 30
0.0
 11
901.3711825238088
 21
2130.974535004261
 31
0.0
  0
LINE
  5
6249
330
5ADD
100
AcDbEntity
  8
寸法
  6
Continuous
 62
     4
370
    -2
100
AcDbLine
 10
979.7037085238089
 20
2160.70658700426
 30
0.0
 11
901.3711825238088
 21
2160.70658700426
 31
0.0
  0
LINE
  5
624A
330
5ADD
100
AcDbEntity
  8
寸法
  6
Continuous
 62
     4
370
    -2
100
AcDbLine
 10
901.3711825238088
 20
2130.974535004261
 30
0.0
 11
901.3711825238088
 21
2160.70658700426
 31
0.0
  0
INSERT
  5
624B
330
5ADD
100
AcDbEntity
  8
寸法
  6
Continuous
 62
     4
370
    -2
100
AcDbBlockReference
  2
_DotSmall
 10
901.3711825238088
 20
2130.974535004261
 30
0.0
 41
5.0
 42
5.0
 43
5.0
 50
270.0
  0
INSERT
  5
624C
330
5ADD
100
AcDbEntity
  8
寸法
  6
Continuous
 62
     4
370
    -2
100
AcDbBlockReference
  2
_DotSmall
 10
901.3711825238088
 20
2160.70658700426
 30
0.0
 41
5.0
 42
5.0
 43
5.0
 50
90.0
  0
MTEXT
  5
624D
330
5ADD
100
AcDbEntity
  8
寸法
  6
Continuous
 62
     3
100
AcDbMText
 10
897.8711825238086
 20
2145.84056100426
 30
0.0
 40
5.0
 41
0.0
 71
     5
 72
     1
  1
\A1;30
  7
ACAD
 11
0.0000000000000001
 21
1.0
 31
0.0
 73
     1
 44
1.0
1001
ACAD
1000
MTEXTBEGIN
1070
    73
1070
     1
1070
    44
1040
1.0
1070
    74
1070
     0
1000
MTEXTEND
  0
POINT
  5
624E
330
5ADD
100
AcDbEntity
  8
Defpoints
  6
Continuous
 62
     0
100
AcDbPoint
 10
983.590016523809
 20
2130.974535004261
 30
0.0
  0
POINT
  5
624F
330
5ADD
100
AcDbEntity
  8
Defpoints
  6
Continuous
 62
     0
100
AcDbPoint
 10
979.7037085238089
 20
2160.70658700426
 30
0.0
  0
POINT
  5
6250
330
5ADD
100
AcDbEntity
  8
Defpoints
  6
Continuous
 62
     0
100
AcDbPoint
 10
901.3711825238088
 20
2160.70658700426
 30
0.0
  0
ENDBLK
  5
5AE8
330
5ADD
100
AcDbEntity
  8
0
100
AcDbBlockEnd
  0
BLOCK
  5
5B01
330
5AF7
100
AcDbEntity
  8
0
100
AcDbBlockBegin
  2
*D8
 70
     1
 10
0.0
 20
0.0
 30
0.0
  3
*D8
  1

  0
LINE
  5
6263
330
5AF7
100
AcDbEntity
  8
寸法
  6
Continuous
 62
     4
370
    -2
100
AcDbLine
 10
1151.328008523809
 20
1785.70658700426
 30
0.0
 11
1226.711633523809
 21
1785.70658700426
 31
0.0
  0
LINE
  5
6264
330
5AF7
100
AcDbEntity
  8
寸法
  6
Continuous
 62
     4
370
    -2
100
AcDbLine
 10
1150.800248523809
 20
2035.70658600426
 30
0.0
 11
1226.711633523809
 21
2035.70658600426
 31
0.0
  0
LINE
  5
6265
330
5AF7
100
AcDbEntity
  8
寸法
  6
Continuous
 62
     4
370
    -2
100
AcDbLine
 10
1226.711633523809
 20
1785.70658700426
 30
0.0
 11
1226.711633523809
 21
2035.70658600426
 31
0.0
  0
INSERT
  5
6266
330
5AF7
100
AcDbEntity
  8
寸法
  6
Continuous
 62
     4
370
    -2
100
AcDbBlockReference
  2
_DotSmall
 10
1226.711633523809
 20
1785.70658700426
 30
0.0
 41
5.0
 42
5.0
 43
5.0
 50
270.0
  0
INSERT
  5
6267
330
5AF7
100
AcDbEntity
  8
寸法
  6
Continuous
 62
     4
370
    -2
100
AcDbBlockReference
  2
_DotSmall
 10
1226.711633523809
 20
2035.70658600426
 30
0.0
 41
5.0
 42
5.0
 43
5.0
 50
90.0
  0
MTEXT
  5
6268
330
5AF7
100
AcDbEntity
  8
寸法
  6
Continuous
 62
     3
100
AcDbMText
 10
1223.211633523808
 20
1910.706586504261
 30
0.0
 40
5.0
 41
0.0
 71
     5
 72
     1
  1
\A1;L2
  7
ACAD
 11
0.0000000000000001
 21
1.0
 31
0.0
 73
     1
 44
1.0
1001
ACAD
1000
MTEXTBEGIN
1070
    73
1070
     1
1070
    44
1040
1.0
1070
    74
1070
     0
1000
MTEXTEND
  0
POINT
  5
6269
330
5AF7
100
AcDbEntity
  8
Defpoints
  6
Continuous
 62
     0
100
AcDbPoint
 10
1151.328008523809
 20
1785.70658700426
 30
0.0
  0
POINT
  5
626A
330
5AF7
100
AcDbEntity
  8
Defpoints
  6
Continuous
 62
     0
100
AcDbPoint
 10
1150.800248523809
 20
2035.70658600426
 30
0.0
  0
POINT
  5
626B
330
5AF7
100
AcDbEntity
  8
Defpoints
  6
Continuous
 62
     0
100
AcDbPoint
 10
1226.711633523809
 20
2035.70658600426
 30
0.0
  0
ENDBLK
  5
5B02
330
5AF7
100
AcDbEntity
  8
0
100
AcDbBlockEnd
  0
BLOCK
  5
5B5D
330
5B55
100
AcDbEntity
  8
0
100
AcDbBlockBegin
  2
*D9
 70
     1
 10
0.0
 20
0.0
 30
0.0
  3
*D9
  1

  0
LINE
  5
6283
330
5B55
100
AcDbEntity
  8
寸法
  6
Continuous
 62
     4
370
    -2
100
AcDbLine
 10
943.153931523809
 20
1966.65459900426
 30
0.0
 11
1003.371182523809
 21
1966.65459900426
 31
0.0
  0
INSERT
  5
6284
330
5B55
100
AcDbEntity
  8
寸法
  6
Continuous
 62
     4
370
    -2
100
AcDbBlockReference
  2
_DotSmall
 10
943.153931523809
 20
1966.65459900426
 30
0.0
 41
5.0
 42
5.0
 43
5.0
 50
180.0
  0
INSERT
  5
6285
330
5B55
100
AcDbEntity
  8
寸法
  6
Continuous
 62
     4
370
    -2
100
AcDbBlockReference
  2
_DotSmall
 10
1003.371182523809
 20
1966.65459900426
 30
0.0
 41
5.0
 42
5.0
 43
5.0
  0
MTEXT
  5
6286
330
5B55
100
AcDbEntity
  8
寸法
  6
Continuous
 62
     3
100
AcDbMText
 10
973.262557023809
 20
1970.15459900426
 30
0.0
 40
5.0
 41
0.0
 71
     5
 72
     1
  1
\A1;60
  7
ACAD
 73
     1
 44
1.0
1001
ACAD
1000
MTEXTBEGIN
1070
    73
1070
     1
1070
    44
1040
1.0
1070
    74
1070
     0
1000
MTEXTEND
  0
POINT
  5
6287
330
5B55
100
AcDbEntity
  8
Defpoints
  6
Continuous
 62
     0
100
AcDbPoint
 10
943.153931523809
 20
1966.65459900426
 30
0.0
  0
POINT
  5
6288
330
5B55
100
AcDbEntity
  8
Defpoints
  6
Continuous
 62
     0
100
AcDbPoint
 10
1003.371182523809
 20
1966.65459900426
 30
0.0
  0
POINT
  5
6289
330
5B55
100
AcDbEntity
  8
Defpoints
  6
Continuous
 62
     0
100
AcDbPoint
 10
1003.371182523809
 20
1966.65459900426
 30
0.0
  0
ENDBLK
  5
5B5E
330
5B55
100
AcDbEntity
  8
0
100
AcDbBlockEnd
  0
BLOCK
  5
5B68
330
5B60
100
AcDbEntity
  8
0
100
AcDbBlockBegin
  2
*D10
 70
     1
 10
0.0
 20
0.0
 30
0.0
  3
*D10
  1

  0
LINE
  5
628A
330
5B60
100
AcDbEntity
  8
寸法
  6
Continuous
 62
     4
370
    -2
100
AcDbLine
 10
1003.371182523809
 20
1966.65459900426
 30
0.0
 11
1053.371180523809
 21
1966.65459900426
 31
0.0
  0
INSERT
  5
628B
330
5B60
100
AcDbEntity
  8
寸法
  6
Continuous
 62
     4
370
    -2
100
AcDbBlockReference
  2
_DotSmall
 10
1003.371182523809
 20
1966.65459900426
 30
0.0
 41
5.0
 42
5.0
 43
5.0
 50
180.0
  0
INSERT
  5
628C
330
5B60
100
AcDbEntity
  8
寸法
  6
Continuous
 62
     4
370
    -2
100
AcDbBlockReference
  2
_DotSmall
 10
1053.371180523809
 20
1966.65459900426
 30
0.0
 41
5.0
 42
5.0
 43
5.0
  0
MTEXT
  5
628D
330
5B60
100
AcDbEntity
  8
寸法
  6
Continuous
 62
     3
100
AcDbMText
 10
1028.371181523809
 20
1970.15459900426
 30
0.0
 40
5.0
 41
0.0
 71
     5
 72
     1
  1
\A1;50
  7
ACAD
 73
     1
 44
1.0
1001
ACAD
1000
MTEXTBEGIN
1070
    73
1070
     1
1070
    44
1040
1.0
1070
    74
1070
     0
1000
MTEXTEND
  0
POINT
  5
628E
330
5B60
100
AcDbEntity
  8
Defpoints
  6
Continuous
 62
     0
100
AcDbPoint
 10
1003.371182523809
 20
1966.65459900426
 30
0.0
  0
POINT
  5
628F
330
5B60
100
AcDbEntity
  8
Defpoints
  6
Continuous
 62
     0
100
AcDbPoint
 10
1053.371180523809
 20
1966.65459900426
 30
0.0
  0
POINT
  5
6290
330
5B60
100
AcDbEntity
  8
Defpoints
  6
Continuous
 62
     0
100
AcDbPoint
 10
1053.371180523809
 20
1966.65459900426
 30
0.0
  0
ENDBLK
  5
5B69
330
5B60
100
AcDbEntity
  8
0
100
AcDbBlockEnd
  0
BLOCK
  5
5B74
330
5B6B
100
AcDbEntity
  8
0
100
AcDbBlockBegin
  2
*D11
 70
     1
 10
0.0
 20
0.0
 30
0.0
  3
*D11
  1

  0
LINE
  5
627B
330
5B6B
100
AcDbEntity
  8
寸法
  6
Continuous
 62
     4
370
    -2
100
AcDbLine
 10
1063.371182523809
 20
2001.11987100426
 30
0.0
 11
1063.371182523809
 21
1966.65459900426
 31
0.0
  0
LINE
  5
627C
330
5B6B
100
AcDbEntity
  8
寸法
  6
Continuous
 62
     4
370
    -2
100
AcDbLine
 10
1063.371182523809
 20
1966.65459900426
 30
0.0
 11
1183.371182523809
 21
1966.65459900426
 31
0.0
  0
INSERT
  5
627D
330
5B6B
100
AcDbEntity
  8
寸法
  6
Continuous
 62
     4
370
    -2
100
AcDbBlockReference
  2
_DotSmall
 10
1063.371182523809
 20
1966.65459900426
 30
0.0
 41
5.0
 42
5.0
 43
5.0
 50
180.0
  0
INSERT
  5
627E
330
5B6B
100
AcDbEntity
  8
寸法
  6
Continuous
 62
     4
370
    -2
100
AcDbBlockReference
  2
_DotSmall
 10
1183.371182523809
 20
1966.65459900426
 30
0.0
 41
5.0
 42
5.0
 43
5.0
  0
MTEXT
  5
627F
330
5B6B
100
AcDbEntity
  8
寸法
  6
Continuous
 62
     3
100
AcDbMText
 10
1123.371182523809
 20
1970.15459900426
 30
0.0
 40
5.0
 41
0.0
 71
     5
 72
     1
  1
\A1;120
  7
ACAD
 73
     1
 44
1.0
1001
ACAD
1000
MTEXTBEGIN
1070
    73
1070
     1
1070
    44
1040
1.0
1070
    74
1070
     0
1000
MTEXTEND
  0
POINT
  5
6280
330
5B6B
100
AcDbEntity
  8
Defpoints
  6
Continuous
 62
     0
100
AcDbPoint
 10
1063.371182523809
 20
2001.11987100426
 30
0.0
  0
POINT
  5
6281
330
5B6B
100
AcDbEntity
  8
Defpoints
  6
Continuous
 62
     0
100
AcDbPoint
 10
1183.371182523809
 20
1966.65459900426
 30
0.0
  0
POINT
  5
6282
330
5B6B
100
AcDbEntity
  8
Defpoints
  6
Continuous
 62
     0
100
AcDbPoint
 10
1183.371182523809
 20
1966.65459900426
 30
0.0
  0
ENDBLK
  5
5B75
330
5B6B
100
AcDbEntity
  8
0
100
AcDbBlockEnd
  0
BLOCK
  5
5B80
330
5B77
100
AcDbEntity
  8
0
100
AcDbBlockBegin
  2
*D12
 70
     1
 10
0.0
 20
0.0
 30
0.0
  3
*D12
  1

  0
LINE
  5
626C
330
5B77
100
AcDbEntity
  8
寸法
  6
Continuous
 62
     4
370
    -2
100
AcDbLine
 10
1399.658465523809
 20
1811.70282000426
 30
0.0
 11
1360.658465523809
 21
1811.70282000426
 31
0.0
  0
LINE
  5
626D
330
5B77
100
AcDbEntity
  8
寸法
  6
Continuous
 62
     4
370
    -2
100
AcDbLine
 10
1360.658465523809
 20
1683.83328900426
 30
0.0
 11
1360.658465523809
 21
1811.70282000426
 31
0.0
  0
INSERT
  5
626E
330
5B77
100
AcDbEntity
  8
寸法
  6
Continuous
 62
     4
370
    -2
100
AcDbBlockReference
  2
_DotSmall
 10
1360.658465523809
 20
1683.83328900426
 30
0.0
 41
5.0
 42
5.0
 43
5.0
 50
270.0
  0
INSERT
  5
626F
330
5B77
100
AcDbEntity
  8
寸法
  6
Continuous
 62
     4
370
    -2
100
AcDbBlockReference
  2
_DotSmall
 10
1360.658465523809
 20
1811.70282000426
 30
0.0
 41
5.0
 42
5.0
 43
5.0
 50
90.0
  0
MTEXT
  5
6270
330
5B77
100
AcDbEntity
  8
寸法
  6
Continuous
 62
     3
100
AcDbMText
 10
1357.158465523808
 20
1747.76805450426
 30
0.0
 40
5.0
 41
0.0
 71
     5
 72
     1
  1
\A1;L1
  7
ACAD
 11
0.0000000000000001
 21
1.0
 31
0.0
 73
     1
 44
1.0
1001
ACAD
1000
MTEXTBEGIN
1070
    73
1070
     1
1070
    44
1040
1.0
1070
    74
1070
     0
1000
MTEXTEND
  0
POINT
  5
6271
330
5B77
100
AcDbEntity
  8
Defpoints
  6
Continuous
 62
     0
100
AcDbPoint
 10
1360.658465523809
 20
1683.83328900426
 30
0.0
  0
POINT
  5
6272
330
5B77
100
AcDbEntity
  8
Defpoints
  6
Continuous
 62
     0
100
AcDbPoint
 10
1399.658465523809
 20
1811.70282000426
 30
0.0
  0
POINT
  5
6273
330
5B77
100
AcDbEntity
  8
Defpoints
  6
Continuous
 62
     0
100
AcDbPoint
 10
1360.658465523809
 20
1811.70282000426
 30
0.0
  0
ENDBLK
  5
5B81
330
5B77
100
AcDbEntity
  8
0
100
AcDbBlockEnd
  0
BLOCK
  5
5B8D
330
5B83
100
AcDbEntity
  8
0
100
AcDbBlockBegin
  2
*D13
 70
     1
 10
0.0
 20
0.0
 30
0.0
  3
*D13
  1

  0
LINE
  5
625A
330
5B83
100
AcDbEntity
  8
寸法
  6
Continuous
 62
     4
370
    -2
100
AcDbLine
 10
1399.658465523809
 20
1811.70282000426
 30
0.0
 11
1360.658465523809
 21
1811.70282000426
 31
0.0
  0
LINE
  5
625B
330
5B83
100
AcDbEntity
  8
寸法
  6
Continuous
 62
     4
370
    -2
100
AcDbLine
 10
1399.658465523809
 20
1955.26738800426
 30
0.0
 11
1360.658465523809
 21
1955.26738800426
 31
0.0
  0
LINE
  5
625C
330
5B83
100
AcDbEntity
  8
寸法
  6
Continuous
 62
     4
370
    -2
100
AcDbLine
 10
1360.658465523809
 20
1811.70282000426
 30
0.0
 11
1360.658465523809
 21
1955.26738800426
 31
0.0
  0
INSERT
  5
625D
330
5B83
100
AcDbEntity
  8
寸法
  6
Continuous
 62
     4
370
    -2
100
AcDbBlockReference
  2
_DotSmall
 10
1360.658465523809
 20
1811.70282000426
 30
0.0
 41
5.0
 42
5.0
 43
5.0
 50
270.0
  0
INSERT
  5
625E
330
5B83
100
AcDbEntity
  8
寸法
  6
Continuous
 62
     4
370
    -2
100
AcDbBlockReference
  2
_DotSmall
 10
1360.658465523809
 20
1955.26738800426
 30
0.0
 41
5.0
 42
5.0
 43
5.0
 50
90.0
  0
MTEXT
  5
625F
330
5B83
100
AcDbEntity
  8
寸法
  6
Continuous
 62
     3
100
AcDbMText
 10
1357.158465523809
 20
1883.48510400426
 30
0.0
 40
5.0
 41
0.0
 71
     5
 72
     1
  1
\A1;L1
  7
ACAD
 11
0.0000000000000001
 21
1.0
 31
0.0
 73
     1
 44
1.0
1001
ACAD
1000
MTEXTBEGIN
1070
    73
1070
     1
1070
    44
1040
1.0
1070
    74
1070
     0
1000
MTEXTEND
  0
POINT
  5
6260
330
5B83
100
AcDbEntity
  8
Defpoints
  6
Continuous
 62
     0
100
AcDbPoint
 10
1399.658465523809
 20
1811.70282000426
 30
0.0
  0
POINT
  5
6261
330
5B83
100
AcDbEntity
  8
Defpoints
  6
Continuous
 62
     0
100
AcDbPoint
 10
1399.658465523809
 20
1955.26738800426
 30
0.0
  0
POINT
  5
6262
330
5B83
100
AcDbEntity
  8
Defpoints
  6
Continuous
 62
     0
100
AcDbPoint
 10
1360.658465523809
 20
1955.26738800426
 30
0.0
  0
ENDBLK
  5
5B8E
330
5B83
100
AcDbEntity
  8
0
100
AcDbBlockEnd
  0
BLOCK
  5
5B9A
330
5B90
100
AcDbEntity
  8
0
100
AcDbBlockBegin
  2
*D14
 70
     1
 10
0.0
 20
0.0
 30
0.0
  3
*D14
  1

  0
LINE
  5
6291
330
5B90
100
AcDbEntity
  8
寸法
  6
Continuous
 62
     4
370
    -2
100
AcDbLine
 10
1399.658465523809
 20
1955.26738800426
 30
0.0
 11
1360.658465523809
 21
1955.26738800426
 31
0.0
  0
LINE
  5
6292
330
5B90
100
AcDbEntity
  8
寸法
  6
Continuous
 62
     4
370
    -2
100
AcDbLine
 10
1399.658465523809
 20
2153.19632100426
 30
0.0
 11
1360.658465523809
 21
2153.19632100426
 31
0.0
  0
LINE
  5
6293
330
5B90
100
AcDbEntity
  8
寸法
  6
Continuous
 62
     4
370
    -2
100
AcDbLine
 10
1360.658465523809
 20
1955.26738800426
 30
0.0
 11
1360.658465523809
 21
2153.19632100426
 31
0.0
  0
INSERT
  5
6294
330
5B90
100
AcDbEntity
  8
寸法
  6
Continuous
 62
     4
370
    -2
100
AcDbBlockReference
  2
_DotSmall
 10
1360.658465523809
 20
1955.26738800426
 30
0.0
 41
5.0
 42
5.0
 43
5.0
 50
270.0
  0
INSERT
  5
6295
330
5B90
100
AcDbEntity
  8
寸法
  6
Continuous
 62
     4
370
    -2
100
AcDbBlockReference
  2
_DotSmall
 10
1360.658465523809
 20
2153.19632100426
 30
0.0
 41
5.0
 42
5.0
 43
5.0
 50
90.0
  0
MTEXT
  5
6296
330
5B90
100
AcDbEntity
  8
寸法
  6
Continuous
 62
     3
100
AcDbMText
 10
1357.158465523809
 20
2054.231854504261
 30
0.0
 40
5.0
 41
0.0
 71
     5
 72
     1
  1
\A1;350以内
  7
ACAD
 11
0.0000000000000001
 21
1.0
 31
0.0
 73
     1
 44
1.0
1001
ACAD
1000
MTEXTBEGIN
1070
    73
1070
     1
1070
    44
1040
1.0
1070
    74
1070
     0
1000
MTEXTEND
  0
POINT
  5
6297
330
5B90
100
AcDbEntity
  8
Defpoints
  6
Continuous
 62
     0
100
AcDbPoint
 10
1399.658465523809
 20
1955.26738800426
 30
0.0
  0
POINT
  5
6298
330
5B90
100
AcDbEntity
  8
Defpoints
  6
Continuous
 62
     0
100
AcDbPoint
 10
1399.658465523809
 20
2153.19632100426
 30
0.0
  0
POINT
  5
6299
330
5B90
100
AcDbEntity
  8
Defpoints
  6
Continuous
 62
     0
100
AcDbPoint
 10
1360.658465523809
 20
2153.19632100426
 30
0.0
  0
ENDBLK
  5
5B9B
330
5B90
100
AcDbEntity
  8
0
100
AcDbBlockEnd
  0
BLOCK
  5
5BA7
330
5B9D
100
AcDbEntity
  8
0
100
AcDbBlockBegin
  2
*D15
 70
     1
 10
0.0
 20
0.0
 30
0.0
  3
*D15
  1

  0
LINE
  5
6251
330
5B9D
100
AcDbEntity
  8
寸法
  6
Continuous
 62
     4
370
    -2
100
AcDbLine
 10
1414.168133523809
 20
2168.42139000426
 30
0.0
 11
1414.168133523809
 21
2207.42139000426
 31
0.0
  0
LINE
  5
6252
330
5B9D
100
AcDbEntity
  8
寸法
  6
Continuous
 62
     4
370
    -2
100
AcDbLine
 10
1612.182194523809
 20
2168.42139000426
 30
0.0
 11
1612.182194523809
 21
2207.42139000426
 31
0.0
  0
LINE
  5
6253
330
5B9D
100
AcDbEntity
  8
寸法
  6
Continuous
 62
     4
370
    -2
100
AcDbLine
 10
1414.168133523809
 20
2207.42139000426
 30
0.0
 11
1612.182194523809
 21
2207.42139000426
 31
0.0
  0
INSERT
  5
6254
330
5B9D
100
AcDbEntity
  8
寸法
  6
Continuous
 62
     4
370
    -2
100
AcDbBlockReference
  2
_DotSmall
 10
1414.168133523809
 20
2207.42139000426
 30
0.0
 41
5.0
 42
5.0
 43
5.0
 50
180.0
  0
INSERT
  5
6255
330
5B9D
100
AcDbEntity
  8
寸法
  6
Continuous
 62
     4
370
    -2
100
AcDbBlockReference
  2
_DotSmall
 10
1612.182194523809
 20
2207.42139000426
 30
0.0
 41
5.0
 42
5.0
 43
5.0
  0
MTEXT
  5
6256
330
5B9D
100
AcDbEntity
  8
寸法
  6
Continuous
 62
     3
100
AcDbMText
 10
1513.175164023809
 20
2210.92139000426
 30
0.0
 40
5.0
 41
0.0
 71
     5
 72
     1
  1
\A1;350以内
  7
ACAD
 73
     1
 44
1.0
1001
ACAD
1000
MTEXTBEGIN
1070
    73
1070
     1
1070
    44
1040
1.0
1070
    74
1070
     0
1000
MTEXTEND
  0
POINT
  5
6257
330
5B9D
100
AcDbEntity
  8
Defpoints
  6
Continuous
 62
     0
100
AcDbPoint
 10
1414.168133523809
 20
2168.42139000426
 30
0.0
  0
POINT
  5
6258
330
5B9D
100
AcDbEntity
  8
Defpoints
  6
Continuous
 62
     0
100
AcDbPoint
 10
1612.182194523809
 20
2168.42139000426
 30
0.0
  0
POINT
  5
6259
330
5B9D
100
AcDbEntity
  8
Defpoints
  6
Continuous
 62
     0
100
AcDbPoint
 10
1612.182194523809
 20
2207.42139000426
 30
0.0
  0
ENDBLK
  5
5BA8
330
5B9D
100
AcDbEntity
  8
0
100
AcDbBlockEnd
  0
BLOCK
  5
5BB4
330
5BAA
100
AcDbEntity
  8
0
100
AcDbBlockBegin
  2
*D16
 70
     1
 10
0.0
 20
0.0
 30
0.0
  3
*D16
  1

  0
LINE
  5
62BC
330
5BAA
100
AcDbEntity
  8
寸法
  6
Continuous
 62
     4
370
    -2
100
AcDbLine
 10
1612.182194523809
 20
2168.42139000426
 30
0.0
 11
1612.182194523809
 21
2207.42139000426
 31
0.0
  0
LINE
  5
62BD
330
5BAA
100
AcDbEntity
  8
寸法
  6
Continuous
 62
     4
370
    -2
100
AcDbLine
 10
1749.597065523809
 20
2168.42139000426
 30
0.0
 11
1749.597065523809
 21
2207.42139000426
 31
0.0
  0
LINE
  5
62BE
330
5BAA
100
AcDbEntity
  8
寸法
  6
Continuous
 62
     4
370
    -2
100
AcDbLine
 10
1612.182194523809
 20
2207.42139000426
 30
0.0
 11
1749.597065523809
 21
2207.42139000426
 31
0.0
  0
INSERT
  5
62BF
330
5BAA
100
AcDbEntity
  8
寸法
  6
Continuous
 62
     4
370
    -2
100
AcDbBlockReference
  2
_DotSmall
 10
1612.182194523809
 20
2207.42139000426
 30
0.0
 41
5.0
 42
5.0
 43
5.0
 50
180.0
  0
INSERT
  5
62C0
330
5BAA
100
AcDbEntity
  8
寸法
  6
Continuous
 62
     4
370
    -2
100
AcDbBlockReference
  2
_DotSmall
 10
1749.597065523809
 20
2207.42139000426
 30
0.0
 41
5.0
 42
5.0
 43
5.0
  0
MTEXT
  5
62C1
330
5BAA
100
AcDbEntity
  8
寸法
  6
Continuous
 62
     3
100
AcDbMText
 10
1680.889630023809
 20
2210.92139000426
 30
0.0
 40
5.0
 41
0.0
 71
     5
 72
     1
  1
\A1;L1
  7
ACAD
 73
     1
 44
1.0
1001
ACAD
1000
MTEXTBEGIN
1070
    73
1070
     1
1070
    44
1040
1.0
1070
    74
1070
     0
1000
MTEXTEND
  0
POINT
  5
62C2
330
5BAA
100
AcDbEntity
  8
Defpoints
  6
Continuous
 62
     0
100
AcDbPoint
 10
1612.182194523809
 20
2168.42139000426
 30
0.0
  0
POINT
  5
62C3
330
5BAA
100
AcDbEntity
  8
Defpoints
  6
Continuous
 62
     0
100
AcDbPoint
 10
1749.597065523809
 20
2168.42139000426
 30
0.0
  0
POINT
  5
62C4
330
5BAA
100
AcDbEntity
  8
Defpoints
  6
Continuous
 62
     0
100
AcDbPoint
 10
1749.597065523809
 20
2207.42139000426
 30
0.0
  0
ENDBLK
  5
5BB5
330
5BAA
100
AcDbEntity
  8
0
100
AcDbBlockEnd
  0
BLOCK
  5
5BC0
330
5BB7
100
AcDbEntity
  8
0
100
AcDbBlockBegin
  2
*D17
 70
     1
 10
0.0
 20
0.0
 30
0.0
  3
*D17
  1

  0
LINE
  5
62AB
330
5BB7
100
AcDbEntity
  8
寸法
  6
Continuous
 62
     4
370
    -2
100
AcDbLine
 10
1749.597065523809
 20
2168.42139000426
 30
0.0
 11
1749.597065523809
 21
2207.42139000426
 31
0.0
  0
LINE
  5
62AC
330
5BB7
100
AcDbEntity
  8
寸法
  6
Continuous
 62
     4
370
    -2
100
AcDbLine
 10
1749.597065523809
 20
2207.42139000426
 30
0.0
 11
1859.902655523809
 21
2207.42139000426
 31
0.0
  0
INSERT
  5
62AD
330
5BB7
100
AcDbEntity
  8
寸法
  6
Continuous
 62
     4
370
    -2
100
AcDbBlockReference
  2
_DotSmall
 10
1749.597065523809
 20
2207.42139000426
 30
0.0
 41
5.0
 42
5.0
 43
5.0
 50
180.0
  0
INSERT
  5
62AE
330
5BB7
100
AcDbEntity
  8
寸法
  6
Continuous
 62
     4
370
    -2
100
AcDbBlockReference
  2
_DotSmall
 10
1859.902655523809
 20
2207.42139000426
 30
0.0
 41
5.0
 42
5.0
 43
5.0
  0
MTEXT
  5
62AF
330
5BB7
100
AcDbEntity
  8
寸法
  6
Continuous
 62
     3
100
AcDbMText
 10
1804.749860523809
 20
2210.92139000426
 30
0.0
 40
5.0
 41
0.0
 71
     5
 72
     1
  1
\A1;L1
  7
ACAD
 73
     1
 44
1.0
1001
ACAD
1000
MTEXTBEGIN
1070
    73
1070
     1
1070
    44
1040
1.0
1070
    74
1070
     0
1000
MTEXTEND
  0
POINT
  5
62B0
330
5BB7
100
AcDbEntity
  8
Defpoints
  6
Continuous
 62
     0
100
AcDbPoint
 10
1749.597065523809
 20
2168.42139000426
 30
0.0
  0
POINT
  5
62B1
330
5BB7
100
AcDbEntity
  8
Defpoints
  6
Continuous
 62
     0
100
AcDbPoint
 10
1859.902655523809
 20
2207.42139000426
 30
0.0
  0
POINT
  5
62B2
330
5BB7
100
AcDbEntity
  8
Defpoints
  6
Continuous
 62
     0
100
AcDbPoint
 10
1859.902655523809
 20
2207.42139000426
 30
0.0
  0
ENDBLK
  5
5BC1
330
5BB7
100
AcDbEntity
  8
0
100
AcDbBlockEnd
  0
BLOCK
  5
5BCD
330
5BC3
100
AcDbEntity
  8
0
100
AcDbBlockBegin
  2
*D18
 70
     1
 10
0.0
 20
0.0
 30
0.0
  3
*D18
  1

  0
LINE
  5
62B3
330
5BC3
100
AcDbEntity
  8
寸法
  6
Continuous
 62
     4
370
    -2
100
AcDbLine
 10
1672.182194523809
 20
2026.96738800426
 30
0.0
 11
1672.182194523809
 21
1997.50284600426
 31
0.0
  0
LINE
  5
62B4
330
5BC3
100
AcDbEntity
  8
寸法
  6
Continuous
 62
     4
370
    -2
100
AcDbLine
 10
1809.597065523809
 20
2026.96738800426
 30
0.0
 11
1809.597065523809
 21
1997.50284600426
 31
0.0
  0
LINE
  5
62B5
330
5BC3
100
AcDbEntity
  8
寸法
  6
Continuous
 62
     4
370
    -2
100
AcDbLine
 10
1672.182194523809
 20
1997.50284600426
 30
0.0
 11
1809.597065523809
 21
1997.50284600426
 31
0.0
  0
INSERT
  5
62B6
330
5BC3
100
AcDbEntity
  8
寸法
  6
Continuous
 62
     4
370
    -2
100
AcDbBlockReference
  2
_DotSmall
 10
1672.182194523809
 20
1997.50284600426
 30
0.0
 41
5.0
 42
5.0
 43
5.0
 50
180.0
  0
INSERT
  5
62B7
330
5BC3
100
AcDbEntity
  8
寸法
  6
Continuous
 62
     4
370
    -2
100
AcDbBlockReference
  2
_DotSmall
 10
1809.597065523809
 20
1997.50284600426
 30
0.0
 41
5.0
 42
5.0
 43
5.0
  0
MTEXT
  5
62B8
330
5BC3
100
AcDbEntity
  8
寸法
  6
Continuous
 62
     3
100
AcDbMText
 10
1740.889630023809
 20
2001.002846004261
 30
0.0
 40
5.0
 41
0.0
 71
     5
 72
     1
  1
\A1;L2
  7
ACAD
 73
     1
 44
1.0
1001
ACAD
1000
MTEXTBEGIN
1070
    73
1070
     1
1070
    44
1040
1.0
1070
    74
1070
     0
1000
MTEXTEND
  0
POINT
  5
62B9
330
5BC3
100
AcDbEntity
  8
Defpoints
  6
Continuous
 62
     0
100
AcDbPoint
 10
1672.182194523809
 20
2026.96738800426
 30
0.0
  0
POINT
  5
62BA
330
5BC3
100
AcDbEntity
  8
Defpoints
  6
Continuous
 62
     0
100
AcDbPoint
 10
1809.597065523809
 20
2026.96738800426
 30
0.0
  0
POINT
  5
62BB
330
5BC3
100
AcDbEntity
  8
Defpoints
  6
Continuous
 62
     0
100
AcDbPoint
 10
1809.597065523809
 20
1997.50284600426
 30
0.0
  0
ENDBLK
  5
5BCE
330
5BC3
100
AcDbEntity
  8
0
100
AcDbBlockEnd
  0
BLOCK
  5
5BDA
330
5BD0
100
AcDbEntity
  8
0
100
AcDbBlockBegin
  2
*D19
 70
     1
 10
0.0
 20
0.0
 30
0.0
  3
*D19
  1

  0
LINE
  5
629A
330
5BD0
100
AcDbEntity
  8
寸法
  6
Continuous
 62
     4
370
    -2
100
AcDbLine
 10
1540.397066523809
 20
1751.70282000426
 30
0.0
 11
1564.927541523809
 21
1751.70282000426
 31
0.0
  0
LINE
  5
629B
330
5BD0
100
AcDbEntity
  8
寸法
  6
Continuous
 62
     4
370
    -2
100
AcDbLine
 10
1540.397066523809
 20
1895.26738800426
 30
0.0
 11
1564.927541523809
 21
1895.26738800426
 31
0.0
  0
LINE
  5
629C
330
5BD0
100
AcDbEntity
  8
寸法
  6
Continuous
 62
     4
370
    -2
100
AcDbLine
 10
1564.927541523809
 20
1751.70282000426
 30
0.0
 11
1564.927541523809
 21
1895.26738800426
 31
0.0
  0
INSERT
  5
629D
330
5BD0
100
AcDbEntity
  8
寸法
  6
Continuous
 62
     4
370
    -2
100
AcDbBlockReference
  2
_DotSmall
 10
1564.927541523809
 20
1751.70282000426
 30
0.0
 41
5.0
 42
5.0
 43
5.0
 50
270.0
  0
INSERT
  5
629E
330
5BD0
100
AcDbEntity
  8
寸法
  6
Continuous
 62
     4
370
    -2
100
AcDbBlockReference
  2
_DotSmall
 10
1564.927541523809
 20
1895.26738800426
 30
0.0
 41
5.0
 42
5.0
 43
5.0
 50
90.0
  0
MTEXT
  5
629F
330
5BD0
100
AcDbEntity
  8
寸法
  6
Continuous
 62
     3
100
AcDbMText
 10
1561.427541523808
 20
1823.485104004261
 30
0.0
 40
5.0
 41
0.0
 71
     5
 72
     1
  1
\A1;L2
  7
ACAD
 11
0.0000000000000001
 21
1.0
 31
0.0
 73
     1
 44
1.0
1001
ACAD
1000
MTEXTBEGIN
1070
    73
1070
     1
1070
    44
1040
1.0
1070
    74
1070
     0
1000
MTEXTEND
  0
POINT
  5
62A0
330
5BD0
100
AcDbEntity
  8
Defpoints
  6
Continuous
 62
     0
100
AcDbPoint
 10
1540.397066523809
 20
1751.70282000426
 30
0.0
  0
POINT
  5
62A1
330
5BD0
100
AcDbEntity
  8
Defpoints
  6
Continuous
 62
     0
100
AcDbPoint
 10
1540.397066523809
 20
1895.26738800426
 30
0.0
  0
POINT
  5
62A2
330
5BD0
100
AcDbEntity
  8
Defpoints
  6
Continuous
 62
     0
100
AcDbPoint
 10
1564.927541523809
 20
1895.26738800426
 30
0.0
  0
ENDBLK
  5
5BDB
330
5BD0
100
AcDbEntity
  8
0
100
AcDbBlockEnd
  0
BLOCK
  5
5BE6
330
5BDD
100
AcDbEntity
  8
0
100
AcDbBlockBegin
  2
*D20
 70
     1
 10
0.0
 20
0.0
 30
0.0
  3
*D20
  1

  0
LINE
  5
62A3
330
5BDD
100
AcDbEntity
  8
寸法
  6
Continuous
 62
     4
370
    -2
100
AcDbLine
 10
1647.097064523809
 20
1767.26739000426
 30
0.0
 11
1647.097064523809
 21
1714.86228600426
 31
0.0
  0
LINE
  5
62A4
330
5BDD
100
AcDbEntity
  8
寸法
  6
Continuous
 62
     4
370
    -2
100
AcDbLine
 10
1647.097064523809
 20
1714.86228600426
 30
0.0
 11
1527.097064523809
 21
1714.86228600426
 31
0.0
  0
INSERT
  5
62A5
330
5BDD
100
AcDbEntity
  8
寸法
  6
Continuous
 62
     4
370
    -2
100
AcDbBlockReference
  2
_DotSmall
 10
1647.097064523809
 20
1714.86228600426
 30
0.0
 41
5.0
 42
5.0
 43
5.0
  0
INSERT
  5
62A6
330
5BDD
100
AcDbEntity
  8
寸法
  6
Continuous
 62
     4
370
    -2
100
AcDbBlockReference
  2
_DotSmall
 10
1527.097064523809
 20
1714.86228600426
 30
0.0
 41
5.0
 42
5.0
 43
5.0
 50
180.0
  0
MTEXT
  5
62A7
330
5BDD
100
AcDbEntity
  8
寸法
  6
Continuous
 62
     3
100
AcDbMText
 10
1587.097064523809
 20
1718.36228600426
 30
0.0
 40
5.0
 41
0.0
 71
     5
 72
     1
  1
\A1;120
  7
ACAD
 73
     1
 44
1.0
1001
ACAD
1000
MTEXTBEGIN
1070
    73
1070
     1
1070
    44
1040
1.0
1070
    74
1070
     0
1000
MTEXTEND
  0
POINT
  5
62A8
330
5BDD
100
AcDbEntity
  8
Defpoints
  6
Continuous
 62
     0
100
AcDbPoint
 10
1647.097064523809
 20
1767.26739000426
 30
0.0
  0
POINT
  5
62A9
330
5BDD
100
AcDbEntity
  8
Defpoints
  6
Continuous
 62
     0
100
AcDbPoint
 10
1527.097064523809
 20
1714.86228600426
 30
0.0
  0
POINT
  5
62AA
330
5BDD
100
AcDbEntity
  8
Defpoints
  6
Continuous
 62
     0
100
AcDbPoint
 10
1527.097064523809
 20
1714.86228600426
 30
0.0
  0
ENDBLK
  5
5BE7
330
5BDD
100
AcDbEntity
  8
0
100
AcDbBlockEnd
  0
BLOCK
  5
5BF1
330
5BE9
100
AcDbEntity
  8
0
100
AcDbBlockBegin
  2
*D21
 70
     1
 10
0.0
 20
0.0
 30
0.0
  3
*D21
  1

  0
LINE
  5
6274
330
5BE9
100
AcDbEntity
  8
寸法
  6
Continuous
 62
     4
370
    -2
100
AcDbLine
 10
1467.097064523809
 20
1714.86228600426
 30
0.0
 11
1407.097064523809
 21
1714.86228600426
 31
0.0
  0
INSERT
  5
6275
330
5BE9
100
AcDbEntity
  8
寸法
  6
Continuous
 62
     4
370
    -2
100
AcDbBlockReference
  2
_DotSmall
 10
1467.097064523809
 20
1714.86228600426
 30
0.0
 41
5.0
 42
5.0
 43
5.0
  0
INSERT
  5
6276
330
5BE9
100
AcDbEntity
  8
寸法
  6
Continuous
 62
     4
370
    -2
100
AcDbBlockReference
  2
_DotSmall
 10
1407.097064523809
 20
1714.86228600426
 30
0.0
 41
5.0
 42
5.0
 43
5.0
 50
180.0
  0
MTEXT
  5
6277
330
5BE9
100
AcDbEntity
  8
寸法
  6
Continuous
 62
     3
100
AcDbMText
 10
1437.097064523809
 20
1718.36228600426
 30
0.0
 40
5.0
 41
0.0
 71
     5
 72
     1
  1
\A1;60
  7
ACAD
 73
     1
 44
1.0
1001
ACAD
1000
MTEXTBEGIN
1070
    73
1070
     1
1070
    44
1040
1.0
1070
    74
1070
     0
1000
MTEXTEND
  0
POINT
  5
6278
330
5BE9
100
AcDbEntity
  8
Defpoints
  6
Continuous
 62
     0
100
AcDbPoint
 10
1467.097064523809
 20
1714.86228600426
 30
0.0
  0
POINT
  5
6279
330
5BE9
100
AcDbEntity
  8
Defpoints
  6
Continuous
 62
     0
100
AcDbPoint
 10
1407.097064523809
 20
1714.86228600426
 30
0.0
  0
POINT
  5
627A
330
5BE9
100
AcDbEntity
  8
Defpoints
  6
Continuous
 62
     0
100
AcDbPoint
 10
1407.097064523809
 20
1714.86228600426
 30
0.0
  0
ENDBLK
  5
5BF2
330
5BE9
100
AcDbEntity
  8
0
100
AcDbBlockEnd
  0
BLOCK
  5
5BFE
330
5BF4
100
AcDbEntity
  8
0
100
AcDbBlockBegin
  2
*D22
 70
     1
 10
0.0
 20
0.0
 30
0.0
  3
*D22
  1

  0
LINE
  5
6226
330
5BF4
100
AcDbEntity
  8
寸法
  6
Continuous
 62
     4
370
    -2
100
AcDbLine
 10
1410.546995523809
 20
2163.88852500426
 30
0.0
 11
1382.718568023808
 21
2191.71695250426
 31
0.0
  0
LINE
  5
6227
330
5BF4
100
AcDbEntity
  8
寸法
  6
Continuous
 62
     4
370
    -2
100
AcDbLine
 10
1403.475929523809
 20
2156.81745900426
 30
0.0
 11
1375.647502023808
 21
2184.64588650426
 31
0.0
  0
LINE
  5
6228
330
5BF4
100
AcDbEntity
  8
寸法
  6
Continuous
 62
     4
370
    -2
100
AcDbLine
 10
1382.718568023808
 20
2191.71695250426
 30
0.0
 11
1375.647502023808
 21
2184.64588650426
 31
0.0
  0
INSERT
  5
6229
330
5BF4
100
AcDbEntity
  8
寸法
  6
Continuous
 62
     4
370
    -2
100
AcDbBlockReference
  2
_DotSmall
 10
1382.718568023808
 20
2191.71695250426
 30
0.0
 41
5.0
 42
5.0
 43
5.0
 50
45.00000000000087
  0
INSERT
  5
622A
330
5BF4
100
AcDbEntity
  8
寸法
  6
Continuous
 62
     4
370
    -2
100
AcDbBlockReference
  2
_DotSmall
 10
1375.647502023808
 20
2184.64588650426
 30
0.0
 41
5.0
 42
5.0
 43
5.0
 50
225.0000000000009
  0
MTEXT
  5
622B
330
5BF4
100
AcDbEntity
  8
寸法
  6
Continuous
 62
     3
100
AcDbMText
 10
1376.708161289656
 20
2190.656293238413
 30
0.0
 40
5.0
 41
0.0
 71
     5
 72
     1
  1
\A1;10
  7
ACAD
 11
0.7071067811865363
 21
0.7071067811865588
 31
0.0
 73
     1
 44
1.0
1001
ACAD
1000
MTEXTBEGIN
1070
    73
1070
     1
1070
    44
1040
1.0
1070
    74
1070
     0
1000
MTEXTEND
  0
POINT
  5
622C
330
5BF4
100
AcDbEntity
  8
Defpoints
  6
Continuous
 62
     0
100
AcDbPoint
 10
1410.546995523809
 20
2163.88852500426
 30
0.0
  0
POINT
  5
622D
330
5BF4
100
AcDbEntity
  8
Defpoints
  6
Continuous
 62
     0
100
AcDbPoint
 10
1403.475929523809
 20
2156.81745900426
 30
0.0
  0
POINT
  5
622E
330
5BF4
100
AcDbEntity
  8
Defpoints
  6
Continuous
 62
     0
100
AcDbPoint
 10
1375.647502023808
 20
2184.64588650426
 30
0.0
  0
ENDBLK
  5
5BFF
330
5BF4
100
AcDbEntity
  8
0
100
AcDbBlockEnd
  0
BLOCK
  5
61EC
330
61EA
100
AcDbEntity
  8
0
100
AcDbBlockBegin
  2
_DotSmall
 70
     0
 10
0.0
 20
0.0
 30
0.0
  3
_DotSmall
  1

  0
LWPOLYLINE
  5
61EB
330
61EA
100
AcDbEntity
  8
0
  6
ByBlock
 62
     0
100
AcDbPolyline
 90
        2
 70
     1
 43
0.5
 10
-0.0625
 20
0.0
 42
1.0
 10
0.0625
 20
0.0
 42
1.0
  0
ENDBLK
  5
61ED
330
61EA
100
AcDbEntity
  8
0
100
AcDbBlockEnd
  0
BLOCK
  5
6360
330
6356
100
AcDbEntity
  8
0
100
AcDbBlockBegin
  2
*D24
 70
     1
 10
0.0
 20
0.0
 30
0.0
  3
*D24
  1

  0
LINE
  5
6385
330
6356
100
AcDbEntity
  8
寸法
  6
Continuous
 62
     4
370
    -2
100
AcDbLine
 10
984.4711825238089
 20
1914.610260004261
 30
0.0
 11
901.3711825238088
 21
1914.610260004261
 31
0.0
  0
LINE
  5
6386
330
6356
100
AcDbEntity
  8
寸法
  6
Continuous
 62
     4
370
    -2
100
AcDbLine
 10
984.4711825238089
 20
2030.33167946899
 30
0.0
 11
901.3711825238088
 21
2030.33167946899
 31
0.0
  0
LINE
  5
6387
330
6356
100
AcDbEntity
  8
寸法
  6
Continuous
 62
     4
370
    -2
100
AcDbLine
 10
901.3711825238088
 20
1914.610260004261
 30
0.0
 11
901.3711825238088
 21
2030.33167946899
 31
0.0
  0
INSERT
  5
6388
330
6356
100
AcDbEntity
  8
寸法
  6
Continuous
 62
     4
370
    -2
100
AcDbBlockReference
  2
_DotSmall
 10
901.3711825238088
 20
1914.610260004261
 30
0.0
 41
5.0
 42
5.0
 43
5.0
 50
270.0
  0
INSERT
  5
6389
330
6356
100
AcDbEntity
  8
寸法
  6
Continuous
 62
     4
370
    -2
100
AcDbBlockReference
  2
_DotSmall
 10
901.3711825238088
 20
2030.33167946899
 30
0.0
 41
5.0
 42
5.0
 43
5.0
 50
90.0
  0
MTEXT
  5
638A
330
6356
100
AcDbEntity
  8
寸法
  6
Continuous
 62
     3
100
AcDbMText
 10
897.8711825238086
 20
1972.470969736626
 30
0.0
 40
5.0
 41
0.0
 71
     5
 72
     1
  1
\A1;100（125）
  7
ACAD
 11
0.0000000000000001
 21
1.0
 31
0.0
 73
     1
 44
1.0
1001
ACAD
1000
MTEXTBEGIN
1070
    73
1070
     1
1070
    44
1040
1.0
1070
    74
1070
     0
1000
MTEXTEND
  0
POINT
  5
638B
330
6356
100
AcDbEntity
  8
Defpoints
  6
Continuous
 62
     0
100
AcDbPoint
 10
984.4711825238089
 20
1914.610260004261
 30
0.0
  0
POINT
  5
638C
330
6356
100
AcDbEntity
  8
Defpoints
  6
Continuous
 62
     0
100
AcDbPoint
 10
984.4711825238089
 20
2030.33167946899
 30
0.0
  0
POINT
  5
638D
330
6356
100
AcDbEntity
  8
Defpoints
  6
Continuous
 62
     0
100
AcDbPoint
 10
901.3711825238088
 20
2030.33167946899
 30
0.0
  0
ENDBLK
  5
6361
330
6356
100
AcDbEntity
  8
0
100
AcDbBlockEnd
  0
BLOCK
  5
6398
330
638F
100
AcDbEntity
  8
0
100
AcDbBlockBegin
  2
*D25
 70
     1
 10
0.0
 20
0.0
 30
0.0
  3
*D25
  1

  0
LINE
  5
63AD
330
638F
100
AcDbEntity
  8
寸法
  6
Continuous
 62
     4
370
    -2
100
AcDbLine
 10
1516.597064523809
 20
1771.20282000426
 30
0.0
 11
1516.597064523809
 21
1714.86228600426
 31
0.0
  0
LINE
  5
63AE
330
638F
100
AcDbEntity
  8
寸法
  6
Continuous
 62
     4
370
    -2
100
AcDbLine
 10
1467.097064523809
 20
1714.86228600426
 30
0.0
 11
1516.597064523809
 21
1714.86228600426
 31
0.0
  0
INSERT
  5
63AF
330
638F
100
AcDbEntity
  8
寸法
  6
Continuous
 62
     4
370
    -2
100
AcDbBlockReference
  2
_DotSmall
 10
1467.097064523809
 20
1714.86228600426
 30
0.0
 41
5.0
 42
5.0
 43
5.0
 50
180.0
  0
INSERT
  5
63B0
330
638F
100
AcDbEntity
  8
寸法
  6
Continuous
 62
     4
370
    -2
100
AcDbBlockReference
  2
_DotSmall
 10
1516.597064523809
 20
1714.86228600426
 30
0.0
 41
5.0
 42
5.0
 43
5.0
  0
MTEXT
  5
63B1
330
638F
100
AcDbEntity
  8
寸法
  6
Continuous
 62
     3
100
AcDbMText
 10
1491.847064523809
 20
1718.36228600426
 30
0.0
 40
5.0
 41
0.0
 71
     5
 72
     1
  1
\A1;50
  7
ACAD
 73
     1
 44
1.0
1001
ACAD
1000
MTEXTBEGIN
1070
    73
1070
     1
1070
    44
1040
1.0
1070
    74
1070
     0
1000
MTEXTEND
  0
POINT
  5
63B2
330
638F
100
AcDbEntity
  8
Defpoints
  6
Continuous
 62
     0
100
AcDbPoint
 10
1467.097064523809
 20
1714.86228600426
 30
0.0
  0
POINT
  5
63B3
330
638F
100
AcDbEntity
  8
Defpoints
  6
Continuous
 62
     0
100
AcDbPoint
 10
1516.597064523809
 20
1771.20282000426
 30
0.0
  0
POINT
  5
63B4
330
638F
100
AcDbEntity
  8
Defpoints
  6
Continuous
 62
     0
100
AcDbPoint
 10
1516.597064523809
 20
1714.86228600426
 30
0.0
  0
ENDBLK
  5
6399
330
638F
100
AcDbEntity
  8
0
100
AcDbBlockEnd
  0
BLOCK
  5
63AB
330
63A3
100
AcDbEntity
  8
0
100
AcDbBlockBegin
  2
*D26
 70
     1
 10
0.0
 20
0.0
 30
0.0
  3
*D26
  1

  0
LINE
  5
6400
330
63A3
100
AcDbEntity
  8
寸法
  6
Continuous
 62
     4
370
    -2
100
AcDbLine
 10
1516.534564523809
 20
1714.86228600426
 30
0.0
 11
1527.097064523809
 21
1714.86228600426
 31
0.0
  0
INSERT
  5
6401
330
63A3
100
AcDbEntity
  8
寸法
  6
Continuous
 62
     4
370
    -2
100
AcDbBlockReference
  2
_DotSmall
 10
1516.534564523809
 20
1714.86228600426
 30
0.0
 41
5.0
 42
5.0
 43
5.0
 50
180.0
  0
INSERT
  5
6402
330
63A3
100
AcDbEntity
  8
寸法
  6
Continuous
 62
     4
370
    -2
100
AcDbBlockReference
  2
_DotSmall
 10
1527.097064523809
 20
1714.86228600426
 30
0.0
 41
5.0
 42
5.0
 43
5.0
  0
MTEXT
  5
6403
330
63A3
100
AcDbEntity
  8
寸法
  6
Continuous
 62
     3
100
AcDbMText
 10
1521.815814523809
 20
1718.36228600426
 30
0.0
 40
5.0
 41
0.0
 71
     5
 72
     1
  1
\A1;調整
  7
ACAD
 73
     1
 44
1.0
1001
ACAD
1000
MTEXTBEGIN
1070
    73
1070
     1
1070
    44
1040
1.0
1070
    74
1070
     0
1000
MTEXTEND
  0
POINT
  5
6404
330
63A3
100
AcDbEntity
  8
Defpoints
  6
Continuous
 62
     0
100
AcDbPoint
 10
1516.534564523809
 20
1714.86228600426
 30
0.0
  0
POINT
  5
6405
330
63A3
100
AcDbEntity
  8
Defpoints
  6
Continuous
 62
     0
100
AcDbPoint
 10
1527.097064523809
 20
1714.86228600426
 30
0.0
  0
POINT
  5
6406
330
63A3
100
AcDbEntity
  8
Defpoints
  6
Continuous
 62
     0
100
AcDbPoint
 10
1527.097064523809
 20
1714.86228600426
 30
0.0
  0
ENDBLK
  5
63AC
330
63A3
100
AcDbEntity
  8
0
100
AcDbBlockEnd
  0
ENDSEC
  0
SECTION
  2
ENTITIES
  0
LINE
  5
5592
330
1E
100
AcDbEntity
  8
躯体と製品
  6
Continuous
 62
     4
100
AcDbLine
 10
1183.371182523809
 20
1686.75220500426
 30
0.0
 11
1183.371182523809
 21
2160.70658700426
 31
0.0
  0
LINE
  5
5593
330
1E
100
AcDbEntity
  8
躯体と製品
  6
Continuous
 62
     4
100
AcDbLine
 10
1053.371180523809
 20
1686.75220500426
 30
0.0
 11
1053.371180523809
 21
2160.70658700426
 31
0.0
  0
LINE
  5
5594
330
1E
100
AcDbEntity
  8
躯体と製品
  6
Continuous
 62
     4
100
AcDbLine
 10
1007.371181523809
 20
1686.75220500426
 30
0.0
 11
1007.371181523809
 21
2160.70658700426
 31
0.0
  0
LINE
  5
5595
330
1E
100
AcDbEntity
  8
躯体と製品
  6
Continuous
 62
     4
100
AcDbLine
 10
1193.371181523809
 20
1686.75220500426
 30
0.0
 11
1193.371181523809
 21
2160.70658700426
 31
0.0
  0
LINE
  5
5596
330
1E
100
AcDbEntity
  8
躯体と製品
  6
Continuous
 62
     4
100
AcDbLine
 10
1003.371182523809
 20
1686.75220500426
 30
0.0
 11
1003.371182523809
 21
2160.70658700426
 31
0.0
  0
LINE
  5
5598
330
1E
100
AcDbEntity
  8
躯体と製品
  6
Continuous
 62
     3
100
AcDbLine
 10
1015.271180523809
 20
1912.11026100426
 30
0.0
 11
1025.153930523809
 21
1912.11026100426
 31
0.0
  0
LINE
  5
5599
330
1E
100
AcDbEntity
  8
躯体と製品
  6
Continuous
 62
     3
100
AcDbLine
 10
1015.271180523809
 20
1917.11026200426
 30
0.0
 11
1025.153930523809
 21
1917.11026200426
 31
0.0
  0
LINE
  5
559A
330
1E
100
AcDbEntity
  8
躯体と製品
  6
Continuous
 62
     3
100
AcDbLine
 10
1024.653929523809
 20
1917.61026000426
 30
0.0
 11
1015.271180523809
 21
1917.61026000426
 31
0.0
  0
LINE
  5
559B
330
1E
100
AcDbEntity
  8
躯体と製品
  6
Continuous
 62
     3
100
AcDbLine
 10
1015.271180523809
 20
1911.61026000426
 30
0.0
 11
1024.653929523809
 21
1911.61026000426
 31
0.0
  0
LINE
  5
559C
330
1E
100
AcDbEntity
  8
躯体と製品
  6
PLINE2
 62
     3
100
AcDbLine
 10
1013.371181523809
 20
1810.70658600426
 30
0.0
 11
1053.371180523809
 21
1810.70658600426
 31
0.0
  0
LINE
  5
559D
330
1E
100
AcDbEntity
  8
躯体と製品
  6
PLINE2
 62
     3
100
AcDbLine
 10
1013.371181523809
 20
1760.70658500426
 30
0.0
 11
1053.371180523809
 21
1760.70658500426
 31
0.0
  0
LINE
  5
559E
330
1E
100
AcDbEntity
  8
躯体と製品
  6
Continuous
 62
     3
100
AcDbLine
 10
1024.653929523809
 20
1816.96822200426
 30
0.0
 11
1015.271180523809
 21
1816.96822200426
 31
0.0
  0
LINE
  5
559F
330
1E
100
AcDbEntity
  8
躯体と製品
  6
Continuous
 62
     3
100
AcDbLine
 10
1015.271180523809
 20
1810.96822200426
 30
0.0
 11
1024.653929523809
 21
1810.96822200426
 31
0.0
  0
LINE
  5
55A0
330
1E
100
AcDbEntity
  8
躯体と製品
  6
Continuous
 62
     3
100
AcDbLine
 10
1015.271180523809
 20
1811.46822300426
 30
0.0
 11
1025.153930523809
 21
1811.46822300426
 31
0.0
  0
LINE
  5
55A1
330
1E
100
AcDbEntity
  8
躯体と製品
  6
Continuous
 62
     3
100
AcDbLine
 10
1015.271180523809
 20
1816.46822100426
 30
0.0
 11
1025.153930523809
 21
1816.46822100426
 31
0.0
  0
LINE
  5
55A3
330
1E
100
AcDbEntity
  8
躯体と製品
  6
Continuous
 62
     3
100
AcDbLine
 10
985.554116523809
 20
1838.37915300426
 30
0.0
 11
943.371182523809
 21
1758.70027500426
 31
0.0
  0
LINE
  5
55A4
330
1E
100
AcDbEntity
  8
躯体と製品
  6
Continuous
 62
     3
100
AcDbLine
 10
1000.371182523809
 20
1842.20027400426
 30
0.0
 11
1000.371182523809
 21
1786.20027300426
 31
0.0
  0
ARC
  5
55A5
330
1E
100
AcDbEntity
  8
躯体と製品
  6
Continuous
 62
     3
100
AcDbCircle
 10
1000.871180523809
 20
1820.96822100426
 30
0.0
 40
2.000001
100
AcDbArc
 50
0.0
 51
90.0
  0
LINE
  5
55A6
330
1E
100
AcDbEntity
  8
躯体と製品
  6
Continuous
 62
     3
100
AcDbLine
 10
995.371181523809
 20
1789.20027300426
 30
0.0
 11
995.371181523809
 21
1839.20027400426
 31
0.0
  0
LINE
  5
55A7
330
1E
100
AcDbEntity
  8
躯体と製品
  6
Continuous
 62
     3
100
AcDbLine
 10
988.9711825238091
 20
1786.20027300426
 30
0.0
 11
988.9711825238091
 21
1835.67674400426
 31
0.0
  0
LINE
  5
55A8
330
1E
100
AcDbEntity
  8
躯体と製品
  6
Continuous
 62
     3
100
AcDbLine
 10
960.0624955238091
 20
1787.23614000426
 30
0.0
 11
986.287091523809
 21
1836.77148900426
 31
0.0
  0
LINE
  5
55A9
330
1E
100
AcDbEntity
  8
躯体と製品
  6
Continuous
 62
     3
100
AcDbLine
 10
990.371180523809
 20
1841.18913600426
 30
0.0
 11
990.371180523809
 21
1814.50027500426
 31
0.0
  0
LINE
  5
55B1
330
1E
100
AcDbEntity
  8
躯体と製品
  6
Continuous
 62
     3
100
AcDbLine
 10
944.8711825238088
 20
1758.54143700426
 30
0.0
 11
958.290383523809
 21
1783.88881500426
 31
0.0
  0
LINE
  5
55B2
330
1E
100
AcDbEntity
  8
躯体と製品
  6
Continuous
 62
     3
100
AcDbLine
 10
943.371182523809
 20
1758.70027500426
 30
0.0
 11
943.371182523809
 21
1743.70027500426
 31
0.0
  0
LINE
  5
55B3
330
1E
100
AcDbEntity
  8
躯体と製品
  6
Continuous
 62
     3
100
AcDbLine
 10
945.3711805238089
 20
1743.70027500426
 30
0.0
 11
945.3711805238089
 21
1746.70027500426
 31
0.0
  0
LINE
  5
55B4
330
1E
100
AcDbEntity
  8
躯体と製品
  6
Continuous
 62
     3
100
AcDbLine
 10
943.371182523809
 20
1743.70027500426
 30
0.0
 11
945.3711805238089
 21
1743.70027500426
 31
0.0
  0
LINE
  5
55B5
330
1E
100
AcDbEntity
  8
躯体と製品
  6
Continuous
 62
     3
100
AcDbLine
 10
945.3711805238089
 20
1746.70027500426
 30
0.0
 11
944.8711825238088
 21
1746.70027500426
 31
0.0
  0
LINE
  5
55B6
330
1E
100
AcDbEntity
  8
躯体と製品
  6
Continuous
 62
     3
100
AcDbLine
 10
944.8711825238088
 20
1758.54143700426
 30
0.0
 11
944.8711825238088
 21
1746.70027500426
 31
0.0
  0
LINE
  5
55B7
330
1E
100
AcDbEntity
  8
躯体と製品
  6
Continuous
 62
     3
100
AcDbLine
 10
959.3220595238088
 20
1784.70027300426
 30
0.0
 11
1003.371182523809
 21
1784.70027300426
 31
0.0
  0
LINE
  5
55B8
330
1E
100
AcDbEntity
  8
躯体と製品
  6
Continuous
 62
     3
100
AcDbLine
 10
988.9711825238091
 20
1786.20027300426
 30
0.0
 11
961.0618525238088
 21
1786.20027300426
 31
0.0
  0
ARC
  5
55B9
330
1E
100
AcDbEntity
  8
躯体と製品
  6
Continuous
 62
     3
100
AcDbCircle
 10
959.3556925238088
 20
1783.59595500426
 30
0.0
 40
1.104831
100
AcDbArc
 50
91.74442199999989
 51
164.6287570000004
  0
ARC
  5
55BA
330
1E
100
AcDbEntity
  8
躯体と製品
  6
Continuous
 62
     3
100
AcDbCircle
 10
961.0618525238088
 20
1787.20027500426
 30
0.0
 40
0.999999
100
AcDbArc
 50
177.9446619999991
 51
270.0
  0
ARC
  5
55BB
330
1E
100
AcDbEntity
  8
躯体と製品
  6
Continuous
 62
     3
100
AcDbCircle
 10
961.0618525238088
 20
1787.20027500426
 30
0.0
 40
0.999999
100
AcDbArc
 50
177.9446619999991
 51
270.0
  0
LINE
  5
55BC
330
1E
100
AcDbEntity
  8
躯体と製品
  6
Continuous
 62
     3
100
AcDbLine
 10
990.371180523809
 20
1813.90027500426
 30
0.0
 11
990.371180523809
 21
1786.20027300426
 31
0.0
  0
LINE
  5
55BD
330
1E
100
AcDbEntity
  8
躯体と製品
  6
Continuous
 62
     3
100
AcDbLine
 10
1001.871182523809
 20
1787.20027500426
 30
0.0
 11
1001.871182523809
 21
1797.46822200426
 31
0.0
  0
LINE
  5
55BE
330
1E
100
AcDbEntity
  8
躯体と製品
  6
PLINE2
 62
     3
100
AcDbLine
 10
1013.371181523809
 20
1760.70658500426
 30
0.0
 11
1013.371181523809
 21
1810.70658600426
 31
0.0
  0
LINE
  5
55BF
330
1E
100
AcDbEntity
  8
躯体と製品
  6
Continuous
 62
     3
100
AcDbLine
 10
990.371180523809
 20
1786.20027300426
 30
0.0
 11
1000.871180523809
 21
1786.20027300426
 31
0.0
  0
LINE
  5
55C0
330
1E
100
AcDbEntity
  8
躯体と製品
  6
Continuous
 62
     3
100
AcDbLine
 10
998.3711815238089
 20
1786.20027300426
 30
0.0
 11
1000.371182523809
 21
1786.20027300426
 31
0.0
  0
ARC
  5
55C1
330
1E
100
AcDbEntity
  8
躯体と製品
  6
Continuous
 62
     3
100
AcDbCircle
 10
998.3711815238089
 20
1789.20027300426
 30
0.0
 40
3.0
100
AcDbArc
 50
180.0
 51
270.0
  0
ARC
  5
55C2
330
1E
100
AcDbEntity
  8
躯体と製品
  6
Continuous
 62
     3
100
AcDbCircle
 10
1000.871180523809
 20
1787.20027500426
 30
0.0
 40
0.999999
100
AcDbArc
 50
270.0
 51
0.0
  0
LINE
  5
55C3
330
1E
100
AcDbEntity
  8
躯体と製品
  6
Continuous
 62
     3
100
AcDbLine
 10
990.0711805238088
 20
1814.20027500426
 30
0.0
 11
990.371180523809
 21
1813.90027500426
 31
0.0
  0
LINE
  5
55C4
330
1E
100
AcDbEntity
  8
躯体と製品
  6
Continuous
 62
     3
100
AcDbLine
 10
990.371180523809
 20
1814.50027500426
 30
0.0
 11
990.0711805238088
 21
1814.20027500426
 31
0.0
  0
ARC
  5
55C5
330
1E
100
AcDbEntity
  8
躯体と製品
  6
Continuous
 62
     3
100
AcDbCircle
 10
1000.871180523809
 20
1806.96822300426
 30
0.0
 40
2.000001
100
AcDbArc
 50
270.0
 51
0.0
  0
ARC
  5
55C6
330
1E
100
AcDbEntity
  8
躯体と製品
  6
Continuous
 62
     3
100
AcDbCircle
 10
1000.871180523809
 20
1804.46822100426
 30
0.0
 40
0.5000010000000001
100
AcDbArc
 50
90.0
 51
180.0
  0
LINE
  5
55C7
330
1E
100
AcDbEntity
  8
躯体と製品
  6
Continuous
 62
     3
100
AcDbLine
 10
1001.871182523809
 20
1797.46822200426
 30
0.0
 11
1000.371182523809
 21
1797.46822200426
 31
0.0
  0
LINE
  5
55C8
330
1E
100
AcDbEntity
  8
躯体と製品
  6
Continuous
 62
     3
100
AcDbLine
 10
1003.371182523809
 20
1798.96822200426
 30
0.0
 11
1000.371182523809
 21
1798.96822200426
 31
0.0
  0
LINE
  5
55C9
330
1E
100
AcDbEntity
  8
躯体と製品
  6
Continuous
 62
     3
100
AcDbLine
 10
1002.871181523809
 20
1811.46822300426
 30
0.0
 11
1007.371181523809
 21
1811.46822300426
 31
0.0
  0
LINE
  5
55CA
330
1E
100
AcDbEntity
  8
躯体と製品
  6
Continuous
 62
     3
100
AcDbLine
 10
1002.871181523809
 20
1816.46822100426
 30
0.0
 11
1007.371181523809
 21
1816.46822100426
 31
0.0
  0
LINE
  5
55CB
330
1E
100
AcDbEntity
  8
躯体と製品
  6
Continuous
 62
     3
100
AcDbLine
 10
1002.871181523809
 20
1810.96822200426
 30
0.0
 11
1007.371181523809
 21
1810.96822200426
 31
0.0
  0
LINE
  5
55CC
330
1E
100
AcDbEntity
  8
躯体と製品
  6
Continuous
 62
     3
100
AcDbLine
 10
1002.871181523809
 20
1816.96822200426
 30
0.0
 11
1007.371181523809
 21
1816.96822200426
 31
0.0
  0
LINE
  5
55CD
330
1E
100
AcDbEntity
  8
躯体と製品
  6
Continuous
 62
     3
100
AcDbLine
 10
1002.871181523809
 20
1806.96822300426
 30
0.0
 11
1002.871181523809
 21
1820.96822100426
 31
0.0
  0
LINE
  5
55CE
330
1E
100
AcDbEntity
  8
躯体と製品
  6
Continuous
 62
     3
100
AcDbLine
 10
1007.371181523809
 20
1807.71822300426
 30
0.0
 11
1007.371181523809
 21
1820.21822100426
 31
0.0
  0
LINE
  5
55CF
330
1E
100
AcDbEntity
  8
躯体と製品
  6
Continuous
 62
     3
100
AcDbLine
 10
1008.971180523809
 20
1807.71822300426
 30
0.0
 11
1007.371181523809
 21
1807.71822300426
 31
0.0
  0
LINE
  5
55D0
330
1E
100
AcDbEntity
  8
躯体と製品
  6
Continuous
 62
     3
100
AcDbLine
 10
1008.971180523809
 20
1820.21822100426
 30
0.0
 11
1007.371181523809
 21
1820.21822100426
 31
0.0
  0
LINE
  5
55D1
330
1E
100
AcDbEntity
  8
躯体と製品
  6
Continuous
 62
     3
100
AcDbLine
 10
1008.971180523809
 20
1807.71822300426
 30
0.0
 11
1008.971180523809
 21
1820.21822100426
 31
0.0
  0
ARC
  5
55D2
330
1E
100
AcDbEntity
  8
躯体と製品
  6
Continuous
 62
     3
100
AcDbCircle
 10
1012.979180523809
 20
1818.41547300426
 30
0.0
 40
2.291999999999999
100
AcDbArc
 50
320.8438679999998
 51
0.0
  0
ARC
  5
55D3
330
1E
100
AcDbEntity
  8
躯体と製品
  6
Continuous
 62
     3
100
AcDbCircle
 10
1006.271180523809
 20
1813.96822200426
 30
0.0
 40
9.0
100
AcDbArc
 50
0.0
 51
19.47122100000025
  0
LINE
  5
55D4
330
1E
100
AcDbEntity
  8
躯体と製品
  6
Continuous
 62
     3
100
AcDbLine
 10
1014.729254523809
 20
1819.96822200426
 30
0.0
 11
1015.271180523809
 21
1819.02957600426
 31
0.0
  0
LINE
  5
55D5
330
1E
100
AcDbEntity
  8
躯体と製品
  6
Continuous
 62
     3
100
AcDbLine
 10
1014.729254523809
 20
1819.96822200426
 30
0.0
 11
1010.471180523809
 21
1819.96822200426
 31
0.0
  0
LINE
  5
55D6
330
1E
100
AcDbEntity
  8
躯体と製品
  6
Continuous
 62
     3
100
AcDbLine
 10
1014.756464523809
 20
1816.96822200426
 30
0.0
 11
1010.471180523809
 21
1816.96822200426
 31
0.0
  0
ARC
  5
55D7
330
1E
100
AcDbEntity
  8
躯体と製品
  6
Continuous
 62
     3
100
AcDbCircle
 10
1012.979180523809
 20
1809.52097100426
 30
0.0
 40
2.291999999999999
100
AcDbArc
 50
0.0
 51
39.15613200000026
  0
ARC
  5
55D8
330
1E
100
AcDbEntity
  8
躯体と製品
  6
Continuous
 62
     3
100
AcDbCircle
 10
1006.271180523809
 20
1813.96822200426
 30
0.0
 40
9.0
100
AcDbArc
 50
340.5287789999998
 51
0.0
  0
LINE
  5
55D9
330
1E
100
AcDbEntity
  8
躯体と製品
  6
Continuous
 62
     3
100
AcDbLine
 10
1014.729254523809
 20
1807.96822200426
 30
0.0
 11
1010.471180523809
 21
1807.96822200426
 31
0.0
  0
LINE
  5
55DA
330
1E
100
AcDbEntity
  8
躯体と製品
  6
Continuous
 62
     3
100
AcDbLine
 10
1014.756464523809
 20
1810.96822200426
 30
0.0
 11
1010.471180523809
 21
1810.96822200426
 31
0.0
  0
LINE
  5
55DB
330
1E
100
AcDbEntity
  8
躯体と製品
  6
Continuous
 62
     3
100
AcDbLine
 10
1010.471180523809
 20
1820.06822100426
 30
0.0
 11
1010.471180523809
 21
1807.86822300426
 31
0.0
  0
LINE
  5
55DC
330
1E
100
AcDbEntity
  8
躯体と製品
  6
Continuous
 62
     3
100
AcDbLine
 10
1015.271180523809
 20
1808.90686800426
 30
0.0
 11
1014.729254523809
 21
1807.96822200426
 31
0.0
  0
LINE
  5
55DD
330
1E
100
AcDbEntity
  8
躯体と製品
  6
Continuous
 62
     3
100
AcDbLine
 10
1015.271180523809
 20
1819.02957600426
 30
0.0
 11
1015.271180523809
 21
1808.90686800426
 31
0.0
  0
LINE
  5
55DE
330
1E
100
AcDbEntity
  8
躯体と製品
  6
Continuous
 62
     3
100
AcDbLine
 10
1010.471180523809
 20
1813.96822200426
 30
0.0
 11
1008.971180523809
 21
1815.46822200426
 31
0.0
  0
LINE
  5
55DF
330
1E
100
AcDbEntity
  8
躯体と製品
  6
Continuous
 62
     3
100
AcDbLine
 10
1008.971180523809
 20
1813.96822200426
 30
0.0
 11
1010.471180523809
 21
1812.46822200426
 31
0.0
  0
LINE
  5
55E0
330
1E
100
AcDbEntity
  8
躯体と製品
  6
Continuous
 62
     3
100
AcDbLine
 10
1008.971180523809
 20
1820.06822100426
 30
0.0
 11
1010.471180523809
 21
1820.06822100426
 31
0.0
  0
LINE
  5
55E1
330
1E
100
AcDbEntity
  8
躯体と製品
  6
Continuous
 62
     3
100
AcDbLine
 10
1010.471180523809
 20
1807.86822300426
 30
0.0
 11
1008.971180523809
 21
1807.86822300426
 31
0.0
  0
LINE
  5
55E6
330
1E
100
AcDbEntity
  8
躯体と製品
  6
Continuous
 62
     3
100
AcDbLine
 10
985.554116523809
 20
1939.02119100426
 30
0.0
 11
943.371182523809
 21
1859.34231300426
 31
0.0
  0
ARC
  5
55E7
330
1E
100
AcDbEntity
  8
躯体と製品
  6
Continuous
 62
     3
100
AcDbCircle
 10
959.3556925238088
 20
1884.23799300426
 30
0.0
 40
1.104831
100
AcDbArc
 50
91.74442199999989
 51
164.6287570000004
  0
LINE
  5
55E8
330
1E
100
AcDbEntity
  8
躯体と製品
  6
Continuous
 62
     3
100
AcDbLine
 10
943.371182523809
 20
1859.34231300426
 30
0.0
 11
943.371182523809
 21
1844.34231300426
 31
0.0
  0
LINE
  5
55E9
330
1E
100
AcDbEntity
  8
躯体と製品
  6
Continuous
 62
     3
100
AcDbLine
 10
944.8711825238088
 20
1859.18347500426
 30
0.0
 11
944.8711825238088
 21
1847.34231300426
 31
0.0
  0
LINE
  5
55EA
330
1E
100
AcDbEntity
  8
躯体と製品
  6
Continuous
 62
     3
100
AcDbLine
 10
945.3711805238089
 20
1844.34231300426
 30
0.0
 11
945.3711805238089
 21
1847.34231300426
 31
0.0
  0
LINE
  5
55EB
330
1E
100
AcDbEntity
  8
躯体と製品
  6
Continuous
 62
     3
100
AcDbLine
 10
943.371182523809
 20
1844.34231300426
 30
0.0
 11
945.3711805238089
 21
1844.34231300426
 31
0.0
  0
LINE
  5
55EC
330
1E
100
AcDbEntity
  8
躯体と製品
  6
Continuous
 62
     3
100
AcDbLine
 10
945.3711805238089
 20
1847.34231300426
 30
0.0
 11
944.8711825238088
 21
1847.34231300426
 31
0.0
  0
LINE
  5
55ED
330
1E
100
AcDbEntity
  8
躯体と製品
  6
Continuous
 62
     3
100
AcDbLine
 10
944.8711825238088
 20
1859.18347500426
 30
0.0
 11
958.290383523809
 21
1884.53085300426
 31
0.0
  0
ARC
  5
55EE
330
1E
100
AcDbEntity
  8
躯体と製品
  6
Continuous
 62
     3
100
AcDbCircle
 10
994.3919965238089
 20
1833.70027500426
 30
0.0
 40
9.999999
100
AcDbArc
 50
90.0
 51
152.1027329999993
  0
ARC
  5
55EF
330
1E
100
AcDbEntity
  8
躯体と製品
  6
Continuous
 62
     3
100
AcDbCircle
 10
994.3919965238089
 20
1833.70027500426
 30
0.0
 40
8.499999
100
AcDbArc
 50
90.0
 51
118.2316130000014
  0
ARC
  5
55F0
330
1E
100
AcDbEntity
  8
躯体と製品
  6
Continuous
 62
     3
100
AcDbCircle
 10
987.4510045238089
 20
1835.78736900426
 30
0.0
 40
1.524198
100
AcDbArc
 50
355.8378239999995
 51
139.7846169999998
  0
LINE
  5
55F1
330
1E
100
AcDbEntity
  8
躯体と製品
  6
Continuous
 62
     3
100
AcDbLine
 10
1001.871182523809
 20
1841.20027500426
 30
0.0
 11
1001.871182523809
 21
1830.46822200426
 31
0.0
  0
ARC
  5
55F2
330
1E
100
AcDbEntity
  8
躯体と製品
  6
Continuous
 62
     3
100
AcDbCircle
 10
1000.871180523809
 20
1823.46822300426
 30
0.0
 40
0.5000010000000001
100
AcDbArc
 50
180.0
 51
270.0
  0
LINE
  5
55F3
330
1E
100
AcDbEntity
  8
躯体と製品
  6
Continuous
 62
     3
100
AcDbLine
 10
1003.371182523809
 20
1828.96822200426
 30
0.0
 11
1000.371182523809
 21
1828.96822200426
 31
0.0
  0
LINE
  5
55F4
330
1E
100
AcDbEntity
  8
躯体と製品
  6
Continuous
 62
     3
100
AcDbLine
 10
1000.371182523809
 20
1830.46822200426
 30
0.0
 11
1001.871182523809
 21
1830.46822200426
 31
0.0
  0
LINE
  5
55F5
330
1E
100
AcDbEntity
  8
躯体と製品
  6
Continuous
 62
     3
100
AcDbLine
 10
1003.371182523809
 20
1843.70027400426
 30
0.0
 11
994.3919965238089
 21
1843.70027400426
 31
0.0
  0
LINE
  5
55F6
330
1E
100
AcDbEntity
  8
躯体と製品
  6
Continuous
 62
     3
100
AcDbLine
 10
998.3711815238089
 20
1842.20027400426
 30
0.0
 11
1000.371182523809
 21
1842.20027400426
 31
0.0
  0
ARC
  5
55F7
330
1E
100
AcDbEntity
  8
躯体と製品
  6
Continuous
 62
     3
100
AcDbCircle
 10
998.3711815238089
 20
1839.20027400426
 30
0.0
 40
3.0
100
AcDbArc
 50
90.0
 51
180.0
  0
LINE
  5
55F8
330
1E
100
AcDbEntity
  8
躯体と製品
  6
Continuous
 62
     3
100
AcDbLine
 10
994.3919965238089
 20
1842.20027400426
 30
0.0
 11
1000.871180523809
 21
1842.20027400426
 31
0.0
  0
ARC
  5
55F9
330
1E
100
AcDbEntity
  8
躯体と製品
  6
Continuous
 62
     3
100
AcDbCircle
 10
1000.871180523809
 20
1841.20027500426
 30
0.0
 40
0.999999
100
AcDbArc
 50
0.0
 51
90.0
  0
LINE
  5
55FA
330
1E
100
AcDbEntity
  8
躯体と製品
  6
Continuous
 62
     3
100
AcDbLine
 10
960.0624955238091
 20
1887.87817800426
 30
0.0
 11
986.287091523809
 21
1937.41352700426
 31
0.0
  0
LINE
  5
55FB
330
1E
100
AcDbEntity
  8
躯体と製品
  6
Continuous
 62
     3
100
AcDbLine
 10
959.3220595238088
 20
1885.34231100426
 30
0.0
 11
1003.371182523809
 21
1885.34231100426
 31
0.0
  0
LINE
  5
55FC
330
1E
100
AcDbEntity
  8
躯体と製品
  6
Continuous
 62
     3
100
AcDbLine
 10
988.9711825238091
 20
1886.84231100426
 30
0.0
 11
961.0618525238088
 21
1886.84231100426
 31
0.0
  0
ARC
  5
55FD
330
1E
100
AcDbEntity
  8
躯体と製品
  6
Continuous
 62
     3
100
AcDbCircle
 10
961.0618525238088
 20
1887.84231300426
 30
0.0
 40
0.999999
100
AcDbArc
 50
177.9446619999991
 51
270.0
  0
ARC
  5
55FE
330
1E
100
AcDbEntity
  8
躯体と製品
  6
Continuous
 62
     3
100
AcDbCircle
 10
961.0618525238088
 20
1887.84231300426
 30
0.0
 40
0.999999
100
AcDbArc
 50
177.9446619999991
 51
270.0
  0
LINE
  5
55FF
330
1E
100
AcDbEntity
  8
躯体と製品
  6
Continuous
 62
     3
100
AcDbLine
 10
1007.371181523809
 20
1908.36026100426
 30
0.0
 11
1007.371181523809
 21
1920.86026200426
 31
0.0
  0
LINE
  5
5600
330
1E
100
AcDbEntity
  8
躯体と製品
  6
Continuous
 62
     3
100
AcDbLine
 10
1008.971180523809
 20
1908.36026100426
 30
0.0
 11
1008.971180523809
 21
1920.86026200426
 31
0.0
  0
LINE
  5
5601
330
1E
100
AcDbEntity
  8
躯体と製品
  6
Continuous
 62
     3
100
AcDbLine
 10
1000.371182523809
 20
1942.84231200426
 30
0.0
 11
1000.371182523809
 21
1886.84231100426
 31
0.0
  0
LINE
  5
5602
330
1E
100
AcDbEntity
  8
躯体と製品
  6
Continuous
 62
     3
100
AcDbLine
 10
1002.871181523809
 20
1907.61026100426
 30
0.0
 11
1002.871181523809
 21
1921.61026200426
 31
0.0
  0
LINE
  5
5603
330
1E
100
AcDbEntity
  8
躯体と製品
  6
Continuous
 62
     3
100
AcDbLine
 10
995.371181523809
 20
1889.84231100426
 30
0.0
 11
995.371181523809
 21
1939.84231200426
 31
0.0
  0
ARC
  5
5604
330
1E
100
AcDbEntity
  8
躯体と製品
  6
Continuous
 62
     3
100
AcDbCircle
 10
1006.271180523809
 20
1914.610260004261
 30
0.0
 40
9.0
100
AcDbArc
 50
0.0
 51
19.47122100000025
  0
LINE
  5
5605
330
1E
100
AcDbEntity
  8
躯体と製品
  6
Continuous
 62
     3
100
AcDbLine
 10
1010.471180523809
 20
1920.71026200426
 30
0.0
 11
1010.471180523809
 21
1908.51026100426
 31
0.0
  0
LINE
  5
5606
330
1E
100
AcDbEntity
  8
躯体と製品
  6
Continuous
 62
     3
100
AcDbLine
 10
1015.271180523809
 20
1919.67161400426
 30
0.0
 11
1015.271180523809
 21
1909.54890600426
 31
0.0
  0
LINE
  5
5607
330
1E
100
AcDbEntity
  8
躯体と製品
  6
Continuous
 62
     3
100
AcDbLine
 10
988.9711825238091
 20
1886.84231100426
 30
0.0
 11
988.9711825238091
 21
1936.31878200426
 31
0.0
  0
LINE
  5
5608
330
1E
100
AcDbEntity
  8
躯体と製品
  6
Continuous
 62
     3
100
AcDbLine
 10
990.371180523809
 20
1941.83117400426
 30
0.0
 11
990.371180523809
 21
1915.14231300426
 31
0.0
  0
LINE
  5
5609
330
1E
100
AcDbEntity
  8
躯体と製品
  6
Continuous
 62
     3
100
AcDbLine
 10
990.371180523809
 20
1886.84231100426
 30
0.0
 11
1000.871180523809
 21
1886.84231100426
 31
0.0
  0
LINE
  5
560A
330
1E
100
AcDbEntity
  8
躯体と製品
  6
Continuous
 62
     3
100
AcDbLine
 10
990.371180523809
 20
1914.54231300426
 30
0.0
 11
990.371180523809
 21
1886.84231100426
 31
0.0
  0
LINE
  5
560B
330
1E
100
AcDbEntity
  8
躯体と製品
  6
Continuous
 62
     3
100
AcDbLine
 10
990.0711805238088
 20
1914.84231300426
 30
0.0
 11
990.371180523809
 21
1914.54231300426
 31
0.0
  0
LINE
  5
560C
330
1E
100
AcDbEntity
  8
躯体と製品
  6
Continuous
 62
     3
100
AcDbLine
 10
990.371180523809
 20
1915.14231300426
 30
0.0
 11
990.0711805238088
 21
1914.84231300426
 31
0.0
  0
LINE
  5
560D
330
1E
100
AcDbEntity
  8
躯体と製品
  6
Continuous
 62
     3
100
AcDbLine
 10
998.3711815238089
 20
1886.84231100426
 30
0.0
 11
1000.371182523809
 21
1886.84231100426
 31
0.0
  0
ARC
  5
560E
330
1E
100
AcDbEntity
  8
躯体と製品
  6
Continuous
 62
     3
100
AcDbCircle
 10
998.3711815238089
 20
1889.84231100426
 30
0.0
 40
3.0
100
AcDbArc
 50
180.0
 51
270.0
  0
ARC
  5
560F
330
1E
100
AcDbEntity
  8
躯体と製品
  6
Continuous
 62
     3
100
AcDbCircle
 10
1000.871180523809
 20
1887.84231300426
 30
0.0
 40
0.999999
100
AcDbArc
 50
270.0
 51
0.0
  0
LINE
  5
5610
330
1E
100
AcDbEntity
  8
躯体と製品
  6
Continuous
 62
     3
100
AcDbLine
 10
1001.871182523809
 20
1887.84231300426
 30
0.0
 11
1001.871182523809
 21
1898.11026000426
 31
0.0
  0
LINE
  5
5611
330
1E
100
AcDbEntity
  8
躯体と製品
  6
Continuous
 62
     3
100
AcDbLine
 10
1001.871182523809
 20
1898.11026000426
 30
0.0
 11
1000.371182523809
 21
1898.11026000426
 31
0.0
  0
LINE
  5
5612
330
1E
100
AcDbEntity
  8
躯体と製品
  6
Continuous
 62
     3
100
AcDbLine
 10
1003.371182523809
 20
1899.61026000426
 30
0.0
 11
1000.371182523809
 21
1899.61026000426
 31
0.0
  0
LINE
  5
5613
330
1E
100
AcDbEntity
  8
躯体と製品
  6
Continuous
 62
     3
100
AcDbLine
 10
1002.871181523809
 20
1912.11026100426
 30
0.0
 11
1007.371181523809
 21
1912.11026100426
 31
0.0
  0
LINE
  5
5614
330
1E
100
AcDbEntity
  8
躯体と製品
  6
Continuous
 62
     3
100
AcDbLine
 10
1002.871181523809
 20
1911.61026000426
 30
0.0
 11
1007.371181523809
 21
1911.61026000426
 31
0.0
  0
ARC
  5
5615
330
1E
100
AcDbEntity
  8
躯体と製品
  6
Continuous
 62
     3
100
AcDbCircle
 10
1000.871180523809
 20
1905.11026200426
 30
0.0
 40
0.5000010000000001
100
AcDbArc
 50
90.0
 51
180.0
  0
ARC
  5
5616
330
1E
100
AcDbEntity
  8
躯体と製品
  6
Continuous
 62
     3
100
AcDbCircle
 10
1000.871180523809
 20
1907.61026100426
 30
0.0
 40
2.000001
100
AcDbArc
 50
270.0
 51
0.0
  0
LINE
  5
5617
330
1E
100
AcDbEntity
  8
躯体と製品
  6
Continuous
 62
     3
100
AcDbLine
 10
1008.971180523809
 20
1908.36026100426
 30
0.0
 11
1007.371181523809
 21
1908.36026100426
 31
0.0
  0
ARC
  5
5618
330
1E
100
AcDbEntity
  8
躯体と製品
  6
Continuous
 62
     3
100
AcDbCircle
 10
1012.979180523809
 20
1910.16300900426
 30
0.0
 40
2.291999999999999
100
AcDbArc
 50
0.0
 51
39.15613200000026
  0
ARC
  5
5619
330
1E
100
AcDbEntity
  8
躯体と製品
  6
Continuous
 62
     3
100
AcDbCircle
 10
1006.271180523809
 20
1914.610260004261
 30
0.0
 40
9.0
100
AcDbArc
 50
340.5287789999998
 51
0.0
  0
LINE
  5
561A
330
1E
100
AcDbEntity
  8
躯体と製品
  6
Continuous
 62
     3
100
AcDbLine
 10
1014.729254523809
 20
1908.61026000426
 30
0.0
 11
1010.471180523809
 21
1908.61026000426
 31
0.0
  0
LINE
  5
561B
330
1E
100
AcDbEntity
  8
躯体と製品
  6
Continuous
 62
     3
100
AcDbLine
 10
1014.756464523809
 20
1911.61026000426
 30
0.0
 11
1010.471180523809
 21
1911.61026000426
 31
0.0
  0
LINE
  5
561C
330
1E
100
AcDbEntity
  8
躯体と製品
  6
Continuous
 62
     3
100
AcDbLine
 10
1015.271180523809
 20
1909.54890600426
 30
0.0
 11
1014.729254523809
 21
1908.61026000426
 31
0.0
  0
LINE
  5
561D
330
1E
100
AcDbEntity
  8
躯体と製品
  6
Continuous
 62
     3
100
AcDbLine
 10
1010.471180523809
 20
1914.610260004261
 30
0.0
 11
1008.971180523809
 21
1916.11026000426
 31
0.0
  0
LINE
  5
561E
330
1E
100
AcDbEntity
  8
躯体と製品
  6
Continuous
 62
     3
100
AcDbLine
 10
1008.971180523809
 20
1914.610260004261
 30
0.0
 11
1010.471180523809
 21
1913.11026000426
 31
0.0
  0
LINE
  5
561F
330
1E
100
AcDbEntity
  8
躯体と製品
  6
Continuous
 62
     3
100
AcDbLine
 10
1010.471180523809
 20
1908.51026100426
 30
0.0
 11
1008.971180523809
 21
1908.51026100426
 31
0.0
  0
ARC
  5
5620
330
1E
100
AcDbEntity
  8
躯体と製品
  6
Continuous
 62
     3
100
AcDbCircle
 10
994.3919965238089
 20
1934.34231300426
 30
0.0
 40
9.999999
100
AcDbArc
 50
90.0
 51
152.1027329999993
  0
ARC
  5
5621
330
1E
100
AcDbEntity
  8
躯体と製品
  6
Continuous
 62
     3
100
AcDbCircle
 10
994.3919965238089
 20
1934.34231300426
 30
0.0
 40
8.499999
100
AcDbArc
 50
90.0
 51
118.2316130000014
  0
ARC
  5
5622
330
1E
100
AcDbEntity
  8
躯体と製品
  6
Continuous
 62
     3
100
AcDbCircle
 10
987.4510045238089
 20
1936.42940700426
 30
0.0
 40
1.524198
100
AcDbArc
 50
355.8378239999995
 51
139.7846169999998
  0
LINE
  5
5623
330
1E
100
AcDbEntity
  8
躯体と製品
  6
Continuous
 62
     3
100
AcDbLine
 10
1001.871182523809
 20
1941.84231300426
 30
0.0
 11
1001.871182523809
 21
1931.11026000426
 31
0.0
  0
LINE
  5
5624
330
1E
100
AcDbEntity
  8
躯体と製品
  6
Continuous
 62
     3
100
AcDbLine
 10
1002.871181523809
 20
1917.11026200426
 30
0.0
 11
1007.371181523809
 21
1917.11026200426
 31
0.0
  0
LINE
  5
5625
330
1E
100
AcDbEntity
  8
躯体と製品
  6
Continuous
 62
     3
100
AcDbLine
 10
1002.871181523809
 20
1917.61026000426
 30
0.0
 11
1007.371181523809
 21
1917.61026000426
 31
0.0
  0
ARC
  5
5626
330
1E
100
AcDbEntity
  8
躯体と製品
  6
Continuous
 62
     3
100
AcDbCircle
 10
1000.871180523809
 20
1921.61026200426
 30
0.0
 40
2.000001
100
AcDbArc
 50
0.0
 51
90.0
  0
ARC
  5
5627
330
1E
100
AcDbEntity
  8
躯体と製品
  6
Continuous
 62
     3
100
AcDbCircle
 10
1000.871180523809
 20
1924.11026100426
 30
0.0
 40
0.5000010000000001
100
AcDbArc
 50
180.0
 51
270.0
  0
LINE
  5
5628
330
1E
100
AcDbEntity
  8
躯体と製品
  6
Continuous
 62
     3
100
AcDbLine
 10
1003.371182523809
 20
1929.61026000426
 30
0.0
 11
1000.371182523809
 21
1929.61026000426
 31
0.0
  0
LINE
  5
5629
330
1E
100
AcDbEntity
  8
躯体と製品
  6
Continuous
 62
     3
100
AcDbLine
 10
1000.371182523809
 20
1931.11026000426
 30
0.0
 11
1001.871182523809
 21
1931.11026000426
 31
0.0
  0
LINE
  5
562A
330
1E
100
AcDbEntity
  8
躯体と製品
  6
Continuous
 62
     3
100
AcDbLine
 10
1008.971180523809
 20
1920.86026200426
 30
0.0
 11
1007.371181523809
 21
1920.86026200426
 31
0.0
  0
ARC
  5
562B
330
1E
100
AcDbEntity
  8
躯体と製品
  6
Continuous
 62
     3
100
AcDbCircle
 10
1012.979180523809
 20
1919.05751100426
 30
0.0
 40
2.291999999999999
100
AcDbArc
 50
320.8438679999998
 51
0.0
  0
LINE
  5
562C
330
1E
100
AcDbEntity
  8
躯体と製品
  6
Continuous
 62
     3
100
AcDbLine
 10
1014.729254523809
 20
1920.61026000426
 30
0.0
 11
1015.271180523809
 21
1919.67161400426
 31
0.0
  0
LINE
  5
562D
330
1E
100
AcDbEntity
  8
躯体と製品
  6
Continuous
 62
     3
100
AcDbLine
 10
1014.729254523809
 20
1920.61026000426
 30
0.0
 11
1010.471180523809
 21
1920.61026000426
 31
0.0
  0
LINE
  5
562E
330
1E
100
AcDbEntity
  8
躯体と製品
  6
Continuous
 62
     3
100
AcDbLine
 10
1014.756464523809
 20
1917.61026000426
 30
0.0
 11
1010.471180523809
 21
1917.61026000426
 31
0.0
  0
LINE
  5
562F
330
1E
100
AcDbEntity
  8
躯体と製品
  6
Continuous
 62
     3
100
AcDbLine
 10
1008.971180523809
 20
1920.71026200426
 30
0.0
 11
1010.471180523809
 21
1920.71026200426
 31
0.0
  0
LINE
  5
5630
330
1E
100
AcDbEntity
  8
躯体と製品
  6
Continuous
 62
     3
100
AcDbLine
 10
998.3711815238089
 20
1942.84231200426
 30
0.0
 11
1000.371182523809
 21
1942.84231200426
 31
0.0
  0
ARC
  5
5631
330
1E
100
AcDbEntity
  8
躯体と製品
  6
Continuous
 62
     3
100
AcDbCircle
 10
998.3711815238089
 20
1939.84231200426
 30
0.0
 40
3.0
100
AcDbArc
 50
90.0
 51
180.0
  0
LINE
  5
5632
330
1E
100
AcDbEntity
  8
躯体と製品
  6
Continuous
 62
     3
100
AcDbLine
 10
1003.371182523809
 20
1944.34231200426
 30
0.0
 11
994.3919965238089
 21
1944.34231200426
 31
0.0
  0
LINE
  5
5633
330
1E
100
AcDbEntity
  8
躯体と製品
  6
Continuous
 62
     3
100
AcDbLine
 10
994.3919965238089
 20
1942.84231200426
 30
0.0
 11
1000.871180523809
 21
1942.84231200426
 31
0.0
  0
ARC
  5
5634
330
1E
100
AcDbEntity
  8
躯体と製品
  6
Continuous
 62
     3
100
AcDbCircle
 10
1000.871180523809
 20
1941.84231300426
 30
0.0
 40
0.999999
100
AcDbArc
 50
0.0
 51
90.0
  0
LINE
  5
5639
330
1E
100
AcDbEntity
  8
躯体と製品
  6
Continuous
 62
     4
100
AcDbLine
 10
1179.371180523808
 20
1821.49396200426
 30
0.0
 11
1179.371180523808
 21
1857.99396000426
 31
0.0
  0
LINE
  5
563A
330
1E
100
AcDbEntity
  8
躯体と製品
  6
Continuous
 62
     4
100
AcDbLine
 10
1065.871181523809
 20
1810.99396200426
 30
0.0
 11
1183.371182523809
 21
1810.99396200426
 31
0.0
  0
LINE
  5
563B
330
1E
100
AcDbEntity
  8
躯体と製品
  6
Continuous
 62
     4
100
AcDbLine
 10
1067.371181523809
 20
1807.79396100426
 30
0.0
 11
1159.371182523809
 21
1807.79396100426
 31
0.0
  0
LINE
  5
563C
330
1E
100
AcDbEntity
  8
躯体と製品
  6
Continuous
 62
     4
100
AcDbLine
 10
1063.371182523809
 20
1810.70658600426
 30
0.0
 11
1053.371180523809
 21
1810.70658600426
 31
0.0
  0
LINE
  5
563D
330
1E
100
AcDbEntity
  8
躯体と製品
  6
Continuous
 62
     4
100
AcDbLine
 10
1053.371180523809
 20
1760.70658500426
 30
0.0
 11
1063.371182523809
 21
1760.70658500426
 31
0.0
  0
LINE
  5
563E
330
1E
100
AcDbEntity
  8
躯体と製品
  6
Continuous
 62
     3
100
AcDbLine
 10
1057.771181523809
 20
1794.20658600426
 30
0.0
 11
1057.771181523809
 21
1777.20658500426
 31
0.0
  0
LINE
  5
563F
330
1E
100
AcDbEntity
  8
躯体と製品
  6
Continuous
 62
     3
100
AcDbLine
 10
1055.771180523809
 20
1793.54658600426
 30
0.0
 11
1055.771180523809
 21
1777.86658500426
 31
0.0
  0
ARC
  5
5640
330
1E
100
AcDbEntity
  8
躯体と製品
  6
Continuous
 62
     3
100
AcDbCircle
 10
1052.204348523809
 20
1791.70306500426
 30
0.0
 40
2.994614999999999
100
AcDbArc
 50
191.6267950000001
 51
221.8120719999996
  0
LINE
  5
5641
330
1E
100
AcDbEntity
  8
躯体と製品
  6
Continuous
 62
     3
100
AcDbLine
 10
1049.271182523809
 20
1779.10658700426
 30
0.0
 11
1049.271182523809
 21
1792.30658700426
 31
0.0
  0
CIRCLE
  5
5642
330
1E
100
AcDbEntity
  8
躯体と製品
  6
Continuous
 62
     3
100
AcDbCircle
 10
1032.371180523809
 20
1785.70658700426
 30
0.0
 40
6.500000999999999
  0
LINE
  5
5643
330
1E
100
AcDbEntity
  8
躯体と製品
  6
Continuous
 62
     3
100
AcDbLine
 10
1028.618405523809
 20
1792.20658500426
 30
0.0
 11
1024.865627523809
 21
1785.70658700426
 31
0.0
  0
LINE
  5
5644
330
1E
100
AcDbEntity
  8
躯体と製品
  6
Continuous
 62
     3
100
AcDbLine
 10
1039.876736523809
 20
1785.70658700426
 30
0.0
 11
1036.123958523809
 21
1792.20658500426
 31
0.0
  0
CIRCLE
  5
5645
330
1E
100
AcDbEntity
  8
躯体と製品
  6
Continuous
 62
     3
100
AcDbCircle
 10
1032.371180523809
 20
1785.70658700426
 30
0.0
 40
8.499999
  0
LINE
  5
5646
330
1E
100
AcDbEntity
  8
躯体と製品
  6
PLINE2
 62
     3
100
AcDbLine
 10
1059.371180523809
 20
1760.70658500426
 30
0.0
 11
1059.371180523809
 21
1810.70658600426
 31
0.0
  0
LINE
  5
5647
330
1E
100
AcDbEntity
  8
躯体と製品
  6
Continuous
 62
     3
100
AcDbLine
 10
1036.123958523809
 20
1779.20658600426
 30
0.0
 11
1039.876736523809
 21
1785.70658700426
 31
0.0
  0
ARC
  5
5648
330
1E
100
AcDbEntity
  8
躯体と製品
  6
Continuous
 62
     4
100
AcDbCircle
 10
1032.371180523809
 20
1776.20658600426
 30
0.0
 40
5.499999
100
AcDbArc
 50
180.0
 51
0.0
  0
LINE
  5
5649
330
1E
100
AcDbEntity
  8
躯体と製品
  6
Continuous
 62
     3
100
AcDbLine
 10
1024.865627523809
 20
1785.70658700426
 30
0.0
 11
1028.618405523809
 21
1779.20658600426
 31
0.0
  0
LINE
  5
564A
330
1E
100
AcDbEntity
  8
躯体と製品
  6
Continuous
 62
     4
100
AcDbLine
 10
1026.871181523809
 20
1779.22584600426
 30
0.0
 11
1026.871181523809
 21
1776.20658600426
 31
0.0
  0
LINE
  5
564B
330
1E
100
AcDbEntity
  8
躯体と製品
  6
Continuous
 62
     3
100
AcDbLine
 10
1028.618405523809
 20
1779.20658600426
 30
0.0
 11
1036.123958523809
 21
1779.20658600426
 31
0.0
  0
LINE
  5
564C
330
1E
100
AcDbEntity
  8
躯体と製品
  6
Continuous
 62
     4
100
AcDbLine
 10
1037.871182523809
 20
1779.22584600426
 30
0.0
 11
1037.871182523809
 21
1776.20658600426
 31
0.0
  0
ARC
  5
564D
330
1E
100
AcDbEntity
  8
躯体と製品
  6
Continuous
 62
     3
100
AcDbCircle
 10
1061.031182523809
 20
1785.70658700426
 30
0.0
 40
11.76
100
AcDbArc
 50
160.1148369999995
 51
199.8851630000005
  0
ARC
  5
564E
330
1E
100
AcDbEntity
  8
躯体と製品
  6
Continuous
 62
     3
100
AcDbCircle
 10
1052.204348523809
 20
1779.71010900426
 30
0.0
 40
2.994614999999999
100
AcDbArc
 50
138.1879280000004
 51
168.3732049999998
  0
LINE
  5
564F
330
1E
100
AcDbEntity
  8
躯体と製品
  6
Continuous
 62
     3
100
AcDbLine
 10
1049.987096523809
 20
1777.86658500426
 30
0.0
 11
1049.271182523809
 21
1779.10658700426
 31
0.0
  0
LINE
  5
5650
330
1E
100
AcDbEntity
  8
躯体と製品
  6
Continuous
 62
     3
100
AcDbLine
 10
1043.171180523809
 20
1789.05698700426
 30
0.0
 11
1043.820782523809
 21
1789.70658600426
 31
0.0
  0
LINE
  5
5651
330
1E
100
AcDbEntity
  8
躯体と製品
  6
Continuous
 62
     3
100
AcDbLine
 10
1043.820782523809
 20
1789.70658600426
 30
0.0
 11
1049.271182523809
 21
1789.70658600426
 31
0.0
  0
LINE
  5
5652
330
1E
100
AcDbEntity
  8
躯体と製品
  6
Continuous
 62
     3
100
AcDbLine
 10
1043.171180523809
 20
1782.35618700426
 30
0.0
 11
1043.820782523809
 21
1781.706585004261
 31
0.0
  0
LINE
  5
5653
330
1E
100
AcDbEntity
  8
躯体と製品
  6
Continuous
 62
     3
100
AcDbLine
 10
1043.820782523809
 20
1781.706585004261
 30
0.0
 11
1049.271182523809
 21
1781.706585004261
 31
0.0
  0
LINE
  5
5654
330
1E
100
AcDbEntity
  8
躯体と製品
  6
Continuous
 62
     3
100
AcDbLine
 10
1043.171180523809
 20
1782.35618700426
 30
0.0
 11
1043.171180523809
 21
1789.05698700426
 31
0.0
  0
LINE
  5
5655
330
1E
100
AcDbEntity
  8
躯体と製品
  6
Continuous
 62
     3
100
AcDbLine
 10
1059.371180523809
 20
1777.20658500426
 30
0.0
 11
1057.771181523809
 21
1777.20658500426
 31
0.0
  0
LINE
  5
5656
330
1E
100
AcDbEntity
  8
躯体と製品
  6
Continuous
 62
     3
100
AcDbLine
 10
1055.771180523809
 20
1785.70658700426
 30
0.0
 11
1057.771181523809
 21
1786.86128700426
 31
0.0
  0
LINE
  5
5657
330
1E
100
AcDbEntity
  8
躯体と製品
  6
Continuous
 62
     3
100
AcDbLine
 10
1055.771180523809
 20
1784.55188700426
 30
0.0
 11
1057.771181523809
 21
1785.70658700426
 31
0.0
  0
LINE
  5
5658
330
1E
100
AcDbEntity
  8
躯体と製品
  6
Continuous
 62
     3
100
AcDbLine
 10
1055.771180523809
 20
1778.00658600426
 30
0.0
 11
1057.771181523809
 21
1778.00658600426
 31
0.0
  0
LINE
  5
5659
330
1E
100
AcDbEntity
  8
躯体と製品
  6
Continuous
 62
     3
100
AcDbLine
 10
1055.771180523809
 20
1789.70658600426
 30
0.0
 11
1049.972357523809
 21
1789.70658600426
 31
0.0
  0
LINE
  5
565A
330
1E
100
AcDbEntity
  8
躯体と製品
  6
Continuous
 62
     3
100
AcDbLine
 10
1049.972357523809
 20
1781.706585004261
 30
0.0
 11
1055.771180523809
 21
1781.706585004261
 31
0.0
  0
LINE
  5
565B
330
1E
100
AcDbEntity
  8
躯体と製品
  6
Continuous
 62
     3
100
AcDbLine
 10
1055.771180523809
 20
1777.86658500426
 30
0.0
 11
1049.987096523809
 21
1777.86658500426
 31
0.0
  0
ARC
  5
565C
330
1E
100
AcDbEntity
  8
躯体と製品
  6
Continuous
 62
     4
100
AcDbCircle
 10
1032.371180523809
 20
1795.20658500426
 30
0.0
 40
5.499999
100
AcDbArc
 50
0.0
 51
180.0
  0
LINE
  5
565D
330
1E
100
AcDbEntity
  8
躯体と製品
  6
Continuous
 62
     4
100
AcDbLine
 10
1026.871181523809
 20
1795.20658500426
 30
0.0
 11
1026.871181523809
 21
1792.18732800426
 31
0.0
  0
LINE
  5
565E
330
1E
100
AcDbEntity
  8
躯体と製品
  6
Continuous
 62
     3
100
AcDbLine
 10
1036.123958523809
 20
1792.20658500426
 30
0.0
 11
1028.618405523809
 21
1792.20658500426
 31
0.0
  0
LINE
  5
565F
330
1E
100
AcDbEntity
  8
躯体と製品
  6
Continuous
 62
     4
100
AcDbLine
 10
1037.871182523809
 20
1795.20658500426
 30
0.0
 11
1037.871182523809
 21
1792.18732800426
 31
0.0
  0
LINE
  5
5660
330
1E
100
AcDbEntity
  8
躯体と製品
  6
Continuous
 62
     3
100
AcDbLine
 10
1024.653929523809
 20
1810.96822200426
 30
0.0
 11
1024.653929523809
 21
1816.96822200426
 31
0.0
  0
LINE
  5
5661
330
1E
100
AcDbEntity
  8
躯体と製品
  6
Continuous
 62
     3
100
AcDbLine
 10
1025.153930523809
 20
1816.46822100426
 30
0.0
 11
1024.653929523809
 21
1816.96822200426
 31
0.0
  0
LINE
  5
5662
330
1E
100
AcDbEntity
  8
躯体と製品
  6
Continuous
 62
     3
100
AcDbLine
 10
1025.153930523809
 20
1811.46822300426
 30
0.0
 11
1025.153930523809
 21
1816.46822100426
 31
0.0
  0
LINE
  5
5663
330
1E
100
AcDbEntity
  8
躯体と製品
  6
Continuous
 62
     3
100
AcDbLine
 10
1024.653929523809
 20
1810.96822200426
 30
0.0
 11
1025.153930523809
 21
1811.46822300426
 31
0.0
  0
LINE
  5
5664
330
1E
100
AcDbEntity
  8
躯体と製品
  6
Continuous
 62
     3
100
AcDbLine
 10
1049.271182523809
 20
1792.30658700426
 30
0.0
 11
1049.972357523809
 21
1793.54658600426
 31
0.0
  0
LINE
  5
5665
330
1E
100
AcDbEntity
  8
躯体と製品
  6
Continuous
 62
     3
100
AcDbLine
 10
1057.771181523809
 20
1794.20658600426
 30
0.0
 11
1059.371180523809
 21
1794.20658600426
 31
0.0
  0
LINE
  5
5666
330
1E
100
AcDbEntity
  8
躯体と製品
  6
Continuous
 62
     3
100
AcDbLine
 10
1055.771180523809
 20
1793.40658500426
 30
0.0
 11
1057.771181523809
 21
1793.40658500426
 31
0.0
  0
LINE
  5
5667
330
1E
100
AcDbEntity
  8
躯体と製品
  6
Continuous
 62
     3
100
AcDbLine
 10
1049.972357523809
 20
1793.54658600426
 30
0.0
 11
1055.771180523809
 21
1793.54658600426
 31
0.0
  0
LINE
  5
5668
330
1E
100
AcDbEntity
  8
躯体と製品
  6
Continuous
 62
     3
100
AcDbLine
 10
1068.171182523809
 20
1794.20658600426
 30
0.0
 11
1068.171182523809
 21
1777.20658500426
 31
0.0
  0
ARC
  5
5669
330
1E
100
AcDbEntity
  8
躯体と製品
  6
Continuous
 62
     3
100
AcDbCircle
 10
1070.738015523809
 20
1791.70306500426
 30
0.0
 40
2.994614999999999
100
AcDbArc
 50
318.1879280000003
 51
348.3732049999998
  0
LINE
  5
566A
330
1E
100
AcDbEntity
  8
躯体と製品
  6
Continuous
 62
     3
100
AcDbLine
 10
1073.671181523809
 20
1779.10658700426
 30
0.0
 11
1073.671181523809
 21
1792.30658700426
 31
0.0
  0
LINE
  5
566B
330
1E
100
AcDbEntity
  8
躯体と製品
  6
Continuous
 62
     4
100
AcDbLine
 10
1066.571180523808
 20
1764.99396000426
 30
0.0
 11
1066.571180523808
 21
1806.99396000426
 31
0.0
  0
LINE
  5
566C
330
1E
100
AcDbEntity
  8
躯体と製品
  6
Continuous
 62
     4
100
AcDbLine
 10
1063.371182523809
 20
1760.70658500426
 30
0.0
 11
1063.371182523809
 21
1810.70658600426
 31
0.0
  0
LINE
  5
566D
330
1E
100
AcDbEntity
  8
躯体と製品
  6
Continuous
 62
     4
100
AcDbLine
 10
1065.871181523809
 20
1760.99396100426
 30
0.0
 11
1083.371180523809
 21
1760.99396100426
 31
0.0
  0
LINE
  5
566E
330
1E
100
AcDbEntity
  8
躯体と製品
  6
Continuous
 62
     4
100
AcDbLine
 10
1067.371181523809
 20
1764.19396200426
 30
0.0
 11
1083.371180523809
 21
1764.19396200426
 31
0.0
  0
ARC
  5
566F
330
1E
100
AcDbEntity
  8
躯体と製品
  6
Continuous
 62
     4
100
AcDbCircle
 10
1065.871181523809
 20
1763.49396000426
 30
0.0
 40
2.499998999999999
100
AcDbArc
 50
180.0
 51
270.0
  0
ARC
  5
5670
330
1E
100
AcDbEntity
  8
躯体と製品
  6
Continuous
 62
     4
100
AcDbCircle
 10
1067.371181523809
 20
1764.99396000426
 30
0.0
 40
0.8000009999999999
100
AcDbArc
 50
180.0
 51
270.0
  0
LINE
  5
5671
330
1E
100
AcDbEntity
  8
躯体と製品
  6
Continuous
 62
     4
100
AcDbLine
 10
1083.371180523809
 20
1764.19396200426
 30
0.0
 11
1083.371180523809
 21
1760.99396100426
 31
0.0
  0
LINE
  5
5672
330
1E
100
AcDbEntity
  8
躯体と製品
  6
Continuous
 62
     3
100
AcDbLine
 10
1072.970006523809
 20
1789.70658600426
 30
0.0
 11
1068.171182523809
 21
1789.70658600426
 31
0.0
  0
LINE
  5
5673
330
1E
100
AcDbEntity
  8
躯体と製品
  6
Continuous
 62
     3
100
AcDbLine
 10
1072.970006523809
 20
1781.706585004261
 30
0.0
 11
1068.171182523809
 21
1781.706585004261
 31
0.0
  0
LINE
  5
5674
330
1E
100
AcDbEntity
  8
躯体と製品
  6
Continuous
 62
     3
100
AcDbLine
 10
1072.955267523809
 20
1777.86658500426
 30
0.0
 11
1068.171182523809
 21
1777.86658500426
 31
0.0
  0
LINE
  5
5675
330
1E
100
AcDbEntity
  8
躯体と製品
  6
Continuous
 62
     3
100
AcDbLine
 10
1068.171182523809
 20
1777.20658500426
 30
0.0
 11
1066.571180523808
 21
1777.20658500426
 31
0.0
  0
ARC
  5
5676
330
1E
100
AcDbEntity
  8
躯体と製品
  6
Continuous
 62
     3
100
AcDbCircle
 10
1061.911181523809
 20
1785.70658700426
 30
0.0
 40
11.76
100
AcDbArc
 50
340.1148369999995
 51
19.8851630000005
  0
ARC
  5
5677
330
1E
100
AcDbEntity
  8
躯体と製品
  6
Continuous
 62
     3
100
AcDbCircle
 10
1070.738015523809
 20
1779.71010900426
 30
0.0
 40
2.994614999999999
100
AcDbArc
 50
11.6267950000002
 51
41.81207199999962
  0
LINE
  5
5678
330
1E
100
AcDbEntity
  8
躯体と製品
  6
Continuous
 62
     3
100
AcDbLine
 10
1072.955267523809
 20
1777.86658500426
 30
0.0
 11
1073.671181523809
 21
1779.10658700426
 31
0.0
  0
LINE
  5
5679
330
1E
100
AcDbEntity
  8
躯体と製品
  6
Continuous
 62
     3
100
AcDbLine
 10
1072.970006523809
 20
1793.54658600426
 30
0.0
 11
1068.171182523809
 21
1793.54658600426
 31
0.0
  0
LINE
  5
567A
330
1E
100
AcDbEntity
  8
躯体と製品
  6
Continuous
 62
     3
100
AcDbLine
 10
1066.571180523808
 20
1794.20658600426
 30
0.0
 11
1068.171182523809
 21
1794.20658600426
 31
0.0
  0
LINE
  5
567B
330
1E
100
AcDbEntity
  8
躯体と製品
  6
Continuous
 62
     3
100
AcDbLine
 10
1073.671181523809
 20
1792.30658700426
 30
0.0
 11
1072.970006523809
 21
1793.54658600426
 31
0.0
  0
ARC
  5
567C
330
1E
100
AcDbEntity
  8
躯体と製品
  6
Continuous
 62
     4
100
AcDbCircle
 10
1065.871181523809
 20
1808.49396000426
 30
0.0
 40
2.499998999999999
100
AcDbArc
 50
90.0
 51
180.0
  0
ARC
  5
567D
330
1E
100
AcDbEntity
  8
躯体と製品
  6
Continuous
 62
     4
100
AcDbCircle
 10
1067.371181523809
 20
1806.99396000426
 30
0.0
 40
0.8000009999999999
100
AcDbArc
 50
90.0
 51
180.0
  0
LINE
  5
567E
330
1E
100
AcDbEntity
  8
躯体と製品
  6
Continuous
 62
     4
100
AcDbLine
 10
1159.371182523809
 20
1764.19396200426
 30
0.0
 11
1143.371180523809
 21
1764.19396200426
 31
0.0
  0
LINE
  5
567F
330
1E
100
AcDbEntity
  8
躯体と製品
  6
Continuous
 62
     4
100
AcDbLine
 10
1160.871182523808
 20
1760.99396100426
 30
0.0
 11
1143.371180523809
 21
1760.99396100426
 31
0.0
  0
LINE
  5
5680
330
1E
100
AcDbEntity
  8
躯体と製品
  6
Continuous
 62
     4
100
AcDbLine
 10
1172.871182523809
 20
1814.99396100426
 30
0.0
 11
1136.371181523809
 21
1814.99396100426
 31
0.0
  0
LINE
  5
5681
330
1E
100
AcDbEntity
  8
躯体と製品
  6
Continuous
 62
     4
100
AcDbLine
 10
1143.371180523809
 20
1764.19396200426
 30
0.0
 11
1143.371180523809
 21
1760.99396100426
 31
0.0
  0
ARC
  5
5682
330
1E
100
AcDbEntity
  8
躯体と製品
  6
Continuous
 62
     3
100
AcDbCircle
 10
1133.341097523809
 20
1809.36271200426
 30
0.0
 40
4.25679
100
AcDbArc
 50
85.98042700000057
 51
154.9506630000011
  0
ARC
  5
5683
330
1E
100
AcDbEntity
  8
躯体と製品
  6
Continuous
 62
     4
100
AcDbCircle
 10
1136.371181523809
 20
1811.99396100426
 30
0.0
 40
3.0
100
AcDbArc
 50
90.0
 51
180.0
  0
LINE
  5
5684
330
1E
100
AcDbEntity
  8
躯体と製品
  6
Continuous
 62
     4
100
AcDbLine
 10
1133.371181523809
 20
1811.99396100426
 30
0.0
 11
1133.371181523809
 21
1810.99396200426
 31
0.0
  0
LINE
  5
5685
330
1E
100
AcDbEntity
  8
躯体と製品
  6
Continuous
 62
     4
100
AcDbLine
 10
1160.171180523809
 20
1764.99396000426
 30
0.0
 11
1160.171180523809
 21
1806.99396000426
 31
0.0
  0
LINE
  5
5686
330
1E
100
AcDbEntity
  8
躯体と製品
  6
Continuous
 62
     4
100
AcDbLine
 10
1163.371181523809
 20
1807.99396200426
 30
0.0
 11
1163.371181523809
 21
1763.49396000426
 31
0.0
  0
ARC
  5
5687
330
1E
100
AcDbEntity
  8
躯体と製品
  6
Continuous
 62
     4
100
AcDbCircle
 10
1159.371182523809
 20
1764.99396000426
 30
0.0
 40
0.8000009999999999
100
AcDbArc
 50
270.0
 51
0.0
  0
ARC
  5
5688
330
1E
100
AcDbEntity
  8
躯体と製品
  6
Continuous
 62
     4
100
AcDbCircle
 10
1160.871182523808
 20
1763.49396000426
 30
0.0
 40
2.499998999999999
100
AcDbArc
 50
270.0
 51
0.0
  0
ARC
  5
5689
330
1E
100
AcDbEntity
  8
躯体と製品
  6
Continuous
 62
     4
100
AcDbCircle
 10
1172.871182523809
 20
1821.49396200426
 30
0.0
 40
6.500000999999999
100
AcDbArc
 50
270.0
 51
0.0
  0
ARC
  5
568A
330
1E
100
AcDbEntity
  8
躯体と製品
  6
Continuous
 62
     4
100
AcDbCircle
 10
1159.371182523809
 20
1806.99396000426
 30
0.0
 40
0.8000009999999999
100
AcDbArc
 50
0.0
 51
90.0
  0
ARC
  5
568B
330
1E
100
AcDbEntity
  8
躯体と製品
  6
Continuous
 62
     4
100
AcDbCircle
 10
1160.371181523809
 20
1807.99396200426
 30
0.0
 40
3.0
100
AcDbArc
 50
0.0
 51
90.0
  0
ARC
  5
568C
330
1E
100
AcDbEntity
  8
躯体と製品
  6
Continuous
 62
     3
100
AcDbCircle
 10
1184.286644523809
 20
1810.96317900426
 30
0.0
 40
3.907208999999999
100
AcDbArc
 50
178.0862399999997
 51
250.9308060000013
  0
LINE
  5
568D
330
1E
100
AcDbEntity
  8
躯体と製品
  6
Continuous
 62
     3
100
AcDbLine
 10
1024.653929523809
 20
1911.61026000426
 30
0.0
 11
1024.653929523809
 21
1917.61026000426
 31
0.0
  0
LINE
  5
568E
330
1E
100
AcDbEntity
  8
躯体と製品
  6
Continuous
 62
     3
100
AcDbLine
 10
1025.153930523809
 20
1912.11026100426
 30
0.0
 11
1025.153930523809
 21
1917.11026200426
 31
0.0
  0
LINE
  5
568F
330
1E
100
AcDbEntity
  8
躯体と製品
  6
Continuous
 62
     3
100
AcDbLine
 10
1024.653929523809
 20
1911.61026000426
 30
0.0
 11
1025.153930523809
 21
1912.11026100426
 31
0.0
  0
LINE
  5
5690
330
1E
100
AcDbEntity
  8
躯体と製品
  6
Continuous
 62
     3
100
AcDbLine
 10
1025.153930523809
 20
1917.11026200426
 30
0.0
 11
1024.653929523809
 21
1917.61026000426
 31
0.0
  0
ARC
  5
5691
330
1E
100
AcDbEntity
  8
躯体と製品
  6
Continuous
 62
     3
100
AcDbCircle
 10
1183.239587523809
 20
1861.35601200426
 30
0.0
 40
2.851659
100
AcDbArc
 50
86.20569899999855
 51
200.0545059999998
  0
LINE
  5
5692
330
1E
100
AcDbEntity
  8
躯体と製品
  6
Continuous
 62
     3
100
AcDbLine
 10
1182.371180523809
 20
1860.993960004259
 30
0.0
 11
1183.371182523809
 21
1860.993960004259
 31
0.0
  0
ARC
  5
5693
330
1E
100
AcDbEntity
  8
躯体と製品
  6
Continuous
 62
     4
100
AcDbCircle
 10
1182.371180523809
 20
1857.99396000426
 30
0.0
 40
3.0
100
AcDbArc
 50
90.0
 51
180.0
  0
LINE
  5
569E
330
1E
100
AcDbEntity
  8
躯体と製品
  6
Continuous
 62
     4
100
AcDbLine
 10
1003.371182523809
 20
2160.70658700426
 30
0.0
 11
1053.371180523809
 21
2160.70658700426
 31
0.0
  0
LINE
  5
56A0
330
1E
100
AcDbEntity
  8
躯体と製品
  6
Continuous
 62
     3
100
AcDbLine
 10
1015.271180523809
 20
2128.47453600426
 30
0.0
 11
1025.153930523809
 21
2128.47453600426
 31
0.0
  0
LINE
  5
56A1
330
1E
100
AcDbEntity
  8
躯体と製品
  6
Continuous
 62
     3
100
AcDbLine
 10
1015.271180523809
 20
2133.47453400426
 30
0.0
 11
1025.153930523809
 21
2133.47453400426
 31
0.0
  0
LINE
  5
56A2
330
1E
100
AcDbEntity
  8
躯体と製品
  6
Continuous
 62
     3
100
AcDbLine
 10
1024.653929523809
 20
2133.974535004261
 30
0.0
 11
1015.271180523809
 21
2133.974535004261
 31
0.0
  0
LINE
  5
56A3
330
1E
100
AcDbEntity
  8
躯体と製品
  6
Continuous
 62
     3
100
AcDbLine
 10
1015.271180523809
 20
2127.97453500426
 30
0.0
 11
1024.653929523809
 21
2127.97453500426
 31
0.0
  0
LINE
  5
56A4
330
1E
100
AcDbEntity
  8
躯体と製品
  6
PLINE2
 62
     3
100
AcDbLine
 10
1013.371181523809
 20
2060.74720500426
 30
0.0
 11
1053.371180523809
 21
2060.74720500426
 31
0.0
  0
LINE
  5
56A5
330
1E
100
AcDbEntity
  8
躯体と製品
  6
PLINE2
 62
     3
100
AcDbLine
 10
1013.371181523809
 20
2010.74720400426
 30
0.0
 11
1053.371180523809
 21
2010.74720400426
 31
0.0
  0
LINE
  5
56A6
330
1E
100
AcDbEntity
  8
躯体と製品
  6
Continuous
 62
     3
100
AcDbLine
 10
1024.653929523809
 20
2033.33249700426
 30
0.0
 11
1015.053929523809
 21
2033.33249700426
 31
0.0
  0
LINE
  5
56A7
330
1E
100
AcDbEntity
  8
躯体と製品
  6
Continuous
 62
     3
100
AcDbLine
 10
1015.053929523809
 20
2032.83249600426
 30
0.0
 11
1025.153930523809
 21
2032.83249600426
 31
0.0
  0
LINE
  5
56A8
330
1E
100
AcDbEntity
  8
躯体と製品
  6
Continuous
 62
     3
100
AcDbLine
 10
1015.053929523809
 20
2027.832495004261
 30
0.0
 11
1025.153930523809
 21
2027.832495004261
 31
0.0
  0
LINE
  5
56A9
330
1E
100
AcDbEntity
  8
躯体と製品
  6
Continuous
 62
     3
100
AcDbLine
 10
1015.053929523809
 20
2027.332497004261
 30
0.0
 11
1024.653929523809
 21
2027.332497004261
 31
0.0
  0
LINE
  5
56AA
330
1E
100
AcDbEntity
  8
躯体と製品
  6
Continuous
 62
     3
100
AcDbLine
 10
944.8711825238088
 20
2075.54775000426
 30
0.0
 11
944.8711825238088
 21
2063.70658500426
 31
0.0
  0
LINE
  5
56AD
330
1E
100
AcDbEntity
  8
躯体と製品
  6
Continuous
 62
     3
100
AcDbLine
 10
943.371182523809
 20
2075.70658500426
 30
0.0
 11
943.371182523809
 21
2060.70658500426
 31
0.0
  0
LINE
  5
56B0
330
1E
100
AcDbEntity
  8
躯体と製品
  6
Continuous
 62
     3
100
AcDbLine
 10
960.0624955238091
 20
2003.60041200426
 30
0.0
 11
986.287091523809
 21
2053.13576100426
 31
0.0
  0
LINE
  5
56B1
330
1E
100
AcDbEntity
  8
躯体と製品
  6
Continuous
 62
     3
100
AcDbLine
 10
985.554116523809
 20
2054.74342500426
 30
0.0
 11
943.371182523809
 21
1975.06454700426
 31
0.0
  0
LINE
  5
56B2
330
1E
100
AcDbEntity
  8
躯体と製品
  6
Continuous
 62
     3
100
AcDbLine
 10
1000.371182523809
 20
2058.56454900426
 30
0.0
 11
1000.371182523809
 21
2002.564548004261
 31
0.0
  0
LINE
  5
56B3
330
1E
100
AcDbEntity
  8
躯体と製品
  6
Continuous
 62
     3
100
AcDbLine
 10
995.371181523809
 20
2005.56454800426
 30
0.0
 11
995.371181523809
 21
2055.56454900426
 31
0.0
  0
LINE
  5
56B4
330
1E
100
AcDbEntity
  8
躯体と製品
  6
Continuous
 62
     3
100
AcDbLine
 10
988.9711825238091
 20
2002.564548004261
 30
0.0
 11
988.9711825238091
 21
2052.04101900426
 31
0.0
  0
LINE
  5
56B5
330
1E
100
AcDbEntity
  8
躯体と製品
  6
Continuous
 62
     3
100
AcDbLine
 10
990.371180523809
 20
2030.26454700426
 30
0.0
 11
990.371180523809
 21
2002.564548004261
 31
0.0
  0
LINE
  5
56B6
330
1E
100
AcDbEntity
  8
躯体と製品
  6
Continuous
 62
     3
100
AcDbLine
 10
1001.871182523809
 20
2003.56454700426
 30
0.0
 11
1001.871182523809
 21
2013.83249700426
 31
0.0
  0
LINE
  5
56B7
330
1E
100
AcDbEntity
  8
躯体と製品
  6
PLINE2
 62
     3
100
AcDbLine
 10
1013.371181523809
 20
2010.74720400426
 30
0.0
 11
1013.371181523809
 21
2060.74720500426
 31
0.0
  0
LINE
  5
56BA
330
1E
100
AcDbEntity
  8
躯体と製品
  6
Continuous
 62
     3
100
AcDbLine
 10
959.3220595238088
 20
2001.064548004261
 30
0.0
 11
1003.371182523809
 21
2001.064548004261
 31
0.0
  0
LINE
  5
56BB
330
1E
100
AcDbEntity
  8
躯体と製品
  6
Continuous
 62
     3
100
AcDbLine
 10
988.9711825238091
 20
2002.564548004261
 30
0.0
 11
961.0618525238088
 21
2002.564548004261
 31
0.0
  0
LINE
  5
56BC
330
1E
100
AcDbEntity
  8
躯体と製品
  6
Continuous
 62
     3
100
AcDbLine
 10
944.8711825238088
 20
1974.90570900426
 30
0.0
 11
958.290383523809
 21
2000.25309000426
 31
0.0
  0
LINE
  5
56BF
330
1E
100
AcDbEntity
  8
躯体と製品
  6
Continuous
 62
     3
100
AcDbLine
 10
944.8711825238088
 20
1974.90570900426
 30
0.0
 11
944.8711825238088
 21
1963.06454700426
 31
0.0
  0
LINE
  5
56C0
330
1E
100
AcDbEntity
  8
躯体と製品
  6
Continuous
 62
     3
100
AcDbLine
 10
943.371182523809
 20
1975.06454700426
 30
0.0
 11
943.371182523809
 21
1960.06454700426
 31
0.0
  0
LINE
  5
56C1
330
1E
100
AcDbEntity
  8
躯体と製品
  6
Continuous
 62
     3
100
AcDbLine
 10
945.3711805238089
 20
1960.06454700426
 30
0.0
 11
945.3711805238089
 21
1963.06454700426
 31
0.0
  0
LINE
  5
56C2
330
1E
100
AcDbEntity
  8
躯体と製品
  6
Continuous
 62
     3
100
AcDbLine
 10
943.371182523809
 20
1960.06454700426
 30
0.0
 11
945.3711805238089
 21
1960.06454700426
 31
0.0
  0
LINE
  5
56C3
330
1E
100
AcDbEntity
  8
躯体と製品
  6
Continuous
 62
     3
100
AcDbLine
 10
945.3711805238089
 20
1963.06454700426
 30
0.0
 11
944.8711825238088
 21
1963.06454700426
 31
0.0
  0
ARC
  5
56C4
330
1E
100
AcDbEntity
  8
躯体と製品
  6
Continuous
 62
     3
100
AcDbCircle
 10
959.3556925238088
 20
1999.96023000426
 30
0.0
 40
1.104831
100
AcDbArc
 50
91.74442199999989
 51
164.6287570000004
  0
ARC
  5
56C5
330
1E
100
AcDbEntity
  8
躯体と製品
  6
Continuous
 62
     3
100
AcDbCircle
 10
961.0618525238088
 20
2003.56454700426
 30
0.0
 40
0.999999
100
AcDbArc
 50
177.9446619999991
 51
270.0
  0
ARC
  5
56C6
330
1E
100
AcDbEntity
  8
躯体と製品
  6
Continuous
 62
     3
100
AcDbCircle
 10
961.0618525238088
 20
2003.56454700426
 30
0.0
 40
0.999999
100
AcDbArc
 50
177.9446619999991
 51
270.0
  0
LINE
  5
56CB
330
1E
100
AcDbEntity
  8
躯体と製品
  6
Continuous
 62
     3
100
AcDbLine
 10
990.371180523809
 20
2002.564548004261
 30
0.0
 11
1000.871180523809
 21
2002.564548004261
 31
0.0
  0
LINE
  5
56CC
330
1E
100
AcDbEntity
  8
躯体と製品
  6
Continuous
 62
     3
100
AcDbLine
 10
998.3711815238089
 20
2002.564548004261
 30
0.0
 11
1000.371182523809
 21
2002.564548004261
 31
0.0
  0
ARC
  5
56CD
330
1E
100
AcDbEntity
  8
躯体と製品
  6
Continuous
 62
     3
100
AcDbCircle
 10
998.3711815238089
 20
2005.56454800426
 30
0.0
 40
3.0
100
AcDbArc
 50
180.0
 51
270.0
  0
ARC
  5
56CE
330
1E
100
AcDbEntity
  8
躯体と製品
  6
Continuous
 62
     3
100
AcDbCircle
 10
1000.871180523809
 20
2003.56454700426
 30
0.0
 40
0.999999
100
AcDbArc
 50
270.0
 51
0.0
  0
LINE
  5
56CF
330
1E
100
AcDbEntity
  8
躯体と製品
  6
Continuous
 62
     3
100
AcDbLine
 10
943.5884335238091
 20
2060.70658500426
 30
0.0
 11
945.5884345238089
 21
2060.70658500426
 31
0.0
  0
LINE
  5
56D0
330
1E
100
AcDbEntity
  8
躯体と製品
  6
Continuous
 62
     3
100
AcDbLine
 10
945.3711805238089
 20
2060.70658500426
 30
0.0
 11
945.3711805238089
 21
2063.70658500426
 31
0.0
  0
LINE
  5
56D1
330
1E
100
AcDbEntity
  8
躯体と製品
  6
Continuous
 62
     3
100
AcDbLine
 10
945.3711805238089
 20
2063.70658500426
 30
0.0
 11
944.8711825238088
 21
2063.70658500426
 31
0.0
  0
LINE
  5
56D2
330
1E
100
AcDbEntity
  8
躯体と製品
  6
Continuous
 62
     3
100
AcDbLine
 10
990.371180523809
 20
2057.55341100426
 30
0.0
 11
990.371180523809
 21
2030.86454700426
 31
0.0
  0
LINE
  5
56D3
330
1E
100
AcDbEntity
  8
躯体と製品
  6
Continuous
 62
     3
100
AcDbLine
 10
990.0711805238088
 20
2030.56454700426
 30
0.0
 11
990.371180523809
 21
2030.26454700426
 31
0.0
  0
LINE
  5
56D4
330
1E
100
AcDbEntity
  8
躯体と製品
  6
Continuous
 62
     3
100
AcDbLine
 10
990.371180523809
 20
2030.86454700426
 30
0.0
 11
990.0711805238088
 21
2030.56454700426
 31
0.0
  0
LINE
  5
56D5
330
1E
100
AcDbEntity
  8
躯体と製品
  6
Continuous
 62
     3
100
AcDbLine
 10
1007.153930523809
 20
2024.082495004261
 30
0.0
 11
1007.153930523809
 21
2036.58249600426
 31
0.0
  0
LINE
  5
56D6
330
1E
100
AcDbEntity
  8
躯体と製品
  6
Continuous
 62
     3
100
AcDbLine
 10
1008.753929523809
 20
2024.082495004261
 30
0.0
 11
1008.753929523809
 21
2036.58249600426
 31
0.0
  0
LINE
  5
56D7
330
1E
100
AcDbEntity
  8
躯体と製品
  6
Continuous
 62
     3
100
AcDbLine
 10
1002.871181523809
 20
2023.332495004261
 30
0.0
 11
1002.871181523809
 21
2037.33249600426
 31
0.0
  0
ARC
  5
56D8
330
1E
100
AcDbEntity
  8
躯体と製品
  6
Continuous
 62
     3
100
AcDbCircle
 10
1006.053929523809
 20
2030.332497004261
 30
0.0
 40
9.0
100
AcDbArc
 50
340.5287789999998
 51
0.0
  0
LINE
  5
56D9
330
1E
100
AcDbEntity
  8
躯体と製品
  6
Continuous
 62
     3
100
AcDbLine
 10
1010.253929523809
 20
2036.432496004261
 30
0.0
 11
1010.253929523809
 21
2024.232495004261
 31
0.0
  0
LINE
  5
56DA
330
1E
100
AcDbEntity
  8
躯体と製品
  6
Continuous
 62
     3
100
AcDbLine
 10
1015.053929523809
 20
2035.39385100426
 30
0.0
 11
1015.053929523809
 21
2025.27114300426
 31
0.0
  0
LINE
  5
56DB
330
1E
100
AcDbEntity
  8
躯体と製品
  6
Continuous
 62
     3
100
AcDbLine
 10
1002.653930523809
 20
2027.332497004261
 30
0.0
 11
1007.153930523809
 21
2027.332497004261
 31
0.0
  0
ARC
  5
56DC
330
1E
100
AcDbEntity
  8
躯体と製品
  6
Continuous
 62
     3
100
AcDbCircle
 10
1000.871180523809
 20
2020.83249600426
 30
0.0
 40
0.5000010000000001
100
AcDbArc
 50
90.0
 51
180.0
  0
ARC
  5
56DD
330
1E
100
AcDbEntity
  8
躯体と製品
  6
Continuous
 62
     3
100
AcDbCircle
 10
1000.871180523809
 20
2023.332495004261
 30
0.0
 40
2.000001
100
AcDbArc
 50
270.0
 51
0.0
  0
LINE
  5
56DE
330
1E
100
AcDbEntity
  8
躯体と製品
  6
Continuous
 62
     3
100
AcDbLine
 10
1001.871182523809
 20
2013.83249700426
 30
0.0
 11
1000.371182523809
 21
2013.83249700426
 31
0.0
  0
LINE
  5
56DF
330
1E
100
AcDbEntity
  8
躯体と製品
  6
Continuous
 62
     3
100
AcDbLine
 10
1003.371182523809
 20
2015.33249700426
 30
0.0
 11
1000.371182523809
 21
2015.33249700426
 31
0.0
  0
LINE
  5
56E0
330
1E
100
AcDbEntity
  8
躯体と製品
  6
Continuous
 62
     3
100
AcDbLine
 10
1008.753929523809
 20
2024.082495004261
 30
0.0
 11
1007.153930523809
 21
2024.082495004261
 31
0.0
  0
ARC
  5
56E1
330
1E
100
AcDbEntity
  8
躯体と製品
  6
Continuous
 62
     3
100
AcDbCircle
 10
1012.761929523809
 20
2025.885246004261
 30
0.0
 40
2.291999999999999
100
AcDbArc
 50
0.0
 51
39.15613200000026
  0
LINE
  5
56E2
330
1E
100
AcDbEntity
  8
躯体と製品
  6
Continuous
 62
     3
100
AcDbLine
 10
1014.512003523809
 20
2024.332497004261
 30
0.0
 11
1010.253929523809
 21
2024.332497004261
 31
0.0
  0
LINE
  5
56E3
330
1E
100
AcDbEntity
  8
躯体と製品
  6
Continuous
 62
     3
100
AcDbLine
 10
1014.539210523809
 20
2027.332497004261
 30
0.0
 11
1010.253929523809
 21
2027.332497004261
 31
0.0
  0
LINE
  5
56E4
330
1E
100
AcDbEntity
  8
躯体と製品
  6
Continuous
 62
     3
100
AcDbLine
 10
1015.053929523809
 20
2025.27114300426
 30
0.0
 11
1014.512003523809
 21
2024.332497004261
 31
0.0
  0
LINE
  5
56E5
330
1E
100
AcDbEntity
  8
躯体と製品
  6
Continuous
 62
     3
100
AcDbLine
 10
1010.253929523809
 20
2024.232495004261
 30
0.0
 11
1008.753929523809
 21
2024.232495004261
 31
0.0
  0
LINE
  5
56E6
330
1E
100
AcDbEntity
  8
躯体と製品
  6
Continuous
 62
     3
100
AcDbLine
 10
1002.653930523809
 20
2027.832495004261
 30
0.0
 11
1007.153930523809
 21
2027.832495004261
 31
0.0
  0
LINE
  5
56E7
330
1E
100
AcDbEntity
  8
躯体と製品
  6
Continuous
 62
     3
100
AcDbLine
 10
1002.653930523809
 20
2032.83249600426
 30
0.0
 11
1007.153930523809
 21
2032.83249600426
 31
0.0
  0
LINE
  5
56E8
330
1E
100
AcDbEntity
  8
躯体と製品
  6
Continuous
 62
     3
100
AcDbLine
 10
1002.653930523809
 20
2033.33249700426
 30
0.0
 11
1007.153930523809
 21
2033.33249700426
 31
0.0
  0
ARC
  5
56E9
330
1E
100
AcDbEntity
  8
躯体と製品
  6
Continuous
 62
     3
100
AcDbCircle
 10
1000.871180523809
 20
2037.33249600426
 30
0.0
 40
2.000001
100
AcDbArc
 50
0.0
 51
90.0
  0
ARC
  5
56EA
330
1E
100
AcDbEntity
  8
躯体と製品
  6
Continuous
 62
     3
100
AcDbCircle
 10
1000.871180523809
 20
2039.832495004261
 30
0.0
 40
0.5000010000000001
100
AcDbArc
 50
180.0
 51
270.0
  0
LINE
  5
56EB
330
1E
100
AcDbEntity
  8
躯体と製品
  6
Continuous
 62
     3
100
AcDbLine
 10
1008.753929523809
 20
2036.58249600426
 30
0.0
 11
1007.153930523809
 21
2036.58249600426
 31
0.0
  0
ARC
  5
56EC
330
1E
100
AcDbEntity
  8
躯体と製品
  6
Continuous
 62
     3
100
AcDbCircle
 10
1012.761929523809
 20
2034.779748004261
 30
0.0
 40
2.291999999999999
100
AcDbArc
 50
320.8438679999998
 51
0.0
  0
ARC
  5
56ED
330
1E
100
AcDbEntity
  8
躯体と製品
  6
Continuous
 62
     3
100
AcDbCircle
 10
1006.053929523809
 20
2030.332497004261
 30
0.0
 40
9.0
100
AcDbArc
 50
0.0
 51
19.47122100000025
  0
LINE
  5
56EE
330
1E
100
AcDbEntity
  8
躯体と製品
  6
Continuous
 62
     3
100
AcDbLine
 10
1014.512003523809
 20
2036.332497004261
 30
0.0
 11
1015.053929523809
 21
2035.39385100426
 31
0.0
  0
LINE
  5
56EF
330
1E
100
AcDbEntity
  8
躯体と製品
  6
Continuous
 62
     3
100
AcDbLine
 10
1014.512003523809
 20
2036.332497004261
 30
0.0
 11
1010.253929523809
 21
2036.332497004261
 31
0.0
  0
LINE
  5
56F0
330
1E
100
AcDbEntity
  8
躯体と製品
  6
Continuous
 62
     3
100
AcDbLine
 10
1014.539210523809
 20
2033.33249700426
 30
0.0
 11
1010.253929523809
 21
2033.33249700426
 31
0.0
  0
LINE
  5
56F1
330
1E
100
AcDbEntity
  8
躯体と製品
  6
Continuous
 62
     3
100
AcDbLine
 10
1010.253929523809
 20
2030.332497004261
 30
0.0
 11
1008.753929523809
 21
2031.83249700426
 31
0.0
  0
LINE
  5
56F2
330
1E
100
AcDbEntity
  8
躯体と製品
  6
Continuous
 62
     3
100
AcDbLine
 10
1008.753929523809
 20
2030.332497004261
 30
0.0
 11
1010.253929523809
 21
2028.832497004261
 31
0.0
  0
LINE
  5
56F3
330
1E
100
AcDbEntity
  8
躯体と製品
  6
Continuous
 62
     3
100
AcDbLine
 10
1008.753929523809
 20
2036.432496004261
 30
0.0
 11
1010.253929523809
 21
2036.432496004261
 31
0.0
  0
ARC
  5
56F4
330
1E
100
AcDbEntity
  8
躯体と製品
  6
Continuous
 62
     3
100
AcDbCircle
 10
994.3919965238089
 20
2050.06454700426
 30
0.0
 40
9.999999
100
AcDbArc
 50
90.0
 51
152.1027329999993
  0
ARC
  5
56F5
330
1E
100
AcDbEntity
  8
躯体と製品
  6
Continuous
 62
     3
100
AcDbCircle
 10
994.3919965238089
 20
2050.06454700426
 30
0.0
 40
8.499999
100
AcDbArc
 50
90.0
 51
118.2316130000014
  0
ARC
  5
56F6
330
1E
100
AcDbEntity
  8
躯体と製品
  6
Continuous
 62
     3
100
AcDbCircle
 10
987.4510045238089
 20
2052.15164400426
 30
0.0
 40
1.524198
100
AcDbArc
 50
355.8378239999995
 51
139.7846169999998
  0
LINE
  5
56F7
330
1E
100
AcDbEntity
  8
躯体と製品
  6
Continuous
 62
     3
100
AcDbLine
 10
998.3711815238089
 20
2058.56454900426
 30
0.0
 11
1000.371182523809
 21
2058.56454900426
 31
0.0
  0
ARC
  5
56F8
330
1E
100
AcDbEntity
  8
躯体と製品
  6
Continuous
 62
     3
100
AcDbCircle
 10
998.3711815238089
 20
2055.56454900426
 30
0.0
 40
3.0
100
AcDbArc
 50
90.0
 51
180.0
  0
LINE
  5
56F9
330
1E
100
AcDbEntity
  8
躯体と製品
  6
Continuous
 62
     3
100
AcDbLine
 10
994.3919965238089
 20
2058.56454900426
 30
0.0
 11
1000.871180523809
 21
2058.56454900426
 31
0.0
  0
ARC
  5
56FA
330
1E
100
AcDbEntity
  8
躯体と製品
  6
Continuous
 62
     3
100
AcDbCircle
 10
1000.871180523809
 20
2057.56454700426
 30
0.0
 40
0.999999
100
AcDbArc
 50
0.0
 51
90.0
  0
LINE
  5
56FB
330
1E
100
AcDbEntity
  8
躯体と製品
  6
Continuous
 62
     3
100
AcDbLine
 10
1001.871182523809
 20
2057.56454700426
 30
0.0
 11
1001.871182523809
 21
2046.832497004261
 31
0.0
  0
LINE
  5
56FC
330
1E
100
AcDbEntity
  8
躯体と製品
  6
Continuous
 62
     3
100
AcDbLine
 10
1003.371182523809
 20
2045.332497004261
 30
0.0
 11
1000.371182523809
 21
2045.332497004261
 31
0.0
  0
LINE
  5
56FD
330
1E
100
AcDbEntity
  8
躯体と製品
  6
Continuous
 62
     3
100
AcDbLine
 10
1000.371182523809
 20
2046.832497004261
 30
0.0
 11
1001.871182523809
 21
2046.832497004261
 31
0.0
  0
LINE
  5
56FE
330
1E
100
AcDbEntity
  8
躯体と製品
  6
Continuous
 62
     3
100
AcDbLine
 10
1003.371182523809
 20
2060.06454900426
 30
0.0
 11
994.3919965238089
 21
2060.06454900426
 31
0.0
  0
ARC
  5
5709
330
1E
100
AcDbEntity
  8
躯体と製品
  6
Continuous
 62
     3
100
AcDbCircle
 10
1000.871180523809
 20
2137.97453400426
 30
0.0
 40
2.000001
100
AcDbArc
 50
0.0
 51
90.0
  0
LINE
  5
570A
330
1E
100
AcDbEntity
  8
躯体と製品
  6
Continuous
 62
     3
100
AcDbLine
 10
1000.371182523809
 20
2159.20658700426
 30
0.0
 11
1000.371182523809
 21
2103.20658600426
 31
0.0
  0
LINE
  5
570B
330
1E
100
AcDbEntity
  8
躯体と製品
  6
Continuous
 62
     3
100
AcDbLine
 10
995.371181523809
 20
2106.20658600426
 30
0.0
 11
995.371181523809
 21
2156.20658700426
 31
0.0
  0
LINE
  5
570C
330
1E
100
AcDbEntity
  8
躯体と製品
  6
Continuous
 62
     3
100
AcDbLine
 10
988.9711825238091
 20
2103.20658600426
 30
0.0
 11
988.9711825238091
 21
2152.68305700426
 31
0.0
  0
LINE
  5
570D
330
1E
100
AcDbEntity
  8
躯体と製品
  6
Continuous
 62
     3
100
AcDbLine
 10
960.0624955238091
 20
2104.24245000426
 30
0.0
 11
986.287091523809
 21
2153.77779900426
 31
0.0
  0
LINE
  5
570E
330
1E
100
AcDbEntity
  8
躯体と製品
  6
Continuous
 62
     3
100
AcDbLine
 10
990.371180523809
 20
2158.19544900426
 30
0.0
 11
990.371180523809
 21
2131.50658500426
 31
0.0
  0
LINE
  5
570F
330
1E
100
AcDbEntity
  8
躯体と製品
  6
Continuous
 62
     3
100
AcDbLine
 10
985.554116523809
 20
2155.385463004261
 30
0.0
 11
943.371182523809
 21
2075.70658500426
 31
0.0
  0
LINE
  5
5710
330
1E
100
AcDbEntity
  8
躯体と製品
  6
Continuous
 62
     3
100
AcDbLine
 10
959.3220595238088
 20
2101.70658600426
 30
0.0
 11
1003.371182523809
 21
2101.70658600426
 31
0.0
  0
LINE
  5
5711
330
1E
100
AcDbEntity
  8
躯体と製品
  6
Continuous
 62
     3
100
AcDbLine
 10
988.9711825238091
 20
2103.20658600426
 30
0.0
 11
961.0618525238088
 21
2103.20658600426
 31
0.0
  0
LINE
  5
5712
330
1E
100
AcDbEntity
  8
躯体と製品
  6
Continuous
 62
     3
100
AcDbLine
 10
944.8711825238088
 20
2075.54775000426
 30
0.0
 11
958.290383523809
 21
2100.89512800426
 31
0.0
  0
ARC
  5
5713
330
1E
100
AcDbEntity
  8
躯体と製品
  6
Continuous
 62
     3
100
AcDbCircle
 10
959.3556925238088
 20
2100.60226800426
 30
0.0
 40
1.104831
100
AcDbArc
 50
91.74442199999989
 51
164.6287570000004
  0
ARC
  5
5714
330
1E
100
AcDbEntity
  8
躯体と製品
  6
Continuous
 62
     3
100
AcDbCircle
 10
961.0618525238088
 20
2104.20658500426
 30
0.0
 40
0.999999
100
AcDbArc
 50
177.9446619999991
 51
270.0
  0
ARC
  5
5715
330
1E
100
AcDbEntity
  8
躯体と製品
  6
Continuous
 62
     3
100
AcDbCircle
 10
961.0618525238088
 20
2104.20658500426
 30
0.0
 40
0.999999
100
AcDbArc
 50
177.9446619999991
 51
270.0
  0
LINE
  5
5716
330
1E
100
AcDbEntity
  8
躯体と製品
  6
Continuous
 62
     3
100
AcDbLine
 10
1001.871182523809
 20
2104.20658500426
 30
0.0
 11
1001.871182523809
 21
2114.47453500426
 31
0.0
  0
LINE
  5
5717
330
1E
100
AcDbEntity
  8
躯体と製品
  6
Continuous
 62
     3
100
AcDbLine
 10
990.371180523809
 20
2130.90658500426
 30
0.0
 11
990.371180523809
 21
2103.20658600426
 31
0.0
  0
LINE
  5
5718
330
1E
100
AcDbEntity
  8
躯体と製品
  6
Continuous
 62
     3
100
AcDbLine
 10
990.371180523809
 20
2103.20658600426
 30
0.0
 11
1000.871180523809
 21
2103.20658600426
 31
0.0
  0
LINE
  5
5719
330
1E
100
AcDbEntity
  8
躯体と製品
  6
Continuous
 62
     3
100
AcDbLine
 10
998.3711815238089
 20
2103.20658600426
 30
0.0
 11
1000.371182523809
 21
2103.20658600426
 31
0.0
  0
ARC
  5
571A
330
1E
100
AcDbEntity
  8
躯体と製品
  6
Continuous
 62
     3
100
AcDbCircle
 10
998.3711815238089
 20
2106.20658600426
 30
0.0
 40
3.0
100
AcDbArc
 50
180.0
 51
270.0
  0
ARC
  5
571B
330
1E
100
AcDbEntity
  8
躯体と製品
  6
Continuous
 62
     3
100
AcDbCircle
 10
1000.871180523809
 20
2104.20658500426
 30
0.0
 40
0.999999
100
AcDbArc
 50
270.0
 51
0.0
  0
LINE
  5
571C
330
1E
100
AcDbEntity
  8
躯体と製品
  6
Continuous
 62
     3
100
AcDbLine
 10
990.0711805238088
 20
2131.20658500426
 30
0.0
 11
990.371180523809
 21
2130.90658500426
 31
0.0
  0
LINE
  5
571D
330
1E
100
AcDbEntity
  8
躯体と製品
  6
Continuous
 62
     3
100
AcDbLine
 10
990.371180523809
 20
2131.50658500426
 30
0.0
 11
990.0711805238088
 21
2131.20658500426
 31
0.0
  0
ARC
  5
571E
330
1E
100
AcDbEntity
  8
躯体と製品
  6
Continuous
 62
     3
100
AcDbCircle
 10
1000.871180523809
 20
2123.97453600426
 30
0.0
 40
2.000001
100
AcDbArc
 50
270.0
 51
0.0
  0
ARC
  5
571F
330
1E
100
AcDbEntity
  8
躯体と製品
  6
Continuous
 62
     3
100
AcDbCircle
 10
1000.871180523809
 20
2121.47453400426
 30
0.0
 40
0.5000010000000001
100
AcDbArc
 50
90.0
 51
180.0
  0
LINE
  5
5720
330
1E
100
AcDbEntity
  8
躯体と製品
  6
Continuous
 62
     3
100
AcDbLine
 10
1001.871182523809
 20
2114.47453500426
 30
0.0
 11
1000.371182523809
 21
2114.47453500426
 31
0.0
  0
LINE
  5
5721
330
1E
100
AcDbEntity
  8
躯体と製品
  6
Continuous
 62
     3
100
AcDbLine
 10
1003.371182523809
 20
2115.97453500426
 30
0.0
 11
1000.371182523809
 21
2115.97453500426
 31
0.0
  0
LINE
  5
5722
330
1E
100
AcDbEntity
  8
躯体と製品
  6
Continuous
 62
     3
100
AcDbLine
 10
1002.871181523809
 20
2128.47453600426
 30
0.0
 11
1007.371181523809
 21
2128.47453600426
 31
0.0
  0
LINE
  5
5723
330
1E
100
AcDbEntity
  8
躯体と製品
  6
Continuous
 62
     3
100
AcDbLine
 10
1002.871181523809
 20
2133.47453400426
 30
0.0
 11
1007.371181523809
 21
2133.47453400426
 31
0.0
  0
LINE
  5
5724
330
1E
100
AcDbEntity
  8
躯体と製品
  6
Continuous
 62
     3
100
AcDbLine
 10
1002.871181523809
 20
2127.97453500426
 30
0.0
 11
1007.371181523809
 21
2127.97453500426
 31
0.0
  0
LINE
  5
5725
330
1E
100
AcDbEntity
  8
躯体と製品
  6
Continuous
 62
     3
100
AcDbLine
 10
1002.871181523809
 20
2133.974535004261
 30
0.0
 11
1007.371181523809
 21
2133.974535004261
 31
0.0
  0
LINE
  5
5726
330
1E
100
AcDbEntity
  8
躯体と製品
  6
Continuous
 62
     3
100
AcDbLine
 10
1002.871181523809
 20
2123.97453600426
 30
0.0
 11
1002.871181523809
 21
2137.97453400426
 31
0.0
  0
LINE
  5
5727
330
1E
100
AcDbEntity
  8
躯体と製品
  6
Continuous
 62
     3
100
AcDbLine
 10
1007.371181523809
 20
2124.72453600426
 30
0.0
 11
1007.371181523809
 21
2137.22453400426
 31
0.0
  0
LINE
  5
5728
330
1E
100
AcDbEntity
  8
躯体と製品
  6
Continuous
 62
     3
100
AcDbLine
 10
1008.971180523809
 20
2124.72453600426
 30
0.0
 11
1007.371181523809
 21
2124.72453600426
 31
0.0
  0
LINE
  5
5729
330
1E
100
AcDbEntity
  8
躯体と製品
  6
Continuous
 62
     3
100
AcDbLine
 10
1008.971180523809
 20
2137.22453400426
 30
0.0
 11
1007.371181523809
 21
2137.22453400426
 31
0.0
  0
LINE
  5
572A
330
1E
100
AcDbEntity
  8
躯体と製品
  6
Continuous
 62
     3
100
AcDbLine
 10
1008.971180523809
 20
2124.72453600426
 30
0.0
 11
1008.971180523809
 21
2137.22453400426
 31
0.0
  0
ARC
  5
572B
330
1E
100
AcDbEntity
  8
躯体と製品
  6
Continuous
 62
     3
100
AcDbCircle
 10
1012.979180523809
 20
2135.42178600426
 30
0.0
 40
2.291999999999999
100
AcDbArc
 50
320.8438679999998
 51
0.0
  0
ARC
  5
572C
330
1E
100
AcDbEntity
  8
躯体と製品
  6
Continuous
 62
     3
100
AcDbCircle
 10
1006.271180523809
 20
2130.974535004261
 30
0.0
 40
9.0
100
AcDbArc
 50
0.0
 51
19.47122100000025
  0
LINE
  5
572D
330
1E
100
AcDbEntity
  8
躯体と製品
  6
Continuous
 62
     3
100
AcDbLine
 10
1014.729254523809
 20
2136.97453500426
 30
0.0
 11
1015.271180523809
 21
2136.035889004261
 31
0.0
  0
LINE
  5
572E
330
1E
100
AcDbEntity
  8
躯体と製品
  6
Continuous
 62
     3
100
AcDbLine
 10
1014.729254523809
 20
2136.97453500426
 30
0.0
 11
1010.471180523809
 21
2136.97453500426
 31
0.0
  0
LINE
  5
572F
330
1E
100
AcDbEntity
  8
躯体と製品
  6
Continuous
 62
     3
100
AcDbLine
 10
1014.756464523809
 20
2133.974535004261
 30
0.0
 11
1010.471180523809
 21
2133.974535004261
 31
0.0
  0
ARC
  5
5730
330
1E
100
AcDbEntity
  8
躯体と製品
  6
Continuous
 62
     3
100
AcDbCircle
 10
1012.979180523809
 20
2126.52728400426
 30
0.0
 40
2.291999999999999
100
AcDbArc
 50
0.0
 51
39.15613200000026
  0
ARC
  5
5731
330
1E
100
AcDbEntity
  8
躯体と製品
  6
Continuous
 62
     3
100
AcDbCircle
 10
1006.271180523809
 20
2130.974535004261
 30
0.0
 40
9.0
100
AcDbArc
 50
340.5287789999998
 51
0.0
  0
LINE
  5
5732
330
1E
100
AcDbEntity
  8
躯体と製品
  6
Continuous
 62
     3
100
AcDbLine
 10
1014.729254523809
 20
2124.974535004261
 30
0.0
 11
1010.471180523809
 21
2124.974535004261
 31
0.0
  0
LINE
  5
5733
330
1E
100
AcDbEntity
  8
躯体と製品
  6
Continuous
 62
     3
100
AcDbLine
 10
1014.756464523809
 20
2127.97453500426
 30
0.0
 11
1010.471180523809
 21
2127.97453500426
 31
0.0
  0
LINE
  5
5734
330
1E
100
AcDbEntity
  8
躯体と製品
  6
Continuous
 62
     3
100
AcDbLine
 10
1010.471180523809
 20
2137.07453400426
 30
0.0
 11
1010.471180523809
 21
2124.874536004261
 31
0.0
  0
LINE
  5
5735
330
1E
100
AcDbEntity
  8
躯体と製品
  6
Continuous
 62
     3
100
AcDbLine
 10
1015.271180523809
 20
2125.91318100426
 30
0.0
 11
1014.729254523809
 21
2124.974535004261
 31
0.0
  0
LINE
  5
5736
330
1E
100
AcDbEntity
  8
躯体と製品
  6
Continuous
 62
     3
100
AcDbLine
 10
1015.271180523809
 20
2136.035889004261
 30
0.0
 11
1015.271180523809
 21
2125.91318100426
 31
0.0
  0
LINE
  5
5737
330
1E
100
AcDbEntity
  8
躯体と製品
  6
Continuous
 62
     3
100
AcDbLine
 10
1010.471180523809
 20
2130.974535004261
 30
0.0
 11
1008.971180523809
 21
2132.474535004261
 31
0.0
  0
LINE
  5
5738
330
1E
100
AcDbEntity
  8
躯体と製品
  6
Continuous
 62
     3
100
AcDbLine
 10
1008.971180523809
 20
2130.974535004261
 30
0.0
 11
1010.471180523809
 21
2129.47453500426
 31
0.0
  0
LINE
  5
5739
330
1E
100
AcDbEntity
  8
躯体と製品
  6
Continuous
 62
     3
100
AcDbLine
 10
1008.971180523809
 20
2137.07453400426
 30
0.0
 11
1010.471180523809
 21
2137.07453400426
 31
0.0
  0
LINE
  5
573A
330
1E
100
AcDbEntity
  8
躯体と製品
  6
Continuous
 62
     3
100
AcDbLine
 10
1010.471180523809
 20
2124.874536004261
 30
0.0
 11
1008.971180523809
 21
2124.874536004261
 31
0.0
  0
ARC
  5
573B
330
1E
100
AcDbEntity
  8
躯体と製品
  6
Continuous
 62
     3
100
AcDbCircle
 10
994.3919965238089
 20
2150.70658500426
 30
0.0
 40
9.999999
100
AcDbArc
 50
90.0
 51
152.1027329999993
  0
ARC
  5
573C
330
1E
100
AcDbEntity
  8
躯体と製品
  6
Continuous
 62
     3
100
AcDbCircle
 10
994.3919965238089
 20
2150.70658500426
 30
0.0
 40
8.499999
100
AcDbArc
 50
90.0
 51
118.2316130000014
  0
ARC
  5
573D
330
1E
100
AcDbEntity
  8
躯体と製品
  6
Continuous
 62
     3
100
AcDbCircle
 10
987.4510045238089
 20
2152.79368200426
 30
0.0
 40
1.524198
100
AcDbArc
 50
355.8378239999995
 51
139.7846169999998
  0
LINE
  5
573E
330
1E
100
AcDbEntity
  8
躯体と製品
  6
Continuous
 62
     3
100
AcDbLine
 10
1001.871182523809
 20
2158.20658500426
 30
0.0
 11
1001.871182523809
 21
2147.47453500426
 31
0.0
  0
LINE
  5
573F
330
1E
100
AcDbEntity
  8
躯体と製品
  6
Continuous
 62
     3
100
AcDbLine
 10
1003.371182523809
 20
2145.97453500426
 30
0.0
 11
1000.371182523809
 21
2145.97453500426
 31
0.0
  0
LINE
  5
5740
330
1E
100
AcDbEntity
  8
躯体と製品
  6
Continuous
 62
     3
100
AcDbLine
 10
1000.371182523809
 20
2147.47453500426
 30
0.0
 11
1001.871182523809
 21
2147.47453500426
 31
0.0
  0
ARC
  5
5741
330
1E
100
AcDbEntity
  8
躯体と製品
  6
Continuous
 62
     3
100
AcDbCircle
 10
1000.871180523809
 20
2140.47453600426
 30
0.0
 40
0.5000010000000001
100
AcDbArc
 50
180.0
 51
270.0
  0
LINE
  5
5742
330
1E
100
AcDbEntity
  8
躯体と製品
  6
Continuous
 62
     3
100
AcDbLine
 10
998.3711815238089
 20
2159.20658700426
 30
0.0
 11
1000.371182523809
 21
2159.20658700426
 31
0.0
  0
ARC
  5
5743
330
1E
100
AcDbEntity
  8
躯体と製品
  6
Continuous
 62
     3
100
AcDbCircle
 10
998.3711815238089
 20
2156.20658700426
 30
0.0
 40
3.0
100
AcDbArc
 50
90.0
 51
180.0
  0
LINE
  5
5744
330
1E
100
AcDbEntity
  8
躯体と製品
  6
Continuous
 62
     3
100
AcDbLine
 10
1003.371182523809
 20
2160.70658700426
 30
0.0
 11
994.3919965238089
 21
2160.70658700426
 31
0.0
  0
LINE
  5
5745
330
1E
100
AcDbEntity
  8
躯体と製品
  6
Continuous
 62
     3
100
AcDbLine
 10
994.3919965238089
 20
2159.20658700426
 30
0.0
 11
1000.871180523809
 21
2159.20658700426
 31
0.0
  0
ARC
  5
5746
330
1E
100
AcDbEntity
  8
躯体と製品
  6
Continuous
 62
     3
100
AcDbCircle
 10
1000.871180523809
 20
2158.20658500426
 30
0.0
 40
0.999999
100
AcDbArc
 50
0.0
 51
90.0
  0
LINE
  5
5747
330
1E
100
AcDbEntity
  8
文字-記号
  6
Continuous
 62
     4
100
AcDbLine
 10
940.4626075238089
 20
2317.736655004261
 30
0.0
 11
828.1614955238088
 21
2317.736655004261
 31
0.0
  0
LINE
  5
5748
330
1E
100
AcDbEntity
  8
文字-記号
  6
Continuous
 62
     4
100
AcDbLine
 10
828.1614955238088
 20
2292.904686004261
 30
0.0
 11
940.4626075238089
 21
2292.904686004261
 31
0.0
  0
LINE
  5
5749
330
1E
100
AcDbEntity
  8
文字-記号
  6
Continuous
 62
     4
100
AcDbLine
 10
828.1614955238088
 20
2317.736655004261
 30
0.0
 11
828.1614955238088
 21
2292.904686004261
 31
0.0
  0
TEXT
  5
574A
330
1E
100
AcDbEntity
  8
文字-記号
  6
Continuous
 62
     4
100
AcDbText
 10
835.8053965238088
 20
2298.73227600426
 30
0.0
 40
15.0
  1
ルーバーパネル
 41
0.73811
100
AcDbText
  0
LINE
  5
574B
330
1E
100
AcDbEntity
  8
文字-記号
  6
Continuous
 62
     4
100
AcDbLine
 10
940.4626075238089
 20
2292.904686004261
 30
0.0
 11
940.4626075238089
 21
2317.736655004261
 31
0.0
  0
LINE
  5
574E
330
1E
100
AcDbEntity
  8
躯体と製品
  6
Continuous
 62
     4
100
AcDbLine
 10
1179.371180523808
 20
2071.49396100426
 30
0.0
 11
1179.371180523808
 21
2107.99396200426
 31
0.0
  0
LINE
  5
574F
330
1E
100
AcDbEntity
  8
躯体と製品
  6
Continuous
 62
     4
100
AcDbLine
 10
1065.871181523809
 20
2060.99396100426
 30
0.0
 11
1183.371182523809
 21
2060.99396100426
 31
0.0
  0
LINE
  5
5750
330
1E
100
AcDbEntity
  8
躯体と製品
  6
Continuous
 62
     4
100
AcDbLine
 10
1067.371181523809
 20
2057.79396000426
 30
0.0
 11
1159.371182523809
 21
2057.79396000426
 31
0.0
  0
ARC
  5
5752
330
1E
100
AcDbEntity
  8
躯体と製品
  6
Continuous
 62
     4
100
AcDbCircle
 10
1065.871181523809
 20
2013.49396200426
 30
0.0
 40
2.499998999999999
100
AcDbArc
 50
180.0
 51
270.0
  0
LINE
  5
5753
330
1E
100
AcDbEntity
  8
躯体と製品
  6
Continuous
 62
     4
100
AcDbLine
 10
1083.371180523809
 20
2014.19396100426
 30
0.0
 11
1083.371180523809
 21
2010.99396000426
 31
0.0
  0
LINE
  5
5754
330
1E
100
AcDbEntity
  8
躯体と製品
  6
Continuous
 62
     4
100
AcDbLine
 10
1063.371182523809
 20
2010.74720400426
 30
0.0
 11
1063.371182523809
 21
2060.70658500426
 31
0.0
  0
LINE
  5
5755
330
1E
100
AcDbEntity
  8
躯体と製品
  6
PLINE2
 62
     3
100
AcDbLine
 10
1059.371180523809
 20
2010.706587004261
 30
0.0
 11
1059.371180523809
 21
2060.70658500426
 31
0.0
  0
TEXT
  5
5756
330
1E
100
AcDbEntity
  8
寸法
  6
Continuous
 62
     3
100
AcDbText
 10
1054.437041394595
 20
1967.864447436653
 30
0.0
 40
5.0
  1
調整
 41
0.73811
 72
     1
 11
1058.373628061262
 21
1967.864447436653
 31
0.0
100
AcDbText
  0
LINE
  5
5757
330
1E
100
AcDbEntity
  8
寸法
  6
Continuous
 62
     4
100
AcDbLine
 10
1053.371180523809
 20
1966.65459900426
 30
0.0
 11
1063.371182523809
 21
1966.65459900426
 31
0.0
  0
LINE
  5
5758
330
1E
100
AcDbEntity
  8
躯体と製品
  6
Continuous
 62
     4
100
AcDbLine
 10
1053.371180523809
 20
2010.74720400426
 30
0.0
 11
1063.371182523809
 21
2010.74720400426
 31
0.0
  0
LINE
  5
575F
330
1E
100
AcDbEntity
  8
躯体と製品
  6
Continuous
 62
     4
100
AcDbLine
 10
1065.871181523809
 20
2010.99396000426
 30
0.0
 11
1083.371180523809
 21
2010.99396000426
 31
0.0
  0
LINE
  5
5760
330
1E
100
AcDbEntity
  8
躯体と製品
  6
Continuous
 62
     4
100
AcDbLine
 10
1053.371180523809
 20
2060.70658500426
 30
0.0
 11
1063.371182523809
 21
2060.70658500426
 31
0.0
  0
LINE
  5
5761
330
1E
100
AcDbEntity
  8
躯体と製品
  6
Continuous
 62
     3
100
AcDbLine
 10
1057.771181523809
 20
2044.247205004261
 30
0.0
 11
1057.771181523809
 21
2027.247204004261
 31
0.0
  0
LINE
  5
5762
330
1E
100
AcDbEntity
  8
躯体と製品
  6
Continuous
 62
     3
100
AcDbLine
 10
1055.771180523809
 20
2043.58720500426
 30
0.0
 11
1055.771180523809
 21
2027.90720400426
 31
0.0
  0
LINE
  5
5763
330
1E
100
AcDbEntity
  8
躯体と製品
  6
Continuous
 62
     3
100
AcDbLine
 10
1049.271182523809
 20
2042.34720300426
 30
0.0
 11
1049.972357523809
 21
2043.58720500426
 31
0.0
  0
CIRCLE
  5
5764
330
1E
100
AcDbEntity
  8
躯体と製品
  6
Continuous
 62
     3
100
AcDbCircle
 10
1032.371180523809
 20
2035.74720300426
 30
0.0
 40
8.499999
  0
LINE
  5
5765
330
1E
100
AcDbEntity
  8
躯体と製品
  6
Continuous
 62
     4
100
AcDbLine
 10
1026.871181523809
 20
2045.24720400426
 30
0.0
 11
1026.871181523809
 21
2042.22794400426
 31
0.0
  0
LINE
  5
5766
330
1E
100
AcDbEntity
  8
躯体と製品
  6
Continuous
 62
     4
100
AcDbLine
 10
1037.871182523809
 20
2045.24720400426
 30
0.0
 11
1037.871182523809
 21
2042.22794400426
 31
0.0
  0
CIRCLE
  5
5767
330
1E
100
AcDbEntity
  8
躯体と製品
  6
Continuous
 62
     3
100
AcDbCircle
 10
1032.371180523809
 20
2035.74720300426
 30
0.0
 40
6.500000999999999
  0
LINE
  5
5768
330
1E
100
AcDbEntity
  8
躯体と製品
  6
Continuous
 62
     3
100
AcDbLine
 10
1036.123958523809
 20
2029.24720500426
 30
0.0
 11
1039.876736523809
 21
2035.74720300426
 31
0.0
  0
LINE
  5
5769
330
1E
100
AcDbEntity
  8
躯体と製品
  6
Continuous
 62
     3
100
AcDbLine
 10
1039.876736523809
 20
2035.74720300426
 30
0.0
 11
1036.123958523809
 21
2042.24720400426
 31
0.0
  0
LINE
  5
576A
330
1E
100
AcDbEntity
  8
躯体と製品
  6
Continuous
 62
     4
100
AcDbLine
 10
1037.871182523809
 20
2029.266462004261
 30
0.0
 11
1037.871182523809
 21
2026.24720500426
 31
0.0
  0
LINE
  5
576B
330
1E
100
AcDbEntity
  8
躯体と製品
  6
Continuous
 62
     4
100
AcDbLine
 10
1026.871181523809
 20
2029.266462004261
 30
0.0
 11
1026.871181523809
 21
2026.24720500426
 31
0.0
  0
LINE
  5
576C
330
1E
100
AcDbEntity
  8
躯体と製品
  6
Continuous
 62
     3
100
AcDbLine
 10
1024.653929523809
 20
2027.332497004261
 30
0.0
 11
1024.653929523809
 21
2033.33249700426
 31
0.0
  0
LINE
  5
576D
330
1E
100
AcDbEntity
  8
躯体と製品
  6
Continuous
 62
     3
100
AcDbLine
 10
1024.653929523809
 20
2027.332497004261
 30
0.0
 11
1025.153930523809
 21
2027.832495004261
 31
0.0
  0
ARC
  5
576E
330
1E
100
AcDbEntity
  8
躯体と製品
  6
Continuous
 62
     4
100
AcDbCircle
 10
1032.371180523809
 20
2026.24720500426
 30
0.0
 40
5.499999
100
AcDbArc
 50
180.0
 51
0.0
  0
LINE
  5
576F
330
1E
100
AcDbEntity
  8
躯体と製品
  6
Continuous
 62
     3
100
AcDbLine
 10
1024.865627523809
 20
2035.74720300426
 30
0.0
 11
1028.618405523809
 21
2029.24720500426
 31
0.0
  0
LINE
  5
5770
330
1E
100
AcDbEntity
  8
躯体と製品
  6
Continuous
 62
     3
100
AcDbLine
 10
1028.618405523809
 20
2042.24720400426
 30
0.0
 11
1024.865627523809
 21
2035.74720300426
 31
0.0
  0
LINE
  5
5771
330
1E
100
AcDbEntity
  8
躯体と製品
  6
Continuous
 62
     3
100
AcDbLine
 10
1025.153930523809
 20
2032.83249600426
 30
0.0
 11
1024.653929523809
 21
2033.33249700426
 31
0.0
  0
LINE
  5
5772
330
1E
100
AcDbEntity
  8
躯体と製品
  6
Continuous
 62
     3
100
AcDbLine
 10
1025.153930523809
 20
2027.832495004261
 30
0.0
 11
1025.153930523809
 21
2032.83249600426
 31
0.0
  0
LINE
  5
5773
330
1E
100
AcDbEntity
  8
躯体と製品
  6
Continuous
 62
     3
100
AcDbLine
 10
1028.618405523809
 20
2029.24720500426
 30
0.0
 11
1036.123958523809
 21
2029.24720500426
 31
0.0
  0
LINE
  5
5774
330
1E
100
AcDbEntity
  8
躯体と製品
  6
Continuous
 62
     3
100
AcDbLine
 10
1036.123958523809
 20
2042.24720400426
 30
0.0
 11
1028.618405523809
 21
2042.24720400426
 31
0.0
  0
LINE
  5
5775
330
1E
100
AcDbEntity
  8
躯体と製品
  6
Continuous
 62
     3
100
AcDbLine
 10
1059.371180523809
 20
2027.247204004261
 30
0.0
 11
1057.771181523809
 21
2027.247204004261
 31
0.0
  0
ARC
  5
5776
330
1E
100
AcDbEntity
  8
躯体と製品
  6
Continuous
 62
     3
100
AcDbCircle
 10
1061.031182523809
 20
2035.74720300426
 30
0.0
 40
11.76
100
AcDbArc
 50
160.1148369999995
 51
199.8851630000005
  0
ARC
  5
5777
330
1E
100
AcDbEntity
  8
躯体と製品
  6
Continuous
 62
     3
100
AcDbCircle
 10
1052.204348523809
 20
2041.74368100426
 30
0.0
 40
2.994614999999999
100
AcDbArc
 50
191.6267950000001
 51
221.8120719999996
  0
ARC
  5
5778
330
1E
100
AcDbEntity
  8
躯体と製品
  6
Continuous
 62
     3
100
AcDbCircle
 10
1052.204348523809
 20
2029.75072800426
 30
0.0
 40
2.994614999999999
100
AcDbArc
 50
138.1879280000004
 51
168.3732049999998
  0
LINE
  5
5779
330
1E
100
AcDbEntity
  8
躯体と製品
  6
Continuous
 62
     3
100
AcDbLine
 10
1049.987096523809
 20
2027.90720400426
 30
0.0
 11
1049.271182523809
 21
2029.14720300426
 31
0.0
  0
LINE
  5
577A
330
1E
100
AcDbEntity
  8
躯体と製品
  6
Continuous
 62
     3
100
AcDbLine
 10
1043.171180523809
 20
2039.09760300426
 30
0.0
 11
1043.820782523809
 21
2039.74720500426
 31
0.0
  0
LINE
  5
577B
330
1E
100
AcDbEntity
  8
躯体と製品
  6
Continuous
 62
     3
100
AcDbLine
 10
1043.820782523809
 20
2039.74720500426
 30
0.0
 11
1049.271182523809
 21
2039.74720500426
 31
0.0
  0
LINE
  5
577C
330
1E
100
AcDbEntity
  8
躯体と製品
  6
Continuous
 62
     3
100
AcDbLine
 10
1043.171180523809
 20
2032.396803004261
 30
0.0
 11
1043.820782523809
 21
2031.74720400426
 31
0.0
  0
LINE
  5
577D
330
1E
100
AcDbEntity
  8
躯体と製品
  6
Continuous
 62
     3
100
AcDbLine
 10
1043.820782523809
 20
2031.74720400426
 30
0.0
 11
1049.271182523809
 21
2031.74720400426
 31
0.0
  0
LINE
  5
577E
330
1E
100
AcDbEntity
  8
躯体と製品
  6
Continuous
 62
     3
100
AcDbLine
 10
1049.271182523809
 20
2029.14720300426
 30
0.0
 11
1049.271182523809
 21
2042.34720300426
 31
0.0
  0
LINE
  5
577F
330
1E
100
AcDbEntity
  8
躯体と製品
  6
Continuous
 62
     3
100
AcDbLine
 10
1043.171180523809
 20
2032.396803004261
 30
0.0
 11
1043.171180523809
 21
2039.09760300426
 31
0.0
  0
LINE
  5
5780
330
1E
100
AcDbEntity
  8
躯体と製品
  6
Continuous
 62
     3
100
AcDbLine
 10
1055.771180523809
 20
2035.74720300426
 30
0.0
 11
1057.771181523809
 21
2036.90190600426
 31
0.0
  0
LINE
  5
5781
330
1E
100
AcDbEntity
  8
躯体と製品
  6
Continuous
 62
     3
100
AcDbLine
 10
1055.771180523809
 20
2034.59250300426
 30
0.0
 11
1057.771181523809
 21
2035.74720300426
 31
0.0
  0
LINE
  5
5782
330
1E
100
AcDbEntity
  8
躯体と製品
  6
Continuous
 62
     3
100
AcDbLine
 10
1055.771180523809
 20
2043.447204004261
 30
0.0
 11
1057.771181523809
 21
2043.447204004261
 31
0.0
  0
LINE
  5
5783
330
1E
100
AcDbEntity
  8
躯体と製品
  6
Continuous
 62
     3
100
AcDbLine
 10
1055.771180523809
 20
2028.047205004261
 30
0.0
 11
1057.771181523809
 21
2028.047205004261
 31
0.0
  0
LINE
  5
5784
330
1E
100
AcDbEntity
  8
躯体と製品
  6
Continuous
 62
     3
100
AcDbLine
 10
1055.771180523809
 20
2039.74720500426
 30
0.0
 11
1049.972357523809
 21
2039.74720500426
 31
0.0
  0
LINE
  5
5785
330
1E
100
AcDbEntity
  8
躯体と製品
  6
Continuous
 62
     3
100
AcDbLine
 10
1049.972357523809
 20
2031.74720400426
 30
0.0
 11
1055.771180523809
 21
2031.74720400426
 31
0.0
  0
LINE
  5
5786
330
1E
100
AcDbEntity
  8
躯体と製品
  6
Continuous
 62
     3
100
AcDbLine
 10
1055.771180523809
 20
2027.90720400426
 30
0.0
 11
1049.987096523809
 21
2027.90720400426
 31
0.0
  0
ARC
  5
5787
330
1E
100
AcDbEntity
  8
躯体と製品
  6
Continuous
 62
     4
100
AcDbCircle
 10
1032.371180523809
 20
2045.24720400426
 30
0.0
 40
5.499999
100
AcDbArc
 50
0.0
 51
180.0
  0
LINE
  5
5788
330
1E
100
AcDbEntity
  8
躯体と製品
  6
Continuous
 62
     3
100
AcDbLine
 10
1057.771181523809
 20
2044.247205004261
 30
0.0
 11
1059.371180523809
 21
2044.247205004261
 31
0.0
  0
LINE
  5
5789
330
1E
100
AcDbEntity
  8
躯体と製品
  6
Continuous
 62
     3
100
AcDbLine
 10
1049.972357523809
 20
2043.58720500426
 30
0.0
 11
1055.771180523809
 21
2043.58720500426
 31
0.0
  0
LINE
  5
578A
330
1E
100
AcDbEntity
  8
躯体と製品
  6
Continuous
 62
     3
100
AcDbLine
 10
1068.171182523809
 20
2044.247205004261
 30
0.0
 11
1068.171182523809
 21
2027.247204004261
 31
0.0
  0
LINE
  5
578B
330
1E
100
AcDbEntity
  8
躯体と製品
  6
Continuous
 62
     3
100
AcDbLine
 10
1073.671181523809
 20
2042.34720300426
 30
0.0
 11
1072.970006523809
 21
2043.58720500426
 31
0.0
  0
LINE
  5
578C
330
1E
100
AcDbEntity
  8
躯体と製品
  6
Continuous
 62
     4
100
AcDbLine
 10
1066.571180523808
 20
2014.99396200426
 30
0.0
 11
1066.571180523808
 21
2056.99396200426
 31
0.0
  0
LINE
  5
578D
330
1E
100
AcDbEntity
  8
躯体と製品
  6
Continuous
 62
     4
100
AcDbLine
 10
1067.371181523809
 20
2014.19396100426
 30
0.0
 11
1083.371180523809
 21
2014.19396100426
 31
0.0
  0
LINE
  5
578E
330
1E
100
AcDbEntity
  8
躯体と製品
  6
Continuous
 62
     3
100
AcDbLine
 10
1068.171182523809
 20
2027.247204004261
 30
0.0
 11
1066.571180523808
 21
2027.247204004261
 31
0.0
  0
ARC
  5
578F
330
1E
100
AcDbEntity
  8
躯体と製品
  6
Continuous
 62
     4
100
AcDbCircle
 10
1067.371181523809
 20
2014.99396200426
 30
0.0
 40
0.8000009999999999
100
AcDbArc
 50
180.0
 51
270.0
  0
LINE
  5
5790
330
1E
100
AcDbEntity
  8
躯体と製品
  6
Continuous
 62
     3
100
AcDbLine
 10
1072.970006523809
 20
2039.74720500426
 30
0.0
 11
1068.171182523809
 21
2039.74720500426
 31
0.0
  0
LINE
  5
5791
330
1E
100
AcDbEntity
  8
躯体と製品
  6
Continuous
 62
     3
100
AcDbLine
 10
1072.970006523809
 20
2031.74720400426
 30
0.0
 11
1068.171182523809
 21
2031.74720400426
 31
0.0
  0
LINE
  5
5792
330
1E
100
AcDbEntity
  8
躯体と製品
  6
Continuous
 62
     3
100
AcDbLine
 10
1072.955267523809
 20
2027.90720400426
 30
0.0
 11
1068.171182523809
 21
2027.90720400426
 31
0.0
  0
ARC
  5
5793
330
1E
100
AcDbEntity
  8
躯体と製品
  6
Continuous
 62
     3
100
AcDbCircle
 10
1061.911181523809
 20
2035.74720300426
 30
0.0
 40
11.76
100
AcDbArc
 50
340.1148369999995
 51
19.8851630000005
  0
ARC
  5
5794
330
1E
100
AcDbEntity
  8
躯体と製品
  6
Continuous
 62
     3
100
AcDbCircle
 10
1070.738015523809
 20
2041.74368100426
 30
0.0
 40
2.994614999999999
100
AcDbArc
 50
318.1879280000003
 51
348.3732049999998
  0
ARC
  5
5795
330
1E
100
AcDbEntity
  8
躯体と製品
  6
Continuous
 62
     3
100
AcDbCircle
 10
1070.738015523809
 20
2029.75072800426
 30
0.0
 40
2.994614999999999
100
AcDbArc
 50
11.6267950000002
 51
41.81207199999962
  0
LINE
  5
5796
330
1E
100
AcDbEntity
  8
躯体と製品
  6
Continuous
 62
     3
100
AcDbLine
 10
1072.955267523809
 20
2027.90720400426
 30
0.0
 11
1073.671181523809
 21
2029.14720300426
 31
0.0
  0
LINE
  5
5797
330
1E
100
AcDbEntity
  8
躯体と製品
  6
Continuous
 62
     3
100
AcDbLine
 10
1073.671181523809
 20
2029.14720300426
 30
0.0
 11
1073.671181523809
 21
2042.34720300426
 31
0.0
  0
ARC
  5
5798
330
1E
100
AcDbEntity
  8
躯体と製品
  6
Continuous
 62
     4
100
AcDbCircle
 10
1065.871181523809
 20
2058.49396200426
 30
0.0
 40
2.499998999999999
100
AcDbArc
 50
90.0
 51
180.0
  0
LINE
  5
5799
330
1E
100
AcDbEntity
  8
躯体と製品
  6
Continuous
 62
     3
100
AcDbLine
 10
1072.970006523809
 20
2043.58720500426
 30
0.0
 11
1068.171182523809
 21
2043.58720500426
 31
0.0
  0
LINE
  5
579A
330
1E
100
AcDbEntity
  8
躯体と製品
  6
Continuous
 62
     3
100
AcDbLine
 10
1066.571180523808
 20
2044.247205004261
 30
0.0
 11
1068.171182523809
 21
2044.247205004261
 31
0.0
  0
ARC
  5
579B
330
1E
100
AcDbEntity
  8
躯体と製品
  6
Continuous
 62
     4
100
AcDbCircle
 10
1067.371181523809
 20
2056.99396200426
 30
0.0
 40
0.8000009999999999
100
AcDbArc
 50
90.0
 51
180.0
  0
LINE
  5
579C
330
1E
100
AcDbEntity
  8
躯体と製品
  6
Continuous
 62
     4
100
AcDbLine
 10
1143.371180523809
 20
2014.19396100426
 30
0.0
 11
1143.371180523809
 21
2010.99396000426
 31
0.0
  0
ARC
  5
579D
330
1E
100
AcDbEntity
  8
躯体と製品
  6
Continuous
 62
     4
100
AcDbCircle
 10
1160.871182523808
 20
2013.49396200426
 30
0.0
 40
2.499998999999999
100
AcDbArc
 50
270.0
 51
0.0
  0
LINE
  5
579E
330
1E
100
AcDbEntity
  8
躯体と製品
  6
Continuous
 62
     4
100
AcDbLine
 10
1160.871182523808
 20
2010.99396000426
 30
0.0
 11
1143.371180523809
 21
2010.99396000426
 31
0.0
  0
LINE
  5
57A2
330
1E
100
AcDbEntity
  8
躯体と製品
  6
Continuous
 62
     4
100
AcDbLine
 10
1159.371182523809
 20
2014.19396100426
 30
0.0
 11
1143.371180523809
 21
2014.19396100426
 31
0.0
  0
LINE
  5
57A3
330
1E
100
AcDbEntity
  8
躯体と製品
  6
Continuous
 62
     4
100
AcDbLine
 10
1172.871182523809
 20
2064.99396000426
 30
0.0
 11
1136.371181523809
 21
2064.99396000426
 31
0.0
  0
ARC
  5
57A4
330
1E
100
AcDbEntity
  8
躯体と製品
  6
Continuous
 62
     3
100
AcDbCircle
 10
1133.341097523809
 20
2059.36271100426
 30
0.0
 40
4.25679
100
AcDbArc
 50
85.98042700000057
 51
154.9506630000011
  0
ARC
  5
57A5
330
1E
100
AcDbEntity
  8
躯体と製品
  6
Continuous
 62
     4
100
AcDbCircle
 10
1136.371181523809
 20
2061.99396000426
 30
0.0
 40
3.0
100
AcDbArc
 50
90.0
 51
180.0
  0
LINE
  5
57A6
330
1E
100
AcDbEntity
  8
躯体と製品
  6
Continuous
 62
     4
100
AcDbLine
 10
1133.371181523809
 20
2061.99396000426
 30
0.0
 11
1133.371181523809
 21
2060.99396100426
 31
0.0
  0
LINE
  5
57A7
330
1E
100
AcDbEntity
  8
躯体と製品
  6
Continuous
 62
     4
100
AcDbLine
 10
1160.171180523809
 20
2014.99396200426
 30
0.0
 11
1160.171180523809
 21
2056.99396200426
 31
0.0
  0
LINE
  5
57A8
330
1E
100
AcDbEntity
  8
躯体と製品
  6
Continuous
 62
     4
100
AcDbLine
 10
1163.371181523809
 20
2057.99396100426
 30
0.0
 11
1163.371181523809
 21
2013.49396200426
 31
0.0
  0
ARC
  5
57A9
330
1E
100
AcDbEntity
  8
躯体と製品
  6
Continuous
 62
     4
100
AcDbCircle
 10
1159.371182523809
 20
2014.99396200426
 30
0.0
 40
0.8000009999999999
100
AcDbArc
 50
270.0
 51
0.0
  0
ARC
  5
57AA
330
1E
100
AcDbEntity
  8
躯体と製品
  6
Continuous
 62
     4
100
AcDbCircle
 10
1172.871182523809
 20
2071.49396100426
 30
0.0
 40
6.500000999999999
100
AcDbArc
 50
270.0
 51
0.0
  0
ARC
  5
57AB
330
1E
100
AcDbEntity
  8
躯体と製品
  6
Continuous
 62
     4
100
AcDbCircle
 10
1160.371181523809
 20
2057.99396100426
 30
0.0
 40
3.0
100
AcDbArc
 50
0.0
 51
90.0
  0
ARC
  5
57AC
330
1E
100
AcDbEntity
  8
躯体と製品
  6
Continuous
 62
     4
100
AcDbCircle
 10
1159.371182523809
 20
2056.99396200426
 30
0.0
 40
0.8000009999999999
100
AcDbArc
 50
0.0
 51
90.0
  0
ARC
  5
57AD
330
1E
100
AcDbEntity
  8
躯体と製品
  6
Continuous
 62
     3
100
AcDbCircle
 10
1184.286644523809
 20
2060.96317800426
 30
0.0
 40
3.907208999999999
100
AcDbArc
 50
178.0862399999997
 51
250.9308060000013
  0
LINE
  5
57AE
330
1E
100
AcDbEntity
  8
躯体と製品
  6
Continuous
 62
     3
100
AcDbLine
 10
1024.653929523809
 20
2127.97453500426
 30
0.0
 11
1024.653929523809
 21
2133.974535004261
 31
0.0
  0
LINE
  5
57AF
330
1E
100
AcDbEntity
  8
躯体と製品
  6
Continuous
 62
     3
100
AcDbLine
 10
1025.153930523809
 20
2133.47453400426
 30
0.0
 11
1024.653929523809
 21
2133.974535004261
 31
0.0
  0
LINE
  5
57B0
330
1E
100
AcDbEntity
  8
躯体と製品
  6
Continuous
 62
     3
100
AcDbLine
 10
1025.153930523809
 20
2128.47453600426
 30
0.0
 11
1025.153930523809
 21
2133.47453400426
 31
0.0
  0
LINE
  5
57B1
330
1E
100
AcDbEntity
  8
躯体と製品
  6
Continuous
 62
     3
100
AcDbLine
 10
1024.653929523809
 20
2127.97453500426
 30
0.0
 11
1025.153930523809
 21
2128.47453600426
 31
0.0
  0
ARC
  5
57B2
330
1E
100
AcDbEntity
  8
躯体と製品
  6
Continuous
 62
     3
100
AcDbCircle
 10
1183.239587523809
 20
2111.35601100426
 30
0.0
 40
2.851659
100
AcDbArc
 50
86.20569899999855
 51
200.0545059999998
  0
LINE
  5
57B3
330
1E
100
AcDbEntity
  8
躯体と製品
  6
Continuous
 62
     3
100
AcDbLine
 10
1182.371180523809
 20
2110.99396200426
 30
0.0
 11
1183.371182523809
 21
2110.99396200426
 31
0.0
  0
ARC
  5
57B4
330
1E
100
AcDbEntity
  8
躯体と製品
  6
Continuous
 62
     4
100
AcDbCircle
 10
1182.371180523809
 20
2107.99396200426
 30
0.0
 40
3.0
100
AcDbArc
 50
90.0
 51
180.0
  0
LINE
  5
57B5
330
1E
100
AcDbEntity
  8
躯体と製品
  6
Continuous
 62
     4
100
AcDbLine
 10
1183.371182523809
 20
2160.70658700426
 30
0.0
 11
1193.371181523809
 21
2160.70658700426
 31
0.0
  0
LINE
  5
57C3
330
1E
100
AcDbEntity
  8
躯体と製品
  6
Continuous
 62
     4
100
AcDbLine
 10
1527.097064523809
 20
2039.26738500426
 30
0.0
 11
1527.097064523809
 21
1940.26738800426
 31
0.0
  0
LINE
  5
57C4
330
1E
100
AcDbEntity
  8
躯体と製品
  6
PLINE2
 62
     3
100
AcDbLine
 10
1462.997066523809
 20
1964.56738800426
 30
0.0
 11
1462.997066523809
 21
1945.96738800426
 31
0.0
  0
LINE
  5
57C5
330
1E
100
AcDbEntity
  8
躯体と製品
  6
PLINE2
 62
     3
100
AcDbLine
 10
1464.597065523809
 20
1945.76739000426
 30
0.0
 11
1464.597065523809
 21
1964.767389004261
 31
0.0
  0
LINE
  5
57C6
330
1E
100
AcDbEntity
  8
躯体と製品
  6
Continuous
 62
     4
100
AcDbLine
 10
1467.097064523809
 20
1974.76738800426
 30
0.0
 11
1467.097064523809
 21
1925.26738800426
 31
0.0
  0
LINE
  5
57C7
330
1E
100
AcDbEntity
  8
躯体と製品
  6
Continuous
 62
     4
100
AcDbLine
 10
1471.097066523809
 20
1934.26738800426
 30
0.0
 11
1471.097066523809
 21
1974.76738800426
 31
0.0
  0
ARC
  5
57C8
330
1E
100
AcDbEntity
  8
躯体と製品
  6
Continuous
 62
     3
100
AcDbCircle
 10
1599.279428523809
 20
1947.41099700426
 30
0.0
 40
4.611188999999999
100
AcDbArc
 50
137.0562530000008
 51
247.8524459999999
  0
ARC
  5
57C9
330
1E
100
AcDbEntity
  8
躯体と製品
  6
Continuous
 62
     3
100
AcDbCircle
 10
1645.624940523809
 20
1945.68023400426
 30
0.0
 40
4.568096999999999
100
AcDbArc
 50
292.0090890000009
 51
50.72930699999884
  0
LINE
  5
57CA
330
1E
100
AcDbEntity
  8
躯体と製品
  6
Continuous
 62
     4
100
AcDbLine
 10
1467.097064523809
 20
2093.19632100426
 30
0.0
 11
1467.097064523809
 21
1683.83328900426
 31
0.0
  0
LINE
  5
57CB
330
1E
100
AcDbEntity
  8
躯体と製品
  6
PLINE2
 62
     3
100
AcDbLine
 10
1465.516118523809
 20
2094.77727000426
 30
0.0
 11
1465.516118523809
 21
1683.83328900426
 31
0.0
  0
LINE
  5
57CC
330
1E
100
AcDbEntity
  8
躯体と製品
  6
Continuous
 62
     4
100
AcDbLine
 10
1452.097064523809
 20
2108.19632100426
 30
0.0
 11
1452.097064523809
 21
1683.83328900426
 31
0.0
  0
LINE
  5
57CD
330
1E
100
AcDbEntity
  8
躯体と製品
  6
Continuous
 62
     4
100
AcDbLine
 10
1647.097064523809
 20
1990.267389004261
 30
0.0
 11
1647.097064523809
 21
1770.26739000426
 31
0.0
  0
LINE
  5
57CE
330
1E
100
AcDbEntity
  8
躯体と製品
  6
Continuous
 62
     4
100
AcDbLine
 10
1597.097066523809
 20
1840.26738900426
 30
0.0
 11
1597.097066523809
 21
1990.267389004261
 31
0.0
  0
LINE
  5
57CF
330
1E
100
AcDbEntity
  8
躯体と製品
  6
Continuous
 62
     4
100
AcDbLine
 10
1643.097065523809
 20
1990.267389004261
 30
0.0
 11
1643.097065523809
 21
1840.26738900426
 31
0.0
  0
LINE
  5
57D0
330
1E
100
AcDbEntity
  8
躯体と製品
  6
Continuous
 62
     4
100
AcDbLine
 10
1407.097064523809
 20
1683.83328900426
 30
0.0
 11
1407.097064523809
 21
2153.19632100426
 31
0.0
  0
LINE
  5
57D1
330
1E
100
AcDbEntity
  8
躯体と製品
  6
PLINE2
 62
     3
100
AcDbLine
 10
1527.097064523809
 20
1943.46738900426
 30
0.0
 11
1859.902655523809
 21
1943.46738900426
 31
0.0
  0
LINE
  5
57D2
330
1E
100
AcDbEntity
  8
躯体と製品
  6
Continuous
 62
     4
100
AcDbLine
 10
1776.097064523809
 20
1848.76738800426
 30
0.0
 11
1668.097064523809
 21
1848.76738800426
 31
0.0
  0
LINE
  5
57D3
330
1E
100
AcDbEntity
  8
躯体と製品
  6
Continuous
 62
     4
100
AcDbLine
 10
1647.097064523809
 20
1940.26738800426
 30
0.0
 11
1859.902655523809
 21
1940.26738800426
 31
0.0
  0
LINE
  5
57D4
330
1E
100
AcDbEntity
  8
躯体と製品
  6
Continuous
 62
     4
100
AcDbLine
 10
1776.097064523809
 20
1841.76738900426
 30
0.0
 11
1668.097064523809
 21
1841.76738900426
 31
0.0
  0
LINE
  5
57D5
330
1E
100
AcDbEntity
  8
躯体と製品
  6
PLINE2
 62
     3
100
AcDbLine
 10
1530.297065523809
 20
1931.26738800426
 30
0.0
 11
1530.297065523809
 21
1683.83328900426
 31
0.0
  0
LINE
  5
57D6
330
1E
100
AcDbEntity
  8
躯体と製品
  6
PLINE2
 62
     3
100
AcDbLine
 10
1623.897065523809
 20
1931.26738800426
 30
0.0
 11
1623.897065523809
 21
1683.83328900426
 31
0.0
  0
LINE
  5
57D7
330
1E
100
AcDbEntity
  8
躯体と製品
  6
Continuous
 62
     4
100
AcDbLine
 10
1527.097064523809
 20
1931.26738800426
 30
0.0
 11
1527.097064523809
 21
1683.83328900426
 31
0.0
  0
LINE
  5
57D8
330
1E
100
AcDbEntity
  8
躯体と製品
  6
Continuous
 62
     4
100
AcDbLine
 10
1627.097066523809
 20
1683.83328900426
 30
0.0
 11
1627.097066523809
 21
1840.26738900426
 31
0.0
  0
LINE
  5
57DE
330
1E
100
AcDbEntity
  8
躯体と製品
  6
Continuous
 62
     4
100
AcDbLine
 10
1527.097064523809
 20
1931.26738800426
 30
0.0
 11
1597.097066523809
 21
1931.26738800426
 31
0.0
  0
LINE
  5
57DF
330
1E
100
AcDbEntity
  8
躯体と製品
  6
Continuous
 62
     4
100
AcDbLine
 10
1527.097064523809
 20
1940.26738800426
 30
0.0
 11
1597.097066523809
 21
1940.26738800426
 31
0.0
  0
LINE
  5
57E2
330
1E
100
AcDbEntity
  8
躯体と製品
  6
Continuous
 62
     4
100
AcDbLine
 10
1467.097064523809
 20
1831.20282000426
 30
0.0
 11
1467.097064523809
 21
1781.70282000426
 31
0.0
  0
LINE
  5
57E3
330
1E
100
AcDbEntity
  8
躯体と製品
  6
Continuous
 62
     4
100
AcDbLine
 10
1471.097066523809
 20
1790.70282000426
 30
0.0
 11
1471.097066523809
 21
1831.20282000426
 31
0.0
  0
ARC
  5
57E4
330
1E
100
AcDbEntity
  8
躯体と製品
  6
PLINE2
 62
     3
100
AcDbCircle
 10
1461.597065523809
 20
1821.20281800426
 30
0.0
 40
3.0
100
AcDbArc
 50
0.0
 51
90.0
  0
ARC
  5
57E5
330
1E
100
AcDbEntity
  8
躯体と製品
  6
PLINE2
 62
     3
100
AcDbCircle
 10
1461.397064523809
 20
1821.00282000426
 30
0.0
 40
1.599998999999999
100
AcDbArc
 50
0.0
 51
90.0
  0
LINE
  5
57E6
330
1E
100
AcDbEntity
  8
躯体と製品
  6
Continuous
 62
     3
100
AcDbLine
 10
1472.697065523808
 20
1817.95281900426
 30
0.0
 11
1471.097066523809
 21
1817.95281900426
 31
0.0
  0
LINE
  5
57E7
330
1E
100
AcDbEntity
  8
躯体と製品
  6
Continuous
 62
     3
100
AcDbLine
 10
1472.697065523808
 20
1805.45281800426
 30
0.0
 11
1471.097066523809
 21
1805.45281800426
 31
0.0
  0
LINE
  5
57E8
330
1E
100
AcDbEntity
  8
躯体と製品
  6
Continuous
 62
     4
100
AcDbLine
 10
1516.597064523809
 20
1781.70282000426
 30
0.0
 11
1467.097064523809
 21
1781.70282000426
 31
0.0
  0
ARC
  5
57E9
330
1E
100
AcDbEntity
  8
躯体と製品
  6
Continuous
 62
     4
100
AcDbCircle
 10
1476.097064523809
 20
1790.70282000426
 30
0.0
 40
5.000000999999999
100
AcDbArc
 50
180.0
 51
270.0
  0
LINE
  5
57ED
330
1E
100
AcDbEntity
  8
躯体と製品
  6
Continuous
 62
     3
100
AcDbLine
 10
1407.097064523809
 20
1714.86228600426
 30
0.0
 11
1407.097064523809
 21
1714.86228600426
 31
0.0
  0
LINE
  5
57F1
330
1E
100
AcDbEntity
  8
躯体と製品
  6
PLINE2
 62
     3
100
AcDbLine
 10
1462.997066523809
 20
1821.00282000426
 30
0.0
 11
1462.997066523809
 21
1802.40282000426
 31
0.0
  0
LINE
  5
57F2
330
1E
100
AcDbEntity
  8
躯体と製品
  6
PLINE2
 62
     3
100
AcDbLine
 10
1467.097064523809
 20
1805.70282000426
 30
0.0
 11
1467.097064523809
 21
1817.70282000426
 31
0.0
  0
LINE
  5
57F3
330
1E
100
AcDbEntity
  8
躯体と製品
  6
PLINE2
 62
     3
100
AcDbLine
 10
1464.597065523809
 20
1802.20281900426
 30
0.0
 11
1464.597065523809
 21
1821.20281800426
 31
0.0
  0
LINE
  5
57F4
330
1E
100
AcDbEntity
  8
躯体と製品
  6
PLINE2
 62
     3
100
AcDbLine
 10
1461.597065523809
 20
1799.20281900426
 30
0.0
 11
1459.097066523809
 21
1799.20281900426
 31
0.0
  0
LINE
  5
57F5
330
1E
100
AcDbEntity
  8
躯体と製品
  6
PLINE2
 62
     3
100
AcDbLine
 10
1461.397064523809
 20
1800.80281800426
 30
0.0
 11
1459.097066523809
 21
1800.80281800426
 31
0.0
  0
LINE
  5
57F6
330
1E
100
AcDbEntity
  8
躯体と製品
  6
PLINE2
 62
     3
100
AcDbLine
 10
1459.097066523809
 20
1799.20281900426
 30
0.0
 11
1459.097066523809
 21
1800.80281800426
 31
0.0
  0
ARC
  5
57F7
330
1E
100
AcDbEntity
  8
躯体と製品
  6
PLINE2
 62
     3
100
AcDbCircle
 10
1461.597065523809
 20
1802.20281900426
 30
0.0
 40
3.0
100
AcDbArc
 50
270.0
 51
0.0
  0
ARC
  5
57F8
330
1E
100
AcDbEntity
  8
躯体と製品
  6
PLINE2
 62
     3
100
AcDbCircle
 10
1461.397064523809
 20
1802.40282000426
 30
0.0
 40
1.599998999999999
100
AcDbArc
 50
270.0
 51
0.0
  0
LINE
  5
57F9
330
1E
100
AcDbEntity
  8
躯体と製品
  6
PLINE2
 62
     3
100
AcDbLine
 10
1464.597065523809
 20
1805.70282000426
 30
0.0
 11
1467.097064523809
 21
1805.70282000426
 31
0.0
  0
LINE
  5
57FA
330
1E
100
AcDbEntity
  8
躯体と製品
  6
PLINE2
 62
     3
100
AcDbLine
 10
1467.097064523809
 20
1814.70282000426
 30
0.0
 11
1471.097066523809
 21
1814.70282000426
 31
0.0
  0
LINE
  5
57FB
330
1E
100
AcDbEntity
  8
躯体と製品
  6
PLINE2
 62
     3
100
AcDbLine
 10
1467.097064523809
 20
1817.70282000426
 30
0.0
 11
1464.597065523809
 21
1817.70282000426
 31
0.0
  0
LINE
  5
57FC
330
1E
100
AcDbEntity
  8
躯体と製品
  6
PLINE2
 62
     3
100
AcDbLine
 10
1471.097066523809
 20
1808.70282000426
 30
0.0
 11
1467.097064523809
 21
1808.70282000426
 31
0.0
  0
LINE
  5
57FD
330
1E
100
AcDbEntity
  8
躯体と製品
  6
Continuous
 62
     3
100
AcDbLine
 10
1523.097065523809
 20
1760.20281900426
 30
0.0
 11
1523.097065523809
 21
1743.20281800426
 31
0.0
  0
LINE
  5
57FE
330
1E
100
AcDbEntity
  8
躯体と製品
  6
Continuous
 62
     3
100
AcDbLine
 10
1521.497066523808
 20
1760.20281900426
 30
0.0
 11
1521.497066523808
 21
1743.20281800426
 31
0.0
  0
LINE
  5
57FF
330
1E
100
AcDbEntity
  8
躯体と製品
  6
Continuous
 62
     3
100
AcDbLine
 10
1519.497065523809
 20
1743.86281800426
 30
0.0
 11
1519.497065523809
 21
1759.54281900426
 31
0.0
  0
LINE
  5
5800
330
1E
100
AcDbEntity
  8
躯体と製品
  6
Continuous
 62
     3
100
AcDbLine
 10
1512.997064523809
 20
1758.30282000426
 30
0.0
 11
1513.698242523808
 21
1759.54281900426
 31
0.0
  0
LINE
  5
5801
330
1E
100
AcDbEntity
  8
躯体と製品
  6
Continuous
 62
     3
100
AcDbLine
 10
1530.297065523809
 20
1760.20281900426
 30
0.0
 11
1530.297065523809
 21
1743.20281800426
 31
0.0
  0
LINE
  5
5802
330
1E
100
AcDbEntity
  8
躯体と製品
  6
Continuous
 62
     3
100
AcDbLine
 10
1531.897064523809
 20
1760.20281900426
 30
0.0
 11
1531.897064523809
 21
1743.20281800426
 31
0.0
  0
LINE
  5
5803
330
1E
100
AcDbEntity
  8
躯体と製品
  6
Continuous
 62
     3
100
AcDbLine
 10
1537.397066523809
 20
1758.30282000426
 30
0.0
 11
1536.695891523809
 21
1759.54281900426
 31
0.0
  0
LINE
  5
5804
330
1E
100
AcDbEntity
  8
躯体と製品
  6
Continuous
 62
     4
100
AcDbLine
 10
1523.097065523809
 20
1771.20282000426
 30
0.0
 11
1523.097065523809
 21
1734.70281900426
 31
0.0
  0
LINE
  5
5805
330
1E
100
AcDbEntity
  8
躯体と製品
  6
Continuous
 62
     3
100
AcDbLine
 10
1519.497065523809
 20
1755.70281900426
 30
0.0
 11
1513.698242523808
 21
1755.70281900426
 31
0.0
  0
LINE
  5
5806
330
1E
100
AcDbEntity
  8
躯体と製品
  6
Continuous
 62
     3
100
AcDbLine
 10
1513.698242523808
 20
1747.70281800426
 30
0.0
 11
1519.497065523809
 21
1747.70281800426
 31
0.0
  0
LINE
  5
5807
330
1E
100
AcDbEntity
  8
躯体と製品
  6
Continuous
 62
     3
100
AcDbLine
 10
1519.497065523809
 20
1743.86281800426
 30
0.0
 11
1513.768475523808
 21
1743.86281800426
 31
0.0
  0
LINE
  5
5809
330
1E
100
AcDbEntity
  8
躯体と製品
  6
Continuous
 62
     3
100
AcDbLine
 10
1506.697064523809
 20
1755.05322000426
 30
0.0
 11
1507.346666523809
 21
1755.70281900426
 31
0.0
  0
LINE
  5
580A
330
1E
100
AcDbEntity
  8
躯体と製品
  6
Continuous
 62
     3
100
AcDbLine
 10
1507.346666523809
 20
1747.70281800426
 30
0.0
 11
1506.697064523809
 21
1748.35242000426
 31
0.0
  0
LINE
  5
580B
330
1E
100
AcDbEntity
  8
躯体と製品
  6
Continuous
 62
     3
100
AcDbLine
 10
1506.697064523809
 20
1755.05349000426
 30
0.0
 11
1506.697064523809
 21
1748.35242000426
 31
0.0
  0
LINE
  5
580C
330
1E
100
AcDbEntity
  8
躯体と製品
  6
Continuous
 62
     3
100
AcDbLine
 10
1507.346666523809
 20
1747.70281800426
 30
0.0
 11
1512.997064523809
 21
1747.70281800426
 31
0.0
  0
LINE
  5
580D
330
1E
100
AcDbEntity
  8
躯体と製品
  6
Continuous
 62
     3
100
AcDbLine
 10
1507.346666523809
 20
1755.70281900426
 30
0.0
 11
1512.997064523809
 21
1755.70281900426
 31
0.0
  0
ARC
  5
580E
330
1E
100
AcDbEntity
  8
躯体と製品
  6
Continuous
 62
     3
100
AcDbCircle
 10
1515.930233523809
 20
1745.70634200426
 30
0.0
 40
2.994614999999999
100
AcDbArc
 50
138.1879280000004
 51
168.3732049999998
  0
ARC
  5
580F
330
1E
100
AcDbEntity
  8
躯体と製品
  6
Continuous
 62
     3
100
AcDbCircle
 10
1515.930233523809
 20
1757.69929500426
 30
0.0
 40
2.994614999999999
100
AcDbArc
 50
191.6267950000001
 51
221.8120719999996
  0
ARC
  5
5810
330
1E
100
AcDbEntity
  8
躯体と製品
  6
Continuous
 62
     3
100
AcDbCircle
 10
1524.757064523809
 20
1751.70282000426
 30
0.0
 40
11.76
100
AcDbArc
 50
160.1148369999995
 51
199.8851630000005
  0
LINE
  5
5811
330
1E
100
AcDbEntity
  8
躯体と製品
  6
Continuous
 62
     3
100
AcDbLine
 10
1512.997064523809
 20
1745.10282000426
 30
0.0
 11
1513.712981523809
 21
1743.86281800426
 31
0.0
  0
LINE
  5
5812
330
1E
100
AcDbEntity
  8
躯体と製品
  6
Continuous
 62
     3
100
AcDbLine
 10
1512.997064523809
 20
1758.30282000426
 30
0.0
 11
1512.997064523809
 21
1745.10282000426
 31
0.0
  0
LINE
  5
5815
330
1E
100
AcDbEntity
  8
躯体と製品
  6
Continuous
 62
     4
100
AcDbLine
 10
1526.097065523809
 20
1731.70281900426
 30
0.0
 11
1527.097064523809
 21
1731.70281900426
 31
0.0
  0
ARC
  5
5816
330
1E
100
AcDbEntity
  8
躯体と製品
  6
Continuous
 62
     4
100
AcDbCircle
 10
1526.097065523809
 20
1734.70281900426
 30
0.0
 40
3.0
100
AcDbArc
 50
180.0
 51
270.0
  0
LINE
  5
5817
330
1E
100
AcDbEntity
  8
躯体と製品
  6
Continuous
 62
     3
100
AcDbLine
 10
1523.097065523809
 20
1743.20281800426
 30
0.0
 11
1521.497066523808
 21
1743.20281800426
 31
0.0
  0
LINE
  5
5818
330
1E
100
AcDbEntity
  8
躯体と製品
  6
Continuous
 62
     3
100
AcDbLine
 10
1521.497066523808
 20
1751.70282000426
 30
0.0
 11
1519.497065523809
 21
1749.70281900426
 31
0.0
  0
LINE
  5
5819
330
1E
100
AcDbEntity
  8
躯体と製品
  6
Continuous
 62
     3
100
AcDbLine
 10
1519.497065523809
 20
1751.70282000426
 30
0.0
 11
1521.497066523808
 21
1753.70281800426
 31
0.0
  0
LINE
  5
581A
330
1E
100
AcDbEntity
  8
躯体と製品
  6
Continuous
 62
     3
100
AcDbLine
 10
1519.497065523809
 20
1744.00281900426
 30
0.0
 11
1521.497066523808
 21
1744.00281900426
 31
0.0
  0
LINE
  5
581B
330
1E
100
AcDbEntity
  8
躯体と製品
  6
Continuous
 62
     3
100
AcDbLine
 10
1531.897064523809
 20
1743.20281800426
 30
0.0
 11
1530.297065523809
 21
1743.20281800426
 31
0.0
  0
ARC
  5
581C
330
1E
100
AcDbEntity
  8
躯体と製品
  6
Continuous
 62
     3
100
AcDbCircle
 10
1525.637066523809
 20
1751.70282000426
 30
0.0
 40
11.76
100
AcDbArc
 50
340.1148369999995
 51
19.8851630000005
  0
ARC
  5
581D
330
1E
100
AcDbEntity
  8
躯体と製品
  6
Continuous
 62
     3
100
AcDbCircle
 10
1534.463897523808
 20
1757.69929500426
 30
0.0
 40
2.994614999999999
100
AcDbArc
 50
318.1879280000003
 51
348.3732049999998
  0
ARC
  5
581E
330
1E
100
AcDbEntity
  8
躯体と製品
  6
Continuous
 62
     3
100
AcDbCircle
 10
1534.463897523808
 20
1745.70634200426
 30
0.0
 40
2.994614999999999
100
AcDbArc
 50
11.6267950000002
 51
41.81207199999962
  0
LINE
  5
581F
330
1E
100
AcDbEntity
  8
躯体と製品
  6
Continuous
 62
     3
100
AcDbLine
 10
1536.681152523809
 20
1743.86281800426
 30
0.0
 11
1537.397066523809
 21
1745.10282000426
 31
0.0
  0
LINE
  5
5820
330
1E
100
AcDbEntity
  8
躯体と製品
  6
Continuous
 62
     3
100
AcDbLine
 10
1537.397066523809
 20
1745.10282000426
 30
0.0
 11
1537.397066523809
 21
1758.30282000426
 31
0.0
  0
LINE
  5
5821
330
1E
100
AcDbEntity
  8
躯体と製品
  6
Continuous
 62
     3
100
AcDbLine
 10
1536.695891523809
 20
1755.70281900426
 30
0.0
 11
1531.897064523809
 21
1755.70281900426
 31
0.0
  0
LINE
  5
5822
330
1E
100
AcDbEntity
  8
躯体と製品
  6
Continuous
 62
     3
100
AcDbLine
 10
1536.695891523809
 20
1747.70281800426
 30
0.0
 11
1531.897064523809
 21
1747.70281800426
 31
0.0
  0
LINE
  5
5823
330
1E
100
AcDbEntity
  8
躯体と製品
  6
Continuous
 62
     3
100
AcDbLine
 10
1536.681152523809
 20
1743.86281800426
 30
0.0
 11
1531.897064523809
 21
1743.86281800426
 31
0.0
  0
LINE
  5
5824
330
1E
100
AcDbEntity
  8
躯体と製品
  6
Continuous
 62
     3
100
AcDbLine
 10
1513.753736523809
 20
1759.54281900426
 30
0.0
 11
1519.497065523809
 21
1759.54281900426
 31
0.0
  0
LINE
  5
5825
330
1E
100
AcDbEntity
  8
躯体と製品
  6
Continuous
 62
     4
100
AcDbLine
 10
1477.097066523809
 20
1781.70282000426
 30
0.0
 11
1527.097064523809
 21
1781.70282000426
 31
0.0
  0
ARC
  5
5826
330
1E
100
AcDbEntity
  8
躯体と製品
  6
Continuous
 62
     4
100
AcDbCircle
 10
1516.597064523809
 20
1771.20282000426
 30
0.0
 40
6.500000999999999
100
AcDbArc
 50
0.0
 51
90.0
  0
LINE
  5
5827
330
1E
100
AcDbEntity
  8
躯体と製品
  6
Continuous
 62
     3
100
AcDbLine
 10
1501.097066523809
 20
1792.10164200426
 30
0.0
 11
1501.097066523809
 21
1787.20281900426
 31
0.0
  0
LINE
  5
5828
330
1E
100
AcDbEntity
  8
躯体と製品
  6
Continuous
 62
     3
100
AcDbLine
 10
1493.097065523809
 20
1792.10164200426
 30
0.0
 11
1493.097065523809
 21
1787.20281900426
 31
0.0
  0
LINE
  5
5829
330
1E
100
AcDbEntity
  8
躯体と製品
  6
Continuous
 62
     3
100
AcDbLine
 10
1489.257065523809
 20
1792.08690300426
 30
0.0
 11
1489.257065523809
 21
1787.20281900426
 31
0.0
  0
LINE
  5
582A
330
1E
100
AcDbEntity
  8
躯体と製品
  6
Continuous
 62
     3
100
AcDbLine
 10
1504.937066523809
 20
1792.10164200426
 30
0.0
 11
1504.937066523809
 21
1787.20281900426
 31
0.0
  0
LINE
  5
582B
330
1E
100
AcDbEntity
  8
躯体と製品
  6
Continuous
 62
     3
100
AcDbLine
 10
1505.597066523809
 20
1776.102819004259
 30
0.0
 11
1488.597065523809
 21
1776.102819004259
 31
0.0
  0
ARC
  5
582C
330
1E
100
AcDbEntity
  8
躯体と製品
  6
Continuous
 62
     3
100
AcDbCircle
 10
1497.097064523809
 20
1779.46281900426
 30
0.0
 40
11.76
100
AcDbArc
 50
250.114837000001
 51
289.885162999999
  0
LINE
  5
582D
330
1E
100
AcDbEntity
  8
躯体と製品
  6
Continuous
 62
     3
100
AcDbLine
 10
1504.937066523809
 20
1774.10281800426
 30
0.0
 11
1489.257065523809
 21
1774.10281800426
 31
0.0
  0
LINE
  5
582E
330
1E
100
AcDbEntity
  8
躯体と製品
  6
Continuous
 62
     3
100
AcDbLine
 10
1503.697064523809
 20
1767.70281900426
 30
0.0
 11
1490.497064523809
 21
1767.70281900426
 31
0.0
  0
LINE
  5
582F
330
1E
100
AcDbEntity
  8
躯体と製品
  6
Continuous
 62
     3
100
AcDbLine
 10
1495.097066523809
 20
1776.102819004259
 30
0.0
 11
1497.097064523809
 21
1774.10281800426
 31
0.0
  0
LINE
  5
5830
330
1E
100
AcDbEntity
  8
躯体と製品
  6
Continuous
 62
     3
100
AcDbLine
 10
1500.447464523809
 20
1762.302819004261
 30
0.0
 11
1493.746664523809
 21
1762.302819004261
 31
0.0
  0
LINE
  5
5831
330
1E
100
AcDbEntity
  8
躯体と製品
  6
Continuous
 62
     3
100
AcDbLine
 10
1488.597065523809
 20
1787.30281800426
 30
0.0
 11
1505.597066523809
 21
1787.30281800426
 31
0.0
  0
LINE
  5
5832
330
1E
100
AcDbEntity
  8
躯体と製品
  6
Continuous
 62
     4
100
AcDbLine
 10
1476.097064523809
 20
1785.70281900426
 30
0.0
 11
1516.597064523809
 21
1785.70281900426
 31
0.0
  0
LINE
  5
5833
330
1E
100
AcDbEntity
  8
躯体と製品
  6
Continuous
 62
     4
100
AcDbLine
 10
1516.597064523809
 20
1777.70281800426
 30
0.0
 11
1480.097066523809
 21
1777.70281800426
 31
0.0
  0
LINE
  5
5834
330
1E
100
AcDbEntity
  8
躯体と製品
  6
Continuous
 62
     3
100
AcDbLine
 10
1489.397066523809
 20
1776.102819004259
 30
0.0
 11
1489.397066523809
 21
1774.10281800426
 31
0.0
  0
LINE
  5
5835
330
1E
100
AcDbEntity
  8
躯体と製品
  6
Continuous
 62
     3
100
AcDbLine
 10
1490.497064523809
 20
1767.70281900426
 30
0.0
 11
1489.257065523809
 21
1768.40399400426
 31
0.0
  0
ARC
  5
5836
330
1E
100
AcDbEntity
  8
躯体と製品
  6
Continuous
 62
     3
100
AcDbCircle
 10
1491.100589523809
 20
1770.63598500426
 30
0.0
 40
2.994614999999999
100
AcDbArc
 50
281.6267949999989
 51
311.8120720000008
  0
LINE
  5
5837
330
1E
100
AcDbEntity
  8
躯体と製品
  6
Continuous
 62
     3
100
AcDbLine
 10
1493.097065523809
 20
1774.10281800426
 30
0.0
 11
1493.097065523809
 21
1768.40399400426
 31
0.0
  0
LINE
  5
5838
330
1E
100
AcDbEntity
  8
躯体と製品
  6
Continuous
 62
     3
100
AcDbLine
 10
1489.257065523809
 20
1768.40399400426
 30
0.0
 11
1489.257065523809
 21
1774.10281800426
 31
0.0
  0
LINE
  5
5839
330
1E
100
AcDbEntity
  8
躯体と製品
  6
Continuous
 62
     3
100
AcDbLine
 10
1493.097065523809
 20
1762.95241800426
 30
0.0
 11
1493.097065523809
 21
1767.70281900426
 31
0.0
  0
LINE
  5
583A
330
1E
100
AcDbEntity
  8
躯体と製品
  6
Continuous
 62
     3
100
AcDbLine
 10
1493.746664523809
 20
1762.302819004261
 30
0.0
 11
1493.097065523809
 21
1762.95241800426
 31
0.0
  0
LINE
  5
583B
330
1E
100
AcDbEntity
  8
躯体と製品
  6
Continuous
 62
     4
100
AcDbLine
 10
1477.097066523809
 20
1780.70281800426
 30
0.0
 11
1477.097066523809
 21
1781.70282000426
 31
0.0
  0
ARC
  5
583C
330
1E
100
AcDbEntity
  8
躯体と製品
  6
Continuous
 62
     4
100
AcDbCircle
 10
1480.097066523809
 20
1780.70281800426
 30
0.0
 40
3.0
100
AcDbArc
 50
180.0
 51
270.0
  0
LINE
  5
583D
330
1E
100
AcDbEntity
  8
躯体と製品
  6
Continuous
 62
     3
100
AcDbLine
 10
1488.597065523809
 20
1777.70281800426
 30
0.0
 11
1488.597065523809
 21
1776.102819004259
 31
0.0
  0
LINE
  5
583E
330
1E
100
AcDbEntity
  8
躯体と製品
  6
Continuous
 62
     3
100
AcDbLine
 10
1488.597065523809
 20
1785.70281900426
 30
0.0
 11
1488.597065523809
 21
1787.30281800426
 31
0.0
  0
LINE
  5
583F
330
1E
100
AcDbEntity
  8
躯体と製品
  6
Continuous
 62
     3
100
AcDbLine
 10
1499.097065523809
 20
1774.10281800426
 30
0.0
 11
1497.097064523809
 21
1776.102819004259
 31
0.0
  0
LINE
  5
5840
330
1E
100
AcDbEntity
  8
躯体と製品
  6
Continuous
 62
     3
100
AcDbLine
 10
1504.797065523809
 20
1776.102819004259
 30
0.0
 11
1504.797065523809
 21
1774.10281800426
 31
0.0
  0
ARC
  5
5841
330
1E
100
AcDbEntity
  8
躯体と製品
  6
Continuous
 62
     3
100
AcDbCircle
 10
1503.093542523809
 20
1770.63598500426
 30
0.0
 40
2.994614999999999
100
AcDbArc
 50
228.1879279999992
 51
258.3732050000011
  0
LINE
  5
5842
330
1E
100
AcDbEntity
  8
躯体と製品
  6
Continuous
 62
     3
100
AcDbLine
 10
1504.937066523809
 20
1774.10281800426
 30
0.0
 11
1504.937066523809
 21
1768.41873300426
 31
0.0
  0
LINE
  5
5843
330
1E
100
AcDbEntity
  8
躯体と製品
  6
Continuous
 62
     3
100
AcDbLine
 10
1501.097066523809
 20
1768.40399400426
 30
0.0
 11
1501.097066523809
 21
1774.10281800426
 31
0.0
  0
LINE
  5
5844
330
1E
100
AcDbEntity
  8
躯体と製品
  6
Continuous
 62
     3
100
AcDbLine
 10
1501.097066523809
 20
1767.70281900426
 30
0.0
 11
1501.097066523809
 21
1762.95241800426
 31
0.0
  0
LINE
  5
5845
330
1E
100
AcDbEntity
  8
躯体と製品
  6
Continuous
 62
     3
100
AcDbLine
 10
1504.937066523809
 20
1768.41873300426
 30
0.0
 11
1503.697064523809
 21
1767.70281900426
 31
0.0
  0
LINE
  5
5846
330
1E
100
AcDbEntity
  8
躯体と製品
  6
Continuous
 62
     3
100
AcDbLine
 10
1501.097066523809
 20
1762.95241800426
 30
0.0
 11
1500.447464523809
 21
1762.302819004261
 31
0.0
  0
LINE
  5
5847
330
1E
100
AcDbEntity
  8
躯体と製品
  6
Continuous
 62
     3
100
AcDbLine
 10
1505.597066523809
 20
1776.102819004259
 30
0.0
 11
1505.597066523809
 21
1777.70281800426
 31
0.0
  0
LINE
  5
5848
330
1E
100
AcDbEntity
  8
躯体と製品
  6
Continuous
 62
     3
100
AcDbLine
 10
1505.597066523809
 20
1787.30281800426
 30
0.0
 11
1505.597066523809
 21
1785.70281900426
 31
0.0
  0
ARC
  5
5849
330
1E
100
AcDbEntity
  8
躯体と製品
  6
Continuous
 62
     4
100
AcDbCircle
 10
1516.597064523809
 20
1785.20281800426
 30
0.0
 40
0.5000010000000001
100
AcDbArc
 50
0.0
 51
90.0
  0
ARC
  5
584A
330
1E
100
AcDbEntity
  8
躯体と製品
  6
Continuous
 62
     4
100
AcDbCircle
 10
1516.597064523809
 20
1782.20281800426
 30
0.0
 40
0.5000010000000001
100
AcDbArc
 50
270.0
 51
0.0
  0
LINE
  5
584B
330
1E
100
AcDbEntity
  8
躯体と製品
  6
Continuous
 62
     4
100
AcDbLine
 10
1517.097065523809
 20
1782.20281800426
 30
0.0
 11
1517.097065523809
 21
1785.20281800426
 31
0.0
  0
ARC
  5
584C
330
1E
100
AcDbEntity
  8
躯体と製品
  6
Continuous
 62
     3
100
AcDbCircle
 10
1497.097064523809
 20
1781.04282000426
 30
0.0
 40
11.76
100
AcDbArc
 50
70.11483700000103
 51
109.8851629999989
  0
LINE
  5
584D
330
1E
100
AcDbEntity
  8
躯体と製品
  6
Continuous
 62
     3
100
AcDbLine
 10
1490.497064523809
 20
1792.80282000426
 30
0.0
 11
1503.697064523809
 21
1792.80282000426
 31
0.0
  0
LINE
  5
584E
330
1E
100
AcDbEntity
  8
躯体と製品
  6
Continuous
 62
     3
100
AcDbLine
 10
1472.697065523808
 20
1817.95281900426
 30
0.0
 11
1472.697065523808
 21
1805.45281800426
 31
0.0
  0
LINE
  5
584F
330
1E
100
AcDbEntity
  8
躯体と製品
  6
Continuous
 62
     3
100
AcDbLine
 10
1478.455139523808
 20
1805.70282000426
 30
0.0
 11
1478.997065523809
 21
1806.64146300426
 31
0.0
  0
LINE
  5
5850
330
1E
100
AcDbEntity
  8
躯体と製品
  6
Continuous
 62
     3
100
AcDbLine
 10
1474.197065523808
 20
1811.70282000426
 30
0.0
 11
1474.197065523808
 21
1805.60281800426
 31
0.0
  0
LINE
  5
5851
330
1E
100
AcDbEntity
  8
躯体と製品
  6
Continuous
 62
     3
100
AcDbLine
 10
1478.455139523808
 20
1805.70282000426
 30
0.0
 11
1474.197065523808
 21
1805.70282000426
 31
0.0
  0
LINE
  5
5852
330
1E
100
AcDbEntity
  8
躯体と製品
  6
Continuous
 62
     3
100
AcDbLine
 10
1472.697065523808
 20
1805.60281800426
 30
0.0
 11
1474.197065523808
 21
1805.60281800426
 31
0.0
  0
ARC
  5
5853
330
1E
100
AcDbEntity
  8
躯体と製品
  6
Continuous
 62
     3
100
AcDbCircle
 10
1491.100589523809
 20
1789.86965100426
 30
0.0
 40
2.994614999999999
100
AcDbArc
 50
48.18792799999918
 51
78.37320500000107
  0
LINE
  5
5854
330
1E
100
AcDbEntity
  8
躯体と製品
  6
Continuous
 62
     3
100
AcDbLine
 10
1489.257065523809
 20
1792.08690300426
 30
0.0
 11
1490.497064523809
 21
1792.80282000426
 31
0.0
  0
LINE
  5
5855
330
1E
100
AcDbEntity
  8
躯体と製品
  6
Continuous
 62
     3
100
AcDbLine
 10
1478.997065523809
 20
1814.70282000426
 30
0.0
 11
1488.597065523809
 21
1814.70282000426
 31
0.0
  0
LINE
  5
5856
330
1E
100
AcDbEntity
  8
躯体と製品
  6
Continuous
 62
     3
100
AcDbLine
 10
1478.997065523809
 20
1814.20281900426
 30
0.0
 11
1489.097066523809
 21
1814.20281900426
 31
0.0
  0
LINE
  5
5857
330
1E
100
AcDbEntity
  8
躯体と製品
  6
Continuous
 62
     3
100
AcDbLine
 10
1478.997065523809
 20
1808.70282000426
 30
0.0
 11
1488.597065523809
 21
1808.70282000426
 31
0.0
  0
LINE
  5
5858
330
1E
100
AcDbEntity
  8
躯体と製品
  6
Continuous
 62
     3
100
AcDbLine
 10
1478.997065523809
 20
1809.20281800426
 30
0.0
 11
1489.097066523809
 21
1809.20281800426
 31
0.0
  0
ARC
  5
5859
330
1E
100
AcDbEntity
  8
躯体と製品
  6
Continuous
 62
     3
100
AcDbCircle
 10
1469.997065523809
 20
1811.70282000426
 30
0.0
 40
9.0
100
AcDbArc
 50
0.0
 51
19.47122100000025
  0
LINE
  5
585A
330
1E
100
AcDbEntity
  8
躯体と製品
  6
Continuous
 62
     3
100
AcDbLine
 10
1474.197065523808
 20
1811.70282000426
 30
0.0
 11
1472.697065523808
 21
1810.20282000426
 31
0.0
  0
LINE
  5
585B
330
1E
100
AcDbEntity
  8
躯体と製品
  6
Continuous
 62
     3
100
AcDbLine
 10
1474.197065523808
 20
1817.802819004261
 30
0.0
 11
1474.197065523808
 21
1811.70282000426
 31
0.0
  0
LINE
  5
585C
330
1E
100
AcDbEntity
  8
躯体と製品
  6
Continuous
 62
     3
100
AcDbLine
 10
1472.697065523808
 20
1811.70282000426
 30
0.0
 11
1474.197065523808
 21
1813.20282000426
 31
0.0
  0
LINE
  5
585D
330
1E
100
AcDbEntity
  8
躯体と製品
  6
Continuous
 62
     3
100
AcDbLine
 10
1478.997065523809
 20
1806.64146300426
 30
0.0
 11
1478.997065523809
 21
1816.76417400426
 31
0.0
  0
ARC
  5
585E
330
1E
100
AcDbEntity
  8
躯体と製品
  6
Continuous
 62
     3
100
AcDbCircle
 10
1476.705065523809
 20
1816.15006800426
 30
0.0
 40
2.291999999999999
100
AcDbArc
 50
320.8438679999998
 51
0.0
  0
LINE
  5
585F
330
1E
100
AcDbEntity
  8
躯体と製品
  6
Continuous
 62
     3
100
AcDbLine
 10
1478.455139523808
 20
1817.70282000426
 30
0.0
 11
1474.197065523808
 21
1817.70282000426
 31
0.0
  0
LINE
  5
5860
330
1E
100
AcDbEntity
  8
躯体と製品
  6
Continuous
 62
     3
100
AcDbLine
 10
1478.482346523809
 20
1814.70282000426
 30
0.0
 11
1474.197065523808
 21
1814.70282000426
 31
0.0
  0
LINE
  5
5861
330
1E
100
AcDbEntity
  8
躯体と製品
  6
Continuous
 62
     3
100
AcDbLine
 10
1474.197065523808
 20
1817.802819004261
 30
0.0
 11
1472.697065523808
 21
1817.802819004261
 31
0.0
  0
LINE
  5
5862
330
1E
100
AcDbEntity
  8
躯体と製品
  6
Continuous
 62
     3
100
AcDbLine
 10
1478.997065523809
 20
1816.76417400426
 30
0.0
 11
1478.455139523808
 21
1817.70282000426
 31
0.0
  0
ARC
  5
5863
330
1E
100
AcDbEntity
  8
躯体と製品
  6
Continuous
 62
     3
100
AcDbCircle
 10
1476.705065523809
 20
1807.25556900426
 30
0.0
 40
2.291999999999999
100
AcDbArc
 50
0.0
 51
39.15613200000026
  0
ARC
  5
5864
330
1E
100
AcDbEntity
  8
躯体と製品
  6
Continuous
 62
     3
100
AcDbCircle
 10
1469.997065523809
 20
1811.70282000426
 30
0.0
 40
9.0
100
AcDbArc
 50
340.5287789999998
 51
0.0
  0
LINE
  5
5865
330
1E
100
AcDbEntity
  8
躯体と製品
  6
Continuous
 62
     3
100
AcDbLine
 10
1478.482346523809
 20
1808.70282000426
 30
0.0
 11
1474.197065523808
 21
1808.70282000426
 31
0.0
  0
LINE
  5
5866
330
1E
100
AcDbEntity
  8
躯体と製品
  6
Continuous
 62
     3
100
AcDbLine
 10
1489.097066523809
 20
1809.20281800426
 30
0.0
 11
1489.097066523809
 21
1814.20281900426
 31
0.0
  0
LINE
  5
5867
330
1E
100
AcDbEntity
  8
躯体と製品
  6
Continuous
 62
     3
100
AcDbLine
 10
1488.597065523809
 20
1808.70282000426
 30
0.0
 11
1488.597065523809
 21
1814.70282000426
 31
0.0
  0
LINE
  5
5868
330
1E
100
AcDbEntity
  8
躯体と製品
  6
Continuous
 62
     3
100
AcDbLine
 10
1488.597065523809
 20
1814.70282000426
 30
0.0
 11
1489.097066523809
 21
1814.20281900426
 31
0.0
  0
LINE
  5
5869
330
1E
100
AcDbEntity
  8
躯体と製品
  6
Continuous
 62
     3
100
AcDbLine
 10
1488.597065523809
 20
1808.70282000426
 30
0.0
 11
1489.097066523809
 21
1809.20281800426
 31
0.0
  0
ARC
  5
586A
330
1E
100
AcDbEntity
  8
躯体と製品
  6
Continuous
 62
     3
100
AcDbCircle
 10
1503.093542523809
 20
1789.86965100426
 30
0.0
 40
2.994614999999999
100
AcDbArc
 50
101.6267949999989
 51
131.8120720000008
  0
LINE
  5
586B
330
1E
100
AcDbEntity
  8
躯体と製品
  6
Continuous
 62
     3
100
AcDbLine
 10
1503.697064523809
 20
1792.80282000426
 30
0.0
 11
1504.937066523809
 21
1792.10164200426
 31
0.0
  0
LINE
  5
586C
330
1E
100
AcDbEntity
  8
躯体と製品
  6
Continuous
 62
     3
100
AcDbLine
 10
1521.497066523808
 20
1760.20281900426
 30
0.0
 11
1523.097065523809
 21
1760.20281900426
 31
0.0
  0
LINE
  5
586D
330
1E
100
AcDbEntity
  8
躯体と製品
  6
Continuous
 62
     3
100
AcDbLine
 10
1519.497065523809
 20
1759.40281800426
 30
0.0
 11
1521.497066523808
 21
1759.40281800426
 31
0.0
  0
LINE
  5
586E
330
1E
100
AcDbEntity
  8
躯体と製品
  6
Continuous
 62
     3
100
AcDbLine
 10
1530.297065523809
 20
1760.20281900426
 30
0.0
 11
1531.897064523809
 21
1760.20281900426
 31
0.0
  0
LINE
  5
586F
330
1E
100
AcDbEntity
  8
躯体と製品
  6
Continuous
 62
     3
100
AcDbLine
 10
1536.695891523809
 20
1759.54281900426
 30
0.0
 11
1531.897064523809
 21
1759.54281900426
 31
0.0
  0
LINE
  5
5870
330
1E
100
AcDbEntity
  8
躯体と製品
  6
Continuous
 62
     4
100
AcDbLine
 10
1516.597064523809
 20
1925.26738800426
 30
0.0
 11
1467.097064523809
 21
1925.26738800426
 31
0.0
  0
ARC
  5
5871
330
1E
100
AcDbEntity
  8
躯体と製品
  6
Continuous
 62
     4
100
AcDbCircle
 10
1476.097064523809
 20
1934.26738800426
 30
0.0
 40
5.000000999999999
100
AcDbArc
 50
180.0
 51
270.0
  0
LINE
  5
5872
330
1E
100
AcDbEntity
  8
躯体と製品
  6
PLINE2
 62
     3
100
AcDbLine
 10
1461.597065523809
 20
1824.20281800426
 30
0.0
 11
1459.097066523809
 21
1824.20281800426
 31
0.0
  0
LINE
  5
5873
330
1E
100
AcDbEntity
  8
躯体と製品
  6
PLINE2
 62
     3
100
AcDbLine
 10
1461.397064523809
 20
1822.602819004259
 30
0.0
 11
1459.097066523809
 21
1822.602819004259
 31
0.0
  0
LINE
  5
5874
330
1E
100
AcDbEntity
  8
躯体と製品
  6
PLINE2
 62
     3
100
AcDbLine
 10
1459.097066523809
 20
1824.20281800426
 30
0.0
 11
1459.097066523809
 21
1822.602819004259
 31
0.0
  0
ARC
  5
5875
330
1E
100
AcDbEntity
  8
躯体と製品
  6
Continuous
 62
     4
100
AcDbCircle
 10
1467.597065523809
 20
1831.20282000426
 30
0.0
 40
0.5000010000000001
100
AcDbArc
 50
90.0
 51
180.0
  0
ARC
  5
5876
330
1E
100
AcDbEntity
  8
躯体と製品
  6
Continuous
 62
     4
100
AcDbCircle
 10
1470.597065523809
 20
1831.20282000426
 30
0.0
 40
0.5000010000000001
100
AcDbArc
 50
0.0
 51
90.0
  0
LINE
  5
5877
330
1E
100
AcDbEntity
  8
躯体と製品
  6
Continuous
 62
     4
100
AcDbLine
 10
1470.597065523809
 20
1831.70281800426
 30
0.0
 11
1467.597065523809
 21
1831.70281800426
 31
0.0
  0
LINE
  5
5878
330
1E
100
AcDbEntity
  8
躯体と製品
  6
PLINE2
 62
     3
100
AcDbLine
 10
1461.597065523809
 20
1942.76739000426
 30
0.0
 11
1459.097066523809
 21
1942.76739000426
 31
0.0
  0
LINE
  5
5879
330
1E
100
AcDbEntity
  8
躯体と製品
  6
PLINE2
 62
     3
100
AcDbLine
 10
1461.397064523809
 20
1944.36738900426
 30
0.0
 11
1459.097066523809
 21
1944.36738900426
 31
0.0
  0
LINE
  5
587A
330
1E
100
AcDbEntity
  8
躯体と製品
  6
PLINE2
 62
     3
100
AcDbLine
 10
1459.097066523809
 20
1942.76739000426
 30
0.0
 11
1459.097066523809
 21
1944.36738900426
 31
0.0
  0
ARC
  5
587B
330
1E
100
AcDbEntity
  8
躯体と製品
  6
PLINE2
 62
     3
100
AcDbCircle
 10
1461.597065523809
 20
1945.76739000426
 30
0.0
 40
3.0
100
AcDbArc
 50
270.0
 51
0.0
  0
ARC
  5
587C
330
1E
100
AcDbEntity
  8
躯体と製品
  6
PLINE2
 62
     3
100
AcDbCircle
 10
1461.397064523809
 20
1945.96738800426
 30
0.0
 40
1.599998999999999
100
AcDbArc
 50
270.0
 51
0.0
  0
LINE
  5
587D
330
1E
100
AcDbEntity
  8
躯体と製品
  6
Continuous
 62
     4
100
AcDbLine
 10
1523.097065523809
 20
1914.76738800426
 30
0.0
 11
1523.097065523809
 21
1878.26739000426
 31
0.0
  0
ARC
  5
587F
330
1E
100
AcDbEntity
  8
躯体と製品
  6
Continuous
 62
     4
100
AcDbCircle
 10
1526.097065523809
 20
1878.26739000426
 30
0.0
 40
3.0
100
AcDbArc
 50
180.0
 51
270.0
  0
LINE
  5
5880
330
1E
100
AcDbEntity
  8
躯体と製品
  6
Continuous
 62
     3
100
AcDbLine
 10
1519.497065523809
 20
1899.26739000426
 30
0.0
 11
1513.698242523808
 21
1899.26739000426
 31
0.0
  0
LINE
  5
5881
330
1E
100
AcDbEntity
  8
躯体と製品
  6
Continuous
 62
     3
100
AcDbLine
 10
1513.698242523808
 20
1891.267389004261
 30
0.0
 11
1519.497065523809
 21
1891.267389004261
 31
0.0
  0
LINE
  5
5882
330
1E
100
AcDbEntity
  8
躯体と製品
  6
Continuous
 62
     3
100
AcDbLine
 10
1519.497065523809
 20
1887.42738900426
 30
0.0
 11
1513.768475523808
 21
1887.42738900426
 31
0.0
  0
LINE
  5
5883
330
1E
100
AcDbEntity
  8
躯体と製品
  6
Continuous
 62
     3
100
AcDbLine
 10
1513.753736523809
 20
1903.10739000426
 30
0.0
 11
1519.497065523809
 21
1903.10739000426
 31
0.0
  0
LINE
  5
5884
330
1E
100
AcDbEntity
  8
躯体と製品
  6
Continuous
 62
     4
100
AcDbLine
 10
1477.097066523809
 20
1925.26738800426
 30
0.0
 11
1527.097064523809
 21
1925.26738800426
 31
0.0
  0
ARC
  5
5885
330
1E
100
AcDbEntity
  8
躯体と製品
  6
Continuous
 62
     4
100
AcDbCircle
 10
1516.597064523809
 20
1914.76738800426
 30
0.0
 40
6.500000999999999
100
AcDbArc
 50
0.0
 51
90.0
  0
LINE
  5
5886
330
1E
100
AcDbEntity
  8
躯体と製品
  6
Continuous
 62
     3
100
AcDbLine
 10
1504.937066523809
 20
1917.66738900426
 30
0.0
 11
1504.937066523809
 21
1911.98330400426
 31
0.0
  0
LINE
  5
5887
330
1E
100
AcDbEntity
  8
躯体と製品
  6
Continuous
 62
     3
100
AcDbLine
 10
1501.097066523809
 20
1911.96856500426
 30
0.0
 11
1501.097066523809
 21
1917.66738900426
 31
0.0
  0
LINE
  5
5888
330
1E
100
AcDbEntity
  8
躯体と製品
  6
Continuous
 62
     3
100
AcDbLine
 10
1493.097065523809
 20
1917.66738900426
 30
0.0
 11
1493.097065523809
 21
1911.96856500426
 31
0.0
  0
LINE
  5
5889
330
1E
100
AcDbEntity
  8
躯体と製品
  6
Continuous
 62
     3
100
AcDbLine
 10
1489.257065523809
 20
1911.96856500426
 30
0.0
 11
1489.257065523809
 21
1917.66738900426
 31
0.0
  0
ARC
  5
588A
330
1E
100
AcDbEntity
  8
躯体と製品
  6
Continuous
 62
     3
100
AcDbCircle
 10
1497.097064523809
 20
1923.02739000426
 30
0.0
 40
11.76
100
AcDbArc
 50
250.114837000001
 51
289.885162999999
  0
LINE
  5
588B
330
1E
100
AcDbEntity
  8
躯体と製品
  6
Continuous
 62
     3
100
AcDbLine
 10
1503.697064523809
 20
1911.26739000426
 30
0.0
 11
1490.497064523809
 21
1911.26739000426
 31
0.0
  0
LINE
  5
588C
330
1E
100
AcDbEntity
  8
躯体と製品
  6
Continuous
 62
     3
100
AcDbLine
 10
1500.447464523809
 20
1905.86739000426
 30
0.0
 11
1493.746664523809
 21
1905.86739000426
 31
0.0
  0
LINE
  5
588D
330
1E
100
AcDbEntity
  8
躯体と製品
  6
Continuous
 62
     3
100
AcDbLine
 10
1490.497064523809
 20
1911.26739000426
 30
0.0
 11
1489.257065523809
 21
1911.96856500426
 31
0.0
  0
ARC
  5
588E
330
1E
100
AcDbEntity
  8
躯体と製品
  6
Continuous
 62
     3
100
AcDbCircle
 10
1491.100589523809
 20
1914.20055600426
 30
0.0
 40
2.994614999999999
100
AcDbArc
 50
281.6267949999989
 51
311.8120720000008
  0
LINE
  5
588F
330
1E
100
AcDbEntity
  8
躯体と製品
  6
Continuous
 62
     3
100
AcDbLine
 10
1493.097065523809
 20
1906.51698900426
 30
0.0
 11
1493.097065523809
 21
1911.26739000426
 31
0.0
  0
LINE
  5
5890
330
1E
100
AcDbEntity
  8
躯体と製品
  6
Continuous
 62
     3
100
AcDbLine
 10
1493.746664523809
 20
1905.86739000426
 30
0.0
 11
1493.097065523809
 21
1906.51698900426
 31
0.0
  0
LINE
  5
5891
330
1E
100
AcDbEntity
  8
躯体と製品
  6
Continuous
 62
     3
100
AcDbLine
 10
1512.997064523809
 20
1901.86738800426
 30
0.0
 11
1512.997064523809
 21
1888.66738800426
 31
0.0
  0
LINE
  5
5892
330
1E
100
AcDbEntity
  8
躯体と製品
  6
Continuous
 62
     3
100
AcDbLine
 10
1506.697064523809
 20
1898.61778800426
 30
0.0
 11
1507.346666523809
 21
1899.26739000426
 31
0.0
  0
LINE
  5
5893
330
1E
100
AcDbEntity
  8
躯体と製品
  6
Continuous
 62
     3
100
AcDbLine
 10
1507.346666523809
 20
1891.267389004261
 30
0.0
 11
1506.697064523809
 21
1891.91698800426
 31
0.0
  0
LINE
  5
5894
330
1E
100
AcDbEntity
  8
躯体と製品
  6
Continuous
 62
     3
100
AcDbLine
 10
1506.697064523809
 20
1898.61806100426
 30
0.0
 11
1506.697064523809
 21
1891.91698800426
 31
0.0
  0
LINE
  5
5895
330
1E
100
AcDbEntity
  8
躯体と製品
  6
Continuous
 62
     3
100
AcDbLine
 10
1507.346666523809
 20
1891.267389004261
 30
0.0
 11
1512.997064523809
 21
1891.267389004261
 31
0.0
  0
LINE
  5
5896
330
1E
100
AcDbEntity
  8
躯体と製品
  6
Continuous
 62
     3
100
AcDbLine
 10
1507.346666523809
 20
1899.26739000426
 30
0.0
 11
1512.997064523809
 21
1899.26739000426
 31
0.0
  0
ARC
  5
5897
330
1E
100
AcDbEntity
  8
躯体と製品
  6
Continuous
 62
     3
100
AcDbCircle
 10
1515.930233523809
 20
1889.27091300426
 30
0.0
 40
2.994614999999999
100
AcDbArc
 50
138.1879280000004
 51
168.3732049999998
  0
ARC
  5
5898
330
1E
100
AcDbEntity
  8
躯体と製品
  6
Continuous
 62
     3
100
AcDbCircle
 10
1515.930233523809
 20
1901.26386600426
 30
0.0
 40
2.994614999999999
100
AcDbArc
 50
191.6267950000001
 51
221.8120719999996
  0
ARC
  5
5899
330
1E
100
AcDbEntity
  8
躯体と製品
  6
Continuous
 62
     3
100
AcDbCircle
 10
1524.757064523809
 20
1895.26738800426
 30
0.0
 40
11.76
100
AcDbArc
 50
160.1148369999995
 51
199.8851630000005
  0
LINE
  5
589A
330
1E
100
AcDbEntity
  8
躯体と製品
  6
Continuous
 62
     3
100
AcDbLine
 10
1512.997064523809
 20
1888.66738800426
 30
0.0
 11
1513.712981523809
 21
1887.42738900426
 31
0.0
  0
ARC
  5
589B
330
1E
100
AcDbEntity
  8
躯体と製品
  6
Continuous
 62
     3
100
AcDbCircle
 10
1503.093542523809
 20
1914.20055600426
 30
0.0
 40
2.994614999999999
100
AcDbArc
 50
228.1879279999992
 51
258.3732050000011
  0
LINE
  5
589C
330
1E
100
AcDbEntity
  8
躯体と製品
  6
Continuous
 62
     3
100
AcDbLine
 10
1501.097066523809
 20
1911.26739000426
 30
0.0
 11
1501.097066523809
 21
1906.51698900426
 31
0.0
  0
LINE
  5
589D
330
1E
100
AcDbEntity
  8
躯体と製品
  6
Continuous
 62
     3
100
AcDbLine
 10
1504.937066523809
 20
1911.98330400426
 30
0.0
 11
1503.697064523809
 21
1911.26739000426
 31
0.0
  0
LINE
  5
589E
330
1E
100
AcDbEntity
  8
躯体と製品
  6
Continuous
 62
     3
100
AcDbLine
 10
1501.097066523809
 20
1906.51698900426
 30
0.0
 11
1500.447464523809
 21
1905.86739000426
 31
0.0
  0
LINE
  5
589F
330
1E
100
AcDbEntity
  8
躯体と製品
  6
Continuous
 62
     3
100
AcDbLine
 10
1512.997064523809
 20
1901.86738800426
 30
0.0
 11
1513.698242523808
 21
1903.10739000426
 31
0.0
  0
LINE
  5
58A0
330
1E
100
AcDbEntity
  8
躯体と製品
  6
Continuous
 62
     3
100
AcDbLine
 10
1505.597066523809
 20
1919.66739000426
 30
0.0
 11
1488.597065523809
 21
1919.66739000426
 31
0.0
  0
LINE
  5
58A1
330
1E
100
AcDbEntity
  8
躯体と製品
  6
Continuous
 62
     3
100
AcDbLine
 10
1504.937066523809
 20
1917.66738900426
 30
0.0
 11
1489.257065523809
 21
1917.66738900426
 31
0.0
  0
LINE
  5
58A2
330
1E
100
AcDbEntity
  8
躯体と製品
  6
Continuous
 62
     3
100
AcDbLine
 10
1495.097066523809
 20
1919.66739000426
 30
0.0
 11
1497.097064523809
 21
1917.66738900426
 31
0.0
  0
ARC
  5
58A3
330
1E
100
AcDbEntity
  8
躯体と製品
  6
Continuous
 62
     3
100
AcDbCircle
 10
1497.097064523809
 20
1924.60738800426
 30
0.0
 40
11.76
100
AcDbArc
 50
70.11483700000103
 51
109.8851629999989
  0
LINE
  5
58A4
330
1E
100
AcDbEntity
  8
躯体と製品
  6
Continuous
 62
     3
100
AcDbLine
 10
1488.597065523809
 20
1930.86738900426
 30
0.0
 11
1505.597066523809
 21
1930.86738900426
 31
0.0
  0
LINE
  5
58A5
330
1E
100
AcDbEntity
  8
躯体と製品
  6
Continuous
 62
     3
100
AcDbLine
 10
1490.497064523809
 20
1936.36738800426
 30
0.0
 11
1503.697064523809
 21
1936.36738800426
 31
0.0
  0
LINE
  5
58A6
330
1E
100
AcDbEntity
  8
躯体と製品
  6
Continuous
 62
     4
100
AcDbLine
 10
1476.097064523809
 20
1929.26739000426
 30
0.0
 11
1516.597064523809
 21
1929.26739000426
 31
0.0
  0
LINE
  5
58A7
330
1E
100
AcDbEntity
  8
躯体と製品
  6
Continuous
 62
     4
100
AcDbLine
 10
1516.597064523809
 20
1921.26738900426
 30
0.0
 11
1480.097066523809
 21
1921.26738900426
 31
0.0
  0
LINE
  5
58A8
330
1E
100
AcDbEntity
  8
躯体と製品
  6
Continuous
 62
     3
100
AcDbLine
 10
1493.097065523809
 20
1935.66621300426
 30
0.0
 11
1493.097065523809
 21
1930.76739000426
 31
0.0
  0
LINE
  5
58A9
330
1E
100
AcDbEntity
  8
躯体と製品
  6
Continuous
 62
     3
100
AcDbLine
 10
1489.257065523809
 20
1935.65147400426
 30
0.0
 11
1489.257065523809
 21
1930.76739000426
 31
0.0
  0
LINE
  5
58AA
330
1E
100
AcDbEntity
  8
躯体と製品
  6
Continuous
 62
     4
100
AcDbLine
 10
1477.097066523809
 20
1924.267389004261
 30
0.0
 11
1477.097066523809
 21
1925.26738800426
 31
0.0
  0
ARC
  5
58AB
330
1E
100
AcDbEntity
  8
躯体と製品
  6
Continuous
 62
     4
100
AcDbCircle
 10
1480.097066523809
 20
1924.267389004261
 30
0.0
 40
3.0
100
AcDbArc
 50
180.0
 51
270.0
  0
LINE
  5
58AC
330
1E
100
AcDbEntity
  8
躯体と製品
  6
Continuous
 62
     3
100
AcDbLine
 10
1488.597065523809
 20
1921.26738900426
 30
0.0
 11
1488.597065523809
 21
1919.66739000426
 31
0.0
  0
LINE
  5
58AD
330
1E
100
AcDbEntity
  8
躯体と製品
  6
Continuous
 62
     3
100
AcDbLine
 10
1489.397066523809
 20
1919.66739000426
 30
0.0
 11
1489.397066523809
 21
1917.66738900426
 31
0.0
  0
LINE
  5
58AE
330
1E
100
AcDbEntity
  8
躯体と製品
  6
Continuous
 62
     3
100
AcDbLine
 10
1488.597065523809
 20
1929.26739000426
 30
0.0
 11
1488.597065523809
 21
1930.86738900426
 31
0.0
  0
ARC
  5
58AF
330
1E
100
AcDbEntity
  8
躯体と製品
  6
Continuous
 62
     3
100
AcDbCircle
 10
1491.100589523809
 20
1933.43422200426
 30
0.0
 40
2.994614999999999
100
AcDbArc
 50
48.18792799999918
 51
78.37320500000107
  0
LINE
  5
58B0
330
1E
100
AcDbEntity
  8
躯体と製品
  6
Continuous
 62
     3
100
AcDbLine
 10
1489.257065523809
 20
1935.65147400426
 30
0.0
 11
1490.497064523809
 21
1936.36738800426
 31
0.0
  0
LINE
  5
58B1
330
1E
100
AcDbEntity
  8
躯体と製品
  6
Continuous
 62
     3
100
AcDbLine
 10
1501.097066523809
 20
1935.66621300426
 30
0.0
 11
1501.097066523809
 21
1930.76739000426
 31
0.0
  0
LINE
  5
58B2
330
1E
100
AcDbEntity
  8
躯体と製品
  6
Continuous
 62
     3
100
AcDbLine
 10
1504.937066523809
 20
1935.66621300426
 30
0.0
 11
1504.937066523809
 21
1930.76739000426
 31
0.0
  0
LINE
  5
58B3
330
1E
100
AcDbEntity
  8
躯体と製品
  6
Continuous
 62
     3
100
AcDbLine
 10
1505.597066523809
 20
1919.66739000426
 30
0.0
 11
1505.597066523809
 21
1921.26738900426
 31
0.0
  0
LINE
  5
58B4
330
1E
100
AcDbEntity
  8
躯体と製品
  6
Continuous
 62
     3
100
AcDbLine
 10
1499.097065523809
 20
1917.66738900426
 30
0.0
 11
1497.097064523809
 21
1919.66739000426
 31
0.0
  0
LINE
  5
58B5
330
1E
100
AcDbEntity
  8
躯体と製品
  6
Continuous
 62
     3
100
AcDbLine
 10
1504.797065523809
 20
1919.66739000426
 30
0.0
 11
1504.797065523809
 21
1917.66738900426
 31
0.0
  0
LINE
  5
58B6
330
1E
100
AcDbEntity
  8
躯体と製品
  6
Continuous
 62
     3
100
AcDbLine
 10
1505.597066523809
 20
1930.86738900426
 30
0.0
 11
1505.597066523809
 21
1929.26739000426
 31
0.0
  0
ARC
  5
58B7
330
1E
100
AcDbEntity
  8
躯体と製品
  6
Continuous
 62
     4
100
AcDbCircle
 10
1516.597064523809
 20
1928.767389004261
 30
0.0
 40
0.5000010000000001
100
AcDbArc
 50
0.0
 51
90.0
  0
ARC
  5
58B8
330
1E
100
AcDbEntity
  8
躯体と製品
  6
Continuous
 62
     4
100
AcDbCircle
 10
1516.597064523809
 20
1925.767389004261
 30
0.0
 40
0.5000010000000001
100
AcDbArc
 50
270.0
 51
0.0
  0
LINE
  5
58B9
330
1E
100
AcDbEntity
  8
躯体と製品
  6
Continuous
 62
     4
100
AcDbLine
 10
1517.097065523809
 20
1925.767389004261
 30
0.0
 11
1517.097065523809
 21
1928.767389004261
 31
0.0
  0
ARC
  5
58BA
330
1E
100
AcDbEntity
  8
躯体と製品
  6
Continuous
 62
     3
100
AcDbCircle
 10
1503.093542523809
 20
1933.43422200426
 30
0.0
 40
2.994614999999999
100
AcDbArc
 50
101.6267949999989
 51
131.8120720000008
  0
LINE
  5
58BB
330
1E
100
AcDbEntity
  8
躯体と製品
  6
Continuous
 62
     3
100
AcDbLine
 10
1503.697064523809
 20
1936.36738800426
 30
0.0
 11
1504.937066523809
 21
1935.66621300426
 31
0.0
  0
LINE
  5
58BC
330
1E
100
AcDbEntity
  8
躯体と製品
  6
Continuous
 62
     3
100
AcDbLine
 10
1523.097065523809
 20
1903.76739000426
 30
0.0
 11
1523.097065523809
 21
1886.76738900426
 31
0.0
  0
LINE
  5
58BD
330
1E
100
AcDbEntity
  8
躯体と製品
  6
Continuous
 62
     3
100
AcDbLine
 10
1521.497066523808
 20
1903.76739000426
 30
0.0
 11
1521.497066523808
 21
1886.76738900426
 31
0.0
  0
LINE
  5
58BE
330
1E
100
AcDbEntity
  8
躯体と製品
  6
Continuous
 62
     3
100
AcDbLine
 10
1519.497065523809
 20
1887.42738900426
 30
0.0
 11
1519.497065523809
 21
1903.10739000426
 31
0.0
  0
LINE
  5
58BF
330
1E
100
AcDbEntity
  8
躯体と製品
  6
Continuous
 62
     3
100
AcDbLine
 10
1530.297065523809
 20
1903.76739000426
 30
0.0
 11
1530.297065523809
 21
1886.76738900426
 31
0.0
  0
LINE
  5
58C0
330
1E
100
AcDbEntity
  8
躯体と製品
  6
Continuous
 62
     3
100
AcDbLine
 10
1531.897064523809
 20
1903.76739000426
 30
0.0
 11
1531.897064523809
 21
1886.76738900426
 31
0.0
  0
LINE
  5
58C1
330
1E
100
AcDbEntity
  8
躯体と製品
  6
Continuous
 62
     3
100
AcDbLine
 10
1537.397066523809
 20
1888.66738800426
 30
0.0
 11
1537.397066523809
 21
1901.86738800426
 31
0.0
  0
LINE
  5
58C2
330
1E
100
AcDbEntity
  8
躯体と製品
  6
Continuous
 62
     3
100
AcDbLine
 10
1523.097065523809
 20
1886.76738900426
 30
0.0
 11
1521.497066523808
 21
1886.76738900426
 31
0.0
  0
LINE
  5
58C3
330
1E
100
AcDbEntity
  8
躯体と製品
  6
Continuous
 62
     3
100
AcDbLine
 10
1521.497066523808
 20
1895.26738800426
 30
0.0
 11
1519.497065523809
 21
1893.26739000426
 31
0.0
  0
LINE
  5
58C4
330
1E
100
AcDbEntity
  8
躯体と製品
  6
Continuous
 62
     3
100
AcDbLine
 10
1519.497065523809
 20
1895.26738800426
 30
0.0
 11
1521.497066523808
 21
1897.267389004261
 31
0.0
  0
LINE
  5
58C5
330
1E
100
AcDbEntity
  8
躯体と製品
  6
Continuous
 62
     3
100
AcDbLine
 10
1519.497065523809
 20
1887.56739000426
 30
0.0
 11
1521.497066523808
 21
1887.56739000426
 31
0.0
  0
LINE
  5
58C6
330
1E
100
AcDbEntity
  8
躯体と製品
  6
Continuous
 62
     3
100
AcDbLine
 10
1531.897064523809
 20
1886.76738900426
 30
0.0
 11
1530.297065523809
 21
1886.76738900426
 31
0.0
  0
ARC
  5
58C7
330
1E
100
AcDbEntity
  8
躯体と製品
  6
Continuous
 62
     3
100
AcDbCircle
 10
1525.637066523809
 20
1895.26738800426
 30
0.0
 40
11.76
100
AcDbArc
 50
340.1148369999995
 51
19.8851630000005
  0
ARC
  5
58C8
330
1E
100
AcDbEntity
  8
躯体と製品
  6
Continuous
 62
     3
100
AcDbCircle
 10
1534.463897523808
 20
1901.26386600426
 30
0.0
 40
2.994614999999999
100
AcDbArc
 50
318.1879280000003
 51
348.3732049999998
  0
ARC
  5
58C9
330
1E
100
AcDbEntity
  8
躯体と製品
  6
Continuous
 62
     3
100
AcDbCircle
 10
1534.463897523808
 20
1889.27091300426
 30
0.0
 40
2.994614999999999
100
AcDbArc
 50
11.6267950000002
 51
41.81207199999962
  0
LINE
  5
58CA
330
1E
100
AcDbEntity
  8
躯体と製品
  6
Continuous
 62
     3
100
AcDbLine
 10
1536.681152523809
 20
1887.42738900426
 30
0.0
 11
1537.397066523809
 21
1888.66738800426
 31
0.0
  0
LINE
  5
58CB
330
1E
100
AcDbEntity
  8
躯体と製品
  6
Continuous
 62
     3
100
AcDbLine
 10
1536.695891523809
 20
1899.26739000426
 30
0.0
 11
1531.897064523809
 21
1899.26739000426
 31
0.0
  0
LINE
  5
58CC
330
1E
100
AcDbEntity
  8
躯体と製品
  6
Continuous
 62
     3
100
AcDbLine
 10
1536.695891523809
 20
1891.267389004261
 30
0.0
 11
1531.897064523809
 21
1891.267389004261
 31
0.0
  0
LINE
  5
58CD
330
1E
100
AcDbEntity
  8
躯体と製品
  6
Continuous
 62
     3
100
AcDbLine
 10
1536.681152523809
 20
1887.42738900426
 30
0.0
 11
1531.897064523809
 21
1887.42738900426
 31
0.0
  0
LINE
  5
58CE
330
1E
100
AcDbEntity
  8
躯体と製品
  6
Continuous
 62
     3
100
AcDbLine
 10
1521.497066523808
 20
1903.76739000426
 30
0.0
 11
1523.097065523809
 21
1903.76739000426
 31
0.0
  0
LINE
  5
58CF
330
1E
100
AcDbEntity
  8
躯体と製品
  6
Continuous
 62
     3
100
AcDbLine
 10
1519.497065523809
 20
1902.96738900426
 30
0.0
 11
1521.497066523808
 21
1902.96738900426
 31
0.0
  0
LINE
  5
58D0
330
1E
100
AcDbEntity
  8
躯体と製品
  6
Continuous
 62
     3
100
AcDbLine
 10
1530.297065523809
 20
1903.76739000426
 30
0.0
 11
1531.897064523809
 21
1903.76739000426
 31
0.0
  0
LINE
  5
58D1
330
1E
100
AcDbEntity
  8
躯体と製品
  6
Continuous
 62
     3
100
AcDbLine
 10
1537.397066523809
 20
1901.86738800426
 30
0.0
 11
1536.695891523809
 21
1903.10739000426
 31
0.0
  0
LINE
  5
58D2
330
1E
100
AcDbEntity
  8
躯体と製品
  6
Continuous
 62
     3
100
AcDbLine
 10
1536.695891523809
 20
1903.10739000426
 30
0.0
 11
1531.897064523809
 21
1903.10739000426
 31
0.0
  0
LINE
  5
58D4
330
1E
100
AcDbEntity
  8
躯体と製品
  6
Continuous
 62
     4
100
AcDbLine
 10
1657.097066523809
 20
1830.76738800426
 30
0.0
 11
1657.097066523809
 21
1770.26739000426
 31
0.0
  0
LINE
  5
58D5
330
1E
100
AcDbEntity
  8
躯体と製品
  6
Continuous
 62
     4
100
AcDbLine
 10
1647.097064523809
 20
1770.26739000426
 30
0.0
 11
1657.097066523809
 21
1770.26739000426
 31
0.0
  0
ARC
  5
58DB
330
1E
100
AcDbEntity
  8
躯体と製品
  6
Continuous
 62
     4
100
AcDbCircle
 10
1668.097064523809
 20
1859.767389004261
 30
0.0
 40
11.000001
100
AcDbArc
 50
180.0
 51
270.0
  0
LINE
  5
58DC
330
1E
100
AcDbEntity
  8
躯体と製品
  6
Continuous
 62
     4
100
AcDbLine
 10
1657.097066523809
 20
1920.26739000426
 30
0.0
 11
1647.097064523809
 21
1920.26739000426
 31
0.0
  0
ARC
  5
58DD
330
1E
100
AcDbEntity
  8
躯体と製品
  6
Continuous
 62
     4
100
AcDbCircle
 10
1668.097064523809
 20
1830.76738800426
 30
0.0
 40
11.000001
100
AcDbArc
 50
90.0
 51
180.0
  0
ARC
  5
58DE
330
1E
100
AcDbEntity
  8
躯体と製品
  6
Continuous
 62
     3
100
AcDbCircle
 10
1649.786198523809
 20
1884.23677500426
 30
0.0
 40
5.873625
100
AcDbArc
 50
136.3124769999993
 51
243.1664150000017
  0
ARC
  5
58DF
330
1E
100
AcDbEntity
  8
躯体と製品
  6
Continuous
 62
     3
100
AcDbCircle
 10
1598.813576523809
 20
1885.01731800426
 30
0.0
 40
4.569471
100
AcDbArc
 50
138.0892499999994
 51
237.6428859999999
  0
LINE
  5
58E0
330
1E
100
AcDbEntity
  8
躯体と製品
  6
PLINE2
 62
     3
100
AcDbLine
 10
1627.097066523809
 20
1931.26738800426
 30
0.0
 11
1627.097066523809
 21
1840.26738900426
 31
0.0
  0
LINE
  5
58E1
330
1E
100
AcDbEntity
  8
躯体と製品
  6
Continuous
 62
     4
100
AcDbLine
 10
1597.097066523809
 20
1840.26738900426
 30
0.0
 11
1647.097064523809
 21
1840.26738900426
 31
0.0
  0
ARC
  5
58E2
330
1E
100
AcDbEntity
  8
躯体と製品
  6
Continuous
 62
     3
100
AcDbCircle
 10
1598.168273523809
 20
1855.41143400426
 30
0.0
 40
3.697373999999999
100
AcDbArc
 50
128.5375140000003
 51
247.8442080000013
  0
ARC
  5
58E3
330
1E
100
AcDbEntity
  8
躯体と製品
  6
Continuous
 62
     3
100
AcDbCircle
 10
1597.518125523809
 20
1849.63467000426
 30
0.0
 40
3.089472
100
AcDbArc
 50
121.3113670000005
 51
253.3001519999984
  0
ARC
  5
58E4
330
1E
100
AcDbEntity
  8
躯体と製品
  6
Continuous
 62
     3
100
AcDbCircle
 10
1597.488026523809
 20
1844.43719700426
 30
0.0
 40
3.108549
100
AcDbArc
 50
122.5206689999993
 51
256.7187870000001
  0
ARC
  5
58E5
330
1E
100
AcDbEntity
  8
躯体と製品
  6
Continuous
 62
     3
100
AcDbCircle
 10
1597.849010523809
 20
1866.873102004261
 30
0.0
 40
3.389007
100
AcDbArc
 50
127.8611389999998
 51
248.9247110000015
  0
ARC
  5
58E6
330
1E
100
AcDbEntity
  8
躯体と製品
  6
Continuous
 62
     3
100
AcDbCircle
 10
1599.180233523809
 20
1872.86037000426
 30
0.0
 40
4.514427
100
AcDbArc
 50
139.080231000001
 51
240.617798
  0
ARC
  5
58E7
330
1E
100
AcDbEntity
  8
躯体と製品
  6
Continuous
 62
     3
100
AcDbCircle
 10
1597.976249523808
 20
1861.38436500426
 30
0.0
 40
3.644951999999999
100
AcDbArc
 50
127.2692559999989
 51
247.5187620000012
  0
ARC
  5
58E8
330
1E
100
AcDbEntity
  8
躯体と製品
  6
Continuous
 62
     3
100
AcDbCircle
 10
1598.384609523809
 20
1878.73667400426
 30
0.0
 40
3.983934
100
AcDbArc
 50
130.8870800000005
 51
244.0433020000007
  0
ARC
  5
58E9
330
1E
100
AcDbEntity
  8
躯体と製品
  6
Continuous
 62
     3
100
AcDbCircle
 10
1648.569191523809
 20
1855.55353800426
 30
0.0
 40
4.568096999999999
100
AcDbArc
 50
129.2706930000011
 51
247.9909109999991
  0
ARC
  5
58EA
330
1E
100
AcDbEntity
  8
躯体と製品
  6
Continuous
 62
     3
100
AcDbCircle
 10
1648.563434523809
 20
1848.32498400426
 30
0.0
 40
4.292886
100
AcDbArc
 50
127.4138729999999
 51
244.5473259999995
  0
ARC
  5
58EB
330
1E
100
AcDbEntity
  8
躯体と製品
  6
Continuous
 62
     3
100
AcDbCircle
 10
1648.563434523809
 20
1868.36938500426
 30
0.0
 40
4.292886
100
AcDbArc
 50
127.4138729999999
 51
244.5473259999995
  0
ARC
  5
58EC
330
1E
100
AcDbEntity
  8
躯体と製品
  6
Continuous
 62
     3
100
AcDbCircle
 10
1647.589091523809
 20
1862.06636400426
 30
0.0
 40
3.658490999999999
100
AcDbArc
 50
125.4059710000008
 51
260.6713430000005
  0
ARC
  5
58ED
330
1E
100
AcDbEntity
  8
躯体と製品
  6
Continuous
 62
     3
100
AcDbCircle
 10
1648.569191523809
 20
1875.59793900426
 30
0.0
 40
4.568096999999999
100
AcDbArc
 50
129.2706930000011
 51
247.9909109999991
  0
LINE
  5
58EE
330
1E
100
AcDbEntity
  8
躯体と製品
  6
PLINE2
 62
     3
100
AcDbLine
 10
1597.097066523809
 20
1931.26738800426
 30
0.0
 11
1627.097066523809
 21
1931.26738800426
 31
0.0
  0
LINE
  5
58EF
330
1E
100
AcDbEntity
  8
躯体と製品
  6
PLINE2
 62
     3
100
AcDbLine
 10
1597.097066523809
 20
1940.26738800426
 30
0.0
 11
1647.097064523809
 21
1940.26738800426
 31
0.0
  0
ARC
  5
58F0
330
1E
100
AcDbEntity
  8
躯体と製品
  6
Continuous
 62
     3
100
AcDbCircle
 10
1597.460411523808
 20
1916.88501300426
 30
0.0
 40
4.153527
100
AcDbArc
 50
139.1288079999996
 51
252.7619840000012
  0
ARC
  5
58F2
330
1E
100
AcDbEntity
  8
躯体と製品
  6
Continuous
 62
     3
100
AcDbCircle
 10
1598.190065523809
 20
1903.95107700426
 30
0.0
 40
4.153527
100
AcDbArc
 50
139.1288079999996
 51
252.7619840000012
  0
ARC
  5
58F3
330
1E
100
AcDbEntity
  8
躯体と製品
  6
Continuous
 62
     3
100
AcDbCircle
 10
1598.084261523809
 20
1891.17781500426
 30
0.0
 40
4.067262
100
AcDbArc
 50
132.7751579999991
 51
250.5783169999996
  0
ARC
  5
58F4
330
1E
100
AcDbEntity
  8
躯体と製品
  6
Continuous
 62
     3
100
AcDbCircle
 10
1598.705003523809
 20
1897.432056004261
 30
0.0
 40
4.294416
100
AcDbArc
 50
136.4032100000001
 51
244.004737
  0
ARC
  5
58F5
330
1E
100
AcDbEntity
  8
躯体と製品
  6
Continuous
 62
     3
100
AcDbCircle
 10
1598.371211523809
 20
1908.95274300426
 30
0.0
 40
3.868136999999999
100
AcDbArc
 50
109.2566380000002
 51
250.5080609999994
  0
ARC
  5
58F6
330
1E
100
AcDbEntity
  8
躯体と製品
  6
Continuous
 62
     3
100
AcDbCircle
 10
1597.641557523809
 20
1921.88667900426
 30
0.0
 40
3.868136999999999
100
AcDbArc
 50
109.2566380000002
 51
250.5080609999994
  0
ARC
  5
58F7
330
1E
100
AcDbEntity
  8
躯体と製品
  6
Continuous
 62
     3
100
AcDbCircle
 10
1650.335096523809
 20
1914.49711200426
 30
0.0
 40
5.815133999999999
100
AcDbArc
 50
133.9096800000004
 51
231.5429419999992
  0
ARC
  5
58F8
330
1E
100
AcDbEntity
  8
躯体と製品
  6
Continuous
 62
     3
100
AcDbCircle
 10
1648.897733523809
 20
1898.62020000426
 30
0.0
 40
4.299786
100
AcDbArc
 50
133.1837860000002
 51
238.4688979999989
  0
ARC
  5
58F9
330
1E
100
AcDbEntity
  8
躯体と製品
  6
Continuous
 62
     3
100
AcDbCircle
 10
1650.867953523809
 20
1906.39139700426
 30
0.0
 40
6.547242
100
AcDbArc
 50
143.4506539999995
 51
234.4945990000008
  0
ARC
  5
58FA
330
1E
100
AcDbEntity
  8
躯体と製品
  6
Continuous
 62
     3
100
AcDbCircle
 10
1648.936382523809
 20
1891.66596900426
 30
0.0
 40
4.728890999999999
100
AcDbArc
 50
135.9272650000009
 51
236.1481000000001
  0
LINE
  5
58FB
330
1E
100
AcDbEntity
  8
躯体と製品
  6
Continuous
 62
     4
100
AcDbLine
 10
1657.097066523809
 20
1859.767389004261
 30
0.0
 11
1657.097066523809
 21
1920.26739000426
 31
0.0
  0
LINE
  5
58FC
330
1E
100
AcDbEntity
  8
躯体と製品
  6
Continuous
 62
     4
100
AcDbLine
 10
1797.097064523809
 20
1770.26739000426
 30
0.0
 11
1797.097064523809
 21
1920.26739000426
 31
0.0
  0
LINE
  5
58FD
330
1E
100
AcDbEntity
  8
躯体と製品
  6
Continuous
 62
     4
100
AcDbLine
 10
1787.097065523809
 20
1830.76738800426
 30
0.0
 11
1787.097065523809
 21
1770.26739000426
 31
0.0
  0
LINE
  5
58FE
330
1E
100
AcDbEntity
  8
躯体と製品
  6
Continuous
 62
     4
100
AcDbLine
 10
1787.097065523809
 20
1770.26739000426
 30
0.0
 11
1797.097064523809
 21
1770.26739000426
 31
0.0
  0
LINE
  5
58FF
330
1E
100
AcDbEntity
  8
躯体と製品
  6
Continuous
 62
     4
100
AcDbLine
 10
1787.097065523809
 20
1859.767389004261
 30
0.0
 11
1787.097065523809
 21
1920.26739000426
 31
0.0
  0
ARC
  5
5900
330
1E
100
AcDbEntity
  8
躯体と製品
  6
Continuous
 62
     4
100
AcDbCircle
 10
1776.097064523809
 20
1859.767389004261
 30
0.0
 40
11.000001
100
AcDbArc
 50
270.0
 51
0.0
  0
ARC
  5
5901
330
1E
100
AcDbEntity
  8
躯体と製品
  6
Continuous
 62
     4
100
AcDbCircle
 10
1776.097064523809
 20
1830.76738800426
 30
0.0
 40
11.000001
100
AcDbArc
 50
0.0
 51
90.0
  0
LINE
  5
5902
330
1E
100
AcDbEntity
  8
躯体と製品
  6
Continuous
 62
     4
100
AcDbLine
 10
1797.097064523809
 20
1920.26739000426
 30
0.0
 11
1787.097065523809
 21
1920.26739000426
 31
0.0
  0
LINE
  5
5905
330
1E
100
AcDbEntity
  8
躯体と製品
  6
PLINE2
 62
     3
100
AcDbLine
 10
1527.097064523809
 20
2037.06738900426
 30
0.0
 11
1859.902655523809
 21
2037.06738900426
 31
0.0
  0
LINE
  5
5906
330
1E
100
AcDbEntity
  8
躯体と製品
  6
Continuous
 62
     4
100
AcDbLine
 10
1859.902655523809
 20
2100.26739000426
 30
0.0
 11
1474.168133523809
 21
2100.26739000426
 31
0.0
  0
LINE
  5
5907
330
1E
100
AcDbEntity
  8
躯体と製品
  6
PLINE2
 62
     3
100
AcDbLine
 10
1472.587187523809
 20
2101.84833600426
 30
0.0
 11
1859.902655523809
 21
2101.84833600426
 31
0.0
  0
LINE
  5
5908
330
1E
100
AcDbEntity
  8
躯体と製品
  6
Continuous
 62
     4
100
AcDbLine
 10
1459.168133523809
 20
2115.26739000426
 30
0.0
 11
1859.902655523809
 21
2115.26739000426
 31
0.0
  0
LINE
  5
5909
330
1E
100
AcDbEntity
  8
躯体と製品
  6
Continuous
 62
     4
100
AcDbLine
 10
1527.097064523809
 20
2040.26739000426
 30
0.0
 11
1859.902655523809
 21
2040.26739000426
 31
0.0
  0
LINE
  5
590A
330
1E
100
AcDbEntity
  8
躯体と製品
  6
Continuous
 62
     3
100
AcDbLine
 10
1746.597065523809
 20
2078.767389004261
 30
0.0
 11
1747.097066523809
 21
2078.267388004261
 31
0.0
  0
ARC
  5
590B
330
1E
100
AcDbEntity
  8
躯体と製品
  6
Continuous
 62
     3
100
AcDbCircle
 10
1749.597065523809
 20
2097.36738900426
 30
0.0
 40
9.0
100
AcDbArc
 50
250.5287789999987
 51
270.0
  0
LINE
  5
590C
330
1E
100
AcDbEntity
  8
躯体と製品
  6
Continuous
 62
     3
100
AcDbLine
 10
1749.597065523809
 20
2093.167389004261
 30
0.0
 11
1743.497066523809
 21
2093.167389004261
 31
0.0
  0
LINE
  5
590D
330
1E
100
AcDbEntity
  8
躯体と製品
  6
Continuous
 62
     3
100
AcDbLine
 10
1755.847064523809
 20
2094.667389004261
 30
0.0
 11
1743.347066523809
 21
2094.667389004261
 31
0.0
  0
LINE
  5
590E
330
1E
100
AcDbEntity
  8
躯体と製品
  6
Continuous
 62
     3
100
AcDbLine
 10
1744.535711523809
 20
2088.36738900426
 30
0.0
 11
1754.658419523809
 21
2088.36738900426
 31
0.0
  0
LINE
  5
590F
330
1E
100
AcDbEntity
  8
躯体と製品
  6
Continuous
 62
     3
100
AcDbLine
 10
1746.597065523809
 20
2078.767389004261
 30
0.0
 11
1752.597065523809
 21
2078.767389004261
 31
0.0
  0
LINE
  5
5910
330
1E
100
AcDbEntity
  8
躯体と製品
  6
PLINE2
 62
     3
100
AcDbLine
 10
1758.897065523809
 20
2104.36738800426
 30
0.0
 11
1740.297065523809
 21
2104.36738800426
 31
0.0
  0
LINE
  5
5911
330
1E
100
AcDbEntity
  8
躯体と製品
  6
Continuous
 62
     4
100
AcDbLine
 10
1770.597065523809
 20
2096.26738800426
 30
0.0
 11
1730.097065523809
 21
2096.26738800426
 31
0.0
  0
LINE
  5
5912
330
1E
100
AcDbEntity
  8
躯体と製品
  6
PLINE2
 62
     3
100
AcDbLine
 10
1740.097064523809
 20
2102.767389004261
 30
0.0
 11
1759.097066523809
 21
2102.767389004261
 31
0.0
  0
LINE
  5
5916
330
1E
100
AcDbEntity
  8
躯体と製品
  6
Continuous
 62
     4
100
AcDbLine
 10
1414.168133523809
 20
2160.26739000426
 30
0.0
 11
1859.902655523809
 21
2160.26739000426
 31
0.0
  0
LINE
  5
591A
330
1E
100
AcDbEntity
  8
躯体と製品
  6
Continuous
 62
     3
100
AcDbLine
 10
1472.697065523808
 20
1961.51739000426
 30
0.0
 11
1471.097066523809
 21
1961.51739000426
 31
0.0
  0
LINE
  5
591B
330
1E
100
AcDbEntity
  8
躯体と製品
  6
Continuous
 62
     3
100
AcDbLine
 10
1472.697065523808
 20
1949.01738900426
 30
0.0
 11
1471.097066523809
 21
1949.01738900426
 31
0.0
  0
LINE
  5
591C
330
1E
100
AcDbEntity
  8
躯体と製品
  6
PLINE2
 62
     3
100
AcDbLine
 10
1467.097064523809
 20
1949.26738800426
 30
0.0
 11
1467.097064523809
 21
1961.26738800426
 31
0.0
  0
LINE
  5
591D
330
1E
100
AcDbEntity
  8
躯体と製品
  6
PLINE2
 62
     3
100
AcDbLine
 10
1467.097064523809
 20
1958.26738800426
 30
0.0
 11
1471.097066523809
 21
1958.26738800426
 31
0.0
  0
LINE
  5
591E
330
1E
100
AcDbEntity
  8
躯体と製品
  6
PLINE2
 62
     3
100
AcDbLine
 10
1467.097064523809
 20
1961.26738800426
 30
0.0
 11
1464.597065523809
 21
1961.26738800426
 31
0.0
  0
LINE
  5
591F
330
1E
100
AcDbEntity
  8
躯体と製品
  6
PLINE2
 62
     3
100
AcDbLine
 10
1471.097066523809
 20
1952.26738800426
 30
0.0
 11
1467.097064523809
 21
1952.26738800426
 31
0.0
  0
LINE
  5
5920
330
1E
100
AcDbEntity
  8
躯体と製品
  6
PLINE2
 62
     3
100
AcDbLine
 10
1464.597065523809
 20
1949.26738800426
 30
0.0
 11
1467.097064523809
 21
1949.26738800426
 31
0.0
  0
LINE
  5
5921
330
1E
100
AcDbEntity
  8
躯体と製品
  6
PLINE2
 62
     3
100
AcDbLine
 10
1461.597065523809
 20
1967.76738900426
 30
0.0
 11
1459.097066523809
 21
1967.76738900426
 31
0.0
  0
LINE
  5
5922
330
1E
100
AcDbEntity
  8
躯体と製品
  6
PLINE2
 62
     3
100
AcDbLine
 10
1461.397064523809
 20
1966.16739000426
 30
0.0
 11
1459.097066523809
 21
1966.16739000426
 31
0.0
  0
LINE
  5
5923
330
1E
100
AcDbEntity
  8
躯体と製品
  6
PLINE2
 62
     3
100
AcDbLine
 10
1459.097066523809
 20
1967.76738900426
 30
0.0
 11
1459.097066523809
 21
1966.16739000426
 31
0.0
  0
ARC
  5
5924
330
1E
100
AcDbEntity
  8
躯体と製品
  6
PLINE2
 62
     3
100
AcDbCircle
 10
1461.597065523809
 20
1964.767389004261
 30
0.0
 40
3.0
100
AcDbArc
 50
0.0
 51
90.0
  0
ARC
  5
5925
330
1E
100
AcDbEntity
  8
躯体と製品
  6
PLINE2
 62
     3
100
AcDbCircle
 10
1461.397064523809
 20
1964.56738800426
 30
0.0
 40
1.599998999999999
100
AcDbArc
 50
0.0
 51
90.0
  0
ARC
  5
5926
330
1E
100
AcDbEntity
  8
躯体と製品
  6
Continuous
 62
     4
100
AcDbCircle
 10
1467.597065523809
 20
1974.76738800426
 30
0.0
 40
0.5000010000000001
100
AcDbArc
 50
90.0
 51
180.0
  0
ARC
  5
5927
330
1E
100
AcDbEntity
  8
躯体と製品
  6
Continuous
 62
     4
100
AcDbCircle
 10
1470.597065523809
 20
1974.76738800426
 30
0.0
 40
0.5000010000000001
100
AcDbArc
 50
0.0
 51
90.0
  0
LINE
  5
5928
330
1E
100
AcDbEntity
  8
躯体と製品
  6
Continuous
 62
     4
100
AcDbLine
 10
1470.597065523809
 20
1975.267389004261
 30
0.0
 11
1467.597065523809
 21
1975.267389004261
 31
0.0
  0
LINE
  5
5929
330
1E
100
AcDbEntity
  8
躯体と製品
  6
Continuous
 62
     3
100
AcDbLine
 10
1478.997065523809
 20
1958.26738800426
 30
0.0
 11
1488.597065523809
 21
1958.26738800426
 31
0.0
  0
LINE
  5
592A
330
1E
100
AcDbEntity
  8
躯体と製品
  6
Continuous
 62
     3
100
AcDbLine
 10
1478.997065523809
 20
1957.76739000426
 30
0.0
 11
1489.097066523809
 21
1957.76739000426
 31
0.0
  0
LINE
  5
592B
330
1E
100
AcDbEntity
  8
躯体と製品
  6
Continuous
 62
     3
100
AcDbLine
 10
1478.997065523809
 20
1952.26738800426
 30
0.0
 11
1488.597065523809
 21
1952.26738800426
 31
0.0
  0
LINE
  5
592C
330
1E
100
AcDbEntity
  8
躯体と製品
  6
Continuous
 62
     3
100
AcDbLine
 10
1478.997065523809
 20
1952.767389004261
 30
0.0
 11
1489.097066523809
 21
1952.767389004261
 31
0.0
  0
ARC
  5
592D
330
1E
100
AcDbEntity
  8
躯体と製品
  6
Continuous
 62
     3
100
AcDbCircle
 10
1469.997065523809
 20
1955.26738800426
 30
0.0
 40
9.0
100
AcDbArc
 50
0.0
 51
19.47122100000025
  0
LINE
  5
592E
330
1E
100
AcDbEntity
  8
躯体と製品
  6
Continuous
 62
     3
100
AcDbLine
 10
1474.197065523808
 20
1955.26738800426
 30
0.0
 11
1472.697065523808
 21
1953.76738800426
 31
0.0
  0
LINE
  5
592F
330
1E
100
AcDbEntity
  8
躯体と製品
  6
Continuous
 62
     3
100
AcDbLine
 10
1474.197065523808
 20
1961.36739000426
 30
0.0
 11
1474.197065523808
 21
1955.26738800426
 31
0.0
  0
LINE
  5
5930
330
1E
100
AcDbEntity
  8
躯体と製品
  6
Continuous
 62
     3
100
AcDbLine
 10
1472.697065523808
 20
1955.26738800426
 30
0.0
 11
1474.197065523808
 21
1956.76738800426
 31
0.0
  0
LINE
  5
5931
330
1E
100
AcDbEntity
  8
躯体と製品
  6
Continuous
 62
     3
100
AcDbLine
 10
1472.697065523808
 20
1961.51739000426
 30
0.0
 11
1472.697065523808
 21
1949.01738900426
 31
0.0
  0
LINE
  5
5932
330
1E
100
AcDbEntity
  8
躯体と製品
  6
Continuous
 62
     3
100
AcDbLine
 10
1478.997065523809
 20
1950.20603400426
 30
0.0
 11
1478.997065523809
 21
1960.32874200426
 31
0.0
  0
ARC
  5
5933
330
1E
100
AcDbEntity
  8
躯体と製品
  6
Continuous
 62
     3
100
AcDbCircle
 10
1476.705065523809
 20
1959.71463900426
 30
0.0
 40
2.291999999999999
100
AcDbArc
 50
320.8438679999998
 51
0.0
  0
LINE
  5
5934
330
1E
100
AcDbEntity
  8
躯体と製品
  6
Continuous
 62
     3
100
AcDbLine
 10
1478.455139523808
 20
1961.26738800426
 30
0.0
 11
1474.197065523808
 21
1961.26738800426
 31
0.0
  0
LINE
  5
5935
330
1E
100
AcDbEntity
  8
躯体と製品
  6
Continuous
 62
     3
100
AcDbLine
 10
1478.482346523809
 20
1958.26738800426
 30
0.0
 11
1474.197065523808
 21
1958.26738800426
 31
0.0
  0
LINE
  5
5936
330
1E
100
AcDbEntity
  8
躯体と製品
  6
Continuous
 62
     3
100
AcDbLine
 10
1474.197065523808
 20
1961.36739000426
 30
0.0
 11
1472.697065523808
 21
1961.36739000426
 31
0.0
  0
LINE
  5
5937
330
1E
100
AcDbEntity
  8
躯体と製品
  6
Continuous
 62
     3
100
AcDbLine
 10
1478.997065523809
 20
1960.32874200426
 30
0.0
 11
1478.455139523808
 21
1961.26738800426
 31
0.0
  0
ARC
  5
5938
330
1E
100
AcDbEntity
  8
躯体と製品
  6
Continuous
 62
     3
100
AcDbCircle
 10
1476.705065523809
 20
1950.82013700426
 30
0.0
 40
2.291999999999999
100
AcDbArc
 50
0.0
 51
39.15613200000026
  0
ARC
  5
5939
330
1E
100
AcDbEntity
  8
躯体と製品
  6
Continuous
 62
     3
100
AcDbCircle
 10
1469.997065523809
 20
1955.26738800426
 30
0.0
 40
9.0
100
AcDbArc
 50
340.5287789999998
 51
0.0
  0
LINE
  5
593A
330
1E
100
AcDbEntity
  8
躯体と製品
  6
Continuous
 62
     3
100
AcDbLine
 10
1478.455139523808
 20
1949.26738800426
 30
0.0
 11
1478.997065523809
 21
1950.20603400426
 31
0.0
  0
LINE
  5
593B
330
1E
100
AcDbEntity
  8
躯体と製品
  6
Continuous
 62
     3
100
AcDbLine
 10
1478.455139523808
 20
1949.26738800426
 30
0.0
 11
1474.197065523808
 21
1949.26738800426
 31
0.0
  0
LINE
  5
593C
330
1E
100
AcDbEntity
  8
躯体と製品
  6
Continuous
 62
     3
100
AcDbLine
 10
1478.482346523809
 20
1952.26738800426
 30
0.0
 11
1474.197065523808
 21
1952.26738800426
 31
0.0
  0
LINE
  5
593D
330
1E
100
AcDbEntity
  8
躯体と製品
  6
Continuous
 62
     3
100
AcDbLine
 10
1474.197065523808
 20
1955.26738800426
 30
0.0
 11
1474.197065523808
 21
1949.16738900426
 31
0.0
  0
LINE
  5
593E
330
1E
100
AcDbEntity
  8
躯体と製品
  6
Continuous
 62
     3
100
AcDbLine
 10
1472.697065523808
 20
1949.16738900426
 30
0.0
 11
1474.197065523808
 21
1949.16738900426
 31
0.0
  0
LINE
  5
593F
330
1E
100
AcDbEntity
  8
躯体と製品
  6
Continuous
 62
     3
100
AcDbLine
 10
1489.097066523809
 20
1952.767389004261
 30
0.0
 11
1489.097066523809
 21
1957.76739000426
 31
0.0
  0
LINE
  5
5940
330
1E
100
AcDbEntity
  8
躯体と製品
  6
Continuous
 62
     3
100
AcDbLine
 10
1488.597065523809
 20
1952.26738800426
 30
0.0
 11
1488.597065523809
 21
1958.26738800426
 31
0.0
  0
LINE
  5
5941
330
1E
100
AcDbEntity
  8
躯体と製品
  6
Continuous
 62
     3
100
AcDbLine
 10
1488.597065523809
 20
1958.26738800426
 30
0.0
 11
1489.097066523809
 21
1957.76739000426
 31
0.0
  0
LINE
  5
5942
330
1E
100
AcDbEntity
  8
躯体と製品
  6
Continuous
 62
     3
100
AcDbLine
 10
1488.597065523809
 20
1952.26738800426
 30
0.0
 11
1489.097066523809
 21
1952.767389004261
 31
0.0
  0
LINE
  5
5943
330
1E
100
AcDbEntity
  8
躯体と製品
  6
Continuous
 62
     4
100
AcDbLine
 10
1414.168133523809
 20
2160.26739000426
 30
0.0
 11
1474.168133523809
 21
2100.26739000426
 31
0.0
  0
LINE
  5
5944
330
1E
100
AcDbEntity
  8
躯体と製品
  6
Continuous
 62
     4
100
AcDbLine
 10
1407.097064523809
 20
2153.19632100426
 30
0.0
 11
1467.097064523809
 21
2093.19632100426
 31
0.0
  0
LINE
  5
5949
330
1E
100
AcDbEntity
  8
躯体と製品
  6
Continuous
 62
     3
100
AcDbLine
 10
1636.582196523809
 20
2078.767389004261
 30
0.0
 11
1636.582196523809
 21
2061.76738800426
 31
0.0
  0
LINE
  5
594A
330
1E
100
AcDbEntity
  8
躯体と製品
  6
Continuous
 62
     3
100
AcDbLine
 10
1654.582196523809
 20
2076.86739000426
 30
0.0
 11
1654.582196523809
 21
2063.66739000426
 31
0.0
  0
ARC
  5
594B
330
1E
100
AcDbEntity
  8
躯体と製品
  6
Continuous
 62
     3
100
AcDbCircle
 10
1634.015363523809
 20
2076.26386800426
 30
0.0
 40
2.994614999999999
100
AcDbArc
 50
191.6267950000001
 51
221.8120719999996
  0
LINE
  5
594C
330
1E
100
AcDbEntity
  8
躯体と製品
  6
Continuous
 62
     3
100
AcDbLine
 10
1631.082194523809
 20
2076.86739000426
 30
0.0
 11
1631.082194523809
 21
2063.66739000426
 31
0.0
  0
LINE
  5
594D
330
1E
100
AcDbEntity
  8
躯体と製品
  6
Continuous
 62
     3
100
AcDbLine
 10
1648.182194523809
 20
2078.10738900426
 30
0.0
 11
1648.182194523809
 21
2062.42738800426
 31
0.0
  0
ARC
  5
594E
330
1E
100
AcDbEntity
  8
躯体と製品
  6
Continuous
 62
     3
100
AcDbCircle
 10
1651.649027523809
 20
2076.26386800426
 30
0.0
 40
2.994614999999999
100
AcDbArc
 50
318.1879280000003
 51
348.3732049999998
  0
LINE
  5
594F
330
1E
100
AcDbEntity
  8
躯体と製品
  6
Continuous
 62
     4
100
AcDbLine
 10
1646.182196523809
 20
2050.76739000426
 30
0.0
 11
1646.182196523809
 21
2087.26738800426
 31
0.0
  0
LINE
  5
5950
330
1E
100
AcDbEntity
  8
躯体と製品
  6
Continuous
 62
     4
100
AcDbLine
 10
1642.182194523809
 20
2090.26738800426
 30
0.0
 11
1642.182194523809
 21
2040.26739000426
 31
0.0
  0
LINE
  5
5951
330
1E
100
AcDbEntity
  8
躯体と製品
  6
Continuous
 62
     4
100
AcDbLine
 10
1638.182195523809
 20
2091.26739000426
 30
0.0
 11
1638.182195523809
 21
2050.76739000426
 31
0.0
  0
LINE
  5
5952
330
1E
100
AcDbEntity
  8
躯体と製品
  6
Continuous
 62
     4
100
AcDbLine
 10
1642.182194523809
 20
2050.76739000426
 30
0.0
 11
1642.182194523809
 21
2100.26739000426
 31
0.0
  0
LINE
  5
5953
330
1E
100
AcDbEntity
  8
躯体と製品
  6
Continuous
 62
     3
100
AcDbLine
 10
1660.932596523809
 20
2066.267388004261
 30
0.0
 11
1654.582196523809
 21
2066.267388004261
 31
0.0
  0
LINE
  5
5954
330
1E
100
AcDbEntity
  8
躯体と製品
  6
Continuous
 62
     3
100
AcDbLine
 10
1654.582196523809
 20
2074.267389004261
 30
0.0
 11
1660.932596523809
 21
2074.267389004261
 31
0.0
  0
LINE
  5
5955
330
1E
100
AcDbEntity
  8
躯体と製品
  6
Continuous
 62
     4
100
AcDbLine
 10
1652.682194523809
 20
2044.267389004261
 30
0.0
 11
1689.182195523809
 21
2044.267389004261
 31
0.0
  0
LINE
  5
5956
330
1E
100
AcDbEntity
  8
躯体と製品
  6
Continuous
 62
     4
100
AcDbLine
 10
1597.097066523809
 20
1990.267389004261
 30
0.0
 11
1647.097064523809
 21
1990.267389004261
 31
0.0
  0
ARC
  5
5957
330
1E
100
AcDbEntity
  8
躯体と製品
  6
Continuous
 62
     3
100
AcDbCircle
 10
1599.761819523808
 20
1981.61105100426
 30
0.0
 40
5.313128999999999
100
AcDbArc
 50
156.4566079999989
 51
235.6232779999991
  0
ARC
  5
5958
330
1E
100
AcDbEntity
  8
躯体と製品
  6
Continuous
 62
     3
100
AcDbCircle
 10
1598.893757523809
 20
1966.13863200426
 30
0.0
 40
4.644167999999999
100
AcDbArc
 50
146.9389510000006
 51
242.0405740000004
  0
ARC
  5
5959
330
1E
100
AcDbEntity
  8
躯体と製品
  6
Continuous
 62
     3
100
AcDbCircle
 10
1598.488958523809
 20
1953.25004400426
 30
0.0
 40
4.182681
100
AcDbArc
 50
136.4291039999994
 51
248.547068000001
  0
ARC
  5
595A
330
1E
100
AcDbEntity
  8
躯体と製品
  6
Continuous
 62
     3
100
AcDbCircle
 10
1598.970437523809
 20
1959.58536600426
 30
0.0
 40
4.611188999999999
100
AcDbArc
 50
137.0562530000008
 51
247.8524459999999
  0
ARC
  5
595B
330
1E
100
AcDbEntity
  8
躯体と製品
  6
Continuous
 62
     3
100
AcDbCircle
 10
1598.807819523809
 20
1971.76195500426
 30
0.0
 40
4.669040999999999
100
AcDbArc
 50
147.052798
 51
241.3224400000003
  0
ARC
  5
595C
330
1E
100
AcDbEntity
  8
躯体と製品
  6
Continuous
 62
     3
100
AcDbCircle
 10
1597.869968523809
 20
1976.666877004261
 30
0.0
 40
3.834426
100
AcDbArc
 50
139.0861829999996
 51
253.2024939999995
  0
ARC
  5
595D
330
1E
100
AcDbEntity
  8
躯体と製品
  6
Continuous
 62
     3
100
AcDbCircle
 10
1598.371238523809
 20
1985.03890500426
 30
0.0
 40
3.738843
100
AcDbArc
 50
114.1227289999997
 51
235.8759820000004
  0
ARC
  5
595E
330
1E
100
AcDbEntity
  8
躯体と製品
  6
Continuous
 62
     3
100
AcDbCircle
 10
1643.326178523809
 20
1976.47369200426
 30
0.0
 40
6.547242
100
AcDbArc
 50
305.5054009999992
 51
36.54934600000045
  0
ARC
  5
595F
330
1E
100
AcDbEntity
  8
躯体と製品
  6
Continuous
 62
     3
100
AcDbCircle
 10
1643.859035523808
 20
1984.57940700426
 30
0.0
 40
5.815133999999999
100
AcDbArc
 50
308.4570580000008
 51
46.09031999999957
  0
ARC
  5
5960
330
1E
100
AcDbEntity
  8
躯体と製品
  6
Continuous
 62
     3
100
AcDbCircle
 10
1645.257749523809
 20
1961.74826400426
 30
0.0
 40
4.728890999999999
100
AcDbArc
 50
303.8518999999999
 51
44.07273499999909
  0
ARC
  5
5961
330
1E
100
AcDbEntity
  8
躯体と製品
  6
Continuous
 62
     3
100
AcDbCircle
 10
1644.407933523809
 20
1954.31907300426
 30
0.0
 40
5.873625
100
AcDbArc
 50
296.8335849999983
 51
43.6875230000006
  0
ARC
  5
5962
330
1E
100
AcDbEntity
  8
躯体と製品
  6
Continuous
 62
     3
100
AcDbCircle
 10
1645.296398523809
 20
1968.70249500426
 30
0.0
 40
4.299786
100
AcDbArc
 50
301.5311020000011
 51
46.81621399999984
  0
ARC
  5
5963
330
1E
100
AcDbEntity
  8
躯体と製品
  6
Continuous
 62
     4
100
AcDbCircle
 10
1652.682194523809
 20
2050.76739000426
 30
0.0
 40
6.500000999999999
100
AcDbArc
 50
180.0
 51
270.0
  0
LINE
  5
5964
330
1E
100
AcDbEntity
  8
躯体と製品
  6
Continuous
 62
     3
100
AcDbLine
 10
1631.783369523809
 20
2066.267388004261
 30
0.0
 11
1636.682195523809
 21
2066.267388004261
 31
0.0
  0
LINE
  5
5965
330
1E
100
AcDbEntity
  8
躯体と製品
  6
Continuous
 62
     3
100
AcDbLine
 10
1631.783369523809
 20
2074.267389004261
 30
0.0
 11
1636.682195523809
 21
2074.267389004261
 31
0.0
  0
LINE
  5
5966
330
1E
100
AcDbEntity
  8
躯体と製品
  6
Continuous
 62
     3
100
AcDbLine
 10
1631.783369523809
 20
2062.42738800426
 30
0.0
 11
1636.682195523809
 21
2062.42738800426
 31
0.0
  0
ARC
  5
5967
330
1E
100
AcDbEntity
  8
躯体と製品
  6
Continuous
 62
     3
100
AcDbCircle
 10
1642.842194523809
 20
2070.26739000426
 30
0.0
 40
11.76
100
AcDbArc
 50
160.1148369999995
 51
199.8851630000005
  0
ARC
  5
5968
330
1E
100
AcDbEntity
  8
躯体と製品
  6
Continuous
 62
     3
100
AcDbCircle
 10
1634.015363523809
 20
2064.27091200426
 30
0.0
 40
2.994614999999999
100
AcDbArc
 50
138.1879280000004
 51
168.3732049999998
  0
LINE
  5
5969
330
1E
100
AcDbEntity
  8
躯体と製品
  6
Continuous
 62
     3
100
AcDbLine
 10
1631.082194523809
 20
2063.66739000426
 30
0.0
 11
1631.783369523809
 21
2062.42738800426
 31
0.0
  0
LINE
  5
596A
330
1E
100
AcDbEntity
  8
躯体と製品
  6
Continuous
 62
     4
100
AcDbLine
 10
1641.682196523809
 20
2050.267389004261
 30
0.0
 11
1638.682196523809
 21
2050.267389004261
 31
0.0
  0
ARC
  5
596B
330
1E
100
AcDbEntity
  8
躯体と製品
  6
Continuous
 62
     4
100
AcDbCircle
 10
1641.682196523809
 20
2050.76739000426
 30
0.0
 40
0.5000010000000001
100
AcDbArc
 50
270.0
 51
0.0
  0
ARC
  5
596C
330
1E
100
AcDbEntity
  8
躯体と製品
  6
Continuous
 62
     4
100
AcDbCircle
 10
1638.682196523809
 20
2050.76739000426
 30
0.0
 40
0.5000010000000001
100
AcDbArc
 50
180.0
 51
270.0
  0
LINE
  5
596D
330
1E
100
AcDbEntity
  8
躯体と製品
  6
Continuous
 62
     3
100
AcDbLine
 10
1636.582196523809
 20
2061.76738800426
 30
0.0
 11
1638.182195523809
 21
2061.76738800426
 31
0.0
  0
LINE
  5
596E
330
1E
100
AcDbEntity
  8
躯体と製品
  6
Continuous
 62
     3
100
AcDbLine
 10
1646.182196523809
 20
2062.56738900426
 30
0.0
 11
1648.182194523809
 21
2062.56738900426
 31
0.0
  0
LINE
  5
596F
330
1E
100
AcDbEntity
  8
躯体と製品
  6
Continuous
 62
     3
100
AcDbLine
 10
1648.182194523809
 20
2072.26738800426
 30
0.0
 11
1646.182196523809
 21
2070.26739000426
 31
0.0
  0
LINE
  5
5970
330
1E
100
AcDbEntity
  8
躯体と製品
  6
Continuous
 62
     3
100
AcDbLine
 10
1646.182196523809
 20
2068.267389004261
 30
0.0
 11
1648.182194523809
 21
2070.26739000426
 31
0.0
  0
LINE
  5
5971
330
1E
100
AcDbEntity
  8
躯体と製品
  6
Continuous
 62
     3
100
AcDbLine
 10
1653.881018523809
 20
2062.42738800426
 30
0.0
 11
1648.182194523809
 21
2062.42738800426
 31
0.0
  0
LINE
  5
5972
330
1E
100
AcDbEntity
  8
躯体と製品
  6
Continuous
 62
     3
100
AcDbLine
 10
1648.182194523809
 20
2066.267388004261
 30
0.0
 11
1653.881018523809
 21
2066.267388004261
 31
0.0
  0
LINE
  5
5973
330
1E
100
AcDbEntity
  8
躯体と製品
  6
Continuous
 62
     3
100
AcDbLine
 10
1653.881018523809
 20
2074.267389004261
 30
0.0
 11
1648.182194523809
 21
2074.267389004261
 31
0.0
  0
ARC
  5
5974
330
1E
100
AcDbEntity
  8
躯体と製品
  6
Continuous
 62
     3
100
AcDbCircle
 10
1642.822196523809
 20
2070.26739000426
 30
0.0
 40
11.76
100
AcDbArc
 50
340.1148369999995
 51
19.8851630000005
  0
ARC
  5
5975
330
1E
100
AcDbEntity
  8
躯体と製品
  6
Continuous
 62
     3
100
AcDbCircle
 10
1651.649027523809
 20
2064.27091200426
 30
0.0
 40
2.994614999999999
100
AcDbArc
 50
11.6267950000002
 51
41.81207199999962
  0
LINE
  5
5976
330
1E
100
AcDbEntity
  8
躯体と製品
  6
Continuous
 62
     3
100
AcDbLine
 10
1654.582196523809
 20
2063.66739000426
 30
0.0
 11
1653.881018523809
 21
2062.42738800426
 31
0.0
  0
ARC
  5
597B
330
1E
100
AcDbEntity
  8
躯体と製品
  6
Continuous
 62
     4
100
AcDbCircle
 10
1689.182195523809
 20
2041.267389004261
 30
0.0
 40
3.0
100
AcDbArc
 50
0.0
 51
90.0
  0
LINE
  5
597C
330
1E
100
AcDbEntity
  8
躯体と製品
  6
Continuous
 62
     3
100
AcDbLine
 10
1663.682195523809
 20
2037.06738900426
 30
0.0
 11
1680.682196523809
 21
2037.06738900426
 31
0.0
  0
LINE
  5
597D
330
1E
100
AcDbEntity
  8
躯体と製品
  6
Continuous
 62
     3
100
AcDbLine
 10
1663.682195523809
 20
2035.46739000426
 30
0.0
 11
1680.682196523809
 21
2035.46739000426
 31
0.0
  0
LINE
  5
597E
330
1E
100
AcDbEntity
  8
躯体と製品
  6
Continuous
 62
     3
100
AcDbLine
 10
1678.782194523809
 20
2029.96738800426
 30
0.0
 11
1665.582194523809
 21
2029.96738800426
 31
0.0
  0
ARC
  5
597F
330
1E
100
AcDbEntity
  8
躯体と製品
  6
Continuous
 62
     3
100
AcDbCircle
 10
1666.185716523809
 20
2032.90055700426
 30
0.0
 40
2.994614999999999
100
AcDbArc
 50
281.6267949999989
 51
311.8120720000008
  0
LINE
  5
5980
330
1E
100
AcDbEntity
  8
躯体と製品
  6
Continuous
 62
     3
100
AcDbLine
 10
1663.682195523809
 20
2037.06738900426
 30
0.0
 11
1663.682195523809
 21
2035.46739000426
 31
0.0
  0
LINE
  5
5981
330
1E
100
AcDbEntity
  8
躯体と製品
  6
Continuous
 62
     3
100
AcDbLine
 10
1665.582194523809
 20
2029.96738800426
 30
0.0
 11
1664.342195523809
 21
2030.66856600426
 31
0.0
  0
LINE
  5
5982
330
1E
100
AcDbEntity
  8
躯体と製品
  6
Continuous
 62
     3
100
AcDbLine
 10
1664.342195523809
 20
2030.66856600426
 30
0.0
 11
1664.342195523809
 21
2035.46739000426
 31
0.0
  0
ARC
  5
5983
330
1E
100
AcDbEntity
  8
躯体と製品
  6
Continuous
 62
     3
100
AcDbCircle
 10
1672.182194523809
 20
2041.727388004261
 30
0.0
 40
11.76
100
AcDbArc
 50
250.114837000001
 51
289.885162999999
  0
ARC
  5
5984
330
1E
100
AcDbEntity
  8
躯体と製品
  6
Continuous
 62
     3
100
AcDbCircle
 10
1678.178672523809
 20
2032.90055700426
 30
0.0
 40
2.994614999999999
100
AcDbArc
 50
228.1879279999992
 51
258.3732050000011
  0
LINE
  5
5985
330
1E
100
AcDbEntity
  8
躯体と製品
  6
Continuous
 62
     3
100
AcDbLine
 10
1668.182195523809
 20
2030.66856600426
 30
0.0
 11
1668.182195523809
 21
2035.46739000426
 31
0.0
  0
LINE
  5
5986
330
1E
100
AcDbEntity
  8
躯体と製品
  6
Continuous
 62
     3
100
AcDbLine
 10
1676.182196523809
 20
2030.66856600426
 30
0.0
 11
1676.182196523809
 21
2035.46739000426
 31
0.0
  0
LINE
  5
5987
330
1E
100
AcDbEntity
  8
躯体と製品
  6
Continuous
 62
     3
100
AcDbLine
 10
1680.682196523809
 20
2035.46739000426
 30
0.0
 11
1680.682196523809
 21
2037.06738900426
 31
0.0
  0
LINE
  5
5988
330
1E
100
AcDbEntity
  8
躯体と製品
  6
Continuous
 62
     3
100
AcDbLine
 10
1680.022196523809
 20
2030.68330200426
 30
0.0
 11
1678.782194523809
 21
2029.96738800426
 31
0.0
  0
LINE
  5
5989
330
1E
100
AcDbEntity
  8
躯体と製品
  6
Continuous
 62
     3
100
AcDbLine
 10
1680.022196523809
 20
2030.68330200426
 30
0.0
 11
1680.022196523809
 21
2035.46739000426
 31
0.0
  0
LINE
  5
598A
330
1E
100
AcDbEntity
  8
躯体と製品
  6
Continuous
 62
     4
100
AcDbLine
 10
1692.182195523808
 20
2041.267389004261
 30
0.0
 11
1692.182195523808
 21
2040.26739000426
 31
0.0
  0
LINE
  5
598B
330
1E
100
AcDbEntity
  8
躯体と製品
  6
Continuous
 62
     3
100
AcDbLine
 10
1663.682195523809
 20
2044.267389004261
 30
0.0
 11
1680.682196523809
 21
2044.267389004261
 31
0.0
  0
LINE
  5
598C
330
1E
100
AcDbEntity
  8
躯体と製品
  6
Continuous
 62
     3
100
AcDbLine
 10
1663.682195523809
 20
2045.867388004261
 30
0.0
 11
1680.682196523809
 21
2045.867388004261
 31
0.0
  0
LINE
  5
598D
330
1E
100
AcDbEntity
  8
躯体と製品
  6
Continuous
 62
     3
100
AcDbLine
 10
1680.022196523809
 20
2047.86738900426
 30
0.0
 11
1664.342195523809
 21
2047.86738900426
 31
0.0
  0
LINE
  5
598E
330
1E
100
AcDbEntity
  8
躯体と製品
  6
Continuous
 62
     3
100
AcDbLine
 10
1665.582194523809
 20
2054.36739000426
 30
0.0
 11
1678.782194523809
 21
2054.36739000426
 31
0.0
  0
LINE
  5
598F
330
1E
100
AcDbEntity
  8
躯体と製品
  6
Continuous
 62
     3
100
AcDbLine
 10
1676.182196523809
 20
2060.01778800426
 30
0.0
 11
1676.182196523809
 21
2054.36739000426
 31
0.0
  0
LINE
  5
5990
330
1E
100
AcDbEntity
  8
躯体と製品
  6
Continuous
 62
     3
100
AcDbLine
 10
1668.182195523809
 20
2060.01778800426
 30
0.0
 11
1668.182195523809
 21
2054.36739000426
 31
0.0
  0
ARC
  5
5991
330
1E
100
AcDbEntity
  8
躯体と製品
  6
Continuous
 62
     3
100
AcDbCircle
 10
1666.185716523809
 20
2051.43422100426
 30
0.0
 40
2.994614999999999
100
AcDbArc
 50
48.18792799999918
 51
78.37320500000107
  0
LINE
  5
5992
330
1E
100
AcDbEntity
  8
躯体と製品
  6
Continuous
 62
     3
100
AcDbLine
 10
1663.682195523809
 20
2045.867388004261
 30
0.0
 11
1663.682195523809
 21
2044.267389004261
 31
0.0
  0
LINE
  5
5993
330
1E
100
AcDbEntity
  8
躯体と製品
  6
Continuous
 62
     3
100
AcDbLine
 10
1664.342195523809
 20
2053.61071800426
 30
0.0
 11
1664.342195523809
 21
2047.86738900426
 31
0.0
  0
LINE
  5
5994
330
1E
100
AcDbEntity
  8
躯体と製品
  6
Continuous
 62
     3
100
AcDbLine
 10
1665.582194523809
 20
2054.36739000426
 30
0.0
 11
1664.342195523809
 21
2053.66621500426
 31
0.0
  0
LINE
  5
5995
330
1E
100
AcDbEntity
  8
躯体と製品
  6
Continuous
 62
     3
100
AcDbLine
 10
1664.482196523809
 20
2047.86738900426
 30
0.0
 11
1664.482196523809
 21
2045.867388004261
 31
0.0
  0
ARC
  5
5996
330
1E
100
AcDbEntity
  8
躯体と製品
  6
Continuous
 62
     3
100
AcDbCircle
 10
1678.178672523809
 20
2051.43422100426
 30
0.0
 40
2.994614999999999
100
AcDbArc
 50
101.6267949999989
 51
131.8120720000008
  0
ARC
  5
5997
330
1E
100
AcDbEntity
  8
躯体と製品
  6
Continuous
 62
     3
100
AcDbCircle
 10
1672.182194523809
 20
2042.60739000426
 30
0.0
 40
11.76
100
AcDbArc
 50
70.11483700000103
 51
109.8851629999989
  0
LINE
  5
5998
330
1E
100
AcDbEntity
  8
躯体と製品
  6
Continuous
 62
     3
100
AcDbLine
 10
1668.182195523809
 20
2047.86738900426
 30
0.0
 11
1668.182195523809
 21
2053.66621500426
 31
0.0
  0
LINE
  5
5999
330
1E
100
AcDbEntity
  8
躯体と製品
  6
Continuous
 62
     3
100
AcDbLine
 10
1676.182196523809
 20
2053.66621500426
 30
0.0
 11
1676.182196523809
 21
2047.86738900426
 31
0.0
  0
LINE
  5
599A
330
1E
100
AcDbEntity
  8
躯体と製品
  6
Continuous
 62
     3
100
AcDbLine
 10
1672.182194523809
 20
2045.867388004261
 30
0.0
 11
1674.182195523808
 21
2047.86738900426
 31
0.0
  0
LINE
  5
599B
330
1E
100
AcDbEntity
  8
躯体と製品
  6
Continuous
 62
     3
100
AcDbLine
 10
1672.182194523809
 20
2047.86738900426
 30
0.0
 11
1670.182196523809
 21
2045.867388004261
 31
0.0
  0
LINE
  5
599C
330
1E
100
AcDbEntity
  8
躯体と製品
  6
Continuous
 62
     3
100
AcDbLine
 10
1661.582195523808
 20
2066.91699000426
 30
0.0
 11
1660.932596523809
 21
2066.267388004261
 31
0.0
  0
LINE
  5
599D
330
1E
100
AcDbEntity
  8
躯体と製品
  6
Continuous
 62
     3
100
AcDbLine
 10
1661.582195523808
 20
2073.61779000426
 30
0.0
 11
1661.582195523808
 21
2066.91699000426
 31
0.0
  0
LINE
  5
599E
330
1E
100
AcDbEntity
  8
躯体と製品
  6
Continuous
 62
     3
100
AcDbLine
 10
1660.932596523809
 20
2074.267389004261
 30
0.0
 11
1661.582195523808
 21
2073.61779000426
 31
0.0
  0
LINE
  5
599F
330
1E
100
AcDbEntity
  8
躯体と製品
  6
Continuous
 62
     3
100
AcDbLine
 10
1668.831794523809
 20
2060.66739000426
 30
0.0
 11
1668.182195523809
 21
2060.01778800426
 31
0.0
  0
LINE
  5
59A0
330
1E
100
AcDbEntity
  8
躯体と製品
  6
Continuous
 62
     3
100
AcDbLine
 10
1676.182196523809
 20
2060.01778800426
 30
0.0
 11
1675.532594523809
 21
2060.66739000426
 31
0.0
  0
LINE
  5
59A1
330
1E
100
AcDbEntity
  8
躯体と製品
  6
Continuous
 62
     3
100
AcDbLine
 10
1668.831524523809
 20
2060.66739000426
 30
0.0
 11
1675.532594523809
 21
2060.66739000426
 31
0.0
  0
LINE
  5
59A2
330
1E
100
AcDbEntity
  8
躯体と製品
  6
Continuous
 62
     3
100
AcDbLine
 10
1680.682196523809
 20
2044.267389004261
 30
0.0
 11
1680.682196523809
 21
2045.867388004261
 31
0.0
  0
LINE
  5
59A3
330
1E
100
AcDbEntity
  8
躯体と製品
  6
Continuous
 62
     3
100
AcDbLine
 10
1680.022196523809
 20
2047.86738900426
 30
0.0
 11
1680.022196523809
 21
2053.59597900426
 31
0.0
  0
LINE
  5
59A4
330
1E
100
AcDbEntity
  8
躯体と製品
  6
Continuous
 62
     3
100
AcDbLine
 10
1678.782194523809
 20
2054.36739000426
 30
0.0
 11
1680.022196523809
 21
2053.65147600426
 31
0.0
  0
LINE
  5
59A5
330
1E
100
AcDbEntity
  8
躯体と製品
  6
Continuous
 62
     3
100
AcDbLine
 10
1679.882195523809
 20
2047.86738900426
 30
0.0
 11
1679.882195523809
 21
2045.867388004261
 31
0.0
  0
LINE
  5
59A6
330
1E
100
AcDbEntity
  8
躯体と製品
  6
Continuous
 62
     3
100
AcDbLine
 10
1609.182194523809
 20
2078.767389004261
 30
0.0
 11
1609.682195523809
 21
2078.267388004261
 31
0.0
  0
ARC
  5
59A7
330
1E
100
AcDbEntity
  8
躯体と製品
  6
Continuous
 62
     3
100
AcDbCircle
 10
1612.182194523809
 20
2097.36738900426
 30
0.0
 40
9.0
100
AcDbArc
 50
250.5287789999987
 51
270.0
  0
LINE
  5
59A8
330
1E
100
AcDbEntity
  8
躯体と製品
  6
Continuous
 62
     3
100
AcDbLine
 10
1612.182194523809
 20
2093.167389004261
 30
0.0
 11
1606.082195523808
 21
2093.167389004261
 31
0.0
  0
LINE
  5
59A9
330
1E
100
AcDbEntity
  8
躯体と製品
  6
Continuous
 62
     3
100
AcDbLine
 10
1618.432196523809
 20
2094.667389004261
 30
0.0
 11
1605.932195523809
 21
2094.667389004261
 31
0.0
  0
LINE
  5
59AA
330
1E
100
AcDbEntity
  8
躯体と製品
  6
Continuous
 62
     3
100
AcDbLine
 10
1607.120840523809
 20
2088.36738900426
 30
0.0
 11
1617.243548523809
 21
2088.36738900426
 31
0.0
  0
LINE
  5
59AB
330
1E
100
AcDbEntity
  8
躯体と製品
  6
Continuous
 62
     3
100
AcDbLine
 10
1609.182194523809
 20
2078.767389004261
 30
0.0
 11
1615.182194523809
 21
2078.767389004261
 31
0.0
  0
LINE
  5
59AC
330
1E
100
AcDbEntity
  8
躯体と製品
  6
PLINE2
 62
     3
100
AcDbLine
 10
1621.482194523809
 20
2104.36738800426
 30
0.0
 11
1602.882194523808
 21
2104.36738800426
 31
0.0
  0
LINE
  5
59AD
330
1E
100
AcDbEntity
  8
躯体と製品
  6
Continuous
 62
     4
100
AcDbLine
 10
1633.182194523809
 20
2096.26738800426
 30
0.0
 11
1592.682194523809
 21
2096.26738800426
 31
0.0
  0
LINE
  5
59AE
330
1E
100
AcDbEntity
  8
躯体と製品
  6
PLINE2
 62
     3
100
AcDbLine
 10
1602.682196523809
 20
2102.767389004261
 30
0.0
 11
1621.682195523809
 21
2102.767389004261
 31
0.0
  0
LINE
  5
59AF
330
1E
100
AcDbEntity
  8
躯体と製品
  6
PLINE2
 62
     3
100
AcDbLine
 10
1599.682196523809
 20
2105.767389004261
 30
0.0
 11
1599.682196523809
 21
2108.26738800426
 31
0.0
  0
LINE
  5
59B0
330
1E
100
AcDbEntity
  8
躯体と製品
  6
PLINE2
 62
     3
100
AcDbLine
 10
1601.282195523809
 20
2105.967390004261
 30
0.0
 11
1601.282195523809
 21
2108.26738800426
 31
0.0
  0
LINE
  5
59B1
330
1E
100
AcDbEntity
  8
躯体と製品
  6
Continuous
 62
     3
100
AcDbLine
 10
1606.182194523809
 20
2088.909315004261
 30
0.0
 11
1606.182194523809
 21
2093.167389004261
 31
0.0
  0
LINE
  5
59B2
330
1E
100
AcDbEntity
  8
躯体と製品
  6
Continuous
 62
     3
100
AcDbLine
 10
1609.182194523809
 20
2088.88210800426
 30
0.0
 11
1609.182194523809
 21
2093.167389004261
 31
0.0
  0
LINE
  5
59B3
330
1E
100
AcDbEntity
  8
躯体と製品
  6
Continuous
 62
     3
100
AcDbLine
 10
1609.182194523809
 20
2088.36738900426
 30
0.0
 11
1609.182194523809
 21
2078.767389004261
 31
0.0
  0
ARC
  5
59B4
330
1E
100
AcDbEntity
  8
躯体と製品
  6
Continuous
 62
     3
100
AcDbCircle
 10
1607.734943523809
 20
2090.65938900426
 30
0.0
 40
2.291999999999999
100
AcDbArc
 50
270.0
 51
309.1561320000002
  0
LINE
  5
59B5
330
1E
100
AcDbEntity
  8
躯体と製品
  6
Continuous
 62
     3
100
AcDbLine
 10
1606.182194523809
 20
2088.909315004261
 30
0.0
 11
1607.120840523809
 21
2088.36738900426
 31
0.0
  0
ARC
  5
59B6
330
1E
100
AcDbEntity
  8
躯体と製品
  6
Continuous
 62
     4
100
AcDbCircle
 10
1592.682194523809
 20
2096.767389004261
 30
0.0
 40
0.5000010000000001
100
AcDbArc
 50
180.0
 51
270.0
  0
LINE
  5
59B7
330
1E
100
AcDbEntity
  8
躯体と製品
  6
Continuous
 62
     4
100
AcDbLine
 10
1592.182196523809
 20
2096.767389004261
 30
0.0
 11
1592.182196523809
 21
2099.767389004261
 31
0.0
  0
LINE
  5
59B8
330
1E
100
AcDbEntity
  8
躯体と製品
  6
PLINE2
 62
     3
100
AcDbLine
 10
1609.182194523809
 20
2096.26738800426
 30
0.0
 11
1609.182194523809
 21
2100.26739000426
 31
0.0
  0
ARC
  5
59B9
330
1E
100
AcDbEntity
  8
躯体と製品
  6
PLINE2
 62
     3
100
AcDbCircle
 10
1602.682196523809
 20
2105.767389004261
 30
0.0
 40
3.0
100
AcDbArc
 50
180.0
 51
270.0
  0
ARC
  5
59BA
330
1E
100
AcDbEntity
  8
躯体と製品
  6
PLINE2
 62
     3
100
AcDbCircle
 10
1602.882194523808
 20
2105.967390004261
 30
0.0
 40
1.599998999999999
100
AcDbArc
 50
180.0
 51
270.0
  0
LINE
  5
59BB
330
1E
100
AcDbEntity
  8
躯体と製品
  6
PLINE2
 62
     3
100
AcDbLine
 10
1606.182194523809
 20
2102.767389004261
 30
0.0
 11
1606.182194523809
 21
2100.26739000426
 31
0.0
  0
LINE
  5
59BC
330
1E
100
AcDbEntity
  8
躯体と製品
  6
Continuous
 62
     3
100
AcDbLine
 10
1606.082195523808
 20
2094.667389004261
 30
0.0
 11
1606.082195523808
 21
2093.167389004261
 31
0.0
  0
LINE
  5
59BD
330
1E
100
AcDbEntity
  8
躯体と製品
  6
Continuous
 62
     3
100
AcDbLine
 10
1605.932195523809
 20
2094.667389004261
 30
0.0
 11
1605.932195523809
 21
2096.26738800426
 31
0.0
  0
LINE
  5
59BE
330
1E
100
AcDbEntity
  8
躯体と製品
  6
PLINE2
 62
     3
100
AcDbLine
 10
1599.682196523809
 20
2108.26738800426
 30
0.0
 11
1601.282195523809
 21
2108.26738800426
 31
0.0
  0
LINE
  5
59BF
330
1E
100
AcDbEntity
  8
躯体と製品
  6
PLINE2
 62
     3
100
AcDbLine
 10
1624.682195523808
 20
2105.767389004261
 30
0.0
 11
1624.682195523808
 21
2108.26738800426
 31
0.0
  0
LINE
  5
59C0
330
1E
100
AcDbEntity
  8
躯体と製品
  6
PLINE2
 62
     3
100
AcDbLine
 10
1623.082196523809
 20
2105.967390004261
 30
0.0
 11
1623.082196523809
 21
2108.26738800426
 31
0.0
  0
LINE
  5
59C1
330
1E
100
AcDbEntity
  8
躯体と製品
  6
Continuous
 62
     3
100
AcDbLine
 10
1631.798108523809
 20
2078.10738900426
 30
0.0
 11
1636.682195523809
 21
2078.10738900426
 31
0.0
  0
LINE
  5
59C2
330
1E
100
AcDbEntity
  8
躯体と製品
  6
Continuous
 62
     3
100
AcDbLine
 10
1618.182194523809
 20
2088.909315004261
 30
0.0
 11
1618.182194523809
 21
2093.167389004261
 31
0.0
  0
LINE
  5
59C3
330
1E
100
AcDbEntity
  8
躯体と製品
  6
Continuous
 62
     3
100
AcDbLine
 10
1615.182194523809
 20
2088.88210800426
 30
0.0
 11
1615.182194523809
 21
2093.167389004261
 31
0.0
  0
LINE
  5
59C4
330
1E
100
AcDbEntity
  8
躯体と製品
  6
Continuous
 62
     3
100
AcDbLine
 10
1615.182194523809
 20
2078.767389004261
 30
0.0
 11
1614.682196523809
 21
2078.267388004261
 31
0.0
  0
LINE
  5
59C5
330
1E
100
AcDbEntity
  8
躯体と製品
  6
Continuous
 62
     3
100
AcDbLine
 10
1615.182194523809
 20
2088.36738900426
 30
0.0
 11
1615.182194523809
 21
2078.767389004261
 31
0.0
  0
LINE
  5
59C6
330
1E
100
AcDbEntity
  8
躯体と製品
  6
Continuous
 62
     3
100
AcDbLine
 10
1609.682195523809
 20
2078.267388004261
 30
0.0
 11
1614.682196523809
 21
2078.267388004261
 31
0.0
  0
ARC
  5
59C7
330
1E
100
AcDbEntity
  8
躯体と製品
  6
Continuous
 62
     3
100
AcDbCircle
 10
1616.629445523809
 20
2090.65938900426
 30
0.0
 40
2.291999999999999
100
AcDbArc
 50
230.8438679999997
 51
270.0
  0
ARC
  5
59C8
330
1E
100
AcDbEntity
  8
躯体と製品
  6
Continuous
 62
     3
100
AcDbCircle
 10
1612.182194523809
 20
2097.36738900426
 30
0.0
 40
9.0
100
AcDbArc
 50
270.0
 51
289.4712210000013
  0
LINE
  5
59C9
330
1E
100
AcDbEntity
  8
躯体と製品
  6
Continuous
 62
     3
100
AcDbLine
 10
1617.243548523809
 20
2088.36738900426
 30
0.0
 11
1618.182194523809
 21
2088.909315004261
 31
0.0
  0
LINE
  5
59CA
330
1E
100
AcDbEntity
  8
躯体と製品
  6
Continuous
 62
     3
100
AcDbLine
 10
1614.682196523809
 20
2088.36738900426
 30
0.0
 11
1614.682196523809
 21
2078.267388004261
 31
0.0
  0
LINE
  5
59CB
330
1E
100
AcDbEntity
  8
躯体と製品
  6
Continuous
 62
     3
100
AcDbLine
 10
1609.682195523809
 20
2088.36738900426
 30
0.0
 11
1609.682195523809
 21
2078.267388004261
 31
0.0
  0
LINE
  5
59CC
330
1E
100
AcDbEntity
  8
躯体と製品
  6
Continuous
 62
     3
100
AcDbLine
 10
1631.798108523809
 20
2078.10738900426
 30
0.0
 11
1631.082194523809
 21
2076.86739000426
 31
0.0
  0
LINE
  5
59CD
330
1E
100
AcDbEntity
  8
躯体と製品
  6
PLINE2
 62
     3
100
AcDbLine
 10
1615.182194523809
 20
2100.26739000426
 30
0.0
 11
1615.182194523809
 21
2096.26738800426
 31
0.0
  0
LINE
  5
59CE
330
1E
100
AcDbEntity
  8
躯体と製品
  6
PLINE2
 62
     3
100
AcDbLine
 10
1618.182194523809
 20
2100.26739000426
 30
0.0
 11
1618.182194523809
 21
2102.767389004261
 31
0.0
  0
LINE
  5
59CF
330
1E
100
AcDbEntity
  8
躯体と製品
  6
Continuous
 62
     3
100
AcDbLine
 10
1612.182194523809
 20
2093.167389004261
 30
0.0
 11
1610.682194523809
 21
2094.667389004261
 31
0.0
  0
LINE
  5
59D0
330
1E
100
AcDbEntity
  8
躯体と製品
  6
Continuous
 62
     3
100
AcDbLine
 10
1618.282196523809
 20
2093.167389004261
 30
0.0
 11
1612.182194523809
 21
2093.167389004261
 31
0.0
  0
LINE
  5
59D1
330
1E
100
AcDbEntity
  8
躯体と製品
  6
Continuous
 62
     3
100
AcDbLine
 10
1612.182194523809
 20
2094.667389004261
 30
0.0
 11
1613.682194523809
 21
2093.167389004261
 31
0.0
  0
LINE
  5
59D2
330
1E
100
AcDbEntity
  8
躯体と製品
  6
Continuous
 62
     3
100
AcDbLine
 10
1618.432196523809
 20
2094.667389004261
 30
0.0
 11
1618.432196523809
 21
2096.26738800426
 31
0.0
  0
LINE
  5
59D3
330
1E
100
AcDbEntity
  8
躯体と製品
  6
Continuous
 62
     3
100
AcDbLine
 10
1618.282196523809
 20
2093.167389004261
 30
0.0
 11
1618.282196523809
 21
2094.667389004261
 31
0.0
  0
ARC
  5
59D4
330
1E
100
AcDbEntity
  8
躯体と製品
  6
PLINE2
 62
     3
100
AcDbCircle
 10
1621.682195523809
 20
2105.767389004261
 30
0.0
 40
3.0
100
AcDbArc
 50
270.0
 51
0.0
  0
ARC
  5
59D5
330
1E
100
AcDbEntity
  8
躯体と製品
  6
PLINE2
 62
     3
100
AcDbCircle
 10
1621.482194523809
 20
2105.967390004261
 30
0.0
 40
1.599998999999999
100
AcDbArc
 50
270.0
 51
0.0
  0
ARC
  5
59D6
330
1E
100
AcDbEntity
  8
躯体と製品
  6
Continuous
 62
     4
100
AcDbCircle
 10
1643.182196523809
 20
2087.26738800426
 30
0.0
 40
3.0
100
AcDbArc
 50
0.0
 51
90.0
  0
LINE
  5
59D7
330
1E
100
AcDbEntity
  8
躯体と製品
  6
Continuous
 62
     3
100
AcDbLine
 10
1638.182195523809
 20
2078.767389004261
 30
0.0
 11
1636.582196523809
 21
2078.767389004261
 31
0.0
  0
LINE
  5
59D8
330
1E
100
AcDbEntity
  8
躯体と製品
  6
Continuous
 62
     4
100
AcDbLine
 10
1643.182196523809
 20
2090.26738800426
 30
0.0
 11
1642.182194523809
 21
2090.26738800426
 31
0.0
  0
LINE
  5
59D9
330
1E
100
AcDbEntity
  8
躯体と製品
  6
Continuous
 62
     3
100
AcDbLine
 10
1646.182196523809
 20
2077.96738800426
 30
0.0
 11
1648.182194523809
 21
2077.96738800426
 31
0.0
  0
LINE
  5
59DA
330
1E
100
AcDbEntity
  8
躯体と製品
  6
Continuous
 62
     3
100
AcDbLine
 10
1653.866279523809
 20
2078.10738900426
 30
0.0
 11
1654.582196523809
 21
2076.86739000426
 31
0.0
  0
LINE
  5
59DB
330
1E
100
AcDbEntity
  8
躯体と製品
  6
Continuous
 62
     3
100
AcDbLine
 10
1648.182194523809
 20
2078.10738900426
 30
0.0
 11
1653.866279523809
 21
2078.10738900426
 31
0.0
  0
ARC
  5
59DC
330
1E
100
AcDbEntity
  8
躯体と製品
  6
Continuous
 62
     4
100
AcDbCircle
 10
1633.182194523809
 20
2091.26739000426
 30
0.0
 40
5.000000999999999
100
AcDbArc
 50
0.0
 51
90.0
  0
LINE
  5
59DD
330
1E
100
AcDbEntity
  8
躯体と製品
  6
PLINE2
 62
     3
100
AcDbLine
 10
1624.682195523808
 20
2108.26738800426
 30
0.0
 11
1623.082196523809
 21
2108.26738800426
 31
0.0
  0
LINE
  5
59DE
330
1E
100
AcDbEntity
  8
躯体と製品
  6
PLINE2
 62
     3
100
AcDbLine
 10
1737.097064523809
 20
2105.767389004261
 30
0.0
 11
1737.097064523809
 21
2108.26738800426
 31
0.0
  0
LINE
  5
59DF
330
1E
100
AcDbEntity
  8
躯体と製品
  6
PLINE2
 62
     3
100
AcDbLine
 10
1738.697066523809
 20
2105.967390004261
 30
0.0
 11
1738.697066523809
 21
2108.26738800426
 31
0.0
  0
LINE
  5
59E0
330
1E
100
AcDbEntity
  8
躯体と製品
  6
Continuous
 62
     3
100
AcDbLine
 10
1743.597065523809
 20
2088.909315004261
 30
0.0
 11
1743.597065523809
 21
2093.167389004261
 31
0.0
  0
LINE
  5
59E1
330
1E
100
AcDbEntity
  8
躯体と製品
  6
Continuous
 62
     3
100
AcDbLine
 10
1746.597065523809
 20
2088.88210800426
 30
0.0
 11
1746.597065523809
 21
2093.167389004261
 31
0.0
  0
LINE
  5
59E2
330
1E
100
AcDbEntity
  8
躯体と製品
  6
Continuous
 62
     3
100
AcDbLine
 10
1746.597065523809
 20
2088.36738900426
 30
0.0
 11
1746.597065523809
 21
2078.767389004261
 31
0.0
  0
ARC
  5
59E3
330
1E
100
AcDbEntity
  8
躯体と製品
  6
Continuous
 62
     3
100
AcDbCircle
 10
1745.149814523809
 20
2090.65938900426
 30
0.0
 40
2.291999999999999
100
AcDbArc
 50
270.0
 51
309.1561320000002
  0
LINE
  5
59E4
330
1E
100
AcDbEntity
  8
躯体と製品
  6
Continuous
 62
     3
100
AcDbLine
 10
1743.597065523809
 20
2088.909315004261
 30
0.0
 11
1744.535711523809
 21
2088.36738900426
 31
0.0
  0
ARC
  5
59E5
330
1E
100
AcDbEntity
  8
躯体と製品
  6
Continuous
 62
     4
100
AcDbCircle
 10
1730.097065523809
 20
2096.767389004261
 30
0.0
 40
0.5000010000000001
100
AcDbArc
 50
180.0
 51
270.0
  0
LINE
  5
59E6
330
1E
100
AcDbEntity
  8
躯体と製品
  6
Continuous
 62
     4
100
AcDbLine
 10
1729.597064523809
 20
2096.767389004261
 30
0.0
 11
1729.597064523809
 21
2099.767389004261
 31
0.0
  0
LINE
  5
59E7
330
1E
100
AcDbEntity
  8
躯体と製品
  6
PLINE2
 62
     3
100
AcDbLine
 10
1746.597065523809
 20
2096.26738800426
 30
0.0
 11
1746.597065523809
 21
2100.26739000426
 31
0.0
  0
ARC
  5
59E8
330
1E
100
AcDbEntity
  8
躯体と製品
  6
PLINE2
 62
     3
100
AcDbCircle
 10
1740.097064523809
 20
2105.767389004261
 30
0.0
 40
3.0
100
AcDbArc
 50
180.0
 51
270.0
  0
ARC
  5
59E9
330
1E
100
AcDbEntity
  8
躯体と製品
  6
PLINE2
 62
     3
100
AcDbCircle
 10
1740.297065523809
 20
2105.967390004261
 30
0.0
 40
1.599998999999999
100
AcDbArc
 50
180.0
 51
270.0
  0
LINE
  5
59EA
330
1E
100
AcDbEntity
  8
躯体と製品
  6
PLINE2
 62
     3
100
AcDbLine
 10
1743.597065523809
 20
2102.767389004261
 30
0.0
 11
1743.597065523809
 21
2100.26739000426
 31
0.0
  0
LINE
  5
59EB
330
1E
100
AcDbEntity
  8
躯体と製品
  6
Continuous
 62
     3
100
AcDbLine
 10
1743.497066523809
 20
2094.667389004261
 30
0.0
 11
1743.497066523809
 21
2093.167389004261
 31
0.0
  0
LINE
  5
59EC
330
1E
100
AcDbEntity
  8
躯体と製品
  6
Continuous
 62
     3
100
AcDbLine
 10
1743.347066523809
 20
2094.667389004261
 30
0.0
 11
1743.347066523809
 21
2096.26738800426
 31
0.0
  0
LINE
  5
59ED
330
1E
100
AcDbEntity
  8
躯体と製品
  6
PLINE2
 62
     3
100
AcDbLine
 10
1737.097064523809
 20
2108.26738800426
 30
0.0
 11
1738.697066523809
 21
2108.26738800426
 31
0.0
  0
LINE
  5
59F9
330
1E
100
AcDbEntity
  8
躯体と製品
  6
Continuous
 62
     3
100
AcDbLine
 10
1773.997064523809
 20
2078.767389004261
 30
0.0
 11
1773.997064523809
 21
2061.76738800426
 31
0.0
  0
LINE
  5
59FA
330
1E
100
AcDbEntity
  8
躯体と製品
  6
Continuous
 62
     3
100
AcDbLine
 10
1791.997064523809
 20
2076.86739000426
 30
0.0
 11
1791.997064523809
 21
2063.66739000426
 31
0.0
  0
ARC
  5
59FB
330
1E
100
AcDbEntity
  8
躯体と製品
  6
Continuous
 62
     3
100
AcDbCircle
 10
1771.430234523809
 20
2076.26386800426
 30
0.0
 40
2.994614999999999
100
AcDbArc
 50
191.6267950000001
 51
221.8120719999996
  0
LINE
  5
59FC
330
1E
100
AcDbEntity
  8
躯体と製品
  6
Continuous
 62
     3
100
AcDbLine
 10
1768.497065523809
 20
2076.86739000426
 30
0.0
 11
1768.497065523809
 21
2063.66739000426
 31
0.0
  0
LINE
  5
59FD
330
1E
100
AcDbEntity
  8
躯体と製品
  6
Continuous
 62
     3
100
AcDbLine
 10
1785.597065523809
 20
2078.10738900426
 30
0.0
 11
1785.597065523809
 21
2062.42738800426
 31
0.0
  0
ARC
  5
59FE
330
1E
100
AcDbEntity
  8
躯体と製品
  6
Continuous
 62
     3
100
AcDbCircle
 10
1789.063898523808
 20
2076.26386800426
 30
0.0
 40
2.994614999999999
100
AcDbArc
 50
318.1879280000003
 51
348.3732049999998
  0
LINE
  5
59FF
330
1E
100
AcDbEntity
  8
躯体と製品
  6
Continuous
 62
     4
100
AcDbLine
 10
1783.597064523809
 20
2050.76739000426
 30
0.0
 11
1783.597064523809
 21
2087.26738800426
 31
0.0
  0
LINE
  5
5A00
330
1E
100
AcDbEntity
  8
躯体と製品
  6
Continuous
 62
     4
100
AcDbLine
 10
1779.597065523809
 20
2090.26738800426
 30
0.0
 11
1779.597065523809
 21
2040.26739000426
 31
0.0
  0
LINE
  5
5A01
330
1E
100
AcDbEntity
  8
躯体と製品
  6
Continuous
 62
     4
100
AcDbLine
 10
1775.597066523809
 20
2091.26739000426
 30
0.0
 11
1775.597066523809
 21
2050.76739000426
 31
0.0
  0
LINE
  5
5A02
330
1E
100
AcDbEntity
  8
躯体と製品
  6
Continuous
 62
     4
100
AcDbLine
 10
1779.597065523809
 20
2050.76739000426
 30
0.0
 11
1779.597065523809
 21
2100.26739000426
 31
0.0
  0
LINE
  5
5A06
330
1E
100
AcDbEntity
  8
躯体と製品
  6
Continuous
 62
     3
100
AcDbLine
 10
1798.347464523809
 20
2066.267388004261
 30
0.0
 11
1791.997064523809
 21
2066.267388004261
 31
0.0
  0
LINE
  5
5A07
330
1E
100
AcDbEntity
  8
躯体と製品
  6
Continuous
 62
     3
100
AcDbLine
 10
1791.997064523809
 20
2074.267389004261
 30
0.0
 11
1798.347464523809
 21
2074.267389004261
 31
0.0
  0
LINE
  5
5A08
330
1E
100
AcDbEntity
  8
躯体と製品
  6
Continuous
 62
     4
100
AcDbLine
 10
1790.097065523809
 20
2044.267389004261
 30
0.0
 11
1826.597066523809
 21
2044.267389004261
 31
0.0
  0
ARC
  5
5A09
330
1E
100
AcDbEntity
  8
躯体と製品
  6
Continuous
 62
     4
100
AcDbCircle
 10
1790.097065523809
 20
2050.76739000426
 30
0.0
 40
6.500000999999999
100
AcDbArc
 50
180.0
 51
270.0
  0
LINE
  5
5A0A
330
1E
100
AcDbEntity
  8
躯体と製品
  6
Continuous
 62
     3
100
AcDbLine
 10
1769.198240523809
 20
2066.267388004261
 30
0.0
 11
1774.097066523809
 21
2066.267388004261
 31
0.0
  0
LINE
  5
5A0B
330
1E
100
AcDbEntity
  8
躯体と製品
  6
Continuous
 62
     3
100
AcDbLine
 10
1769.198240523809
 20
2074.267389004261
 30
0.0
 11
1774.097066523809
 21
2074.267389004261
 31
0.0
  0
LINE
  5
5A0C
330
1E
100
AcDbEntity
  8
躯体と製品
  6
Continuous
 62
     3
100
AcDbLine
 10
1769.198240523809
 20
2062.42738800426
 30
0.0
 11
1774.097066523809
 21
2062.42738800426
 31
0.0
  0
ARC
  5
5A0D
330
1E
100
AcDbEntity
  8
躯体と製品
  6
Continuous
 62
     3
100
AcDbCircle
 10
1780.257065523809
 20
2070.26739000426
 30
0.0
 40
11.76
100
AcDbArc
 50
160.1148369999995
 51
199.8851630000005
  0
ARC
  5
5A0E
330
1E
100
AcDbEntity
  8
躯体と製品
  6
Continuous
 62
     3
100
AcDbCircle
 10
1771.430234523809
 20
2064.27091200426
 30
0.0
 40
2.994614999999999
100
AcDbArc
 50
138.1879280000004
 51
168.3732049999998
  0
LINE
  5
5A0F
330
1E
100
AcDbEntity
  8
躯体と製品
  6
Continuous
 62
     3
100
AcDbLine
 10
1768.497065523809
 20
2063.66739000426
 30
0.0
 11
1769.198240523809
 21
2062.42738800426
 31
0.0
  0
LINE
  5
5A10
330
1E
100
AcDbEntity
  8
躯体と製品
  6
Continuous
 62
     4
100
AcDbLine
 10
1779.097064523809
 20
2050.267389004261
 30
0.0
 11
1776.097064523809
 21
2050.267389004261
 31
0.0
  0
ARC
  5
5A11
330
1E
100
AcDbEntity
  8
躯体と製品
  6
Continuous
 62
     4
100
AcDbCircle
 10
1779.097064523809
 20
2050.76739000426
 30
0.0
 40
0.5000010000000001
100
AcDbArc
 50
270.0
 51
0.0
  0
ARC
  5
5A12
330
1E
100
AcDbEntity
  8
躯体と製品
  6
Continuous
 62
     4
100
AcDbCircle
 10
1776.097064523809
 20
2050.76739000426
 30
0.0
 40
0.5000010000000001
100
AcDbArc
 50
180.0
 51
270.0
  0
LINE
  5
5A13
330
1E
100
AcDbEntity
  8
躯体と製品
  6
Continuous
 62
     3
100
AcDbLine
 10
1773.997064523809
 20
2061.76738800426
 30
0.0
 11
1775.597066523809
 21
2061.76738800426
 31
0.0
  0
LINE
  5
5A14
330
1E
100
AcDbEntity
  8
躯体と製品
  6
Continuous
 62
     3
100
AcDbLine
 10
1783.597064523809
 20
2062.56738900426
 30
0.0
 11
1785.597065523809
 21
2062.56738900426
 31
0.0
  0
LINE
  5
5A15
330
1E
100
AcDbEntity
  8
躯体と製品
  6
Continuous
 62
     3
100
AcDbLine
 10
1785.597065523809
 20
2072.26738800426
 30
0.0
 11
1783.597064523809
 21
2070.26739000426
 31
0.0
  0
LINE
  5
5A16
330
1E
100
AcDbEntity
  8
躯体と製品
  6
Continuous
 62
     3
100
AcDbLine
 10
1783.597064523809
 20
2068.267389004261
 30
0.0
 11
1785.597065523809
 21
2070.26739000426
 31
0.0
  0
LINE
  5
5A17
330
1E
100
AcDbEntity
  8
躯体と製品
  6
Continuous
 62
     3
100
AcDbLine
 10
1791.295889523809
 20
2062.42738800426
 30
0.0
 11
1785.597065523809
 21
2062.42738800426
 31
0.0
  0
LINE
  5
5A18
330
1E
100
AcDbEntity
  8
躯体と製品
  6
Continuous
 62
     3
100
AcDbLine
 10
1785.597065523809
 20
2066.267388004261
 30
0.0
 11
1791.295889523809
 21
2066.267388004261
 31
0.0
  0
LINE
  5
5A19
330
1E
100
AcDbEntity
  8
躯体と製品
  6
Continuous
 62
     3
100
AcDbLine
 10
1791.295889523809
 20
2074.267389004261
 30
0.0
 11
1785.597065523809
 21
2074.267389004261
 31
0.0
  0
ARC
  5
5A1A
330
1E
100
AcDbEntity
  8
躯体と製品
  6
Continuous
 62
     3
100
AcDbCircle
 10
1780.237064523809
 20
2070.26739000426
 30
0.0
 40
11.76
100
AcDbArc
 50
340.1148369999995
 51
19.8851630000005
  0
ARC
  5
5A1B
330
1E
100
AcDbEntity
  8
躯体と製品
  6
Continuous
 62
     3
100
AcDbCircle
 10
1789.063898523808
 20
2064.27091200426
 30
0.0
 40
2.994614999999999
100
AcDbArc
 50
11.6267950000002
 51
41.81207199999962
  0
LINE
  5
5A1C
330
1E
100
AcDbEntity
  8
躯体と製品
  6
Continuous
 62
     3
100
AcDbLine
 10
1791.997064523809
 20
2063.66739000426
 30
0.0
 11
1791.295889523809
 21
2062.42738800426
 31
0.0
  0
ARC
  5
5A1D
330
1E
100
AcDbEntity
  8
躯体と製品
  6
Continuous
 62
     4
100
AcDbCircle
 10
1826.597066523809
 20
2041.267389004261
 30
0.0
 40
3.0
100
AcDbArc
 50
0.0
 51
90.0
  0
LINE
  5
5A1E
330
1E
100
AcDbEntity
  8
躯体と製品
  6
Continuous
 62
     3
100
AcDbLine
 10
1801.097066523809
 20
2037.06738900426
 30
0.0
 11
1818.097064523809
 21
2037.06738900426
 31
0.0
  0
LINE
  5
5A1F
330
1E
100
AcDbEntity
  8
躯体と製品
  6
Continuous
 62
     3
100
AcDbLine
 10
1801.097066523809
 20
2035.46739000426
 30
0.0
 11
1818.097064523809
 21
2035.46739000426
 31
0.0
  0
LINE
  5
5A20
330
1E
100
AcDbEntity
  8
躯体と製品
  6
Continuous
 62
     3
100
AcDbLine
 10
1816.197065523809
 20
2029.96738800426
 30
0.0
 11
1802.997065523809
 21
2029.96738800426
 31
0.0
  0
LINE
  5
5A21
330
1E
100
AcDbEntity
  8
躯体と製品
  6
Continuous
 62
     3
100
AcDbLine
 10
1801.097066523809
 20
2037.06738900426
 30
0.0
 11
1801.097066523809
 21
2035.46739000426
 31
0.0
  0
LINE
  5
5A22
330
1E
100
AcDbEntity
  8
躯体と製品
  6
Continuous
 62
     3
100
AcDbLine
 10
1802.997065523809
 20
2029.96738800426
 30
0.0
 11
1801.757066523809
 21
2030.66856600426
 31
0.0
  0
LINE
  5
5A23
330
1E
100
AcDbEntity
  8
躯体と製品
  6
Continuous
 62
     3
100
AcDbLine
 10
1801.757066523809
 20
2030.66856600426
 30
0.0
 11
1801.757066523809
 21
2035.46739000426
 31
0.0
  0
ARC
  5
5A24
330
1E
100
AcDbEntity
  8
躯体と製品
  6
Continuous
 62
     3
100
AcDbCircle
 10
1809.597065523809
 20
2041.727388004261
 30
0.0
 40
11.76
100
AcDbArc
 50
250.114837000001
 51
289.885162999999
  0
ARC
  5
5A25
330
1E
100
AcDbEntity
  8
躯体と製品
  6
Continuous
 62
     3
100
AcDbCircle
 10
1803.600587523809
 20
2032.90055700426
 30
0.0
 40
2.994614999999999
100
AcDbArc
 50
281.6267949999989
 51
311.8120720000008
  0
ARC
  5
5A26
330
1E
100
AcDbEntity
  8
躯体と製品
  6
Continuous
 62
     3
100
AcDbCircle
 10
1815.593543523809
 20
2032.90055700426
 30
0.0
 40
2.994614999999999
100
AcDbArc
 50
228.1879279999992
 51
258.3732050000011
  0
LINE
  5
5A27
330
1E
100
AcDbEntity
  8
躯体と製品
  6
Continuous
 62
     3
100
AcDbLine
 10
1805.597066523809
 20
2030.66856600426
 30
0.0
 11
1805.597066523809
 21
2035.46739000426
 31
0.0
  0
LINE
  5
5A28
330
1E
100
AcDbEntity
  8
躯体と製品
  6
Continuous
 62
     3
100
AcDbLine
 10
1813.597064523809
 20
2030.66856600426
 30
0.0
 11
1813.597064523809
 21
2035.46739000426
 31
0.0
  0
LINE
  5
5A29
330
1E
100
AcDbEntity
  8
躯体と製品
  6
Continuous
 62
     3
100
AcDbLine
 10
1818.097064523809
 20
2035.46739000426
 30
0.0
 11
1818.097064523809
 21
2037.06738900426
 31
0.0
  0
LINE
  5
5A2A
330
1E
100
AcDbEntity
  8
躯体と製品
  6
Continuous
 62
     3
100
AcDbLine
 10
1817.437064523809
 20
2030.68330200426
 30
0.0
 11
1816.197065523809
 21
2029.96738800426
 31
0.0
  0
LINE
  5
5A2B
330
1E
100
AcDbEntity
  8
躯体と製品
  6
Continuous
 62
     3
100
AcDbLine
 10
1817.437064523809
 20
2030.68330200426
 30
0.0
 11
1817.437064523809
 21
2035.46739000426
 31
0.0
  0
LINE
  5
5A2C
330
1E
100
AcDbEntity
  8
躯体と製品
  6
Continuous
 62
     4
100
AcDbLine
 10
1829.597066523809
 20
2041.267389004261
 30
0.0
 11
1829.597066523809
 21
2040.26739000426
 31
0.0
  0
LINE
  5
5A2D
330
1E
100
AcDbEntity
  8
躯体と製品
  6
Continuous
 62
     3
100
AcDbLine
 10
1801.097066523809
 20
2044.267389004261
 30
0.0
 11
1818.097064523809
 21
2044.267389004261
 31
0.0
  0
LINE
  5
5A2E
330
1E
100
AcDbEntity
  8
躯体と製品
  6
Continuous
 62
     3
100
AcDbLine
 10
1801.097066523809
 20
2045.867388004261
 30
0.0
 11
1818.097064523809
 21
2045.867388004261
 31
0.0
  0
LINE
  5
5A2F
330
1E
100
AcDbEntity
  8
躯体と製品
  6
Continuous
 62
     3
100
AcDbLine
 10
1817.437064523809
 20
2047.86738900426
 30
0.0
 11
1801.757066523809
 21
2047.86738900426
 31
0.0
  0
LINE
  5
5A30
330
1E
100
AcDbEntity
  8
躯体と製品
  6
Continuous
 62
     3
100
AcDbLine
 10
1802.997065523809
 20
2054.36739000426
 30
0.0
 11
1816.197065523809
 21
2054.36739000426
 31
0.0
  0
LINE
  5
5A31
330
1E
100
AcDbEntity
  8
躯体と製品
  6
Continuous
 62
     3
100
AcDbLine
 10
1813.597064523809
 20
2060.01778800426
 30
0.0
 11
1813.597064523809
 21
2054.36739000426
 31
0.0
  0
LINE
  5
5A32
330
1E
100
AcDbEntity
  8
躯体と製品
  6
Continuous
 62
     3
100
AcDbLine
 10
1805.597066523809
 20
2060.01778800426
 30
0.0
 11
1805.597066523809
 21
2054.36739000426
 31
0.0
  0
LINE
  5
5A33
330
1E
100
AcDbEntity
  8
躯体と製品
  6
Continuous
 62
     3
100
AcDbLine
 10
1801.097066523809
 20
2045.867388004261
 30
0.0
 11
1801.097066523809
 21
2044.267389004261
 31
0.0
  0
LINE
  5
5A34
330
1E
100
AcDbEntity
  8
躯体と製品
  6
Continuous
 62
     3
100
AcDbLine
 10
1801.757066523809
 20
2053.61071800426
 30
0.0
 11
1801.757066523809
 21
2047.86738900426
 31
0.0
  0
LINE
  5
5A35
330
1E
100
AcDbEntity
  8
躯体と製品
  6
Continuous
 62
     3
100
AcDbLine
 10
1802.997065523809
 20
2054.36739000426
 30
0.0
 11
1801.757066523809
 21
2053.66621500426
 31
0.0
  0
LINE
  5
5A36
330
1E
100
AcDbEntity
  8
躯体と製品
  6
Continuous
 62
     3
100
AcDbLine
 10
1801.897064523809
 20
2047.86738900426
 30
0.0
 11
1801.897064523809
 21
2045.867388004261
 31
0.0
  0
ARC
  5
5A37
330
1E
100
AcDbEntity
  8
躯体と製品
  6
Continuous
 62
     3
100
AcDbCircle
 10
1815.593543523809
 20
2051.43422100426
 30
0.0
 40
2.994614999999999
100
AcDbArc
 50
101.6267949999989
 51
131.8120720000008
  0
ARC
  5
5A38
330
1E
100
AcDbEntity
  8
躯体と製品
  6
Continuous
 62
     3
100
AcDbCircle
 10
1803.600587523809
 20
2051.43422100426
 30
0.0
 40
2.994614999999999
100
AcDbArc
 50
48.18792799999918
 51
78.37320500000107
  0
ARC
  5
5A39
330
1E
100
AcDbEntity
  8
躯体と製品
  6
Continuous
 62
     3
100
AcDbCircle
 10
1809.597065523809
 20
2042.60739000426
 30
0.0
 40
11.76
100
AcDbArc
 50
70.11483700000103
 51
109.8851629999989
  0
LINE
  5
5A3A
330
1E
100
AcDbEntity
  8
躯体と製品
  6
Continuous
 62
     3
100
AcDbLine
 10
1805.597066523809
 20
2047.86738900426
 30
0.0
 11
1805.597066523809
 21
2053.66621500426
 31
0.0
  0
LINE
  5
5A3B
330
1E
100
AcDbEntity
  8
躯体と製品
  6
Continuous
 62
     3
100
AcDbLine
 10
1813.597064523809
 20
2053.66621500426
 30
0.0
 11
1813.597064523809
 21
2047.86738900426
 31
0.0
  0
LINE
  5
5A3C
330
1E
100
AcDbEntity
  8
躯体と製品
  6
Continuous
 62
     3
100
AcDbLine
 10
1809.597065523809
 20
2045.867388004261
 30
0.0
 11
1811.597066523809
 21
2047.86738900426
 31
0.0
  0
LINE
  5
5A3D
330
1E
100
AcDbEntity
  8
躯体と製品
  6
Continuous
 62
     3
100
AcDbLine
 10
1809.597065523809
 20
2047.86738900426
 30
0.0
 11
1807.597064523809
 21
2045.867388004261
 31
0.0
  0
LINE
  5
5A3E
330
1E
100
AcDbEntity
  8
躯体と製品
  6
Continuous
 62
     3
100
AcDbLine
 10
1798.997066523809
 20
2066.91699000426
 30
0.0
 11
1798.347464523809
 21
2066.267388004261
 31
0.0
  0
LINE
  5
5A3F
330
1E
100
AcDbEntity
  8
躯体と製品
  6
Continuous
 62
     3
100
AcDbLine
 10
1798.997066523809
 20
2073.61779000426
 30
0.0
 11
1798.997066523809
 21
2066.91699000426
 31
0.0
  0
LINE
  5
5A40
330
1E
100
AcDbEntity
  8
躯体と製品
  6
Continuous
 62
     3
100
AcDbLine
 10
1798.347464523809
 20
2074.267389004261
 30
0.0
 11
1798.997066523809
 21
2073.61779000426
 31
0.0
  0
LINE
  5
5A41
330
1E
100
AcDbEntity
  8
躯体と製品
  6
Continuous
 62
     3
100
AcDbLine
 10
1806.246665523809
 20
2060.66739000426
 30
0.0
 11
1805.597066523809
 21
2060.01778800426
 31
0.0
  0
LINE
  5
5A42
330
1E
100
AcDbEntity
  8
躯体と製品
  6
Continuous
 62
     3
100
AcDbLine
 10
1813.597064523809
 20
2060.01778800426
 30
0.0
 11
1812.947465523809
 21
2060.66739000426
 31
0.0
  0
LINE
  5
5A43
330
1E
100
AcDbEntity
  8
躯体と製品
  6
Continuous
 62
     3
100
AcDbLine
 10
1806.246395523809
 20
2060.66739000426
 30
0.0
 11
1812.947465523809
 21
2060.66739000426
 31
0.0
  0
LINE
  5
5A44
330
1E
100
AcDbEntity
  8
躯体と製品
  6
Continuous
 62
     3
100
AcDbLine
 10
1818.097064523809
 20
2044.267389004261
 30
0.0
 11
1818.097064523809
 21
2045.867388004261
 31
0.0
  0
LINE
  5
5A45
330
1E
100
AcDbEntity
  8
躯体と製品
  6
Continuous
 62
     3
100
AcDbLine
 10
1817.437064523809
 20
2047.86738900426
 30
0.0
 11
1817.437064523809
 21
2053.59597900426
 31
0.0
  0
LINE
  5
5A46
330
1E
100
AcDbEntity
  8
躯体と製品
  6
Continuous
 62
     3
100
AcDbLine
 10
1816.197065523809
 20
2054.36739000426
 30
0.0
 11
1817.437064523809
 21
2053.65147600426
 31
0.0
  0
LINE
  5
5A47
330
1E
100
AcDbEntity
  8
躯体と製品
  6
Continuous
 62
     3
100
AcDbLine
 10
1817.297066523809
 20
2047.86738900426
 30
0.0
 11
1817.297066523809
 21
2045.867388004261
 31
0.0
  0
LINE
  5
5A48
330
1E
100
AcDbEntity
  8
躯体と製品
  6
PLINE2
 62
     3
100
AcDbLine
 10
1762.097066523809
 20
2105.767389004261
 30
0.0
 11
1762.097066523809
 21
2108.26738800426
 31
0.0
  0
LINE
  5
5A49
330
1E
100
AcDbEntity
  8
躯体と製品
  6
PLINE2
 62
     3
100
AcDbLine
 10
1760.497064523809
 20
2105.967390004261
 30
0.0
 11
1760.497064523809
 21
2108.26738800426
 31
0.0
  0
LINE
  5
5A4A
330
1E
100
AcDbEntity
  8
躯体と製品
  6
Continuous
 62
     3
100
AcDbLine
 10
1769.212979523809
 20
2078.10738900426
 30
0.0
 11
1774.097066523809
 21
2078.10738900426
 31
0.0
  0
LINE
  5
5A4B
330
1E
100
AcDbEntity
  8
躯体と製品
  6
Continuous
 62
     3
100
AcDbLine
 10
1755.597065523809
 20
2088.909315004261
 30
0.0
 11
1755.597065523809
 21
2093.167389004261
 31
0.0
  0
LINE
  5
5A4C
330
1E
100
AcDbEntity
  8
躯体と製品
  6
Continuous
 62
     3
100
AcDbLine
 10
1752.597065523809
 20
2088.88210800426
 30
0.0
 11
1752.597065523809
 21
2093.167389004261
 31
0.0
  0
LINE
  5
5A4D
330
1E
100
AcDbEntity
  8
躯体と製品
  6
Continuous
 62
     3
100
AcDbLine
 10
1752.597065523809
 20
2078.767389004261
 30
0.0
 11
1752.097064523809
 21
2078.267388004261
 31
0.0
  0
LINE
  5
5A4E
330
1E
100
AcDbEntity
  8
躯体と製品
  6
Continuous
 62
     3
100
AcDbLine
 10
1752.597065523809
 20
2088.36738900426
 30
0.0
 11
1752.597065523809
 21
2078.767389004261
 31
0.0
  0
LINE
  5
5A4F
330
1E
100
AcDbEntity
  8
躯体と製品
  6
Continuous
 62
     3
100
AcDbLine
 10
1747.097066523809
 20
2078.267388004261
 30
0.0
 11
1752.097064523809
 21
2078.267388004261
 31
0.0
  0
ARC
  5
5A50
330
1E
100
AcDbEntity
  8
躯体と製品
  6
Continuous
 62
     3
100
AcDbCircle
 10
1754.044316523809
 20
2090.65938900426
 30
0.0
 40
2.291999999999999
100
AcDbArc
 50
230.8438679999997
 51
270.0
  0
ARC
  5
5A51
330
1E
100
AcDbEntity
  8
躯体と製品
  6
Continuous
 62
     3
100
AcDbCircle
 10
1749.597065523809
 20
2097.36738900426
 30
0.0
 40
9.0
100
AcDbArc
 50
270.0
 51
289.4712210000013
  0
LINE
  5
5A52
330
1E
100
AcDbEntity
  8
躯体と製品
  6
Continuous
 62
     3
100
AcDbLine
 10
1754.658419523809
 20
2088.36738900426
 30
0.0
 11
1755.597065523809
 21
2088.909315004261
 31
0.0
  0
LINE
  5
5A53
330
1E
100
AcDbEntity
  8
躯体と製品
  6
Continuous
 62
     3
100
AcDbLine
 10
1752.097064523809
 20
2088.36738900426
 30
0.0
 11
1752.097064523809
 21
2078.267388004261
 31
0.0
  0
LINE
  5
5A54
330
1E
100
AcDbEntity
  8
躯体と製品
  6
Continuous
 62
     3
100
AcDbLine
 10
1747.097066523809
 20
2088.36738900426
 30
0.0
 11
1747.097066523809
 21
2078.267388004261
 31
0.0
  0
LINE
  5
5A55
330
1E
100
AcDbEntity
  8
躯体と製品
  6
Continuous
 62
     3
100
AcDbLine
 10
1769.212979523809
 20
2078.10738900426
 30
0.0
 11
1768.497065523809
 21
2076.86739000426
 31
0.0
  0
LINE
  5
5A56
330
1E
100
AcDbEntity
  8
躯体と製品
  6
PLINE2
 62
     3
100
AcDbLine
 10
1752.597065523809
 20
2100.26739000426
 30
0.0
 11
1752.597065523809
 21
2096.26738800426
 31
0.0
  0
LINE
  5
5A57
330
1E
100
AcDbEntity
  8
躯体と製品
  6
PLINE2
 62
     3
100
AcDbLine
 10
1755.597065523809
 20
2100.26739000426
 30
0.0
 11
1755.597065523809
 21
2102.767389004261
 31
0.0
  0
LINE
  5
5A58
330
1E
100
AcDbEntity
  8
躯体と製品
  6
Continuous
 62
     3
100
AcDbLine
 10
1749.597065523809
 20
2093.167389004261
 30
0.0
 11
1748.097065523809
 21
2094.667389004261
 31
0.0
  0
LINE
  5
5A59
330
1E
100
AcDbEntity
  8
躯体と製品
  6
Continuous
 62
     3
100
AcDbLine
 10
1755.697064523809
 20
2093.167389004261
 30
0.0
 11
1749.597065523809
 21
2093.167389004261
 31
0.0
  0
LINE
  5
5A5A
330
1E
100
AcDbEntity
  8
躯体と製品
  6
Continuous
 62
     3
100
AcDbLine
 10
1749.597065523809
 20
2094.667389004261
 30
0.0
 11
1751.097065523809
 21
2093.167389004261
 31
0.0
  0
LINE
  5
5A5B
330
1E
100
AcDbEntity
  8
躯体と製品
  6
Continuous
 62
     3
100
AcDbLine
 10
1755.847064523809
 20
2094.667389004261
 30
0.0
 11
1755.847064523809
 21
2096.26738800426
 31
0.0
  0
LINE
  5
5A5C
330
1E
100
AcDbEntity
  8
躯体と製品
  6
Continuous
 62
     3
100
AcDbLine
 10
1755.697064523809
 20
2093.167389004261
 30
0.0
 11
1755.697064523809
 21
2094.667389004261
 31
0.0
  0
ARC
  5
5A5D
330
1E
100
AcDbEntity
  8
躯体と製品
  6
PLINE2
 62
     3
100
AcDbCircle
 10
1759.097066523809
 20
2105.767389004261
 30
0.0
 40
3.0
100
AcDbArc
 50
270.0
 51
0.0
  0
ARC
  5
5A5E
330
1E
100
AcDbEntity
  8
躯体と製品
  6
PLINE2
 62
     3
100
AcDbCircle
 10
1758.897065523809
 20
2105.967390004261
 30
0.0
 40
1.599998999999999
100
AcDbArc
 50
270.0
 51
0.0
  0
ARC
  5
5A5F
330
1E
100
AcDbEntity
  8
躯体と製品
  6
Continuous
 62
     4
100
AcDbCircle
 10
1780.597064523809
 20
2087.26738800426
 30
0.0
 40
3.0
100
AcDbArc
 50
0.0
 51
90.0
  0
LINE
  5
5A60
330
1E
100
AcDbEntity
  8
躯体と製品
  6
Continuous
 62
     3
100
AcDbLine
 10
1775.597066523809
 20
2078.767389004261
 30
0.0
 11
1773.997064523809
 21
2078.767389004261
 31
0.0
  0
LINE
  5
5A61
330
1E
100
AcDbEntity
  8
躯体と製品
  6
Continuous
 62
     4
100
AcDbLine
 10
1780.597064523809
 20
2090.26738800426
 30
0.0
 11
1779.597065523809
 21
2090.26738800426
 31
0.0
  0
LINE
  5
5A62
330
1E
100
AcDbEntity
  8
躯体と製品
  6
Continuous
 62
     3
100
AcDbLine
 10
1783.597064523809
 20
2077.96738800426
 30
0.0
 11
1785.597065523809
 21
2077.96738800426
 31
0.0
  0
LINE
  5
5A63
330
1E
100
AcDbEntity
  8
躯体と製品
  6
Continuous
 62
     3
100
AcDbLine
 10
1791.281150523809
 20
2078.10738900426
 30
0.0
 11
1791.997064523809
 21
2076.86739000426
 31
0.0
  0
LINE
  5
5A64
330
1E
100
AcDbEntity
  8
躯体と製品
  6
Continuous
 62
     3
100
AcDbLine
 10
1785.597065523809
 20
2078.10738900426
 30
0.0
 11
1791.281150523809
 21
2078.10738900426
 31
0.0
  0
ARC
  5
5A65
330
1E
100
AcDbEntity
  8
躯体と製品
  6
Continuous
 62
     4
100
AcDbCircle
 10
1770.597065523809
 20
2091.26739000426
 30
0.0
 40
5.000000999999999
100
AcDbArc
 50
0.0
 51
90.0
  0
LINE
  5
5A66
330
1E
100
AcDbEntity
  8
躯体と製品
  6
PLINE2
 62
     3
100
AcDbLine
 10
1762.097066523809
 20
2108.26738800426
 30
0.0
 11
1760.497064523809
 21
2108.26738800426
 31
0.0
  0
DIMENSION
  5
5AB7
330
1E
100
AcDbEntity
  8
寸法
  6
Continuous
100
AcDbDimension
  2
*D4
 10
901.3711825238088
 20
1813.96822200426
 30
0.0
 11
896.5616587142847
 21
1760.42264400426
 31
0.0
 70
    32
  1
100(125)
 71
     5
 42
107.0911559999999
  3
111
100
AcDbAlignedDimension
 13
901.3711825238088
 23
1706.87706600426
 33
0.0
 14
984.4711825238089
 24
1813.96822200426
 34
0.0
 50
90.0
100
AcDbRotatedDimension
1001
ACAD
1000
DSTYLE
1002
{
1070
    41
1040
5.0
1002
}
  0
DIMENSION
  5
5AC3
330
1E
100
AcDbEntity
  8
寸法
  6
Continuous
100
AcDbDimension
  2
*D5
 10
901.3711825238088
 20
1914.610260004261
 30
0.0
 11
896.5616587142847
 21
1864.28924100426
 31
0.0
 70
    32
  1
100(125)
 71
     5
 42
100.6420380000004
  3
111
100
AcDbAlignedDimension
 13
984.4711825238089
 23
1813.96822200426
 33
0.0
 14
984.4711825238089
 24
1914.610260004261
 34
0.0
 50
90.0
100
AcDbRotatedDimension
1001
ACAD
1000
DSTYLE
1002
{
1070
    41
1040
5.0
1002
}
  0
DIMENSION
  5
5AD0
330
1E
100
AcDbEntity
  8
寸法
  6
Continuous
100
AcDbDimension
  2
*D6
 10
901.3711825238088
 20
2130.974535004261
 30
0.0
 11
896.5616587142847
 21
2080.65351600426
 31
0.0
 70
    32
  1
100(125)
 71
     5
 42
100.6420379999997
  3
111
100
AcDbAlignedDimension
 13
901.3711825238088
 23
2030.332497004261
 33
0.0
 14
983.590016523809
 24
2130.974535004261
 34
0.0
 50
90.0
100
AcDbRotatedDimension
1001
ACAD
1000
DSTYLE
1002
{
1070
    41
1040
5.0
1002
}
  0
DIMENSION
  5
5ADC
330
1E
100
AcDbEntity
  8
寸法
  6
Continuous
100
AcDbDimension
  2
*D7
 10
901.3711825238088
 20
2160.70658700426
 30
0.0
 11
897.8711825238086
 21
2145.84056100426
 31
0.0
 70
    32
 71
     5
 42
29.73205199999984
  3
111
100
AcDbAlignedDimension
 13
983.590016523809
 23
2130.974535004261
 33
0.0
 14
979.7037085238089
 24
2160.70658700426
 34
0.0
 50
90.0
100
AcDbRotatedDimension
1001
ACAD
1000
DSTYLE
1002
{
1070
    41
1040
5.0
1002
}
  0
DIMENSION
  5
5AF6
330
1E
100
AcDbEntity
  8
寸法
  6
Continuous
100
AcDbDimension
  2
*D8
 10
1226.711633523809
 20
2035.70658600426
 30
0.0
 11
1223.211633523808
 21
1910.706586504261
 31
0.0
 70
    32
  1
L2
 71
     5
 42
249.9999990000001
  3
111
100
AcDbAlignedDimension
 13
1151.328008523809
 23
1785.70658700426
 33
0.0
 14
1150.800248523809
 24
2035.70658600426
 34
0.0
 50
90.0
100
AcDbRotatedDimension
1001
ACAD
1000
DSTYLE
1002
{
1070
    41
1040
5.0
1002
}
  0
DIMENSION
  5
5B54
330
1E
100
AcDbEntity
  8
寸法
  6
Continuous
100
AcDbDimension
  2
*D9
 10
1003.371182523809
 20
1966.65459900426
 30
0.0
 11
973.262557023809
 21
1970.15459900426
 31
0.0
 70
    32
 71
     5
 42
60.21725099999992
  3
111
100
AcDbAlignedDimension
 13
943.153931523809
 23
1966.65459900426
 33
0.0
 14
1003.371182523809
 24
1966.65459900426
 34
0.0
100
AcDbRotatedDimension
1001
ACAD
1000
DSTYLE
1002
{
1070
    41
1040
5.0
1002
}
  0
DIMENSION
  5
5B5F
330
1E
100
AcDbEntity
  8
寸法
  6
Continuous
100
AcDbDimension
  2
*D10
 10
1053.371180523809
 20
1966.65459900426
 30
0.0
 11
1028.371181523809
 21
1970.15459900426
 31
0.0
 70
    32
 71
     5
 42
49.99999800000011
  3
111
100
AcDbAlignedDimension
 13
1003.371182523809
 23
1966.65459900426
 33
0.0
 14
1053.371180523809
 24
1966.65459900426
 34
0.0
100
AcDbRotatedDimension
1001
ACAD
1000
DSTYLE
1002
{
1070
    41
1040
5.0
1002
}
  0
DIMENSION
  5
5B6A
330
1E
100
AcDbEntity
  8
寸法
  6
Continuous
100
AcDbDimension
  2
*D11
 10
1183.371182523809
 20
1966.65459900426
 30
0.0
 11
1123.371182523809
 21
1970.15459900426
 31
0.0
 70
    32
 71
     5
 42
120.0
  3
111
100
AcDbAlignedDimension
 13
1063.371182523809
 23
2001.11987100426
 33
0.0
 14
1183.371182523809
 24
1966.65459900426
 34
0.0
100
AcDbRotatedDimension
1001
ACAD
1000
DSTYLE
1002
{
1070
    41
1040
5.0
1002
}
  0
DIMENSION
  5
5B76
330
1E
100
AcDbEntity
  8
寸法
  6
Continuous
100
AcDbDimension
  2
*D12
 10
1360.658465523809
 20
1811.70282000426
 30
0.0
 11
1357.158465523808
 21
1747.76805450426
 31
0.0
 70
    32
  1
L1
 71
     5
 42
127.8695309999998
  3
111
100
AcDbAlignedDimension
 13
1360.658465523809
 23
1683.83328900426
 33
0.0
 14
1399.658465523809
 24
1811.70282000426
 34
0.0
 50
90.0
100
AcDbRotatedDimension
1001
ACAD
1000
DSTYLE
1002
{
1070
    41
1040
5.0
1002
}
  0
DIMENSION
  5
5B82
330
1E
100
AcDbEntity
  8
寸法
  6
Continuous
100
AcDbDimension
  2
*D13
 10
1360.658465523809
 20
1955.26738800426
 30
0.0
 11
1357.158465523809
 21
1883.48510400426
 31
0.0
 70
    32
  1
L1
 71
     5
 42
143.5645680000002
  3
111
100
AcDbAlignedDimension
 13
1399.658465523809
 23
1811.70282000426
 33
0.0
 14
1399.658465523809
 24
1955.26738800426
 34
0.0
 50
90.0
100
AcDbRotatedDimension
1001
ACAD
1000
DSTYLE
1002
{
1070
    41
1040
5.0
1002
}
  0
DIMENSION
  5
5B8F
330
1E
100
AcDbEntity
  8
寸法
  6
Continuous
100
AcDbDimension
  2
*D14
 10
1360.658465523809
 20
2153.19632100426
 30
0.0
 11
1357.158465523809
 21
2054.231854504261
 31
0.0
 70
    32
  1
350以内
 71
     5
 42
197.9289330000004
  3
111
100
AcDbAlignedDimension
 13
1399.658465523809
 23
1955.26738800426
 33
0.0
 14
1399.658465523809
 24
2153.19632100426
 34
0.0
 50
90.0
100
AcDbRotatedDimension
1001
ACAD
1000
DSTYLE
1002
{
1070
    41
1040
5.0
1002
}
  0
DIMENSION
  5
5B9C
330
1E
100
AcDbEntity
  8
寸法
  6
Continuous
100
AcDbDimension
  2
*D15
 10
1612.182194523809
 20
2207.42139000426
 30
0.0
 11
1513.175164023809
 21
2210.92139000426
 31
0.0
 70
    32
  1
350以内
 71
     5
 42
198.0140609999998
  3
111
100
AcDbAlignedDimension
 13
1414.168133523809
 23
2168.42139000426
 33
0.0
 14
1612.182194523809
 24
2168.42139000426
 34
0.0
100
AcDbRotatedDimension
1001
ACAD
1000
DSTYLE
1002
{
1070
    41
1040
5.0
1002
}
  0
DIMENSION
  5
5BA9
330
1E
100
AcDbEntity
  8
寸法
  6
Continuous
100
AcDbDimension
  2
*D16
 10
1749.597065523809
 20
2207.42139000426
 30
0.0
 11
1680.889630023809
 21
2210.92139000426
 31
0.0
 70
    32
  1
L1
 71
     5
 42
137.4148710000002
  3
111
100
AcDbAlignedDimension
 13
1612.182194523809
 23
2168.42139000426
 33
0.0
 14
1749.597065523809
 24
2168.42139000426
 34
0.0
100
AcDbRotatedDimension
1001
ACAD
1000
DSTYLE
1002
{
1070
    41
1040
5.0
1002
}
  0
DIMENSION
  5
5BB6
330
1E
100
AcDbEntity
  8
寸法
  6
Continuous
100
AcDbDimension
  2
*D17
 10
1859.902655523809
 20
2207.42139000426
 30
0.0
 11
1804.749860523809
 21
2210.92139000426
 31
0.0
 70
    32
  1
L1
 71
     5
 42
110.3055899999997
  3
111
100
AcDbAlignedDimension
 13
1749.597065523809
 23
2168.42139000426
 33
0.0
 14
1859.902655523809
 24
2207.42139000426
 34
0.0
100
AcDbRotatedDimension
1001
ACAD
1000
DSTYLE
1002
{
1070
    41
1040
5.0
1002
}
  0
DIMENSION
  5
5BC2
330
1E
100
AcDbEntity
  8
寸法
  6
Continuous
100
AcDbDimension
  2
*D18
 10
1809.597065523809
 20
1997.50284600426
 30
0.0
 11
1740.889630023809
 21
2001.002846004261
 31
0.0
 70
    32
  1
L2
 71
     5
 42
137.4148710000002
  3
111
100
AcDbAlignedDimension
 13
1672.182194523809
 23
2026.96738800426
 33
0.0
 14
1809.597065523809
 24
2026.96738800426
 34
0.0
100
AcDbRotatedDimension
1001
ACAD
1000
DSTYLE
1002
{
1070
    41
1040
5.0
1002
}
  0
DIMENSION
  5
5BCF
330
1E
100
AcDbEntity
  8
寸法
  6
Continuous
100
AcDbDimension
  2
*D19
 10
1564.927541523809
 20
1895.26738800426
 30
0.0
 11
1561.427541523808
 21
1823.485104004261
 31
0.0
 70
    32
  1
L2
 71
     5
 42
143.5645680000002
  3
111
100
AcDbAlignedDimension
 13
1540.397066523809
 23
1751.70282000426
 33
0.0
 14
1540.397066523809
 24
1895.26738800426
 34
0.0
 50
90.0
100
AcDbRotatedDimension
1001
ACAD
1000
DSTYLE
1002
{
1070
    41
1040
5.0
1002
}
  0
DIMENSION
  5
5BDC
330
1E
100
AcDbEntity
  8
寸法
  6
Continuous
100
AcDbDimension
  2
*D20
 10
1527.097064523809
 20
1714.86228600426
 30
0.0
 11
1587.097064523809
 21
1718.36228600426
 31
0.0
 70
    32
 71
     5
 42
120.0
  3
111
100
AcDbAlignedDimension
 13
1647.097064523809
 23
1767.26739000426
 33
0.0
 14
1527.097064523809
 24
1714.86228600426
 34
0.0
100
AcDbRotatedDimension
1001
ACAD
1000
DSTYLE
1002
{
1070
    41
1040
5.0
1002
}
  0
DIMENSION
  5
5BE8
330
1E
100
AcDbEntity
  8
寸法
  6
Continuous
100
AcDbDimension
  2
*D21
 10
1407.097064523809
 20
1714.86228600426
 30
0.0
 11
1437.097064523809
 21
1718.36228600426
 31
0.0
 70
    32
 71
     5
 42
60.0
  3
111
100
AcDbAlignedDimension
 13
1467.097064523809
 23
1714.86228600426
 33
0.0
 14
1407.097064523809
 24
1714.86228600426
 34
0.0
100
AcDbRotatedDimension
1001
ACAD
1000
DSTYLE
1002
{
1070
    41
1040
5.0
1002
}
  0
DIMENSION
  5
5BF3
330
1E
100
AcDbEntity
  8
寸法
  6
Continuous
100
AcDbDimension
  2
*D22
 10
1375.647502023808
 20
2184.64588650426
 30
0.0
 11
1376.708161289656
 21
2190.656293238413
 31
0.0
 70
    33
 71
     5
 42
9.999997437635556
  3
111
100
AcDbAlignedDimension
 13
1410.546995523809
 23
2163.88852500426
 33
0.0
 14
1403.475929523809
 24
2156.81745900426
 34
0.0
1001
ACAD
1000
DSTYLE
1002
{
1070
    41
1040
5.0
1002
}
  0
LINE
  5
634C
330
1E
100
AcDbEntity
  8
0
  6
Continuous
100
AcDbLine
 10
901.0586835931929
 20
2030.33167946899
 30
0.0
 11
901.0586835931929
 21
2030.33167946899
 31
0.0
  0
DIMENSION
  5
6355
330
1E
100
AcDbEntity
  8
寸法
  6
Continuous
100
AcDbDimension
  2
*D24
 10
901.3711825238088
 20
2030.33167946899
 30
0.0
 11
897.8711825238086
 21
1972.470969736626
 31
0.0
 70
    32
  1
100（125）
 71
     5
 42
115.7214194647297
  3
111
100
AcDbAlignedDimension
 13
984.4711825238089
 23
1914.610260004261
 33
0.0
 14
984.4711825238089
 24
2030.33167946899
 34
0.0
 50
90.0
100
AcDbRotatedDimension
1001
ACAD
1000
DSTYLE
1002
{
1070
    41
1040
5.0
1002
}
  0
DIMENSION
  5
638E
330
1E
100
AcDbEntity
  8
寸法
  6
Continuous
100
AcDbDimension
  2
*D25
 10
1516.597064523809
 20
1714.86228600426
 30
0.0
 11
1491.847064523809
 21
1718.36228600426
 31
0.0
 70
    32
 71
     5
 42
49.5
  3
111
100
AcDbAlignedDimension
 13
1467.097064523809
 23
1714.86228600426
 33
0.0
 14
1516.597064523809
 24
1771.20282000426
 34
0.0
100
AcDbRotatedDimension
1001
ACAD
1000
DSTYLE
1002
{
1070
    41
1040
5.0
1002
}
  0
DIMENSION
  5
63A2
330
1E
100
AcDbEntity
  8
寸法
  6
Continuous
100
AcDbDimension
  2
*D26
 10
1527.097064523809
 20
1714.86228600426
 30
0.0
 11
1521.815814523809
 21
1718.36228600426
 31
0.0
 70
    32
  1
調整
 71
     5
 42
10.5625
  3
111
100
AcDbAlignedDimension
 13
1516.534564523809
 23
1714.86228600426
 33
0.0
 14
1527.097064523809
 24
1714.86228600426
 34
0.0
100
AcDbRotatedDimension
1001
ACAD
1000
DSTYLE
1002
{
1070
    41
1040
5.0
1002
}
  0
ENDSEC
  0
SECTION
  2
OBJECTS
  0
DICTIONARY
  5
C
330
0
100
AcDbDictionary
281
     1
  3
ACAD_2007HEADERVARS_RT
350
642A
  3
ACAD_COLOR
350
60F0
  3
ACAD_GROUP
350
D
  3
ACAD_LAYOUT
350
19
  3
ACAD_MATERIAL
350
60EF
  3
ACAD_MLINESTYLE
350
16
  3
ACAD_PLOTSETTINGS
350
18
  3
ACAD_PLOTSTYLENAME
350
E
  3
ACAD_TABLESTYLE
350
60F1
  3
ACAD_VISUALSTYLE
350
6333
  3
AcDbVariableDictionary
350
169
  3
DWGPROPS
350
6429
  0
DICTIONARY
  5
63DE
330
8
100
AcDbDictionary
280
     1
281
     1
  0
DICTIONARY
  5
175
330
2
100
AcDbDictionary
280
     1
281
     1
  3
ACAD_LAYERFILTERS
360
185
  3
ACAD_LAYERSTATES
360
176
  0
DICTIONARY
  5
28B
330
1E
100
AcDbDictionary
280
     1
281
     1
  3
ACAD_LAYOUTSELFREF
360
60E8
  0
DICTIONARY
  5
28D
330
1A
100
AcDbDictionary
280
     1
281
     1
  3
ACAD_LAYOUTSELFREF
360
60E7
  0
DICTIONARY
  5
642A
102
{ACAD_REACTORS
330
C
102
}
330
C
100
AcDbDictionary
281
     1
  3
DIMFXL
350
642B
  0
DICTIONARY
  5
60F0
102
{ACAD_REACTORS
330
C
102
}
330
C
100
AcDbDictionary
281
     1
  0
DICTIONARY
  5
D
102
{ACAD_REACTORS
330
C
102
}
330
C
100
AcDbDictionary
281
     1
  0
DICTIONARY
  5
19
102
{ACAD_REACTORS
330
C
102
}
330
C
100
AcDbDictionary
281
     1
  3
Model
350
21
  3
ﾚｲｱｳﾄ1
350
1D
  0
DICTIONARY
  5
60EF
102
{ACAD_REACTORS
330
C
102
}
330
C
100
AcDbDictionary
281
     1
  3
ByBlock
350
6331
  3
ByLayer
350
6330
  3
Global
350
6332
  0
DICTIONARY
  5
16
102
{ACAD_REACTORS
330
C
102
}
330
C
100
AcDbDictionary
281
     1
  3
Standard
350
17
  0
DICTIONARY
  5
18
102
{ACAD_REACTORS
330
C
102
}
330
C
100
AcDbDictionary
281
     1
  0
ACDBDICTIONARYWDFLT
  5
E
102
{ACAD_REACTORS
330
C
102
}
330
C
100
AcDbDictionary
281
     1
  3
Normal
350
F
100
AcDbDictionaryWithDefault
340
F
1001
ACAD
1000
TREAT_AS_HARD
1070
     0
1000
TREAT_AS_HARD
1070
     0
1000
TREAT_AS_HARD
1070
     0
1000
TREAT_AS_HARD
1070
     0
1000
TREAT_AS_HARD
1070
     0
1000
TREAT_AS_HARD
1070
     0
1000
TREAT_AS_HARD
1070
     0
1000
TREAT_AS_HARD
1070
     0
1000
TREAT_AS_HARD
1070
     0
1000
TREAT_AS_HARD
1070
     0
1000
TREAT_AS_HARD
1070
     0
1000
TREAT_AS_HARD
1070
     0
1000
TREAT_AS_HARD
1070
     0
1000
TREAT_AS_HARD
1070
     0
1000
TREAT_AS_HARD
1070
     0
1000
TREAT_AS_HARD
1070
     0
1000
TREAT_AS_HARD
1070
     0
1000
TREAT_AS_HARD
1070
     0
1000
TREAT_AS_HARD
1070
     0
1000
TREAT_AS_HARD
1070
     0
1000
TREAT_AS_HARD
1070
     0
1000
TREAT_AS_HARD
1070
     0
1000
TREAT_AS_HARD
1070
     0
1000
TREAT_AS_HARD
1070
     0
1000
TREAT_AS_HARD
1070
     0
  0
DICTIONARY
  5
60F1
102
{ACAD_REACTORS
330
C
102
}
330
C
100
AcDbDictionary
281
     1
  3
Standard
350
60F2
  0
DICTIONARY
  5
6333
102
{ACAD_REACTORS
330
C
102
}
330
C
100
AcDbDictionary
281
     1
  3
2dWireframe
350
6339
  3
3D Hidden
350
633B
  3
3dWireframe
350
633A
  3
Basic
350
6338
  3
Brighten
350
633F
  3
ColorChange
350
6343
  3
Conceptual
350
633C
  3
Dim
350
633E
  3
Facepattern
350
6342
  3
Flat
350
6334
  3
FlatWithEdges
350
6335
  3
Gouraud
350
6336
  3
GouraudWithEdges
350
6337
  3
Linepattern
350
6341
  3
Realistic
350
633D
  3
Thicken
350
6340
  0
DICTIONARY
  5
169
102
{ACAD_REACTORS
330
C
102
}
330
C
100
AcDbDictionary
281
     1
  3
CTABLESTYLE
350
6326
  3
DIMASSOC
350
16A
  3
INDEXCTL
350
63F9
  3
SORTENTS
350
63F8
  0
XRECORD
  5
6429
102
{ACAD_REACTORS
330
C
102
}
330
C
100
AcDbXrecord
280
     1
  1
DWGPROPS COOKIE
  2

  3

  4

  6

  7

  8
HON1000AV
  9

300
=
301
=
302
=
303
=
304
=
305
=
306
=
307
=
308
=
309
=
 40
0.2563872337962963
 41
2454316.693457674
 42
2454726.558121736
  1

 90
        0
  0
DICTIONARY
  5
185
102
{ACAD_REACTORS
330
175
102
}
330
175
100
AcDbDictionary
280
     1
281
     1
  0
DICTIONARY
  5
176
102
{ACAD_REACTORS
330
175
102
}
330
175
100
AcDbDictionary
281
     1
  3
ACAD
350
177
  0
XRECORD
  5
60E8
102
{ACAD_REACTORS
330
28B
102
}
330
28B
100
AcDbXrecord
280
     1
340
1E
  0
XRECORD
  5
60E7
102
{ACAD_REACTORS
330
28D
102
}
330
28D
100
AcDbXrecord
280
     1
340
1A
  0
XRECORD
  5
642B
102
{ACAD_REACTORS
330
642A
102
}
330
642A
100
AcDbXrecord
280
     1
 40
0.0
  0
LAYOUT
  5
21
102
{ACAD_XDICTIONARY
360
642E
102
}
102
{ACAD_REACTORS
330
19
102
}
330
19
100
AcDbPlotSettings
  1

  2
\\MEISEI-1\EPSON Stylus Photo EX3
  4

  6

 40
0.0
 41
0.0
 42
0.0
 43
0.0
 44
0.0
 45
0.0
 46
0.0
 47
0.0
 48
0.0
 49
0.0
140
0.0
141
0.0
142
1.0
143
1.0
 70
  1712
 72
     0
 73
     0
 74
     0
  7

 75
     0
147
1.0
148
0.0
149
0.0
100
AcDbLayout
  1
Model
 70
     1
 71
     0
 10
0.0
 20
0.0
 11
12.0
 21
9.0
 12
0.0
 22
0.0
 32
0.0
 14
0.0
 24
0.0
 34
0.0
 15
0.0
 25
0.0
 35
0.0
146
0.0
 13
0.0
 23
0.0
 33
0.0
 16
1.0
 26
0.0
 36
0.0
 17
0.0
 27
1.0
 37
0.0
 76
     0
330
1E
331
632E
  0
LAYOUT
  5
1D
102
{ACAD_XDICTIONARY
360
642C
102
}
102
{ACAD_REACTORS
330
19
102
}
330
19
100
AcDbPlotSettings
  1

  2
\\MEISEI-1\EPSON Stylus Photo EX3
  4

  6

 40
0.0
 41
0.0
 42
0.0
 43
0.0
 44
0.0
 45
0.0
 46
0.0
 47
0.0
 48
0.0
 49
0.0
140
0.0
141
0.0
142
1.0
143
1.0
 70
   688
 72
     0
 73
     0
 74
     5
  7

 75
    16
147
1.0
148
0.0
149
0.0
100
AcDbLayout
  1
ﾚｲｱｳﾄ1
 70
     1
 71
     1
 10
0.0
 20
0.0
 11
12.0
 21
9.0
 12
0.0
 22
0.0
 32
0.0
 14
1.000000000000000E+20
 24
1.000000000000000E+20
 34
1.000000000000000E+20
 15
-1.000000000000000E+20
 25
-1.000000000000000E+20
 35
-1.000000000000000E+20
146
0.0
 13
0.0
 23
0.0
 33
0.0
 16
1.0
 26
0.0
 36
0.0
 17
0.0
 27
1.0
 37
0.0
 76
     0
330
1A
  0
MATERIAL
  5
6331
102
{ACAD_XDICTIONARY
360
6434
102
}
102
{ACAD_REACTORS
330
60EF
102
}
330
60EF
100
AcDbMaterial
  1
ByBlock
  0
MATERIAL
  5
6330
102
{ACAD_XDICTIONARY
360
6432
102
}
102
{ACAD_REACTORS
330
60EF
102
}
330
60EF
100
AcDbMaterial
  1
ByLayer
  0
MATERIAL
  5
6332
102
{ACAD_XDICTIONARY
360
6436
102
}
102
{ACAD_REACTORS
330
60EF
102
}
330
60EF
100
AcDbMaterial
  1
Global
  0
MLINESTYLE
  5
17
102
{ACAD_REACTORS
330
16
102
}
330
16
100
AcDbMlineStyle
  2
STANDARD
 70
     0
  3

 62
   256
 51
90.0
 52
90.0
 71
     2
 49
0.5
 62
   256
  6
BYLAYER
 49
-0.5
 62
   256
  6
BYLAYER
  0
ACDBPLACEHOLDER
  5
F
102
{ACAD_REACTORS
330
E
102
}
330
E
  0
TABLESTYLE
  5
60F2
102
{ACAD_XDICTIONARY
360
6430
102
}
102
{ACAD_REACTORS
330
60F1
102
}
330
60F1
100
AcDbTableStyle
  3
Standard
 70
     0
 71
     0
 40
0.06
 41
0.06
280
     0
281
     0
  7
STANDARD
140
0.18
170
     2
 62
     0
 63
     7
283
     0
274
    -2
284
     1
 64
     0
275
    -2
285
     1
 65
     0
276
    -2
286
     1
 66
     0
277
    -2
287
     1
 67
     0
278
    -2
288
     1
 68
     0
279
    -2
289
     1
 69
     0
  7
STANDARD
140
0.25
170
     5
 62
     0
 63
     7
283
     0
274
    -2
284
     1
 64
     0
275
    -2
285
     1
 65
     0
276
    -2
286
     1
 66
     0
277
    -2
287
     1
 67
     0
278
    -2
288
     1
 68
     0
279
    -2
289
     1
 69
     0
  7
STANDARD
140
0.18
170
     5
 62
     0
 63
     7
283
     0
274
    -2
284
     1
 64
     0
275
    -2
285
     1
 65
     0
276
    -2
286
     1
 66
     0
277
    -2
287
     1
 67
     0
278
    -2
288
     1
 68
     0
279
    -2
289
     1
 69
     0
  0
VISUALSTYLE
  5
6339
102
{ACAD_REACTORS
330
6333
102
}
330
6333
100
AcDbVisualStyle
  2
2dWireframe
 70
     4
 71
     0
 72
     2
 73
     0
 90
        0
 40
-0.6
 41
-30.0
 62
     5
 63
     7
 74
     1
 91
        4
 64
     7
 65
   257
 75
     1
175
     1
 42
1.0
 92
        0
 66
   257
 43
1.0
 76
     1
 77
     6
 78
     2
 67
     7
 79
     5
170
     0
171
     0
290
     0
174
     0
 93
        1
 44
0.0
173
     0
291
     0
 45
0.0
1001
ACAD
1000
AcDbSavedByObjectVersion
1070
     0
  0
VISUALSTYLE
  5
633B
102
{ACAD_REACTORS
330
6333
102
}
330
6333
100
AcDbVisualStyle
  2
3D Hidden
 70
     6
 71
     1
 72
     2
 73
     2
 90
        0
 40
-0.6
 41
-30.0
 62
     5
 63
     7
 74
     2
 91
        2
 64
     7
 65
   257
 75
     2
175
     1
 42
40.0
 92
        0
 66
   257
 43
1.0
 76
     1
 77
     6
 78
     2
 67
     7
 79
     3
170
     0
171
     0
290
     0
174
     0
 93
        1
 44
0.0
173
     0
291
     0
 45
0.0
1001
ACAD
1000
AcDbSavedByObjectVersion
1070
     0
  0
VISUALSTYLE
  5
633A
102
{ACAD_REACTORS
330
6333
102
}
330
6333
100
AcDbVisualStyle
  2
3dWireframe
 70
     5
 71
     0
 72
     2
 73
     0
 90
        0
 40
-0.6
 41
-30.0
 62
     5
 63
     7
 74
     1
 91
        4
 64
     7
 65
   257
 75
     1
175
     1
 42
1.0
 92
        0
 66
   257
 43
1.0
 76
     1
 77
     6
 78
     2
 67
     7
 79
     5
170
     0
171
     0
290
     0
174
     0
 93
        1
 44
0.0
173
     0
291
     0
 45
0.0
1001
ACAD
1000
AcDbSavedByObjectVersion
1070
     0
  0
VISUALSTYLE
  5
6338
102
{ACAD_REACTORS
330
6333
102
}
330
6333
100
AcDbVisualStyle
  2
Basic
 70
     7
 71
     1
 72
     0
 73
     1
 90
        0
 40
-0.6
 41
-30.0
 62
     5
 63
     7
 74
     0
 91
        4
 64
     7
 65
   257
 75
     1
175
     1
 42
1.0
 92
        8
 66
     7
 43
1.0
 76
     1
 77
     6
 78
     2
 67
     7
 79
     5
170
     0
171
     0
290
     0
174
     0
 93
        1
 44
0.0
173
     0
291
     1
 45
0.0
1001
ACAD
1000
AcDbSavedByObjectVersion
1070
     0
  0
VISUALSTYLE
  5
633F
102
{ACAD_REACTORS
330
6333
102
}
330
6333
100
AcDbVisualStyle
  2
Brighten
 70
    12
 71
     2
 72
     2
 73
     0
 90
        0
 40
-0.6
 41
-30.0
 62
     5
 63
     7
 74
     1
 91
        4
 64
     7
 65
   257
 75
     1
175
     1
 42
1.0
 92
        8
 66
     7
 43
1.0
 76
     1
 77
     6
 78
     2
 67
     7
 79
     5
170
     0
171
     0
290
     0
174
     0
 93
        1
 44
50.0
173
     0
291
     1
 45
0.0
1001
ACAD
1000
AcDbSavedByObjectVersion
1070
     0
  0
VISUALSTYLE
  5
6343
102
{ACAD_REACTORS
330
6333
102
}
330
6333
100
AcDbVisualStyle
  2
ColorChange
 70
    16
 71
     2
 72
     2
 73
     3
 90
        0
 40
-0.6
 41
-30.0
 62
     5
 63
     8
 74
     1
 91
        4
 64
     7
 65
   257
 75
     1
175
     1
 42
1.0
 92
        8
 66
     8
 43
1.0
 76
     1
 77
     6
 78
     2
 67
     7
 79
     5
170
     0
171
     0
290
     0
174
     0
 93
        1
 44
0.0
173
     0
291
     1
 45
0.0
1001
ACAD
1000
AcDbSavedByObjectVersion
1070
     0
  0
VISUALSTYLE
  5
633C
102
{ACAD_REACTORS
330
6333
102
}
330
6333
100
AcDbVisualStyle
  2
Conceptual
 70
     9
 71
     3
 72
     2
 73
     0
 90
        0
 40
-0.6
 41
-30.0
 62
     5
 63
     7
 74
     2
 91
        2
 64
     7
 65
   257
 75
     1
175
     1
 42
40.0
 92
        8
 66
     7
 43
1.0
 76
     1
 77
     6
 78
     2
 67
     7
 79
     3
170
     0
171
     0
290
     0
174
     0
 93
        1
 44
0.0
173
     0
291
     0
 45
0.0
1001
ACAD
1000
AcDbSavedByObjectVersion
1070
     0
  0
VISUALSTYLE
  5
633E
102
{ACAD_REACTORS
330
6333
102
}
330
6333
100
AcDbVisualStyle
  2
Dim
 70
    11
 71
     2
 72
     2
 73
     0
 90
        0
 40
-0.6
 41
-30.0
 62
     5
 63
     7
 74
     1
 91
        4
 64
     7
 65
   257
 75
     1
175
     1
 42
1.0
 92
        8
 66
     7
 43
1.0
 76
     1
 77
     6
 78
     2
 67
     7
 79
     5
170
     0
171
     0
290
     0
174
     0
 93
        1
 44
-50.0
173
     0
291
     1
 45
0.0
1001
ACAD
1000
AcDbSavedByObjectVersion
1070
     0
  0
VISUALSTYLE
  5
6342
102
{ACAD_REACTORS
330
6333
102
}
330
6333
100
AcDbVisualStyle
  2
Facepattern
 70
    15
 71
     2
 72
     2
 73
     0
 90
        0
 40
-0.6
 41
-30.0
 62
     5
 63
     7
 74
     1
 91
        4
 64
     7
 65
   257
 75
     1
175
     1
 42
1.0
 92
        8
 66
     7
 43
1.0
 76
     1
 77
     6
 78
     2
 67
     7
 79
     5
170
     0
171
     0
290
     0
174
     0
 93
        1
 44
0.0
173
     0
291
     1
 45
0.0
1001
ACAD
1000
AcDbSavedByObjectVersion
1070
     0
  0
VISUALSTYLE
  5
6334
102
{ACAD_REACTORS
330
6333
102
}
330
6333
100
AcDbVisualStyle
  2
Flat
 70
     0
 71
     2
 72
     1
 73
     1
 90
        2
 40
-0.6
 41
30.0
 62
     5
 63
     7
 74
     0
 91
        4
 64
     7
 65
   257
 75
     1
175
     1
 42
1.0
 92
        8
 66
     7
 43
1.0
 76
     1
 77
     6
 78
     2
 67
     7
 79
     5
170
     0
171
     0
290
     0
174
     0
 93
       13
 44
0.0
173
     0
291
     1
 45
0.0
1001
ACAD
1000
AcDbSavedByObjectVersion
1070
     0
  0
VISUALSTYLE
  5
6335
102
{ACAD_REACTORS
330
6333
102
}
330
6333
100
AcDbVisualStyle
  2
FlatWithEdges
 70
     1
 71
     2
 72
     1
 73
     1
 90
        2
 40
-0.6
 41
30.0
 62
     5
 63
     7
 74
     1
 91
        4
 64
     7
 65
   257
 75
     1
175
     1
 42
1.0
 92
        0
 66
   257
 43
1.0
 76
     1
 77
     6
 78
     2
 67
     7
 79
     5
170
     0
171
     0
290
     0
174
     0
 93
       13
 44
0.0
173
     0
291
     1
 45
0.0
1001
ACAD
1000
AcDbSavedByObjectVersion
1070
     0
  0
VISUALSTYLE
  5
6336
102
{ACAD_REACTORS
330
6333
102
}
330
6333
100
AcDbVisualStyle
  2
Gouraud
 70
     2
 71
     2
 72
     2
 73
     1
 90
        2
 40
-0.6
 41
30.0
 62
     5
 63
     7
 74
     0
 91
        4
 64
     7
 65
   257
 75
     1
175
     1
 42
1.0
 92
        0
 66
     7
 43
1.0
 76
     1
 77
     6
 78
     2
 67
     7
 79
     5
170
     0
171
     0
290
     0
174
     0
 93
       13
 44
0.0
173
     0
291
     1
 45
0.0
1001
ACAD
1000
AcDbSavedByObjectVersion
1070
     0
  0
VISUALSTYLE
  5
6337
102
{ACAD_REACTORS
330
6333
102
}
330
6333
100
AcDbVisualStyle
  2
GouraudWithEdges
 70
     3
 71
     2
 72
     2
 73
     1
 90
        2
 40
-0.6
 41
30.0
 62
     5
 63
     7
 74
     1
 91
        4
 64
     7
 65
   257
 75
     1
175
     1
 42
1.0
 92
        0
 66
   257
 43
1.0
 76
     1
 77
     6
 78
     2
 67
     7
 79
     5
170
     0
171
     0
290
     0
174
     0
 93
       13
 44
0.0
173
     0
291
     1
 45
0.0
1001
ACAD
1000
AcDbSavedByObjectVersion
1070
     0
  0
VISUALSTYLE
  5
6341
102
{ACAD_REACTORS
330
6333
102
}
330
6333
100
AcDbVisualStyle
  2
Linepattern
 70
    14
 71
     2
 72
     2
 73
     0
 90
        0
 40
-0.6
 41
-30.0
 62
     5
 63
     7
 74
     1
 91
        4
 64
     7
 65
   257
 75
     7
175
     7
 42
1.0
 92
        8
 66
     7
 43
1.0
 76
     1
 77
     6
 78
     2
 67
     7
 79
     5
170
     0
171
     0
290
     0
174
     0
 93
        1
 44
0.0
173
     0
291
     1
 45
0.0
1001
ACAD
1000
AcDbSavedByObjectVersion
1070
     0
  0
VISUALSTYLE
  5
633D
102
{ACAD_REACTORS
330
6333
102
}
330
6333
100
AcDbVisualStyle
  2
Realistic
 70
     8
 71
     2
 72
     2
 73
     0
 90
        0
 40
-0.6
 41
-30.0
 62
     5
 63
     7
 74
     1
 91
        0
 64
     7
 65
   257
 75
     1
175
     1
 42
1.0
 92
        8
 66
     8
 43
1.0
 76
     1
 77
     6
 78
     2
 67
     7
 79
     5
170
     0
171
     0
290
     0
174
     0
 93
       13
 44
0.0
173
     0
291
     0
 45
0.0
1001
ACAD
1000
AcDbSavedByObjectVersion
1070
     0
  0
VISUALSTYLE
  5
6340
102
{ACAD_REACTORS
330
6333
102
}
330
6333
100
AcDbVisualStyle
  2
Thicken
 70
    13
 71
     2
 72
     2
 73
     0
 90
        0
 40
-0.6
 41
-30.0
 62
     5
 63
     7
 74
     1
 91
        4
 64
     7
 65
   257
 75
     1
175
     1
 42
1.0
 92
       12
 66
     7
 43
1.0
 76
     1
 77
     6
 78
     2
 67
     7
 79
     5
170
     0
171
     0
290
     0
174
     0
 93
        1
 44
0.0
173
     0
291
     1
 45
0.0
1001
ACAD
1000
AcDbSavedByObjectVersion
1070
     0
  0
DICTIONARYVAR
  5
6326
102
{ACAD_REACTORS
330
169
102
}
330
169
100
DictionaryVariables
280
     0
  1
STANDARD
  0
DICTIONARYVAR
  5
16A
102
{ACAD_REACTORS
330
169
102
}
330
169
100
DictionaryVariables
280
     0
  1
1
  0
DICTIONARYVAR
  5
63F9
102
{ACAD_REACTORS
330
169
102
}
330
169
100
DictionaryVariables
280
     0
  1
0
  0
DICTIONARYVAR
  5
63F8
102
{ACAD_REACTORS
330
169
102
}
330
169
100
DictionaryVariables
280
     0
  1
127
  0
XRECORD
  5
177
102
{ACAD_REACTORS
330
176
102
}
330
176
100
AcDbXrecord
280
     1
 91
      476
330
179
 90
        8
 62
     7
370
    -3
331
15
  1
Color_7
330
178
 90
        8
 62
     7
370
    -3
331
15
  1
Color_7
330
128
 90
        0
 62
     7
370
    -3
331
15
  1
Color_7
330
10
 90
        8
 62
     7
370
    -3
331
15
  1
Color_7
  0
DICTIONARY
  5
642E
330
21
100
AcDbDictionary
280
     1
281
     1
  3
ACAD_XREC_ROUNDTRIP
360
642F
  0
DICTIONARY
  5
642C
330
1D
100
AcDbDictionary
280
     1
281
     1
  3
ACAD_XREC_ROUNDTRIP
360
642D
  0
DICTIONARY
  5
6434
330
6331
100
AcDbDictionary
280
     1
281
     1
  3
ACAD_XREC_ROUNDTRIP
360
6435
  0
DICTIONARY
  5
6432
330
6330
100
AcDbDictionary
280
     1
281
     1
  3
ACAD_XREC_ROUNDTRIP
360
6433
  0
DICTIONARY
  5
6436
330
6332
100
AcDbDictionary
280
     1
281
     1
  3
ACAD_XREC_ROUNDTRIP
360
6437
  0
DICTIONARY
  5
6430
330
60F2
100
AcDbDictionary
280
     1
281
     1
  3
ACAD_XREC_ROUNDTRIP
360
6431
  0
XRECORD
  5
642F
102
{ACAD_REACTORS
330
642E
102
}
330
642E
100
AcDbXrecord
280
     1
102
SHADEPLOT
 70
     0
102
SHADEPLOTRESLEVEL
 70
     2
102
SHADEPLOTCUSTOMDPI
 70
   300
  0
XRECORD
  5
642D
102
{ACAD_REACTORS
330
642C
102
}
330
642C
100
AcDbXrecord
280
     1
102
SHADEPLOT
 70
     0
102
SHADEPLOTRESLEVEL
 70
     2
102
SHADEPLOTCUSTOMDPI
 70
   300
  0
XRECORD
  5
6435
102
{ACAD_REACTORS
330
6434
102
}
330
6434
100
AcDbXrecord
280
     1
102
MATERIAL
148
0.0
149
0.0
149
0.0
 93
        0
 94
       63
282
     0
 72
     1
 77
     1
171
     1
175
     1
179
     1
273
     0
  0
XRECORD
  5
6433
102
{ACAD_REACTORS
330
6432
102
}
330
6432
100
AcDbXrecord
280
     1
102
MATERIAL
148
0.0
149
0.0
149
0.0
 93
        0
 94
       63
282
     0
 72
     1
 77
     1
171
     1
175
     1
179
     1
273
     0
  0
XRECORD
  5
6437
102
{ACAD_REACTORS
330
6436
102
}
330
6436
100
AcDbXrecord
280
     1
102
MATERIAL
148
0.0
149
0.0
149
0.0
 93
        0
 94
       63
282
     0
 72
     1
 77
     1
171
     1
175
     1
179
     1
273
     0
  0
XRECORD
  5
6431
102
{ACAD_REACTORS
330
6430
102
}
330
6430
100
AcDbXrecord
280
     1
102
ACAD_ROUNDTRIP_PRE2007_TABLESTYLE
 90
        4
 91
        0
  1

 92
        4
 93
        0
  2

 94
        4
 95
        0
  3

  0
ENDSEC
  0
EOF
