  0
SECTION
  2
HEADER
  9
$ACADVER
  1
AC1015
  9
$ACADMAINTVER
 70
    20
  9
$DWGCODEPAGE
  3
ANSI_932
  9
$INSBASE
 10
0.0
 20
0.0
 30
0.0
  9
$EXTMIN
 10
1311.238407979546
 20
363.7058788122867
 30
0.0
  9
$EXTMAX
 10
1698.405074979546
 20
623.1827308122865
 30
0.0
  9
$LIMMIN
 10
0.0
 20
0.0
  9
$LIMMAX
 10
420.0
 20
297.0
  9
$ORTHOMODE
 70
     0
  9
$REGENMODE
 70
     1
  9
$FILLMODE
 70
     1
  9
$QTEXTMODE
 70
     0
  9
$MIRRTEXT
 70
     1
  9
$LTSCALE
 40
1.0
  9
$ATTMODE
 70
     1
  9
$TEXTSIZE
 40
5.0
  9
$TRACEWID
 40
0.05
  9
$TEXTSTYLE
  7
ACAD
  9
$CLAYER
  8
0
  9
$CELTYPE
  6
CONTINUOUS
  9
$CECOLOR
 62
   256
  9
$CELTSCALE
 40
1.0
  9
$DISPSILH
 70
     0
  9
$DIMSCALE
 40
1.0
  9
$DIMASZ
 40
1.0
  9
$DIMEXO
 40
0.0
  9
$DIMDLI
 40
0.38
  9
$DIMRND
 40
0.0
  9
$DIMDLE
 40
0.0
  9
$DIMEXE
 40
0.0
  9
$DIMTP
 40
0.0
  9
$DIMTM
 40
0.0
  9
$DIMTXT
 40
5.0
  9
$DIMCEN
 40
0.09
  9
$DIMTSZ
 40
0.0
  9
$DIMTOL
 70
     0
  9
$DIMLIM
 70
     0
  9
$DIMTIH
 70
     0
  9
$DIMTOH
 70
     1
  9
$DIMSE1
 70
     0
  9
$DIMSE2
 70
     0
  9
$DIMTAD
 70
     1
  9
$DIMZIN
 70
     0
  9
$DIMBLK
  1
Dot
  9
$DIMASO
 70
     1
  9
$DIMSHO
 70
     1
  9
$DIMPOST
  1

  9
$DIMAPOST
  1

  9
$DIMALT
 70
     0
  9
$DIMALTD
 70
     2
  9
$DIMALTF
 40
25.4
  9
$DIMLFAC
 40
1.0
  9
$DIMTOFL
 70
     0
  9
$DIMTVP
 40
0.0
  9
$DIMTIX
 70
     1
  9
$DIMSOXD
 70
     0
  9
$DIMSAH
 70
     0
  9
$DIMBLK1
  1

  9
$DIMBLK2
  1

  9
$DIMSTYLE
  2
AutoCAD
  9
$DIMCLRD
 70
     4
  9
$DIMCLRE
 70
     4
  9
$DIMCLRT
 70
     3
  9
$DIMTFAC
 40
1.0
  9
$DIMGAP
 40
1.0
  9
$DIMJUST
 70
     0
  9
$DIMSD1
 70
     0
  9
$DIMSD2
 70
     0
  9
$DIMTOLJ
 70
     1
  9
$DIMTZIN
 70
     0
  9
$DIMALTZ
 70
     0
  9
$DIMALTTZ
 70
     0
  9
$DIMUPT
 70
     0
  9
$DIMDEC
 70
     0
  9
$DIMTDEC
 70
     0
  9
$DIMALTU
 70
     2
  9
$DIMALTTD
 70
     2
  9
$DIMTXSTY
  7
ACAD
  9
$DIMAUNIT
 70
     0
  9
$DIMADEC
 70
     0
  9
$DIMALTRND
 40
0.0
  9
$DIMAZIN
 70
     0
  9
$DIMDSEP
 70
    46
  9
$DIMATFIT
 70
     0
  9
$DIMFRAC
 70
     0
  9
$DIMLDRBLK
  1
None
  9
$DIMLUNIT
 70
     2
  9
$DIMLWD
 70
    -2
  9
$DIMLWE
 70
    -2
  9
$DIMTMOVE
 70
     0
  9
$LUNITS
 70
     2
  9
$LUPREC
 70
     4
  9
$SKETCHINC
 40
0.1
  9
$FILLETRAD
 40
0.0
  9
$AUNITS
 70
     0
  9
$AUPREC
 70
     0
  9
$MENU
  1
.
  9
$ELEVATION
 40
0.0
  9
$PELEVATION
 40
0.0
  9
$THICKNESS
 40
0.0
  9
$LIMCHECK
 70
     0
  9
$CHAMFERA
 40
0.0
  9
$CHAMFERB
 40
0.0
  9
$CHAMFERC
 40
0.0
  9
$CHAMFERD
 40
0.0
  9
$SKPOLY
 70
     0
  9
$TDCREATE
 40
2454316.693457674
  9
$TDUCREATE
 40
2454316.318457674
  9
$TDUPDATE
 40
2454736.375649595
  9
$TDUUPDATE
 40
2454736.000649595
  9
$TDINDWG
 40
0.2411904167
  9
$TDUSRTIMER
 40
0.2411904167
  9
$USRTIMER
 70
     1
  9
$ANGBASE
 50
0.0
  9
$ANGDIR
 70
     0
  9
$PDMODE
 70
     0
  9
$PDSIZE
 40
0.0
  9
$PLINEWID
 40
0.0
  9
$SPLFRAME
 70
     0
  9
$SPLINETYPE
 70
     6
  9
$SPLINESEGS
 70
     8
  9
$HANDSEED
  5
74CE
  9
$SURFTAB1
 70
     6
  9
$SURFTAB2
 70
     6
  9
$SURFTYPE
 70
     6
  9
$SURFU
 70
     6
  9
$SURFV
 70
     6
  9
$UCSBASE
  2

  9
$UCSNAME
  2

  9
$UCSORG
 10
0.0
 20
0.0
 30
0.0
  9
$UCSXDIR
 10
1.0
 20
0.0
 30
0.0
  9
$UCSYDIR
 10
0.0
 20
1.0
 30
0.0
  9
$UCSORTHOREF
  2

  9
$UCSORTHOVIEW
 70
     0
  9
$UCSORGTOP
 10
0.0
 20
0.0
 30
0.0
  9
$UCSORGBOTTOM
 10
0.0
 20
0.0
 30
0.0
  9
$UCSORGLEFT
 10
0.0
 20
0.0
 30
0.0
  9
$UCSORGRIGHT
 10
0.0
 20
0.0
 30
0.0
  9
$UCSORGFRONT
 10
0.0
 20
0.0
 30
0.0
  9
$UCSORGBACK
 10
0.0
 20
0.0
 30
0.0
  9
$PUCSBASE
  2

  9
$PUCSNAME
  2

  9
$PUCSORG
 10
0.0
 20
0.0
 30
0.0
  9
$PUCSXDIR
 10
1.0
 20
0.0
 30
0.0
  9
$PUCSYDIR
 10
0.0
 20
1.0
 30
0.0
  9
$PUCSORTHOREF
  2

  9
$PUCSORTHOVIEW
 70
     0
  9
$PUCSORGTOP
 10
0.0
 20
0.0
 30
0.0
  9
$PUCSORGBOTTOM
 10
0.0
 20
0.0
 30
0.0
  9
$PUCSORGLEFT
 10
0.0
 20
0.0
 30
0.0
  9
$PUCSORGRIGHT
 10
0.0
 20
0.0
 30
0.0
  9
$PUCSORGFRONT
 10
0.0
 20
0.0
 30
0.0
  9
$PUCSORGBACK
 10
0.0
 20
0.0
 30
0.0
  9
$USERI1
 70
     0
  9
$USERI2
 70
     0
  9
$USERI3
 70
     0
  9
$USERI4
 70
     0
  9
$USERI5
 70
     0
  9
$USERR1
 40
0.0
  9
$USERR2
 40
0.0
  9
$USERR3
 40
0.0
  9
$USERR4
 40
0.0
  9
$USERR5
 40
0.0
  9
$WORLDVIEW
 70
     1
  9
$SHADEDGE
 70
     3
  9
$SHADEDIF
 70
    70
  9
$TILEMODE
 70
     1
  9
$MAXACTVP
 70
    48
  9
$PINSBASE
 10
0.0
 20
0.0
 30
0.0
  9
$PLIMCHECK
 70
     0
  9
$PEXTMIN
 10
1.000000000000000E+20
 20
1.000000000000000E+20
 30
1.000000000000000E+20
  9
$PEXTMAX
 10
-1.000000000000000E+20
 20
-1.000000000000000E+20
 30
-1.000000000000000E+20
  9
$PLIMMIN
 10
0.0
 20
0.0
  9
$PLIMMAX
 10
12.0
 20
9.0
  9
$UNITMODE
 70
     0
  9
$VISRETAIN
 70
     0
  9
$PLINEGEN
 70
     0
  9
$PSLTSCALE
 70
     1
  9
$TREEDEPTH
 70
  3020
  9
$CMLSTYLE
  2
Standard
  9
$CMLJUST
 70
     0
  9
$CMLSCALE
 40
1.0
  9
$PROXYGRAPHICS
 70
     1
  9
$MEASUREMENT
 70
     0
  9
$CELWEIGHT
370
    -1
  9
$ENDCAPS
280
     0
  9
$JOINSTYLE
280
     0
  9
$LWDISPLAY
290
     0
  9
$INSUNITS
 70
     0
  9
$HYPERLINKBASE
  1

  9
$STYLESHEET
  1

  9
$XEDIT
290
     1
  9
$CEPSNTYPE
380
     0
  9
$PSTYLEMODE
290
     1
  9
$FINGERPRINTGUID
  2
{CC7D6DEE-A9F1-4F3E-AC95-C84B62CCA3FD}
  9
$VERSIONGUID
  2
{EEF22B32-4F8F-4042-90B1-9AD89F4D6ED3}
  9
$EXTNAMES
290
     1
  9
$PSVPSCALE
 40
0.0
  9
$OLESTARTUP
290
     0
  0
ENDSEC
  0
SECTION
  2
CLASSES
  0
CLASS
  1
ACDBDICTIONARYWDFLT
  2
AcDbDictionaryWithDefault
  3
ObjectDBX Classes
 90
        0
280
     0
281
     0
  0
CLASS
  1
ACDBPLACEHOLDER
  2
AcDbPlaceHolder
  3
ObjectDBX Classes
 90
        0
280
     0
281
     0
  0
CLASS
  1
LAYOUT
  2
AcDbLayout
  3
ObjectDBX Classes
 90
        0
280
     0
281
     0
  0
CLASS
  1
DICTIONARYVAR
  2
AcDbDictionaryVar
  3
ObjectDBX Classes
 90
        0
280
     0
281
     0
  0
CLASS
  1
MATERIAL
  2
AcDbMaterial
  3
ObjectDBX Classes
 90
     1153
280
     0
281
     0
  0
CLASS
  1
VISUALSTYLE
  2
AcDbVisualStyle
  3
ObjectDBX Classes
 90
     4095
280
     0
281
     0
  0
CLASS
  1
TABLESTYLE
  2
AcDbTableStyle
  3
ObjectDBX Classes
 90
     4095
280
     0
281
     0
  0
ENDSEC
  0
SECTION
  2
TABLES
  0
TABLE
  2
VPORT
  5
8
330
0
100
AcDbSymbolTable
 70
     1
  0
VPORT
  5
7455
330
8
100
AcDbSymbolTableRecord
100
AcDbViewportTableRecord
  2
*Active
 70
     0
 10
0.0
 20
0.0
 11
1.0
 21
1.0
 12
1510.485494412959
 22
493.47378611504
 13
0.0
 23
0.0
 14
1.0
 24
1.0
 15
0.0
 25
0.0
 16
0.0
 26
0.0
 36
1.0
 17
0.0
 27
0.0
 37
0.0
 40
261.586371774428
 41
1.571614583333333
 42
50.0
 43
0.0
 44
0.0
 50
0.0
 51
0.0
 71
     0
 72
   100
 73
     1
 74
     1
 75
     0
 76
     0
 77
     0
 78
     0
281
     0
 65
     1
110
0.0
120
0.0
130
0.0
111
1.0
121
0.0
131
0.0
112
0.0
122
1.0
132
0.0
 79
     0
146
0.0
  0
ENDTAB
  0
TABLE
  2
LTYPE
  5
5
330
0
100
AcDbSymbolTable
 70
    50
  0
LTYPE
  5
13
330
5
100
AcDbSymbolTableRecord
100
AcDbLinetypeTableRecord
  2
ByBlock
 70
     0
  3

 72
    65
 73
     0
 40
0.0
  0
LTYPE
  5
14
330
5
100
AcDbSymbolTableRecord
100
AcDbLinetypeTableRecord
  2
ByLayer
 70
     0
  3

 72
    65
 73
     0
 40
0.0
  0
LTYPE
  5
15
330
5
100
AcDbSymbolTableRecord
100
AcDbLinetypeTableRecord
  2
CONTINUOUS
 70
     0
  3
実線
 72
    65
 73
     0
 40
0.0
  0
LTYPE
  5
22
330
5
100
AcDbSymbolTableRecord
100
AcDbLinetypeTableRecord
  2
DASHED1
 70
     0
  3
--  --  --  --  --  --  --  --  
 72
    65
 73
     2
 40
2.5
 49
1.25
 74
     0
 49
-1.25
 74
     0
  0
LTYPE
  5
23
330
5
100
AcDbSymbolTableRecord
100
AcDbLinetypeTableRecord
  2
DASHED2
 70
     0
  3
----    ----    ----    ----    
 72
    65
 73
     2
 40
5.0
 49
2.5
 74
     0
 49
-2.5
 74
     0
  0
LTYPE
  5
24
330
5
100
AcDbSymbolTableRecord
100
AcDbLinetypeTableRecord
  2
DASHED3
 70
     0
  3
------  ------  ------  ------  
 72
    65
 73
     2
 40
5.0
 49
3.75
 74
     0
 49
-1.25
 74
     0
  0
LTYPE
  5
25
330
5
100
AcDbSymbolTableRecord
100
AcDbLinetypeTableRecord
  2
CENTER1
 70
     0
  3
----- - ----- - ----- - ----- - 
 72
    65
 73
     4
 40
10.0
 49
6.25
 74
     0
 49
-1.25
 74
     0
 49
1.25
 74
     0
 49
-1.25
 74
     0
  0
LTYPE
  5
26
330
5
100
AcDbSymbolTableRecord
100
AcDbLinetypeTableRecord
  2
CENTER2
 70
     0
  3
----------  --  ----------  --  
 72
    65
 73
     4
 40
20.0
 49
12.5
 74
     0
 49
-2.5
 74
     0
 49
2.5
 74
     0
 49
-2.5
 74
     0
  0
LTYPE
  5
27
330
5
100
AcDbSymbolTableRecord
100
AcDbLinetypeTableRecord
  2
PHANTOM1
 70
     0
  3
--- - - --- - - --- - - --- - - 
 72
    65
 73
     6
 40
10.0
 49
3.25
 74
     0
 49
-1.25
 74
     0
 49
1.25
 74
     0
 49
-1.25
 74
     0
 49
1.25
 74
     0
 49
-1.25
 74
     0
  0
LTYPE
  5
28
330
5
100
AcDbSymbolTableRecord
100
AcDbLinetypeTableRecord
  2
PHANTOM2
 70
     0
  3
--------  -  -  --------  -  -  
 72
    65
 73
     6
 40
20.0
 49
10.0
 74
     0
 49
-2.5
 74
     0
 49
1.25
 74
     0
 49
-2.5
 74
     0
 49
1.25
 74
     0
 49
-2.5
 74
     0
  0
LTYPE
  5
29
330
5
100
AcDbSymbolTableRecord
100
AcDbLinetypeTableRecord
  2
DOT
 70
     0
  3
-   -   -   -   -   -   -   -   
 72
    65
 73
     2
 40
2.5
 49
0.625
 74
     0
 49
-1.875
 74
     0
  0
LTYPE
  5
2A
330
5
100
AcDbSymbolTableRecord
100
AcDbLinetypeTableRecord
  2
DUMMY
 70
     0
  3
ダミー
 72
    65
 73
     0
 40
0.0
  0
LTYPE
  5
2B
330
5
100
AcDbSymbolTableRecord
100
AcDbLinetypeTableRecord
  2
RAND1
 70
     0
  3
ランダム線1
 72
    65
 73
     4
 40
10.0
 49
1.0
 74
     0
 49
-2.0
 74
     0
 49
3.0
 74
     0
 49
-4.0
 74
     0
  0
LTYPE
  5
2C
330
5
100
AcDbSymbolTableRecord
100
AcDbLinetypeTableRecord
  2
RAND2
 70
     0
  3
ランダム線2
 72
    65
 73
     4
 40
14.0
 49
2.0
 74
     0
 49
-3.0
 74
     0
 49
4.0
 74
     0
 49
-5.0
 74
     0
  0
LTYPE
  5
2D
330
5
100
AcDbSymbolTableRecord
100
AcDbLinetypeTableRecord
  2
RAND3
 70
     0
  3
ランダム線3
 72
    65
 73
     4
 40
18.0
 49
3.0
 74
     0
 49
-4.0
 74
     0
 49
5.0
 74
     0
 49
-6.0
 74
     0
  0
LTYPE
  5
2E
330
5
100
AcDbSymbolTableRecord
100
AcDbLinetypeTableRecord
  2
RAND4
 70
     0
  3
ランダム線4
 72
    65
 73
     4
 40
22.0
 49
4.0
 74
     0
 49
-5.0
 74
     0
 49
6.0
 74
     0
 49
-7.0
 74
     0
  0
LTYPE
  5
2F
330
5
100
AcDbSymbolTableRecord
100
AcDbLinetypeTableRecord
  2
RAND5
 70
     0
  3
ランダム線5
 72
    65
 73
     4
 40
26.0
 49
5.0
 74
     0
 49
-6.0
 74
     0
 49
7.0
 74
     0
 49
-8.0
 74
     0
  0
LTYPE
  5
30
330
5
100
AcDbSymbolTableRecord
100
AcDbLinetypeTableRecord
  2
LONG1
 70
     0
  3
----------  --  ----------  --  
 72
    65
 73
     4
 40
40.0
 49
32.5
 74
     0
 49
-2.5
 74
     0
 49
2.5
 74
     0
 49
-2.5
 74
     0
  0
LTYPE
  5
31
330
5
100
AcDbSymbolTableRecord
100
AcDbLinetypeTableRecord
  2
LONG2
 70
     0
  3
--------  -  -  --------  -  -  
 72
    65
 73
     6
 40
40.0
 49
30.0
 74
     0
 49
-2.5
 74
     0
 49
1.25
 74
     0
 49
-2.5
 74
     0
 49
1.25
 74
     0
 49
-2.5
 74
     0
  0
LTYPE
  5
32
330
5
100
AcDbSymbolTableRecord
100
AcDbLinetypeTableRecord
  2
LONG3
 70
     0
  3
+++++++++++++++..+++++++++++++++
 72
    65
 73
     2
 40
40.0
 49
37.5
 74
     0
 49
-2.5
 74
     0
  0
LTYPE
  5
33
330
5
100
AcDbSymbolTableRecord
100
AcDbLinetypeTableRecord
  2
LONG4
 70
     0
  3
+++++++++++++++..+++++++++++++++
 72
    65
 73
     2
 40
80.0
 49
75.0
 74
     0
 49
-5.0
 74
     0
  0
LTYPE
  5
34
330
5
100
AcDbSymbolTableRecord
100
AcDbLinetypeTableRecord
  2
LONG5
 70
     0
  3
----------  --  ----------  --  
 72
    65
 73
     4
 40
60.0
 49
37.5
 74
     0
 49
-7.5
 74
     0
 49
7.5
 74
     0
 49
-7.5
 74
     0
  0
LTYPE
  5
35
330
5
100
AcDbSymbolTableRecord
100
AcDbLinetypeTableRecord
  2
DASHED
 70
     0
  3
-------   -------------   ------
 72
    65
 73
     2
 40
7.5
 49
6.0
 74
     0
 49
-1.5
 74
     0
  0
LTYPE
  5
36
330
5
100
AcDbSymbolTableRecord
100
AcDbLinetypeTableRecord
  2
DASHED_SPACED
 70
     0
  3
----        --------        ----
 72
    65
 73
     2
 40
12.0
 49
6.0
 74
     0
 49
-6.0
 74
     0
  0
LTYPE
  5
37
330
5
100
AcDbSymbolTableRecord
100
AcDbLinetypeTableRecord
  2
LONG_DASHED_DOTTED
 70
     0
  3
------------- --- --------------
 72
    65
 73
     4
 40
15.25
 49
12.0
 74
     0
 49
-1.5
 74
     0
 49
0.25
 74
     0
 49
-1.5
 74
     0
  0
LTYPE
  5
38
330
5
100
AcDbSymbolTableRecord
100
AcDbLinetypeTableRecord
  2
LONG_DASHED_DOUBLE-DOTTED
 70
     0
  3
----------- --- --- ------------
 72
    65
 73
     6
 40
17.0
 49
12.0
 74
     0
 49
-1.5
 74
     0
 49
0.25
 74
     0
 49
-1.5
 74
     0
 49
0.25
 74
     0
 49
-1.5
 74
     0
  0
LTYPE
  5
39
330
5
100
AcDbSymbolTableRecord
100
AcDbLinetypeTableRecord
  2
LONG_DASHED_TRIPLICATE-DOTTED
 70
     0
  3
--------- --- --- --- ----------
 72
    65
 73
     8
 40
18.75
 49
12.0
 74
     0
 49
-1.5
 74
     0
 49
0.25
 74
     0
 49
-1.5
 74
     0
 49
0.25
 74
     0
 49
-1.5
 74
     0
 49
0.25
 74
     0
 49
-1.5
 74
     0
  0
LTYPE
  5
3A
330
5
100
AcDbSymbolTableRecord
100
AcDbLinetypeTableRecord
  2
DOTTED
 70
     0
  3
   -       -       -       -    
 72
    65
 73
     2
 40
1.75
 49
0.25
 74
     0
 49
-1.5
 74
     0
  0
LTYPE
  5
3B
330
5
100
AcDbSymbolTableRecord
100
AcDbLinetypeTableRecord
  2
CHAIN
 70
     0
  3
-------------- -- --------------
 72
    65
 73
     4
 40
18.5
 49
12.0
 74
     0
 49
-1.5
 74
     0
 49
3.5
 74
     0
 49
-1.5
 74
     0
  0
LTYPE
  5
3C
330
5
100
AcDbSymbolTableRecord
100
AcDbLinetypeTableRecord
  2
CHAIN_DOUBLE_DASH
 70
     0
  3
------------ -- -- -------------
 72
    65
 73
     6
 40
23.5
 49
12.0
 74
     0
 49
-1.5
 74
     0
 49
3.5
 74
     0
 49
-1.5
 74
     0
 49
3.5
 74
     0
 49
-1.5
 74
     0
  0
LTYPE
  5
3D
330
5
100
AcDbSymbolTableRecord
100
AcDbLinetypeTableRecord
  2
DASHED_DOTTED
 70
     0
  3
-----------     -     ----------
 72
    65
 73
     4
 40
9.25
 49
6.0
 74
     0
 49
-1.5
 74
     0
 49
0.25
 74
     0
 49
-1.5
 74
     0
  0
LTYPE
  5
3E
330
5
100
AcDbSymbolTableRecord
100
AcDbLinetypeTableRecord
  2
DOUBLE-DASHED_DOTTED
 70
     0
  3
------   -----------   -   -----
 72
    65
 73
     6
 40
16.75
 49
6.0
 74
     0
 49
-1.5
 74
     0
 49
6.0
 74
     0
 49
-1.5
 74
     0
 49
0.25
 74
     0
 49
-1.5
 74
     0
  0
LTYPE
  5
3F
330
5
100
AcDbSymbolTableRecord
100
AcDbLinetypeTableRecord
  2
DASHED_DOUBLE-DOTTED
 70
     0
  3
---------    -    -    ---------
 72
    65
 73
     6
 40
11.0
 49
6.0
 74
     0
 49
-1.5
 74
     0
 49
0.25
 74
     0
 49
-1.5
 74
     0
 49
0.25
 74
     0
 49
-1.5
 74
     0
  0
LTYPE
  5
40
330
5
100
AcDbSymbolTableRecord
100
AcDbLinetypeTableRecord
  2
DOUBLE-DASHED_DOUBLE-DOTTED
 70
     0
  3
-----   ---------   -   -   ----
 72
    65
 73
     8
 40
18.5
 49
6.0
 74
     0
 49
-1.5
 74
     0
 49
6.0
 74
     0
 49
-1.5
 74
     0
 49
0.25
 74
     0
 49
-1.5
 74
     0
 49
0.25
 74
     0
 49
-1.5
 74
     0
  0
LTYPE
  5
41
330
5
100
AcDbSymbolTableRecord
100
AcDbLinetypeTableRecord
  2
DASHED_TRIPLICATE-DOTTED
 70
     0
  3
-------    -    -    -    ------
 72
    65
 73
     8
 40
12.75
 49
6.0
 74
     0
 49
-1.5
 74
     0
 49
0.25
 74
     0
 49
-1.5
 74
     0
 49
0.25
 74
     0
 49
-1.5
 74
     0
 49
0.25
 74
     0
 49
-1.5
 74
     0
  0
LTYPE
  5
42
330
5
100
AcDbSymbolTableRecord
100
AcDbLinetypeTableRecord
  2
DOUBLE-DASHED_TRIPLICATE-DOTTED
 70
     0
  3
-----  ---------  -  -  -  -----
 72
    65
 73
    10
 40
20.25
 49
6.0
 74
     0
 49
-1.5
 74
     0
 49
6.0
 74
     0
 49
-1.5
 74
     0
 49
0.25
 74
     0
 49
-1.5
 74
     0
 49
0.25
 74
     0
 49
-1.5
 74
     0
 49
0.25
 74
     0
 49
-1.5
 74
     0
  0
LTYPE
  5
43
330
5
100
AcDbSymbolTableRecord
100
AcDbLinetypeTableRecord
  2
UNDEFINED
 70
     0
  3
--------------------------------
 72
    65
 73
     0
 40
0.0
  0
LTYPE
  5
44
330
5
100
AcDbSymbolTableRecord
100
AcDbLinetypeTableRecord
  2
PLINE2
 70
     0
  3
------     -----------     -----
 72
    65
 73
     2
 40
3.0
 49
2.1
 74
     0
 49
-0.9
 74
     0
  0
LTYPE
  5
45
330
5
100
AcDbSymbolTableRecord
100
AcDbLinetypeTableRecord
  2
PLINE3
 70
     0
  3
------------   ---   -----------
 72
    65
 73
     4
 40
10.0
 49
7.0
 74
     0
 49
-1.0
 74
     0
 49
1.0
 74
     0
 49
-1.0
 74
     0
  0
LTYPE
  5
46
330
5
100
AcDbSymbolTableRecord
100
AcDbLinetypeTableRecord
  2
PLINE4
 70
     0
  3
---------   ---   ---   --------
 72
    65
 73
     6
 40
10.0
 49
5.0
 74
     0
 49
-1.0
 74
     0
 49
1.0
 74
     0
 49
-1.0
 74
     0
 49
1.0
 74
     0
 49
-1.0
 74
     0
  0
LTYPE
  5
47
330
5
100
AcDbSymbolTableRecord
100
AcDbLinetypeTableRecord
  2
PLINE5
 70
     0
  3
------     -----------     -----
 72
    65
 73
     2
 40
5.0
 49
3.5
 74
     0
 49
-1.5
 74
     0
  0
LTYPE
  5
48
330
5
100
AcDbSymbolTableRecord
100
AcDbLinetypeTableRecord
  2
PLINE6
 70
     0
  3
------------   ---   -----------
 72
    65
 73
     4
 40
15.0
 49
10.5
 74
     0
 49
-1.5
 74
     0
 49
1.5
 74
     0
 49
-1.5
 74
     0
  0
LTYPE
  5
49
330
5
100
AcDbSymbolTableRecord
100
AcDbLinetypeTableRecord
  2
PLINE7
 70
     0
  3
---------   ---   ---   --------
 72
    65
 73
     6
 40
15.0
 49
7.5
 74
     0
 49
-1.5
 74
     0
 49
1.5
 74
     0
 49
-1.5
 74
     0
 49
1.5
 74
     0
 49
-1.5
 74
     0
  0
LTYPE
  5
4A
330
5
100
AcDbSymbolTableRecord
100
AcDbLinetypeTableRecord
  2
PLINE8
 70
     0
  3
------     -----------     -----
 72
    65
 73
     2
 40
7.0
 49
4.9
 74
     0
 49
-2.1
 74
     0
  0
LTYPE
  5
4B
330
5
100
AcDbSymbolTableRecord
100
AcDbLinetypeTableRecord
  2
PLINE9
 70
     0
  3
------------   ---   -----------
 72
    65
 73
     4
 40
20.0
 49
14.0
 74
     0
 49
-2.0
 74
     0
 49
2.0
 74
     0
 49
-2.0
 74
     0
  0
LTYPE
  5
4C
330
5
100
AcDbSymbolTableRecord
100
AcDbLinetypeTableRecord
  2
PLINE10
 70
     0
  3
---------   ---   ---   --------
 72
    65
 73
     6
 40
20.0
 49
10.0
 74
     0
 49
-2.0
 74
     0
 49
2.0
 74
     0
 49
-2.0
 74
     0
 49
2.0
 74
     0
 49
-2.0
 74
     0
  0
LTYPE
  5
4D
330
5
100
AcDbSymbolTableRecord
100
AcDbLinetypeTableRecord
  2
PLINE11
 70
     0
  3
------     -----------     -----
 72
    65
 73
     2
 40
9.0
 49
6.299999999999999
 74
     0
 49
-2.7
 74
     0
  0
LTYPE
  5
4E
330
5
100
AcDbSymbolTableRecord
100
AcDbLinetypeTableRecord
  2
PLINE12
 70
     0
  3
------------   ---   -----------
 72
    65
 73
     4
 40
25.0
 49
17.5
 74
     0
 49
-2.5
 74
     0
 49
2.5
 74
     0
 49
-2.5
 74
     0
  0
LTYPE
  5
4F
330
5
100
AcDbSymbolTableRecord
100
AcDbLinetypeTableRecord
  2
PLINE13
 70
     0
  3
---------   ---   ---   --------
 72
    65
 73
     6
 40
25.0
 49
12.5
 74
     0
 49
-2.5
 74
     0
 49
2.5
 74
     0
 49
-2.5
 74
     0
 49
2.5
 74
     0
 49
-2.5
 74
     0
  0
LTYPE
  5
50
330
5
100
AcDbSymbolTableRecord
100
AcDbLinetypeTableRecord
  2
PLINE14
 70
     0
  3
------     -----------     -----
 72
    65
 73
     2
 40
11.0
 49
7.7
 74
     0
 49
-3.299999999999999
 74
     0
  0
LTYPE
  5
51
330
5
100
AcDbSymbolTableRecord
100
AcDbLinetypeTableRecord
  2
PLINE15
 70
     0
  3
------------   ---   -----------
 72
    65
 73
     4
 40
30.0
 49
21.0
 74
     0
 49
-3.0
 74
     0
 49
3.0
 74
     0
 49
-3.0
 74
     0
  0
LTYPE
  5
52
330
5
100
AcDbSymbolTableRecord
100
AcDbLinetypeTableRecord
  2
PLINE16
 70
     0
  3
---------   ---   ---   --------
 72
    65
 73
     6
 40
30.0
 49
15.0
 74
     0
 49
-3.0
 74
     0
 49
3.0
 74
     0
 49
-3.0
 74
     0
 49
3.0
 74
     0
 49
-3.0
 74
     0
  0
ENDTAB
  0
TABLE
  2
LAYER
  5
2
102
{ACAD_XDICTIONARY
360
175
102
}
330
0
100
AcDbSymbolTable
 70
     5
  0
LAYER
  5
10
330
2
100
AcDbSymbolTableRecord
100
AcDbLayerTableRecord
  2
0
 70
     0
 62
     7
  6
CONTINUOUS
370
    -3
390
F
  0
LAYER
  5
128
330
2
100
AcDbSymbolTableRecord
100
AcDbLayerTableRecord
  2
Defpoints
 70
     0
 62
     7
  6
CONTINUOUS
290
     0
370
    -3
390
F
  0
LAYER
  5
178
330
2
100
AcDbSymbolTableRecord
100
AcDbLayerTableRecord
  2
寸法
 70
     0
 62
     7
  6
CONTINUOUS
370
    -3
390
F
  0
LAYER
  5
604A
330
2
100
AcDbSymbolTableRecord
100
AcDbLayerTableRecord
  2
文字-記号
 70
     0
 62
     7
  6
CONTINUOUS
370
    -3
390
F
  0
LAYER
  5
6BD0
330
2
100
AcDbSymbolTableRecord
100
AcDbLayerTableRecord
  2
製品
 70
     0
 62
     7
  6
CONTINUOUS
370
    -3
390
F
  0
ENDTAB
  0
TABLE
  2
STYLE
  5
3
330
0
100
AcDbSymbolTable
 70
     4
  0
STYLE
  5
11
330
3
100
AcDbSymbolTableRecord
100
AcDbTextStyleTableRecord
  2
STANDARD
 70
     0
 40
0.0
 41
1.0
 50
0.0
 71
     0
 42
0.2
  3
txt
  4
bigfont.shx
  0
STYLE
  5
53
330
3
100
AcDbSymbolTableRecord
100
AcDbTextStyleTableRecord
  2
TATEGAKI
 70
     4
 40
0.0
 41
1.0
 50
0.0
 71
     0
 42
1.0
  3
txt
  4
bigfont.shx
  0
STYLE
  5
123
330
3
100
AcDbSymbolTableRecord
100
AcDbTextStyleTableRecord
  2
ACAD
 70
     0
 40
5.0
 41
0.8
 50
0.0
 71
     0
 42
5.0
  3
romans.shx
  4
extfont.shx
  0
STYLE
  5
3A5F
330
3
100
AcDbSymbolTableRecord
100
AcDbTextStyleTableRecord
  2
VERTXT
 70
     4
 40
0.0
 41
0.8582679999999999
 50
0.0
 71
     0
 42
3.5
  3
txt.shx
  4
BIGFONT
  0
ENDTAB
  0
TABLE
  2
VIEW
  5
6
330
0
100
AcDbSymbolTable
 70
     0
  0
ENDTAB
  0
TABLE
  2
UCS
  5
7
330
0
100
AcDbSymbolTable
 70
     0
  0
ENDTAB
  0
TABLE
  2
APPID
  5
9
330
0
100
AcDbSymbolTable
 70
     1
  0
APPID
  5
12
330
9
100
AcDbSymbolTableRecord
100
AcDbRegAppTableRecord
  2
ACAD
 70
     0
  0
ENDTAB
  0
TABLE
  2
DIMSTYLE
  5
A
330
0
100
AcDbSymbolTable
 70
     3
100
AcDbDimStyleTable
 71
     0
  0
DIMSTYLE
105
11C
330
A
100
AcDbSymbolTableRecord
100
AcDbDimStyleTableRecord
  2
Standard
 70
     0
340
11
  0
DIMSTYLE
105
126
102
{ACAD_REACTORS
330
6F19
330
6F1A
330
6F22
330
6F23
330
6F24
330
6FCA
330
6FCB
330
6FD1
330
6FD2
330
6FDA
330
7026
330
7039
330
703F
330
7045
330
705B
330
7060
330
7063
330
706A
330
70EB
330
7180
330
7200
330
7202
330
7211
330
7219
102
}
330
A
100
AcDbSymbolTableRecord
100
AcDbDimStyleTableRecord
  2
AutoCAD
 70
     0
 41
1.0
 42
0.0
 44
0.0
 73
     0
 77
     1
140
5.0
147
1.0
174
     1
176
     4
177
     4
178
     3
271
     0
272
     0
289
     0
340
123
341
15B0
342
11E
  0
DIMSTYLE
105
2CBB
330
A
100
AcDbSymbolTableRecord
100
AcDbDimStyleTableRecord
  2
111
 70
     0
 41
1.0
 42
0.0
 44
0.0
 73
     0
 77
     1
140
5.0
147
1.0
174
     1
176
     4
177
     4
178
     3
271
     0
272
     0
289
     0
340
123
341
15B0
342
2CB5
  0
ENDTAB
  0
TABLE
  2
BLOCK_RECORD
  5
1
330
0
100
AcDbSymbolTable
 70
    52
  0
BLOCK_RECORD
  5
1E
102
{ACAD_XDICTIONARY
360
28B
102
}
330
1
100
AcDbSymbolTableRecord
100
AcDbBlockTableRecord
  2
*Model_Space
340
21
  0
BLOCK_RECORD
  5
1A
102
{ACAD_XDICTIONARY
360
28D
102
}
330
1
100
AcDbSymbolTableRecord
100
AcDbBlockTableRecord
  2
*Paper_Space
340
1D
  0
BLOCK_RECORD
  5
11E
330
1
100
AcDbSymbolTableRecord
100
AcDbBlockTableRecord
  2
_Dot
340
0
102
{BLKREFS
331
6AB4
331
6AB5
331
6AC0
331
6AC1
331
6ACC
331
6ACD
331
6AD8
331
6AD9
331
6AE4
331
6AE5
331
6AF0
331
6AF1
331
6AFC
331
6AFD
331
6B08
331
6B09
331
6B14
331
6B15
331
6B20
331
6B21
331
6B2C
331
6B2D
331
6B38
331
6B39
331
6B44
331
6B45
331
6B50
331
6B51
331
6B5C
331
6B5D
331
6B68
331
6B69
331
6B74
331
6B75
331
6B80
331
6B81
331
6B8C
331
6B8D
331
6B98
331
6B99
331
6BA4
331
6BA5
331
6BB0
331
6BB1
331
6BBC
331
6BBD
331
6BC8
331
6BC9
331
7380
331
7381
331
7389
331
738A
331
7392
331
7393
331
739B
331
739C
331
73A4
331
73A5
331
73AD
331
73AE
331
73B6
331
73B7
331
73BF
331
73C0
331
73C8
331
73C9
331
73D1
331
73D2
331
73DA
331
73DB
331
73E3
331
73E4
331
73EC
331
73ED
331
73F5
331
73F6
331
73FE
331
73FF
331
7407
331
7408
331
7410
331
7411
331
7419
331
741A
331
7422
331
7423
331
742B
331
742C
331
7434
331
7435
331
743D
331
743E
331
7446
331
7447
331
744F
331
7450
102
}
  0
BLOCK_RECORD
  5
15B0
330
1
100
AcDbSymbolTableRecord
100
AcDbBlockTableRecord
  2
_None
340
0
  0
BLOCK_RECORD
  5
2CB5
330
1
100
AcDbSymbolTableRecord
100
AcDbBlockTableRecord
  2
_Open30
340
0
  0
BLOCK_RECORD
  5
35E3
330
1
100
AcDbSymbolTableRecord
100
AcDbBlockTableRecord
  2
_DotBlank
340
0
  0
BLOCK_RECORD
  5
725D
330
1
100
AcDbSymbolTableRecord
100
AcDbBlockTableRecord
  2
*D28
340
0
  0
BLOCK_RECORD
  5
7269
330
1
100
AcDbSymbolTableRecord
100
AcDbBlockTableRecord
  2
*D29
340
0
  0
BLOCK_RECORD
  5
7275
330
1
100
AcDbSymbolTableRecord
100
AcDbBlockTableRecord
  2
*D30
340
0
  0
BLOCK_RECORD
  5
7281
330
1
100
AcDbSymbolTableRecord
100
AcDbBlockTableRecord
  2
*D31
340
0
  0
BLOCK_RECORD
  5
728D
330
1
100
AcDbSymbolTableRecord
100
AcDbBlockTableRecord
  2
*D32
340
0
  0
BLOCK_RECORD
  5
7299
330
1
100
AcDbSymbolTableRecord
100
AcDbBlockTableRecord
  2
*D33
340
0
  0
BLOCK_RECORD
  5
72A5
330
1
100
AcDbSymbolTableRecord
100
AcDbBlockTableRecord
  2
*D34
340
0
  0
BLOCK_RECORD
  5
72B1
330
1
100
AcDbSymbolTableRecord
100
AcDbBlockTableRecord
  2
*D35
340
0
  0
BLOCK_RECORD
  5
72BD
330
1
100
AcDbSymbolTableRecord
100
AcDbBlockTableRecord
  2
*D36
340
0
  0
BLOCK_RECORD
  5
72C9
330
1
100
AcDbSymbolTableRecord
100
AcDbBlockTableRecord
  2
*D37
340
0
  0
BLOCK_RECORD
  5
72D5
330
1
100
AcDbSymbolTableRecord
100
AcDbBlockTableRecord
  2
*D38
340
0
  0
BLOCK_RECORD
  5
72E1
330
1
100
AcDbSymbolTableRecord
100
AcDbBlockTableRecord
  2
*D39
340
0
  0
BLOCK_RECORD
  5
72ED
330
1
100
AcDbSymbolTableRecord
100
AcDbBlockTableRecord
  2
*D40
340
0
  0
BLOCK_RECORD
  5
72F9
330
1
100
AcDbSymbolTableRecord
100
AcDbBlockTableRecord
  2
*D41
340
0
  0
BLOCK_RECORD
  5
7305
330
1
100
AcDbSymbolTableRecord
100
AcDbBlockTableRecord
  2
*D42
340
0
  0
BLOCK_RECORD
  5
7311
330
1
100
AcDbSymbolTableRecord
100
AcDbBlockTableRecord
  2
*D43
340
0
  0
BLOCK_RECORD
  5
731D
330
1
100
AcDbSymbolTableRecord
100
AcDbBlockTableRecord
  2
*D44
340
0
  0
BLOCK_RECORD
  5
7329
330
1
100
AcDbSymbolTableRecord
100
AcDbBlockTableRecord
  2
*D45
340
0
  0
BLOCK_RECORD
  5
7335
330
1
100
AcDbSymbolTableRecord
100
AcDbBlockTableRecord
  2
*D46
340
0
  0
BLOCK_RECORD
  5
7341
330
1
100
AcDbSymbolTableRecord
100
AcDbBlockTableRecord
  2
*D47
340
0
  0
BLOCK_RECORD
  5
734D
330
1
100
AcDbSymbolTableRecord
100
AcDbBlockTableRecord
  2
*D48
340
0
  0
BLOCK_RECORD
  5
7359
330
1
100
AcDbSymbolTableRecord
100
AcDbBlockTableRecord
  2
*D49
340
0
  0
BLOCK_RECORD
  5
7365
330
1
100
AcDbSymbolTableRecord
100
AcDbBlockTableRecord
  2
*D50
340
0
  0
BLOCK_RECORD
  5
7371
330
1
100
AcDbSymbolTableRecord
100
AcDbBlockTableRecord
  2
*D51
340
0
  0
ENDTAB
  0
ENDSEC
  0
SECTION
  2
BLOCKS
  0
BLOCK
  5
1F
330
1E
100
AcDbEntity
  8
0
100
AcDbBlockBegin
  2
*Model_Space
 70
     0
 10
0.0
 20
0.0
 30
0.0
  3
*Model_Space
  1

  0
ENDBLK
  5
20
330
1E
100
AcDbEntity
  8
0
100
AcDbBlockEnd
  0
BLOCK
  5
1B
330
1A
100
AcDbEntity
 67
     1
  8
0
100
AcDbBlockBegin
  2
*Paper_Space
 70
     0
 10
0.0
 20
0.0
 30
0.0
  3
*Paper_Space
  1

  0
ENDBLK
  5
1C
330
1A
100
AcDbEntity
 67
     1
  8
0
100
AcDbBlockEnd
  0
BLOCK
  5
121
330
11E
100
AcDbEntity
  8
0
100
AcDbBlockBegin
  2
_Dot
 70
     0
 10
0.0
 20
0.0
 30
0.0
  3
_Dot
  1

  0
LWPOLYLINE
  5
11F
330
11E
100
AcDbEntity
  8
0
  6
ByBlock
 62
     0
100
AcDbPolyline
 90
        2
 70
     1
 43
0.5
 10
-0.25
 20
0.0
 42
1.0
 10
0.25
 20
0.0
 42
1.0
  0
LINE
  5
120
330
11E
100
AcDbEntity
  8
0
  6
ByBlock
 62
     0
370
    -2
100
AcDbLine
 10
-0.5
 20
0.0
 30
0.0
 11
-1.0
 21
0.0
 31
0.0
  0
ENDBLK
  5
122
330
11E
100
AcDbEntity
  8
0
100
AcDbBlockEnd
  0
BLOCK
  5
15B1
330
15B0
100
AcDbEntity
  8
0
100
AcDbBlockBegin
  2
_None
 70
     0
 10
0.0
 20
0.0
 30
0.0
  3
_None
  1

  0
ENDBLK
  5
15B2
330
15B0
100
AcDbEntity
  8
0
100
AcDbBlockEnd
  0
BLOCK
  5
2CB9
330
2CB5
100
AcDbEntity
  8
0
100
AcDbBlockBegin
  2
_Open30
 70
     0
 10
0.0
 20
0.0
 30
0.0
  3
_Open30
  1

  0
LINE
  5
2CB6
330
2CB5
100
AcDbEntity
  8
0
  6
ByBlock
 62
     0
370
    -2
100
AcDbLine
 10
-1.0
 20
0.26794919
 30
0.0
 11
0.0
 21
0.0
 31
0.0
  0
LINE
  5
2CB7
330
2CB5
100
AcDbEntity
  8
0
  6
ByBlock
 62
     0
370
    -2
100
AcDbLine
 10
0.0
 20
0.0
 30
0.0
 11
-1.0
 21
-0.26794919
 31
0.0
  0
LINE
  5
2CB8
330
2CB5
100
AcDbEntity
  8
0
  6
ByBlock
 62
     0
370
    -2
100
AcDbLine
 10
0.0
 20
0.0
 30
0.0
 11
-1.0
 21
0.0
 31
0.0
  0
ENDBLK
  5
2CBA
330
2CB5
100
AcDbEntity
  8
0
100
AcDbBlockEnd
  0
BLOCK
  5
35E6
330
35E3
100
AcDbEntity
  8
0
100
AcDbBlockBegin
  2
_DotBlank
 70
     0
 10
0.0
 20
0.0
 30
0.0
  3
_DotBlank
  1

  0
CIRCLE
  5
35E4
330
35E3
100
AcDbEntity
  8
0
  6
ByBlock
 62
     0
370
    -2
100
AcDbCircle
 10
0.0
 20
0.0
 30
0.0
 40
0.5
  0
LINE
  5
35E5
330
35E3
100
AcDbEntity
  8
0
  6
ByBlock
 62
     0
370
    -2
100
AcDbLine
 10
-0.5
 20
0.0
 30
0.0
 11
-1.0
 21
0.0
 31
0.0
  0
ENDBLK
  5
35E7
330
35E3
100
AcDbEntity
  8
0
100
AcDbBlockEnd
  0
BLOCK
  5
7267
330
725D
100
AcDbEntity
  8
0
100
AcDbBlockBegin
  2
*D28
 70
     1
 10
0.0
 20
0.0
 30
0.0
  3
*D28
  1

  0
LINE
  5
737D
330
725D
100
AcDbEntity
  8
寸法
  6
Continuous
 62
     4
370
    -2
100
AcDbLine
 10
1593.010460979546
 20
471.6406228122869
 30
0.0
 11
1593.010460979546
 21
458.2391248122867
 31
0.0
  0
LINE
  5
737E
330
725D
100
AcDbEntity
  8
寸法
  6
Continuous
 62
     4
370
    -2
100
AcDbLine
 10
1685.010460979546
 20
471.6406228122869
 30
0.0
 11
1685.010460979546
 21
458.2391248122867
 31
0.0
  0
LINE
  5
737F
330
725D
100
AcDbEntity
  8
寸法
  6
Continuous
 62
     4
370
    -2
100
AcDbLine
 10
1594.010460979546
 20
458.2391248122867
 30
0.0
 11
1684.010460979546
 21
458.2391248122867
 31
0.0
  0
INSERT
  5
7380
330
725D
100
AcDbEntity
  8
寸法
  6
Continuous
 62
     4
370
    -2
100
AcDbBlockReference
  2
_Dot
 10
1593.010460979546
 20
458.2391248122867
 30
0.0
 50
180.0
  0
INSERT
  5
7381
330
725D
100
AcDbEntity
  8
寸法
  6
Continuous
 62
     4
370
    -2
100
AcDbBlockReference
  2
_Dot
 10
1685.010460979546
 20
458.2391248122867
 30
0.0
  0
MTEXT
  5
7382
330
725D
100
AcDbEntity
  8
寸法
  6
Continuous
 62
     3
100
AcDbMText
 10
1639.010460979546
 20
461.5391248122867
 30
0.0
 40
5.0
 41
0.0
 71
     5
 72
     5
  1
\A1;92
  7
ACAD
 73
     1
 44
1.0
1001
ACAD
1000
MTEXTBEGIN
1070
    73
1070
     1
1070
    44
1040
1.0
1070
    74
1070
     0
1000
MTEXTEND
  0
POINT
  5
7383
330
725D
100
AcDbEntity
  8
Defpoints
  6
Continuous
 62
     0
100
AcDbPoint
 10
1593.010460979546
 20
471.6406228122869
 30
0.0
  0
POINT
  5
7384
330
725D
100
AcDbEntity
  8
Defpoints
  6
Continuous
 62
     0
100
AcDbPoint
 10
1685.010460979546
 20
471.6406228122869
 30
0.0
  0
POINT
  5
7385
330
725D
100
AcDbEntity
  8
Defpoints
  6
Continuous
 62
     0
100
AcDbPoint
 10
1685.010460979546
 20
458.2391248122867
 30
0.0
  0
ENDBLK
  5
7268
330
725D
100
AcDbEntity
  8
0
100
AcDbBlockEnd
  0
BLOCK
  5
7273
330
7269
100
AcDbEntity
  8
0
100
AcDbBlockBegin
  2
*D29
 70
     1
 10
0.0
 20
0.0
 30
0.0
  3
*D29
  1

  0
LINE
  5
7386
330
7269
100
AcDbEntity
  8
寸法
  6
Continuous
 62
     4
370
    -2
100
AcDbLine
 10
1594.010460979546
 20
548.0680008122872
 30
0.0
 11
1594.010460979546
 21
533.5166698122866
 31
0.0
  0
LINE
  5
7387
330
7269
100
AcDbEntity
  8
寸法
  6
Continuous
 62
     4
370
    -2
100
AcDbLine
 10
1684.010460979546
 20
548.0680008122872
 30
0.0
 11
1684.010460979546
 21
533.5166698122866
 31
0.0
  0
LINE
  5
7388
330
7269
100
AcDbEntity
  8
寸法
  6
Continuous
 62
     4
370
    -2
100
AcDbLine
 10
1595.010460979546
 20
533.5166698122866
 30
0.0
 11
1683.010460979546
 21
533.5166698122866
 31
0.0
  0
INSERT
  5
7389
330
7269
100
AcDbEntity
  8
寸法
  6
Continuous
 62
     4
370
    -2
100
AcDbBlockReference
  2
_Dot
 10
1594.010460979546
 20
533.5166698122866
 30
0.0
 50
180.0
  0
INSERT
  5
738A
330
7269
100
AcDbEntity
  8
寸法
  6
Continuous
 62
     4
370
    -2
100
AcDbBlockReference
  2
_Dot
 10
1684.010460979546
 20
533.5166698122866
 30
0.0
  0
MTEXT
  5
738B
330
7269
100
AcDbEntity
  8
寸法
  6
Continuous
 62
     3
100
AcDbMText
 10
1639.010460979546
 20
536.8166698122865
 30
0.0
 40
5.0
 41
0.0
 71
     5
 72
     5
  1
\A1;90
  7
ACAD
 73
     1
 44
1.0
1001
ACAD
1000
MTEXTBEGIN
1070
    73
1070
     1
1070
    44
1040
1.0
1070
    74
1070
     0
1000
MTEXTEND
  0
POINT
  5
738C
330
7269
100
AcDbEntity
  8
Defpoints
  6
Continuous
 62
     0
100
AcDbPoint
 10
1594.010460979546
 20
548.0680008122872
 30
0.0
  0
POINT
  5
738D
330
7269
100
AcDbEntity
  8
Defpoints
  6
Continuous
 62
     0
100
AcDbPoint
 10
1684.010460979546
 20
548.0680008122872
 30
0.0
  0
POINT
  5
738E
330
7269
100
AcDbEntity
  8
Defpoints
  6
Continuous
 62
     0
100
AcDbPoint
 10
1684.010460979546
 20
533.5166698122866
 30
0.0
  0
ENDBLK
  5
7274
330
7269
100
AcDbEntity
  8
0
100
AcDbBlockEnd
  0
BLOCK
  5
727F
330
7275
100
AcDbEntity
  8
0
100
AcDbBlockBegin
  2
*D30
 70
     1
 10
0.0
 20
0.0
 30
0.0
  3
*D30
  1

  0
LINE
  5
738F
330
7275
100
AcDbEntity
  8
寸法
  6
Continuous
 62
     4
370
    -2
100
AcDbLine
 10
1332.630136979546
 20
387.8213348122872
 30
0.0
 11
1332.630136979546
 21
372.8698368122869
 31
0.0
  0
LINE
  5
7390
330
7275
100
AcDbEntity
  8
寸法
  6
Continuous
 62
     4
370
    -2
100
AcDbLine
 10
1432.630136979546
 20
387.8213348122872
 30
0.0
 11
1432.630136979546
 21
372.8698368122869
 31
0.0
  0
LINE
  5
7391
330
7275
100
AcDbEntity
  8
寸法
  6
Continuous
 62
     4
370
    -2
100
AcDbLine
 10
1333.630136979546
 20
372.8698368122869
 30
0.0
 11
1431.630136979546
 21
372.8698368122869
 31
0.0
  0
INSERT
  5
7392
330
7275
100
AcDbEntity
  8
寸法
  6
Continuous
 62
     4
370
    -2
100
AcDbBlockReference
  2
_Dot
 10
1332.630136979546
 20
372.8698368122869
 30
0.0
 50
180.0
  0
INSERT
  5
7393
330
7275
100
AcDbEntity
  8
寸法
  6
Continuous
 62
     4
370
    -2
100
AcDbBlockReference
  2
_Dot
 10
1432.630136979546
 20
372.8698368122869
 30
0.0
  0
MTEXT
  5
7394
330
7275
100
AcDbEntity
  8
寸法
  6
Continuous
 62
     3
100
AcDbMText
 10
1382.630136979546
 20
376.1698368122869
 30
0.0
 40
5.0
 41
0.0
 71
     5
 72
     5
  1
\A1;100
  7
ACAD
 73
     1
 44
1.0
1001
ACAD
1000
MTEXTBEGIN
1070
    73
1070
     1
1070
    44
1040
1.0
1070
    74
1070
     0
1000
MTEXTEND
  0
POINT
  5
7395
330
7275
100
AcDbEntity
  8
Defpoints
  6
Continuous
 62
     0
100
AcDbPoint
 10
1332.630136979546
 20
387.8213348122872
 30
0.0
  0
POINT
  5
7396
330
7275
100
AcDbEntity
  8
Defpoints
  6
Continuous
 62
     0
100
AcDbPoint
 10
1432.630136979546
 20
387.8213348122872
 30
0.0
  0
POINT
  5
7397
330
7275
100
AcDbEntity
  8
Defpoints
  6
Continuous
 62
     0
100
AcDbPoint
 10
1432.630136979546
 20
372.8698368122869
 30
0.0
  0
ENDBLK
  5
7280
330
7275
100
AcDbEntity
  8
0
100
AcDbBlockEnd
  0
BLOCK
  5
728B
330
7281
100
AcDbEntity
  8
0
100
AcDbBlockBegin
  2
*D31
 70
     1
 10
0.0
 20
0.0
 30
0.0
  3
*D31
  1

  0
LINE
  5
7398
330
7281
100
AcDbEntity
  8
寸法
  6
Continuous
 62
     4
370
    -2
100
AcDbLine
 10
1324.316421979546
 20
471.8538938122865
 30
0.0
 11
1324.316421979546
 21
457.9182106753514
 31
0.0
  0
LINE
  5
7399
330
7281
100
AcDbEntity
  8
寸法
  6
Continuous
 62
     4
370
    -2
100
AcDbLine
 10
1376.316421979546
 20
471.8538938122865
 30
0.0
 11
1376.316421979546
 21
457.9182106753514
 31
0.0
  0
LINE
  5
739A
330
7281
100
AcDbEntity
  8
寸法
  6
Continuous
 62
     4
370
    -2
100
AcDbLine
 10
1325.316421979546
 20
457.9182106753514
 30
0.0
 11
1375.316421979546
 21
457.9182106753514
 31
0.0
  0
INSERT
  5
739B
330
7281
100
AcDbEntity
  8
寸法
  6
Continuous
 62
     4
370
    -2
100
AcDbBlockReference
  2
_Dot
 10
1324.316421979546
 20
457.9182106753514
 30
0.0
 50
180.0
  0
INSERT
  5
739C
330
7281
100
AcDbEntity
  8
寸法
  6
Continuous
 62
     4
370
    -2
100
AcDbBlockReference
  2
_Dot
 10
1376.316421979546
 20
457.9182106753514
 30
0.0
  0
MTEXT
  5
739D
330
7281
100
AcDbEntity
  8
寸法
  6
Continuous
 62
     3
100
AcDbMText
 10
1350.316421979546
 20
461.2182106753515
 30
0.0
 40
5.0
 41
0.0
 71
     5
 72
     5
  1
\A1;52
  7
ACAD
 73
     1
 44
1.0
1001
ACAD
1000
MTEXTBEGIN
1070
    73
1070
     1
1070
    44
1040
1.0
1070
    74
1070
     0
1000
MTEXTEND
  0
POINT
  5
739E
330
7281
100
AcDbEntity
  8
Defpoints
  6
Continuous
 62
     0
100
AcDbPoint
 10
1324.316421979546
 20
471.8538938122865
 30
0.0
  0
POINT
  5
739F
330
7281
100
AcDbEntity
  8
Defpoints
  6
Continuous
 62
     0
100
AcDbPoint
 10
1376.316421979546
 20
471.8538938122865
 30
0.0
  0
POINT
  5
73A0
330
7281
100
AcDbEntity
  8
Defpoints
  6
Continuous
 62
     0
100
AcDbPoint
 10
1376.316421979546
 20
457.9182106753514
 30
0.0
  0
ENDBLK
  5
728C
330
7281
100
AcDbEntity
  8
0
100
AcDbBlockEnd
  0
BLOCK
  5
7297
330
728D
100
AcDbEntity
  8
0
100
AcDbBlockBegin
  2
*D32
 70
     1
 10
0.0
 20
0.0
 30
0.0
  3
*D32
  1

  0
LINE
  5
73A1
330
728D
100
AcDbEntity
  8
寸法
  6
Continuous
 62
     4
370
    -2
100
AcDbLine
 10
1325.316421979546
 20
548.0680008122872
 30
0.0
 11
1325.316421979546
 21
533.2166698122864
 31
0.0
  0
LINE
  5
73A2
330
728D
100
AcDbEntity
  8
寸法
  6
Continuous
 62
     4
370
    -2
100
AcDbLine
 10
1375.316421979546
 20
548.0680008122872
 30
0.0
 11
1375.316421979546
 21
533.2166698122864
 31
0.0
  0
LINE
  5
73A3
330
728D
100
AcDbEntity
  8
寸法
  6
Continuous
 62
     4
370
    -2
100
AcDbLine
 10
1326.316421979546
 20
533.2166698122864
 30
0.0
 11
1374.316421979546
 21
533.2166698122864
 31
0.0
  0
INSERT
  5
73A4
330
728D
100
AcDbEntity
  8
寸法
  6
Continuous
 62
     4
370
    -2
100
AcDbBlockReference
  2
_Dot
 10
1325.316421979546
 20
533.2166698122864
 30
0.0
 50
180.0
  0
INSERT
  5
73A5
330
728D
100
AcDbEntity
  8
寸法
  6
Continuous
 62
     4
370
    -2
100
AcDbBlockReference
  2
_Dot
 10
1375.316421979546
 20
533.2166698122864
 30
0.0
  0
MTEXT
  5
73A6
330
728D
100
AcDbEntity
  8
寸法
  6
Continuous
 62
     3
100
AcDbMText
 10
1350.316421979546
 20
536.5166698122863
 30
0.0
 40
5.0
 41
0.0
 71
     5
 72
     5
  1
\A1;50
  7
ACAD
 73
     1
 44
1.0
1001
ACAD
1000
MTEXTBEGIN
1070
    73
1070
     1
1070
    44
1040
1.0
1070
    74
1070
     0
1000
MTEXTEND
  0
POINT
  5
73A7
330
728D
100
AcDbEntity
  8
Defpoints
  6
Continuous
 62
     0
100
AcDbPoint
 10
1325.316421979546
 20
548.0680008122872
 30
0.0
  0
POINT
  5
73A8
330
728D
100
AcDbEntity
  8
Defpoints
  6
Continuous
 62
     0
100
AcDbPoint
 10
1375.316421979546
 20
548.0680008122872
 30
0.0
  0
POINT
  5
73A9
330
728D
100
AcDbEntity
  8
Defpoints
  6
Continuous
 62
     0
100
AcDbPoint
 10
1375.316421979546
 20
533.2166698122864
 30
0.0
  0
ENDBLK
  5
7298
330
728D
100
AcDbEntity
  8
0
100
AcDbBlockEnd
  0
BLOCK
  5
72A3
330
7299
100
AcDbEntity
  8
0
100
AcDbBlockBegin
  2
*D33
 70
     1
 10
0.0
 20
0.0
 30
0.0
  3
*D33
  1

  0
LINE
  5
73AA
330
7299
100
AcDbEntity
  8
寸法
  6
Continuous
 62
     4
370
    -2
100
AcDbLine
 10
1564.454567979546
 20
386.5713348122872
 30
0.0
 11
1564.454567979546
 21
372.8698368122869
 31
0.0
  0
LINE
  5
73AB
330
7299
100
AcDbEntity
  8
寸法
  6
Continuous
 62
     4
370
    -2
100
AcDbLine
 10
1462.454567979546
 20
385.8013958122865
 30
0.0
 11
1462.454567979546
 21
372.8698368122869
 31
0.0
  0
LINE
  5
73AC
330
7299
100
AcDbEntity
  8
寸法
  6
Continuous
 62
     4
370
    -2
100
AcDbLine
 10
1563.454567979546
 20
372.8698368122869
 30
0.0
 11
1463.454567979546
 21
372.8698368122869
 31
0.0
  0
INSERT
  5
73AD
330
7299
100
AcDbEntity
  8
寸法
  6
Continuous
 62
     4
370
    -2
100
AcDbBlockReference
  2
_Dot
 10
1564.454567979546
 20
372.8698368122869
 30
0.0
  0
INSERT
  5
73AE
330
7299
100
AcDbEntity
  8
寸法
  6
Continuous
 62
     4
370
    -2
100
AcDbBlockReference
  2
_Dot
 10
1462.454567979546
 20
372.8698368122869
 30
0.0
 50
180.0
  0
MTEXT
  5
73AF
330
7299
100
AcDbEntity
  8
寸法
  6
Continuous
 62
     3
100
AcDbMText
 10
1513.454567979546
 20
376.1698368122869
 30
0.0
 40
5.0
 41
0.0
 71
     5
 72
     5
  1
\A1;102
  7
ACAD
 73
     1
 44
1.0
1001
ACAD
1000
MTEXTBEGIN
1070
    73
1070
     1
1070
    44
1040
1.0
1070
    74
1070
     0
1000
MTEXTEND
  0
POINT
  5
73B0
330
7299
100
AcDbEntity
  8
Defpoints
  6
Continuous
 62
     0
100
AcDbPoint
 10
1564.454567979546
 20
386.5713348122872
 30
0.0
  0
POINT
  5
73B1
330
7299
100
AcDbEntity
  8
Defpoints
  6
Continuous
 62
     0
100
AcDbPoint
 10
1462.454567979546
 20
385.8013958122865
 30
0.0
  0
POINT
  5
73B2
330
7299
100
AcDbEntity
  8
Defpoints
  6
Continuous
 62
     0
100
AcDbPoint
 10
1462.454567979546
 20
372.8698368122869
 30
0.0
  0
ENDBLK
  5
72A4
330
7299
100
AcDbEntity
  8
0
100
AcDbBlockEnd
  0
BLOCK
  5
72AF
330
72A5
100
AcDbEntity
  8
0
100
AcDbBlockBegin
  2
*D34
 70
     1
 10
0.0
 20
0.0
 30
0.0
  3
*D34
  1

  0
LINE
  5
73B3
330
72A5
100
AcDbEntity
  8
寸法
  6
Continuous
 62
     4
370
    -2
100
AcDbLine
 10
1493.539255979546
 20
471.6406228122869
 30
0.0
 11
1493.539255979546
 21
458.2391248122867
 31
0.0
  0
LINE
  5
73B4
330
72A5
100
AcDbEntity
  8
寸法
  6
Continuous
 62
     4
370
    -2
100
AcDbLine
 10
1570.539255979546
 20
471.6406228122869
 30
0.0
 11
1570.539255979546
 21
458.2391248122867
 31
0.0
  0
LINE
  5
73B5
330
72A5
100
AcDbEntity
  8
寸法
  6
Continuous
 62
     4
370
    -2
100
AcDbLine
 10
1494.539255979546
 20
458.2391248122867
 30
0.0
 11
1569.539255979546
 21
458.2391248122867
 31
0.0
  0
INSERT
  5
73B6
330
72A5
100
AcDbEntity
  8
寸法
  6
Continuous
 62
     4
370
    -2
100
AcDbBlockReference
  2
_Dot
 10
1493.539255979546
 20
458.2391248122867
 30
0.0
 50
180.0
  0
INSERT
  5
73B7
330
72A5
100
AcDbEntity
  8
寸法
  6
Continuous
 62
     4
370
    -2
100
AcDbBlockReference
  2
_Dot
 10
1570.539255979546
 20
458.2391248122867
 30
0.0
  0
MTEXT
  5
73B8
330
72A5
100
AcDbEntity
  8
寸法
  6
Continuous
 62
     3
100
AcDbMText
 10
1532.039255979546
 20
461.5391248122867
 30
0.0
 40
5.0
 41
0.0
 71
     5
 72
     5
  1
\A1;77
  7
ACAD
 73
     1
 44
1.0
1001
ACAD
1000
MTEXTBEGIN
1070
    73
1070
     1
1070
    44
1040
1.0
1070
    74
1070
     0
1000
MTEXTEND
  0
POINT
  5
73B9
330
72A5
100
AcDbEntity
  8
Defpoints
  6
Continuous
 62
     0
100
AcDbPoint
 10
1493.539255979546
 20
471.6406228122869
 30
0.0
  0
POINT
  5
73BA
330
72A5
100
AcDbEntity
  8
Defpoints
  6
Continuous
 62
     0
100
AcDbPoint
 10
1570.539255979546
 20
471.6406228122869
 30
0.0
  0
POINT
  5
73BB
330
72A5
100
AcDbEntity
  8
Defpoints
  6
Continuous
 62
     0
100
AcDbPoint
 10
1570.539255979546
 20
458.2391248122867
 30
0.0
  0
ENDBLK
  5
72B0
330
72A5
100
AcDbEntity
  8
0
100
AcDbBlockEnd
  0
BLOCK
  5
72BB
330
72B1
100
AcDbEntity
  8
0
100
AcDbBlockBegin
  2
*D35
 70
     1
 10
0.0
 20
0.0
 30
0.0
  3
*D35
  1

  0
LINE
  5
73BC
330
72B1
100
AcDbEntity
  8
寸法
  6
Continuous
 62
     4
370
    -2
100
AcDbLine
 10
1430.630136979545
 20
385.8213348122872
 30
0.0
 11
1443.135798979546
 21
385.8213348122872
 31
0.0
  0
LINE
  5
73BD
330
72B1
100
AcDbEntity
  8
寸法
  6
Continuous
 62
     4
370
    -2
100
AcDbLine
 10
1432.130136979546
 20
430.8213348122872
 30
0.0
 11
1443.135798979546
 21
430.8213348122872
 31
0.0
  0
LINE
  5
73BE
330
72B1
100
AcDbEntity
  8
寸法
  6
Continuous
 62
     4
370
    -2
100
AcDbLine
 10
1443.135798979546
 20
386.8213348122872
 30
0.0
 11
1443.135798979546
 21
429.8213348122872
 31
0.0
  0
INSERT
  5
73BF
330
72B1
100
AcDbEntity
  8
寸法
  6
Continuous
 62
     4
370
    -2
100
AcDbBlockReference
  2
_Dot
 10
1443.135798979546
 20
385.8213348122872
 30
0.0
 50
270.0
  0
INSERT
  5
73C0
330
72B1
100
AcDbEntity
  8
寸法
  6
Continuous
 62
     4
370
    -2
100
AcDbBlockReference
  2
_Dot
 10
1443.135798979546
 20
430.8213348122872
 30
0.0
 50
90.0
  0
MTEXT
  5
73C1
330
72B1
100
AcDbEntity
  8
寸法
  6
Continuous
 62
     3
100
AcDbMText
 10
1439.835798979546
 20
408.3213348122874
 30
0.0
 40
5.0
 41
0.0
 71
     5
 72
     5
  1
\A1;45
  7
ACAD
 11
0.0000000000000001
 21
1.0
 31
0.0
 73
     1
 44
1.0
1001
ACAD
1000
MTEXTBEGIN
1070
    73
1070
     1
1070
    44
1040
1.0
1070
    74
1070
     0
1000
MTEXTEND
  0
POINT
  5
73C2
330
72B1
100
AcDbEntity
  8
Defpoints
  6
Continuous
 62
     0
100
AcDbPoint
 10
1430.630136979545
 20
385.8213348122872
 30
0.0
  0
POINT
  5
73C3
330
72B1
100
AcDbEntity
  8
Defpoints
  6
Continuous
 62
     0
100
AcDbPoint
 10
1432.130136979546
 20
430.8213348122872
 30
0.0
  0
POINT
  5
73C4
330
72B1
100
AcDbEntity
  8
Defpoints
  6
Continuous
 62
     0
100
AcDbPoint
 10
1443.135798979546
 20
430.8213348122872
 30
0.0
  0
ENDBLK
  5
72BC
330
72B1
100
AcDbEntity
  8
0
100
AcDbBlockEnd
  0
BLOCK
  5
72C7
330
72BD
100
AcDbEntity
  8
0
100
AcDbBlockBegin
  2
*D36
 70
     1
 10
0.0
 20
0.0
 30
0.0
  3
*D36
  1

  0
LINE
  5
73C5
330
72BD
100
AcDbEntity
  8
寸法
  6
Continuous
 62
     4
370
    -2
100
AcDbLine
 10
1403.866602979546
 20
471.8906228122868
 30
0.0
 11
1403.866602979546
 21
457.9435010366005
 31
0.0
  0
LINE
  5
73C6
330
72BD
100
AcDbEntity
  8
寸法
  6
Continuous
 62
     4
370
    -2
100
AcDbLine
 10
1470.866602979546
 20
471.8538938122865
 30
0.0
 11
1470.866602979546
 21
457.9435010366005
 31
0.0
  0
LINE
  5
73C7
330
72BD
100
AcDbEntity
  8
寸法
  6
Continuous
 62
     4
370
    -2
100
AcDbLine
 10
1404.866602979546
 20
457.9435010366005
 30
0.0
 11
1469.866602979546
 21
457.9435010366005
 31
0.0
  0
INSERT
  5
73C8
330
72BD
100
AcDbEntity
  8
寸法
  6
Continuous
 62
     4
370
    -2
100
AcDbBlockReference
  2
_Dot
 10
1403.866602979546
 20
457.9435010366005
 30
0.0
 50
180.0
  0
INSERT
  5
73C9
330
72BD
100
AcDbEntity
  8
寸法
  6
Continuous
 62
     4
370
    -2
100
AcDbBlockReference
  2
_Dot
 10
1470.866602979546
 20
457.9435010366005
 30
0.0
  0
MTEXT
  5
73CA
330
72BD
100
AcDbEntity
  8
寸法
  6
Continuous
 62
     3
100
AcDbMText
 10
1437.366602979546
 20
461.2435010366005
 30
0.0
 40
5.0
 41
0.0
 71
     5
 72
     5
  1
\A1;67
  7
ACAD
 73
     1
 44
1.0
1001
ACAD
1000
MTEXTBEGIN
1070
    73
1070
     1
1070
    44
1040
1.0
1070
    74
1070
     0
1000
MTEXTEND
  0
POINT
  5
73CB
330
72BD
100
AcDbEntity
  8
Defpoints
  6
Continuous
 62
     0
100
AcDbPoint
 10
1403.866602979546
 20
471.8906228122868
 30
0.0
  0
POINT
  5
73CC
330
72BD
100
AcDbEntity
  8
Defpoints
  6
Continuous
 62
     0
100
AcDbPoint
 10
1470.866602979546
 20
471.8538938122865
 30
0.0
  0
POINT
  5
73CD
330
72BD
100
AcDbEntity
  8
Defpoints
  6
Continuous
 62
     0
100
AcDbPoint
 10
1470.866602979546
 20
457.9435010366005
 30
0.0
  0
ENDBLK
  5
72C8
330
72BD
100
AcDbEntity
  8
0
100
AcDbBlockEnd
  0
BLOCK
  5
72D3
330
72C9
100
AcDbEntity
  8
0
100
AcDbBlockBegin
  2
*D37
 70
     1
 10
0.0
 20
0.0
 30
0.0
  3
*D37
  1

  0
LINE
  5
73CE
330
72C9
100
AcDbEntity
  8
寸法
  6
Continuous
 62
     4
370
    -2
100
AcDbLine
 10
1375.579465979546
 20
470.8906228122868
 30
0.0
 11
1385.522082979546
 21
470.8906228122868
 31
0.0
  0
LINE
  5
73CF
330
72C9
100
AcDbEntity
  8
寸法
  6
Continuous
 62
     4
370
    -2
100
AcDbLine
 10
1377.316421979546
 20
510.8933988122871
 30
0.0
 11
1385.522082979546
 21
510.8933988122871
 31
0.0
  0
LINE
  5
73D0
330
72C9
100
AcDbEntity
  8
寸法
  6
Continuous
 62
     4
370
    -2
100
AcDbLine
 10
1385.522082979546
 20
471.8906228122868
 30
0.0
 11
1385.522082979546
 21
509.8933988122872
 31
0.0
  0
INSERT
  5
73D1
330
72C9
100
AcDbEntity
  8
寸法
  6
Continuous
 62
     4
370
    -2
100
AcDbBlockReference
  2
_Dot
 10
1385.522082979546
 20
470.8906228122868
 30
0.0
 50
270.0
  0
INSERT
  5
73D2
330
72C9
100
AcDbEntity
  8
寸法
  6
Continuous
 62
     4
370
    -2
100
AcDbBlockReference
  2
_Dot
 10
1385.522082979546
 20
510.8933988122871
 30
0.0
 50
90.0
  0
MTEXT
  5
73D3
330
72C9
100
AcDbEntity
  8
寸法
  6
Continuous
 62
     3
100
AcDbMText
 10
1382.222082979546
 20
490.8920108122872
 30
0.0
 40
5.0
 41
0.0
 71
     5
 72
     5
  1
\A1;40
  7
ACAD
 11
0.0000000000000001
 21
1.0
 31
0.0
 73
     1
 44
1.0
1001
ACAD
1000
MTEXTBEGIN
1070
    73
1070
     1
1070
    44
1040
1.0
1070
    74
1070
     0
1000
MTEXTEND
  0
POINT
  5
73D4
330
72C9
100
AcDbEntity
  8
Defpoints
  6
Continuous
 62
     0
100
AcDbPoint
 10
1375.579465979546
 20
470.8906228122868
 30
0.0
  0
POINT
  5
73D5
330
72C9
100
AcDbEntity
  8
Defpoints
  6
Continuous
 62
     0
100
AcDbPoint
 10
1377.316421979546
 20
510.8933988122871
 30
0.0
  0
POINT
  5
73D6
330
72C9
100
AcDbEntity
  8
Defpoints
  6
Continuous
 62
     0
100
AcDbPoint
 10
1385.522082979546
 20
510.8933988122871
 30
0.0
  0
ENDBLK
  5
72D4
330
72C9
100
AcDbEntity
  8
0
100
AcDbBlockEnd
  0
BLOCK
  5
72DF
330
72D5
100
AcDbEntity
  8
0
100
AcDbBlockBegin
  2
*D38
 70
     1
 10
0.0
 20
0.0
 30
0.0
  3
*D38
  1

  0
LINE
  5
73D7
330
72D5
100
AcDbEntity
  8
寸法
  6
Continuous
 62
     4
370
    -2
100
AcDbLine
 10
1470.129646979546
 20
470.8878468122866
 30
0.0
 11
1479.772263979546
 21
470.8878468122866
 31
0.0
  0
LINE
  5
73D8
330
72D5
100
AcDbEntity
  8
寸法
  6
Continuous
 62
     4
370
    -2
100
AcDbLine
 10
1471.866602979546
 20
510.8906228122869
 30
0.0
 11
1479.772263979546
 21
510.8906228122869
 31
0.0
  0
LINE
  5
73D9
330
72D5
100
AcDbEntity
  8
寸法
  6
Continuous
 62
     4
370
    -2
100
AcDbLine
 10
1479.772263979546
 20
471.8878468122865
 30
0.0
 11
1479.772263979546
 21
509.8906228122869
 31
0.0
  0
INSERT
  5
73DA
330
72D5
100
AcDbEntity
  8
寸法
  6
Continuous
 62
     4
370
    -2
100
AcDbBlockReference
  2
_Dot
 10
1479.772263979546
 20
470.8878468122866
 30
0.0
 50
270.0
  0
INSERT
  5
73DB
330
72D5
100
AcDbEntity
  8
寸法
  6
Continuous
 62
     4
370
    -2
100
AcDbBlockReference
  2
_Dot
 10
1479.772263979546
 20
510.8906228122869
 30
0.0
 50
90.0
  0
MTEXT
  5
73DC
330
72D5
100
AcDbEntity
  8
寸法
  6
Continuous
 62
     3
100
AcDbMText
 10
1476.472263979546
 20
490.8892348122869
 30
0.0
 40
5.0
 41
0.0
 71
     5
 72
     5
  1
\A1;40
  7
ACAD
 11
0.0000000000000001
 21
1.0
 31
0.0
 73
     1
 44
1.0
1001
ACAD
1000
MTEXTBEGIN
1070
    73
1070
     1
1070
    44
1040
1.0
1070
    74
1070
     0
1000
MTEXTEND
  0
POINT
  5
73DD
330
72D5
100
AcDbEntity
  8
Defpoints
  6
Continuous
 62
     0
100
AcDbPoint
 10
1470.129646979546
 20
470.8878468122866
 30
0.0
  0
POINT
  5
73DE
330
72D5
100
AcDbEntity
  8
Defpoints
  6
Continuous
 62
     0
100
AcDbPoint
 10
1471.866602979546
 20
510.8906228122869
 30
0.0
  0
POINT
  5
73DF
330
72D5
100
AcDbEntity
  8
Defpoints
  6
Continuous
 62
     0
100
AcDbPoint
 10
1479.772263979546
 20
510.8906228122869
 30
0.0
  0
ENDBLK
  5
72E0
330
72D5
100
AcDbEntity
  8
0
100
AcDbBlockEnd
  0
BLOCK
  5
72EB
330
72E1
100
AcDbEntity
  8
0
100
AcDbBlockBegin
  2
*D39
 70
     1
 10
0.0
 20
0.0
 30
0.0
  3
*D39
  1

  0
LINE
  5
73E0
330
72E1
100
AcDbEntity
  8
寸法
  6
Continuous
 62
     4
370
    -2
100
AcDbLine
 10
1565.454567979546
 20
425.8213348122872
 30
0.0
 11
1573.660229979546
 21
425.8213348122872
 31
0.0
  0
LINE
  5
73E1
330
72E1
100
AcDbEntity
  8
寸法
  6
Continuous
 62
     4
370
    -2
100
AcDbLine
 10
1563.717612979546
 20
385.8185588122869
 30
0.0
 11
1573.660229979546
 21
385.8185588122869
 31
0.0
  0
LINE
  5
73E2
330
72E1
100
AcDbEntity
  8
寸法
  6
Continuous
 62
     4
370
    -2
100
AcDbLine
 10
1573.660229979546
 20
424.8213348122872
 30
0.0
 11
1573.660229979546
 21
386.8185588122869
 31
0.0
  0
INSERT
  5
73E3
330
72E1
100
AcDbEntity
  8
寸法
  6
Continuous
 62
     4
370
    -2
100
AcDbBlockReference
  2
_Dot
 10
1573.660229979546
 20
425.8213348122872
 30
0.0
 50
90.0
  0
INSERT
  5
73E4
330
72E1
100
AcDbEntity
  8
寸法
  6
Continuous
 62
     4
370
    -2
100
AcDbBlockReference
  2
_Dot
 10
1573.660229979546
 20
385.8185588122869
 30
0.0
 50
270.0
  0
MTEXT
  5
73E5
330
72E1
100
AcDbEntity
  8
寸法
  6
Continuous
 62
     3
100
AcDbMText
 10
1570.360229979546
 20
405.8199468122873
 30
0.0
 40
5.0
 41
0.0
 71
     5
 72
     5
  1
\A1;40
  7
ACAD
 11
0.0000000000000001
 21
1.0
 31
0.0
 73
     1
 44
1.0
1001
ACAD
1000
MTEXTBEGIN
1070
    73
1070
     1
1070
    44
1040
1.0
1070
    74
1070
     0
1000
MTEXTEND
  0
POINT
  5
73E6
330
72E1
100
AcDbEntity
  8
Defpoints
  6
Continuous
 62
     0
100
AcDbPoint
 10
1565.454567979546
 20
425.8213348122872
 30
0.0
  0
POINT
  5
73E7
330
72E1
100
AcDbEntity
  8
Defpoints
  6
Continuous
 62
     0
100
AcDbPoint
 10
1563.717612979546
 20
385.8185588122869
 30
0.0
  0
POINT
  5
73E8
330
72E1
100
AcDbEntity
  8
Defpoints
  6
Continuous
 62
     0
100
AcDbPoint
 10
1573.660229979546
 20
385.8185588122869
 30
0.0
  0
ENDBLK
  5
72EC
330
72E1
100
AcDbEntity
  8
0
100
AcDbBlockEnd
  0
BLOCK
  5
72F7
330
72ED
100
AcDbEntity
  8
0
100
AcDbBlockBegin
  2
*D40
 70
     1
 10
0.0
 20
0.0
 30
0.0
  3
*D40
  1

  0
LINE
  5
73E9
330
72ED
100
AcDbEntity
  8
寸法
  6
Continuous
 62
     4
370
    -2
100
AcDbLine
 10
1569.802299979546
 20
470.8878468122866
 30
0.0
 11
1579.744916979546
 21
470.8878468122866
 31
0.0
  0
LINE
  5
73EA
330
72ED
100
AcDbEntity
  8
寸法
  6
Continuous
 62
     4
370
    -2
100
AcDbLine
 10
1571.539255979546
 20
510.8906228122869
 30
0.0
 11
1579.744916979546
 21
510.8906228122869
 31
0.0
  0
LINE
  5
73EB
330
72ED
100
AcDbEntity
  8
寸法
  6
Continuous
 62
     4
370
    -2
100
AcDbLine
 10
1579.744916979546
 20
471.8878468122865
 30
0.0
 11
1579.744916979546
 21
509.8906228122869
 31
0.0
  0
INSERT
  5
73EC
330
72ED
100
AcDbEntity
  8
寸法
  6
Continuous
 62
     4
370
    -2
100
AcDbBlockReference
  2
_Dot
 10
1579.744916979546
 20
470.8878468122866
 30
0.0
 50
270.0
  0
INSERT
  5
73ED
330
72ED
100
AcDbEntity
  8
寸法
  6
Continuous
 62
     4
370
    -2
100
AcDbBlockReference
  2
_Dot
 10
1579.744916979546
 20
510.8906228122869
 30
0.0
 50
90.0
  0
MTEXT
  5
73EE
330
72ED
100
AcDbEntity
  8
寸法
  6
Continuous
 62
     3
100
AcDbMText
 10
1576.444916979546
 20
490.8892348122869
 30
0.0
 40
5.0
 41
0.0
 71
     5
 72
     5
  1
\A1;40
  7
ACAD
 11
0.0000000000000001
 21
1.0
 31
0.0
 73
     1
 44
1.0
1001
ACAD
1000
MTEXTBEGIN
1070
    73
1070
     1
1070
    44
1040
1.0
1070
    74
1070
     0
1000
MTEXTEND
  0
POINT
  5
73EF
330
72ED
100
AcDbEntity
  8
Defpoints
  6
Continuous
 62
     0
100
AcDbPoint
 10
1569.802299979546
 20
470.8878468122866
 30
0.0
  0
POINT
  5
73F0
330
72ED
100
AcDbEntity
  8
Defpoints
  6
Continuous
 62
     0
100
AcDbPoint
 10
1571.539255979546
 20
510.8906228122869
 30
0.0
  0
POINT
  5
73F1
330
72ED
100
AcDbEntity
  8
Defpoints
  6
Continuous
 62
     0
100
AcDbPoint
 10
1579.744916979546
 20
510.8906228122869
 30
0.0
  0
ENDBLK
  5
72F8
330
72ED
100
AcDbEntity
  8
0
100
AcDbBlockEnd
  0
BLOCK
  5
7303
330
72F9
100
AcDbEntity
  8
0
100
AcDbBlockBegin
  2
*D41
 70
     1
 10
0.0
 20
0.0
 30
0.0
  3
*D41
  1

  0
LINE
  5
73F2
330
72F9
100
AcDbEntity
  8
寸法
  6
Continuous
 62
     4
370
    -2
100
AcDbLine
 10
1614.675975979546
 20
386.2028968122868
 30
0.0
 11
1614.675975979546
 21
377.1037948122867
 31
0.0
  0
LINE
  5
73F3
330
72F9
100
AcDbEntity
  8
寸法
  6
Continuous
 62
     4
370
    -2
100
AcDbLine
 10
1624.675975979546
 20
383.7028968122868
 30
0.0
 11
1624.675975979546
 21
377.1037948122867
 31
0.0
  0
LINE
  5
73F4
330
72F9
100
AcDbEntity
  8
寸法
  6
Continuous
 62
     4
370
    -2
100
AcDbLine
 10
1615.675975979546
 20
377.1037948122867
 30
0.0
 11
1623.675975979546
 21
377.1037948122867
 31
0.0
  0
INSERT
  5
73F5
330
72F9
100
AcDbEntity
  8
寸法
  6
Continuous
 62
     4
370
    -2
100
AcDbBlockReference
  2
_Dot
 10
1614.675975979546
 20
377.1037948122867
 30
0.0
 50
180.0
  0
INSERT
  5
73F6
330
72F9
100
AcDbEntity
  8
寸法
  6
Continuous
 62
     4
370
    -2
100
AcDbBlockReference
  2
_Dot
 10
1624.675975979546
 20
377.1037948122867
 30
0.0
  0
MTEXT
  5
73F7
330
72F9
100
AcDbEntity
  8
寸法
  6
Continuous
 62
     3
100
AcDbMText
 10
1619.675975979546
 20
380.4037948122866
 30
0.0
 40
5.0
 41
0.0
 71
     5
 72
     5
  1
\A1;10
  7
ACAD
 73
     1
 44
1.0
1001
ACAD
1000
MTEXTBEGIN
1070
    73
1070
     1
1070
    44
1040
1.0
1070
    74
1070
     0
1000
MTEXTEND
  0
POINT
  5
73F8
330
72F9
100
AcDbEntity
  8
Defpoints
  6
Continuous
 62
     0
100
AcDbPoint
 10
1614.675975979546
 20
386.2028968122868
 30
0.0
  0
POINT
  5
73F9
330
72F9
100
AcDbEntity
  8
Defpoints
  6
Continuous
 62
     0
100
AcDbPoint
 10
1624.675975979546
 20
383.7028968122868
 30
0.0
  0
POINT
  5
73FA
330
72F9
100
AcDbEntity
  8
Defpoints
  6
Continuous
 62
     0
100
AcDbPoint
 10
1624.675975979546
 20
377.1037948122867
 30
0.0
  0
ENDBLK
  5
7304
330
72F9
100
AcDbEntity
  8
0
100
AcDbBlockEnd
  0
BLOCK
  5
730F
330
7305
100
AcDbEntity
  8
0
100
AcDbBlockBegin
  2
*D42
 70
     1
 10
0.0
 20
0.0
 30
0.0
  3
*D42
  1

  0
LINE
  5
73FB
330
7305
100
AcDbEntity
  8
寸法
  6
Continuous
 62
     4
370
    -2
100
AcDbLine
 10
1625.675975979546
 20
403.7028968122867
 30
0.0
 11
1630.855622979546
 21
403.7028968122867
 31
0.0
  0
LINE
  5
73FC
330
7305
100
AcDbEntity
  8
寸法
  6
Continuous
 62
     4
370
    -2
100
AcDbLine
 10
1625.675975979546
 20
384.7028968122868
 30
0.0
 11
1630.855622979546
 21
384.7028968122868
 31
0.0
  0
LINE
  5
73FD
330
7305
100
AcDbEntity
  8
寸法
  6
Continuous
 62
     4
370
    -2
100
AcDbLine
 10
1630.855622979546
 20
402.7028968122867
 30
0.0
 11
1630.855622979546
 21
385.7028968122868
 31
0.0
  0
INSERT
  5
73FE
330
7305
100
AcDbEntity
  8
寸法
  6
Continuous
 62
     4
370
    -2
100
AcDbBlockReference
  2
_Dot
 10
1630.855622979546
 20
403.7028968122867
 30
0.0
 50
90.0
  0
INSERT
  5
73FF
330
7305
100
AcDbEntity
  8
寸法
  6
Continuous
 62
     4
370
    -2
100
AcDbBlockReference
  2
_Dot
 10
1630.855622979546
 20
384.7028968122868
 30
0.0
 50
270.0
  0
MTEXT
  5
7400
330
7305
100
AcDbEntity
  8
寸法
  6
Continuous
 62
     3
100
AcDbMText
 10
1627.555622979546
 20
394.202896812287
 30
0.0
 40
5.0
 41
0.0
 71
     5
 72
     5
  1
\A1;19
  7
ACAD
 11
0.0000000000000001
 21
1.0
 31
0.0
 73
     1
 44
1.0
1001
ACAD
1000
MTEXTBEGIN
1070
    73
1070
     1
1070
    44
1040
1.0
1070
    74
1070
     0
1000
MTEXTEND
  0
POINT
  5
7401
330
7305
100
AcDbEntity
  8
Defpoints
  6
Continuous
 62
     0
100
AcDbPoint
 10
1625.675975979546
 20
403.7028968122867
 30
0.0
  0
POINT
  5
7402
330
7305
100
AcDbEntity
  8
Defpoints
  6
Continuous
 62
     0
100
AcDbPoint
 10
1625.675975979546
 20
384.7028968122868
 30
0.0
  0
POINT
  5
7403
330
7305
100
AcDbEntity
  8
Defpoints
  6
Continuous
 62
     0
100
AcDbPoint
 10
1630.855622979546
 20
384.7028968122868
 30
0.0
  0
ENDBLK
  5
7310
330
7305
100
AcDbEntity
  8
0
100
AcDbBlockEnd
  0
BLOCK
  5
731B
330
7311
100
AcDbEntity
  8
0
100
AcDbBlockBegin
  2
*D43
 70
     1
 10
0.0
 20
0.0
 30
0.0
  3
*D43
  1

  0
LINE
  5
7404
330
7311
100
AcDbEntity
  8
寸法
  6
Continuous
 62
     4
370
    -2
100
AcDbLine
 10
1494.536416979546
 20
548.0680008122872
 30
0.0
 11
1494.536416979546
 21
533.2166698122864
 31
0.0
  0
LINE
  5
7405
330
7311
100
AcDbEntity
  8
寸法
  6
Continuous
 62
     4
370
    -2
100
AcDbLine
 10
1569.542093979546
 20
548.0680008122872
 30
0.0
 11
1569.542093979546
 21
533.2166698122864
 31
0.0
  0
LINE
  5
7406
330
7311
100
AcDbEntity
  8
寸法
  6
Continuous
 62
     4
370
    -2
100
AcDbLine
 10
1495.536416979546
 20
533.2166698122864
 30
0.0
 11
1568.542093979545
 21
533.2166698122864
 31
0.0
  0
INSERT
  5
7407
330
7311
100
AcDbEntity
  8
寸法
  6
Continuous
 62
     4
370
    -2
100
AcDbBlockReference
  2
_Dot
 10
1494.536416979546
 20
533.2166698122864
 30
0.0
 50
180.0
  0
INSERT
  5
7408
330
7311
100
AcDbEntity
  8
寸法
  6
Continuous
 62
     4
370
    -2
100
AcDbBlockReference
  2
_Dot
 10
1569.542093979546
 20
533.2166698122864
 30
0.0
  0
MTEXT
  5
7409
330
7311
100
AcDbEntity
  8
寸法
  6
Continuous
 62
     3
100
AcDbMText
 10
1532.039255479546
 20
536.5166698122863
 30
0.0
 40
5.0
 41
0.0
 71
     5
 72
     5
  1
\A1;75
  7
ACAD
 73
     1
 44
1.0
1001
ACAD
1000
MTEXTBEGIN
1070
    73
1070
     1
1070
    44
1040
1.0
1070
    74
1070
     0
1000
MTEXTEND
  0
POINT
  5
740A
330
7311
100
AcDbEntity
  8
Defpoints
  6
Continuous
 62
     0
100
AcDbPoint
 10
1494.536416979546
 20
548.0680008122872
 30
0.0
  0
POINT
  5
740B
330
7311
100
AcDbEntity
  8
Defpoints
  6
Continuous
 62
     0
100
AcDbPoint
 10
1569.542093979546
 20
548.0680008122872
 30
0.0
  0
POINT
  5
740C
330
7311
100
AcDbEntity
  8
Defpoints
  6
Continuous
 62
     0
100
AcDbPoint
 10
1569.542093979546
 20
533.2166698122864
 30
0.0
  0
ENDBLK
  5
731C
330
7311
100
AcDbEntity
  8
0
100
AcDbBlockEnd
  0
BLOCK
  5
7327
330
731D
100
AcDbEntity
  8
0
100
AcDbBlockBegin
  2
*D44
 70
     1
 10
0.0
 20
0.0
 30
0.0
  3
*D44
  1

  0
LINE
  5
740D
330
731D
100
AcDbEntity
  8
寸法
  6
Continuous
 62
     4
370
    -2
100
AcDbLine
 10
1404.863763979546
 20
548.0680008122872
 30
0.0
 11
1404.863763979546
 21
533.1883145636484
 31
0.0
  0
LINE
  5
740E
330
731D
100
AcDbEntity
  8
寸法
  6
Continuous
 62
     4
370
    -2
100
AcDbLine
 10
1469.869440979546
 20
548.0680008122872
 30
0.0
 11
1469.869440979546
 21
533.1883145636484
 31
0.0
  0
LINE
  5
740F
330
731D
100
AcDbEntity
  8
寸法
  6
Continuous
 62
     4
370
    -2
100
AcDbLine
 10
1405.863763979546
 20
533.1883145636484
 30
0.0
 11
1468.869440979546
 21
533.1883145636484
 31
0.0
  0
INSERT
  5
7410
330
731D
100
AcDbEntity
  8
寸法
  6
Continuous
 62
     4
370
    -2
100
AcDbBlockReference
  2
_Dot
 10
1404.863763979546
 20
533.1883145636484
 30
0.0
 50
180.0
  0
INSERT
  5
7411
330
731D
100
AcDbEntity
  8
寸法
  6
Continuous
 62
     4
370
    -2
100
AcDbBlockReference
  2
_Dot
 10
1469.869440979546
 20
533.1883145636484
 30
0.0
  0
MTEXT
  5
7412
330
731D
100
AcDbEntity
  8
寸法
  6
Continuous
 62
     3
100
AcDbMText
 10
1437.366602479546
 20
536.4883145636484
 30
0.0
 40
5.0
 41
0.0
 71
     5
 72
     5
  1
\A1;65
  7
ACAD
 73
     1
 44
1.0
1001
ACAD
1000
MTEXTBEGIN
1070
    73
1070
     1
1070
    44
1040
1.0
1070
    74
1070
     0
1000
MTEXTEND
  0
POINT
  5
7413
330
731D
100
AcDbEntity
  8
Defpoints
  6
Continuous
 62
     0
100
AcDbPoint
 10
1404.863763979546
 20
548.0680008122872
 30
0.0
  0
POINT
  5
7414
330
731D
100
AcDbEntity
  8
Defpoints
  6
Continuous
 62
     0
100
AcDbPoint
 10
1469.869440979546
 20
548.0680008122872
 30
0.0
  0
POINT
  5
7415
330
731D
100
AcDbEntity
  8
Defpoints
  6
Continuous
 62
     0
100
AcDbPoint
 10
1469.869440979546
 20
533.1883145636484
 30
0.0
  0
ENDBLK
  5
7328
330
731D
100
AcDbEntity
  8
0
100
AcDbBlockEnd
  0
BLOCK
  5
7333
330
7329
100
AcDbEntity
  8
0
100
AcDbBlockBegin
  2
*D45
 70
     1
 10
0.0
 20
0.0
 30
0.0
  3
*D45
  1

  0
LINE
  5
7416
330
7329
100
AcDbEntity
  8
寸法
  6
Continuous
 62
     4
370
    -2
100
AcDbLine
 10
1374.816421979546
 20
591.0680008122872
 30
0.0
 11
1385.522082979546
 21
591.0680008122872
 31
0.0
  0
LINE
  5
7417
330
7329
100
AcDbEntity
  8
寸法
  6
Continuous
 62
     4
370
    -2
100
AcDbLine
 10
1373.316421979546
 20
546.0680008122872
 30
0.0
 11
1385.522082979546
 21
546.0680008122872
 31
0.0
  0
LINE
  5
7418
330
7329
100
AcDbEntity
  8
寸法
  6
Continuous
 62
     4
370
    -2
100
AcDbLine
 10
1385.522082979546
 20
590.0680008122872
 30
0.0
 11
1385.522082979546
 21
547.0680008122871
 31
0.0
  0
INSERT
  5
7419
330
7329
100
AcDbEntity
  8
寸法
  6
Continuous
 62
     4
370
    -2
100
AcDbBlockReference
  2
_Dot
 10
1385.522082979546
 20
591.0680008122872
 30
0.0
 50
90.0
  0
INSERT
  5
741A
330
7329
100
AcDbEntity
  8
寸法
  6
Continuous
 62
     4
370
    -2
100
AcDbBlockReference
  2
_Dot
 10
1385.522082979546
 20
546.0680008122872
 30
0.0
 50
270.0
  0
MTEXT
  5
741B
330
7329
100
AcDbEntity
  8
寸法
  6
Continuous
 62
     3
100
AcDbMText
 10
1382.222082979546
 20
568.5680008122874
 30
0.0
 40
5.0
 41
0.0
 71
     5
 72
     5
  1
\A1;45
  7
ACAD
 11
0.0000000000000001
 21
1.0
 31
0.0
 73
     1
 44
1.0
1001
ACAD
1000
MTEXTBEGIN
1070
    73
1070
     1
1070
    44
1040
1.0
1070
    74
1070
     0
1000
MTEXTEND
  0
POINT
  5
741C
330
7329
100
AcDbEntity
  8
Defpoints
  6
Continuous
 62
     0
100
AcDbPoint
 10
1374.816421979546
 20
591.0680008122872
 30
0.0
  0
POINT
  5
741D
330
7329
100
AcDbEntity
  8
Defpoints
  6
Continuous
 62
     0
100
AcDbPoint
 10
1373.316421979546
 20
546.0680008122872
 30
0.0
  0
POINT
  5
741E
330
7329
100
AcDbEntity
  8
Defpoints
  6
Continuous
 62
     0
100
AcDbPoint
 10
1385.522082979546
 20
546.0680008122872
 30
0.0
  0
ENDBLK
  5
7334
330
7329
100
AcDbEntity
  8
0
100
AcDbBlockEnd
  0
BLOCK
  5
733F
330
7335
100
AcDbEntity
  8
0
100
AcDbBlockBegin
  2
*D46
 70
     1
 10
0.0
 20
0.0
 30
0.0
  3
*D46
  1

  0
LINE
  5
741F
330
7335
100
AcDbEntity
  8
寸法
  6
Continuous
 62
     4
370
    -2
100
AcDbLine
 10
1467.869440979546
 20
546.0680008122872
 30
0.0
 11
1480.075102979546
 21
546.0680008122872
 31
0.0
  0
LINE
  5
7420
330
7335
100
AcDbEntity
  8
寸法
  6
Continuous
 62
     4
370
    -2
100
AcDbLine
 10
1469.369440979546
 20
591.0680008122872
 30
0.0
 11
1480.075102979546
 21
591.0680008122872
 31
0.0
  0
LINE
  5
7421
330
7335
100
AcDbEntity
  8
寸法
  6
Continuous
 62
     4
370
    -2
100
AcDbLine
 10
1480.075102979546
 20
547.0680008122871
 30
0.0
 11
1480.075102979546
 21
590.0680008122872
 31
0.0
  0
INSERT
  5
7422
330
7335
100
AcDbEntity
  8
寸法
  6
Continuous
 62
     4
370
    -2
100
AcDbBlockReference
  2
_Dot
 10
1480.075102979546
 20
546.0680008122872
 30
0.0
 50
270.0
  0
INSERT
  5
7423
330
7335
100
AcDbEntity
  8
寸法
  6
Continuous
 62
     4
370
    -2
100
AcDbBlockReference
  2
_Dot
 10
1480.075102979546
 20
591.0680008122872
 30
0.0
 50
90.0
  0
MTEXT
  5
7424
330
7335
100
AcDbEntity
  8
寸法
  6
Continuous
 62
     3
100
AcDbMText
 10
1476.775102979545
 20
568.5680008122874
 30
0.0
 40
5.0
 41
0.0
 71
     5
 72
     5
  1
\A1;45
  7
ACAD
 11
0.0000000000000001
 21
1.0
 31
0.0
 73
     1
 44
1.0
1001
ACAD
1000
MTEXTBEGIN
1070
    73
1070
     1
1070
    44
1040
1.0
1070
    74
1070
     0
1000
MTEXTEND
  0
POINT
  5
7425
330
7335
100
AcDbEntity
  8
Defpoints
  6
Continuous
 62
     0
100
AcDbPoint
 10
1467.869440979546
 20
546.0680008122872
 30
0.0
  0
POINT
  5
7426
330
7335
100
AcDbEntity
  8
Defpoints
  6
Continuous
 62
     0
100
AcDbPoint
 10
1469.369440979546
 20
591.0680008122872
 30
0.0
  0
POINT
  5
7427
330
7335
100
AcDbEntity
  8
Defpoints
  6
Continuous
 62
     0
100
AcDbPoint
 10
1480.075102979546
 20
591.0680008122872
 30
0.0
  0
ENDBLK
  5
7340
330
7335
100
AcDbEntity
  8
0
100
AcDbBlockEnd
  0
BLOCK
  5
734B
330
7341
100
AcDbEntity
  8
0
100
AcDbBlockBegin
  2
*D47
 70
     1
 10
0.0
 20
0.0
 30
0.0
  3
*D47
  1

  0
LINE
  5
7428
330
7341
100
AcDbEntity
  8
寸法
  6
Continuous
 62
     4
370
    -2
100
AcDbLine
 10
1567.542093979546
 20
546.0680008122872
 30
0.0
 11
1580.047755979546
 21
546.0680008122872
 31
0.0
  0
LINE
  5
7429
330
7341
100
AcDbEntity
  8
寸法
  6
Continuous
 62
     4
370
    -2
100
AcDbLine
 10
1569.042093979546
 20
591.0680008122872
 30
0.0
 11
1580.047755979546
 21
591.0680008122872
 31
0.0
  0
LINE
  5
742A
330
7341
100
AcDbEntity
  8
寸法
  6
Continuous
 62
     4
370
    -2
100
AcDbLine
 10
1580.047755979546
 20
547.0680008122871
 30
0.0
 11
1580.047755979546
 21
590.0680008122872
 31
0.0
  0
INSERT
  5
742B
330
7341
100
AcDbEntity
  8
寸法
  6
Continuous
 62
     4
370
    -2
100
AcDbBlockReference
  2
_Dot
 10
1580.047755979546
 20
546.0680008122872
 30
0.0
 50
270.0
  0
INSERT
  5
742C
330
7341
100
AcDbEntity
  8
寸法
  6
Continuous
 62
     4
370
    -2
100
AcDbBlockReference
  2
_Dot
 10
1580.047755979546
 20
591.0680008122872
 30
0.0
 50
90.0
  0
MTEXT
  5
742D
330
7341
100
AcDbEntity
  8
寸法
  6
Continuous
 62
     3
100
AcDbMText
 10
1576.747755979545
 20
568.5680008122874
 30
0.0
 40
5.0
 41
0.0
 71
     5
 72
     5
  1
\A1;45
  7
ACAD
 11
0.0000000000000001
 21
1.0
 31
0.0
 73
     1
 44
1.0
1001
ACAD
1000
MTEXTBEGIN
1070
    73
1070
     1
1070
    44
1040
1.0
1070
    74
1070
     0
1000
MTEXTEND
  0
POINT
  5
742E
330
7341
100
AcDbEntity
  8
Defpoints
  6
Continuous
 62
     0
100
AcDbPoint
 10
1567.542093979546
 20
546.0680008122872
 30
0.0
  0
POINT
  5
742F
330
7341
100
AcDbEntity
  8
Defpoints
  6
Continuous
 62
     0
100
AcDbPoint
 10
1569.042093979546
 20
591.0680008122872
 30
0.0
  0
POINT
  5
7430
330
7341
100
AcDbEntity
  8
Defpoints
  6
Continuous
 62
     0
100
AcDbPoint
 10
1580.047755979546
 20
591.0680008122872
 30
0.0
  0
ENDBLK
  5
734C
330
7341
100
AcDbEntity
  8
0
100
AcDbBlockEnd
  0
BLOCK
  5
7357
330
734D
100
AcDbEntity
  8
0
100
AcDbBlockBegin
  2
*D48
 70
     1
 10
0.0
 20
0.0
 30
0.0
  3
*D48
  1

  0
LINE
  5
7431
330
734D
100
AcDbEntity
  8
寸法
  6
Continuous
 62
     4
370
    -2
100
AcDbLine
 10
1686.010460979546
 20
510.8906228122869
 30
0.0
 11
1694.216121979546
 21
510.8906228122869
 31
0.0
  0
LINE
  5
7432
330
734D
100
AcDbEntity
  8
寸法
  6
Continuous
 62
     4
370
    -2
100
AcDbLine
 10
1684.273504979546
 20
470.8878468122866
 30
0.0
 11
1694.216121979546
 21
470.8878468122866
 31
0.0
  0
LINE
  5
7433
330
734D
100
AcDbEntity
  8
寸法
  6
Continuous
 62
     4
370
    -2
100
AcDbLine
 10
1694.216121979546
 20
509.8906228122869
 30
0.0
 11
1694.216121979546
 21
471.8878468122865
 31
0.0
  0
INSERT
  5
7434
330
734D
100
AcDbEntity
  8
寸法
  6
Continuous
 62
     4
370
    -2
100
AcDbBlockReference
  2
_Dot
 10
1694.216121979546
 20
510.8906228122869
 30
0.0
 50
90.0
  0
INSERT
  5
7435
330
734D
100
AcDbEntity
  8
寸法
  6
Continuous
 62
     4
370
    -2
100
AcDbBlockReference
  2
_Dot
 10
1694.216121979546
 20
470.8878468122866
 30
0.0
 50
270.0
  0
MTEXT
  5
7436
330
734D
100
AcDbEntity
  8
寸法
  6
Continuous
 62
     3
100
AcDbMText
 10
1690.916121979546
 20
490.889234812287
 30
0.0
 40
5.0
 41
0.0
 71
     5
 72
     5
  1
\A1;40
  7
ACAD
 11
0.0000000000000001
 21
1.0
 31
0.0
 73
     1
 44
1.0
1001
ACAD
1000
MTEXTBEGIN
1070
    73
1070
     1
1070
    44
1040
1.0
1070
    74
1070
     0
1000
MTEXTEND
  0
POINT
  5
7437
330
734D
100
AcDbEntity
  8
Defpoints
  6
Continuous
 62
     0
100
AcDbPoint
 10
1686.010460979546
 20
510.8906228122869
 30
0.0
  0
POINT
  5
7438
330
734D
100
AcDbEntity
  8
Defpoints
  6
Continuous
 62
     0
100
AcDbPoint
 10
1684.273504979546
 20
470.8878468122866
 30
0.0
  0
POINT
  5
7439
330
734D
100
AcDbEntity
  8
Defpoints
  6
Continuous
 62
     0
100
AcDbPoint
 10
1694.216121979546
 20
470.8878468122866
 30
0.0
  0
ENDBLK
  5
7358
330
734D
100
AcDbEntity
  8
0
100
AcDbBlockEnd
  0
BLOCK
  5
7363
330
7359
100
AcDbEntity
  8
0
100
AcDbBlockBegin
  2
*D49
 70
     1
 10
0.0
 20
0.0
 30
0.0
  3
*D49
  1

  0
LINE
  5
743A
330
7359
100
AcDbEntity
  8
寸法
  6
Continuous
 62
     4
370
    -2
100
AcDbLine
 10
1664.587992979546
 20
386.432503812287
 30
0.0
 11
1664.587992979546
 21
377.6334018122871
 31
0.0
  0
LINE
  5
743B
330
7359
100
AcDbEntity
  8
寸法
  6
Continuous
 62
     4
370
    -2
100
AcDbLine
 10
1674.587992979545
 20
383.932503812287
 30
0.0
 11
1674.587992979545
 21
377.6334018122871
 31
0.0
  0
LINE
  5
743C
330
7359
100
AcDbEntity
  8
寸法
  6
Continuous
 62
     4
370
    -2
100
AcDbLine
 10
1665.587992979546
 20
377.6334018122871
 30
0.0
 11
1673.587992979546
 21
377.6334018122871
 31
0.0
  0
INSERT
  5
743D
330
7359
100
AcDbEntity
  8
寸法
  6
Continuous
 62
     4
370
    -2
100
AcDbBlockReference
  2
_Dot
 10
1664.587992979546
 20
377.6334018122871
 30
0.0
 50
180.0
  0
INSERT
  5
743E
330
7359
100
AcDbEntity
  8
寸法
  6
Continuous
 62
     4
370
    -2
100
AcDbBlockReference
  2
_Dot
 10
1674.587992979545
 20
377.6334018122871
 30
0.0
  0
MTEXT
  5
743F
330
7359
100
AcDbEntity
  8
寸法
  6
Continuous
 62
     3
100
AcDbMText
 10
1669.587992979546
 20
380.933401812287
 30
0.0
 40
5.0
 41
0.0
 71
     5
 72
     5
  1
\A1;10
  7
ACAD
 73
     1
 44
1.0
1001
ACAD
1000
MTEXTBEGIN
1070
    73
1070
     1
1070
    44
1040
1.0
1070
    74
1070
     0
1000
MTEXTEND
  0
POINT
  5
7440
330
7359
100
AcDbEntity
  8
Defpoints
  6
Continuous
 62
     0
100
AcDbPoint
 10
1664.587992979546
 20
386.432503812287
 30
0.0
  0
POINT
  5
7441
330
7359
100
AcDbEntity
  8
Defpoints
  6
Continuous
 62
     0
100
AcDbPoint
 10
1674.587992979545
 20
383.932503812287
 30
0.0
  0
POINT
  5
7442
330
7359
100
AcDbEntity
  8
Defpoints
  6
Continuous
 62
     0
100
AcDbPoint
 10
1674.587992979545
 20
377.6334018122871
 30
0.0
  0
ENDBLK
  5
7364
330
7359
100
AcDbEntity
  8
0
100
AcDbBlockEnd
  0
BLOCK
  5
736F
330
7365
100
AcDbEntity
  8
0
100
AcDbBlockBegin
  2
*D50
 70
     1
 10
0.0
 20
0.0
 30
0.0
  3
*D50
  1

  0
LINE
  5
7443
330
7365
100
AcDbEntity
  8
寸法
  6
Continuous
 62
     4
370
    -2
100
AcDbLine
 10
1675.587992979546
 20
409.9325038122869
 30
0.0
 11
1681.153744979546
 21
409.9325038122869
 31
0.0
  0
LINE
  5
7444
330
7365
100
AcDbEntity
  8
寸法
  6
Continuous
 62
     4
370
    -2
100
AcDbLine
 10
1675.587992979546
 20
384.932503812287
 30
0.0
 11
1681.153744979546
 21
384.932503812287
 31
0.0
  0
LINE
  5
7445
330
7365
100
AcDbEntity
  8
寸法
  6
Continuous
 62
     4
370
    -2
100
AcDbLine
 10
1681.153744979546
 20
408.9325038122869
 30
0.0
 11
1681.153744979546
 21
385.932503812287
 31
0.0
  0
INSERT
  5
7446
330
7365
100
AcDbEntity
  8
寸法
  6
Continuous
 62
     4
370
    -2
100
AcDbBlockReference
  2
_Dot
 10
1681.153744979546
 20
409.9325038122869
 30
0.0
 50
90.0
  0
INSERT
  5
7447
330
7365
100
AcDbEntity
  8
寸法
  6
Continuous
 62
     4
370
    -2
100
AcDbBlockReference
  2
_Dot
 10
1681.153744979546
 20
384.932503812287
 30
0.0
 50
270.0
  0
MTEXT
  5
7448
330
7365
100
AcDbEntity
  8
寸法
  6
Continuous
 62
     3
100
AcDbMText
 10
1677.853744979546
 20
397.4325038122873
 30
0.0
 40
5.0
 41
0.0
 71
     5
 72
     5
  1
\A1;25
  7
ACAD
 11
0.0000000000000001
 21
1.0
 31
0.0
 73
     1
 44
1.0
1001
ACAD
1000
MTEXTBEGIN
1070
    73
1070
     1
1070
    44
1040
1.0
1070
    74
1070
     0
1000
MTEXTEND
  0
POINT
  5
7449
330
7365
100
AcDbEntity
  8
Defpoints
  6
Continuous
 62
     0
100
AcDbPoint
 10
1675.587992979546
 20
409.9325038122869
 30
0.0
  0
POINT
  5
744A
330
7365
100
AcDbEntity
  8
Defpoints
  6
Continuous
 62
     0
100
AcDbPoint
 10
1675.587992979546
 20
384.932503812287
 30
0.0
  0
POINT
  5
744B
330
7365
100
AcDbEntity
  8
Defpoints
  6
Continuous
 62
     0
100
AcDbPoint
 10
1681.153744979546
 20
384.932503812287
 30
0.0
  0
ENDBLK
  5
7370
330
7365
100
AcDbEntity
  8
0
100
AcDbBlockEnd
  0
BLOCK
  5
737B
330
7371
100
AcDbEntity
  8
0
100
AcDbBlockBegin
  2
*D51
 70
     1
 10
0.0
 20
0.0
 30
0.0
  3
*D51
  1

  0
LINE
  5
744C
330
7371
100
AcDbEntity
  8
寸法
  6
Continuous
 62
     4
370
    -2
100
AcDbLine
 10
1684.010460979546
 20
591.0680008122872
 30
0.0
 11
1694.216121979546
 21
591.0680008122872
 31
0.0
  0
LINE
  5
744D
330
7371
100
AcDbEntity
  8
寸法
  6
Continuous
 62
     4
370
    -2
100
AcDbLine
 10
1682.010460979546
 20
546.0680008122872
 30
0.0
 11
1694.216121979546
 21
546.0680008122872
 31
0.0
  0
LINE
  5
744E
330
7371
100
AcDbEntity
  8
寸法
  6
Continuous
 62
     4
370
    -2
100
AcDbLine
 10
1694.216121979546
 20
590.0680008122872
 30
0.0
 11
1694.216121979546
 21
547.0680008122871
 31
0.0
  0
INSERT
  5
744F
330
7371
100
AcDbEntity
  8
寸法
  6
Continuous
 62
     4
370
    -2
100
AcDbBlockReference
  2
_Dot
 10
1694.216121979546
 20
591.0680008122872
 30
0.0
 50
90.0
  0
INSERT
  5
7450
330
7371
100
AcDbEntity
  8
寸法
  6
Continuous
 62
     4
370
    -2
100
AcDbBlockReference
  2
_Dot
 10
1694.216121979546
 20
546.0680008122872
 30
0.0
 50
270.0
  0
MTEXT
  5
7451
330
7371
100
AcDbEntity
  8
寸法
  6
Continuous
 62
     3
100
AcDbMText
 10
1690.916121979546
 20
568.5680008122874
 30
0.0
 40
5.0
 41
0.0
 71
     5
 72
     5
  1
\A1;45
  7
ACAD
 11
0.0000000000000001
 21
1.0
 31
0.0
 73
     1
 44
1.0
1001
ACAD
1000
MTEXTBEGIN
1070
    73
1070
     1
1070
    44
1040
1.0
1070
    74
1070
     0
1000
MTEXTEND
  0
POINT
  5
7452
330
7371
100
AcDbEntity
  8
Defpoints
  6
Continuous
 62
     0
100
AcDbPoint
 10
1684.010460979546
 20
591.0680008122872
 30
0.0
  0
POINT
  5
7453
330
7371
100
AcDbEntity
  8
Defpoints
  6
Continuous
 62
     0
100
AcDbPoint
 10
1682.010460979546
 20
546.0680008122872
 30
0.0
  0
POINT
  5
7454
330
7371
100
AcDbEntity
  8
Defpoints
  6
Continuous
 62
     0
100
AcDbPoint
 10
1694.216121979546
 20
546.0680008122872
 30
0.0
  0
ENDBLK
  5
737C
330
7371
100
AcDbEntity
  8
0
100
AcDbBlockEnd
  0
ENDSEC
  0
SECTION
  2
ENTITIES
  0
DIMENSION
  5
6F19
330
1E
100
AcDbEntity
  8
寸法
  6
Continuous
100
AcDbDimension
  2
*D28
 10
1685.010460979546
 20
458.2391248122867
 30
0.0
 11
1639.010460979546
 21
461.5391248122867
 31
0.0
 70
    32
 71
     5
 42
-1.0
  3
AutoCAD
100
AcDbAlignedDimension
 13
1593.010460979546
 23
471.6406228122869
 33
0.0
 14
1685.010460979546
 24
471.6406228122869
 34
0.0
100
AcDbRotatedDimension
1001
ACAD
1000
DSTYLE
1002
{
1070
   147
1040
0.8
1070
   140
1040
10.0
1002
}
  0
DIMENSION
  5
6F1A
330
1E
100
AcDbEntity
  8
寸法
  6
Continuous
100
AcDbDimension
  2
*D29
 10
1684.010460979546
 20
533.5166698122866
 30
0.0
 11
1639.010460979546
 21
536.8166698122865
 31
0.0
 70
    32
 71
     5
 42
-1.0
  3
AutoCAD
100
AcDbAlignedDimension
 13
1594.010460979546
 23
548.0680008122872
 33
0.0
 14
1684.010460979546
 24
548.0680008122872
 34
0.0
100
AcDbRotatedDimension
1001
ACAD
1000
DSTYLE
1002
{
1070
   147
1040
0.8
1070
   140
1040
10.0
1002
}
  0
LINE
  5
6F1B
330
1E
100
AcDbEntity
  8
製品
  6
Continuous
 62
     4
100
AcDbLine
 10
1676.548579979546
 20
548.3680008122864
 30
0.0
 11
1601.472340979546
 21
548.3680008122864
 31
0.0
  0
LINE
  5
6F1C
330
1E
100
AcDbEntity
  8
製品
  6
Continuous
 62
     4
100
AcDbLine
 10
1601.851485979546
 20
547.5680008122871
 30
0.0
 11
1676.169434979546
 21
547.5680008122871
 31
0.0
  0
LINE
  5
6F1D
330
1E
100
AcDbEntity
  8
製品
  6
Continuous
 62
     4
100
AcDbLine
 10
1594.747415979546
 20
471.690622812287
 30
0.0
 11
1683.273504979546
 21
471.690622812287
 31
0.0
  0
LINE
  5
6F1E
330
1E
100
AcDbEntity
  8
製品
  6
Continuous
 62
     4
100
AcDbLine
 10
1594.747415979546
 20
470.8906228122868
 30
0.0
 11
1683.273504979546
 21
470.8906228122868
 31
0.0
  0
LINE
  5
6F1F
330
1E
100
AcDbEntity
  8
文字-記号
  6
Continuous
 62
     7
100
AcDbLine
 10
1311.238407979546
 20
623.1827308122865
 30
0.0
 11
1698.405074979546
 21
623.1827308122865
 31
0.0
  0
LINE
  5
6F20
330
1E
100
AcDbEntity
  8
文字-記号
  6
Continuous
 62
     7
100
AcDbLine
 10
1311.238407979546
 20
363.7058788122867
 30
0.0
 11
1698.405074979546
 21
363.7058788122867
 31
0.0
  0
LINE
  5
6F21
330
1E
100
AcDbEntity
  8
文字-記号
  6
Continuous
 62
     4
100
AcDbLine
 10
1311.238407979546
 20
449.741739812287
 30
0.0
 11
1698.405074979546
 21
449.741739812287
 31
0.0
  0
DIMENSION
  5
6F22
330
1E
100
AcDbEntity
  8
寸法
  6
Continuous
100
AcDbDimension
  2
*D30
 10
1432.630136979546
 20
372.8698368122869
 30
0.0
 11
1382.630136979546
 21
376.1698368122869
 31
0.0
 70
    32
 71
     5
 42
-1.0
  3
AutoCAD
100
AcDbAlignedDimension
 13
1332.630136979546
 23
387.8213348122872
 33
0.0
 14
1432.630136979546
 24
387.8213348122872
 34
0.0
100
AcDbRotatedDimension
1001
ACAD
1000
DSTYLE
1002
{
1070
   147
1040
0.8
1070
   140
1040
10.0
1002
}
  0
DIMENSION
  5
6F23
330
1E
100
AcDbEntity
  8
寸法
  6
Continuous
100
AcDbDimension
  2
*D31
 10
1376.316421979546
 20
457.9182106753514
 30
0.0
 11
1350.316421979546
 21
461.2182106753515
 31
0.0
 70
    32
 71
     5
 42
-1.0
  3
AutoCAD
100
AcDbAlignedDimension
 13
1324.316421979546
 23
471.8538938122865
 33
0.0
 14
1376.316421979546
 24
471.8538938122865
 34
0.0
100
AcDbRotatedDimension
1001
ACAD
1000
DSTYLE
1002
{
1070
   147
1040
0.8
1070
   140
1040
10.0
1002
}
  0
DIMENSION
  5
6F24
330
1E
100
AcDbEntity
  8
寸法
  6
Continuous
100
AcDbDimension
  2
*D32
 10
1375.316421979546
 20
533.2166698122864
 30
0.0
 11
1350.316421979546
 21
536.5166698122863
 31
0.0
 70
    32
 71
     5
 42
-1.0
  3
AutoCAD
100
AcDbAlignedDimension
 13
1325.316421979546
 23
548.0680008122872
 33
0.0
 14
1375.316421979546
 24
548.0680008122872
 34
0.0
100
AcDbRotatedDimension
1001
ACAD
1000
DSTYLE
1002
{
1070
   147
1040
0.8
1070
   140
1040
10.0
1002
}
  0
ARC
  5
6F25
330
1E
100
AcDbEntity
  8
製品
  6
Continuous
 62
     4
100
AcDbCircle
 10
1371.316421979546
 20
588.0680008122872
 30
0.0
 40
2.2
100
AcDbArc
 50
90.0
 51
180.0
  0
LINE
  5
6F26
330
1E
100
AcDbEntity
  8
製品
  6
Continuous
 62
     4
100
AcDbLine
 10
1368.316421979546
 20
585.5680008122872
 30
0.0
 11
1369.116421979546
 21
585.5680008122872
 31
0.0
  0
ARC
  5
6F27
330
1E
100
AcDbEntity
  8
製品
  6
Continuous
 62
     4
100
AcDbCircle
 10
1371.316421979546
 20
588.0680008122872
 30
0.0
 40
3.0
100
AcDbArc
 50
90.0
 51
180.0
  0
LINE
  5
6F28
330
1E
100
AcDbEntity
  8
製品
  6
Continuous
 62
     4
100
AcDbLine
 10
1368.836036979546
 20
546.768000812287
 30
0.0
 11
1367.912276979546
 21
548.3680008122864
 31
0.0
  0
LINE
  5
6F29
330
1E
100
AcDbEntity
  8
製品
  6
Continuous
 62
     4
100
AcDbLine
 10
1372.316421979546
 20
546.0680008122872
 30
0.0
 11
1368.316421979546
 21
546.0680008122872
 31
0.0
  0
LINE
  5
6F2A
330
1E
100
AcDbEntity
  8
製品
  6
Continuous
 62
     4
100
AcDbLine
 10
1326.053377979546
 20
471.690622812287
 30
0.0
 11
1374.566421979546
 21
471.690622812287
 31
0.0
  0
LINE
  5
6F2B
330
1E
100
AcDbEntity
  8
製品
  6
Continuous
 62
     4
100
AcDbLine
 10
1326.053377979546
 20
470.8906228122868
 30
0.0
 11
1374.566421979546
 21
470.8906228122868
 31
0.0
  0
TEXT
  5
6F2C
330
1E
100
AcDbEntity
  8
文字-記号
  6
Continuous
 62
     4
100
AcDbText
 10
1366.987776979546
 20
426.6940978122866
 30
0.0
 40
5.0
  1
ＷＳ１００
 41
0.8
  7
ACAD
100
AcDbText
  0
LINE
  5
6F2D
330
1E
100
AcDbEntity
  8
製品
  6
Continuous
 62
     4
100
AcDbLine
 10
1425.168256979546
 20
388.1213348122865
 30
0.0
 11
1340.092016979546
 21
388.1213348122865
 31
0.0
  0
LINE
  5
6F2E
330
1E
100
AcDbEntity
  8
製品
  6
Continuous
 62
     4
100
AcDbLine
 10
1340.471162979546
 20
387.3213348122872
 30
0.0
 11
1424.789110979546
 21
387.3213348122872
 31
0.0
  0
LINE
  5
6F2F
330
1E
100
AcDbEntity
  8
文字-記号
  6
Continuous
 62
     7
100
AcDbLine
 10
1311.238407979546
 20
623.1827308122865
 30
0.0
 11
1311.238407979546
 21
363.7058788122867
 31
0.0
  0
ARC
  5
6F30
330
1E
100
AcDbEntity
  8
製品
  6
Continuous
 62
     4
100
AcDbCircle
 10
1334.130136979546
 20
429.3213348122872
 30
0.0
 40
1.5
100
AcDbArc
 50
90.0
 51
180.0
  0
LINE
  5
6F31
330
1E
100
AcDbEntity
  8
製品
  6
Continuous
 62
     4
100
AcDbLine
 10
1332.630136979546
 20
425.8213348122872
 30
0.0
 11
1333.330136979546
 21
424.3213348122871
 31
0.0
  0
LINE
  5
6F32
330
1E
100
AcDbEntity
  8
製品
  6
Continuous
 62
     4
100
AcDbLine
 10
1332.630136979546
 20
422.8213348122872
 30
0.0
 11
1333.330136979546
 21
421.3213348122872
 31
0.0
  0
LINE
  5
6F33
330
1E
100
AcDbEntity
  8
製品
  6
Continuous
 62
     4
100
AcDbLine
 10
1333.330136979546
 20
421.3213348122872
 30
0.0
 11
1332.630136979546
 21
419.8213348122871
 31
0.0
  0
LINE
  5
6F34
330
1E
100
AcDbEntity
  8
製品
  6
Continuous
 62
     4
100
AcDbLine
 10
1332.630136979546
 20
419.8213348122871
 30
0.0
 11
1333.330136979546
 21
418.3213348122872
 31
0.0
  0
LINE
  5
6F35
330
1E
100
AcDbEntity
  8
製品
  6
Continuous
 62
     4
100
AcDbLine
 10
1333.330136979546
 20
424.3213348122871
 30
0.0
 11
1332.630136979546
 21
422.8213348122872
 31
0.0
  0
LINE
  5
6F36
330
1E
100
AcDbEntity
  8
製品
  6
Continuous
 62
     4
100
AcDbLine
 10
1332.630136979546
 20
416.8213348122872
 30
0.0
 11
1333.330136979546
 21
415.3213348122871
 31
0.0
  0
LINE
  5
6F37
330
1E
100
AcDbEntity
  8
製品
  6
Continuous
 62
     4
100
AcDbLine
 10
1333.330136979546
 20
415.3213348122871
 30
0.0
 11
1332.630136979546
 21
413.8213348122872
 31
0.0
  0
LINE
  5
6F38
330
1E
100
AcDbEntity
  8
製品
  6
Continuous
 62
     4
100
AcDbLine
 10
1333.330136979546
 20
412.3213348122872
 30
0.0
 11
1332.630136979546
 21
410.8213348122871
 31
0.0
  0
LINE
  5
6F39
330
1E
100
AcDbEntity
  8
製品
  6
Continuous
 62
     4
100
AcDbLine
 10
1332.630136979546
 20
409.6213348122864
 30
0.0
 11
1333.330136979546
 21
408.3213348122872
 31
0.0
  0
LINE
  5
6F3A
330
1E
100
AcDbEntity
  8
製品
  6
Continuous
 62
     4
100
AcDbLine
 10
1332.630136979546
 20
413.8213348122872
 30
0.0
 11
1333.330136979546
 21
412.3213348122872
 31
0.0
  0
LINE
  5
6F3B
330
1E
100
AcDbEntity
  8
製品
  6
Continuous
 62
     4
100
AcDbLine
 10
1333.330136979546
 20
418.3213348122872
 30
0.0
 11
1332.630136979546
 21
416.8213348122872
 31
0.0
  0
TEXT
  5
6F3C
330
1E
100
AcDbEntity
  8
文字-記号
  6
Continuous
 62
     4
100
AcDbText
 10
1314.548318979546
 20
440.9512468122866
 30
0.0
 40
5.0
  1
ＪＩＳ１００
 41
0.8
  7
ACAD
100
AcDbText
  0
LINE
  5
6F3D
330
1E
100
AcDbEntity
  8
製品
  6
Continuous
 62
     4
100
AcDbLine
 10
1332.630136979546
 20
402.8213348122871
 30
0.0
 11
1333.330136979546
 21
404.3213348122872
 31
0.0
  0
LINE
  5
6F3E
330
1E
100
AcDbEntity
  8
製品
  6
Continuous
 62
     4
100
AcDbLine
 10
1333.330136979546
 20
404.3213348122872
 30
0.0
 11
1332.630136979546
 21
405.8213348122872
 31
0.0
  0
LINE
  5
6F3F
330
1E
100
AcDbEntity
  8
製品
  6
Continuous
 62
     4
100
AcDbLine
 10
1333.330136979546
 20
398.3213348122872
 30
0.0
 11
1332.630136979546
 21
399.8213348122872
 31
0.0
  0
LINE
  5
6F40
330
1E
100
AcDbEntity
  8
製品
  6
Continuous
 62
     4
100
AcDbLine
 10
1332.630136979546
 20
399.8213348122872
 30
0.0
 11
1333.330136979546
 21
401.3213348122872
 31
0.0
  0
LINE
  5
6F41
330
1E
100
AcDbEntity
  8
製品
  6
Continuous
 62
     4
100
AcDbLine
 10
1333.330136979546
 20
401.3213348122872
 30
0.0
 11
1332.630136979546
 21
402.8213348122871
 31
0.0
  0
LINE
  5
6F42
330
1E
100
AcDbEntity
  8
製品
  6
Continuous
 62
     4
100
AcDbLine
 10
1333.330136979546
 20
392.3213348122872
 30
0.0
 11
1332.630136979546
 21
393.8213348122872
 31
0.0
  0
LINE
  5
6F43
330
1E
100
AcDbEntity
  8
製品
  6
Continuous
 62
     4
100
AcDbLine
 10
1332.630136979546
 20
393.8213348122872
 30
0.0
 11
1333.330136979546
 21
395.3213348122872
 31
0.0
  0
LINE
  5
6F44
330
1E
100
AcDbEntity
  8
製品
  6
Continuous
 62
     4
100
AcDbLine
 10
1333.330136979546
 20
395.3213348122872
 30
0.0
 11
1332.630136979546
 21
396.8213348122872
 31
0.0
  0
LINE
  5
6F45
330
1E
100
AcDbEntity
  8
製品
  6
Continuous
 62
     4
100
AcDbLine
 10
1332.630136979546
 20
390.8213348122872
 30
0.0
 11
1333.330136979546
 21
392.3213348122872
 31
0.0
  0
LINE
  5
6F46
330
1E
100
AcDbEntity
  8
製品
  6
Continuous
 62
     4
100
AcDbLine
 10
1332.630136979546
 20
396.8213348122872
 30
0.0
 11
1333.330136979546
 21
398.3213348122872
 31
0.0
  0
ARC
  5
6F47
330
1E
100
AcDbEntity
  8
製品
  6
Continuous
 62
     4
100
AcDbCircle
 10
1335.630136979546
 20
388.8213348122872
 30
0.0
 40
3.0
100
AcDbArc
 50
180.0
 51
270.0
  0
LINE
  5
6F48
330
1E
100
AcDbEntity
  8
製品
  6
Continuous
 62
     4
100
AcDbLine
 10
1332.630136979546
 20
407.0213348122869
 30
0.0
 11
1333.330136979546
 21
408.3213348122872
 31
0.0
  0
LINE
  5
6F49
330
1E
100
AcDbEntity
  8
製品
  6
Continuous
 62
     4
100
AcDbLine
 10
1332.630136979546
 20
409.6213348122864
 30
0.0
 11
1332.630136979546
 21
410.8213348122871
 31
0.0
  0
LINE
  5
6F4A
330
1E
100
AcDbEntity
  8
製品
  6
Continuous
 62
     4
100
AcDbLine
 10
1332.630136979546
 20
407.0213348122869
 30
0.0
 11
1332.630136979546
 21
405.8213348122872
 31
0.0
  0
LINE
  5
6F4B
330
1E
100
AcDbEntity
  8
製品
  6
Continuous
 62
     4
100
AcDbLine
 10
1332.630136979546
 20
390.8213348122872
 30
0.0
 11
1332.630136979546
 21
388.8213348122872
 31
0.0
  0
LINE
  5
6F4C
330
1E
100
AcDbEntity
  8
製品
  6
Continuous
 62
     4
100
AcDbLine
 10
1325.116421979546
 20
510.8933988122871
 30
0.0
 11
1324.316762979546
 21
510.8933988122871
 31
0.0
  0
ARC
  5
6F4D
330
1E
100
AcDbEntity
  8
製品
  6
Continuous
 62
     4
100
AcDbCircle
 10
1326.066421979546
 20
472.6406228122868
 30
0.0
 40
0.95
100
AcDbArc
 50
180.0
 51
270.0
  0
ARC
  5
6F4E
330
1E
100
AcDbEntity
  8
製品
  6
Continuous
 62
     4
100
AcDbCircle
 10
1326.066421979546
 20
472.6406228122868
 30
0.0
 40
1.75
100
AcDbArc
 50
180.0
 51
270.0
  0
LINE
  5
6F4F
330
1E
100
AcDbEntity
  8
製品
  6
Continuous
 62
     4
100
AcDbLine
 10
1332.630136979546
 20
429.3213348122872
 30
0.0
 11
1332.630136979546
 21
425.8213348122872
 31
0.0
  0
LINE
  5
6F50
330
1E
100
AcDbEntity
  8
製品
  6
Continuous
 62
     4
100
AcDbLine
 10
1325.116421979546
 20
472.6406228122868
 30
0.0
 11
1325.116421979546
 21
510.8933988122871
 31
0.0
  0
LINE
  5
6F51
330
1E
100
AcDbEntity
  8
製品
  6
Continuous
 62
     4
100
AcDbLine
 10
1324.316421979546
 20
472.6406228122868
 30
0.0
 11
1324.316421979546
 21
510.8933988122871
 31
0.0
  0
LINE
  5
6F52
330
1E
100
AcDbEntity
  8
製品
  6
Continuous
 62
     4
100
AcDbLine
 10
1334.130136979546
 20
424.3213348122871
 30
0.0
 11
1333.430136979546
 21
422.8213348122872
 31
0.0
  0
LINE
  5
6F53
330
1E
100
AcDbEntity
  8
製品
  6
Continuous
 62
     4
100
AcDbLine
 10
1334.130136979546
 20
421.3213348122872
 30
0.0
 11
1333.430136979546
 21
422.8213348122872
 31
0.0
  0
LINE
  5
6F54
330
1E
100
AcDbEntity
  8
製品
  6
Continuous
 62
     4
100
AcDbLine
 10
1334.130136979546
 20
421.3213348122872
 30
0.0
 11
1333.430136979546
 21
419.8213348122871
 31
0.0
  0
LINE
  5
6F55
330
1E
100
AcDbEntity
  8
製品
  6
Continuous
 62
     4
100
AcDbLine
 10
1333.430136979546
 20
419.8213348122871
 30
0.0
 11
1334.130136979546
 21
418.3213348122872
 31
0.0
  0
LINE
  5
6F56
330
1E
100
AcDbEntity
  8
製品
  6
Continuous
 62
     4
100
AcDbLine
 10
1333.430136979546
 20
416.8213348122872
 30
0.0
 11
1334.130136979546
 21
415.3213348122871
 31
0.0
  0
LINE
  5
6F57
330
1E
100
AcDbEntity
  8
製品
  6
Continuous
 62
     4
100
AcDbLine
 10
1334.130136979546
 20
415.3213348122871
 30
0.0
 11
1333.430136979546
 21
413.8213348122872
 31
0.0
  0
LINE
  5
6F58
330
1E
100
AcDbEntity
  8
製品
  6
Continuous
 62
     4
100
AcDbLine
 10
1333.430136979546
 20
410.8213348122871
 30
0.0
 11
1333.430136979546
 21
409.6213348122864
 31
0.0
  0
LINE
  5
6F59
330
1E
100
AcDbEntity
  8
製品
  6
Continuous
 62
     4
100
AcDbLine
 10
1334.130136979546
 20
412.3213348122872
 30
0.0
 11
1333.430136979546
 21
410.8213348122871
 31
0.0
  0
LINE
  5
6F5A
330
1E
100
AcDbEntity
  8
製品
  6
Continuous
 62
     4
100
AcDbLine
 10
1333.430136979546
 20
409.6213348122864
 30
0.0
 11
1334.130136979546
 21
408.3213348122872
 31
0.0
  0
LINE
  5
6F5B
330
1E
100
AcDbEntity
  8
製品
  6
Continuous
 62
     4
100
AcDbLine
 10
1333.430136979546
 20
413.8213348122872
 30
0.0
 11
1334.130136979546
 21
412.3213348122872
 31
0.0
  0
LINE
  5
6F5C
330
1E
100
AcDbEntity
  8
製品
  6
Continuous
 62
     4
100
AcDbLine
 10
1334.130136979546
 20
418.3213348122872
 30
0.0
 11
1333.430136979546
 21
416.8213348122872
 31
0.0
  0
LINE
  5
6F5D
330
1E
100
AcDbEntity
  8
製品
  6
Continuous
 62
     4
100
AcDbLine
 10
1339.225991979546
 20
386.6213348122865
 30
0.0
 11
1340.092016979546
 21
388.1213348122865
 31
0.0
  0
LINE
  5
6F5E
330
1E
100
AcDbEntity
  8
製品
  6
Continuous
 62
     4
100
AcDbLine
 10
1333.430136979546
 20
405.8213348122872
 30
0.0
 11
1333.430136979546
 21
407.0213348122869
 31
0.0
  0
LINE
  5
6F5F
330
1E
100
AcDbEntity
  8
製品
  6
Continuous
 62
     4
100
AcDbLine
 10
1333.430136979546
 20
402.8213348122871
 30
0.0
 11
1334.130136979546
 21
404.3213348122872
 31
0.0
  0
LINE
  5
6F60
330
1E
100
AcDbEntity
  8
製品
  6
Continuous
 62
     4
100
AcDbLine
 10
1334.130136979546
 20
404.3213348122872
 30
0.0
 11
1333.430136979546
 21
405.8213348122872
 31
0.0
  0
LINE
  5
6F61
330
1E
100
AcDbEntity
  8
製品
  6
Continuous
 62
     4
100
AcDbLine
 10
1334.130136979546
 20
398.3213348122872
 30
0.0
 11
1333.430136979546
 21
399.8213348122872
 31
0.0
  0
LINE
  5
6F62
330
1E
100
AcDbEntity
  8
製品
  6
Continuous
 62
     4
100
AcDbLine
 10
1333.430136979546
 20
399.8213348122872
 30
0.0
 11
1334.130136979546
 21
401.3213348122872
 31
0.0
  0
LINE
  5
6F63
330
1E
100
AcDbEntity
  8
製品
  6
Continuous
 62
     4
100
AcDbLine
 10
1334.130136979546
 20
401.3213348122872
 30
0.0
 11
1333.430136979546
 21
402.8213348122871
 31
0.0
  0
LINE
  5
6F64
330
1E
100
AcDbEntity
  8
製品
  6
Continuous
 62
     4
100
AcDbLine
 10
1334.130136979546
 20
392.3213348122872
 30
0.0
 11
1333.430136979546
 21
393.8213348122872
 31
0.0
  0
LINE
  5
6F65
330
1E
100
AcDbEntity
  8
製品
  6
Continuous
 62
     4
100
AcDbLine
 10
1334.130136979546
 20
395.3213348122872
 30
0.0
 11
1333.430136979546
 21
393.8213348122872
 31
0.0
  0
LINE
  5
6F66
330
1E
100
AcDbEntity
  8
製品
  6
Continuous
 62
     4
100
AcDbLine
 10
1334.130136979546
 20
395.3213348122872
 30
0.0
 11
1333.430136979546
 21
396.8213348122872
 31
0.0
  0
LINE
  5
6F67
330
1E
100
AcDbEntity
  8
製品
  6
Continuous
 62
     4
100
AcDbLine
 10
1333.430136979546
 20
390.8213348122872
 30
0.0
 11
1333.430136979546
 21
388.8213348122872
 31
0.0
  0
LINE
  5
6F68
330
1E
100
AcDbEntity
  8
製品
  6
Continuous
 62
     4
100
AcDbLine
 10
1333.430136979546
 20
390.8213348122872
 30
0.0
 11
1334.130136979546
 21
392.3213348122872
 31
0.0
  0
LINE
  5
6F69
330
1E
100
AcDbEntity
  8
製品
  6
Continuous
 62
     4
100
AcDbLine
 10
1333.430136979546
 20
396.8213348122872
 30
0.0
 11
1334.130136979546
 21
398.3213348122872
 31
0.0
  0
LINE
  5
6F6A
330
1E
100
AcDbEntity
  8
製品
  6
Continuous
 62
     4
100
AcDbLine
 10
1335.630136979546
 20
386.6213348122865
 30
0.0
 11
1339.225991979546
 21
386.6213348122865
 31
0.0
  0
LINE
  5
6F6B
330
1E
100
AcDbEntity
  8
製品
  6
Continuous
 62
     4
100
AcDbLine
 10
1335.630136979546
 20
385.8213348122872
 30
0.0
 11
1339.605136979546
 21
385.8213348122872
 31
0.0
  0
LINE
  5
6F6C
330
1E
100
AcDbEntity
  8
製品
  6
Continuous
 62
     4
100
AcDbLine
 10
1339.605136979546
 20
385.8213348122872
 30
0.0
 11
1340.471162979546
 21
387.3213348122872
 31
0.0
  0
ARC
  5
6F6D
330
1E
100
AcDbEntity
  8
製品
  6
Continuous
 62
     4
100
AcDbCircle
 10
1335.630136979546
 20
388.8213348122872
 30
0.0
 40
2.2
100
AcDbArc
 50
180.0
 51
270.0
  0
LINE
  5
6F6E
330
1E
100
AcDbEntity
  8
製品
  6
Continuous
 62
     4
100
AcDbLine
 10
1333.430136979546
 20
407.0213348122869
 30
0.0
 11
1334.130136979546
 21
408.3213348122872
 31
0.0
  0
TEXT
  5
6F6F
330
1E
100
AcDbEntity
  8
文字-記号
  6
Continuous
 62
     4
100
AcDbText
 10
1339.523283979546
 20
514.1727808122868
 30
0.0
 40
5.0
  1
ＷＲ５０
 41
0.8
  7
ACAD
100
AcDbText
  0
LINE
  5
6F70
330
1E
100
AcDbEntity
  8
製品
  6
PLINE3
 62
     3
100
AcDbLine
 10
1350.316421979546
 20
467.1169558122865
 30
0.0
 11
1350.316421979546
 21
482.3254118122868
 31
0.0
  0
LINE
  5
6F71
330
1E
100
AcDbEntity
  8
製品
  6
Continuous
 62
     4
100
AcDbLine
 10
1336.630136979546
 20
430.021334812287
 30
0.0
 11
1334.130136979546
 21
430.021334812287
 31
0.0
  0
LINE
  5
6F72
330
1E
100
AcDbEntity
  8
製品
  6
Continuous
 62
     4
100
AcDbLine
 10
1336.630136979546
 20
430.8213348122872
 30
0.0
 11
1334.130136979546
 21
430.8213348122872
 31
0.0
  0
ARC
  5
6F73
330
1E
100
AcDbEntity
  8
製品
  6
Continuous
 62
     4
100
AcDbCircle
 10
1334.130136979546
 20
429.3213348122872
 30
0.0
 40
0.7
100
AcDbArc
 50
90.0
 51
180.0
  0
LINE
  5
6F74
330
1E
100
AcDbEntity
  8
製品
  6
Continuous
 62
     4
100
AcDbLine
 10
1339.630136979546
 20
425.3213348122872
 30
0.0
 11
1338.830136979546
 21
425.3213348122872
 31
0.0
  0
LINE
  5
6F75
330
1E
100
AcDbEntity
  8
製品
  6
Continuous
 62
     4
100
AcDbLine
 10
1338.830136979546
 20
425.3213348122872
 30
0.0
 11
1338.830136979546
 21
427.8213348122871
 31
0.0
  0
LINE
  5
6F76
330
1E
100
AcDbEntity
  8
製品
  6
Continuous
 62
     4
100
AcDbLine
 10
1339.630136979546
 20
427.8213348122871
 30
0.0
 11
1339.630136979546
 21
425.3213348122872
 31
0.0
  0
LINE
  5
6F77
330
1E
100
AcDbEntity
  8
製品
  6
Continuous
 62
     4
100
AcDbLine
 10
1333.430136979546
 20
425.8213348122872
 30
0.0
 11
1334.130136979546
 21
424.3213348122871
 31
0.0
  0
ARC
  5
6F78
330
1E
100
AcDbEntity
  8
製品
  6
Continuous
 62
     4
100
AcDbCircle
 10
1336.630136979546
 20
427.8213348122871
 30
0.0
 40
2.2
100
AcDbArc
 50
0.0
 51
90.0
  0
LINE
  5
6F79
330
1E
100
AcDbEntity
  8
製品
  6
Continuous
 62
     4
100
AcDbLine
 10
1333.430136979546
 20
429.3213348122872
 30
0.0
 11
1333.430136979546
 21
425.8213348122872
 31
0.0
  0
ARC
  5
6F7A
330
1E
100
AcDbEntity
  8
製品
  6
Continuous
 62
     4
100
AcDbCircle
 10
1336.630136979546
 20
427.8213348122871
 30
0.0
 40
3.0
100
AcDbArc
 50
0.0
 51
90.0
  0
ARC
  5
6F7B
330
1E
100
AcDbEntity
  8
製品
  6
Continuous
 62
     4
100
AcDbCircle
 10
1329.316421979546
 20
588.0680008122872
 30
0.0
 40
3.0
100
AcDbArc
 50
0.0
 51
90.0
  0
TEXT
  5
6F7C
330
1E
100
AcDbEntity
  8
文字-記号
  6
Continuous
 62
     4
100
AcDbText
 10
1314.085355979546
 20
614.5623688122868
 30
0.0
 40
5.0
  1
ＪＩＳ５０
 41
0.8
  7
ACAD
100
AcDbText
  0
LINE
  5
6F7D
330
1E
100
AcDbEntity
  8
製品
  6
Continuous
 62
     4
100
AcDbLine
 10
1332.316421979546
 20
546.0680008122872
 30
0.0
 11
1333.182446979546
 21
547.5680008122871
 31
0.0
  0
LINE
  5
6F7E
330
1E
100
AcDbEntity
  8
製品
  6
Continuous
 62
     4
100
AcDbLine
 10
1367.912276979546
 20
548.3680008122864
 30
0.0
 11
1332.720566979546
 21
548.3680008122864
 31
0.0
  0
LINE
  5
6F7F
330
1E
100
AcDbEntity
  8
製品
  6
Continuous
 62
     4
100
AcDbLine
 10
1326.816421979546
 20
591.0680008122872
 30
0.0
 11
1329.316421979546
 21
591.0680008122872
 31
0.0
  0
LINE
  5
6F80
330
1E
100
AcDbEntity
  8
製品
  6
Continuous
 62
     4
100
AcDbLine
 10
1329.316421979546
 20
590.268000812287
 30
0.0
 11
1326.816421979546
 21
590.268000812287
 31
0.0
  0
ARC
  5
6F81
330
1E
100
AcDbEntity
  8
製品
  6
Continuous
 62
     4
100
AcDbCircle
 10
1326.816421979546
 20
589.5680008122872
 30
0.0
 40
0.7
100
AcDbArc
 50
90.0
 51
180.0
  0
ARC
  5
6F82
330
1E
100
AcDbEntity
  8
製品
  6
Continuous
 62
     4
100
AcDbCircle
 10
1326.816421979546
 20
589.5680008122872
 30
0.0
 40
1.5
100
AcDbArc
 50
90.0
 51
180.0
  0
ARC
  5
6F83
330
1E
100
AcDbEntity
  8
製品
  6
Continuous
 62
     4
100
AcDbCircle
 10
1329.316421979546
 20
588.0680008122872
 30
0.0
 40
2.2
100
AcDbArc
 50
0.0
 51
90.0
  0
LINE
  5
6F84
330
1E
100
AcDbEntity
  8
製品
  6
Continuous
 62
     4
100
AcDbLine
 10
1332.316421979546
 20
585.5680008122872
 30
0.0
 11
1331.516421979546
 21
585.5680008122872
 31
0.0
  0
LINE
  5
6F85
330
1E
100
AcDbEntity
  8
製品
  6
Continuous
 62
     4
100
AcDbLine
 10
1326.116421979546
 20
586.0680008122872
 30
0.0
 11
1326.816421979546
 21
584.5680008122871
 31
0.0
  0
LINE
  5
6F86
330
1E
100
AcDbEntity
  8
製品
  6
Continuous
 62
     4
100
AcDbLine
 10
1326.116421979546
 20
583.0680008122872
 30
0.0
 11
1326.816421979546
 21
584.5680008122871
 31
0.0
  0
LINE
  5
6F87
330
1E
100
AcDbEntity
  8
製品
  6
Continuous
 62
     4
100
AcDbLine
 10
1326.116421979546
 20
583.0680008122872
 30
0.0
 11
1326.816421979546
 21
581.5680008122872
 31
0.0
  0
LINE
  5
6F88
330
1E
100
AcDbEntity
  8
製品
  6
Continuous
 62
     4
100
AcDbLine
 10
1325.316421979546
 20
586.0680008122872
 30
0.0
 11
1326.016421979546
 21
584.5680008122871
 31
0.0
  0
LINE
  5
6F89
330
1E
100
AcDbEntity
  8
製品
  6
Continuous
 62
     4
100
AcDbLine
 10
1326.016421979546
 20
584.5680008122871
 30
0.0
 11
1325.316421979546
 21
583.0680008122872
 31
0.0
  0
LINE
  5
6F8A
330
1E
100
AcDbEntity
  8
製品
  6
Continuous
 62
     4
100
AcDbLine
 10
1325.316421979546
 20
583.0680008122872
 30
0.0
 11
1326.016421979546
 21
581.5680008122872
 31
0.0
  0
LINE
  5
6F8B
330
1E
100
AcDbEntity
  8
製品
  6
Continuous
 62
     4
100
AcDbLine
 10
1326.116421979546
 20
580.0680008122871
 30
0.0
 11
1326.816421979546
 21
578.5680008122872
 31
0.0
  0
LINE
  5
6F8C
330
1E
100
AcDbEntity
  8
製品
  6
Continuous
 62
     4
100
AcDbLine
 10
1326.816421979546
 20
578.5680008122872
 30
0.0
 11
1326.116421979546
 21
577.0680008122872
 31
0.0
  0
LINE
  5
6F8D
330
1E
100
AcDbEntity
  8
製品
  6
Continuous
 62
     4
100
AcDbLine
 10
1325.316421979546
 20
580.0680008122871
 30
0.0
 11
1326.016421979546
 21
578.5680008122872
 31
0.0
  0
LINE
  5
6F8E
330
1E
100
AcDbEntity
  8
製品
  6
Continuous
 62
     4
100
AcDbLine
 10
1326.016421979546
 20
578.5680008122872
 30
0.0
 11
1325.316421979546
 21
577.0680008122872
 31
0.0
  0
LINE
  5
6F8F
330
1E
100
AcDbEntity
  8
製品
  6
Continuous
 62
     4
100
AcDbLine
 10
1326.016421979546
 20
581.5680008122872
 30
0.0
 11
1325.316421979546
 21
580.0680008122871
 31
0.0
  0
LINE
  5
6F90
330
1E
100
AcDbEntity
  8
製品
  6
Continuous
 62
     4
100
AcDbLine
 10
1326.816421979546
 20
581.5680008122872
 30
0.0
 11
1326.116421979546
 21
580.0680008122871
 31
0.0
  0
LINE
  5
6F91
330
1E
100
AcDbEntity
  8
製品
  6
Continuous
 62
     4
100
AcDbLine
 10
1325.316421979546
 20
586.0680008122872
 30
0.0
 11
1325.316421979546
 21
589.5680008122872
 31
0.0
  0
LINE
  5
6F92
330
1E
100
AcDbEntity
  8
製品
  6
Continuous
 62
     4
100
AcDbLine
 10
1332.316421979546
 20
588.0680008122872
 30
0.0
 11
1332.316421979546
 21
585.5680008122872
 31
0.0
  0
LINE
  5
6F93
330
1E
100
AcDbEntity
  8
製品
  6
Continuous
 62
     4
100
AcDbLine
 10
1331.516421979546
 20
585.5680008122872
 30
0.0
 11
1331.516421979546
 21
588.0680008122872
 31
0.0
  0
LINE
  5
6F94
330
1E
100
AcDbEntity
  8
製品
  6
Continuous
 62
     4
100
AcDbLine
 10
1326.116421979546
 20
589.5680008122872
 30
0.0
 11
1326.116421979546
 21
586.0680008122872
 31
0.0
  0
LINE
  5
6F95
330
1E
100
AcDbEntity
  8
製品
  6
Continuous
 62
     4
100
AcDbLine
 10
1326.816421979546
 20
575.5680008122872
 30
0.0
 11
1326.116421979546
 21
574.0680008122872
 31
0.0
  0
LINE
  5
6F96
330
1E
100
AcDbEntity
  8
製品
  6
Continuous
 62
     4
100
AcDbLine
 10
1326.116421979546
 20
574.0680008122872
 30
0.0
 11
1326.816421979546
 21
572.5680008122871
 31
0.0
  0
LINE
  5
6F97
330
1E
100
AcDbEntity
  8
製品
  6
Continuous
 62
     4
100
AcDbLine
 10
1326.816421979546
 20
572.5680008122871
 30
0.0
 11
1326.116421979546
 21
571.0680008122872
 31
0.0
  0
LINE
  5
6F98
330
1E
100
AcDbEntity
  8
製品
  6
Continuous
 62
     4
100
AcDbLine
 10
1326.016421979546
 20
575.5680008122872
 30
0.0
 11
1325.316421979546
 21
574.0680008122872
 31
0.0
  0
LINE
  5
6F99
330
1E
100
AcDbEntity
  8
製品
  6
Continuous
 62
     4
100
AcDbLine
 10
1325.316421979546
 20
574.0680008122872
 30
0.0
 11
1326.016421979546
 21
572.5680008122871
 31
0.0
  0
LINE
  5
6F9A
330
1E
100
AcDbEntity
  8
製品
  6
Continuous
 62
     4
100
AcDbLine
 10
1326.016421979546
 20
572.5680008122871
 30
0.0
 11
1325.316421979546
 21
571.0680008122872
 31
0.0
  0
LINE
  5
6F9B
330
1E
100
AcDbEntity
  8
製品
  6
Continuous
 62
     4
100
AcDbLine
 10
1326.116421979546
 20
566.0680008122872
 30
0.0
 11
1326.116421979546
 21
567.268000812287
 31
0.0
  0
LINE
  5
6F9C
330
1E
100
AcDbEntity
  8
製品
  6
Continuous
 62
     4
100
AcDbLine
 10
1326.816421979546
 20
568.5680008122871
 30
0.0
 11
1326.116421979546
 21
567.268000812287
 31
0.0
  0
LINE
  5
6F9D
330
1E
100
AcDbEntity
  8
製品
  6
Continuous
 62
     4
100
AcDbLine
 10
1326.816421979546
 20
568.5680008122871
 30
0.0
 11
1326.116421979546
 21
569.8680008122864
 31
0.0
  0
LINE
  5
6F9E
330
1E
100
AcDbEntity
  8
製品
  6
Continuous
 62
     4
100
AcDbLine
 10
1325.316421979546
 20
566.0680008122872
 30
0.0
 11
1325.316421979546
 21
567.268000812287
 31
0.0
  0
LINE
  5
6F9F
330
1E
100
AcDbEntity
  8
製品
  6
Continuous
 62
     4
100
AcDbLine
 10
1326.016421979546
 20
568.5680008122871
 30
0.0
 11
1325.316421979546
 21
567.268000812287
 31
0.0
  0
LINE
  5
6FA0
330
1E
100
AcDbEntity
  8
製品
  6
Continuous
 62
     4
100
AcDbLine
 10
1326.016421979546
 20
568.5680008122871
 30
0.0
 11
1325.316421979546
 21
569.8680008122864
 31
0.0
  0
LINE
  5
6FA1
330
1E
100
AcDbEntity
  8
製品
  6
Continuous
 62
     4
100
AcDbLine
 10
1325.316421979546
 20
571.0680008122872
 30
0.0
 11
1325.316421979546
 21
569.8680008122864
 31
0.0
  0
LINE
  5
6FA2
330
1E
100
AcDbEntity
  8
製品
  6
Continuous
 62
     4
100
AcDbLine
 10
1326.116421979546
 20
571.0680008122872
 30
0.0
 11
1326.116421979546
 21
569.8680008122864
 31
0.0
  0
LINE
  5
6FA3
330
1E
100
AcDbEntity
  8
製品
  6
Continuous
 62
     4
100
AcDbLine
 10
1326.816421979546
 20
561.5680008122872
 30
0.0
 11
1326.116421979546
 21
563.0680008122872
 31
0.0
  0
LINE
  5
6FA4
330
1E
100
AcDbEntity
  8
製品
  6
Continuous
 62
     4
100
AcDbLine
 10
1326.116421979546
 20
563.0680008122872
 30
0.0
 11
1326.816421979546
 21
564.5680008122872
 31
0.0
  0
LINE
  5
6FA5
330
1E
100
AcDbEntity
  8
製品
  6
Continuous
 62
     4
100
AcDbLine
 10
1326.016421979546
 20
561.5680008122872
 30
0.0
 11
1325.316421979546
 21
563.0680008122872
 31
0.0
  0
LINE
  5
6FA6
330
1E
100
AcDbEntity
  8
製品
  6
Continuous
 62
     4
100
AcDbLine
 10
1325.316421979546
 20
563.0680008122872
 30
0.0
 11
1326.016421979546
 21
564.5680008122872
 31
0.0
  0
LINE
  5
6FA7
330
1E
100
AcDbEntity
  8
製品
  6
Continuous
 62
     4
100
AcDbLine
 10
1326.816421979546
 20
555.5680008122871
 30
0.0
 11
1326.116421979546
 21
557.0680008122872
 31
0.0
  0
LINE
  5
6FA8
330
1E
100
AcDbEntity
  8
製品
  6
Continuous
 62
     4
100
AcDbLine
 10
1326.116421979546
 20
557.0680008122872
 30
0.0
 11
1326.816421979546
 21
558.5680008122872
 31
0.0
  0
LINE
  5
6FA9
330
1E
100
AcDbEntity
  8
製品
  6
Continuous
 62
     4
100
AcDbLine
 10
1326.816421979546
 20
558.5680008122872
 30
0.0
 11
1326.116421979546
 21
560.0680008122871
 31
0.0
  0
LINE
  5
6FAA
330
1E
100
AcDbEntity
  8
製品
  6
Continuous
 62
     4
100
AcDbLine
 10
1326.016421979546
 20
555.5680008122871
 30
0.0
 11
1325.316421979546
 21
557.0680008122872
 31
0.0
  0
LINE
  5
6FAB
330
1E
100
AcDbEntity
  8
製品
  6
Continuous
 62
     4
100
AcDbLine
 10
1325.316421979546
 20
557.0680008122872
 30
0.0
 11
1326.016421979546
 21
558.5680008122872
 31
0.0
  0
LINE
  5
6FAC
330
1E
100
AcDbEntity
  8
製品
  6
Continuous
 62
     4
100
AcDbLine
 10
1326.016421979546
 20
558.5680008122872
 30
0.0
 11
1325.316421979546
 21
560.0680008122871
 31
0.0
  0
LINE
  5
6FAD
330
1E
100
AcDbEntity
  8
製品
  6
Continuous
 62
     4
100
AcDbLine
 10
1326.116421979546
 20
560.0680008122871
 30
0.0
 11
1326.816421979546
 21
561.5680008122872
 31
0.0
  0
LINE
  5
6FAE
330
1E
100
AcDbEntity
  8
製品
  6
Continuous
 62
     4
100
AcDbLine
 10
1325.316421979546
 20
560.0680008122871
 30
0.0
 11
1326.016421979546
 21
561.5680008122872
 31
0.0
  0
LINE
  5
6FAF
330
1E
100
AcDbEntity
  8
製品
  6
Continuous
 62
     4
100
AcDbLine
 10
1326.016421979546
 20
564.5680008122872
 30
0.0
 11
1325.316421979546
 21
566.0680008122872
 31
0.0
  0
LINE
  5
6FB0
330
1E
100
AcDbEntity
  8
製品
  6
Continuous
 62
     4
100
AcDbLine
 10
1326.816421979546
 20
564.5680008122872
 30
0.0
 11
1326.116421979546
 21
566.0680008122872
 31
0.0
  0
LINE
  5
6FB1
330
1E
100
AcDbEntity
  8
製品
  6
Continuous
 62
     4
100
AcDbLine
 10
1331.796806979546
 20
546.768000812287
 30
0.0
 11
1332.720566979546
 21
548.3680008122864
 31
0.0
  0
LINE
  5
6FB2
330
1E
100
AcDbEntity
  8
製品
  6
Continuous
 62
     4
100
AcDbLine
 10
1326.116421979546
 20
550.268000812287
 30
0.0
 11
1326.116421979546
 21
551.0680008122871
 31
0.0
  0
LINE
  5
6FB3
330
1E
100
AcDbEntity
  8
製品
  6
Continuous
 62
     4
100
AcDbLine
 10
1326.116421979546
 20
551.0680008122871
 30
0.0
 11
1326.816421979546
 21
552.5680008122872
 31
0.0
  0
LINE
  5
6FB4
330
1E
100
AcDbEntity
  8
製品
  6
Continuous
 62
     4
100
AcDbLine
 10
1326.116421979546
 20
554.0680008122872
 30
0.0
 11
1326.816421979546
 21
552.5680008122872
 31
0.0
  0
LINE
  5
6FB5
330
1E
100
AcDbEntity
  8
製品
  6
Continuous
 62
     4
100
AcDbLine
 10
1325.316421979546
 20
551.0680008122871
 30
0.0
 11
1325.316421979546
 21
550.268000812287
 31
0.0
  0
LINE
  5
6FB6
330
1E
100
AcDbEntity
  8
製品
  6
Continuous
 62
     4
100
AcDbLine
 10
1325.316421979546
 20
551.0680008122871
 30
0.0
 11
1326.016421979546
 21
552.5680008122872
 31
0.0
  0
LINE
  5
6FB7
330
1E
100
AcDbEntity
  8
製品
  6
Continuous
 62
     4
100
AcDbLine
 10
1326.016421979546
 20
552.5680008122872
 30
0.0
 11
1325.316421979546
 21
554.0680008122872
 31
0.0
  0
ARC
  5
6FB8
330
1E
100
AcDbEntity
  8
製品
  6
Continuous
 62
     4
100
AcDbCircle
 10
1328.316421979546
 20
548.9680008122868
 30
0.0
 40
2.2
100
AcDbArc
 50
180.0
 51
270.0
  0
ARC
  5
6FB9
330
1E
100
AcDbEntity
  8
製品
  6
Continuous
 62
     4
100
AcDbCircle
 10
1328.316421979546
 20
549.0680008122872
 30
0.0
 40
3.0
100
AcDbArc
 50
180.0
 51
270.0
  0
LINE
  5
6FBA
330
1E
100
AcDbEntity
  8
製品
  6
Continuous
 62
     4
100
AcDbLine
 10
1326.116421979546
 20
550.268000812287
 30
0.0
 11
1326.116421979546
 21
548.9680008122868
 31
0.0
  0
LINE
  5
6FBB
330
1E
100
AcDbEntity
  8
製品
  6
Continuous
 62
     4
100
AcDbLine
 10
1325.316421979546
 20
550.268000812287
 30
0.0
 11
1325.316421979546
 21
549.0680008122872
 31
0.0
  0
LINE
  5
6FBC
330
1E
100
AcDbEntity
  8
製品
  6
Continuous
 62
     4
100
AcDbLine
 10
1328.316421979546
 20
546.768000812287
 30
0.0
 11
1331.796806979546
 21
546.768000812287
 31
0.0
  0
LINE
  5
6FBD
330
1E
100
AcDbEntity
  8
製品
  6
Continuous
 62
     4
100
AcDbLine
 10
1328.316421979546
 20
546.0680008122872
 30
0.0
 11
1332.316421979546
 21
546.0680008122872
 31
0.0
  0
LINE
  5
6FBE
330
1E
100
AcDbEntity
  8
製品
  6
Continuous
 62
     4
100
AcDbLine
 10
1326.116421979546
 20
554.0680008122872
 30
0.0
 11
1326.816421979546
 21
555.5680008122871
 31
0.0
  0
LINE
  5
6FBF
330
1E
100
AcDbEntity
  8
製品
  6
Continuous
 62
     4
100
AcDbLine
 10
1325.316421979546
 20
554.0680008122872
 30
0.0
 11
1326.016421979546
 21
555.5680008122871
 31
0.0
  0
LINE
  5
6FC0
330
1E
100
AcDbEntity
  8
製品
  6
Continuous
 62
     4
100
AcDbLine
 10
1326.116421979546
 20
577.0680008122872
 30
0.0
 11
1326.816421979546
 21
575.5680008122872
 31
0.0
  0
LINE
  5
6FC1
330
1E
100
AcDbEntity
  8
製品
  6
Continuous
 62
     4
100
AcDbLine
 10
1325.316421979546
 20
577.0680008122872
 30
0.0
 11
1326.016421979546
 21
575.5680008122872
 31
0.0
  0
TEXT
  5
6FC2
330
1E
100
AcDbEntity
  8
文字-記号
  6
Continuous
 62
     4
100
AcDbText
 10
1339.249510979546
 20
595.9807338122873
 30
0.0
 40
5.0
  1
ＷＳ５０
 41
0.8
  7
ACAD
100
AcDbText
  0
LINE
  5
6FC3
330
1E
100
AcDbEntity
  8
製品
  6
Continuous
 62
     4
100
AcDbLine
 10
1367.450395979546
 20
547.5680008122871
 30
0.0
 11
1333.182446979546
 21
547.5680008122871
 31
0.0
  0
LINE
  5
6FC4
330
1E
100
AcDbEntity
  8
製品
  6
PLINE3
 62
     3
100
AcDbLine
 10
1350.316421979546
 20
541.1156768122864
 30
0.0
 11
1350.316421979546
 21
562.1545478122871
 31
0.0
  0
LINE
  5
6FC5
330
1E
100
AcDbEntity
  8
製品
  6
Continuous
 62
     4
100
AcDbLine
 10
1368.316421979546
 20
588.0680008122872
 30
0.0
 11
1368.316421979546
 21
585.5680008122872
 31
0.0
  0
LINE
  5
6FC6
330
1E
100
AcDbEntity
  8
製品
  6
Continuous
 62
     4
100
AcDbLine
 10
1368.316421979546
 20
546.0680008122872
 30
0.0
 11
1367.450395979546
 21
547.5680008122871
 31
0.0
  0
LINE
  5
6FC7
330
1E
100
AcDbEntity
  8
文字-記号
  6
Continuous
 62
     4
100
AcDbLine
 10
1585.652899979546
 20
363.7058788122867
 30
0.0
 11
1585.652899979546
 21
623.1827308122865
 31
0.0
  0
LINE
  5
6FC8
330
1E
100
AcDbEntity
  8
文字-記号
  6
Continuous
 62
     4
100
AcDbLine
 10
1486.949196979546
 20
449.741739812287
 30
0.0
 11
1486.949196979546
 21
623.1827308122865
 31
0.0
  0
LINE
  5
6FC9
330
1E
100
AcDbEntity
  8
文字-記号
  6
Continuous
 62
     4
100
AcDbLine
 10
1394.270540979546
 20
449.741739812287
 30
0.0
 11
1394.270540979546
 21
623.1827308122865
 31
0.0
  0
DIMENSION
  5
6FCA
330
1E
100
AcDbEntity
  8
寸法
  6
Continuous
100
AcDbDimension
  2
*D33
 10
1462.454567979546
 20
372.8698368122869
 30
0.0
 11
1513.454567979546
 21
376.1698368122869
 31
0.0
 70
    32
 71
     5
 42
-1.0
  3
AutoCAD
100
AcDbAlignedDimension
 13
1564.454567979546
 23
386.5713348122872
 33
0.0
 14
1462.454567979546
 24
385.8013958122865
 34
0.0
100
AcDbRotatedDimension
1001
ACAD
1000
DSTYLE
1002
{
1070
   147
1040
0.8
1070
   140
1040
10.0
1002
}
  0
DIMENSION
  5
6FCB
330
1E
100
AcDbEntity
  8
寸法
  6
Continuous
100
AcDbDimension
  2
*D34
 10
1570.539255979546
 20
458.2391248122867
 30
0.0
 11
1532.039255979546
 21
461.5391248122867
 31
0.0
 70
    32
 71
     5
 42
-1.0
  3
AutoCAD
100
AcDbAlignedDimension
 13
1493.539255979546
 23
471.6406228122869
 33
0.0
 14
1570.539255979546
 24
471.6406228122869
 34
0.0
100
AcDbRotatedDimension
1001
ACAD
1000
DSTYLE
1002
{
1070
   147
1040
0.8
1070
   140
1040
10.0
1002
}
  0
TEXT
  5
6FCC
330
1E
100
AcDbEntity
  8
文字-記号
  6
Continuous
 62
     4
100
AcDbText
 10
1499.372057979546
 20
427.836370812287
 30
0.0
 40
5.0
  1
ＷＲ１００
 41
0.8
  7
ACAD
100
AcDbText
  0
LINE
  5
6FCD
330
1E
100
AcDbEntity
  8
製品
  6
Continuous
 62
     4
100
AcDbLine
 10
1495.276211979546
 20
471.690622812287
 30
0.0
 11
1568.802299979546
 21
471.690622812287
 31
0.0
  0
LINE
  5
6FCE
330
1E
100
AcDbEntity
  8
製品
  6
Continuous
 62
     4
100
AcDbLine
 10
1495.276211979546
 20
470.8906228122868
 30
0.0
 11
1568.802299979546
 21
470.8906228122868
 31
0.0
  0
LINE
  5
6FCF
330
1E
100
AcDbEntity
  8
製品
  6
Continuous
 62
     4
100
AcDbLine
 10
1464.191523979546
 20
386.6213348122865
 30
0.0
 11
1562.717612979546
 21
386.6213348122865
 31
0.0
  0
LINE
  5
6FD0
330
1E
100
AcDbEntity
  8
製品
  6
Continuous
 62
     4
100
AcDbLine
 10
1464.191523979546
 20
385.8213348122872
 30
0.0
 11
1562.717612979546
 21
385.8213348122872
 31
0.0
  0
DIMENSION
  5
6FD1
330
1E
100
AcDbEntity
  8
寸法
  6
Continuous
100
AcDbDimension
  2
*D35
 10
1443.135798979546
 20
430.8213348122872
 30
0.0
 11
1439.835798979546
 21
408.3213348122874
 31
0.0
 70
    32
 71
     5
 42
-1.0
  3
AutoCAD
100
AcDbAlignedDimension
 13
1430.630136979545
 23
385.8213348122872
 33
0.0
 14
1432.130136979546
 24
430.8213348122872
 34
0.0
 50
90.0
100
AcDbRotatedDimension
1001
ACAD
1000
DSTYLE
1002
{
1070
   147
1040
0.8
1070
   140
1040
10.0
1002
}
  0
DIMENSION
  5
6FD2
330
1E
100
AcDbEntity
  8
寸法
  6
Continuous
100
AcDbDimension
  2
*D36
 10
1470.866602979546
 20
457.9435010366005
 30
0.0
 11
1437.366602979546
 21
461.2435010366005
 31
0.0
 70
    32
 71
     5
 42
-1.0
  3
AutoCAD
100
AcDbAlignedDimension
 13
1403.866602979546
 23
471.8906228122868
 33
0.0
 14
1470.866602979546
 24
471.8538938122865
 34
0.0
100
AcDbRotatedDimension
1001
ACAD
1000
DSTYLE
1002
{
1070
   147
1040
0.8
1070
   140
1040
10.0
1002
}
  0
TEXT
  5
6FD3
330
1E
100
AcDbEntity
  8
文字-記号
  6
Continuous
 62
     4
100
AcDbText
 10
1427.702418979546
 20
515.4511318122867
 30
0.0
 40
5.0
  1
ＷＲ６５
 41
0.8
  7
ACAD
100
AcDbText
  0
LINE
  5
6FD4
330
1E
100
AcDbEntity
  8
製品
  6
Continuous
 62
     4
100
AcDbLine
 10
1405.603557979546
 20
471.690622812287
 30
0.0
 11
1469.129646979546
 21
471.690622812287
 31
0.0
  0
LINE
  5
6FD5
330
1E
100
AcDbEntity
  8
製品
  6
Continuous
 62
     4
100
AcDbLine
 10
1405.603557979546
 20
470.8906228122868
 30
0.0
 11
1469.129646979546
 21
470.8906228122868
 31
0.0
  0
LINE
  5
6FD6
330
1E
100
AcDbEntity
  8
製品
  6
Continuous
 62
     4
100
AcDbLine
 10
1404.666602979546
 20
510.8933988122871
 30
0.0
 11
1403.866942979546
 21
510.8933988122871
 31
0.0
  0
ARC
  5
6FD7
330
1E
100
AcDbEntity
  8
製品
  6
Continuous
 62
     4
100
AcDbCircle
 10
1405.616602979546
 20
472.6406228122868
 30
0.0
 40
0.95
100
AcDbArc
 50
180.0
 51
270.0
  0
ARC
  5
6FD8
330
1E
100
AcDbEntity
  8
製品
  6
Continuous
 62
     4
100
AcDbCircle
 10
1405.616602979546
 20
472.6406228122868
 30
0.0
 40
1.75
100
AcDbArc
 50
180.0
 51
270.0
  0
LINE
  5
6FD9
330
1E
100
AcDbEntity
  8
製品
  6
PLINE3
 62
     3
100
AcDbLine
 10
1382.630136979546
 20
404.0878248122871
 30
0.0
 11
1382.630136979546
 21
379.6764318122868
 31
0.0
  0
DIMENSION
  5
6FDA
330
1E
100
AcDbEntity
  8
寸法
  6
Continuous
100
AcDbDimension
  2
*D37
 10
1385.522082979546
 20
510.8933988122871
 30
0.0
 11
1382.222082979546
 21
490.8920108122872
 31
0.0
 70
    32
 71
     5
 42
-1.0
  3
AutoCAD
100
AcDbAlignedDimension
 13
1375.579465979546
 23
470.8906228122868
 33
0.0
 14
1377.316421979546
 24
510.8933988122871
 34
0.0
 50
90.0
100
AcDbRotatedDimension
1001
ACAD
1000
DSTYLE
1002
{
1070
   147
1040
0.8
1070
   140
1040
10.0
1002
}
  0
LINE
  5
6FDB
330
1E
100
AcDbEntity
  8
製品
  6
Continuous
 62
     4
100
AcDbLine
 10
1375.516421979546
 20
510.8933988122871
 30
0.0
 11
1376.316080979546
 21
510.8933988122871
 31
0.0
  0
ARC
  5
6FDC
330
1E
100
AcDbEntity
  8
製品
  6
Continuous
 62
     4
100
AcDbCircle
 10
1374.566421979546
 20
472.6406228122868
 30
0.0
 40
0.95
100
AcDbArc
 50
270.0
 51
0.0
  0
ARC
  5
6FDD
330
1E
100
AcDbEntity
  8
製品
  6
Continuous
 62
     4
100
AcDbCircle
 10
1374.566421979546
 20
472.6406228122868
 30
0.0
 40
1.75
100
AcDbArc
 50
270.0
 51
0.0
  0
LINE
  5
6FDE
330
1E
100
AcDbEntity
  8
製品
  6
Continuous
 62
     4
100
AcDbLine
 10
1375.516421979546
 20
510.8933988122871
 30
0.0
 11
1375.516421979546
 21
472.6406228122868
 31
0.0
  0
LINE
  5
6FDF
330
1E
100
AcDbEntity
  8
製品
  6
Continuous
 62
     4
100
AcDbLine
 10
1376.316421979546
 20
510.8933988122871
 30
0.0
 11
1376.316421979546
 21
472.6406228122868
 31
0.0
  0
LINE
  5
6FE0
330
1E
100
AcDbEntity
  8
製品
  6
Continuous
 62
     4
100
AcDbLine
 10
1403.866602979546
 20
472.6406228122868
 30
0.0
 11
1403.866602979546
 21
510.8933988122871
 31
0.0
  0
LINE
  5
6FE1
330
1E
100
AcDbEntity
  8
製品
  6
Continuous
 62
     4
100
AcDbLine
 10
1431.130136979546
 20
424.3213348122871
 30
0.0
 11
1431.830136979546
 21
422.8213348122872
 31
0.0
  0
LINE
  5
6FE2
330
1E
100
AcDbEntity
  8
製品
  6
Continuous
 62
     4
100
AcDbLine
 10
1431.930136979546
 20
424.3213348122871
 30
0.0
 11
1432.630136979546
 21
422.8213348122872
 31
0.0
  0
LINE
  5
6FE3
330
1E
100
AcDbEntity
  8
製品
  6
Continuous
 62
     4
100
AcDbLine
 10
1431.130136979546
 20
421.3213348122872
 30
0.0
 11
1431.830136979546
 21
422.8213348122872
 31
0.0
  0
LINE
  5
6FE4
330
1E
100
AcDbEntity
  8
製品
  6
Continuous
 62
     4
100
AcDbLine
 10
1431.130136979546
 20
421.3213348122872
 30
0.0
 11
1431.830136979546
 21
419.8213348122871
 31
0.0
  0
LINE
  5
6FE5
330
1E
100
AcDbEntity
  8
製品
  6
Continuous
 62
     4
100
AcDbLine
 10
1431.830136979546
 20
419.8213348122871
 30
0.0
 11
1431.130136979546
 21
418.3213348122872
 31
0.0
  0
LINE
  5
6FE6
330
1E
100
AcDbEntity
  8
製品
  6
Continuous
 62
     4
100
AcDbLine
 10
1432.630136979546
 20
422.8213348122872
 30
0.0
 11
1431.930136979546
 21
421.3213348122872
 31
0.0
  0
LINE
  5
6FE7
330
1E
100
AcDbEntity
  8
製品
  6
Continuous
 62
     4
100
AcDbLine
 10
1431.930136979546
 20
421.3213348122872
 30
0.0
 11
1432.630136979546
 21
419.8213348122871
 31
0.0
  0
LINE
  5
6FE8
330
1E
100
AcDbEntity
  8
製品
  6
Continuous
 62
     4
100
AcDbLine
 10
1432.630136979546
 20
419.8213348122871
 30
0.0
 11
1431.930136979546
 21
418.3213348122872
 31
0.0
  0
LINE
  5
6FE9
330
1E
100
AcDbEntity
  8
製品
  6
Continuous
 62
     4
100
AcDbLine
 10
1431.830136979546
 20
416.8213348122872
 30
0.0
 11
1431.130136979546
 21
415.3213348122871
 31
0.0
  0
LINE
  5
6FEA
330
1E
100
AcDbEntity
  8
製品
  6
Continuous
 62
     4
100
AcDbLine
 10
1431.130136979546
 20
415.3213348122871
 30
0.0
 11
1431.830136979546
 21
413.8213348122872
 31
0.0
  0
LINE
  5
6FEB
330
1E
100
AcDbEntity
  8
製品
  6
Continuous
 62
     4
100
AcDbLine
 10
1432.630136979546
 20
416.8213348122872
 30
0.0
 11
1431.930136979546
 21
415.3213348122871
 31
0.0
  0
LINE
  5
6FEC
330
1E
100
AcDbEntity
  8
製品
  6
Continuous
 62
     4
100
AcDbLine
 10
1431.930136979546
 20
415.3213348122871
 30
0.0
 11
1432.630136979546
 21
413.8213348122872
 31
0.0
  0
LINE
  5
6FED
330
1E
100
AcDbEntity
  8
製品
  6
Continuous
 62
     4
100
AcDbLine
 10
1432.630136979546
 20
409.6213348122864
 30
0.0
 11
1432.630136979546
 21
410.8213348122871
 31
0.0
  0
LINE
  5
6FEE
330
1E
100
AcDbEntity
  8
製品
  6
Continuous
 62
     4
100
AcDbLine
 10
1431.130136979546
 20
412.3213348122872
 30
0.0
 11
1431.830136979546
 21
410.8213348122871
 31
0.0
  0
LINE
  5
6FEF
330
1E
100
AcDbEntity
  8
製品
  6
Continuous
 62
     4
100
AcDbLine
 10
1431.830136979546
 20
410.8213348122871
 30
0.0
 11
1431.830136979546
 21
409.6213348122864
 31
0.0
  0
LINE
  5
6FF0
330
1E
100
AcDbEntity
  8
製品
  6
Continuous
 62
     4
100
AcDbLine
 10
1431.830136979546
 20
409.6213348122864
 30
0.0
 11
1431.130136979546
 21
408.3213348122872
 31
0.0
  0
LINE
  5
6FF1
330
1E
100
AcDbEntity
  8
製品
  6
Continuous
 62
     4
100
AcDbLine
 10
1431.930136979546
 20
412.3213348122872
 30
0.0
 11
1432.630136979546
 21
410.8213348122871
 31
0.0
  0
LINE
  5
6FF2
330
1E
100
AcDbEntity
  8
製品
  6
Continuous
 62
     4
100
AcDbLine
 10
1432.630136979546
 20
409.6213348122864
 30
0.0
 11
1431.930136979546
 21
408.3213348122872
 31
0.0
  0
LINE
  5
6FF3
330
1E
100
AcDbEntity
  8
製品
  6
Continuous
 62
     4
100
AcDbLine
 10
1431.830136979546
 20
413.8213348122872
 30
0.0
 11
1431.130136979546
 21
412.3213348122872
 31
0.0
  0
LINE
  5
6FF4
330
1E
100
AcDbEntity
  8
製品
  6
Continuous
 62
     4
100
AcDbLine
 10
1432.630136979546
 20
413.8213348122872
 30
0.0
 11
1431.930136979546
 21
412.3213348122872
 31
0.0
  0
LINE
  5
6FF5
330
1E
100
AcDbEntity
  8
製品
  6
Continuous
 62
     4
100
AcDbLine
 10
1431.930136979546
 20
418.3213348122872
 30
0.0
 11
1432.630136979546
 21
416.8213348122872
 31
0.0
  0
LINE
  5
6FF6
330
1E
100
AcDbEntity
  8
製品
  6
Continuous
 62
     4
100
AcDbLine
 10
1431.130136979546
 20
418.3213348122872
 30
0.0
 11
1431.830136979546
 21
416.8213348122872
 31
0.0
  0
LINE
  5
6FF7
330
1E
100
AcDbEntity
  8
製品
  6
Continuous
 62
     4
100
AcDbLine
 10
1432.630136979546
 20
407.0213348122869
 30
0.0
 11
1432.630136979546
 21
405.8213348122872
 31
0.0
  0
LINE
  5
6FF8
330
1E
100
AcDbEntity
  8
製品
  6
Continuous
 62
     4
100
AcDbLine
 10
1431.830136979546
 20
402.8213348122871
 30
0.0
 11
1431.130136979546
 21
404.3213348122872
 31
0.0
  0
LINE
  5
6FF9
330
1E
100
AcDbEntity
  8
製品
  6
Continuous
 62
     4
100
AcDbLine
 10
1431.130136979546
 20
404.3213348122872
 30
0.0
 11
1431.830136979546
 21
405.8213348122872
 31
0.0
  0
LINE
  5
6FFA
330
1E
100
AcDbEntity
  8
製品
  6
Continuous
 62
     4
100
AcDbLine
 10
1431.830136979546
 20
405.8213348122872
 30
0.0
 11
1431.830136979546
 21
407.0213348122869
 31
0.0
  0
LINE
  5
6FFB
330
1E
100
AcDbEntity
  8
製品
  6
Continuous
 62
     4
100
AcDbLine
 10
1432.630136979546
 20
402.8213348122871
 30
0.0
 11
1431.930136979546
 21
404.3213348122872
 31
0.0
  0
LINE
  5
6FFC
330
1E
100
AcDbEntity
  8
製品
  6
Continuous
 62
     4
100
AcDbLine
 10
1431.930136979546
 20
404.3213348122872
 30
0.0
 11
1432.630136979546
 21
405.8213348122872
 31
0.0
  0
LINE
  5
6FFD
330
1E
100
AcDbEntity
  8
製品
  6
Continuous
 62
     4
100
AcDbLine
 10
1431.130136979546
 20
398.3213348122872
 30
0.0
 11
1431.830136979546
 21
399.8213348122872
 31
0.0
  0
LINE
  5
6FFE
330
1E
100
AcDbEntity
  8
製品
  6
Continuous
 62
     4
100
AcDbLine
 10
1431.830136979546
 20
399.8213348122872
 30
0.0
 11
1431.130136979546
 21
401.3213348122872
 31
0.0
  0
LINE
  5
6FFF
330
1E
100
AcDbEntity
  8
製品
  6
Continuous
 62
     4
100
AcDbLine
 10
1431.930136979546
 20
398.3213348122872
 30
0.0
 11
1432.630136979546
 21
399.8213348122872
 31
0.0
  0
LINE
  5
7000
330
1E
100
AcDbEntity
  8
製品
  6
Continuous
 62
     4
100
AcDbLine
 10
1432.630136979546
 20
399.8213348122872
 30
0.0
 11
1431.930136979546
 21
401.3213348122872
 31
0.0
  0
LINE
  5
7001
330
1E
100
AcDbEntity
  8
製品
  6
Continuous
 62
     4
100
AcDbLine
 10
1431.130136979546
 20
401.3213348122872
 30
0.0
 11
1431.830136979546
 21
402.8213348122871
 31
0.0
  0
LINE
  5
7002
330
1E
100
AcDbEntity
  8
製品
  6
Continuous
 62
     4
100
AcDbLine
 10
1431.930136979546
 20
401.3213348122872
 30
0.0
 11
1432.630136979546
 21
402.8213348122871
 31
0.0
  0
LINE
  5
7003
330
1E
100
AcDbEntity
  8
製品
  6
Continuous
 62
     4
100
AcDbLine
 10
1431.130136979546
 20
392.3213348122872
 30
0.0
 11
1431.830136979546
 21
393.8213348122872
 31
0.0
  0
LINE
  5
7004
330
1E
100
AcDbEntity
  8
製品
  6
Continuous
 62
     4
100
AcDbLine
 10
1431.130136979546
 20
395.3213348122872
 30
0.0
 11
1431.830136979546
 21
393.8213348122872
 31
0.0
  0
LINE
  5
7005
330
1E
100
AcDbEntity
  8
製品
  6
Continuous
 62
     4
100
AcDbLine
 10
1431.130136979546
 20
395.3213348122872
 30
0.0
 11
1431.830136979546
 21
396.8213348122872
 31
0.0
  0
LINE
  5
7006
330
1E
100
AcDbEntity
  8
製品
  6
Continuous
 62
     4
100
AcDbLine
 10
1431.930136979546
 20
392.3213348122872
 30
0.0
 11
1432.630136979546
 21
393.8213348122872
 31
0.0
  0
LINE
  5
7007
330
1E
100
AcDbEntity
  8
製品
  6
Continuous
 62
     4
100
AcDbLine
 10
1432.630136979546
 20
393.8213348122872
 30
0.0
 11
1431.930136979546
 21
395.3213348122872
 31
0.0
  0
LINE
  5
7008
330
1E
100
AcDbEntity
  8
製品
  6
Continuous
 62
     4
100
AcDbLine
 10
1431.930136979546
 20
395.3213348122872
 30
0.0
 11
1432.630136979546
 21
396.8213348122872
 31
0.0
  0
LINE
  5
7009
330
1E
100
AcDbEntity
  8
製品
  6
Continuous
 62
     4
100
AcDbLine
 10
1432.630136979546
 20
390.8213348122872
 30
0.0
 11
1432.630136979546
 21
388.8213348122872
 31
0.0
  0
LINE
  5
700A
330
1E
100
AcDbEntity
  8
製品
  6
Continuous
 62
     4
100
AcDbLine
 10
1431.830136979546
 20
390.8213348122872
 30
0.0
 11
1431.830136979546
 21
388.8213348122872
 31
0.0
  0
LINE
  5
700B
330
1E
100
AcDbEntity
  8
製品
  6
Continuous
 62
     4
100
AcDbLine
 10
1431.830136979546
 20
390.8213348122872
 30
0.0
 11
1431.130136979546
 21
392.3213348122872
 31
0.0
  0
LINE
  5
700C
330
1E
100
AcDbEntity
  8
製品
  6
Continuous
 62
     4
100
AcDbLine
 10
1432.630136979546
 20
390.8213348122872
 30
0.0
 11
1431.930136979546
 21
392.3213348122872
 31
0.0
  0
LINE
  5
700D
330
1E
100
AcDbEntity
  8
製品
  6
Continuous
 62
     4
100
AcDbLine
 10
1431.830136979546
 20
396.8213348122872
 30
0.0
 11
1431.130136979546
 21
398.3213348122872
 31
0.0
  0
LINE
  5
700E
330
1E
100
AcDbEntity
  8
製品
  6
Continuous
 62
     4
100
AcDbLine
 10
1432.630136979546
 20
396.8213348122872
 30
0.0
 11
1431.930136979546
 21
398.3213348122872
 31
0.0
  0
LINE
  5
700F
330
1E
100
AcDbEntity
  8
製品
  6
Continuous
 62
     4
100
AcDbLine
 10
1426.034281979546
 20
386.6213348122865
 30
0.0
 11
1425.168256979546
 21
388.1213348122865
 31
0.0
  0
LINE
  5
7010
330
1E
100
AcDbEntity
  8
製品
  6
Continuous
 62
     4
100
AcDbLine
 10
1429.630136979546
 20
386.6213348122865
 30
0.0
 11
1426.034281979546
 21
386.6213348122865
 31
0.0
  0
LINE
  5
7011
330
1E
100
AcDbEntity
  8
製品
  6
Continuous
 62
     4
100
AcDbLine
 10
1429.630136979546
 20
385.8213348122872
 30
0.0
 11
1425.655136979546
 21
385.8213348122872
 31
0.0
  0
ARC
  5
7012
330
1E
100
AcDbEntity
  8
製品
  6
Continuous
 62
     4
100
AcDbCircle
 10
1429.630136979546
 20
388.8213348122872
 30
0.0
 40
3.0
100
AcDbArc
 50
270.0
 51
0.0
  0
LINE
  5
7013
330
1E
100
AcDbEntity
  8
製品
  6
Continuous
 62
     4
100
AcDbLine
 10
1425.655136979546
 20
385.8213348122872
 30
0.0
 11
1424.789110979546
 21
387.3213348122872
 31
0.0
  0
ARC
  5
7014
330
1E
100
AcDbEntity
  8
製品
  6
Continuous
 62
     4
100
AcDbCircle
 10
1429.630136979546
 20
388.8213348122872
 30
0.0
 40
2.2
100
AcDbArc
 50
270.0
 51
0.0
  0
LINE
  5
7015
330
1E
100
AcDbEntity
  8
製品
  6
Continuous
 62
     4
100
AcDbLine
 10
1431.830136979546
 20
407.0213348122869
 30
0.0
 11
1431.130136979546
 21
408.3213348122872
 31
0.0
  0
LINE
  5
7016
330
1E
100
AcDbEntity
  8
製品
  6
Continuous
 62
     4
100
AcDbLine
 10
1432.630136979546
 20
407.0213348122869
 30
0.0
 11
1431.930136979546
 21
408.3213348122872
 31
0.0
  0
LINE
  5
7017
330
1E
100
AcDbEntity
  8
製品
  6
Continuous
 62
     4
100
AcDbLine
 10
1404.666602979546
 20
472.6406228122868
 30
0.0
 11
1404.666602979546
 21
510.8933988122871
 31
0.0
  0
LINE
  5
7018
330
1E
100
AcDbEntity
  8
製品
  6
PLINE3
 62
     3
100
AcDbLine
 10
1437.366602979546
 20
467.1169558122865
 30
0.0
 11
1437.366602979546
 21
482.6368918122871
 31
0.0
  0
ARC
  5
7019
330
1E
100
AcDbEntity
  8
製品
  6
Continuous
 62
     4
100
AcDbCircle
 10
1431.130136979546
 20
429.3213348122872
 30
0.0
 40
0.7
100
AcDbArc
 50
0.0
 51
90.0
  0
ARC
  5
701A
330
1E
100
AcDbEntity
  8
製品
  6
Continuous
 62
     4
100
AcDbCircle
 10
1431.130136979546
 20
429.3213348122872
 30
0.0
 40
1.5
100
AcDbArc
 50
0.0
 51
90.0
  0
LINE
  5
701B
330
1E
100
AcDbEntity
  8
製品
  6
Continuous
 62
     4
100
AcDbLine
 10
1428.630136979546
 20
430.021334812287
 30
0.0
 11
1431.130136979546
 21
430.021334812287
 31
0.0
  0
LINE
  5
701C
330
1E
100
AcDbEntity
  8
製品
  6
Continuous
 62
     4
100
AcDbLine
 10
1428.630136979546
 20
430.8213348122872
 30
0.0
 11
1431.130136979546
 21
430.8213348122872
 31
0.0
  0
LINE
  5
701D
330
1E
100
AcDbEntity
  8
製品
  6
Continuous
 62
     4
100
AcDbLine
 10
1431.830136979546
 20
425.8213348122872
 30
0.0
 11
1431.130136979546
 21
424.3213348122871
 31
0.0
  0
LINE
  5
701E
330
1E
100
AcDbEntity
  8
製品
  6
Continuous
 62
     4
100
AcDbLine
 10
1432.630136979546
 20
425.8213348122872
 30
0.0
 11
1431.930136979546
 21
424.3213348122871
 31
0.0
  0
LINE
  5
701F
330
1E
100
AcDbEntity
  8
製品
  6
Continuous
 62
     4
100
AcDbLine
 10
1425.630136979546
 20
425.3213348122872
 30
0.0
 11
1426.430136979546
 21
425.3213348122872
 31
0.0
  0
LINE
  5
7020
330
1E
100
AcDbEntity
  8
製品
  6
Continuous
 62
     4
100
AcDbLine
 10
1426.430136979546
 20
425.3213348122872
 30
0.0
 11
1426.430136979546
 21
427.8213348122871
 31
0.0
  0
LINE
  5
7021
330
1E
100
AcDbEntity
  8
製品
  6
Continuous
 62
     4
100
AcDbLine
 10
1425.630136979546
 20
427.8213348122871
 30
0.0
 11
1425.630136979546
 21
425.3213348122872
 31
0.0
  0
ARC
  5
7022
330
1E
100
AcDbEntity
  8
製品
  6
Continuous
 62
     4
100
AcDbCircle
 10
1428.630136979546
 20
427.8213348122871
 30
0.0
 40
2.2
100
AcDbArc
 50
90.0
 51
180.0
  0
LINE
  5
7023
330
1E
100
AcDbEntity
  8
製品
  6
Continuous
 62
     4
100
AcDbLine
 10
1431.830136979546
 20
429.3213348122872
 30
0.0
 11
1431.830136979546
 21
425.8213348122872
 31
0.0
  0
LINE
  5
7024
330
1E
100
AcDbEntity
  8
製品
  6
Continuous
 62
     4
100
AcDbLine
 10
1432.630136979546
 20
429.3213348122872
 30
0.0
 11
1432.630136979546
 21
425.8213348122872
 31
0.0
  0
ARC
  5
7025
330
1E
100
AcDbEntity
  8
製品
  6
Continuous
 62
     4
100
AcDbCircle
 10
1428.630136979546
 20
427.8213348122871
 30
0.0
 40
3.0
100
AcDbArc
 50
90.0
 51
180.0
  0
DIMENSION
  5
7026
330
1E
100
AcDbEntity
  8
寸法
  6
Continuous
100
AcDbDimension
  2
*D38
 10
1479.772263979546
 20
510.8906228122869
 30
0.0
 11
1476.472263979546
 21
490.8892348122869
 31
0.0
 70
    32
 71
     5
 42
-1.0
  3
AutoCAD
100
AcDbAlignedDimension
 13
1470.129646979546
 23
470.8878468122866
 33
0.0
 14
1471.866602979546
 24
510.8906228122869
 34
0.0
 50
90.0
100
AcDbRotatedDimension
1001
ACAD
1000
DSTYLE
1002
{
1070
   147
1040
0.8
1070
   140
1040
10.0
1002
}
  0
LINE
  5
7027
330
1E
100
AcDbEntity
  8
製品
  6
Continuous
 62
     4
100
AcDbLine
 10
1463.254567979546
 20
387.5713348122872
 30
0.0
 11
1463.254567979546
 21
425.8241108122865
 31
0.0
  0
LINE
  5
7028
330
1E
100
AcDbEntity
  8
製品
  6
Continuous
 62
     4
100
AcDbLine
 10
1462.454567979546
 20
387.5713348122872
 30
0.0
 11
1462.454567979546
 21
425.8241108122865
 31
0.0
  0
ARC
  5
7029
330
1E
100
AcDbEntity
  8
製品
  6
Continuous
 62
     4
100
AcDbCircle
 10
1464.204567979546
 20
387.5713348122872
 30
0.0
 40
0.95
100
AcDbArc
 50
180.0
 51
270.0
  0
ARC
  5
702A
330
1E
100
AcDbEntity
  8
製品
  6
Continuous
 62
     4
100
AcDbCircle
 10
1464.204567979546
 20
387.5713348122872
 30
0.0
 40
1.75
100
AcDbArc
 50
180.0
 51
270.0
  0
LINE
  5
702B
330
1E
100
AcDbEntity
  8
製品
  6
Continuous
 62
     4
100
AcDbLine
 10
1470.066602979546
 20
510.8933988122871
 30
0.0
 11
1470.866261979546
 21
510.8933988122871
 31
0.0
  0
ARC
  5
702C
330
1E
100
AcDbEntity
  8
製品
  6
Continuous
 62
     4
100
AcDbCircle
 10
1469.116602979546
 20
472.6406228122868
 30
0.0
 40
0.95
100
AcDbArc
 50
270.0
 51
0.0
  0
ARC
  5
702D
330
1E
100
AcDbEntity
  8
製品
  6
Continuous
 62
     4
100
AcDbCircle
 10
1469.116602979546
 20
472.6406228122868
 30
0.0
 40
1.75
100
AcDbArc
 50
270.0
 51
0.0
  0
LINE
  5
702E
330
1E
100
AcDbEntity
  8
製品
  6
Continuous
 62
     4
100
AcDbLine
 10
1463.254567979546
 20
425.8241108122865
 30
0.0
 11
1462.454908979546
 21
425.8241108122865
 31
0.0
  0
LINE
  5
702F
330
1E
100
AcDbEntity
  8
製品
  6
Continuous
 62
     4
100
AcDbLine
 10
1470.066602979546
 20
472.6406228122868
 30
0.0
 11
1470.066602979546
 21
510.8933988122871
 31
0.0
  0
LINE
  5
7030
330
1E
100
AcDbEntity
  8
製品
  6
Continuous
 62
     4
100
AcDbLine
 10
1470.866602979546
 20
472.6406228122868
 30
0.0
 11
1470.866602979546
 21
510.8933988122871
 31
0.0
  0
ARC
  5
7031
330
1E
100
AcDbEntity
  8
製品
  6
Continuous
 62
     4
100
AcDbCircle
 10
1495.289255979546
 20
472.6406228122868
 30
0.0
 40
0.95
100
AcDbArc
 50
180.0
 51
270.0
  0
ARC
  5
7032
330
1E
100
AcDbEntity
  8
製品
  6
Continuous
 62
     4
100
AcDbCircle
 10
1495.289255979546
 20
472.6406228122868
 30
0.0
 40
1.75
100
AcDbArc
 50
180.0
 51
270.0
  0
LINE
  5
7033
330
1E
100
AcDbEntity
  8
製品
  6
Continuous
 62
     4
100
AcDbLine
 10
1494.339255979546
 20
510.8933988122871
 30
0.0
 11
1493.539596979546
 21
510.8933988122871
 31
0.0
  0
LINE
  5
7034
330
1E
100
AcDbEntity
  8
製品
  6
Continuous
 62
     4
100
AcDbLine
 10
1494.339255979546
 20
472.6406228122868
 30
0.0
 11
1494.339255979546
 21
510.8933988122871
 31
0.0
  0
LINE
  5
7035
330
1E
100
AcDbEntity
  8
製品
  6
Continuous
 62
     4
100
AcDbLine
 10
1493.539255979546
 20
472.6406228122868
 30
0.0
 11
1493.539255979546
 21
510.8933988122871
 31
0.0
  0
LINE
  5
7036
330
1E
100
AcDbEntity
  8
製品
  6
PLINE3
 62
     3
100
AcDbLine
 10
1513.454567979546
 20
404.0878248122871
 30
0.0
 11
1513.454567979546
 21
379.6764318122868
 31
0.0
  0
TEXT
  5
7037
330
1E
100
AcDbEntity
  8
文字-記号
  6
Continuous
 62
     4
100
AcDbText
 10
1521.232653979546
 20
515.1424468122868
 30
0.0
 40
5.0
  1
ＷＲ７５
 41
0.8
  7
ACAD
100
AcDbText
  0
LINE
  5
7038
330
1E
100
AcDbEntity
  8
製品
  6
PLINE3
 62
     3
100
AcDbLine
 10
1532.039255979546
 20
467.1169558122865
 30
0.0
 11
1532.039255979546
 21
486.5398958122868
 31
0.0
  0
DIMENSION
  5
7039
330
1E
100
AcDbEntity
  8
寸法
  6
Continuous
100
AcDbDimension
  2
*D39
 10
1573.660229979546
 20
385.8185588122869
 30
0.0
 11
1570.360229979546
 21
405.8199468122873
 31
0.0
 70
    32
 71
     5
 42
-1.0
  3
AutoCAD
100
AcDbAlignedDimension
 13
1565.454567979546
 23
425.8213348122872
 33
0.0
 14
1563.717612979546
 24
385.8185588122869
 34
0.0
 50
90.0
100
AcDbRotatedDimension
1001
ACAD
1000
DSTYLE
1002
{
1070
   147
1040
0.8
1070
   140
1040
10.0
1002
}
  0
LINE
  5
703A
330
1E
100
AcDbEntity
  8
製品
  6
Continuous
 62
     4
100
AcDbLine
 10
1563.654567979546
 20
387.5713348122872
 30
0.0
 11
1563.654567979546
 21
425.8241108122865
 31
0.0
  0
LINE
  5
703B
330
1E
100
AcDbEntity
  8
製品
  6
Continuous
 62
     4
100
AcDbLine
 10
1564.454567979546
 20
387.5713348122872
 30
0.0
 11
1564.454567979546
 21
425.8241108122865
 31
0.0
  0
ARC
  5
703C
330
1E
100
AcDbEntity
  8
製品
  6
Continuous
 62
     4
100
AcDbCircle
 10
1562.704567979546
 20
387.5713348122872
 30
0.0
 40
0.95
100
AcDbArc
 50
270.0
 51
0.0
  0
ARC
  5
703D
330
1E
100
AcDbEntity
  8
製品
  6
Continuous
 62
     4
100
AcDbCircle
 10
1562.704567979546
 20
387.5713348122872
 30
0.0
 40
1.75
100
AcDbArc
 50
270.0
 51
0.0
  0
LINE
  5
703E
330
1E
100
AcDbEntity
  8
製品
  6
Continuous
 62
     4
100
AcDbLine
 10
1563.654567979546
 20
425.8241108122865
 30
0.0
 11
1564.454227979546
 21
425.8241108122865
 31
0.0
  0
DIMENSION
  5
703F
330
1E
100
AcDbEntity
  8
寸法
  6
Continuous
100
AcDbDimension
  2
*D40
 10
1579.744916979546
 20
510.8906228122869
 30
0.0
 11
1576.444916979546
 21
490.8892348122869
 31
0.0
 70
    32
 71
     5
 42
-1.0
  3
AutoCAD
100
AcDbAlignedDimension
 13
1569.802299979546
 23
470.8878468122866
 33
0.0
 14
1571.539255979546
 24
510.8906228122869
 34
0.0
 50
90.0
100
AcDbRotatedDimension
1001
ACAD
1000
DSTYLE
1002
{
1070
   147
1040
0.8
1070
   140
1040
10.0
1002
}
  0
LINE
  5
7040
330
1E
100
AcDbEntity
  8
製品
  6
Continuous
 62
     4
100
AcDbLine
 10
1569.739255979546
 20
510.8933988122871
 30
0.0
 11
1570.538914979546
 21
510.8933988122871
 31
0.0
  0
ARC
  5
7041
330
1E
100
AcDbEntity
  8
製品
  6
Continuous
 62
     4
100
AcDbCircle
 10
1568.789255979546
 20
472.6406228122868
 30
0.0
 40
0.95
100
AcDbArc
 50
270.0
 51
0.0
  0
ARC
  5
7042
330
1E
100
AcDbEntity
  8
製品
  6
Continuous
 62
     4
100
AcDbCircle
 10
1568.789255979546
 20
472.6406228122868
 30
0.0
 40
1.75
100
AcDbArc
 50
270.0
 51
0.0
  0
LINE
  5
7043
330
1E
100
AcDbEntity
  8
製品
  6
Continuous
 62
     4
100
AcDbLine
 10
1569.739255979546
 20
472.6406228122868
 30
0.0
 11
1569.739255979546
 21
510.8933988122871
 31
0.0
  0
LINE
  5
7044
330
1E
100
AcDbEntity
  8
製品
  6
Continuous
 62
     4
100
AcDbLine
 10
1570.539255979546
 20
472.6406228122868
 30
0.0
 11
1570.539255979546
 21
510.8933988122871
 31
0.0
  0
DIMENSION
  5
7045
330
1E
100
AcDbEntity
  8
寸法
  6
Continuous
100
AcDbDimension
  2
*D41
 10
1624.675975979546
 20
377.1037948122867
 30
0.0
 11
1619.675975979546
 21
380.4037948122866
 31
0.0
 70
    32
 71
     5
 42
-1.0
  3
AutoCAD
100
AcDbAlignedDimension
 13
1614.675975979546
 23
386.2028968122868
 33
0.0
 14
1624.675975979546
 24
383.7028968122868
 34
0.0
100
AcDbRotatedDimension
1001
ACAD
1000
DSTYLE
1002
{
1070
   147
1040
0.8
1070
   140
1040
10.0
1002
}
  0
LINE
  5
7046
330
1E
100
AcDbEntity
  8
製品
  6
Continuous
 62
     4
100
AcDbLine
 10
1624.675975979546
 20
403.7028968122867
 30
0.0
 11
1617.175975979546
 21
403.7028968122867
 31
0.0
  0
LINE
  5
7047
330
1E
100
AcDbEntity
  8
製品
  6
Continuous
 62
     4
100
AcDbLine
 10
1624.675975979546
 20
402.5028968122869
 30
0.0
 11
1617.175975979546
 21
402.5028968122869
 31
0.0
  0
LINE
  5
7048
330
1E
100
AcDbEntity
  8
製品
  6
Continuous
 62
     4
100
AcDbLine
 10
1624.675975979546
 20
384.7028968122868
 30
0.0
 11
1617.175975979546
 21
384.7028968122868
 31
0.0
  0
LINE
  5
7049
330
1E
100
AcDbEntity
  8
製品
  6
Continuous
 62
     4
100
AcDbLine
 10
1624.675975979546
 20
385.9028968122866
 30
0.0
 11
1617.175975979546
 21
385.9028968122866
 31
0.0
  0
TEXT
  5
704A
330
1E
100
AcDbEntity
  8
文字-記号
  6
Continuous
 62
     4
100
AcDbText
 10
1609.644335979546
 20
420.6224198122872
 30
0.0
 40
5.0
  1
ＷＢ１９
 41
0.8
  7
ACAD
100
AcDbText
  0
LINE
  5
704B
330
1E
100
AcDbEntity
  8
製品
  6
Continuous
 62
     4
100
AcDbLine
 10
1615.875975979546
 20
401.2028968122868
 30
0.0
 11
1615.875975979546
 21
397.7028968122868
 31
0.0
  0
LINE
  5
704C
330
1E
100
AcDbEntity
  8
製品
  6
Continuous
 62
     4
100
AcDbLine
 10
1614.675975979546
 20
401.2028968122868
 30
0.0
 11
1614.675975979546
 21
397.7028968122868
 31
0.0
  0
ARC
  5
704D
330
1E
100
AcDbEntity
  8
製品
  6
Continuous
 62
     4
100
AcDbCircle
 10
1617.175975979546
 20
401.2028968122868
 30
0.0
 40
2.5
100
AcDbArc
 50
90.0
 51
180.0
  0
ARC
  5
704E
330
1E
100
AcDbEntity
  8
製品
  6
Continuous
 62
     4
100
AcDbCircle
 10
1617.175975979546
 20
401.2028968122868
 30
0.0
 40
1.3
100
AcDbArc
 50
90.0
 51
180.0
  0
LINE
  5
704F
330
1E
100
AcDbEntity
  8
製品
  6
Continuous
 62
     4
100
AcDbLine
 10
1614.675975979546
 20
387.2028968122868
 30
0.0
 11
1614.675975979546
 21
397.7028968122868
 31
0.0
  0
LINE
  5
7050
330
1E
100
AcDbEntity
  8
製品
  6
Continuous
 62
     4
100
AcDbLine
 10
1615.875975979546
 20
387.2028968122868
 30
0.0
 11
1615.875975979546
 21
397.7028968122868
 31
0.0
  0
LINE
  5
7051
330
1E
100
AcDbEntity
  8
製品
  6
Continuous
 62
     4
100
AcDbLine
 10
1615.875975979546
 20
387.2028968122868
 30
0.0
 11
1615.875975979546
 21
401.2028968122868
 31
0.0
  0
LINE
  5
7052
330
1E
100
AcDbEntity
  8
製品
  6
Continuous
 62
     4
100
AcDbLine
 10
1614.675975979546
 20
387.2028968122868
 30
0.0
 11
1614.675975979546
 21
401.2028968122868
 31
0.0
  0
ARC
  5
7053
330
1E
100
AcDbEntity
  8
製品
  6
Continuous
 62
     4
100
AcDbCircle
 10
1617.175975979546
 20
387.2028968122868
 30
0.0
 40
2.5
100
AcDbArc
 50
180.0
 51
270.0
  0
ARC
  5
7054
330
1E
100
AcDbEntity
  8
製品
  6
Continuous
 62
     4
100
AcDbCircle
 10
1617.175975979546
 20
387.2028968122868
 30
0.0
 40
1.3
100
AcDbArc
 50
180.0
 51
270.0
  0
TEXT
  5
7055
330
1E
100
AcDbEntity
  8
文字-記号
  6
Continuous
 62
     4
100
AcDbText
 10
1589.422747979546
 20
440.7178018122867
 30
0.0
 40
5.0
  1
振れ止め
 41
0.8
  7
ACAD
100
AcDbText
  0
LINE
  5
7056
330
1E
100
AcDbEntity
  8
製品
  6
Continuous
 62
     4
100
AcDbLine
 10
1593.810460979546
 20
510.8933988122871
 30
0.0
 11
1593.010800979546
 21
510.8933988122871
 31
0.0
  0
ARC
  5
7057
330
1E
100
AcDbEntity
  8
製品
  6
Continuous
 62
     4
100
AcDbCircle
 10
1594.760460979546
 20
472.6406228122868
 30
0.0
 40
0.95
100
AcDbArc
 50
180.0
 51
270.0
  0
ARC
  5
7058
330
1E
100
AcDbEntity
  8
製品
  6
Continuous
 62
     4
100
AcDbCircle
 10
1594.760460979546
 20
472.6406228122868
 30
0.0
 40
1.75
100
AcDbArc
 50
180.0
 51
270.0
  0
LINE
  5
7059
330
1E
100
AcDbEntity
  8
製品
  6
Continuous
 62
     4
100
AcDbLine
 10
1593.810460979546
 20
472.6406228122868
 30
0.0
 11
1593.810460979546
 21
510.8933988122871
 31
0.0
  0
LINE
  5
705A
330
1E
100
AcDbEntity
  8
製品
  6
Continuous
 62
     4
100
AcDbLine
 10
1593.010460979546
 20
472.6406228122868
 30
0.0
 11
1593.010460979546
 21
510.8933988122871
 31
0.0
  0
DIMENSION
  5
705B
330
1E
100
AcDbEntity
  8
寸法
  6
Continuous
100
AcDbDimension
  2
*D42
 10
1630.855622979546
 20
384.7028968122868
 30
0.0
 11
1627.555622979546
 21
394.202896812287
 31
0.0
 70
    32
 71
     5
 42
-1.0
  3
AutoCAD
100
AcDbAlignedDimension
 13
1625.675975979546
 23
403.7028968122867
 33
0.0
 14
1625.675975979546
 24
384.7028968122868
 34
0.0
 50
90.0
100
AcDbRotatedDimension
1001
ACAD
1000
DSTYLE
1002
{
1070
   147
1040
0.8
1070
   140
1040
10.0
1002
}
  0
LINE
  5
705C
330
1E
100
AcDbEntity
  8
製品
  6
Continuous
 62
     4
100
AcDbLine
 10
1624.675975979546
 20
403.7028968122867
 30
0.0
 11
1624.675975979546
 21
402.5028968122869
 31
0.0
  0
LINE
  5
705D
330
1E
100
AcDbEntity
  8
製品
  6
Continuous
 62
     4
100
AcDbLine
 10
1624.675975979546
 20
384.7028968122868
 30
0.0
 11
1624.675975979546
 21
385.9028968122866
 31
0.0
  0
TEXT
  5
705E
330
1E
100
AcDbEntity
  8
文字-記号
  6
Continuous
 62
     4
100
AcDbText
 10
1627.420702979546
 20
514.7499758122867
 30
0.0
 40
5.0
  1
ＷＲ９０
 41
0.8
  7
ACAD
100
AcDbText
  0
LINE
  5
705F
330
1E
100
AcDbEntity
  8
製品
  6
PLINE3
 62
     3
100
AcDbLine
 10
1639.010460979546
 20
467.1169558122865
 30
0.0
 11
1639.010460979546
 21
488.0938498122868
 31
0.0
  0
DIMENSION
  5
7060
330
1E
100
AcDbEntity
  8
寸法
  6
Continuous
100
AcDbDimension
  2
*D43
 10
1569.542093979546
 20
533.2166698122864
 30
0.0
 11
1532.039255479546
 21
536.5166698122863
 31
0.0
 70
    32
 71
     5
 42
-1.0
  3
AutoCAD
100
AcDbAlignedDimension
 13
1494.536416979546
 23
548.0680008122872
 33
0.0
 14
1569.542093979546
 24
548.0680008122872
 34
0.0
100
AcDbRotatedDimension
1001
ACAD
1000
DSTYLE
1002
{
1070
   147
1040
0.8
1070
   140
1040
10.0
1002
}
  0
LINE
  5
7061
330
1E
100
AcDbEntity
  8
製品
  6
Continuous
 62
     4
100
AcDbLine
 10
1562.080213979546
 20
548.3680008122864
 30
0.0
 11
1501.998297979546
 21
548.3680008122864
 31
0.0
  0
LINE
  5
7062
330
1E
100
AcDbEntity
  8
製品
  6
Continuous
 62
     4
100
AcDbLine
 10
1502.377442979546
 20
547.5680008122871
 30
0.0
 11
1561.701068979546
 21
547.5680008122871
 31
0.0
  0
DIMENSION
  5
7063
330
1E
100
AcDbEntity
  8
寸法
  6
Continuous
100
AcDbDimension
  2
*D44
 10
1469.869440979546
 20
533.1883145636484
 30
0.0
 11
1437.366602479546
 21
536.4883145636484
 31
0.0
 70
    32
 71
     5
 42
-1.0
  3
AutoCAD
100
AcDbAlignedDimension
 13
1404.863763979546
 23
548.0680008122872
 33
0.0
 14
1469.869440979546
 24
548.0680008122872
 34
0.0
100
AcDbRotatedDimension
1001
ACAD
1000
DSTYLE
1002
{
1070
   147
1040
0.8
1070
   140
1040
10.0
1002
}
  0
TEXT
  5
7064
330
1E
100
AcDbEntity
  8
文字-記号
  6
Continuous
 62
     4
100
AcDbText
 10
1427.629862979546
 20
595.6813718122866
 30
0.0
 40
5.0
  1
ＷＳ６５
 41
0.8
  7
ACAD
100
AcDbText
  0
LINE
  5
7065
330
1E
100
AcDbEntity
  8
製品
  6
Continuous
 62
     4
100
AcDbLine
 10
1462.407560979546
 20
548.3680008122864
 30
0.0
 11
1412.325643979546
 21
548.3680008122864
 31
0.0
  0
LINE
  5
7066
330
1E
100
AcDbEntity
  8
製品
  6
Continuous
 62
     4
100
AcDbLine
 10
1412.704789979546
 20
547.5680008122871
 30
0.0
 11
1462.028414979546
 21
547.5680008122871
 31
0.0
  0
ARC
  5
7067
330
1E
100
AcDbEntity
  8
製品
  6
Continuous
 62
     4
100
AcDbCircle
 10
1406.363763979546
 20
589.5680008122872
 30
0.0
 40
1.5
100
AcDbArc
 50
90.0
 51
180.0
  0
TEXT
  5
7068
330
1E
100
AcDbEntity
  8
文字-記号
  6
Continuous
 62
     4
100
AcDbText
 10
1396.955721979546
 20
615.0253198122872
 30
0.0
 40
5.0
  1
ＪＩＳ６５
 41
0.8
  7
ACAD
100
AcDbText
  0
ARC
  5
7069
330
1E
100
AcDbEntity
  8
製品
  6
Continuous
 62
     4
100
AcDbCircle
 10
1407.863763979546
 20
549.0680008122872
 30
0.0
 40
3.0
100
AcDbArc
 50
180.0
 51
270.0
  0
DIMENSION
  5
706A
330
1E
100
AcDbEntity
  8
寸法
  6
Continuous
100
AcDbDimension
  2
*D45
 10
1385.522082979546
 20
546.0680008122872
 30
0.0
 11
1382.222082979546
 21
568.5680008122874
 31
0.0
 70
    32
 71
     5
 42
-1.0
  3
AutoCAD
100
AcDbAlignedDimension
 13
1374.816421979546
 23
591.0680008122872
 33
0.0
 14
1373.316421979546
 24
546.0680008122872
 34
0.0
 50
90.0
100
AcDbRotatedDimension
1001
ACAD
1000
DSTYLE
1002
{
1070
   147
1040
0.8
1070
   140
1040
10.0
1002
}
  0
ARC
  5
706B
330
1E
100
AcDbEntity
  8
製品
  6
Continuous
 62
     4
100
AcDbCircle
 10
1373.816421979546
 20
589.5680008122872
 30
0.0
 40
0.7
100
AcDbArc
 50
0.0
 51
90.0
  0
LINE
  5
706C
330
1E
100
AcDbEntity
  8
製品
  6
Continuous
 62
     4
100
AcDbLine
 10
1373.816421979546
 20
591.0680008122872
 30
0.0
 11
1371.316421979546
 21
591.0680008122872
 31
0.0
  0
LINE
  5
706D
330
1E
100
AcDbEntity
  8
製品
  6
Continuous
 62
     4
100
AcDbLine
 10
1371.316421979546
 20
590.268000812287
 30
0.0
 11
1373.816421979546
 21
590.268000812287
 31
0.0
  0
ARC
  5
706E
330
1E
100
AcDbEntity
  8
製品
  6
Continuous
 62
     4
100
AcDbCircle
 10
1373.816421979546
 20
589.5680008122872
 30
0.0
 40
1.5
100
AcDbArc
 50
0.0
 51
90.0
  0
LINE
  5
706F
330
1E
100
AcDbEntity
  8
製品
  6
Continuous
 62
     4
100
AcDbLine
 10
1374.516421979546
 20
586.0680008122872
 30
0.0
 11
1373.816421979546
 21
584.5680008122871
 31
0.0
  0
LINE
  5
7070
330
1E
100
AcDbEntity
  8
製品
  6
Continuous
 62
     4
100
AcDbLine
 10
1375.316421979546
 20
586.0680008122872
 30
0.0
 11
1374.616421979546
 21
584.5680008122871
 31
0.0
  0
LINE
  5
7071
330
1E
100
AcDbEntity
  8
製品
  6
Continuous
 62
     4
100
AcDbLine
 10
1374.616421979546
 20
584.5680008122871
 30
0.0
 11
1375.316421979546
 21
583.0680008122872
 31
0.0
  0
LINE
  5
7072
330
1E
100
AcDbEntity
  8
製品
  6
Continuous
 62
     4
100
AcDbLine
 10
1374.516421979546
 20
583.0680008122872
 30
0.0
 11
1373.816421979546
 21
584.5680008122871
 31
0.0
  0
LINE
  5
7073
330
1E
100
AcDbEntity
  8
製品
  6
Continuous
 62
     4
100
AcDbLine
 10
1374.516421979546
 20
583.0680008122872
 30
0.0
 11
1373.816421979546
 21
581.5680008122872
 31
0.0
  0
LINE
  5
7074
330
1E
100
AcDbEntity
  8
製品
  6
Continuous
 62
     4
100
AcDbLine
 10
1375.316421979546
 20
583.0680008122872
 30
0.0
 11
1374.616421979546
 21
581.5680008122872
 31
0.0
  0
LINE
  5
7075
330
1E
100
AcDbEntity
  8
製品
  6
Continuous
 62
     4
100
AcDbLine
 10
1374.516421979546
 20
580.0680008122871
 30
0.0
 11
1373.816421979546
 21
578.5680008122872
 31
0.0
  0
LINE
  5
7076
330
1E
100
AcDbEntity
  8
製品
  6
Continuous
 62
     4
100
AcDbLine
 10
1375.316421979546
 20
580.0680008122871
 30
0.0
 11
1374.616421979546
 21
578.5680008122872
 31
0.0
  0
LINE
  5
7077
330
1E
100
AcDbEntity
  8
製品
  6
Continuous
 62
     4
100
AcDbLine
 10
1374.616421979546
 20
578.5680008122872
 30
0.0
 11
1375.316421979546
 21
577.0680008122872
 31
0.0
  0
LINE
  5
7078
330
1E
100
AcDbEntity
  8
製品
  6
Continuous
 62
     4
100
AcDbLine
 10
1373.816421979546
 20
578.5680008122872
 30
0.0
 11
1374.516421979546
 21
577.0680008122872
 31
0.0
  0
LINE
  5
7079
330
1E
100
AcDbEntity
  8
製品
  6
Continuous
 62
     4
100
AcDbLine
 10
1374.616421979546
 20
581.5680008122872
 30
0.0
 11
1375.316421979546
 21
580.0680008122871
 31
0.0
  0
LINE
  5
707A
330
1E
100
AcDbEntity
  8
製品
  6
Continuous
 62
     4
100
AcDbLine
 10
1373.816421979546
 20
581.5680008122872
 30
0.0
 11
1374.516421979546
 21
580.0680008122871
 31
0.0
  0
LINE
  5
707B
330
1E
100
AcDbEntity
  8
製品
  6
Continuous
 62
     4
100
AcDbLine
 10
1375.316421979546
 20
586.0680008122872
 30
0.0
 11
1375.316421979546
 21
589.5680008122872
 31
0.0
  0
LINE
  5
707C
330
1E
100
AcDbEntity
  8
製品
  6
Continuous
 62
     4
100
AcDbLine
 10
1369.116421979546
 20
585.5680008122872
 30
0.0
 11
1369.116421979546
 21
588.0680008122872
 31
0.0
  0
LINE
  5
707D
330
1E
100
AcDbEntity
  8
製品
  6
Continuous
 62
     4
100
AcDbLine
 10
1374.516421979546
 20
589.5680008122872
 30
0.0
 11
1374.516421979546
 21
586.0680008122872
 31
0.0
  0
LINE
  5
707E
330
1E
100
AcDbEntity
  8
製品
  6
Continuous
 62
     4
100
AcDbLine
 10
1374.616421979546
 20
575.5680008122872
 30
0.0
 11
1375.316421979546
 21
574.0680008122872
 31
0.0
  0
LINE
  5
707F
330
1E
100
AcDbEntity
  8
製品
  6
Continuous
 62
     4
100
AcDbLine
 10
1373.816421979546
 20
575.5680008122872
 30
0.0
 11
1374.516421979546
 21
574.0680008122872
 31
0.0
  0
LINE
  5
7080
330
1E
100
AcDbEntity
  8
製品
  6
Continuous
 62
     4
100
AcDbLine
 10
1374.516421979546
 20
574.0680008122872
 30
0.0
 11
1373.816421979546
 21
572.5680008122871
 31
0.0
  0
LINE
  5
7081
330
1E
100
AcDbEntity
  8
製品
  6
Continuous
 62
     4
100
AcDbLine
 10
1375.316421979546
 20
574.0680008122872
 30
0.0
 11
1374.616421979546
 21
572.5680008122871
 31
0.0
  0
LINE
  5
7082
330
1E
100
AcDbEntity
  8
製品
  6
Continuous
 62
     4
100
AcDbLine
 10
1374.616421979546
 20
572.5680008122871
 30
0.0
 11
1375.316421979546
 21
571.0680008122872
 31
0.0
  0
LINE
  5
7083
330
1E
100
AcDbEntity
  8
製品
  6
Continuous
 62
     4
100
AcDbLine
 10
1373.816421979546
 20
572.5680008122871
 30
0.0
 11
1374.516421979546
 21
571.0680008122872
 31
0.0
  0
LINE
  5
7084
330
1E
100
AcDbEntity
  8
製品
  6
Continuous
 62
     4
100
AcDbLine
 10
1375.316421979546
 20
566.0680008122872
 30
0.0
 11
1375.316421979546
 21
567.268000812287
 31
0.0
  0
LINE
  5
7085
330
1E
100
AcDbEntity
  8
製品
  6
Continuous
 62
     4
100
AcDbLine
 10
1374.516421979546
 20
566.0680008122872
 30
0.0
 11
1374.516421979546
 21
567.268000812287
 31
0.0
  0
LINE
  5
7086
330
1E
100
AcDbEntity
  8
製品
  6
Continuous
 62
     4
100
AcDbLine
 10
1373.816421979546
 20
568.5680008122871
 30
0.0
 11
1374.516421979546
 21
567.268000812287
 31
0.0
  0
LINE
  5
7087
330
1E
100
AcDbEntity
  8
製品
  6
Continuous
 62
     4
100
AcDbLine
 10
1374.616421979546
 20
568.5680008122871
 30
0.0
 11
1375.316421979546
 21
567.268000812287
 31
0.0
  0
LINE
  5
7088
330
1E
100
AcDbEntity
  8
製品
  6
Continuous
 62
     4
100
AcDbLine
 10
1373.816421979546
 20
568.5680008122871
 30
0.0
 11
1374.516421979546
 21
569.8680008122864
 31
0.0
  0
LINE
  5
7089
330
1E
100
AcDbEntity
  8
製品
  6
Continuous
 62
     4
100
AcDbLine
 10
1374.616421979546
 20
568.5680008122871
 30
0.0
 11
1375.316421979546
 21
569.8680008122864
 31
0.0
  0
LINE
  5
708A
330
1E
100
AcDbEntity
  8
製品
  6
Continuous
 62
     4
100
AcDbLine
 10
1375.316421979546
 20
571.0680008122872
 30
0.0
 11
1375.316421979546
 21
569.8680008122864
 31
0.0
  0
LINE
  5
708B
330
1E
100
AcDbEntity
  8
製品
  6
Continuous
 62
     4
100
AcDbLine
 10
1374.516421979546
 20
571.0680008122872
 30
0.0
 11
1374.516421979546
 21
569.8680008122864
 31
0.0
  0
LINE
  5
708C
330
1E
100
AcDbEntity
  8
製品
  6
Continuous
 62
     4
100
AcDbLine
 10
1374.616421979546
 20
561.5680008122872
 30
0.0
 11
1375.316421979546
 21
563.0680008122872
 31
0.0
  0
LINE
  5
708D
330
1E
100
AcDbEntity
  8
製品
  6
Continuous
 62
     4
100
AcDbLine
 10
1373.816421979546
 20
561.5680008122872
 30
0.0
 11
1374.516421979546
 21
563.0680008122872
 31
0.0
  0
LINE
  5
708E
330
1E
100
AcDbEntity
  8
製品
  6
Continuous
 62
     4
100
AcDbLine
 10
1374.516421979546
 20
563.0680008122872
 30
0.0
 11
1373.816421979546
 21
564.5680008122872
 31
0.0
  0
LINE
  5
708F
330
1E
100
AcDbEntity
  8
製品
  6
Continuous
 62
     4
100
AcDbLine
 10
1375.316421979546
 20
563.0680008122872
 30
0.0
 11
1374.616421979546
 21
564.5680008122872
 31
0.0
  0
LINE
  5
7090
330
1E
100
AcDbEntity
  8
製品
  6
Continuous
 62
     4
100
AcDbLine
 10
1374.616421979546
 20
555.5680008122871
 30
0.0
 11
1375.316421979546
 21
557.0680008122872
 31
0.0
  0
LINE
  5
7091
330
1E
100
AcDbEntity
  8
製品
  6
Continuous
 62
     4
100
AcDbLine
 10
1373.816421979546
 20
555.5680008122871
 30
0.0
 11
1374.516421979546
 21
557.0680008122872
 31
0.0
  0
LINE
  5
7092
330
1E
100
AcDbEntity
  8
製品
  6
Continuous
 62
     4
100
AcDbLine
 10
1374.516421979546
 20
557.0680008122872
 30
0.0
 11
1373.816421979546
 21
558.5680008122872
 31
0.0
  0
LINE
  5
7093
330
1E
100
AcDbEntity
  8
製品
  6
Continuous
 62
     4
100
AcDbLine
 10
1375.316421979546
 20
557.0680008122872
 30
0.0
 11
1374.616421979546
 21
558.5680008122872
 31
0.0
  0
LINE
  5
7094
330
1E
100
AcDbEntity
  8
製品
  6
Continuous
 62
     4
100
AcDbLine
 10
1374.616421979546
 20
558.5680008122872
 30
0.0
 11
1375.316421979546
 21
560.0680008122871
 31
0.0
  0
LINE
  5
7095
330
1E
100
AcDbEntity
  8
製品
  6
Continuous
 62
     4
100
AcDbLine
 10
1373.816421979546
 20
558.5680008122872
 30
0.0
 11
1374.516421979546
 21
560.0680008122871
 31
0.0
  0
LINE
  5
7096
330
1E
100
AcDbEntity
  8
製品
  6
Continuous
 62
     4
100
AcDbLine
 10
1374.516421979546
 20
560.0680008122871
 30
0.0
 11
1373.816421979546
 21
561.5680008122872
 31
0.0
  0
LINE
  5
7097
330
1E
100
AcDbEntity
  8
製品
  6
Continuous
 62
     4
100
AcDbLine
 10
1375.316421979546
 20
560.0680008122871
 30
0.0
 11
1374.616421979546
 21
561.5680008122872
 31
0.0
  0
LINE
  5
7098
330
1E
100
AcDbEntity
  8
製品
  6
Continuous
 62
     4
100
AcDbLine
 10
1374.616421979546
 20
564.5680008122872
 30
0.0
 11
1375.316421979546
 21
566.0680008122872
 31
0.0
  0
LINE
  5
7099
330
1E
100
AcDbEntity
  8
製品
  6
Continuous
 62
     4
100
AcDbLine
 10
1373.816421979546
 20
564.5680008122872
 30
0.0
 11
1374.516421979546
 21
566.0680008122872
 31
0.0
  0
LINE
  5
709A
330
1E
100
AcDbEntity
  8
製品
  6
Continuous
 62
     4
100
AcDbLine
 10
1375.316421979546
 20
551.0680008122871
 30
0.0
 11
1375.316421979546
 21
550.268000812287
 31
0.0
  0
LINE
  5
709B
330
1E
100
AcDbEntity
  8
製品
  6
Continuous
 62
     4
100
AcDbLine
 10
1374.516421979546
 20
550.268000812287
 30
0.0
 11
1374.516421979546
 21
551.0680008122871
 31
0.0
  0
LINE
  5
709C
330
1E
100
AcDbEntity
  8
製品
  6
Continuous
 62
     4
100
AcDbLine
 10
1374.516421979546
 20
551.0680008122871
 30
0.0
 11
1373.816421979546
 21
552.5680008122872
 31
0.0
  0
LINE
  5
709D
330
1E
100
AcDbEntity
  8
製品
  6
Continuous
 62
     4
100
AcDbLine
 10
1375.316421979546
 20
551.0680008122871
 30
0.0
 11
1374.616421979546
 21
552.5680008122872
 31
0.0
  0
LINE
  5
709E
330
1E
100
AcDbEntity
  8
製品
  6
Continuous
 62
     4
100
AcDbLine
 10
1374.616421979546
 20
552.5680008122872
 30
0.0
 11
1375.316421979546
 21
554.0680008122872
 31
0.0
  0
LINE
  5
709F
330
1E
100
AcDbEntity
  8
製品
  6
Continuous
 62
     4
100
AcDbLine
 10
1374.516421979546
 20
554.0680008122872
 30
0.0
 11
1373.816421979546
 21
552.5680008122872
 31
0.0
  0
ARC
  5
70A0
330
1E
100
AcDbEntity
  8
製品
  6
Continuous
 62
     4
100
AcDbCircle
 10
1372.316421979546
 20
548.9680008122868
 30
0.0
 40
2.2
100
AcDbArc
 50
270.0
 51
0.0
  0
LINE
  5
70A1
330
1E
100
AcDbEntity
  8
製品
  6
Continuous
 62
     4
100
AcDbLine
 10
1372.316421979546
 20
546.768000812287
 30
0.0
 11
1368.836036979546
 21
546.768000812287
 31
0.0
  0
LINE
  5
70A2
330
1E
100
AcDbEntity
  8
製品
  6
Continuous
 62
     4
100
AcDbLine
 10
1375.316421979546
 20
550.268000812287
 30
0.0
 11
1375.316421979546
 21
549.0680008122872
 31
0.0
  0
LINE
  5
70A3
330
1E
100
AcDbEntity
  8
製品
  6
Continuous
 62
     4
100
AcDbLine
 10
1374.516421979546
 20
550.268000812287
 30
0.0
 11
1374.516421979546
 21
548.9680008122868
 31
0.0
  0
ARC
  5
70A4
330
1E
100
AcDbEntity
  8
製品
  6
Continuous
 62
     4
100
AcDbCircle
 10
1372.316421979546
 20
549.0680008122872
 30
0.0
 40
3.0
100
AcDbArc
 50
270.0
 51
0.0
  0
LINE
  5
70A5
330
1E
100
AcDbEntity
  8
製品
  6
Continuous
 62
     4
100
AcDbLine
 10
1374.516421979546
 20
554.0680008122872
 30
0.0
 11
1373.816421979546
 21
555.5680008122871
 31
0.0
  0
LINE
  5
70A6
330
1E
100
AcDbEntity
  8
製品
  6
Continuous
 62
     4
100
AcDbLine
 10
1375.316421979546
 20
554.0680008122872
 30
0.0
 11
1374.616421979546
 21
555.5680008122871
 31
0.0
  0
LINE
  5
70A7
330
1E
100
AcDbEntity
  8
製品
  6
Continuous
 62
     4
100
AcDbLine
 10
1374.516421979546
 20
577.0680008122872
 30
0.0
 11
1373.816421979546
 21
575.5680008122872
 31
0.0
  0
LINE
  5
70A8
330
1E
100
AcDbEntity
  8
製品
  6
Continuous
 62
     4
100
AcDbLine
 10
1375.316421979546
 20
577.0680008122872
 30
0.0
 11
1374.616421979546
 21
575.5680008122872
 31
0.0
  0
LINE
  5
70A9
330
1E
100
AcDbEntity
  8
製品
  6
Continuous
 62
     4
100
AcDbLine
 10
1408.863763979546
 20
590.268000812287
 30
0.0
 11
1406.363763979546
 21
590.268000812287
 31
0.0
  0
LINE
  5
70AA
330
1E
100
AcDbEntity
  8
製品
  6
Continuous
 62
     4
100
AcDbLine
 10
1408.863763979546
 20
591.0680008122872
 30
0.0
 11
1406.363763979546
 21
591.0680008122872
 31
0.0
  0
ARC
  5
70AB
330
1E
100
AcDbEntity
  8
製品
  6
Continuous
 62
     4
100
AcDbCircle
 10
1408.863763979546
 20
588.0680008122872
 30
0.0
 40
2.2
100
AcDbArc
 50
0.0
 51
90.0
  0
ARC
  5
70AC
330
1E
100
AcDbEntity
  8
製品
  6
Continuous
 62
     4
100
AcDbCircle
 10
1408.863763979546
 20
588.0680008122872
 30
0.0
 40
3.0
100
AcDbArc
 50
0.0
 51
90.0
  0
ARC
  5
70AD
330
1E
100
AcDbEntity
  8
製品
  6
Continuous
 62
     4
100
AcDbCircle
 10
1406.363763979546
 20
589.5680008122872
 30
0.0
 40
0.7
100
AcDbArc
 50
90.0
 51
180.0
  0
LINE
  5
70AE
330
1E
100
AcDbEntity
  8
製品
  6
Continuous
 62
     4
100
AcDbLine
 10
1411.863763979546
 20
585.5680008122872
 30
0.0
 11
1411.063763979546
 21
585.5680008122872
 31
0.0
  0
LINE
  5
70AF
330
1E
100
AcDbEntity
  8
製品
  6
Continuous
 62
     4
100
AcDbLine
 10
1404.863763979546
 20
586.0680008122872
 30
0.0
 11
1405.563763979546
 21
584.5680008122871
 31
0.0
  0
LINE
  5
70B0
330
1E
100
AcDbEntity
  8
製品
  6
Continuous
 62
     4
100
AcDbLine
 10
1405.563763979546
 20
584.5680008122871
 30
0.0
 11
1404.863763979546
 21
583.0680008122872
 31
0.0
  0
LINE
  5
70B1
330
1E
100
AcDbEntity
  8
製品
  6
Continuous
 62
     4
100
AcDbLine
 10
1404.863763979546
 20
583.0680008122872
 30
0.0
 11
1405.563763979546
 21
581.5680008122872
 31
0.0
  0
LINE
  5
70B2
330
1E
100
AcDbEntity
  8
製品
  6
Continuous
 62
     4
100
AcDbLine
 10
1404.863763979546
 20
580.0680008122871
 30
0.0
 11
1405.563763979546
 21
578.5680008122872
 31
0.0
  0
LINE
  5
70B3
330
1E
100
AcDbEntity
  8
製品
  6
Continuous
 62
     4
100
AcDbLine
 10
1405.563763979546
 20
578.5680008122872
 30
0.0
 11
1404.863763979546
 21
577.0680008122872
 31
0.0
  0
LINE
  5
70B4
330
1E
100
AcDbEntity
  8
製品
  6
Continuous
 62
     4
100
AcDbLine
 10
1405.563763979546
 20
581.5680008122872
 30
0.0
 11
1404.863763979546
 21
580.0680008122871
 31
0.0
  0
LINE
  5
70B5
330
1E
100
AcDbEntity
  8
製品
  6
Continuous
 62
     4
100
AcDbLine
 10
1405.663763979546
 20
586.0680008122872
 30
0.0
 11
1406.363763979546
 21
584.5680008122871
 31
0.0
  0
LINE
  5
70B6
330
1E
100
AcDbEntity
  8
製品
  6
Continuous
 62
     4
100
AcDbLine
 10
1406.363763979546
 20
584.5680008122871
 30
0.0
 11
1405.663763979546
 21
583.0680008122872
 31
0.0
  0
LINE
  5
70B7
330
1E
100
AcDbEntity
  8
製品
  6
Continuous
 62
     4
100
AcDbLine
 10
1406.363763979546
 20
581.5680008122872
 30
0.0
 11
1405.663763979546
 21
583.0680008122872
 31
0.0
  0
LINE
  5
70B8
330
1E
100
AcDbEntity
  8
製品
  6
Continuous
 62
     4
100
AcDbLine
 10
1406.363763979546
 20
581.5680008122872
 30
0.0
 11
1405.663763979546
 21
580.0680008122871
 31
0.0
  0
LINE
  5
70B9
330
1E
100
AcDbEntity
  8
製品
  6
Continuous
 62
     4
100
AcDbLine
 10
1405.663763979546
 20
580.0680008122871
 30
0.0
 11
1406.363763979546
 21
578.5680008122872
 31
0.0
  0
LINE
  5
70BA
330
1E
100
AcDbEntity
  8
製品
  6
Continuous
 62
     4
100
AcDbLine
 10
1406.363763979546
 20
578.5680008122872
 30
0.0
 11
1405.663763979546
 21
577.0680008122872
 31
0.0
  0
LINE
  5
70BB
330
1E
100
AcDbEntity
  8
製品
  6
Continuous
 62
     4
100
AcDbLine
 10
1411.063763979546
 20
585.5680008122872
 30
0.0
 11
1411.063763979546
 21
588.0680008122872
 31
0.0
  0
LINE
  5
70BC
330
1E
100
AcDbEntity
  8
製品
  6
Continuous
 62
     4
100
AcDbLine
 10
1405.663763979546
 20
589.5680008122872
 30
0.0
 11
1405.663763979546
 21
586.0680008122872
 31
0.0
  0
LINE
  5
70BD
330
1E
100
AcDbEntity
  8
製品
  6
Continuous
 62
     4
100
AcDbLine
 10
1404.863763979546
 20
589.5680008122872
 30
0.0
 11
1404.863763979546
 21
586.0680008122872
 31
0.0
  0
LINE
  5
70BE
330
1E
100
AcDbEntity
  8
製品
  6
Continuous
 62
     4
100
AcDbLine
 10
1411.863763979546
 20
588.0680008122872
 30
0.0
 11
1411.863763979546
 21
585.5680008122872
 31
0.0
  0
LINE
  5
70BF
330
1E
100
AcDbEntity
  8
製品
  6
Continuous
 62
     4
100
AcDbLine
 10
1405.563763979546
 20
575.5680008122872
 30
0.0
 11
1404.863763979546
 21
574.0680008122872
 31
0.0
  0
LINE
  5
70C0
330
1E
100
AcDbEntity
  8
製品
  6
Continuous
 62
     4
100
AcDbLine
 10
1404.863763979546
 20
574.0680008122872
 30
0.0
 11
1405.563763979546
 21
572.5680008122871
 31
0.0
  0
LINE
  5
70C1
330
1E
100
AcDbEntity
  8
製品
  6
Continuous
 62
     4
100
AcDbLine
 10
1405.563763979546
 20
572.5680008122871
 30
0.0
 11
1404.863763979546
 21
571.0680008122872
 31
0.0
  0
LINE
  5
70C2
330
1E
100
AcDbEntity
  8
製品
  6
Continuous
 62
     4
100
AcDbLine
 10
1404.863763979546
 20
567.268000812287
 30
0.0
 11
1404.863763979546
 21
566.0680008122872
 31
0.0
  0
LINE
  5
70C3
330
1E
100
AcDbEntity
  8
製品
  6
Continuous
 62
     4
100
AcDbLine
 10
1405.663763979546
 20
566.0680008122872
 30
0.0
 11
1405.663763979546
 21
567.268000812287
 31
0.0
  0
LINE
  5
70C4
330
1E
100
AcDbEntity
  8
製品
  6
Continuous
 62
     4
100
AcDbLine
 10
1404.863763979546
 20
567.268000812287
 30
0.0
 11
1405.563763979546
 21
568.5680008122871
 31
0.0
  0
LINE
  5
70C5
330
1E
100
AcDbEntity
  8
製品
  6
Continuous
 62
     4
100
AcDbLine
 10
1404.863763979546
 20
569.8680008122864
 30
0.0
 11
1405.563763979546
 21
568.5680008122871
 31
0.0
  0
LINE
  5
70C6
330
1E
100
AcDbEntity
  8
製品
  6
Continuous
 62
     4
100
AcDbLine
 10
1404.863763979546
 20
569.8680008122864
 30
0.0
 11
1404.863763979546
 21
571.0680008122872
 31
0.0
  0
LINE
  5
70C7
330
1E
100
AcDbEntity
  8
製品
  6
Continuous
 62
     4
100
AcDbLine
 10
1405.663763979546
 20
571.0680008122872
 30
0.0
 11
1405.663763979546
 21
569.8680008122864
 31
0.0
  0
LINE
  5
70C8
330
1E
100
AcDbEntity
  8
製品
  6
Continuous
 62
     4
100
AcDbLine
 10
1405.663763979546
 20
567.268000812287
 30
0.0
 11
1406.363763979546
 21
568.5680008122871
 31
0.0
  0
LINE
  5
70C9
330
1E
100
AcDbEntity
  8
製品
  6
Continuous
 62
     4
100
AcDbLine
 10
1406.363763979546
 20
575.5680008122872
 30
0.0
 11
1405.663763979546
 21
574.0680008122872
 31
0.0
  0
LINE
  5
70CA
330
1E
100
AcDbEntity
  8
製品
  6
Continuous
 62
     4
100
AcDbLine
 10
1405.663763979546
 20
574.0680008122872
 30
0.0
 11
1406.363763979546
 21
572.5680008122871
 31
0.0
  0
LINE
  5
70CB
330
1E
100
AcDbEntity
  8
製品
  6
Continuous
 62
     4
100
AcDbLine
 10
1406.363763979546
 20
572.5680008122871
 30
0.0
 11
1405.663763979546
 21
571.0680008122872
 31
0.0
  0
LINE
  5
70CC
330
1E
100
AcDbEntity
  8
製品
  6
Continuous
 62
     4
100
AcDbLine
 10
1405.663763979546
 20
569.8680008122864
 30
0.0
 11
1406.363763979546
 21
568.5680008122871
 31
0.0
  0
LINE
  5
70CD
330
1E
100
AcDbEntity
  8
製品
  6
Continuous
 62
     4
100
AcDbLine
 10
1405.563763979546
 20
561.5680008122872
 30
0.0
 11
1404.863763979546
 21
563.0680008122872
 31
0.0
  0
LINE
  5
70CE
330
1E
100
AcDbEntity
  8
製品
  6
Continuous
 62
     4
100
AcDbLine
 10
1404.863763979546
 20
563.0680008122872
 30
0.0
 11
1405.563763979546
 21
564.5680008122872
 31
0.0
  0
LINE
  5
70CF
330
1E
100
AcDbEntity
  8
製品
  6
Continuous
 62
     4
100
AcDbLine
 10
1405.563763979546
 20
555.5680008122871
 30
0.0
 11
1404.863763979546
 21
557.0680008122872
 31
0.0
  0
LINE
  5
70D0
330
1E
100
AcDbEntity
  8
製品
  6
Continuous
 62
     4
100
AcDbLine
 10
1404.863763979546
 20
557.0680008122872
 30
0.0
 11
1405.563763979546
 21
558.5680008122872
 31
0.0
  0
LINE
  5
70D1
330
1E
100
AcDbEntity
  8
製品
  6
Continuous
 62
     4
100
AcDbLine
 10
1405.563763979546
 20
558.5680008122872
 30
0.0
 11
1404.863763979546
 21
560.0680008122871
 31
0.0
  0
LINE
  5
70D2
330
1E
100
AcDbEntity
  8
製品
  6
Continuous
 62
     4
100
AcDbLine
 10
1404.863763979546
 20
560.0680008122871
 30
0.0
 11
1405.563763979546
 21
561.5680008122872
 31
0.0
  0
LINE
  5
70D3
330
1E
100
AcDbEntity
  8
製品
  6
Continuous
 62
     4
100
AcDbLine
 10
1406.363763979546
 20
555.5680008122871
 30
0.0
 11
1405.663763979546
 21
557.0680008122872
 31
0.0
  0
LINE
  5
70D4
330
1E
100
AcDbEntity
  8
製品
  6
Continuous
 62
     4
100
AcDbLine
 10
1405.663763979546
 20
557.0680008122872
 30
0.0
 11
1406.363763979546
 21
558.5680008122872
 31
0.0
  0
LINE
  5
70D5
330
1E
100
AcDbEntity
  8
製品
  6
Continuous
 62
     4
100
AcDbLine
 10
1406.363763979546
 20
558.5680008122872
 30
0.0
 11
1405.663763979546
 21
560.0680008122871
 31
0.0
  0
LINE
  5
70D6
330
1E
100
AcDbEntity
  8
製品
  6
Continuous
 62
     4
100
AcDbLine
 10
1405.663763979546
 20
560.0680008122871
 30
0.0
 11
1406.363763979546
 21
561.5680008122872
 31
0.0
  0
LINE
  5
70D7
330
1E
100
AcDbEntity
  8
製品
  6
Continuous
 62
     4
100
AcDbLine
 10
1406.363763979546
 20
561.5680008122872
 30
0.0
 11
1405.663763979546
 21
563.0680008122872
 31
0.0
  0
LINE
  5
70D8
330
1E
100
AcDbEntity
  8
製品
  6
Continuous
 62
     4
100
AcDbLine
 10
1405.663763979546
 20
563.0680008122872
 30
0.0
 11
1406.363763979546
 21
564.5680008122872
 31
0.0
  0
LINE
  5
70D9
330
1E
100
AcDbEntity
  8
製品
  6
Continuous
 62
     4
100
AcDbLine
 10
1405.563763979546
 20
564.5680008122872
 30
0.0
 11
1404.863763979546
 21
566.0680008122872
 31
0.0
  0
LINE
  5
70DA
330
1E
100
AcDbEntity
  8
製品
  6
Continuous
 62
     4
100
AcDbLine
 10
1406.363763979546
 20
564.5680008122872
 30
0.0
 11
1405.663763979546
 21
566.0680008122872
 31
0.0
  0
LINE
  5
70DB
330
1E
100
AcDbEntity
  8
製品
  6
Continuous
 62
     4
100
AcDbLine
 10
1411.838763979545
 20
546.0680008122872
 30
0.0
 11
1412.704789979546
 21
547.5680008122871
 31
0.0
  0
LINE
  5
70DC
330
1E
100
AcDbEntity
  8
製品
  6
Continuous
 62
     4
100
AcDbLine
 10
1411.459618979546
 20
546.8680008122865
 30
0.0
 11
1412.325643979546
 21
548.3680008122864
 31
0.0
  0
LINE
  5
70DD
330
1E
100
AcDbEntity
  8
製品
  6
Continuous
 62
     4
100
AcDbLine
 10
1407.863763979546
 20
546.0680008122872
 30
0.0
 11
1411.838763979545
 21
546.0680008122872
 31
0.0
  0
LINE
  5
70DE
330
1E
100
AcDbEntity
  8
製品
  6
Continuous
 62
     4
100
AcDbLine
 10
1407.863763979546
 20
546.8680008122865
 30
0.0
 11
1411.459618979546
 21
546.8680008122865
 31
0.0
  0
LINE
  5
70DF
330
1E
100
AcDbEntity
  8
製品
  6
Continuous
 62
     4
100
AcDbLine
 10
1404.863763979546
 20
551.0680008122871
 30
0.0
 11
1405.563763979546
 21
552.5680008122872
 31
0.0
  0
LINE
  5
70E0
330
1E
100
AcDbEntity
  8
製品
  6
Continuous
 62
     4
100
AcDbLine
 10
1405.563763979546
 20
552.5680008122872
 30
0.0
 11
1404.863763979546
 21
554.0680008122872
 31
0.0
  0
LINE
  5
70E1
330
1E
100
AcDbEntity
  8
製品
  6
Continuous
 62
     4
100
AcDbLine
 10
1404.863763979546
 20
551.0680008122871
 30
0.0
 11
1404.863763979546
 21
549.0680008122872
 31
0.0
  0
LINE
  5
70E2
330
1E
100
AcDbEntity
  8
製品
  6
Continuous
 62
     4
100
AcDbLine
 10
1405.663763979546
 20
551.0680008122871
 30
0.0
 11
1405.663763979546
 21
549.0680008122872
 31
0.0
  0
LINE
  5
70E3
330
1E
100
AcDbEntity
  8
製品
  6
Continuous
 62
     4
100
AcDbLine
 10
1405.663763979546
 20
551.0680008122871
 30
0.0
 11
1406.363763979546
 21
552.5680008122872
 31
0.0
  0
LINE
  5
70E4
330
1E
100
AcDbEntity
  8
製品
  6
Continuous
 62
     4
100
AcDbLine
 10
1406.363763979546
 20
552.5680008122872
 30
0.0
 11
1405.663763979546
 21
554.0680008122872
 31
0.0
  0
ARC
  5
70E5
330
1E
100
AcDbEntity
  8
製品
  6
Continuous
 62
     4
100
AcDbCircle
 10
1407.863763979546
 20
549.0680008122872
 30
0.0
 40
2.2
100
AcDbArc
 50
180.0
 51
270.0
  0
LINE
  5
70E6
330
1E
100
AcDbEntity
  8
製品
  6
Continuous
 62
     4
100
AcDbLine
 10
1406.363763979546
 20
555.5680008122871
 30
0.0
 11
1405.663763979546
 21
554.0680008122872
 31
0.0
  0
LINE
  5
70E7
330
1E
100
AcDbEntity
  8
製品
  6
Continuous
 62
     4
100
AcDbLine
 10
1404.863763979546
 20
554.0680008122872
 30
0.0
 11
1405.563763979546
 21
555.5680008122871
 31
0.0
  0
LINE
  5
70E8
330
1E
100
AcDbEntity
  8
製品
  6
Continuous
 62
     4
100
AcDbLine
 10
1405.663763979546
 20
577.0680008122872
 30
0.0
 11
1406.363763979546
 21
575.5680008122872
 31
0.0
  0
LINE
  5
70E9
330
1E
100
AcDbEntity
  8
製品
  6
Continuous
 62
     4
100
AcDbLine
 10
1404.863763979546
 20
577.0680008122872
 30
0.0
 11
1405.563763979546
 21
575.5680008122872
 31
0.0
  0
LINE
  5
70EA
330
1E
100
AcDbEntity
  8
製品
  6
PLINE3
 62
     3
100
AcDbLine
 10
1437.366602979546
 20
541.1156768122864
 30
0.0
 11
1437.366602979546
 21
560.068859812287
 31
0.0
  0
DIMENSION
  5
70EB
330
1E
100
AcDbEntity
  8
寸法
  6
Continuous
100
AcDbDimension
  2
*D46
 10
1480.075102979546
 20
591.0680008122872
 30
0.0
 11
1476.775102979545
 21
568.5680008122874
 31
0.0
 70
    32
 71
     5
 42
-1.0
  3
AutoCAD
100
AcDbAlignedDimension
 13
1467.869440979546
 23
546.0680008122872
 33
0.0
 14
1469.369440979546
 24
591.0680008122872
 34
0.0
 50
90.0
100
AcDbRotatedDimension
1001
ACAD
1000
DSTYLE
1002
{
1070
   147
1040
0.8
1070
   140
1040
10.0
1002
}
  0
ARC
  5
70EC
330
1E
100
AcDbEntity
  8
製品
  6
Continuous
 62
     4
100
AcDbCircle
 10
1468.369440979546
 20
589.5680008122872
 30
0.0
 40
0.7
100
AcDbArc
 50
0.0
 51
90.0
  0
ARC
  5
70ED
330
1E
100
AcDbEntity
  8
製品
  6
Continuous
 62
     4
100
AcDbCircle
 10
1468.369440979546
 20
589.5680008122872
 30
0.0
 40
1.5
100
AcDbArc
 50
0.0
 51
90.0
  0
ARC
  5
70EE
330
1E
100
AcDbEntity
  8
製品
  6
Continuous
 62
     4
100
AcDbCircle
 10
1465.869440979546
 20
588.0680008122872
 30
0.0
 40
2.2
100
AcDbArc
 50
90.0
 51
180.0
  0
ARC
  5
70EF
330
1E
100
AcDbEntity
  8
製品
  6
Continuous
 62
     4
100
AcDbCircle
 10
1465.869440979546
 20
588.0680008122872
 30
0.0
 40
3.0
100
AcDbArc
 50
90.0
 51
180.0
  0
LINE
  5
70F0
330
1E
100
AcDbEntity
  8
製品
  6
Continuous
 62
     4
100
AcDbLine
 10
1465.869440979546
 20
590.268000812287
 30
0.0
 11
1468.369440979546
 21
590.268000812287
 31
0.0
  0
LINE
  5
70F1
330
1E
100
AcDbEntity
  8
製品
  6
Continuous
 62
     4
100
AcDbLine
 10
1465.869440979546
 20
591.0680008122872
 30
0.0
 11
1468.369440979546
 21
591.0680008122872
 31
0.0
  0
LINE
  5
70F2
330
1E
100
AcDbEntity
  8
製品
  6
Continuous
 62
     4
100
AcDbLine
 10
1469.069440979546
 20
586.0680008122872
 30
0.0
 11
1468.369440979546
 21
584.5680008122871
 31
0.0
  0
LINE
  5
70F3
330
1E
100
AcDbEntity
  8
製品
  6
Continuous
 62
     4
100
AcDbLine
 10
1468.369440979546
 20
584.5680008122871
 30
0.0
 11
1469.069440979546
 21
583.0680008122872
 31
0.0
  0
LINE
  5
70F4
330
1E
100
AcDbEntity
  8
製品
  6
Continuous
 62
     4
100
AcDbLine
 10
1469.869440979546
 20
586.0680008122872
 30
0.0
 11
1469.169440979546
 21
584.5680008122871
 31
0.0
  0
LINE
  5
70F5
330
1E
100
AcDbEntity
  8
製品
  6
Continuous
 62
     4
100
AcDbLine
 10
1469.169440979546
 20
584.5680008122871
 30
0.0
 11
1469.869440979546
 21
583.0680008122872
 31
0.0
  0
LINE
  5
70F6
330
1E
100
AcDbEntity
  8
製品
  6
Continuous
 62
     4
100
AcDbLine
 10
1468.369440979546
 20
581.5680008122872
 30
0.0
 11
1469.069440979546
 21
583.0680008122872
 31
0.0
  0
LINE
  5
70F7
330
1E
100
AcDbEntity
  8
製品
  6
Continuous
 62
     4
100
AcDbLine
 10
1469.869440979546
 20
583.0680008122872
 30
0.0
 11
1469.169440979546
 21
581.5680008122872
 31
0.0
  0
LINE
  5
70F8
330
1E
100
AcDbEntity
  8
製品
  6
Continuous
 62
     4
100
AcDbLine
 10
1469.069440979546
 20
580.0680008122871
 30
0.0
 11
1468.369440979546
 21
578.5680008122872
 31
0.0
  0
LINE
  5
70F9
330
1E
100
AcDbEntity
  8
製品
  6
Continuous
 62
     4
100
AcDbLine
 10
1469.869440979546
 20
580.0680008122871
 30
0.0
 11
1469.169440979546
 21
578.5680008122872
 31
0.0
  0
LINE
  5
70FA
330
1E
100
AcDbEntity
  8
製品
  6
Continuous
 62
     4
100
AcDbLine
 10
1469.169440979546
 20
578.5680008122872
 30
0.0
 11
1469.869440979546
 21
577.0680008122872
 31
0.0
  0
LINE
  5
70FB
330
1E
100
AcDbEntity
  8
製品
  6
Continuous
 62
     4
100
AcDbLine
 10
1468.369440979546
 20
578.5680008122872
 30
0.0
 11
1469.069440979546
 21
577.0680008122872
 31
0.0
  0
LINE
  5
70FC
330
1E
100
AcDbEntity
  8
製品
  6
Continuous
 62
     4
100
AcDbLine
 10
1469.169440979546
 20
581.5680008122872
 30
0.0
 11
1469.869440979546
 21
580.0680008122871
 31
0.0
  0
LINE
  5
70FD
330
1E
100
AcDbEntity
  8
製品
  6
Continuous
 62
     4
100
AcDbLine
 10
1468.369440979546
 20
581.5680008122872
 30
0.0
 11
1469.069440979546
 21
580.0680008122871
 31
0.0
  0
LINE
  5
70FE
330
1E
100
AcDbEntity
  8
製品
  6
Continuous
 62
     4
100
AcDbLine
 10
1462.869440979546
 20
585.5680008122872
 30
0.0
 11
1463.669440979546
 21
585.5680008122872
 31
0.0
  0
LINE
  5
70FF
330
1E
100
AcDbEntity
  8
製品
  6
Continuous
 62
     4
100
AcDbLine
 10
1463.669440979546
 20
585.5680008122872
 30
0.0
 11
1463.669440979546
 21
588.0680008122872
 31
0.0
  0
LINE
  5
7100
330
1E
100
AcDbEntity
  8
製品
  6
Continuous
 62
     4
100
AcDbLine
 10
1469.069440979546
 20
589.5680008122872
 30
0.0
 11
1469.069440979546
 21
586.0680008122872
 31
0.0
  0
LINE
  5
7101
330
1E
100
AcDbEntity
  8
製品
  6
Continuous
 62
     4
100
AcDbLine
 10
1469.869440979546
 20
589.5680008122872
 30
0.0
 11
1469.869440979546
 21
586.0680008122872
 31
0.0
  0
LINE
  5
7102
330
1E
100
AcDbEntity
  8
製品
  6
Continuous
 62
     4
100
AcDbLine
 10
1462.869440979546
 20
588.0680008122872
 30
0.0
 11
1462.869440979546
 21
585.5680008122872
 31
0.0
  0
LINE
  5
7103
330
1E
100
AcDbEntity
  8
製品
  6
Continuous
 62
     4
100
AcDbLine
 10
1468.369440979546
 20
575.5680008122872
 30
0.0
 11
1469.069440979546
 21
574.0680008122872
 31
0.0
  0
LINE
  5
7104
330
1E
100
AcDbEntity
  8
製品
  6
Continuous
 62
     4
100
AcDbLine
 10
1469.169440979546
 20
575.5680008122872
 30
0.0
 11
1469.869440979546
 21
574.0680008122872
 31
0.0
  0
LINE
  5
7105
330
1E
100
AcDbEntity
  8
製品
  6
Continuous
 62
     4
100
AcDbLine
 10
1469.069440979546
 20
574.0680008122872
 30
0.0
 11
1468.369440979546
 21
572.5680008122871
 31
0.0
  0
LINE
  5
7106
330
1E
100
AcDbEntity
  8
製品
  6
Continuous
 62
     4
100
AcDbLine
 10
1469.869440979546
 20
574.0680008122872
 30
0.0
 11
1469.169440979546
 21
572.5680008122871
 31
0.0
  0
LINE
  5
7107
330
1E
100
AcDbEntity
  8
製品
  6
Continuous
 62
     4
100
AcDbLine
 10
1469.169440979546
 20
572.5680008122871
 30
0.0
 11
1469.869440979546
 21
571.0680008122872
 31
0.0
  0
LINE
  5
7108
330
1E
100
AcDbEntity
  8
製品
  6
Continuous
 62
     4
100
AcDbLine
 10
1468.369440979546
 20
572.5680008122871
 30
0.0
 11
1469.069440979546
 21
571.0680008122872
 31
0.0
  0
LINE
  5
7109
330
1E
100
AcDbEntity
  8
製品
  6
Continuous
 62
     4
100
AcDbLine
 10
1469.869440979546
 20
567.268000812287
 30
0.0
 11
1469.869440979546
 21
566.0680008122872
 31
0.0
  0
LINE
  5
710A
330
1E
100
AcDbEntity
  8
製品
  6
Continuous
 62
     4
100
AcDbLine
 10
1469.069440979546
 20
566.0680008122872
 30
0.0
 11
1469.069440979546
 21
567.268000812287
 31
0.0
  0
LINE
  5
710B
330
1E
100
AcDbEntity
  8
製品
  6
Continuous
 62
     4
100
AcDbLine
 10
1469.069440979546
 20
567.268000812287
 30
0.0
 11
1468.369440979546
 21
568.5680008122871
 31
0.0
  0
LINE
  5
710C
330
1E
100
AcDbEntity
  8
製品
  6
Continuous
 62
     4
100
AcDbLine
 10
1469.869440979546
 20
567.268000812287
 30
0.0
 11
1469.169440979546
 21
568.5680008122871
 31
0.0
  0
LINE
  5
710D
330
1E
100
AcDbEntity
  8
製品
  6
Continuous
 62
     4
100
AcDbLine
 10
1469.069440979546
 20
569.8680008122864
 30
0.0
 11
1468.369440979546
 21
568.5680008122871
 31
0.0
  0
LINE
  5
710E
330
1E
100
AcDbEntity
  8
製品
  6
Continuous
 62
     4
100
AcDbLine
 10
1469.869440979546
 20
569.8680008122864
 30
0.0
 11
1469.169440979546
 21
568.5680008122871
 31
0.0
  0
LINE
  5
710F
330
1E
100
AcDbEntity
  8
製品
  6
Continuous
 62
     4
100
AcDbLine
 10
1469.869440979546
 20
569.8680008122864
 30
0.0
 11
1469.869440979546
 21
571.0680008122872
 31
0.0
  0
LINE
  5
7110
330
1E
100
AcDbEntity
  8
製品
  6
Continuous
 62
     4
100
AcDbLine
 10
1469.069440979546
 20
571.0680008122872
 30
0.0
 11
1469.069440979546
 21
569.8680008122864
 31
0.0
  0
LINE
  5
7111
330
1E
100
AcDbEntity
  8
製品
  6
Continuous
 62
     4
100
AcDbLine
 10
1468.369440979546
 20
561.5680008122872
 30
0.0
 11
1469.069440979546
 21
563.0680008122872
 31
0.0
  0
LINE
  5
7112
330
1E
100
AcDbEntity
  8
製品
  6
Continuous
 62
     4
100
AcDbLine
 10
1469.169440979546
 20
561.5680008122872
 30
0.0
 11
1469.869440979546
 21
563.0680008122872
 31
0.0
  0
LINE
  5
7113
330
1E
100
AcDbEntity
  8
製品
  6
Continuous
 62
     4
100
AcDbLine
 10
1469.069440979546
 20
563.0680008122872
 30
0.0
 11
1468.369440979546
 21
564.5680008122872
 31
0.0
  0
LINE
  5
7114
330
1E
100
AcDbEntity
  8
製品
  6
Continuous
 62
     4
100
AcDbLine
 10
1469.869440979546
 20
563.0680008122872
 30
0.0
 11
1469.169440979546
 21
564.5680008122872
 31
0.0
  0
LINE
  5
7115
330
1E
100
AcDbEntity
  8
製品
  6
Continuous
 62
     4
100
AcDbLine
 10
1469.169440979546
 20
555.5680008122871
 30
0.0
 11
1469.869440979546
 21
557.0680008122872
 31
0.0
  0
LINE
  5
7116
330
1E
100
AcDbEntity
  8
製品
  6
Continuous
 62
     4
100
AcDbLine
 10
1468.369440979546
 20
555.5680008122871
 30
0.0
 11
1469.069440979546
 21
557.0680008122872
 31
0.0
  0
LINE
  5
7117
330
1E
100
AcDbEntity
  8
製品
  6
Continuous
 62
     4
100
AcDbLine
 10
1469.069440979546
 20
557.0680008122872
 30
0.0
 11
1468.369440979546
 21
558.5680008122872
 31
0.0
  0
LINE
  5
7118
330
1E
100
AcDbEntity
  8
製品
  6
Continuous
 62
     4
100
AcDbLine
 10
1469.869440979546
 20
557.0680008122872
 30
0.0
 11
1469.169440979546
 21
558.5680008122872
 31
0.0
  0
LINE
  5
7119
330
1E
100
AcDbEntity
  8
製品
  6
Continuous
 62
     4
100
AcDbLine
 10
1469.169440979546
 20
558.5680008122872
 30
0.0
 11
1469.869440979546
 21
560.0680008122871
 31
0.0
  0
LINE
  5
711A
330
1E
100
AcDbEntity
  8
製品
  6
Continuous
 62
     4
100
AcDbLine
 10
1468.369440979546
 20
558.5680008122872
 30
0.0
 11
1469.069440979546
 21
560.0680008122871
 31
0.0
  0
LINE
  5
711B
330
1E
100
AcDbEntity
  8
製品
  6
Continuous
 62
     4
100
AcDbLine
 10
1469.069440979546
 20
560.0680008122871
 30
0.0
 11
1468.369440979546
 21
561.5680008122872
 31
0.0
  0
LINE
  5
711C
330
1E
100
AcDbEntity
  8
製品
  6
Continuous
 62
     4
100
AcDbLine
 10
1469.869440979546
 20
560.0680008122871
 30
0.0
 11
1469.169440979546
 21
561.5680008122872
 31
0.0
  0
LINE
  5
711D
330
1E
100
AcDbEntity
  8
製品
  6
Continuous
 62
     4
100
AcDbLine
 10
1469.169440979546
 20
564.5680008122872
 30
0.0
 11
1469.869440979546
 21
566.0680008122872
 31
0.0
  0
LINE
  5
711E
330
1E
100
AcDbEntity
  8
製品
  6
Continuous
 62
     4
100
AcDbLine
 10
1468.369440979546
 20
564.5680008122872
 30
0.0
 11
1469.069440979546
 21
566.0680008122872
 31
0.0
  0
LINE
  5
711F
330
1E
100
AcDbEntity
  8
製品
  6
Continuous
 62
     4
100
AcDbLine
 10
1469.069440979546
 20
551.0680008122871
 30
0.0
 11
1468.369440979546
 21
552.5680008122872
 31
0.0
  0
LINE
  5
7120
330
1E
100
AcDbEntity
  8
製品
  6
Continuous
 62
     4
100
AcDbLine
 10
1468.369440979546
 20
552.5680008122872
 30
0.0
 11
1469.069440979546
 21
554.0680008122872
 31
0.0
  0
LINE
  5
7121
330
1E
100
AcDbEntity
  8
製品
  6
Continuous
 62
     4
100
AcDbLine
 10
1469.869440979546
 20
551.0680008122871
 30
0.0
 11
1469.169440979546
 21
552.5680008122872
 31
0.0
  0
LINE
  5
7122
330
1E
100
AcDbEntity
  8
製品
  6
Continuous
 62
     4
100
AcDbLine
 10
1469.169440979546
 20
552.5680008122872
 30
0.0
 11
1469.869440979546
 21
554.0680008122872
 31
0.0
  0
ARC
  5
7123
330
1E
100
AcDbEntity
  8
製品
  6
Continuous
 62
     4
100
AcDbCircle
 10
1466.869440979546
 20
549.0680008122872
 30
0.0
 40
3.0
100
AcDbArc
 50
270.0
 51
0.0
  0
ARC
  5
7124
330
1E
100
AcDbEntity
  8
製品
  6
Continuous
 62
     4
100
AcDbCircle
 10
1466.869440979546
 20
549.0680008122872
 30
0.0
 40
2.2
100
AcDbArc
 50
270.0
 51
0.0
  0
LINE
  5
7125
330
1E
100
AcDbEntity
  8
製品
  6
Continuous
 62
     4
100
AcDbLine
 10
1469.869440979546
 20
551.0680008122871
 30
0.0
 11
1469.869440979546
 21
549.0680008122872
 31
0.0
  0
LINE
  5
7126
330
1E
100
AcDbEntity
  8
製品
  6
Continuous
 62
     4
100
AcDbLine
 10
1469.069440979546
 20
551.0680008122871
 30
0.0
 11
1469.069440979546
 21
549.0680008122872
 31
0.0
  0
LINE
  5
7127
330
1E
100
AcDbEntity
  8
製品
  6
Continuous
 62
     4
100
AcDbLine
 10
1462.894440979546
 20
546.0680008122872
 30
0.0
 11
1462.028414979546
 21
547.5680008122871
 31
0.0
  0
LINE
  5
7128
330
1E
100
AcDbEntity
  8
製品
  6
Continuous
 62
     4
100
AcDbLine
 10
1463.273585979546
 20
546.8680008122865
 30
0.0
 11
1462.407560979546
 21
548.3680008122864
 31
0.0
  0
LINE
  5
7129
330
1E
100
AcDbEntity
  8
製品
  6
Continuous
 62
     4
100
AcDbLine
 10
1466.869440979546
 20
546.0680008122872
 30
0.0
 11
1462.894440979546
 21
546.0680008122872
 31
0.0
  0
LINE
  5
712A
330
1E
100
AcDbEntity
  8
製品
  6
Continuous
 62
     4
100
AcDbLine
 10
1466.869440979546
 20
546.8680008122865
 30
0.0
 11
1463.273585979546
 21
546.8680008122865
 31
0.0
  0
LINE
  5
712B
330
1E
100
AcDbEntity
  8
製品
  6
Continuous
 62
     4
100
AcDbLine
 10
1468.369440979546
 20
555.5680008122871
 30
0.0
 11
1469.069440979546
 21
554.0680008122872
 31
0.0
  0
LINE
  5
712C
330
1E
100
AcDbEntity
  8
製品
  6
Continuous
 62
     4
100
AcDbLine
 10
1469.869440979546
 20
554.0680008122872
 30
0.0
 11
1469.169440979546
 21
555.5680008122871
 31
0.0
  0
LINE
  5
712D
330
1E
100
AcDbEntity
  8
製品
  6
Continuous
 62
     4
100
AcDbLine
 10
1469.069440979546
 20
577.0680008122872
 30
0.0
 11
1468.369440979546
 21
575.5680008122872
 31
0.0
  0
LINE
  5
712E
330
1E
100
AcDbEntity
  8
製品
  6
Continuous
 62
     4
100
AcDbLine
 10
1469.869440979546
 20
577.0680008122872
 30
0.0
 11
1469.169440979546
 21
575.5680008122872
 31
0.0
  0
ARC
  5
712F
330
1E
100
AcDbEntity
  8
製品
  6
Continuous
 62
     4
100
AcDbCircle
 10
1496.036416979546
 20
589.5680008122872
 30
0.0
 40
1.5
100
AcDbArc
 50
90.0
 51
180.0
  0
ARC
  5
7130
330
1E
100
AcDbEntity
  8
製品
  6
Continuous
 62
     4
100
AcDbCircle
 10
1497.536416979546
 20
549.0680008122872
 30
0.0
 40
3.0
100
AcDbArc
 50
180.0
 51
270.0
  0
TEXT
  5
7131
330
1E
100
AcDbEntity
  8
文字-記号
  6
Continuous
 62
     4
100
AcDbText
 10
1489.085360979546
 20
615.0253198122872
 30
0.0
 40
5.0
  1
ＪＩＳ７５
 41
0.8
  7
ACAD
100
AcDbText
  0
ARC
  5
7132
330
1E
100
AcDbEntity
  8
製品
  6
Continuous
 62
     4
100
AcDbCircle
 10
1498.536416979546
 20
588.0680008122872
 30
0.0
 40
2.2
100
AcDbArc
 50
0.0
 51
90.0
  0
ARC
  5
7133
330
1E
100
AcDbEntity
  8
製品
  6
Continuous
 62
     4
100
AcDbCircle
 10
1498.536416979546
 20
588.0680008122872
 30
0.0
 40
3.0
100
AcDbArc
 50
0.0
 51
90.0
  0
ARC
  5
7134
330
1E
100
AcDbEntity
  8
製品
  6
Continuous
 62
     4
100
AcDbCircle
 10
1496.036416979546
 20
589.5680008122872
 30
0.0
 40
0.7
100
AcDbArc
 50
90.0
 51
180.0
  0
LINE
  5
7135
330
1E
100
AcDbEntity
  8
製品
  6
Continuous
 62
     4
100
AcDbLine
 10
1498.536416979546
 20
590.268000812287
 30
0.0
 11
1496.036416979546
 21
590.268000812287
 31
0.0
  0
LINE
  5
7136
330
1E
100
AcDbEntity
  8
製品
  6
Continuous
 62
     4
100
AcDbLine
 10
1498.536416979546
 20
591.0680008122872
 30
0.0
 11
1496.036416979546
 21
591.0680008122872
 31
0.0
  0
LINE
  5
7137
330
1E
100
AcDbEntity
  8
製品
  6
Continuous
 62
     4
100
AcDbLine
 10
1501.536416979546
 20
585.5680008122872
 30
0.0
 11
1500.736416979546
 21
585.5680008122872
 31
0.0
  0
LINE
  5
7138
330
1E
100
AcDbEntity
  8
製品
  6
Continuous
 62
     4
100
AcDbLine
 10
1495.336416979546
 20
586.0680008122872
 30
0.0
 11
1496.036416979546
 21
584.5680008122871
 31
0.0
  0
LINE
  5
7139
330
1E
100
AcDbEntity
  8
製品
  6
Continuous
 62
     4
100
AcDbLine
 10
1496.036416979546
 20
584.5680008122871
 30
0.0
 11
1495.336416979546
 21
583.0680008122872
 31
0.0
  0
LINE
  5
713A
330
1E
100
AcDbEntity
  8
製品
  6
Continuous
 62
     4
100
AcDbLine
 10
1494.536416979546
 20
586.0680008122872
 30
0.0
 11
1495.236416979546
 21
584.5680008122871
 31
0.0
  0
LINE
  5
713B
330
1E
100
AcDbEntity
  8
製品
  6
Continuous
 62
     4
100
AcDbLine
 10
1495.236416979546
 20
584.5680008122871
 30
0.0
 11
1494.536416979546
 21
583.0680008122872
 31
0.0
  0
LINE
  5
713C
330
1E
100
AcDbEntity
  8
製品
  6
Continuous
 62
     4
100
AcDbLine
 10
1496.036416979546
 20
581.5680008122872
 30
0.0
 11
1495.336416979546
 21
583.0680008122872
 31
0.0
  0
LINE
  5
713D
330
1E
100
AcDbEntity
  8
製品
  6
Continuous
 62
     4
100
AcDbLine
 10
1494.536416979546
 20
583.0680008122872
 30
0.0
 11
1495.236416979546
 21
581.5680008122872
 31
0.0
  0
LINE
  5
713E
330
1E
100
AcDbEntity
  8
製品
  6
Continuous
 62
     4
100
AcDbLine
 10
1495.336416979546
 20
580.0680008122871
 30
0.0
 11
1496.036416979546
 21
578.5680008122872
 31
0.0
  0
LINE
  5
713F
330
1E
100
AcDbEntity
  8
製品
  6
Continuous
 62
     4
100
AcDbLine
 10
1494.536416979546
 20
580.0680008122871
 30
0.0
 11
1495.236416979546
 21
578.5680008122872
 31
0.0
  0
LINE
  5
7140
330
1E
100
AcDbEntity
  8
製品
  6
Continuous
 62
     4
100
AcDbLine
 10
1495.236416979546
 20
578.5680008122872
 30
0.0
 11
1494.536416979546
 21
577.0680008122872
 31
0.0
  0
LINE
  5
7141
330
1E
100
AcDbEntity
  8
製品
  6
Continuous
 62
     4
100
AcDbLine
 10
1496.036416979546
 20
578.5680008122872
 30
0.0
 11
1495.336416979546
 21
577.0680008122872
 31
0.0
  0
LINE
  5
7142
330
1E
100
AcDbEntity
  8
製品
  6
Continuous
 62
     4
100
AcDbLine
 10
1495.236416979546
 20
581.5680008122872
 30
0.0
 11
1494.536416979546
 21
580.0680008122871
 31
0.0
  0
LINE
  5
7143
330
1E
100
AcDbEntity
  8
製品
  6
Continuous
 62
     4
100
AcDbLine
 10
1496.036416979546
 20
581.5680008122872
 30
0.0
 11
1495.336416979546
 21
580.0680008122871
 31
0.0
  0
LINE
  5
7144
330
1E
100
AcDbEntity
  8
製品
  6
Continuous
 62
     4
100
AcDbLine
 10
1500.736416979546
 20
585.5680008122872
 30
0.0
 11
1500.736416979546
 21
588.0680008122872
 31
0.0
  0
LINE
  5
7145
330
1E
100
AcDbEntity
  8
製品
  6
Continuous
 62
     4
100
AcDbLine
 10
1495.336416979546
 20
589.5680008122872
 30
0.0
 11
1495.336416979546
 21
586.0680008122872
 31
0.0
  0
LINE
  5
7146
330
1E
100
AcDbEntity
  8
製品
  6
Continuous
 62
     4
100
AcDbLine
 10
1494.536416979546
 20
589.5680008122872
 30
0.0
 11
1494.536416979546
 21
586.0680008122872
 31
0.0
  0
LINE
  5
7147
330
1E
100
AcDbEntity
  8
製品
  6
Continuous
 62
     4
100
AcDbLine
 10
1501.536416979546
 20
588.0680008122872
 30
0.0
 11
1501.536416979546
 21
585.5680008122872
 31
0.0
  0
LINE
  5
7148
330
1E
100
AcDbEntity
  8
製品
  6
Continuous
 62
     4
100
AcDbLine
 10
1496.036416979546
 20
575.5680008122872
 30
0.0
 11
1495.336416979546
 21
574.0680008122872
 31
0.0
  0
LINE
  5
7149
330
1E
100
AcDbEntity
  8
製品
  6
Continuous
 62
     4
100
AcDbLine
 10
1495.236416979546
 20
575.5680008122872
 30
0.0
 11
1494.536416979546
 21
574.0680008122872
 31
0.0
  0
LINE
  5
714A
330
1E
100
AcDbEntity
  8
製品
  6
Continuous
 62
     4
100
AcDbLine
 10
1495.336416979546
 20
574.0680008122872
 30
0.0
 11
1496.036416979546
 21
572.5680008122871
 31
0.0
  0
LINE
  5
714B
330
1E
100
AcDbEntity
  8
製品
  6
Continuous
 62
     4
100
AcDbLine
 10
1494.536416979546
 20
574.0680008122872
 30
0.0
 11
1495.236416979546
 21
572.5680008122871
 31
0.0
  0
LINE
  5
714C
330
1E
100
AcDbEntity
  8
製品
  6
Continuous
 62
     4
100
AcDbLine
 10
1495.236416979546
 20
572.5680008122871
 30
0.0
 11
1494.536416979546
 21
571.0680008122872
 31
0.0
  0
LINE
  5
714D
330
1E
100
AcDbEntity
  8
製品
  6
Continuous
 62
     4
100
AcDbLine
 10
1496.036416979546
 20
572.5680008122871
 30
0.0
 11
1495.336416979546
 21
571.0680008122872
 31
0.0
  0
LINE
  5
714E
330
1E
100
AcDbEntity
  8
製品
  6
Continuous
 62
     4
100
AcDbLine
 10
1494.536416979546
 20
567.268000812287
 30
0.0
 11
1494.536416979546
 21
566.0680008122872
 31
0.0
  0
LINE
  5
714F
330
1E
100
AcDbEntity
  8
製品
  6
Continuous
 62
     4
100
AcDbLine
 10
1495.336416979546
 20
566.0680008122872
 30
0.0
 11
1495.336416979546
 21
567.268000812287
 31
0.0
  0
LINE
  5
7150
330
1E
100
AcDbEntity
  8
製品
  6
Continuous
 62
     4
100
AcDbLine
 10
1495.336416979546
 20
567.268000812287
 30
0.0
 11
1496.036416979546
 21
568.5680008122871
 31
0.0
  0
LINE
  5
7151
330
1E
100
AcDbEntity
  8
製品
  6
Continuous
 62
     4
100
AcDbLine
 10
1494.536416979546
 20
567.268000812287
 30
0.0
 11
1495.236416979546
 21
568.5680008122871
 31
0.0
  0
LINE
  5
7152
330
1E
100
AcDbEntity
  8
製品
  6
Continuous
 62
     4
100
AcDbLine
 10
1495.336416979546
 20
569.8680008122864
 30
0.0
 11
1496.036416979546
 21
568.5680008122871
 31
0.0
  0
LINE
  5
7153
330
1E
100
AcDbEntity
  8
製品
  6
Continuous
 62
     4
100
AcDbLine
 10
1494.536416979546
 20
569.8680008122864
 30
0.0
 11
1495.236416979546
 21
568.5680008122871
 31
0.0
  0
LINE
  5
7154
330
1E
100
AcDbEntity
  8
製品
  6
Continuous
 62
     4
100
AcDbLine
 10
1494.536416979546
 20
569.8680008122864
 30
0.0
 11
1494.536416979546
 21
571.0680008122872
 31
0.0
  0
LINE
  5
7155
330
1E
100
AcDbEntity
  8
製品
  6
Continuous
 62
     4
100
AcDbLine
 10
1495.336416979546
 20
571.0680008122872
 30
0.0
 11
1495.336416979546
 21
569.8680008122864
 31
0.0
  0
LINE
  5
7156
330
1E
100
AcDbEntity
  8
製品
  6
Continuous
 62
     4
100
AcDbLine
 10
1496.036416979546
 20
561.5680008122872
 30
0.0
 11
1495.336416979546
 21
563.0680008122872
 31
0.0
  0
LINE
  5
7157
330
1E
100
AcDbEntity
  8
製品
  6
Continuous
 62
     4
100
AcDbLine
 10
1495.236416979546
 20
561.5680008122872
 30
0.0
 11
1494.536416979546
 21
563.0680008122872
 31
0.0
  0
LINE
  5
7158
330
1E
100
AcDbEntity
  8
製品
  6
Continuous
 62
     4
100
AcDbLine
 10
1495.336416979546
 20
563.0680008122872
 30
0.0
 11
1496.036416979546
 21
564.5680008122872
 31
0.0
  0
LINE
  5
7159
330
1E
100
AcDbEntity
  8
製品
  6
Continuous
 62
     4
100
AcDbLine
 10
1494.536416979546
 20
563.0680008122872
 30
0.0
 11
1495.236416979546
 21
564.5680008122872
 31
0.0
  0
LINE
  5
715A
330
1E
100
AcDbEntity
  8
製品
  6
Continuous
 62
     4
100
AcDbLine
 10
1495.236416979546
 20
555.5680008122871
 30
0.0
 11
1494.536416979546
 21
557.0680008122872
 31
0.0
  0
LINE
  5
715B
330
1E
100
AcDbEntity
  8
製品
  6
Continuous
 62
     4
100
AcDbLine
 10
1496.036416979546
 20
555.5680008122871
 30
0.0
 11
1495.336416979546
 21
557.0680008122872
 31
0.0
  0
LINE
  5
715C
330
1E
100
AcDbEntity
  8
製品
  6
Continuous
 62
     4
100
AcDbLine
 10
1495.336416979546
 20
557.0680008122872
 30
0.0
 11
1496.036416979546
 21
558.5680008122872
 31
0.0
  0
LINE
  5
715D
330
1E
100
AcDbEntity
  8
製品
  6
Continuous
 62
     4
100
AcDbLine
 10
1494.536416979546
 20
557.0680008122872
 30
0.0
 11
1495.236416979546
 21
558.5680008122872
 31
0.0
  0
LINE
  5
715E
330
1E
100
AcDbEntity
  8
製品
  6
Continuous
 62
     4
100
AcDbLine
 10
1495.236416979546
 20
558.5680008122872
 30
0.0
 11
1494.536416979546
 21
560.0680008122871
 31
0.0
  0
LINE
  5
715F
330
1E
100
AcDbEntity
  8
製品
  6
Continuous
 62
     4
100
AcDbLine
 10
1496.036416979546
 20
558.5680008122872
 30
0.0
 11
1495.336416979546
 21
560.0680008122871
 31
0.0
  0
LINE
  5
7160
330
1E
100
AcDbEntity
  8
製品
  6
Continuous
 62
     4
100
AcDbLine
 10
1495.336416979546
 20
560.0680008122871
 30
0.0
 11
1496.036416979546
 21
561.5680008122872
 31
0.0
  0
LINE
  5
7161
330
1E
100
AcDbEntity
  8
製品
  6
Continuous
 62
     4
100
AcDbLine
 10
1494.536416979546
 20
560.0680008122871
 30
0.0
 11
1495.236416979546
 21
561.5680008122872
 31
0.0
  0
LINE
  5
7162
330
1E
100
AcDbEntity
  8
製品
  6
Continuous
 62
     4
100
AcDbLine
 10
1495.236416979546
 20
564.5680008122872
 30
0.0
 11
1494.536416979546
 21
566.0680008122872
 31
0.0
  0
LINE
  5
7163
330
1E
100
AcDbEntity
  8
製品
  6
Continuous
 62
     4
100
AcDbLine
 10
1496.036416979546
 20
564.5680008122872
 30
0.0
 11
1495.336416979546
 21
566.0680008122872
 31
0.0
  0
LINE
  5
7164
330
1E
100
AcDbEntity
  8
製品
  6
Continuous
 62
     4
100
AcDbLine
 10
1501.511417979546
 20
546.0680008122872
 30
0.0
 11
1502.377442979546
 21
547.5680008122871
 31
0.0
  0
LINE
  5
7165
330
1E
100
AcDbEntity
  8
製品
  6
Continuous
 62
     4
100
AcDbLine
 10
1501.132271979546
 20
546.8680008122865
 30
0.0
 11
1501.998297979546
 21
548.3680008122864
 31
0.0
  0
LINE
  5
7166
330
1E
100
AcDbEntity
  8
製品
  6
Continuous
 62
     4
100
AcDbLine
 10
1497.536416979546
 20
546.0680008122872
 30
0.0
 11
1501.511417979546
 21
546.0680008122872
 31
0.0
  0
LINE
  5
7167
330
1E
100
AcDbEntity
  8
製品
  6
Continuous
 62
     4
100
AcDbLine
 10
1497.536416979546
 20
546.8680008122865
 30
0.0
 11
1501.132271979546
 21
546.8680008122865
 31
0.0
  0
LINE
  5
7168
330
1E
100
AcDbEntity
  8
製品
  6
Continuous
 62
     4
100
AcDbLine
 10
1495.336416979546
 20
551.0680008122871
 30
0.0
 11
1496.036416979546
 21
552.5680008122872
 31
0.0
  0
LINE
  5
7169
330
1E
100
AcDbEntity
  8
製品
  6
Continuous
 62
     4
100
AcDbLine
 10
1496.036416979546
 20
552.5680008122872
 30
0.0
 11
1495.336416979546
 21
554.0680008122872
 31
0.0
  0
LINE
  5
716A
330
1E
100
AcDbEntity
  8
製品
  6
Continuous
 62
     4
100
AcDbLine
 10
1494.536416979546
 20
551.0680008122871
 30
0.0
 11
1495.236416979546
 21
552.5680008122872
 31
0.0
  0
LINE
  5
716B
330
1E
100
AcDbEntity
  8
製品
  6
Continuous
 62
     4
100
AcDbLine
 10
1495.236416979546
 20
552.5680008122872
 30
0.0
 11
1494.536416979546
 21
554.0680008122872
 31
0.0
  0
LINE
  5
716C
330
1E
100
AcDbEntity
  8
製品
  6
Continuous
 62
     4
100
AcDbLine
 10
1494.536416979546
 20
551.0680008122871
 30
0.0
 11
1494.536416979546
 21
549.0680008122872
 31
0.0
  0
LINE
  5
716D
330
1E
100
AcDbEntity
  8
製品
  6
Continuous
 62
     4
100
AcDbLine
 10
1495.336416979546
 20
551.0680008122871
 30
0.0
 11
1495.336416979546
 21
549.0680008122872
 31
0.0
  0
ARC
  5
716E
330
1E
100
AcDbEntity
  8
製品
  6
Continuous
 62
     4
100
AcDbCircle
 10
1497.536416979546
 20
549.0680008122872
 30
0.0
 40
2.2
100
AcDbArc
 50
180.0
 51
270.0
  0
LINE
  5
716F
330
1E
100
AcDbEntity
  8
製品
  6
Continuous
 62
     4
100
AcDbLine
 10
1496.036416979546
 20
555.5680008122871
 30
0.0
 11
1495.336416979546
 21
554.0680008122872
 31
0.0
  0
LINE
  5
7170
330
1E
100
AcDbEntity
  8
製品
  6
Continuous
 62
     4
100
AcDbLine
 10
1494.536416979546
 20
554.0680008122872
 30
0.0
 11
1495.236416979546
 21
555.5680008122871
 31
0.0
  0
LINE
  5
7171
330
1E
100
AcDbEntity
  8
製品
  6
Continuous
 62
     4
100
AcDbLine
 10
1495.336416979546
 20
577.0680008122872
 30
0.0
 11
1496.036416979546
 21
575.5680008122872
 31
0.0
  0
LINE
  5
7172
330
1E
100
AcDbEntity
  8
製品
  6
Continuous
 62
     4
100
AcDbLine
 10
1494.536416979546
 20
577.0680008122872
 30
0.0
 11
1495.236416979546
 21
575.5680008122872
 31
0.0
  0
TEXT
  5
7173
330
1E
100
AcDbEntity
  8
文字-記号
  6
Continuous
 62
     4
100
AcDbText
 10
1521.777056979546
 20
595.6868198122865
 30
0.0
 40
5.0
  1
ＷＳ７５
 41
0.8
  7
ACAD
100
AcDbText
  0
LINE
  5
7174
330
1E
100
AcDbEntity
  8
製品
  6
PLINE3
 62
     3
100
AcDbLine
 10
1532.039255979546
 20
541.1156768122864
 30
0.0
 11
1532.039255979546
 21
563.2712278122872
 31
0.0
  0
LINE
  5
7175
330
1E
100
AcDbEntity
  8
製品
  6
Continuous
 62
     4
100
AcDbLine
 10
1565.542093979546
 20
590.268000812287
 30
0.0
 11
1568.042093979546
 21
590.268000812287
 31
0.0
  0
LINE
  5
7176
330
1E
100
AcDbEntity
  8
製品
  6
Continuous
 62
     4
100
AcDbLine
 10
1565.542093979546
 20
591.0680008122872
 30
0.0
 11
1568.042093979546
 21
591.0680008122872
 31
0.0
  0
LINE
  5
7177
330
1E
100
AcDbEntity
  8
製品
  6
Continuous
 62
     4
100
AcDbLine
 10
1566.542093979546
 20
546.0680008122872
 30
0.0
 11
1562.567093979546
 21
546.0680008122872
 31
0.0
  0
LINE
  5
7178
330
1E
100
AcDbEntity
  8
製品
  6
Continuous
 62
     4
100
AcDbLine
 10
1566.542093979546
 20
546.8680008122865
 30
0.0
 11
1562.946239979546
 21
546.8680008122865
 31
0.0
  0
ARC
  5
7179
330
1E
100
AcDbEntity
  8
製品
  6
Continuous
 62
     4
100
AcDbCircle
 10
1565.542093979546
 20
588.0680008122872
 30
0.0
 40
2.2
100
AcDbArc
 50
90.0
 51
180.0
  0
ARC
  5
717A
330
1E
100
AcDbEntity
  8
製品
  6
Continuous
 62
     4
100
AcDbCircle
 10
1565.542093979546
 20
588.0680008122872
 30
0.0
 40
3.0
100
AcDbArc
 50
90.0
 51
180.0
  0
LINE
  5
717B
330
1E
100
AcDbEntity
  8
製品
  6
Continuous
 62
     4
100
AcDbLine
 10
1562.542093979546
 20
585.5680008122872
 30
0.0
 11
1563.342093979546
 21
585.5680008122872
 31
0.0
  0
LINE
  5
717C
330
1E
100
AcDbEntity
  8
製品
  6
Continuous
 62
     4
100
AcDbLine
 10
1563.342093979546
 20
585.5680008122872
 30
0.0
 11
1563.342093979546
 21
588.0680008122872
 31
0.0
  0
LINE
  5
717D
330
1E
100
AcDbEntity
  8
製品
  6
Continuous
 62
     4
100
AcDbLine
 10
1562.542093979546
 20
588.0680008122872
 30
0.0
 11
1562.542093979546
 21
585.5680008122872
 31
0.0
  0
LINE
  5
717E
330
1E
100
AcDbEntity
  8
製品
  6
Continuous
 62
     4
100
AcDbLine
 10
1562.946239979546
 20
546.8680008122865
 30
0.0
 11
1562.080213979546
 21
548.3680008122864
 31
0.0
  0
LINE
  5
717F
330
1E
100
AcDbEntity
  8
製品
  6
Continuous
 62
     4
100
AcDbLine
 10
1562.567093979546
 20
546.0680008122872
 30
0.0
 11
1561.701068979546
 21
547.5680008122871
 31
0.0
  0
DIMENSION
  5
7180
330
1E
100
AcDbEntity
  8
寸法
  6
Continuous
100
AcDbDimension
  2
*D47
 10
1580.047755979546
 20
591.0680008122872
 30
0.0
 11
1576.747755979545
 21
568.5680008122874
 31
0.0
 70
    32
 71
     5
 42
-1.0
  3
AutoCAD
100
AcDbAlignedDimension
 13
1567.542093979546
 23
546.0680008122872
 33
0.0
 14
1569.042093979546
 24
591.0680008122872
 34
0.0
 50
90.0
100
AcDbRotatedDimension
1001
ACAD
1000
DSTYLE
1002
{
1070
   147
1040
0.8
1070
   140
1040
10.0
1002
}
  0
ARC
  5
7181
330
1E
100
AcDbEntity
  8
製品
  6
Continuous
 62
     4
100
AcDbCircle
 10
1568.042093979546
 20
589.5680008122872
 30
0.0
 40
0.7
100
AcDbArc
 50
0.0
 51
90.0
  0
ARC
  5
7182
330
1E
100
AcDbEntity
  8
製品
  6
Continuous
 62
     4
100
AcDbCircle
 10
1568.042093979546
 20
589.5680008122872
 30
0.0
 40
1.5
100
AcDbArc
 50
0.0
 51
90.0
  0
LINE
  5
7183
330
1E
100
AcDbEntity
  8
製品
  6
Continuous
 62
     4
100
AcDbLine
 10
1568.742093979546
 20
586.0680008122872
 30
0.0
 11
1568.042093979546
 21
584.5680008122871
 31
0.0
  0
LINE
  5
7184
330
1E
100
AcDbEntity
  8
製品
  6
Continuous
 62
     4
100
AcDbLine
 10
1568.042093979546
 20
584.5680008122871
 30
0.0
 11
1568.742093979546
 21
583.0680008122872
 31
0.0
  0
LINE
  5
7185
330
1E
100
AcDbEntity
  8
製品
  6
Continuous
 62
     4
100
AcDbLine
 10
1569.542093979546
 20
586.0680008122872
 30
0.0
 11
1568.842093979546
 21
584.5680008122871
 31
0.0
  0
LINE
  5
7186
330
1E
100
AcDbEntity
  8
製品
  6
Continuous
 62
     4
100
AcDbLine
 10
1568.842093979546
 20
584.5680008122871
 30
0.0
 11
1569.542093979546
 21
583.0680008122872
 31
0.0
  0
LINE
  5
7187
330
1E
100
AcDbEntity
  8
製品
  6
Continuous
 62
     4
100
AcDbLine
 10
1568.042093979546
 20
581.5680008122872
 30
0.0
 11
1568.742093979546
 21
583.0680008122872
 31
0.0
  0
LINE
  5
7188
330
1E
100
AcDbEntity
  8
製品
  6
Continuous
 62
     4
100
AcDbLine
 10
1569.542093979546
 20
583.0680008122872
 30
0.0
 11
1568.842093979546
 21
581.5680008122872
 31
0.0
  0
LINE
  5
7189
330
1E
100
AcDbEntity
  8
製品
  6
Continuous
 62
     4
100
AcDbLine
 10
1568.742093979546
 20
580.0680008122871
 30
0.0
 11
1568.042093979546
 21
578.5680008122872
 31
0.0
  0
LINE
  5
718A
330
1E
100
AcDbEntity
  8
製品
  6
Continuous
 62
     4
100
AcDbLine
 10
1569.542093979546
 20
580.0680008122871
 30
0.0
 11
1568.842093979546
 21
578.5680008122872
 31
0.0
  0
LINE
  5
718B
330
1E
100
AcDbEntity
  8
製品
  6
Continuous
 62
     4
100
AcDbLine
 10
1568.842093979546
 20
578.5680008122872
 30
0.0
 11
1569.542093979546
 21
577.0680008122872
 31
0.0
  0
LINE
  5
718C
330
1E
100
AcDbEntity
  8
製品
  6
Continuous
 62
     4
100
AcDbLine
 10
1568.042093979546
 20
578.5680008122872
 30
0.0
 11
1568.742093979546
 21
577.0680008122872
 31
0.0
  0
LINE
  5
718D
330
1E
100
AcDbEntity
  8
製品
  6
Continuous
 62
     4
100
AcDbLine
 10
1568.842093979546
 20
581.5680008122872
 30
0.0
 11
1569.542093979546
 21
580.0680008122871
 31
0.0
  0
LINE
  5
718E
330
1E
100
AcDbEntity
  8
製品
  6
Continuous
 62
     4
100
AcDbLine
 10
1568.042093979546
 20
581.5680008122872
 30
0.0
 11
1568.742093979546
 21
580.0680008122871
 31
0.0
  0
LINE
  5
718F
330
1E
100
AcDbEntity
  8
製品
  6
Continuous
 62
     4
100
AcDbLine
 10
1568.742093979546
 20
589.5680008122872
 30
0.0
 11
1568.742093979546
 21
586.0680008122872
 31
0.0
  0
LINE
  5
7190
330
1E
100
AcDbEntity
  8
製品
  6
Continuous
 62
     4
100
AcDbLine
 10
1569.542093979546
 20
589.5680008122872
 30
0.0
 11
1569.542093979546
 21
586.0680008122872
 31
0.0
  0
LINE
  5
7191
330
1E
100
AcDbEntity
  8
製品
  6
Continuous
 62
     4
100
AcDbLine
 10
1568.042093979546
 20
575.5680008122872
 30
0.0
 11
1568.742093979546
 21
574.0680008122872
 31
0.0
  0
LINE
  5
7192
330
1E
100
AcDbEntity
  8
製品
  6
Continuous
 62
     4
100
AcDbLine
 10
1568.842093979546
 20
575.5680008122872
 30
0.0
 11
1569.542093979546
 21
574.0680008122872
 31
0.0
  0
LINE
  5
7193
330
1E
100
AcDbEntity
  8
製品
  6
Continuous
 62
     4
100
AcDbLine
 10
1568.742093979546
 20
574.0680008122872
 30
0.0
 11
1568.042093979546
 21
572.5680008122871
 31
0.0
  0
LINE
  5
7194
330
1E
100
AcDbEntity
  8
製品
  6
Continuous
 62
     4
100
AcDbLine
 10
1569.542093979546
 20
574.0680008122872
 30
0.0
 11
1568.842093979546
 21
572.5680008122871
 31
0.0
  0
LINE
  5
7195
330
1E
100
AcDbEntity
  8
製品
  6
Continuous
 62
     4
100
AcDbLine
 10
1568.842093979546
 20
572.5680008122871
 30
0.0
 11
1569.542093979546
 21
571.0680008122872
 31
0.0
  0
LINE
  5
7196
330
1E
100
AcDbEntity
  8
製品
  6
Continuous
 62
     4
100
AcDbLine
 10
1568.042093979546
 20
572.5680008122871
 30
0.0
 11
1568.742093979546
 21
571.0680008122872
 31
0.0
  0
LINE
  5
7197
330
1E
100
AcDbEntity
  8
製品
  6
Continuous
 62
     4
100
AcDbLine
 10
1569.542093979546
 20
567.268000812287
 30
0.0
 11
1569.542093979546
 21
566.0680008122872
 31
0.0
  0
LINE
  5
7198
330
1E
100
AcDbEntity
  8
製品
  6
Continuous
 62
     4
100
AcDbLine
 10
1568.742093979546
 20
566.0680008122872
 30
0.0
 11
1568.742093979546
 21
567.268000812287
 31
0.0
  0
LINE
  5
7199
330
1E
100
AcDbEntity
  8
製品
  6
Continuous
 62
     4
100
AcDbLine
 10
1568.742093979546
 20
567.268000812287
 30
0.0
 11
1568.042093979546
 21
568.5680008122871
 31
0.0
  0
LINE
  5
719A
330
1E
100
AcDbEntity
  8
製品
  6
Continuous
 62
     4
100
AcDbLine
 10
1569.542093979546
 20
567.268000812287
 30
0.0
 11
1568.842093979546
 21
568.5680008122871
 31
0.0
  0
LINE
  5
719B
330
1E
100
AcDbEntity
  8
製品
  6
Continuous
 62
     4
100
AcDbLine
 10
1568.742093979546
 20
569.8680008122864
 30
0.0
 11
1568.042093979546
 21
568.5680008122871
 31
0.0
  0
LINE
  5
719C
330
1E
100
AcDbEntity
  8
製品
  6
Continuous
 62
     4
100
AcDbLine
 10
1569.542093979546
 20
569.8680008122864
 30
0.0
 11
1568.842093979546
 21
568.5680008122871
 31
0.0
  0
LINE
  5
719D
330
1E
100
AcDbEntity
  8
製品
  6
Continuous
 62
     4
100
AcDbLine
 10
1569.542093979546
 20
569.8680008122864
 30
0.0
 11
1569.542093979546
 21
571.0680008122872
 31
0.0
  0
LINE
  5
719E
330
1E
100
AcDbEntity
  8
製品
  6
Continuous
 62
     4
100
AcDbLine
 10
1568.742093979546
 20
571.0680008122872
 30
0.0
 11
1568.742093979546
 21
569.8680008122864
 31
0.0
  0
LINE
  5
719F
330
1E
100
AcDbEntity
  8
製品
  6
Continuous
 62
     4
100
AcDbLine
 10
1568.042093979546
 20
561.5680008122872
 30
0.0
 11
1568.742093979546
 21
563.0680008122872
 31
0.0
  0
LINE
  5
71A0
330
1E
100
AcDbEntity
  8
製品
  6
Continuous
 62
     4
100
AcDbLine
 10
1568.842093979546
 20
561.5680008122872
 30
0.0
 11
1569.542093979546
 21
563.0680008122872
 31
0.0
  0
LINE
  5
71A1
330
1E
100
AcDbEntity
  8
製品
  6
Continuous
 62
     4
100
AcDbLine
 10
1568.742093979546
 20
563.0680008122872
 30
0.0
 11
1568.042093979546
 21
564.5680008122872
 31
0.0
  0
LINE
  5
71A2
330
1E
100
AcDbEntity
  8
製品
  6
Continuous
 62
     4
100
AcDbLine
 10
1569.542093979546
 20
563.0680008122872
 30
0.0
 11
1568.842093979546
 21
564.5680008122872
 31
0.0
  0
LINE
  5
71A3
330
1E
100
AcDbEntity
  8
製品
  6
Continuous
 62
     4
100
AcDbLine
 10
1568.842093979546
 20
555.5680008122871
 30
0.0
 11
1569.542093979546
 21
557.0680008122872
 31
0.0
  0
LINE
  5
71A4
330
1E
100
AcDbEntity
  8
製品
  6
Continuous
 62
     4
100
AcDbLine
 10
1568.042093979546
 20
555.5680008122871
 30
0.0
 11
1568.742093979546
 21
557.0680008122872
 31
0.0
  0
LINE
  5
71A5
330
1E
100
AcDbEntity
  8
製品
  6
Continuous
 62
     4
100
AcDbLine
 10
1568.742093979546
 20
557.0680008122872
 30
0.0
 11
1568.042093979546
 21
558.5680008122872
 31
0.0
  0
LINE
  5
71A6
330
1E
100
AcDbEntity
  8
製品
  6
Continuous
 62
     4
100
AcDbLine
 10
1569.542093979546
 20
557.0680008122872
 30
0.0
 11
1568.842093979546
 21
558.5680008122872
 31
0.0
  0
LINE
  5
71A7
330
1E
100
AcDbEntity
  8
製品
  6
Continuous
 62
     4
100
AcDbLine
 10
1568.842093979546
 20
558.5680008122872
 30
0.0
 11
1569.542093979546
 21
560.0680008122871
 31
0.0
  0
LINE
  5
71A8
330
1E
100
AcDbEntity
  8
製品
  6
Continuous
 62
     4
100
AcDbLine
 10
1568.042093979546
 20
558.5680008122872
 30
0.0
 11
1568.742093979546
 21
560.0680008122871
 31
0.0
  0
LINE
  5
71A9
330
1E
100
AcDbEntity
  8
製品
  6
Continuous
 62
     4
100
AcDbLine
 10
1568.742093979546
 20
560.0680008122871
 30
0.0
 11
1568.042093979546
 21
561.5680008122872
 31
0.0
  0
LINE
  5
71AA
330
1E
100
AcDbEntity
  8
製品
  6
Continuous
 62
     4
100
AcDbLine
 10
1569.542093979546
 20
560.0680008122871
 30
0.0
 11
1568.842093979546
 21
561.5680008122872
 31
0.0
  0
LINE
  5
71AB
330
1E
100
AcDbEntity
  8
製品
  6
Continuous
 62
     4
100
AcDbLine
 10
1568.842093979546
 20
564.5680008122872
 30
0.0
 11
1569.542093979546
 21
566.0680008122872
 31
0.0
  0
LINE
  5
71AC
330
1E
100
AcDbEntity
  8
製品
  6
Continuous
 62
     4
100
AcDbLine
 10
1568.042093979546
 20
564.5680008122872
 30
0.0
 11
1568.742093979546
 21
566.0680008122872
 31
0.0
  0
LINE
  5
71AD
330
1E
100
AcDbEntity
  8
製品
  6
Continuous
 62
     4
100
AcDbLine
 10
1568.742093979546
 20
551.0680008122871
 30
0.0
 11
1568.042093979546
 21
552.5680008122872
 31
0.0
  0
LINE
  5
71AE
330
1E
100
AcDbEntity
  8
製品
  6
Continuous
 62
     4
100
AcDbLine
 10
1568.042093979546
 20
552.5680008122872
 30
0.0
 11
1568.742093979546
 21
554.0680008122872
 31
0.0
  0
LINE
  5
71AF
330
1E
100
AcDbEntity
  8
製品
  6
Continuous
 62
     4
100
AcDbLine
 10
1569.542093979546
 20
551.0680008122871
 30
0.0
 11
1568.842093979546
 21
552.5680008122872
 31
0.0
  0
LINE
  5
71B0
330
1E
100
AcDbEntity
  8
製品
  6
Continuous
 62
     4
100
AcDbLine
 10
1568.842093979546
 20
552.5680008122872
 30
0.0
 11
1569.542093979546
 21
554.0680008122872
 31
0.0
  0
ARC
  5
71B1
330
1E
100
AcDbEntity
  8
製品
  6
Continuous
 62
     4
100
AcDbCircle
 10
1566.542093979546
 20
549.0680008122872
 30
0.0
 40
2.2
100
AcDbArc
 50
270.0
 51
0.0
  0
ARC
  5
71B2
330
1E
100
AcDbEntity
  8
製品
  6
Continuous
 62
     4
100
AcDbCircle
 10
1566.542093979546
 20
549.0680008122872
 30
0.0
 40
3.0
100
AcDbArc
 50
270.0
 51
0.0
  0
LINE
  5
71B3
330
1E
100
AcDbEntity
  8
製品
  6
Continuous
 62
     4
100
AcDbLine
 10
1569.542093979546
 20
551.0680008122871
 30
0.0
 11
1569.542093979546
 21
549.0680008122872
 31
0.0
  0
LINE
  5
71B4
330
1E
100
AcDbEntity
  8
製品
  6
Continuous
 62
     4
100
AcDbLine
 10
1568.742093979546
 20
551.0680008122871
 30
0.0
 11
1568.742093979546
 21
549.0680008122872
 31
0.0
  0
LINE
  5
71B5
330
1E
100
AcDbEntity
  8
製品
  6
Continuous
 62
     4
100
AcDbLine
 10
1568.042093979546
 20
555.5680008122871
 30
0.0
 11
1568.742093979546
 21
554.0680008122872
 31
0.0
  0
LINE
  5
71B6
330
1E
100
AcDbEntity
  8
製品
  6
Continuous
 62
     4
100
AcDbLine
 10
1569.542093979546
 20
554.0680008122872
 30
0.0
 11
1568.842093979546
 21
555.5680008122871
 31
0.0
  0
LINE
  5
71B7
330
1E
100
AcDbEntity
  8
製品
  6
Continuous
 62
     4
100
AcDbLine
 10
1568.742093979546
 20
577.0680008122872
 30
0.0
 11
1568.042093979546
 21
575.5680008122872
 31
0.0
  0
LINE
  5
71B8
330
1E
100
AcDbEntity
  8
製品
  6
Continuous
 62
     4
100
AcDbLine
 10
1569.542093979546
 20
577.0680008122872
 30
0.0
 11
1568.842093979546
 21
575.5680008122872
 31
0.0
  0
TEXT
  5
71B9
330
1E
100
AcDbEntity
  8
文字-記号
  6
Continuous
 62
     4
100
AcDbText
 10
1589.085344979546
 20
615.4882718122872
 30
0.0
 40
5.0
  1
ＪＩＳ９０
 41
0.8
  7
ACAD
100
AcDbText
  0
ARC
  5
71BA
330
1E
100
AcDbEntity
  8
製品
  6
Continuous
 62
     4
100
AcDbCircle
 10
1598.010460979546
 20
588.0680008122872
 30
0.0
 40
2.2
100
AcDbArc
 50
0.0
 51
90.0
  0
ARC
  5
71BB
330
1E
100
AcDbEntity
  8
製品
  6
Continuous
 62
     4
100
AcDbCircle
 10
1598.010460979546
 20
588.0680008122872
 30
0.0
 40
3.0
100
AcDbArc
 50
0.0
 51
90.0
  0
LINE
  5
71BC
330
1E
100
AcDbEntity
  8
製品
  6
Continuous
 62
     4
100
AcDbLine
 10
1601.010460979546
 20
585.5680008122872
 30
0.0
 11
1600.210460979546
 21
585.5680008122872
 31
0.0
  0
LINE
  5
71BD
330
1E
100
AcDbEntity
  8
製品
  6
Continuous
 62
     4
100
AcDbLine
 10
1600.210460979546
 20
585.5680008122872
 30
0.0
 11
1600.210460979546
 21
588.0680008122872
 31
0.0
  0
LINE
  5
71BE
330
1E
100
AcDbEntity
  8
製品
  6
Continuous
 62
     4
100
AcDbLine
 10
1601.010460979546
 20
588.0680008122872
 30
0.0
 11
1601.010460979546
 21
585.5680008122872
 31
0.0
  0
ARC
  5
71BF
330
1E
100
AcDbEntity
  8
製品
  6
Continuous
 62
     4
100
AcDbCircle
 10
1595.510460979546
 20
589.5680008122872
 30
0.0
 40
0.7
100
AcDbArc
 50
90.0
 51
180.0
  0
ARC
  5
71C0
330
1E
100
AcDbEntity
  8
製品
  6
Continuous
 62
     4
100
AcDbCircle
 10
1595.510460979546
 20
589.5680008122872
 30
0.0
 40
1.5
100
AcDbArc
 50
90.0
 51
180.0
  0
LINE
  5
71C1
330
1E
100
AcDbEntity
  8
製品
  6
Continuous
 62
     4
100
AcDbLine
 10
1594.810460979546
 20
586.0680008122872
 30
0.0
 11
1595.510460979546
 21
584.5680008122871
 31
0.0
  0
LINE
  5
71C2
330
1E
100
AcDbEntity
  8
製品
  6
Continuous
 62
     4
100
AcDbLine
 10
1595.510460979546
 20
584.5680008122871
 30
0.0
 11
1594.810460979546
 21
583.0680008122872
 31
0.0
  0
LINE
  5
71C3
330
1E
100
AcDbEntity
  8
製品
  6
Continuous
 62
     4
100
AcDbLine
 10
1594.010460979546
 20
586.0680008122872
 30
0.0
 11
1594.710460979546
 21
584.5680008122871
 31
0.0
  0
LINE
  5
71C4
330
1E
100
AcDbEntity
  8
製品
  6
Continuous
 62
     4
100
AcDbLine
 10
1594.710460979546
 20
584.5680008122871
 30
0.0
 11
1594.010460979546
 21
583.0680008122872
 31
0.0
  0
LINE
  5
71C5
330
1E
100
AcDbEntity
  8
製品
  6
Continuous
 62
     4
100
AcDbLine
 10
1595.510460979546
 20
581.5680008122872
 30
0.0
 11
1594.810460979546
 21
583.0680008122872
 31
0.0
  0
LINE
  5
71C6
330
1E
100
AcDbEntity
  8
製品
  6
Continuous
 62
     4
100
AcDbLine
 10
1594.010460979546
 20
583.0680008122872
 30
0.0
 11
1594.710460979546
 21
581.5680008122872
 31
0.0
  0
LINE
  5
71C7
330
1E
100
AcDbEntity
  8
製品
  6
Continuous
 62
     4
100
AcDbLine
 10
1594.810460979546
 20
580.0680008122871
 30
0.0
 11
1595.510460979546
 21
578.5680008122872
 31
0.0
  0
LINE
  5
71C8
330
1E
100
AcDbEntity
  8
製品
  6
Continuous
 62
     4
100
AcDbLine
 10
1594.010460979546
 20
580.0680008122871
 30
0.0
 11
1594.710460979546
 21
578.5680008122872
 31
0.0
  0
LINE
  5
71C9
330
1E
100
AcDbEntity
  8
製品
  6
Continuous
 62
     4
100
AcDbLine
 10
1594.710460979546
 20
578.5680008122872
 30
0.0
 11
1594.010460979546
 21
577.0680008122872
 31
0.0
  0
LINE
  5
71CA
330
1E
100
AcDbEntity
  8
製品
  6
Continuous
 62
     4
100
AcDbLine
 10
1595.510460979546
 20
578.5680008122872
 30
0.0
 11
1594.810460979546
 21
577.0680008122872
 31
0.0
  0
LINE
  5
71CB
330
1E
100
AcDbEntity
  8
製品
  6
Continuous
 62
     4
100
AcDbLine
 10
1594.710460979546
 20
581.5680008122872
 30
0.0
 11
1594.010460979546
 21
580.0680008122871
 31
0.0
  0
LINE
  5
71CC
330
1E
100
AcDbEntity
  8
製品
  6
Continuous
 62
     4
100
AcDbLine
 10
1595.510460979546
 20
581.5680008122872
 30
0.0
 11
1594.810460979546
 21
580.0680008122871
 31
0.0
  0
LINE
  5
71CD
330
1E
100
AcDbEntity
  8
製品
  6
Continuous
 62
     4
100
AcDbLine
 10
1594.810460979546
 20
589.5680008122872
 30
0.0
 11
1594.810460979546
 21
586.0680008122872
 31
0.0
  0
LINE
  5
71CE
330
1E
100
AcDbEntity
  8
製品
  6
Continuous
 62
     4
100
AcDbLine
 10
1594.010460979546
 20
589.5680008122872
 30
0.0
 11
1594.010460979546
 21
586.0680008122872
 31
0.0
  0
LINE
  5
71CF
330
1E
100
AcDbEntity
  8
製品
  6
Continuous
 62
     4
100
AcDbLine
 10
1598.010460979546
 20
590.268000812287
 30
0.0
 11
1595.510460979546
 21
590.268000812287
 31
0.0
  0
LINE
  5
71D0
330
1E
100
AcDbEntity
  8
製品
  6
Continuous
 62
     4
100
AcDbLine
 10
1598.010460979546
 20
591.0680008122872
 30
0.0
 11
1595.510460979546
 21
591.0680008122872
 31
0.0
  0
LINE
  5
71D1
330
1E
100
AcDbEntity
  8
製品
  6
Continuous
 62
     4
100
AcDbLine
 10
1600.985460979546
 20
546.0680008122872
 30
0.0
 11
1601.851485979546
 21
547.5680008122871
 31
0.0
  0
LINE
  5
71D2
330
1E
100
AcDbEntity
  8
製品
  6
Continuous
 62
     4
100
AcDbLine
 10
1600.606314979546
 20
546.8680008122865
 30
0.0
 11
1601.472340979546
 21
548.3680008122864
 31
0.0
  0
LINE
  5
71D3
330
1E
100
AcDbEntity
  8
製品
  6
Continuous
 62
     4
100
AcDbLine
 10
1597.010460979546
 20
546.0680008122872
 30
0.0
 11
1600.985460979546
 21
546.0680008122872
 31
0.0
  0
LINE
  5
71D4
330
1E
100
AcDbEntity
  8
製品
  6
Continuous
 62
     4
100
AcDbLine
 10
1597.010460979546
 20
546.8680008122865
 30
0.0
 11
1600.606314979546
 21
546.8680008122865
 31
0.0
  0
LINE
  5
71D5
330
1E
100
AcDbEntity
  8
製品
  6
Continuous
 62
     4
100
AcDbLine
 10
1595.510460979546
 20
575.5680008122872
 30
0.0
 11
1594.810460979546
 21
574.0680008122872
 31
0.0
  0
LINE
  5
71D6
330
1E
100
AcDbEntity
  8
製品
  6
Continuous
 62
     4
100
AcDbLine
 10
1594.710460979546
 20
575.5680008122872
 30
0.0
 11
1594.010460979546
 21
574.0680008122872
 31
0.0
  0
LINE
  5
71D7
330
1E
100
AcDbEntity
  8
製品
  6
Continuous
 62
     4
100
AcDbLine
 10
1594.810460979546
 20
574.0680008122872
 30
0.0
 11
1595.510460979546
 21
572.5680008122871
 31
0.0
  0
LINE
  5
71D8
330
1E
100
AcDbEntity
  8
製品
  6
Continuous
 62
     4
100
AcDbLine
 10
1594.010460979546
 20
574.0680008122872
 30
0.0
 11
1594.710460979546
 21
572.5680008122871
 31
0.0
  0
LINE
  5
71D9
330
1E
100
AcDbEntity
  8
製品
  6
Continuous
 62
     4
100
AcDbLine
 10
1594.710460979546
 20
572.5680008122871
 30
0.0
 11
1594.010460979546
 21
571.0680008122872
 31
0.0
  0
LINE
  5
71DA
330
1E
100
AcDbEntity
  8
製品
  6
Continuous
 62
     4
100
AcDbLine
 10
1595.510460979546
 20
572.5680008122871
 30
0.0
 11
1594.810460979546
 21
571.0680008122872
 31
0.0
  0
LINE
  5
71DB
330
1E
100
AcDbEntity
  8
製品
  6
Continuous
 62
     4
100
AcDbLine
 10
1594.010460979546
 20
567.268000812287
 30
0.0
 11
1594.010460979546
 21
566.0680008122872
 31
0.0
  0
LINE
  5
71DC
330
1E
100
AcDbEntity
  8
製品
  6
Continuous
 62
     4
100
AcDbLine
 10
1594.810460979546
 20
566.0680008122872
 30
0.0
 11
1594.810460979546
 21
567.268000812287
 31
0.0
  0
LINE
  5
71DD
330
1E
100
AcDbEntity
  8
製品
  6
Continuous
 62
     4
100
AcDbLine
 10
1594.810460979546
 20
567.268000812287
 30
0.0
 11
1595.510460979546
 21
568.5680008122871
 31
0.0
  0
LINE
  5
71DE
330
1E
100
AcDbEntity
  8
製品
  6
Continuous
 62
     4
100
AcDbLine
 10
1594.010460979546
 20
567.268000812287
 30
0.0
 11
1594.710460979546
 21
568.5680008122871
 31
0.0
  0
LINE
  5
71DF
330
1E
100
AcDbEntity
  8
製品
  6
Continuous
 62
     4
100
AcDbLine
 10
1594.810460979546
 20
569.8680008122864
 30
0.0
 11
1595.510460979546
 21
568.5680008122871
 31
0.0
  0
LINE
  5
71E0
330
1E
100
AcDbEntity
  8
製品
  6
Continuous
 62
     4
100
AcDbLine
 10
1594.010460979546
 20
569.8680008122864
 30
0.0
 11
1594.710460979546
 21
568.5680008122871
 31
0.0
  0
LINE
  5
71E1
330
1E
100
AcDbEntity
  8
製品
  6
Continuous
 62
     4
100
AcDbLine
 10
1594.010460979546
 20
569.8680008122864
 30
0.0
 11
1594.010460979546
 21
571.0680008122872
 31
0.0
  0
LINE
  5
71E2
330
1E
100
AcDbEntity
  8
製品
  6
Continuous
 62
     4
100
AcDbLine
 10
1594.810460979546
 20
571.0680008122872
 30
0.0
 11
1594.810460979546
 21
569.8680008122864
 31
0.0
  0
LINE
  5
71E3
330
1E
100
AcDbEntity
  8
製品
  6
Continuous
 62
     4
100
AcDbLine
 10
1595.510460979546
 20
561.5680008122872
 30
0.0
 11
1594.810460979546
 21
563.0680008122872
 31
0.0
  0
LINE
  5
71E4
330
1E
100
AcDbEntity
  8
製品
  6
Continuous
 62
     4
100
AcDbLine
 10
1594.710460979546
 20
561.5680008122872
 30
0.0
 11
1594.010460979546
 21
563.0680008122872
 31
0.0
  0
LINE
  5
71E5
330
1E
100
AcDbEntity
  8
製品
  6
Continuous
 62
     4
100
AcDbLine
 10
1594.810460979546
 20
563.0680008122872
 30
0.0
 11
1595.510460979546
 21
564.5680008122872
 31
0.0
  0
LINE
  5
71E6
330
1E
100
AcDbEntity
  8
製品
  6
Continuous
 62
     4
100
AcDbLine
 10
1594.010460979546
 20
563.0680008122872
 30
0.0
 11
1594.710460979546
 21
564.5680008122872
 31
0.0
  0
LINE
  5
71E7
330
1E
100
AcDbEntity
  8
製品
  6
Continuous
 62
     4
100
AcDbLine
 10
1594.710460979546
 20
555.5680008122871
 30
0.0
 11
1594.010460979546
 21
557.0680008122872
 31
0.0
  0
LINE
  5
71E8
330
1E
100
AcDbEntity
  8
製品
  6
Continuous
 62
     4
100
AcDbLine
 10
1595.510460979546
 20
555.5680008122871
 30
0.0
 11
1594.810460979546
 21
557.0680008122872
 31
0.0
  0
LINE
  5
71E9
330
1E
100
AcDbEntity
  8
製品
  6
Continuous
 62
     4
100
AcDbLine
 10
1594.810460979546
 20
557.0680008122872
 30
0.0
 11
1595.510460979546
 21
558.5680008122872
 31
0.0
  0
LINE
  5
71EA
330
1E
100
AcDbEntity
  8
製品
  6
Continuous
 62
     4
100
AcDbLine
 10
1594.010460979546
 20
557.0680008122872
 30
0.0
 11
1594.710460979546
 21
558.5680008122872
 31
0.0
  0
LINE
  5
71EB
330
1E
100
AcDbEntity
  8
製品
  6
Continuous
 62
     4
100
AcDbLine
 10
1594.710460979546
 20
558.5680008122872
 30
0.0
 11
1594.010460979546
 21
560.0680008122871
 31
0.0
  0
LINE
  5
71EC
330
1E
100
AcDbEntity
  8
製品
  6
Continuous
 62
     4
100
AcDbLine
 10
1595.510460979546
 20
558.5680008122872
 30
0.0
 11
1594.810460979546
 21
560.0680008122871
 31
0.0
  0
LINE
  5
71ED
330
1E
100
AcDbEntity
  8
製品
  6
Continuous
 62
     4
100
AcDbLine
 10
1594.810460979546
 20
560.0680008122871
 30
0.0
 11
1595.510460979546
 21
561.5680008122872
 31
0.0
  0
LINE
  5
71EE
330
1E
100
AcDbEntity
  8
製品
  6
Continuous
 62
     4
100
AcDbLine
 10
1594.010460979546
 20
560.0680008122871
 30
0.0
 11
1594.710460979546
 21
561.5680008122872
 31
0.0
  0
LINE
  5
71EF
330
1E
100
AcDbEntity
  8
製品
  6
Continuous
 62
     4
100
AcDbLine
 10
1594.710460979546
 20
564.5680008122872
 30
0.0
 11
1594.010460979546
 21
566.0680008122872
 31
0.0
  0
LINE
  5
71F0
330
1E
100
AcDbEntity
  8
製品
  6
Continuous
 62
     4
100
AcDbLine
 10
1595.510460979546
 20
564.5680008122872
 30
0.0
 11
1594.810460979546
 21
566.0680008122872
 31
0.0
  0
LINE
  5
71F1
330
1E
100
AcDbEntity
  8
製品
  6
Continuous
 62
     4
100
AcDbLine
 10
1594.810460979546
 20
551.0680008122871
 30
0.0
 11
1595.510460979546
 21
552.5680008122872
 31
0.0
  0
LINE
  5
71F2
330
1E
100
AcDbEntity
  8
製品
  6
Continuous
 62
     4
100
AcDbLine
 10
1595.510460979546
 20
552.5680008122872
 30
0.0
 11
1594.810460979546
 21
554.0680008122872
 31
0.0
  0
LINE
  5
71F3
330
1E
100
AcDbEntity
  8
製品
  6
Continuous
 62
     4
100
AcDbLine
 10
1594.010460979546
 20
551.0680008122871
 30
0.0
 11
1594.710460979546
 21
552.5680008122872
 31
0.0
  0
LINE
  5
71F4
330
1E
100
AcDbEntity
  8
製品
  6
Continuous
 62
     4
100
AcDbLine
 10
1594.710460979546
 20
552.5680008122872
 30
0.0
 11
1594.010460979546
 21
554.0680008122872
 31
0.0
  0
LINE
  5
71F5
330
1E
100
AcDbEntity
  8
製品
  6
Continuous
 62
     4
100
AcDbLine
 10
1594.010460979546
 20
551.0680008122871
 30
0.0
 11
1594.010460979546
 21
549.0680008122872
 31
0.0
  0
LINE
  5
71F6
330
1E
100
AcDbEntity
  8
製品
  6
Continuous
 62
     4
100
AcDbLine
 10
1594.810460979546
 20
551.0680008122871
 30
0.0
 11
1594.810460979546
 21
549.0680008122872
 31
0.0
  0
LINE
  5
71F7
330
1E
100
AcDbEntity
  8
製品
  6
Continuous
 62
     4
100
AcDbLine
 10
1595.510460979546
 20
555.5680008122871
 30
0.0
 11
1594.810460979546
 21
554.0680008122872
 31
0.0
  0
LINE
  5
71F8
330
1E
100
AcDbEntity
  8
製品
  6
Continuous
 62
     4
100
AcDbLine
 10
1594.010460979546
 20
554.0680008122872
 30
0.0
 11
1594.710460979546
 21
555.5680008122871
 31
0.0
  0
ARC
  5
71F9
330
1E
100
AcDbEntity
  8
製品
  6
Continuous
 62
     4
100
AcDbCircle
 10
1597.010460979546
 20
549.0680008122872
 30
0.0
 40
3.0
100
AcDbArc
 50
180.0
 51
270.0
  0
ARC
  5
71FA
330
1E
100
AcDbEntity
  8
製品
  6
Continuous
 62
     4
100
AcDbCircle
 10
1597.010460979546
 20
549.0680008122872
 30
0.0
 40
2.2
100
AcDbArc
 50
180.0
 51
270.0
  0
LINE
  5
71FB
330
1E
100
AcDbEntity
  8
製品
  6
Continuous
 62
     4
100
AcDbLine
 10
1594.810460979546
 20
577.0680008122872
 30
0.0
 11
1595.510460979546
 21
575.5680008122872
 31
0.0
  0
LINE
  5
71FC
330
1E
100
AcDbEntity
  8
製品
  6
Continuous
 62
     4
100
AcDbLine
 10
1594.010460979546
 20
577.0680008122872
 30
0.0
 11
1594.710460979546
 21
575.5680008122872
 31
0.0
  0
TEXT
  5
71FD
330
1E
100
AcDbEntity
  8
文字-記号
  6
Continuous
 62
     4
100
AcDbText
 10
1628.094073979546
 20
595.5529998122865
 30
0.0
 40
5.0
  1
ＷＳ９０
 41
0.8
  7
ACAD
100
AcDbText
  0
LINE
  5
71FE
330
1E
100
AcDbEntity
  8
製品
  6
PLINE3
 62
     3
100
AcDbLine
 10
1639.010460979546
 20
541.1156768122864
 30
0.0
 11
1639.010460979546
 21
563.6013068122865
 31
0.0
  0
LINE
  5
71FF
330
1E
100
AcDbEntity
  8
文字-記号
  6
Continuous
 62
     7
100
AcDbLine
 10
1698.405074979546
 20
363.7058788122867
 30
0.0
 11
1698.405074979546
 21
623.1827308122865
 31
0.0
  0
DIMENSION
  5
7200
330
1E
100
AcDbEntity
  8
寸法
  6
Continuous
100
AcDbDimension
  2
*D48
 10
1694.216121979546
 20
470.8878468122866
 30
0.0
 11
1690.916121979546
 21
490.889234812287
 31
0.0
 70
    32
 71
     5
 42
-1.0
  3
AutoCAD
100
AcDbAlignedDimension
 13
1686.010460979546
 23
510.8906228122869
 33
0.0
 14
1684.273504979546
 24
470.8878468122866
 34
0.0
 50
90.0
100
AcDbRotatedDimension
1001
ACAD
1000
DSTYLE
1002
{
1070
   147
1040
0.8
1070
   140
1040
10.0
1002
}
  0
TEXT
  5
7201
330
1E
100
AcDbEntity
  8
文字-記号
  6
Continuous
 62
     4
100
AcDbText
 10
1656.539477979546
 20
420.0579018122871
 30
0.0
 40
5.0
  1
ＷＢ２５
 41
0.8
  7
ACAD
100
AcDbText
  0
DIMENSION
  5
7202
330
1E
100
AcDbEntity
  8
寸法
  6
Continuous
100
AcDbDimension
  2
*D49
 10
1674.587992979545
 20
377.6334018122871
 30
0.0
 11
1669.587992979546
 21
380.933401812287
 31
0.0
 70
    32
 71
     5
 42
-1.0
  3
AutoCAD
100
AcDbAlignedDimension
 13
1664.587992979546
 23
386.432503812287
 33
0.0
 14
1674.587992979545
 24
383.932503812287
 34
0.0
100
AcDbRotatedDimension
1001
ACAD
1000
DSTYLE
1002
{
1070
   147
1040
0.8
1070
   140
1040
10.0
1002
}
  0
LINE
  5
7203
330
1E
100
AcDbEntity
  8
製品
  6
Continuous
 62
     4
100
AcDbLine
 10
1674.587992979545
 20
409.9325038122869
 30
0.0
 11
1667.087992979546
 21
409.9325038122869
 31
0.0
  0
LINE
  5
7204
330
1E
100
AcDbEntity
  8
製品
  6
Continuous
 62
     4
100
AcDbLine
 10
1674.587992979545
 20
408.7325038122871
 30
0.0
 11
1667.087992979546
 21
408.7325038122871
 31
0.0
  0
LINE
  5
7205
330
1E
100
AcDbEntity
  8
製品
  6
Continuous
 62
     4
100
AcDbLine
 10
1674.587992979545
 20
384.932503812287
 30
0.0
 11
1667.087992979546
 21
384.932503812287
 31
0.0
  0
LINE
  5
7206
330
1E
100
AcDbEntity
  8
製品
  6
Continuous
 62
     4
100
AcDbLine
 10
1674.587992979545
 20
386.1325038122868
 30
0.0
 11
1667.087992979546
 21
386.1325038122868
 31
0.0
  0
ARC
  5
7207
330
1E
100
AcDbEntity
  8
製品
  6
Continuous
 62
     4
100
AcDbCircle
 10
1667.087992979546
 20
407.432503812287
 30
0.0
 40
1.3
100
AcDbArc
 50
90.0
 51
180.0
  0
ARC
  5
7208
330
1E
100
AcDbEntity
  8
製品
  6
Continuous
 62
     4
100
AcDbCircle
 10
1667.087992979546
 20
407.432503812287
 30
0.0
 40
2.5
100
AcDbArc
 50
90.0
 51
180.0
  0
LINE
  5
7209
330
1E
100
AcDbEntity
  8
製品
  6
Continuous
 62
     4
100
AcDbLine
 10
1664.587992979546
 20
387.432503812287
 30
0.0
 11
1664.587992979546
 21
403.932503812287
 31
0.0
  0
LINE
  5
720A
330
1E
100
AcDbEntity
  8
製品
  6
Continuous
 62
     4
100
AcDbLine
 10
1665.787992979546
 20
387.432503812287
 30
0.0
 11
1665.787992979546
 21
403.932503812287
 31
0.0
  0
ARC
  5
720B
330
1E
100
AcDbEntity
  8
製品
  6
Continuous
 62
     4
100
AcDbCircle
 10
1667.087992979546
 20
387.432503812287
 30
0.0
 40
2.5
100
AcDbArc
 50
180.0
 51
270.0
  0
ARC
  5
720C
330
1E
100
AcDbEntity
  8
製品
  6
Continuous
 62
     4
100
AcDbCircle
 10
1667.087992979546
 20
387.432503812287
 30
0.0
 40
1.3
100
AcDbArc
 50
180.0
 51
270.0
  0
LINE
  5
720D
330
1E
100
AcDbEntity
  8
製品
  6
Continuous
 62
     4
100
AcDbLine
 10
1664.587992979546
 20
407.432503812287
 30
0.0
 11
1664.587992979546
 21
403.932503812287
 31
0.0
  0
LINE
  5
720E
330
1E
100
AcDbEntity
  8
製品
  6
Continuous
 62
     4
100
AcDbLine
 10
1665.787992979546
 20
407.432503812287
 30
0.0
 11
1665.787992979546
 21
403.932503812287
 31
0.0
  0
LINE
  5
720F
330
1E
100
AcDbEntity
  8
製品
  6
Continuous
 62
     4
100
AcDbLine
 10
1665.787992979546
 20
387.432503812287
 30
0.0
 11
1665.787992979546
 21
407.432503812287
 31
0.0
  0
LINE
  5
7210
330
1E
100
AcDbEntity
  8
製品
  6
Continuous
 62
     4
100
AcDbLine
 10
1664.587992979546
 20
387.432503812287
 30
0.0
 11
1664.587992979546
 21
407.432503812287
 31
0.0
  0
DIMENSION
  5
7211
330
1E
100
AcDbEntity
  8
寸法
  6
Continuous
100
AcDbDimension
  2
*D50
 10
1681.153744979546
 20
384.932503812287
 30
0.0
 11
1677.853744979546
 21
397.4325038122873
 31
0.0
 70
    32
 71
     5
 42
-1.0
  3
AutoCAD
100
AcDbAlignedDimension
 13
1675.587992979546
 23
409.9325038122869
 33
0.0
 14
1675.587992979546
 24
384.932503812287
 34
0.0
 50
90.0
100
AcDbRotatedDimension
1001
ACAD
1000
DSTYLE
1002
{
1070
   147
1040
0.8
1070
   140
1040
10.0
1002
}
  0
LINE
  5
7212
330
1E
100
AcDbEntity
  8
製品
  6
Continuous
 62
     4
100
AcDbLine
 10
1674.587992979545
 20
409.9325038122869
 30
0.0
 11
1674.587992979545
 21
408.7325038122871
 31
0.0
  0
LINE
  5
7213
330
1E
100
AcDbEntity
  8
製品
  6
Continuous
 62
     4
100
AcDbLine
 10
1674.587992979545
 20
384.932503812287
 30
0.0
 11
1674.587992979545
 21
386.1325038122868
 31
0.0
  0
LINE
  5
7214
330
1E
100
AcDbEntity
  8
製品
  6
Continuous
 62
     4
100
AcDbLine
 10
1684.210460979546
 20
510.8933988122871
 30
0.0
 11
1685.010119979545
 21
510.8933988122871
 31
0.0
  0
ARC
  5
7215
330
1E
100
AcDbEntity
  8
製品
  6
Continuous
 62
     4
100
AcDbCircle
 10
1683.260460979546
 20
472.6406228122868
 30
0.0
 40
0.95
100
AcDbArc
 50
270.0
 51
0.0
  0
ARC
  5
7216
330
1E
100
AcDbEntity
  8
製品
  6
Continuous
 62
     4
100
AcDbCircle
 10
1683.260460979546
 20
472.6406228122868
 30
0.0
 40
1.75
100
AcDbArc
 50
270.0
 51
0.0
  0
LINE
  5
7217
330
1E
100
AcDbEntity
  8
製品
  6
Continuous
 62
     4
100
AcDbLine
 10
1684.210460979546
 20
472.6406228122868
 30
0.0
 11
1684.210460979546
 21
510.8933988122871
 31
0.0
  0
LINE
  5
7218
330
1E
100
AcDbEntity
  8
製品
  6
Continuous
 62
     4
100
AcDbLine
 10
1685.010460979546
 20
472.6406228122868
 30
0.0
 11
1685.010460979546
 21
510.8933988122871
 31
0.0
  0
DIMENSION
  5
7219
330
1E
100
AcDbEntity
  8
寸法
  6
Continuous
100
AcDbDimension
  2
*D51
 10
1694.216121979546
 20
546.0680008122872
 30
0.0
 11
1690.916121979546
 21
568.5680008122874
 31
0.0
 70
    32
 71
     5
 42
-1.0
  3
AutoCAD
100
AcDbAlignedDimension
 13
1684.010460979546
 23
591.0680008122872
 33
0.0
 14
1682.010460979546
 24
546.0680008122872
 34
0.0
 50
90.0
100
AcDbRotatedDimension
1001
ACAD
1000
DSTYLE
1002
{
1070
   147
1040
0.8
1070
   140
1040
10.0
1002
}
  0
ARC
  5
721A
330
1E
100
AcDbEntity
  8
製品
  6
Continuous
 62
     4
100
AcDbCircle
 10
1682.510460979546
 20
589.5680008122872
 30
0.0
 40
0.7
100
AcDbArc
 50
0.0
 51
90.0
  0
ARC
  5
721B
330
1E
100
AcDbEntity
  8
製品
  6
Continuous
 62
     4
100
AcDbCircle
 10
1682.510460979546
 20
589.5680008122872
 30
0.0
 40
1.5
100
AcDbArc
 50
0.0
 51
90.0
  0
ARC
  5
721C
330
1E
100
AcDbEntity
  8
製品
  6
Continuous
 62
     4
100
AcDbCircle
 10
1680.010460979546
 20
588.0680008122872
 30
0.0
 40
2.2
100
AcDbArc
 50
90.0
 51
180.0
  0
ARC
  5
721D
330
1E
100
AcDbEntity
  8
製品
  6
Continuous
 62
     4
100
AcDbCircle
 10
1680.010460979546
 20
588.0680008122872
 30
0.0
 40
3.0
100
AcDbArc
 50
90.0
 51
180.0
  0
LINE
  5
721E
330
1E
100
AcDbEntity
  8
製品
  6
Continuous
 62
     4
100
AcDbLine
 10
1680.010460979546
 20
590.268000812287
 30
0.0
 11
1682.510460979546
 21
590.268000812287
 31
0.0
  0
LINE
  5
721F
330
1E
100
AcDbEntity
  8
製品
  6
Continuous
 62
     4
100
AcDbLine
 10
1680.010460979546
 20
591.0680008122872
 30
0.0
 11
1682.510460979546
 21
591.0680008122872
 31
0.0
  0
LINE
  5
7220
330
1E
100
AcDbEntity
  8
製品
  6
Continuous
 62
     4
100
AcDbLine
 10
1683.210460979546
 20
586.0680008122872
 30
0.0
 11
1682.510460979546
 21
584.5680008122871
 31
0.0
  0
LINE
  5
7221
330
1E
100
AcDbEntity
  8
製品
  6
Continuous
 62
     4
100
AcDbLine
 10
1682.510460979546
 20
584.5680008122871
 30
0.0
 11
1683.210460979546
 21
583.0680008122872
 31
0.0
  0
LINE
  5
7222
330
1E
100
AcDbEntity
  8
製品
  6
Continuous
 62
     4
100
AcDbLine
 10
1682.510460979546
 20
581.5680008122872
 30
0.0
 11
1683.210460979546
 21
583.0680008122872
 31
0.0
  0
LINE
  5
7223
330
1E
100
AcDbEntity
  8
製品
  6
Continuous
 62
     4
100
AcDbLine
 10
1684.010460979546
 20
586.0680008122872
 30
0.0
 11
1683.310460979546
 21
584.5680008122871
 31
0.0
  0
LINE
  5
7224
330
1E
100
AcDbEntity
  8
製品
  6
Continuous
 62
     4
100
AcDbLine
 10
1683.310460979546
 20
584.5680008122871
 30
0.0
 11
1684.010460979546
 21
583.0680008122872
 31
0.0
  0
LINE
  5
7225
330
1E
100
AcDbEntity
  8
製品
  6
Continuous
 62
     4
100
AcDbLine
 10
1684.010460979546
 20
583.0680008122872
 30
0.0
 11
1683.310460979546
 21
581.5680008122872
 31
0.0
  0
LINE
  5
7226
330
1E
100
AcDbEntity
  8
製品
  6
Continuous
 62
     4
100
AcDbLine
 10
1683.210460979546
 20
580.0680008122871
 30
0.0
 11
1682.510460979546
 21
578.5680008122872
 31
0.0
  0
LINE
  5
7227
330
1E
100
AcDbEntity
  8
製品
  6
Continuous
 62
     4
100
AcDbLine
 10
1682.510460979546
 20
578.5680008122872
 30
0.0
 11
1683.210460979546
 21
577.0680008122872
 31
0.0
  0
LINE
  5
7228
330
1E
100
AcDbEntity
  8
製品
  6
Continuous
 62
     4
100
AcDbLine
 10
1684.010460979546
 20
580.0680008122871
 30
0.0
 11
1683.310460979546
 21
578.5680008122872
 31
0.0
  0
LINE
  5
7229
330
1E
100
AcDbEntity
  8
製品
  6
Continuous
 62
     4
100
AcDbLine
 10
1683.310460979546
 20
578.5680008122872
 30
0.0
 11
1684.010460979546
 21
577.0680008122872
 31
0.0
  0
LINE
  5
722A
330
1E
100
AcDbEntity
  8
製品
  6
Continuous
 62
     4
100
AcDbLine
 10
1683.310460979546
 20
581.5680008122872
 30
0.0
 11
1684.010460979546
 21
580.0680008122871
 31
0.0
  0
LINE
  5
722B
330
1E
100
AcDbEntity
  8
製品
  6
Continuous
 62
     4
100
AcDbLine
 10
1682.510460979546
 20
581.5680008122872
 30
0.0
 11
1683.210460979546
 21
580.0680008122871
 31
0.0
  0
LINE
  5
722C
330
1E
100
AcDbEntity
  8
製品
  6
Continuous
 62
     4
100
AcDbLine
 10
1677.010460979546
 20
585.5680008122872
 30
0.0
 11
1677.810460979546
 21
585.5680008122872
 31
0.0
  0
LINE
  5
722D
330
1E
100
AcDbEntity
  8
製品
  6
Continuous
 62
     4
100
AcDbLine
 10
1677.810460979546
 20
585.5680008122872
 30
0.0
 11
1677.810460979546
 21
588.0680008122872
 31
0.0
  0
LINE
  5
722E
330
1E
100
AcDbEntity
  8
製品
  6
Continuous
 62
     4
100
AcDbLine
 10
1683.210460979546
 20
589.5680008122872
 30
0.0
 11
1683.210460979546
 21
586.0680008122872
 31
0.0
  0
LINE
  5
722F
330
1E
100
AcDbEntity
  8
製品
  6
Continuous
 62
     4
100
AcDbLine
 10
1684.010460979546
 20
589.5680008122872
 30
0.0
 11
1684.010460979546
 21
586.0680008122872
 31
0.0
  0
LINE
  5
7230
330
1E
100
AcDbEntity
  8
製品
  6
Continuous
 62
     4
100
AcDbLine
 10
1677.010460979546
 20
588.0680008122872
 30
0.0
 11
1677.010460979546
 21
585.5680008122872
 31
0.0
  0
LINE
  5
7231
330
1E
100
AcDbEntity
  8
製品
  6
Continuous
 62
     4
100
AcDbLine
 10
1682.510460979546
 20
575.5680008122872
 30
0.0
 11
1683.210460979546
 21
574.0680008122872
 31
0.0
  0
LINE
  5
7232
330
1E
100
AcDbEntity
  8
製品
  6
Continuous
 62
     4
100
AcDbLine
 10
1683.210460979546
 20
574.0680008122872
 30
0.0
 11
1682.510460979546
 21
572.5680008122871
 31
0.0
  0
LINE
  5
7233
330
1E
100
AcDbEntity
  8
製品
  6
Continuous
 62
     4
100
AcDbLine
 10
1682.510460979546
 20
572.5680008122871
 30
0.0
 11
1683.210460979546
 21
571.0680008122872
 31
0.0
  0
LINE
  5
7234
330
1E
100
AcDbEntity
  8
製品
  6
Continuous
 62
     4
100
AcDbLine
 10
1683.310460979546
 20
575.5680008122872
 30
0.0
 11
1684.010460979546
 21
574.0680008122872
 31
0.0
  0
LINE
  5
7235
330
1E
100
AcDbEntity
  8
製品
  6
Continuous
 62
     4
100
AcDbLine
 10
1684.010460979546
 20
574.0680008122872
 30
0.0
 11
1683.310460979546
 21
572.5680008122871
 31
0.0
  0
LINE
  5
7236
330
1E
100
AcDbEntity
  8
製品
  6
Continuous
 62
     4
100
AcDbLine
 10
1683.310460979546
 20
572.5680008122871
 30
0.0
 11
1684.010460979546
 21
571.0680008122872
 31
0.0
  0
LINE
  5
7237
330
1E
100
AcDbEntity
  8
製品
  6
Continuous
 62
     4
100
AcDbLine
 10
1684.010460979546
 20
567.268000812287
 30
0.0
 11
1684.010460979546
 21
566.0680008122872
 31
0.0
  0
LINE
  5
7238
330
1E
100
AcDbEntity
  8
製品
  6
Continuous
 62
     4
100
AcDbLine
 10
1683.210460979546
 20
566.0680008122872
 30
0.0
 11
1683.210460979546
 21
567.268000812287
 31
0.0
  0
LINE
  5
7239
330
1E
100
AcDbEntity
  8
製品
  6
Continuous
 62
     4
100
AcDbLine
 10
1683.210460979546
 20
567.268000812287
 30
0.0
 11
1682.510460979546
 21
568.5680008122871
 31
0.0
  0
LINE
  5
723A
330
1E
100
AcDbEntity
  8
製品
  6
Continuous
 62
     4
100
AcDbLine
 10
1683.210460979546
 20
569.8680008122864
 30
0.0
 11
1682.510460979546
 21
568.5680008122871
 31
0.0
  0
LINE
  5
723B
330
1E
100
AcDbEntity
  8
製品
  6
Continuous
 62
     4
100
AcDbLine
 10
1684.010460979546
 20
567.268000812287
 30
0.0
 11
1683.310460979546
 21
568.5680008122871
 31
0.0
  0
LINE
  5
723C
330
1E
100
AcDbEntity
  8
製品
  6
Continuous
 62
     4
100
AcDbLine
 10
1684.010460979546
 20
569.8680008122864
 30
0.0
 11
1683.310460979546
 21
568.5680008122871
 31
0.0
  0
LINE
  5
723D
330
1E
100
AcDbEntity
  8
製品
  6
Continuous
 62
     4
100
AcDbLine
 10
1684.010460979546
 20
569.8680008122864
 30
0.0
 11
1684.010460979546
 21
571.0680008122872
 31
0.0
  0
LINE
  5
723E
330
1E
100
AcDbEntity
  8
製品
  6
Continuous
 62
     4
100
AcDbLine
 10
1683.210460979546
 20
571.0680008122872
 30
0.0
 11
1683.210460979546
 21
569.8680008122864
 31
0.0
  0
LINE
  5
723F
330
1E
100
AcDbEntity
  8
製品
  6
Continuous
 62
     4
100
AcDbLine
 10
1682.510460979546
 20
561.5680008122872
 30
0.0
 11
1683.210460979546
 21
563.0680008122872
 31
0.0
  0
LINE
  5
7240
330
1E
100
AcDbEntity
  8
製品
  6
Continuous
 62
     4
100
AcDbLine
 10
1683.210460979546
 20
563.0680008122872
 30
0.0
 11
1682.510460979546
 21
564.5680008122872
 31
0.0
  0
LINE
  5
7241
330
1E
100
AcDbEntity
  8
製品
  6
Continuous
 62
     4
100
AcDbLine
 10
1683.310460979546
 20
561.5680008122872
 30
0.0
 11
1684.010460979546
 21
563.0680008122872
 31
0.0
  0
LINE
  5
7242
330
1E
100
AcDbEntity
  8
製品
  6
Continuous
 62
     4
100
AcDbLine
 10
1684.010460979546
 20
563.0680008122872
 30
0.0
 11
1683.310460979546
 21
564.5680008122872
 31
0.0
  0
LINE
  5
7243
330
1E
100
AcDbEntity
  8
製品
  6
Continuous
 62
     4
100
AcDbLine
 10
1682.510460979546
 20
555.5680008122871
 30
0.0
 11
1683.210460979546
 21
557.0680008122872
 31
0.0
  0
LINE
  5
7244
330
1E
100
AcDbEntity
  8
製品
  6
Continuous
 62
     4
100
AcDbLine
 10
1683.210460979546
 20
557.0680008122872
 30
0.0
 11
1682.510460979546
 21
558.5680008122872
 31
0.0
  0
LINE
  5
7245
330
1E
100
AcDbEntity
  8
製品
  6
Continuous
 62
     4
100
AcDbLine
 10
1682.510460979546
 20
558.5680008122872
 30
0.0
 11
1683.210460979546
 21
560.0680008122871
 31
0.0
  0
LINE
  5
7246
330
1E
100
AcDbEntity
  8
製品
  6
Continuous
 62
     4
100
AcDbLine
 10
1683.310460979546
 20
555.5680008122871
 30
0.0
 11
1684.010460979546
 21
557.0680008122872
 31
0.0
  0
LINE
  5
7247
330
1E
100
AcDbEntity
  8
製品
  6
Continuous
 62
     4
100
AcDbLine
 10
1684.010460979546
 20
557.0680008122872
 30
0.0
 11
1683.310460979546
 21
558.5680008122872
 31
0.0
  0
LINE
  5
7248
330
1E
100
AcDbEntity
  8
製品
  6
Continuous
 62
     4
100
AcDbLine
 10
1683.310460979546
 20
558.5680008122872
 30
0.0
 11
1684.010460979546
 21
560.0680008122871
 31
0.0
  0
LINE
  5
7249
330
1E
100
AcDbEntity
  8
製品
  6
Continuous
 62
     4
100
AcDbLine
 10
1683.210460979546
 20
560.0680008122871
 30
0.0
 11
1682.510460979546
 21
561.5680008122872
 31
0.0
  0
LINE
  5
724A
330
1E
100
AcDbEntity
  8
製品
  6
Continuous
 62
     4
100
AcDbLine
 10
1684.010460979546
 20
560.0680008122871
 30
0.0
 11
1683.310460979546
 21
561.5680008122872
 31
0.0
  0
LINE
  5
724B
330
1E
100
AcDbEntity
  8
製品
  6
Continuous
 62
     4
100
AcDbLine
 10
1683.310460979546
 20
564.5680008122872
 30
0.0
 11
1684.010460979546
 21
566.0680008122872
 31
0.0
  0
LINE
  5
724C
330
1E
100
AcDbEntity
  8
製品
  6
Continuous
 62
     4
100
AcDbLine
 10
1682.510460979546
 20
564.5680008122872
 30
0.0
 11
1683.210460979546
 21
566.0680008122872
 31
0.0
  0
LINE
  5
724D
330
1E
100
AcDbEntity
  8
製品
  6
Continuous
 62
     4
100
AcDbLine
 10
1683.210460979546
 20
551.0680008122871
 30
0.0
 11
1682.510460979546
 21
552.5680008122872
 31
0.0
  0
LINE
  5
724E
330
1E
100
AcDbEntity
  8
製品
  6
Continuous
 62
     4
100
AcDbLine
 10
1682.510460979546
 20
552.5680008122872
 30
0.0
 11
1683.210460979546
 21
554.0680008122872
 31
0.0
  0
LINE
  5
724F
330
1E
100
AcDbEntity
  8
製品
  6
Continuous
 62
     4
100
AcDbLine
 10
1684.010460979546
 20
551.0680008122871
 30
0.0
 11
1683.310460979546
 21
552.5680008122872
 31
0.0
  0
LINE
  5
7250
330
1E
100
AcDbEntity
  8
製品
  6
Continuous
 62
     4
100
AcDbLine
 10
1683.310460979546
 20
552.5680008122872
 30
0.0
 11
1684.010460979546
 21
554.0680008122872
 31
0.0
  0
ARC
  5
7251
330
1E
100
AcDbEntity
  8
製品
  6
Continuous
 62
     4
100
AcDbCircle
 10
1681.010460979546
 20
549.0680008122872
 30
0.0
 40
2.2
100
AcDbArc
 50
270.0
 51
0.0
  0
ARC
  5
7252
330
1E
100
AcDbEntity
  8
製品
  6
Continuous
 62
     4
100
AcDbCircle
 10
1681.010460979546
 20
549.0680008122872
 30
0.0
 40
3.0
100
AcDbArc
 50
270.0
 51
0.0
  0
LINE
  5
7253
330
1E
100
AcDbEntity
  8
製品
  6
Continuous
 62
     4
100
AcDbLine
 10
1684.010460979546
 20
551.0680008122871
 30
0.0
 11
1684.010460979546
 21
549.0680008122872
 31
0.0
  0
LINE
  5
7254
330
1E
100
AcDbEntity
  8
製品
  6
Continuous
 62
     4
100
AcDbLine
 10
1683.210460979546
 20
551.0680008122871
 30
0.0
 11
1683.210460979546
 21
549.0680008122872
 31
0.0
  0
LINE
  5
7255
330
1E
100
AcDbEntity
  8
製品
  6
Continuous
 62
     4
100
AcDbLine
 10
1677.414605979546
 20
546.8680008122865
 30
0.0
 11
1676.548579979546
 21
548.3680008122864
 31
0.0
  0
LINE
  5
7256
330
1E
100
AcDbEntity
  8
製品
  6
Continuous
 62
     4
100
AcDbLine
 10
1677.035459979546
 20
546.0680008122872
 30
0.0
 11
1676.169434979546
 21
547.5680008122871
 31
0.0
  0
LINE
  5
7257
330
1E
100
AcDbEntity
  8
製品
  6
Continuous
 62
     4
100
AcDbLine
 10
1681.010460979546
 20
546.0680008122872
 30
0.0
 11
1677.035459979546
 21
546.0680008122872
 31
0.0
  0
LINE
  5
7258
330
1E
100
AcDbEntity
  8
製品
  6
Continuous
 62
     4
100
AcDbLine
 10
1681.010460979546
 20
546.8680008122865
 30
0.0
 11
1677.414605979546
 21
546.8680008122865
 31
0.0
  0
LINE
  5
7259
330
1E
100
AcDbEntity
  8
製品
  6
Continuous
 62
     4
100
AcDbLine
 10
1682.510460979546
 20
555.5680008122871
 30
0.0
 11
1683.210460979546
 21
554.0680008122872
 31
0.0
  0
LINE
  5
725A
330
1E
100
AcDbEntity
  8
製品
  6
Continuous
 62
     4
100
AcDbLine
 10
1684.010460979546
 20
554.0680008122872
 30
0.0
 11
1683.310460979546
 21
555.5680008122871
 31
0.0
  0
LINE
  5
725B
330
1E
100
AcDbEntity
  8
製品
  6
Continuous
 62
     4
100
AcDbLine
 10
1683.210460979546
 20
577.0680008122872
 30
0.0
 11
1682.510460979546
 21
575.5680008122872
 31
0.0
  0
LINE
  5
725C
330
1E
100
AcDbEntity
  8
製品
  6
Continuous
 62
     4
100
AcDbLine
 10
1684.010460979546
 20
577.0680008122872
 30
0.0
 11
1683.310460979546
 21
575.5680008122872
 31
0.0
  0
ENDSEC
  0
SECTION
  2
OBJECTS
  0
DICTIONARY
  5
C
330
0
100
AcDbDictionary
281
     1
  3
ACAD_COLOR
350
74B6
  3
ACAD_GROUP
350
D
  3
ACAD_LAYOUT
350
19
  3
ACAD_MATERIAL
350
74A1
  3
ACAD_MLINESTYLE
350
16
  3
ACAD_PLOTSETTINGS
350
18
  3
ACAD_PLOTSTYLENAME
350
E
  3
ACAD_TABLESTYLE
350
74B7
  3
ACAD_VISUALSTYLE
350
74A5
  3
AcDbVariableDictionary
350
169
  3
DWGPROPS
350
74C1
  0
DICTIONARY
  5
175
330
2
100
AcDbDictionary
280
     1
281
     1
  3
ACAD_LAYERFILTERS
360
185
  3
ACAD_LAYERSTATES
360
176
  0
DICTIONARY
  5
28B
330
1E
100
AcDbDictionary
280
     1
281
     1
  3
ACAD_LAYOUTSELFREF
360
749A
  0
DICTIONARY
  5
28D
330
1A
100
AcDbDictionary
280
     1
281
     1
  3
ACAD_LAYOUTSELFREF
360
7499
  0
DICTIONARY
  5
74B6
102
{ACAD_REACTORS
330
C
102
}
330
C
100
AcDbDictionary
281
     1
  0
DICTIONARY
  5
D
102
{ACAD_REACTORS
330
C
102
}
330
C
100
AcDbDictionary
281
     1
  0
DICTIONARY
  5
19
102
{ACAD_REACTORS
330
C
102
}
330
C
100
AcDbDictionary
281
     1
  3
Model
350
21
  3
ﾚｲｱｳﾄ1
350
1D
  0
DICTIONARY
  5
74A1
102
{ACAD_REACTORS
330
C
102
}
330
C
100
AcDbDictionary
281
     1
  3
ByBlock
350
74A3
  3
ByLayer
350
74A2
  3
Global
350
74A4
  0
DICTIONARY
  5
16
102
{ACAD_REACTORS
330
C
102
}
330
C
100
AcDbDictionary
281
     1
  3
Standard
350
17
  0
DICTIONARY
  5
18
102
{ACAD_REACTORS
330
C
102
}
330
C
100
AcDbDictionary
281
     1
  0
ACDBDICTIONARYWDFLT
  5
E
102
{ACAD_REACTORS
330
C
102
}
330
C
100
AcDbDictionary
281
     1
  3
Normal
350
F
100
AcDbDictionaryWithDefault
340
F
1001
ACAD
1000
TREAT_AS_HARD
1070
     0
1000
TREAT_AS_HARD
1070
     0
1000
TREAT_AS_HARD
1070
     0
1000
TREAT_AS_HARD
1070
     0
1000
TREAT_AS_HARD
1070
     0
1000
TREAT_AS_HARD
1070
     0
1000
TREAT_AS_HARD
1070
     0
1000
TREAT_AS_HARD
1070
     0
1000
TREAT_AS_HARD
1070
     0
1000
TREAT_AS_HARD
1070
     0
1000
TREAT_AS_HARD
1070
     0
1000
TREAT_AS_HARD
1070
     0
1000
TREAT_AS_HARD
1070
     0
1000
TREAT_AS_HARD
1070
     0
1000
TREAT_AS_HARD
1070
     0
1000
TREAT_AS_HARD
1070
     0
1000
TREAT_AS_HARD
1070
     0
1000
TREAT_AS_HARD
1070
     0
1000
TREAT_AS_HARD
1070
     0
1000
TREAT_AS_HARD
1070
     0
1000
TREAT_AS_HARD
1070
     0
1000
TREAT_AS_HARD
1070
     0
1000
TREAT_AS_HARD
1070
     0
1000
TREAT_AS_HARD
1070
     0
1000
TREAT_AS_HARD
1070
     0
1000
TREAT_AS_HARD
1070
     0
1000
TREAT_AS_HARD
1070
     0
1000
TREAT_AS_HARD
1070
     0
1000
TREAT_AS_HARD
1070
     0
1000
TREAT_AS_HARD
1070
     0
  0
DICTIONARY
  5
74B7
102
{ACAD_REACTORS
330
C
102
}
330
C
100
AcDbDictionary
281
     1
  3
Standard
350
74B8
  0
DICTIONARY
  5
74A5
102
{ACAD_REACTORS
330
C
102
}
330
C
100
AcDbDictionary
281
     1
  3
2dWireframe
350
74AB
  3
3D Hidden
350
74AD
  3
3dWireframe
350
74AC
  3
Basic
350
74AA
  3
Brighten
350
74B1
  3
ColorChange
350
74B5
  3
Conceptual
350
74AE
  3
Dim
350
74B0
  3
Facepattern
350
74B4
  3
Flat
350
74A6
  3
FlatWithEdges
350
74A7
  3
Gouraud
350
74A8
  3
GouraudWithEdges
350
74A9
  3
Linepattern
350
74B3
  3
Realistic
350
74AF
  3
Thicken
350
74B2
  0
DICTIONARY
  5
169
102
{ACAD_REACTORS
330
C
102
}
330
C
100
AcDbDictionary
281
     1
  3
CTABLESTYLE
350
74BE
  3
DIMASSOC
350
16A
  3
INDEXCTL
350
74C0
  3
SORTENTS
350
74BF
  0
XRECORD
  5
74C1
102
{ACAD_REACTORS
330
C
102
}
330
C
100
AcDbXrecord
280
     1
  1
DWGPROPS COOKIE
  2

  3

  4

  6

  7

  8
HON1000AV
  9

300
=
301
=
302
=
303
=
304
=
305
=
306
=
307
=
308
=
309
=
 40
0.2411898726851852
 41
2454316.693457674
 42
2454736.375649595
  1

 90
        0
  0
DICTIONARY
  5
185
102
{ACAD_REACTORS
330
175
102
}
330
175
100
AcDbDictionary
280
     1
281
     1
  0
DICTIONARY
  5
176
102
{ACAD_REACTORS
330
175
102
}
330
175
100
AcDbDictionary
281
     1
  3
ACAD
350
177
  0
XRECORD
  5
749A
102
{ACAD_REACTORS
330
28B
102
}
330
28B
100
AcDbXrecord
280
     1
340
1E
  0
XRECORD
  5
7499
102
{ACAD_REACTORS
330
28D
102
}
330
28D
100
AcDbXrecord
280
     1
340
1A
  0
LAYOUT
  5
21
102
{ACAD_XDICTIONARY
360
74C4
102
}
102
{ACAD_REACTORS
330
19
102
}
330
19
100
AcDbPlotSettings
  1

  2
\\MEISEI-1\EPSON Stylus Photo EX3
  4

  6

 40
0.0
 41
0.0
 42
0.0
 43
0.0
 44
0.0
 45
0.0
 46
0.0
 47
0.0
 48
0.0
 49
0.0
140
0.0
141
0.0
142
1.0
143
1.0
 70
  1712
 72
     0
 73
     0
 74
     0
  7

 75
     0
147
1.0
148
0.0
149
0.0
100
AcDbLayout
  1
Model
 70
     1
 71
     0
 10
0.0
 20
0.0
 11
12.0
 21
9.0
 12
0.0
 22
0.0
 32
0.0
 14
0.0
 24
0.0
 34
0.0
 15
0.0
 25
0.0
 35
0.0
146
0.0
 13
0.0
 23
0.0
 33
0.0
 16
1.0
 26
0.0
 36
0.0
 17
0.0
 27
1.0
 37
0.0
 76
     0
330
1E
331
7455
  0
LAYOUT
  5
1D
102
{ACAD_XDICTIONARY
360
74C2
102
}
102
{ACAD_REACTORS
330
19
102
}
330
19
100
AcDbPlotSettings
  1

  2
\\MEISEI-1\EPSON Stylus Photo EX3
  4

  6

 40
0.0
 41
0.0
 42
0.0
 43
0.0
 44
0.0
 45
0.0
 46
0.0
 47
0.0
 48
0.0
 49
0.0
140
0.0
141
0.0
142
1.0
143
1.0
 70
   688
 72
     0
 73
     0
 74
     5
  7

 75
    16
147
1.0
148
0.0
149
0.0
100
AcDbLayout
  1
ﾚｲｱｳﾄ1
 70
     1
 71
     1
 10
0.0
 20
0.0
 11
12.0
 21
9.0
 12
0.0
 22
0.0
 32
0.0
 14
1.000000000000000E+20
 24
1.000000000000000E+20
 34
1.000000000000000E+20
 15
-1.000000000000000E+20
 25
-1.000000000000000E+20
 35
-1.000000000000000E+20
146
0.0
 13
0.0
 23
0.0
 33
0.0
 16
1.0
 26
0.0
 36
0.0
 17
0.0
 27
1.0
 37
0.0
 76
     0
330
1A
  0
MATERIAL
  5
74A3
102
{ACAD_XDICTIONARY
360
74C8
102
}
102
{ACAD_REACTORS
330
74A1
102
}
330
74A1
100
AcDbMaterial
  1
ByBlock
  0
MATERIAL
  5
74A2
102
{ACAD_XDICTIONARY
360
74C6
102
}
102
{ACAD_REACTORS
330
74A1
102
}
330
74A1
100
AcDbMaterial
  1
ByLayer
  0
MATERIAL
  5
74A4
102
{ACAD_XDICTIONARY
360
74CA
102
}
102
{ACAD_REACTORS
330
74A1
102
}
330
74A1
100
AcDbMaterial
  1
Global
  0
MLINESTYLE
  5
17
102
{ACAD_REACTORS
330
16
102
}
330
16
100
AcDbMlineStyle
  2
STANDARD
 70
     0
  3

 62
   256
 51
90.0
 52
90.0
 71
     2
 49
0.5
 62
   256
  6
BYLAYER
 49
-0.5
 62
   256
  6
BYLAYER
  0
ACDBPLACEHOLDER
  5
F
102
{ACAD_REACTORS
330
E
102
}
330
E
  0
TABLESTYLE
  5
74B8
102
{ACAD_XDICTIONARY
360
74CC
102
}
102
{ACAD_REACTORS
330
74B7
102
}
330
74B7
100
AcDbTableStyle
  3
Standard
 70
     0
 71
     0
 40
0.06
 41
0.06
280
     0
281
     0
  7
STANDARD
140
0.18
170
     2
 62
     0
 63
     7
283
     0
274
    -2
284
     1
 64
     0
275
    -2
285
     1
 65
     0
276
    -2
286
     1
 66
     0
277
    -2
287
     1
 67
     0
278
    -2
288
     1
 68
     0
279
    -2
289
     1
 69
     0
  7
STANDARD
140
0.25
170
     5
 62
     0
 63
     7
283
     0
274
    -2
284
     1
 64
     0
275
    -2
285
     1
 65
     0
276
    -2
286
     1
 66
     0
277
    -2
287
     1
 67
     0
278
    -2
288
     1
 68
     0
279
    -2
289
     1
 69
     0
  7
STANDARD
140
0.18
170
     5
 62
     0
 63
     7
283
     0
274
    -2
284
     1
 64
     0
275
    -2
285
     1
 65
     0
276
    -2
286
     1
 66
     0
277
    -2
287
     1
 67
     0
278
    -2
288
     1
 68
     0
279
    -2
289
     1
 69
     0
  0
VISUALSTYLE
  5
74AB
102
{ACAD_REACTORS
330
74A5
102
}
330
74A5
100
AcDbVisualStyle
  2
2dWireframe
 70
     4
 71
     0
 72
     2
 73
     0
 90
        0
 40
-0.6
 41
-30.0
 62
     5
 63
     7
 74
     1
 91
        4
 64
     7
 65
   257
 75
     1
175
     1
 42
1.0
 92
        0
 66
   257
 43
1.0
 76
     1
 77
     6
 78
     2
 67
     7
 79
     5
170
     0
171
     0
290
     0
174
     0
 93
        1
 44
0.0
173
     0
291
     0
 45
0.0
1001
ACAD
1000
AcDbSavedByObjectVersion
1070
     0
  0
VISUALSTYLE
  5
74AD
102
{ACAD_REACTORS
330
74A5
102
}
330
74A5
100
AcDbVisualStyle
  2
3D Hidden
 70
     6
 71
     1
 72
     2
 73
     2
 90
        0
 40
-0.6
 41
-30.0
 62
     5
 63
     7
 74
     2
 91
        2
 64
     7
 65
   257
 75
     2
175
     1
 42
40.0
 92
        0
 66
   257
 43
1.0
 76
     1
 77
     6
 78
     2
 67
     7
 79
     3
170
     0
171
     0
290
     0
174
     0
 93
        1
 44
0.0
173
     0
291
     0
 45
0.0
1001
ACAD
1000
AcDbSavedByObjectVersion
1070
     0
  0
VISUALSTYLE
  5
74AC
102
{ACAD_REACTORS
330
74A5
102
}
330
74A5
100
AcDbVisualStyle
  2
3dWireframe
 70
     5
 71
     0
 72
     2
 73
     0
 90
        0
 40
-0.6
 41
-30.0
 62
     5
 63
     7
 74
     1
 91
        4
 64
     7
 65
   257
 75
     1
175
     1
 42
1.0
 92
        0
 66
   257
 43
1.0
 76
     1
 77
     6
 78
     2
 67
     7
 79
     5
170
     0
171
     0
290
     0
174
     0
 93
        1
 44
0.0
173
     0
291
     0
 45
0.0
1001
ACAD
1000
AcDbSavedByObjectVersion
1070
     0
  0
VISUALSTYLE
  5
74AA
102
{ACAD_REACTORS
330
74A5
102
}
330
74A5
100
AcDbVisualStyle
  2
Basic
 70
     7
 71
     1
 72
     0
 73
     1
 90
        0
 40
-0.6
 41
-30.0
 62
     5
 63
     7
 74
     0
 91
        4
 64
     7
 65
   257
 75
     1
175
     1
 42
1.0
 92
        8
 66
     7
 43
1.0
 76
     1
 77
     6
 78
     2
 67
     7
 79
     5
170
     0
171
     0
290
     0
174
     0
 93
        1
 44
0.0
173
     0
291
     1
 45
0.0
1001
ACAD
1000
AcDbSavedByObjectVersion
1070
     0
  0
VISUALSTYLE
  5
74B1
102
{ACAD_REACTORS
330
74A5
102
}
330
74A5
100
AcDbVisualStyle
  2
Brighten
 70
    12
 71
     2
 72
     2
 73
     0
 90
        0
 40
-0.6
 41
-30.0
 62
     5
 63
     7
 74
     1
 91
        4
 64
     7
 65
   257
 75
     1
175
     1
 42
1.0
 92
        8
 66
     7
 43
1.0
 76
     1
 77
     6
 78
     2
 67
     7
 79
     5
170
     0
171
     0
290
     0
174
     0
 93
        1
 44
50.0
173
     0
291
     1
 45
0.0
1001
ACAD
1000
AcDbSavedByObjectVersion
1070
     0
  0
VISUALSTYLE
  5
74B5
102
{ACAD_REACTORS
330
74A5
102
}
330
74A5
100
AcDbVisualStyle
  2
ColorChange
 70
    16
 71
     2
 72
     2
 73
     3
 90
        0
 40
-0.6
 41
-30.0
 62
     5
 63
     8
 74
     1
 91
        4
 64
     7
 65
   257
 75
     1
175
     1
 42
1.0
 92
        8
 66
     8
 43
1.0
 76
     1
 77
     6
 78
     2
 67
     7
 79
     5
170
     0
171
     0
290
     0
174
     0
 93
        1
 44
0.0
173
     0
291
     1
 45
0.0
1001
ACAD
1000
AcDbSavedByObjectVersion
1070
     0
  0
VISUALSTYLE
  5
74AE
102
{ACAD_REACTORS
330
74A5
102
}
330
74A5
100
AcDbVisualStyle
  2
Conceptual
 70
     9
 71
     3
 72
     2
 73
     0
 90
        0
 40
-0.6
 41
-30.0
 62
     5
 63
     7
 74
     2
 91
        2
 64
     7
 65
   257
 75
     1
175
     1
 42
40.0
 92
        8
 66
     7
 43
1.0
 76
     1
 77
     6
 78
     2
 67
     7
 79
     3
170
     0
171
     0
290
     0
174
     0
 93
        1
 44
0.0
173
     0
291
     0
 45
0.0
1001
ACAD
1000
AcDbSavedByObjectVersion
1070
     0
  0
VISUALSTYLE
  5
74B0
102
{ACAD_REACTORS
330
74A5
102
}
330
74A5
100
AcDbVisualStyle
  2
Dim
 70
    11
 71
     2
 72
     2
 73
     0
 90
        0
 40
-0.6
 41
-30.0
 62
     5
 63
     7
 74
     1
 91
        4
 64
     7
 65
   257
 75
     1
175
     1
 42
1.0
 92
        8
 66
     7
 43
1.0
 76
     1
 77
     6
 78
     2
 67
     7
 79
     5
170
     0
171
     0
290
     0
174
     0
 93
        1
 44
-50.0
173
     0
291
     1
 45
0.0
1001
ACAD
1000
AcDbSavedByObjectVersion
1070
     0
  0
VISUALSTYLE
  5
74B4
102
{ACAD_REACTORS
330
74A5
102
}
330
74A5
100
AcDbVisualStyle
  2
Facepattern
 70
    15
 71
     2
 72
     2
 73
     0
 90
        0
 40
-0.6
 41
-30.0
 62
     5
 63
     7
 74
     1
 91
        4
 64
     7
 65
   257
 75
     1
175
     1
 42
1.0
 92
        8
 66
     7
 43
1.0
 76
     1
 77
     6
 78
     2
 67
     7
 79
     5
170
     0
171
     0
290
     0
174
     0
 93
        1
 44
0.0
173
     0
291
     1
 45
0.0
1001
ACAD
1000
AcDbSavedByObjectVersion
1070
     0
  0
VISUALSTYLE
  5
74A6
102
{ACAD_REACTORS
330
74A5
102
}
330
74A5
100
AcDbVisualStyle
  2
Flat
 70
     0
 71
     2
 72
     1
 73
     1
 90
        2
 40
-0.6
 41
30.0
 62
     5
 63
     7
 74
     0
 91
        4
 64
     7
 65
   257
 75
     1
175
     1
 42
1.0
 92
        8
 66
     7
 43
1.0
 76
     1
 77
     6
 78
     2
 67
     7
 79
     5
170
     0
171
     0
290
     0
174
     0
 93
       13
 44
0.0
173
     0
291
     1
 45
0.0
1001
ACAD
1000
AcDbSavedByObjectVersion
1070
     0
  0
VISUALSTYLE
  5
74A7
102
{ACAD_REACTORS
330
74A5
102
}
330
74A5
100
AcDbVisualStyle
  2
FlatWithEdges
 70
     1
 71
     2
 72
     1
 73
     1
 90
        2
 40
-0.6
 41
30.0
 62
     5
 63
     7
 74
     1
 91
        4
 64
     7
 65
   257
 75
     1
175
     1
 42
1.0
 92
        0
 66
   257
 43
1.0
 76
     1
 77
     6
 78
     2
 67
     7
 79
     5
170
     0
171
     0
290
     0
174
     0
 93
       13
 44
0.0
173
     0
291
     1
 45
0.0
1001
ACAD
1000
AcDbSavedByObjectVersion
1070
     0
  0
VISUALSTYLE
  5
74A8
102
{ACAD_REACTORS
330
74A5
102
}
330
74A5
100
AcDbVisualStyle
  2
Gouraud
 70
     2
 71
     2
 72
     2
 73
     1
 90
        2
 40
-0.6
 41
30.0
 62
     5
 63
     7
 74
     0
 91
        4
 64
     7
 65
   257
 75
     1
175
     1
 42
1.0
 92
        0
 66
     7
 43
1.0
 76
     1
 77
     6
 78
     2
 67
     7
 79
     5
170
     0
171
     0
290
     0
174
     0
 93
       13
 44
0.0
173
     0
291
     1
 45
0.0
1001
ACAD
1000
AcDbSavedByObjectVersion
1070
     0
  0
VISUALSTYLE
  5
74A9
102
{ACAD_REACTORS
330
74A5
102
}
330
74A5
100
AcDbVisualStyle
  2
GouraudWithEdges
 70
     3
 71
     2
 72
     2
 73
     1
 90
        2
 40
-0.6
 41
30.0
 62
     5
 63
     7
 74
     1
 91
        4
 64
     7
 65
   257
 75
     1
175
     1
 42
1.0
 92
        0
 66
   257
 43
1.0
 76
     1
 77
     6
 78
     2
 67
     7
 79
     5
170
     0
171
     0
290
     0
174
     0
 93
       13
 44
0.0
173
     0
291
     1
 45
0.0
1001
ACAD
1000
AcDbSavedByObjectVersion
1070
     0
  0
VISUALSTYLE
  5
74B3
102
{ACAD_REACTORS
330
74A5
102
}
330
74A5
100
AcDbVisualStyle
  2
Linepattern
 70
    14
 71
     2
 72
     2
 73
     0
 90
        0
 40
-0.6
 41
-30.0
 62
     5
 63
     7
 74
     1
 91
        4
 64
     7
 65
   257
 75
     7
175
     7
 42
1.0
 92
        8
 66
     7
 43
1.0
 76
     1
 77
     6
 78
     2
 67
     7
 79
     5
170
     0
171
     0
290
     0
174
     0
 93
        1
 44
0.0
173
     0
291
     1
 45
0.0
1001
ACAD
1000
AcDbSavedByObjectVersion
1070
     0
  0
VISUALSTYLE
  5
74AF
102
{ACAD_REACTORS
330
74A5
102
}
330
74A5
100
AcDbVisualStyle
  2
Realistic
 70
     8
 71
     2
 72
     2
 73
     0
 90
        0
 40
-0.6
 41
-30.0
 62
     5
 63
     7
 74
     1
 91
        0
 64
     7
 65
   257
 75
     1
175
     1
 42
1.0
 92
        8
 66
     8
 43
1.0
 76
     1
 77
     6
 78
     2
 67
     7
 79
     5
170
     0
171
     0
290
     0
174
     0
 93
       13
 44
0.0
173
     0
291
     0
 45
0.0
1001
ACAD
1000
AcDbSavedByObjectVersion
1070
     0
  0
VISUALSTYLE
  5
74B2
102
{ACAD_REACTORS
330
74A5
102
}
330
74A5
100
AcDbVisualStyle
  2
Thicken
 70
    13
 71
     2
 72
     2
 73
     0
 90
        0
 40
-0.6
 41
-30.0
 62
     5
 63
     7
 74
     1
 91
        4
 64
     7
 65
   257
 75
     1
175
     1
 42
1.0
 92
       12
 66
     7
 43
1.0
 76
     1
 77
     6
 78
     2
 67
     7
 79
     5
170
     0
171
     0
290
     0
174
     0
 93
        1
 44
0.0
173
     0
291
     1
 45
0.0
1001
ACAD
1000
AcDbSavedByObjectVersion
1070
     0
  0
DICTIONARYVAR
  5
74BE
102
{ACAD_REACTORS
330
169
102
}
330
169
100
DictionaryVariables
280
     0
  1
STANDARD
  0
DICTIONARYVAR
  5
16A
102
{ACAD_REACTORS
330
169
102
}
330
169
100
DictionaryVariables
280
     0
  1
1
  0
DICTIONARYVAR
  5
74C0
102
{ACAD_REACTORS
330
169
102
}
330
169
100
DictionaryVariables
280
     0
  1
0
  0
DICTIONARYVAR
  5
74BF
102
{ACAD_REACTORS
330
169
102
}
330
169
100
DictionaryVariables
280
     0
  1
127
  0
XRECORD
  5
177
102
{ACAD_REACTORS
330
176
102
}
330
176
100
AcDbXrecord
280
     1
 91
      476
330
178
 90
        8
 62
     7
370
    -3
331
15
  1
Color_7
330
128
 90
        0
 62
     7
370
    -3
331
15
  1
Color_7
330
10
 90
        8
 62
     7
370
    -3
331
15
  1
Color_7
  0
DICTIONARY
  5
74C4
330
21
100
AcDbDictionary
280
     1
281
     1
  3
ACAD_XREC_ROUNDTRIP
360
74C5
  0
DICTIONARY
  5
74C2
330
1D
100
AcDbDictionary
280
     1
281
     1
  3
ACAD_XREC_ROUNDTRIP
360
74C3
  0
DICTIONARY
  5
74C8
330
74A3
100
AcDbDictionary
280
     1
281
     1
  3
ACAD_XREC_ROUNDTRIP
360
74C9
  0
DICTIONARY
  5
74C6
330
74A2
100
AcDbDictionary
280
     1
281
     1
  3
ACAD_XREC_ROUNDTRIP
360
74C7
  0
DICTIONARY
  5
74CA
330
74A4
100
AcDbDictionary
280
     1
281
     1
  3
ACAD_XREC_ROUNDTRIP
360
74CB
  0
DICTIONARY
  5
74CC
330
74B8
100
AcDbDictionary
280
     1
281
     1
  3
ACAD_XREC_ROUNDTRIP
360
74CD
  0
XRECORD
  5
74C5
102
{ACAD_REACTORS
330
74C4
102
}
330
74C4
100
AcDbXrecord
280
     1
102
SHADEPLOT
 70
     0
102
SHADEPLOTRESLEVEL
 70
     2
102
SHADEPLOTCUSTOMDPI
 70
   300
  0
XRECORD
  5
74C3
102
{ACAD_REACTORS
330
74C2
102
}
330
74C2
100
AcDbXrecord
280
     1
102
SHADEPLOT
 70
     0
102
SHADEPLOTRESLEVEL
 70
     2
102
SHADEPLOTCUSTOMDPI
 70
   300
  0
XRECORD
  5
74C9
102
{ACAD_REACTORS
330
74C8
102
}
330
74C8
100
AcDbXrecord
280
     1
102
MATERIAL
148
0.0
149
0.0
149
0.0
 93
        0
 94
       63
282
     0
 72
     1
 77
     1
171
     1
175
     1
179
     1
273
     0
  0
XRECORD
  5
74C7
102
{ACAD_REACTORS
330
74C6
102
}
330
74C6
100
AcDbXrecord
280
     1
102
MATERIAL
148
0.0
149
0.0
149
0.0
 93
        0
 94
       63
282
     0
 72
     1
 77
     1
171
     1
175
     1
179
     1
273
     0
  0
XRECORD
  5
74CB
102
{ACAD_REACTORS
330
74CA
102
}
330
74CA
100
AcDbXrecord
280
     1
102
MATERIAL
148
0.0
149
0.0
149
0.0
 93
        0
 94
       63
282
     0
 72
     1
 77
     1
171
     1
175
     1
179
     1
273
     0
  0
XRECORD
  5
74CD
102
{ACAD_REACTORS
330
74CC
102
}
330
74CC
100
AcDbXrecord
280
     1
102
ACAD_ROUNDTRIP_PRE2007_TABLESTYLE
 90
      512
 91
        0
  1

 92
      512
 93
        0
  2

 94
      512
 95
        0
  3

  0
ENDSEC
  0
EOF
