  0
SECTION
  2
HEADER
  9
$ACADVER
  1
AC1015
  9
$ACADMAINTVER
 70
    20
  9
$DWGCODEPAGE
  3
ANSI_932
  9
$INSBASE
 10
0.0
 20
0.0
 30
0.0
  9
$EXTMIN
 10
98.64898790913754
 20
284.6616931591664
 30
-0.0015258207003583
  9
$EXTMAX
 10
390.821228971264
 20
382.7061214734365
 30
0.0000000349246037
  9
$LIMMIN
 10
0.0
 20
0.0
  9
$LIMMAX
 10
420.0
 20
297.0
  9
$ORTHOMODE
 70
     0
  9
$REGENMODE
 70
     1
  9
$FILLMODE
 70
     1
  9
$QTEXTMODE
 70
     0
  9
$MIRRTEXT
 70
     1
  9
$LTSCALE
 40
1.0
  9
$ATTMODE
 70
     1
  9
$TEXTSIZE
 40
5.0
  9
$TRACEWID
 40
0.05
  9
$TEXTSTYLE
  7
ACAD
  9
$CLAYER
  8
0
  9
$CELTYPE
  6
CONTINUOUS
  9
$CECOLOR
 62
   256
  9
$CELTSCALE
 40
1.0
  9
$DISPSILH
 70
     0
  9
$DIMSCALE
 40
1.0
  9
$DIMASZ
 40
1.0
  9
$DIMEXO
 40
0.0
  9
$DIMDLI
 40
0.38
  9
$DIMRND
 40
0.0
  9
$DIMDLE
 40
0.0
  9
$DIMEXE
 40
0.0
  9
$DIMTP
 40
0.0
  9
$DIMTM
 40
0.0
  9
$DIMTXT
 40
3.0
  9
$DIMCEN
 40
0.09
  9
$DIMTSZ
 40
0.0
  9
$DIMTOL
 70
     0
  9
$DIMLIM
 70
     0
  9
$DIMTIH
 70
     0
  9
$DIMTOH
 70
     1
  9
$DIMSE1
 70
     0
  9
$DIMSE2
 70
     0
  9
$DIMTAD
 70
     1
  9
$DIMZIN
 70
     0
  9
$DIMBLK
  1
Dot
  9
$DIMASO
 70
     1
  9
$DIMSHO
 70
     1
  9
$DIMPOST
  1

  9
$DIMAPOST
  1

  9
$DIMALT
 70
     0
  9
$DIMALTD
 70
     2
  9
$DIMALTF
 40
25.4
  9
$DIMLFAC
 40
1.0
  9
$DIMTOFL
 70
     0
  9
$DIMTVP
 40
0.0
  9
$DIMTIX
 70
     1
  9
$DIMSOXD
 70
     0
  9
$DIMSAH
 70
     0
  9
$DIMBLK1
  1

  9
$DIMBLK2
  1

  9
$DIMSTYLE
  2
AutoCAD
  9
$DIMCLRD
 70
     4
  9
$DIMCLRE
 70
     4
  9
$DIMCLRT
 70
     3
  9
$DIMTFAC
 40
1.0
  9
$DIMGAP
 40
1.0
  9
$DIMJUST
 70
     0
  9
$DIMSD1
 70
     0
  9
$DIMSD2
 70
     0
  9
$DIMTOLJ
 70
     1
  9
$DIMTZIN
 70
     0
  9
$DIMALTZ
 70
     0
  9
$DIMALTTZ
 70
     0
  9
$DIMUPT
 70
     0
  9
$DIMDEC
 70
     0
  9
$DIMTDEC
 70
     0
  9
$DIMALTU
 70
     2
  9
$DIMALTTD
 70
     2
  9
$DIMTXSTY
  7
ACAD
  9
$DIMAUNIT
 70
     0
  9
$DIMADEC
 70
     0
  9
$DIMALTRND
 40
0.0
  9
$DIMAZIN
 70
     0
  9
$DIMDSEP
 70
    46
  9
$DIMATFIT
 70
     0
  9
$DIMFRAC
 70
     0
  9
$DIMLDRBLK
  1
None
  9
$DIMLUNIT
 70
     2
  9
$DIMLWD
 70
    -2
  9
$DIMLWE
 70
    -2
  9
$DIMTMOVE
 70
     0
  9
$LUNITS
 70
     2
  9
$LUPREC
 70
     4
  9
$SKETCHINC
 40
0.1
  9
$FILLETRAD
 40
0.0
  9
$AUNITS
 70
     0
  9
$AUPREC
 70
     0
  9
$MENU
  1
.
  9
$ELEVATION
 40
0.0
  9
$PELEVATION
 40
0.0
  9
$THICKNESS
 40
0.0
  9
$LIMCHECK
 70
     0
  9
$CHAMFERA
 40
0.0
  9
$CHAMFERB
 40
0.0
  9
$CHAMFERC
 40
0.0
  9
$CHAMFERD
 40
0.0
  9
$SKPOLY
 70
     0
  9
$TDCREATE
 40
2454316.693457674
  9
$TDUCREATE
 40
2454316.318457674
  9
$TDUPDATE
 40
2454736.375138518
  9
$TDUUPDATE
 40
2454736.000138519
  9
$TDINDWG
 40
0.2418803588
  9
$TDUSRTIMER
 40
0.2418803588
  9
$USRTIMER
 70
     1
  9
$ANGBASE
 50
0.0
  9
$ANGDIR
 70
     0
  9
$PDMODE
 70
     0
  9
$PDSIZE
 40
0.0
  9
$PLINEWID
 40
0.0
  9
$SPLFRAME
 70
     0
  9
$SPLINETYPE
 70
     6
  9
$SPLINESEGS
 70
     8
  9
$HANDSEED
  5
6EA4
  9
$SURFTAB1
 70
     6
  9
$SURFTAB2
 70
     6
  9
$SURFTYPE
 70
     6
  9
$SURFU
 70
     6
  9
$SURFV
 70
     6
  9
$UCSBASE
  2

  9
$UCSNAME
  2

  9
$UCSORG
 10
0.0
 20
0.0
 30
0.0
  9
$UCSXDIR
 10
1.0
 20
0.0
 30
0.0
  9
$UCSYDIR
 10
0.0
 20
1.0
 30
0.0
  9
$UCSORTHOREF
  2

  9
$UCSORTHOVIEW
 70
     0
  9
$UCSORGTOP
 10
0.0
 20
0.0
 30
0.0
  9
$UCSORGBOTTOM
 10
0.0
 20
0.0
 30
0.0
  9
$UCSORGLEFT
 10
0.0
 20
0.0
 30
0.0
  9
$UCSORGRIGHT
 10
0.0
 20
0.0
 30
0.0
  9
$UCSORGFRONT
 10
0.0
 20
0.0
 30
0.0
  9
$UCSORGBACK
 10
0.0
 20
0.0
 30
0.0
  9
$PUCSBASE
  2

  9
$PUCSNAME
  2

  9
$PUCSORG
 10
0.0
 20
0.0
 30
0.0
  9
$PUCSXDIR
 10
1.0
 20
0.0
 30
0.0
  9
$PUCSYDIR
 10
0.0
 20
1.0
 30
0.0
  9
$PUCSORTHOREF
  2

  9
$PUCSORTHOVIEW
 70
     0
  9
$PUCSORGTOP
 10
0.0
 20
0.0
 30
0.0
  9
$PUCSORGBOTTOM
 10
0.0
 20
0.0
 30
0.0
  9
$PUCSORGLEFT
 10
0.0
 20
0.0
 30
0.0
  9
$PUCSORGRIGHT
 10
0.0
 20
0.0
 30
0.0
  9
$PUCSORGFRONT
 10
0.0
 20
0.0
 30
0.0
  9
$PUCSORGBACK
 10
0.0
 20
0.0
 30
0.0
  9
$USERI1
 70
     0
  9
$USERI2
 70
     0
  9
$USERI3
 70
     0
  9
$USERI4
 70
     0
  9
$USERI5
 70
     0
  9
$USERR1
 40
0.0
  9
$USERR2
 40
0.0
  9
$USERR3
 40
0.0
  9
$USERR4
 40
0.0
  9
$USERR5
 40
0.0
  9
$WORLDVIEW
 70
     1
  9
$SHADEDGE
 70
     3
  9
$SHADEDIF
 70
    70
  9
$TILEMODE
 70
     1
  9
$MAXACTVP
 70
    48
  9
$PINSBASE
 10
0.0
 20
0.0
 30
0.0
  9
$PLIMCHECK
 70
     0
  9
$PEXTMIN
 10
1.000000000000000E+20
 20
1.000000000000000E+20
 30
1.000000000000000E+20
  9
$PEXTMAX
 10
-1.000000000000000E+20
 20
-1.000000000000000E+20
 30
-1.000000000000000E+20
  9
$PLIMMIN
 10
0.0
 20
0.0
  9
$PLIMMAX
 10
12.0
 20
9.0
  9
$UNITMODE
 70
     0
  9
$VISRETAIN
 70
     0
  9
$PLINEGEN
 70
     0
  9
$PSLTSCALE
 70
     1
  9
$TREEDEPTH
 70
  3020
  9
$CMLSTYLE
  2
Standard
  9
$CMLJUST
 70
     0
  9
$CMLSCALE
 40
1.0
  9
$PROXYGRAPHICS
 70
     1
  9
$MEASUREMENT
 70
     0
  9
$CELWEIGHT
370
    -1
  9
$ENDCAPS
280
     0
  9
$JOINSTYLE
280
     0
  9
$LWDISPLAY
290
     0
  9
$INSUNITS
 70
     0
  9
$HYPERLINKBASE
  1

  9
$STYLESHEET
  1

  9
$XEDIT
290
     1
  9
$CEPSNTYPE
380
     0
  9
$PSTYLEMODE
290
     1
  9
$FINGERPRINTGUID
  2
{CC7D6DEE-A9F1-4F3E-AC95-C84B62CCA3FD}
  9
$VERSIONGUID
  2
{BF2F5368-32F5-42BA-933D-D31AB853FDAC}
  9
$EXTNAMES
290
     1
  9
$PSVPSCALE
 40
0.0
  9
$OLESTARTUP
290
     0
  0
ENDSEC
  0
SECTION
  2
CLASSES
  0
CLASS
  1
ACDBDICTIONARYWDFLT
  2
AcDbDictionaryWithDefault
  3
ObjectDBX Classes
 90
        0
280
     0
281
     0
  0
CLASS
  1
ACDBPLACEHOLDER
  2
AcDbPlaceHolder
  3
ObjectDBX Classes
 90
        0
280
     0
281
     0
  0
CLASS
  1
LAYOUT
  2
AcDbLayout
  3
ObjectDBX Classes
 90
        0
280
     0
281
     0
  0
CLASS
  1
DICTIONARYVAR
  2
AcDbDictionaryVar
  3
ObjectDBX Classes
 90
        0
280
     0
281
     0
  0
CLASS
  1
MATERIAL
  2
AcDbMaterial
  3
ObjectDBX Classes
 90
     1153
280
     0
281
     0
  0
CLASS
  1
VISUALSTYLE
  2
AcDbVisualStyle
  3
ObjectDBX Classes
 90
     4095
280
     0
281
     0
  0
CLASS
  1
TABLESTYLE
  2
AcDbTableStyle
  3
ObjectDBX Classes
 90
     4095
280
     0
281
     0
  0
ENDSEC
  0
SECTION
  2
TABLES
  0
TABLE
  2
VPORT
  5
8
102
{ACAD_XDICTIONARY
360
6E76
102
}
330
0
100
AcDbSymbolTable
 70
     1
  0
VPORT
  5
6DFA
330
8
100
AcDbSymbolTableRecord
100
AcDbViewportTableRecord
  2
*Active
 70
     0
 10
0.0
 20
0.0
 11
1.0
 21
1.0
 12
244.7351084402008
 22
333.6839073163014
 13
0.0
 23
0.0
 14
1.0
 24
1.0
 15
0.0
 25
0.0
 16
0.0
 26
0.0
 36
1.0
 17
0.0
 27
0.0
 37
0.0
 40
186.8287202474663
 41
1.571614583333333
 42
50.0
 43
0.0
 44
0.0
 50
0.0
 51
0.0
 71
     0
 72
   100
 73
     1
 74
     1
 75
     0
 76
     0
 77
     0
 78
     0
281
     0
 65
     1
110
0.0
120
0.0
130
0.0
111
1.0
121
0.0
131
0.0
112
0.0
122
1.0
132
0.0
 79
     0
146
0.0
  0
ENDTAB
  0
TABLE
  2
LTYPE
  5
5
330
0
100
AcDbSymbolTable
 70
    50
  0
LTYPE
  5
13
330
5
100
AcDbSymbolTableRecord
100
AcDbLinetypeTableRecord
  2
ByBlock
 70
     0
  3

 72
    65
 73
     0
 40
0.0
  0
LTYPE
  5
14
330
5
100
AcDbSymbolTableRecord
100
AcDbLinetypeTableRecord
  2
ByLayer
 70
     0
  3

 72
    65
 73
     0
 40
0.0
  0
LTYPE
  5
15
330
5
100
AcDbSymbolTableRecord
100
AcDbLinetypeTableRecord
  2
CONTINUOUS
 70
     0
  3
実線
 72
    65
 73
     0
 40
0.0
  0
LTYPE
  5
22
330
5
100
AcDbSymbolTableRecord
100
AcDbLinetypeTableRecord
  2
DASHED1
 70
     0
  3
--  --  --  --  --  --  --  --  
 72
    65
 73
     2
 40
2.5
 49
1.25
 74
     0
 49
-1.25
 74
     0
  0
LTYPE
  5
23
330
5
100
AcDbSymbolTableRecord
100
AcDbLinetypeTableRecord
  2
DASHED2
 70
     0
  3
----    ----    ----    ----    
 72
    65
 73
     2
 40
5.0
 49
2.5
 74
     0
 49
-2.5
 74
     0
  0
LTYPE
  5
24
330
5
100
AcDbSymbolTableRecord
100
AcDbLinetypeTableRecord
  2
DASHED3
 70
     0
  3
------  ------  ------  ------  
 72
    65
 73
     2
 40
5.0
 49
3.75
 74
     0
 49
-1.25
 74
     0
  0
LTYPE
  5
25
330
5
100
AcDbSymbolTableRecord
100
AcDbLinetypeTableRecord
  2
CENTER1
 70
     0
  3
----- - ----- - ----- - ----- - 
 72
    65
 73
     4
 40
10.0
 49
6.25
 74
     0
 49
-1.25
 74
     0
 49
1.25
 74
     0
 49
-1.25
 74
     0
  0
LTYPE
  5
26
330
5
100
AcDbSymbolTableRecord
100
AcDbLinetypeTableRecord
  2
CENTER2
 70
     0
  3
----------  --  ----------  --  
 72
    65
 73
     4
 40
20.0
 49
12.5
 74
     0
 49
-2.5
 74
     0
 49
2.5
 74
     0
 49
-2.5
 74
     0
  0
LTYPE
  5
27
330
5
100
AcDbSymbolTableRecord
100
AcDbLinetypeTableRecord
  2
PHANTOM1
 70
     0
  3
--- - - --- - - --- - - --- - - 
 72
    65
 73
     6
 40
10.0
 49
3.25
 74
     0
 49
-1.25
 74
     0
 49
1.25
 74
     0
 49
-1.25
 74
     0
 49
1.25
 74
     0
 49
-1.25
 74
     0
  0
LTYPE
  5
28
330
5
100
AcDbSymbolTableRecord
100
AcDbLinetypeTableRecord
  2
PHANTOM2
 70
     0
  3
--------  -  -  --------  -  -  
 72
    65
 73
     6
 40
20.0
 49
10.0
 74
     0
 49
-2.5
 74
     0
 49
1.25
 74
     0
 49
-2.5
 74
     0
 49
1.25
 74
     0
 49
-2.5
 74
     0
  0
LTYPE
  5
29
330
5
100
AcDbSymbolTableRecord
100
AcDbLinetypeTableRecord
  2
DOT
 70
     0
  3
-   -   -   -   -   -   -   -   
 72
    65
 73
     2
 40
2.5
 49
0.625
 74
     0
 49
-1.875
 74
     0
  0
LTYPE
  5
2A
330
5
100
AcDbSymbolTableRecord
100
AcDbLinetypeTableRecord
  2
DUMMY
 70
     0
  3
ダミー
 72
    65
 73
     0
 40
0.0
  0
LTYPE
  5
2B
330
5
100
AcDbSymbolTableRecord
100
AcDbLinetypeTableRecord
  2
RAND1
 70
     0
  3
ランダム線1
 72
    65
 73
     4
 40
10.0
 49
1.0
 74
     0
 49
-2.0
 74
     0
 49
3.0
 74
     0
 49
-4.0
 74
     0
  0
LTYPE
  5
2C
330
5
100
AcDbSymbolTableRecord
100
AcDbLinetypeTableRecord
  2
RAND2
 70
     0
  3
ランダム線2
 72
    65
 73
     4
 40
14.0
 49
2.0
 74
     0
 49
-3.0
 74
     0
 49
4.0
 74
     0
 49
-5.0
 74
     0
  0
LTYPE
  5
2D
330
5
100
AcDbSymbolTableRecord
100
AcDbLinetypeTableRecord
  2
RAND3
 70
     0
  3
ランダム線3
 72
    65
 73
     4
 40
18.0
 49
3.0
 74
     0
 49
-4.0
 74
     0
 49
5.0
 74
     0
 49
-6.0
 74
     0
  0
LTYPE
  5
2E
330
5
100
AcDbSymbolTableRecord
100
AcDbLinetypeTableRecord
  2
RAND4
 70
     0
  3
ランダム線4
 72
    65
 73
     4
 40
22.0
 49
4.0
 74
     0
 49
-5.0
 74
     0
 49
6.0
 74
     0
 49
-7.0
 74
     0
  0
LTYPE
  5
2F
330
5
100
AcDbSymbolTableRecord
100
AcDbLinetypeTableRecord
  2
RAND5
 70
     0
  3
ランダム線5
 72
    65
 73
     4
 40
26.0
 49
5.0
 74
     0
 49
-6.0
 74
     0
 49
7.0
 74
     0
 49
-8.0
 74
     0
  0
LTYPE
  5
30
330
5
100
AcDbSymbolTableRecord
100
AcDbLinetypeTableRecord
  2
LONG1
 70
     0
  3
----------  --  ----------  --  
 72
    65
 73
     4
 40
40.0
 49
32.5
 74
     0
 49
-2.5
 74
     0
 49
2.5
 74
     0
 49
-2.5
 74
     0
  0
LTYPE
  5
31
330
5
100
AcDbSymbolTableRecord
100
AcDbLinetypeTableRecord
  2
LONG2
 70
     0
  3
--------  -  -  --------  -  -  
 72
    65
 73
     6
 40
40.0
 49
30.0
 74
     0
 49
-2.5
 74
     0
 49
1.25
 74
     0
 49
-2.5
 74
     0
 49
1.25
 74
     0
 49
-2.5
 74
     0
  0
LTYPE
  5
32
330
5
100
AcDbSymbolTableRecord
100
AcDbLinetypeTableRecord
  2
LONG3
 70
     0
  3
+++++++++++++++..+++++++++++++++
 72
    65
 73
     2
 40
40.0
 49
37.5
 74
     0
 49
-2.5
 74
     0
  0
LTYPE
  5
33
330
5
100
AcDbSymbolTableRecord
100
AcDbLinetypeTableRecord
  2
LONG4
 70
     0
  3
+++++++++++++++..+++++++++++++++
 72
    65
 73
     2
 40
80.0
 49
75.0
 74
     0
 49
-5.0
 74
     0
  0
LTYPE
  5
34
330
5
100
AcDbSymbolTableRecord
100
AcDbLinetypeTableRecord
  2
LONG5
 70
     0
  3
----------  --  ----------  --  
 72
    65
 73
     4
 40
60.0
 49
37.5
 74
     0
 49
-7.5
 74
     0
 49
7.5
 74
     0
 49
-7.5
 74
     0
  0
LTYPE
  5
35
330
5
100
AcDbSymbolTableRecord
100
AcDbLinetypeTableRecord
  2
DASHED
 70
     0
  3
-------   -------------   ------
 72
    65
 73
     2
 40
7.5
 49
6.0
 74
     0
 49
-1.5
 74
     0
  0
LTYPE
  5
36
330
5
100
AcDbSymbolTableRecord
100
AcDbLinetypeTableRecord
  2
DASHED_SPACED
 70
     0
  3
----        --------        ----
 72
    65
 73
     2
 40
12.0
 49
6.0
 74
     0
 49
-6.0
 74
     0
  0
LTYPE
  5
37
330
5
100
AcDbSymbolTableRecord
100
AcDbLinetypeTableRecord
  2
LONG_DASHED_DOTTED
 70
     0
  3
------------- --- --------------
 72
    65
 73
     4
 40
15.25
 49
12.0
 74
     0
 49
-1.5
 74
     0
 49
0.25
 74
     0
 49
-1.5
 74
     0
  0
LTYPE
  5
38
330
5
100
AcDbSymbolTableRecord
100
AcDbLinetypeTableRecord
  2
LONG_DASHED_DOUBLE-DOTTED
 70
     0
  3
----------- --- --- ------------
 72
    65
 73
     6
 40
17.0
 49
12.0
 74
     0
 49
-1.5
 74
     0
 49
0.25
 74
     0
 49
-1.5
 74
     0
 49
0.25
 74
     0
 49
-1.5
 74
     0
  0
LTYPE
  5
39
330
5
100
AcDbSymbolTableRecord
100
AcDbLinetypeTableRecord
  2
LONG_DASHED_TRIPLICATE-DOTTED
 70
     0
  3
--------- --- --- --- ----------
 72
    65
 73
     8
 40
18.75
 49
12.0
 74
     0
 49
-1.5
 74
     0
 49
0.25
 74
     0
 49
-1.5
 74
     0
 49
0.25
 74
     0
 49
-1.5
 74
     0
 49
0.25
 74
     0
 49
-1.5
 74
     0
  0
LTYPE
  5
3A
330
5
100
AcDbSymbolTableRecord
100
AcDbLinetypeTableRecord
  2
DOTTED
 70
     0
  3
   -       -       -       -    
 72
    65
 73
     2
 40
1.75
 49
0.25
 74
     0
 49
-1.5
 74
     0
  0
LTYPE
  5
3B
330
5
100
AcDbSymbolTableRecord
100
AcDbLinetypeTableRecord
  2
CHAIN
 70
     0
  3
-------------- -- --------------
 72
    65
 73
     4
 40
18.5
 49
12.0
 74
     0
 49
-1.5
 74
     0
 49
3.5
 74
     0
 49
-1.5
 74
     0
  0
LTYPE
  5
3C
330
5
100
AcDbSymbolTableRecord
100
AcDbLinetypeTableRecord
  2
CHAIN_DOUBLE_DASH
 70
     0
  3
------------ -- -- -------------
 72
    65
 73
     6
 40
23.5
 49
12.0
 74
     0
 49
-1.5
 74
     0
 49
3.5
 74
     0
 49
-1.5
 74
     0
 49
3.5
 74
     0
 49
-1.5
 74
     0
  0
LTYPE
  5
3D
330
5
100
AcDbSymbolTableRecord
100
AcDbLinetypeTableRecord
  2
DASHED_DOTTED
 70
     0
  3
-----------     -     ----------
 72
    65
 73
     4
 40
9.25
 49
6.0
 74
     0
 49
-1.5
 74
     0
 49
0.25
 74
     0
 49
-1.5
 74
     0
  0
LTYPE
  5
3E
330
5
100
AcDbSymbolTableRecord
100
AcDbLinetypeTableRecord
  2
DOUBLE-DASHED_DOTTED
 70
     0
  3
------   -----------   -   -----
 72
    65
 73
     6
 40
16.75
 49
6.0
 74
     0
 49
-1.5
 74
     0
 49
6.0
 74
     0
 49
-1.5
 74
     0
 49
0.25
 74
     0
 49
-1.5
 74
     0
  0
LTYPE
  5
3F
330
5
100
AcDbSymbolTableRecord
100
AcDbLinetypeTableRecord
  2
DASHED_DOUBLE-DOTTED
 70
     0
  3
---------    -    -    ---------
 72
    65
 73
     6
 40
11.0
 49
6.0
 74
     0
 49
-1.5
 74
     0
 49
0.25
 74
     0
 49
-1.5
 74
     0
 49
0.25
 74
     0
 49
-1.5
 74
     0
  0
LTYPE
  5
40
330
5
100
AcDbSymbolTableRecord
100
AcDbLinetypeTableRecord
  2
DOUBLE-DASHED_DOUBLE-DOTTED
 70
     0
  3
-----   ---------   -   -   ----
 72
    65
 73
     8
 40
18.5
 49
6.0
 74
     0
 49
-1.5
 74
     0
 49
6.0
 74
     0
 49
-1.5
 74
     0
 49
0.25
 74
     0
 49
-1.5
 74
     0
 49
0.25
 74
     0
 49
-1.5
 74
     0
  0
LTYPE
  5
41
330
5
100
AcDbSymbolTableRecord
100
AcDbLinetypeTableRecord
  2
DASHED_TRIPLICATE-DOTTED
 70
     0
  3
-------    -    -    -    ------
 72
    65
 73
     8
 40
12.75
 49
6.0
 74
     0
 49
-1.5
 74
     0
 49
0.25
 74
     0
 49
-1.5
 74
     0
 49
0.25
 74
     0
 49
-1.5
 74
     0
 49
0.25
 74
     0
 49
-1.5
 74
     0
  0
LTYPE
  5
42
330
5
100
AcDbSymbolTableRecord
100
AcDbLinetypeTableRecord
  2
DOUBLE-DASHED_TRIPLICATE-DOTTED
 70
     0
  3
-----  ---------  -  -  -  -----
 72
    65
 73
    10
 40
20.25
 49
6.0
 74
     0
 49
-1.5
 74
     0
 49
6.0
 74
     0
 49
-1.5
 74
     0
 49
0.25
 74
     0
 49
-1.5
 74
     0
 49
0.25
 74
     0
 49
-1.5
 74
     0
 49
0.25
 74
     0
 49
-1.5
 74
     0
  0
LTYPE
  5
43
330
5
100
AcDbSymbolTableRecord
100
AcDbLinetypeTableRecord
  2
UNDEFINED
 70
     0
  3
--------------------------------
 72
    65
 73
     0
 40
0.0
  0
LTYPE
  5
44
330
5
100
AcDbSymbolTableRecord
100
AcDbLinetypeTableRecord
  2
PLINE2
 70
     0
  3
------     -----------     -----
 72
    65
 73
     2
 40
3.0
 49
2.1
 74
     0
 49
-0.9
 74
     0
  0
LTYPE
  5
45
330
5
100
AcDbSymbolTableRecord
100
AcDbLinetypeTableRecord
  2
PLINE3
 70
     0
  3
------------   ---   -----------
 72
    65
 73
     4
 40
10.0
 49
7.0
 74
     0
 49
-1.0
 74
     0
 49
1.0
 74
     0
 49
-1.0
 74
     0
  0
LTYPE
  5
46
330
5
100
AcDbSymbolTableRecord
100
AcDbLinetypeTableRecord
  2
PLINE4
 70
     0
  3
---------   ---   ---   --------
 72
    65
 73
     6
 40
10.0
 49
5.0
 74
     0
 49
-1.0
 74
     0
 49
1.0
 74
     0
 49
-1.0
 74
     0
 49
1.0
 74
     0
 49
-1.0
 74
     0
  0
LTYPE
  5
47
330
5
100
AcDbSymbolTableRecord
100
AcDbLinetypeTableRecord
  2
PLINE5
 70
     0
  3
------     -----------     -----
 72
    65
 73
     2
 40
5.0
 49
3.5
 74
     0
 49
-1.5
 74
     0
  0
LTYPE
  5
48
330
5
100
AcDbSymbolTableRecord
100
AcDbLinetypeTableRecord
  2
PLINE6
 70
     0
  3
------------   ---   -----------
 72
    65
 73
     4
 40
15.0
 49
10.5
 74
     0
 49
-1.5
 74
     0
 49
1.5
 74
     0
 49
-1.5
 74
     0
  0
LTYPE
  5
49
330
5
100
AcDbSymbolTableRecord
100
AcDbLinetypeTableRecord
  2
PLINE7
 70
     0
  3
---------   ---   ---   --------
 72
    65
 73
     6
 40
15.0
 49
7.5
 74
     0
 49
-1.5
 74
     0
 49
1.5
 74
     0
 49
-1.5
 74
     0
 49
1.5
 74
     0
 49
-1.5
 74
     0
  0
LTYPE
  5
4A
330
5
100
AcDbSymbolTableRecord
100
AcDbLinetypeTableRecord
  2
PLINE8
 70
     0
  3
------     -----------     -----
 72
    65
 73
     2
 40
7.0
 49
4.9
 74
     0
 49
-2.1
 74
     0
  0
LTYPE
  5
4B
330
5
100
AcDbSymbolTableRecord
100
AcDbLinetypeTableRecord
  2
PLINE9
 70
     0
  3
------------   ---   -----------
 72
    65
 73
     4
 40
20.0
 49
14.0
 74
     0
 49
-2.0
 74
     0
 49
2.0
 74
     0
 49
-2.0
 74
     0
  0
LTYPE
  5
4C
330
5
100
AcDbSymbolTableRecord
100
AcDbLinetypeTableRecord
  2
PLINE10
 70
     0
  3
---------   ---   ---   --------
 72
    65
 73
     6
 40
20.0
 49
10.0
 74
     0
 49
-2.0
 74
     0
 49
2.0
 74
     0
 49
-2.0
 74
     0
 49
2.0
 74
     0
 49
-2.0
 74
     0
  0
LTYPE
  5
4D
330
5
100
AcDbSymbolTableRecord
100
AcDbLinetypeTableRecord
  2
PLINE11
 70
     0
  3
------     -----------     -----
 72
    65
 73
     2
 40
9.0
 49
6.299999999999999
 74
     0
 49
-2.7
 74
     0
  0
LTYPE
  5
4E
330
5
100
AcDbSymbolTableRecord
100
AcDbLinetypeTableRecord
  2
PLINE12
 70
     0
  3
------------   ---   -----------
 72
    65
 73
     4
 40
25.0
 49
17.5
 74
     0
 49
-2.5
 74
     0
 49
2.5
 74
     0
 49
-2.5
 74
     0
  0
LTYPE
  5
4F
330
5
100
AcDbSymbolTableRecord
100
AcDbLinetypeTableRecord
  2
PLINE13
 70
     0
  3
---------   ---   ---   --------
 72
    65
 73
     6
 40
25.0
 49
12.5
 74
     0
 49
-2.5
 74
     0
 49
2.5
 74
     0
 49
-2.5
 74
     0
 49
2.5
 74
     0
 49
-2.5
 74
     0
  0
LTYPE
  5
50
330
5
100
AcDbSymbolTableRecord
100
AcDbLinetypeTableRecord
  2
PLINE14
 70
     0
  3
------     -----------     -----
 72
    65
 73
     2
 40
11.0
 49
7.7
 74
     0
 49
-3.299999999999999
 74
     0
  0
LTYPE
  5
51
330
5
100
AcDbSymbolTableRecord
100
AcDbLinetypeTableRecord
  2
PLINE15
 70
     0
  3
------------   ---   -----------
 72
    65
 73
     4
 40
30.0
 49
21.0
 74
     0
 49
-3.0
 74
     0
 49
3.0
 74
     0
 49
-3.0
 74
     0
  0
LTYPE
  5
52
330
5
100
AcDbSymbolTableRecord
100
AcDbLinetypeTableRecord
  2
PLINE16
 70
     0
  3
---------   ---   ---   --------
 72
    65
 73
     6
 40
30.0
 49
15.0
 74
     0
 49
-3.0
 74
     0
 49
3.0
 74
     0
 49
-3.0
 74
     0
 49
3.0
 74
     0
 49
-3.0
 74
     0
  0
ENDTAB
  0
TABLE
  2
LAYER
  5
2
102
{ACAD_XDICTIONARY
360
175
102
}
330
0
100
AcDbSymbolTable
 70
     5
  0
LAYER
  5
10
330
2
100
AcDbSymbolTableRecord
100
AcDbLayerTableRecord
  2
0
 70
     0
 62
     7
  6
CONTINUOUS
370
    -3
390
F
  0
LAYER
  5
128
330
2
100
AcDbSymbolTableRecord
100
AcDbLayerTableRecord
  2
Defpoints
 70
     0
 62
     7
  6
CONTINUOUS
290
     0
370
    -3
390
F
  0
LAYER
  5
178
330
2
100
AcDbSymbolTableRecord
100
AcDbLayerTableRecord
  2
寸法
 70
     0
 62
     7
  6
CONTINUOUS
370
    -3
390
F
  0
LAYER
  5
179
330
2
100
AcDbSymbolTableRecord
100
AcDbLayerTableRecord
  2
躯体と製品
 70
     0
 62
     7
  6
CONTINUOUS
370
    -3
390
F
  0
LAYER
  5
604A
330
2
100
AcDbSymbolTableRecord
100
AcDbLayerTableRecord
  2
文字-記号
 70
     0
 62
     7
  6
CONTINUOUS
370
    -3
390
F
  0
ENDTAB
  0
TABLE
  2
STYLE
  5
3
330
0
100
AcDbSymbolTable
 70
     4
  0
STYLE
  5
11
330
3
100
AcDbSymbolTableRecord
100
AcDbTextStyleTableRecord
  2
STANDARD
 70
     0
 40
0.0
 41
1.0
 50
0.0
 71
     0
 42
0.2
  3
txt
  4
bigfont.shx
  0
STYLE
  5
53
330
3
100
AcDbSymbolTableRecord
100
AcDbTextStyleTableRecord
  2
TATEGAKI
 70
     4
 40
0.0
 41
1.0
 50
0.0
 71
     0
 42
1.0
  3
txt
  4
bigfont.shx
  0
STYLE
  5
123
330
3
100
AcDbSymbolTableRecord
100
AcDbTextStyleTableRecord
  2
ACAD
 70
     0
 40
3.0
 41
0.8
 50
0.0
 71
     0
 42
5.0
  3
romans.shx
  4
extfont.shx
  0
STYLE
  5
3A5F
330
3
100
AcDbSymbolTableRecord
100
AcDbTextStyleTableRecord
  2
VERTXT
 70
     4
 40
0.0
 41
0.8582679999999999
 50
0.0
 71
     0
 42
3.5
  3
txt.shx
  4
BIGFONT
  0
ENDTAB
  0
TABLE
  2
VIEW
  5
6
330
0
100
AcDbSymbolTable
 70
     0
  0
ENDTAB
  0
TABLE
  2
UCS
  5
7
330
0
100
AcDbSymbolTable
 70
     0
  0
ENDTAB
  0
TABLE
  2
APPID
  5
9
330
0
100
AcDbSymbolTable
 70
     1
  0
APPID
  5
12
330
9
100
AcDbSymbolTableRecord
100
AcDbRegAppTableRecord
  2
ACAD
 70
     0
  0
ENDTAB
  0
TABLE
  2
DIMSTYLE
  5
A
330
0
100
AcDbSymbolTable
 70
     3
100
AcDbDimStyleTable
 71
     1
340
126
  0
DIMSTYLE
105
11C
330
A
100
AcDbSymbolTableRecord
100
AcDbDimStyleTableRecord
  2
Standard
 70
     0
340
11
  0
DIMSTYLE
105
126
102
{ACAD_REACTORS
330
6DCF
330
6C4E
102
}
330
A
100
AcDbSymbolTableRecord
100
AcDbDimStyleTableRecord
  2
AutoCAD
 70
     0
 41
1.0
 42
0.0
 44
0.0
 73
     0
 77
     1
140
3.0
147
1.0
174
     1
176
     4
177
     4
178
     3
271
     0
272
     0
289
     0
340
123
341
15B0
342
11E
  0
DIMSTYLE
105
2CBB
330
A
100
AcDbSymbolTableRecord
100
AcDbDimStyleTableRecord
  2
111
 70
     0
 41
1.0
 42
0.0
 44
0.0
 73
     0
 77
     1
140
5.0
147
1.0
174
     1
176
     4
177
     4
178
     3
271
     0
272
     0
289
     0
340
123
341
15B0
342
2CB5
  0
ENDTAB
  0
TABLE
  2
BLOCK_RECORD
  5
1
330
0
100
AcDbSymbolTable
 70
     6
  0
BLOCK_RECORD
  5
1E
102
{ACAD_XDICTIONARY
360
28B
102
}
330
1
100
AcDbSymbolTableRecord
100
AcDbBlockTableRecord
  2
*Model_Space
340
21
  0
BLOCK_RECORD
  5
1A
102
{ACAD_XDICTIONARY
360
28D
102
}
330
1
100
AcDbSymbolTableRecord
100
AcDbBlockTableRecord
  2
*Paper_Space
340
1D
  0
BLOCK_RECORD
  5
11E
330
1
100
AcDbSymbolTableRecord
100
AcDbBlockTableRecord
  2
_Dot
340
0
102
{BLKREFS
331
6E66
331
6E67
331
6E6F
331
6E70
102
}
  0
BLOCK_RECORD
  5
15B0
330
1
100
AcDbSymbolTableRecord
100
AcDbBlockTableRecord
  2
_None
340
0
  0
BLOCK_RECORD
  5
2CB5
330
1
100
AcDbSymbolTableRecord
100
AcDbBlockTableRecord
  2
_Open30
340
0
  0
BLOCK_RECORD
  5
35E3
330
1
100
AcDbSymbolTableRecord
100
AcDbBlockTableRecord
  2
_DotBlank
340
0
  0
BLOCK_RECORD
  5
6DD0
330
1
100
AcDbSymbolTableRecord
100
AcDbBlockTableRecord
  2
*D4
340
0
  0
BLOCK_RECORD
  5
6DDC
330
1
100
AcDbSymbolTableRecord
100
AcDbBlockTableRecord
  2
*D5
340
0
  0
ENDTAB
  0
ENDSEC
  0
SECTION
  2
BLOCKS
  0
BLOCK
  5
1F
330
1E
100
AcDbEntity
  8
0
100
AcDbBlockBegin
  2
*Model_Space
 70
     0
 10
0.0
 20
0.0
 30
0.0
  3
*Model_Space
  1

  0
ENDBLK
  5
20
330
1E
100
AcDbEntity
  8
0
100
AcDbBlockEnd
  0
BLOCK
  5
1B
330
1A
100
AcDbEntity
 67
     1
  8
0
100
AcDbBlockBegin
  2
*Paper_Space
 70
     0
 10
0.0
 20
0.0
 30
0.0
  3
*Paper_Space
  1

  0
ENDBLK
  5
1C
330
1A
100
AcDbEntity
 67
     1
  8
0
100
AcDbBlockEnd
  0
BLOCK
  5
121
330
11E
100
AcDbEntity
  8
0
100
AcDbBlockBegin
  2
_Dot
 70
     0
 10
0.0
 20
0.0
 30
0.0
  3
_Dot
  1

  0
LWPOLYLINE
  5
11F
330
11E
100
AcDbEntity
  8
0
  6
ByBlock
 62
     0
100
AcDbPolyline
 90
        2
 70
     1
 43
0.5
 10
-0.25
 20
0.0
 42
1.0
 10
0.25
 20
0.0
 42
1.0
  0
LINE
  5
120
330
11E
100
AcDbEntity
  8
0
  6
ByBlock
 62
     0
370
    -2
100
AcDbLine
 10
-0.5
 20
0.0
 30
0.0
 11
-1.0
 21
0.0
 31
0.0
  0
ENDBLK
  5
122
330
11E
100
AcDbEntity
  8
0
100
AcDbBlockEnd
  0
BLOCK
  5
15B1
330
15B0
100
AcDbEntity
  8
0
100
AcDbBlockBegin
  2
_None
 70
     0
 10
0.0
 20
0.0
 30
0.0
  3
_None
  1

  0
ENDBLK
  5
15B2
330
15B0
100
AcDbEntity
  8
0
100
AcDbBlockEnd
  0
BLOCK
  5
2CB9
330
2CB5
100
AcDbEntity
  8
0
100
AcDbBlockBegin
  2
_Open30
 70
     0
 10
0.0
 20
0.0
 30
0.0
  3
_Open30
  1

  0
LINE
  5
2CB6
330
2CB5
100
AcDbEntity
  8
0
  6
ByBlock
 62
     0
370
    -2
100
AcDbLine
 10
-1.0
 20
0.26794919
 30
0.0
 11
0.0
 21
0.0
 31
0.0
  0
LINE
  5
2CB7
330
2CB5
100
AcDbEntity
  8
0
  6
ByBlock
 62
     0
370
    -2
100
AcDbLine
 10
0.0
 20
0.0
 30
0.0
 11
-1.0
 21
-0.26794919
 31
0.0
  0
LINE
  5
2CB8
330
2CB5
100
AcDbEntity
  8
0
  6
ByBlock
 62
     0
370
    -2
100
AcDbLine
 10
0.0
 20
0.0
 30
0.0
 11
-1.0
 21
0.0
 31
0.0
  0
ENDBLK
  5
2CBA
330
2CB5
100
AcDbEntity
  8
0
100
AcDbBlockEnd
  0
BLOCK
  5
35E6
330
35E3
100
AcDbEntity
  8
0
100
AcDbBlockBegin
  2
_DotBlank
 70
     0
 10
0.0
 20
0.0
 30
0.0
  3
_DotBlank
  1

  0
CIRCLE
  5
35E4
330
35E3
100
AcDbEntity
  8
0
  6
ByBlock
 62
     0
370
    -2
100
AcDbCircle
 10
0.0
 20
0.0
 30
0.0
 40
0.5
  0
LINE
  5
35E5
330
35E3
100
AcDbEntity
  8
0
  6
ByBlock
 62
     0
370
    -2
100
AcDbLine
 10
-0.5
 20
0.0
 30
0.0
 11
-1.0
 21
0.0
 31
0.0
  0
ENDBLK
  5
35E7
330
35E3
100
AcDbEntity
  8
0
100
AcDbBlockEnd
  0
BLOCK
  5
6DDA
330
6DD0
100
AcDbEntity
  8
0
100
AcDbBlockBegin
  2
*D4
 70
     1
 10
0.0
 20
0.0
 30
0.0
  3
*D4
  1

  0
LINE
  5
6E63
330
6DD0
100
AcDbEntity
  8
寸法
  6
Continuous
 62
     4
370
    -2
100
AcDbLine
 10
381.3088805745742
 20
351.854441674871
 30
0.0
 11
390.3088805745742
 21
351.8544416748709
 31
0.0
  0
LINE
  5
6E64
330
6DD0
100
AcDbEntity
  8
寸法
  6
Continuous
 62
     4
370
    -2
100
AcDbLine
 10
381.3088805745742
 20
333.8544416748709
 30
0.0
 11
390.3088805745742
 21
333.8544416748709
 31
0.0
  0
LINE
  5
6E65
330
6DD0
100
AcDbEntity
  8
寸法
  6
Continuous
 62
     4
370
    -2
100
AcDbLine
 10
390.3088805745742
 20
350.8544416748709
 30
0.0
 11
390.3088805745742
 21
334.8544416748709
 31
0.0
  0
INSERT
  5
6E66
330
6DD0
100
AcDbEntity
  8
寸法
  6
Continuous
 62
     4
370
    -2
100
AcDbBlockReference
  2
_Dot
 10
390.3088805745742
 20
351.8544416748709
 30
0.0
 50
90.0
  0
INSERT
  5
6E67
330
6DD0
100
AcDbEntity
  8
寸法
  6
Continuous
 62
     4
370
    -2
100
AcDbBlockReference
  2
_Dot
 10
390.3088805745742
 20
333.8544416748709
 30
0.0
 50
270.0
  0
MTEXT
  5
6E68
330
6DD0
100
AcDbEntity
  8
寸法
  6
Continuous
 62
     3
100
AcDbMText
 10
387.2231662888599
 20
342.854441674871
 30
0.0
 40
3.0
 41
0.0
 71
     5
 72
     1
  1
\A1;(90)
  7
ACAD
 11
0.0000000000000001
 21
1.0
 31
0.0
 73
     1
 44
1.0
1001
ACAD
1000
MTEXTBEGIN
1070
    73
1070
     1
1070
    44
1040
1.0
1070
    74
1070
     0
1000
MTEXTEND
  0
POINT
  5
6E69
330
6DD0
100
AcDbEntity
  8
Defpoints
  6
Continuous
 62
     0
100
AcDbPoint
 10
381.3088805745742
 20
351.854441674871
 30
0.0
  0
POINT
  5
6E6A
330
6DD0
100
AcDbEntity
  8
Defpoints
  6
Continuous
 62
     0
100
AcDbPoint
 10
381.3088805745742
 20
333.8544416748709
 30
0.0
  0
POINT
  5
6E6B
330
6DD0
100
AcDbEntity
  8
Defpoints
  6
Continuous
 62
     0
100
AcDbPoint
 10
390.3088805745742
 20
333.8544416748709
 30
0.0
  0
ENDBLK
  5
6DDB
330
6DD0
100
AcDbEntity
  8
0
100
AcDbBlockEnd
  0
BLOCK
  5
6DE6
330
6DDC
100
AcDbEntity
  8
0
100
AcDbBlockBegin
  2
*D5
 70
     1
 10
0.0
 20
0.0
 30
0.0
  3
*D5
  1

  0
LINE
  5
6E6C
330
6DDC
100
AcDbEntity
  8
寸法
  6
Continuous
 62
     4
370
    -2
100
AcDbLine
 10
214.1531205745741
 20
351.1641816748706
 30
0.0
 11
223.1531205745741
 21
351.1641816748706
 31
0.0
  0
LINE
  5
6E6D
330
6DDC
100
AcDbEntity
  8
寸法
  6
Continuous
 62
     4
370
    -2
100
AcDbLine
 10
214.1531205745741
 20
328.1641816748706
 30
0.0
 11
223.1531205745741
 21
328.1641816748706
 31
0.0
  0
LINE
  5
6E6E
330
6DDC
100
AcDbEntity
  8
寸法
  6
Continuous
 62
     4
370
    -2
100
AcDbLine
 10
223.1531205745741
 20
350.1641816748706
 30
0.0
 11
223.1531205745741
 21
329.1641816748706
 31
0.0
  0
INSERT
  5
6E6F
330
6DDC
100
AcDbEntity
  8
寸法
  6
Continuous
 62
     4
370
    -2
100
AcDbBlockReference
  2
_Dot
 10
223.1531205745741
 20
351.1641816748706
 30
0.0
 50
90.0
  0
INSERT
  5
6E70
330
6DDC
100
AcDbEntity
  8
寸法
  6
Continuous
 62
     4
370
    -2
100
AcDbBlockReference
  2
_Dot
 10
223.1531205745741
 20
328.1641816748706
 30
0.0
 50
270.0
  0
MTEXT
  5
6E71
330
6DDC
100
AcDbEntity
  8
寸法
  6
Continuous
 62
     3
100
AcDbMText
 10
220.0674062888598
 20
339.6641816748707
 30
0.0
 40
3.0
 41
0.0
 71
     5
 72
     1
  1
\A1;(115)
  7
ACAD
 11
0.0000000000000001
 21
1.0
 31
0.0
 73
     1
 44
1.0
1001
ACAD
1000
MTEXTBEGIN
1070
    73
1070
     1
1070
    44
1040
1.0
1070
    74
1070
     0
1000
MTEXTEND
  0
POINT
  5
6E72
330
6DDC
100
AcDbEntity
  8
Defpoints
  6
Continuous
 62
     0
100
AcDbPoint
 10
214.1531205745741
 20
351.1641816748706
 30
0.0
  0
POINT
  5
6E73
330
6DDC
100
AcDbEntity
  8
Defpoints
  6
Continuous
 62
     0
100
AcDbPoint
 10
214.1531205745741
 20
328.1641816748706
 30
0.0
  0
POINT
  5
6E74
330
6DDC
100
AcDbEntity
  8
Defpoints
  6
Continuous
 62
     0
100
AcDbPoint
 10
223.1531205745741
 20
328.1641816748706
 30
0.0
  0
ENDBLK
  5
6DE7
330
6DDC
100
AcDbEntity
  8
0
100
AcDbBlockEnd
  0
ENDSEC
  0
SECTION
  2
ENTITIES
  0
DIMENSION
  5
6C4E
330
1E
100
AcDbEntity
  8
寸法
  6
Continuous
100
AcDbDimension
  2
*D5
 10
223.1531205745741
 20
328.1641816748706
 30
0.0
 11
220.0674062888598
 21
339.6641816748707
 31
0.0
 70
    32
  1
(115)
 71
     5
 42
23.0
  3
AutoCAD
100
AcDbAlignedDimension
 13
214.1531205745741
 23
351.1641816748706
 33
0.0
 14
214.1531205745741
 24
328.1641816748706
 34
0.0
 50
90.0
100
AcDbRotatedDimension
1001
ACAD
1000
DSTYLE
1002
{
1070
   147
1040
0.8
1070
   140
1040
10.0
1002
}
  0
TEXT
  5
6C4F
330
1E
100
AcDbEntity
  8
文字-記号
 62
     7
100
AcDbText
 10
187.5107305745741
 20
362.164201674871
 30
0.0
 40
3.0
  1
６５×４５×０．８
 41
0.8
  7
ACAD
100
AcDbText
  0
LINE
  5
6C50
330
1E
100
AcDbEntity
  8
躯体と製品
  6
Continuous
 62
     7
100
AcDbLine
 10
159.1531205745741
 20
375.5220416748707
 30
0.0
 11
139.1531205745741
 21
355.5220416748707
 31
0.0
  0
LINE
  5
6C51
330
1E
100
AcDbEntity
  8
躯体と製品
  6
Continuous
 62
     7
100
AcDbLine
 10
159.1531205745741
 20
361.3799116748705
 30
0.0
 11
139.1531205745741
 21
341.3799116748705
 31
0.0
  0
LINE
  5
6C52
330
1E
100
AcDbEntity
  8
躯体と製品
  6
Continuous
 62
     7
100
AcDbLine
 10
159.1531205745741
 20
378.3504716748703
 30
0.0
 11
139.1531205745741
 21
358.3504716748703
 31
0.0
  0
LINE
  5
6C53
330
1E
100
AcDbEntity
  8
躯体と製品
  6
Continuous
 62
     7
100
AcDbLine
 10
159.1531205745741
 20
364.208341674871
 30
0.0
 11
139.1531205745741
 21
344.208341674871
 31
0.0
  0
LINE
  5
6C54
330
1E
100
AcDbEntity
  8
躯体と製品
  6
Continuous
 62
     7
100
AcDbLine
 10
159.1531205745741
 20
376.9362616748704
 30
0.0
 11
139.1531205745741
 21
356.9362616748704
 31
0.0
  0
LINE
  5
6C55
330
1E
100
AcDbEntity
  8
躯体と製品
  6
Continuous
 62
     7
100
AcDbLine
 10
159.1531205745741
 20
362.7941216748705
 30
0.0
 11
139.1531205745741
 21
342.7941216748704
 31
0.0
  0
LINE
  5
6C56
330
1E
100
AcDbEntity
  8
躯体と製品
  6
Continuous
 62
     7
100
AcDbLine
 10
146.3246905745741
 20
379.6641816748707
 30
0.0
 11
139.1531205745741
 21
372.4926116748711
 31
0.0
  0
LINE
  5
6C57
330
1E
100
AcDbEntity
  8
躯体と製品
  6
Continuous
 62
     7
100
AcDbLine
 10
147.7389105745742
 20
379.6641816748707
 30
0.0
 11
139.1531205745741
 21
371.0783916748706
 31
0.0
  0
LINE
  5
6C58
330
1E
100
AcDbEntity
  8
躯体と製品
  6
Continuous
 62
     7
100
AcDbLine
 10
149.1531205745741
 20
379.6641816748707
 30
0.0
 11
139.1531205745741
 21
369.6641816748706
 31
0.0
  0
LINE
  5
6C59
330
1E
100
AcDbEntity
  8
文字-記号
  6
Continuous
 62
     7
100
AcDbLine
 10
163.1531205745741
 20
328.1641816748706
 30
0.0
 11
143.8118905745741
 21
294.6641816748707
 31
0.0
  0
LINE
  5
6C5A
330
1E
100
AcDbEntity
  8
躯体と製品
  6
Continuous
 62
     7
100
AcDbLine
 10
159.1531205745741
 20
333.0956416748704
 30
0.0
 11
139.1531205745741
 21
313.0956416748704
 31
0.0
  0
LINE
  5
6C5B
330
1E
100
AcDbEntity
  8
躯体と製品
  6
Continuous
 62
     7
100
AcDbLine
 10
159.1531205745741
 20
318.9535016748705
 30
0.0
 11
139.8638005745743
 21
299.6641816748706
 31
0.0
  0
LINE
  5
6C5C
330
1E
100
AcDbEntity
  8
躯体と製品
  6
Continuous
 62
     7
100
AcDbLine
 10
159.1531205745741
 20
335.9240616748703
 30
0.0
 11
139.1531205745741
 21
315.9240616748702
 31
0.0
  0
LINE
  5
6C5D
330
1E
100
AcDbEntity
  8
躯体と製品
  6
Continuous
 62
     7
100
AcDbLine
 10
159.1531205745741
 20
321.781931674871
 30
0.0
 11
139.1531205745741
 21
301.781931674871
 31
0.0
  0
LINE
  5
6C5E
330
1E
100
AcDbEntity
  8
躯体と製品
  6
Continuous
 62
     7
100
AcDbLine
 10
159.1531205745741
 20
334.5098516748703
 30
0.0
 11
139.1531205745741
 21
314.5098516748703
 31
0.0
  0
LINE
  5
6C5F
330
1E
100
AcDbEntity
  8
躯体と製品
  6
Continuous
 62
     7
100
AcDbLine
 10
159.1531205745741
 20
320.3677116748704
 30
0.0
 11
139.1531205745741
 21
300.3677116748704
 31
0.0
  0
TEXT
  5
6C60
330
1E
100
AcDbEntity
  8
文字-記号
 62
     7
100
AcDbText
 10
112.6799795745742
 20
285.6641816748706
 30
0.0
 40
3.0
  1
断熱材打ち込みの場合
 41
0.8
  7
ACAD
100
AcDbText
  0
LINE
  5
6C61
330
1E
100
AcDbEntity
  8
文字-記号
  6
Continuous
 62
     7
100
AcDbLine
 10
157.1531205745741
 20
309.6641816748706
 30
0.0
 11
142.7193605745742
 21
284.6641856748711
 31
0.0
  0
LINE
  5
6C62
330
1E
100
AcDbEntity
  8
躯体と製品
  6
CENTER2
 62
     7
100
AcDbLine
 10
139.1531205745741
 20
339.6641816748706
 30
0.0
 11
213.1531205745741
 21
339.6641816748706
 31
0.0
  0
TEXT
  5
6C63
330
1E
100
AcDbEntity
  8
文字-記号
 62
     7
100
AcDbText
 10
98.75285457457403
 20
295.6641716748709
 30
0.0
 40
3.0
  1
テープ張りの上継ぎ目用パテ盛り
 41
0.8
  7
ACAD
100
AcDbText
  0
LINE
  5
6C64
330
1E
100
AcDbEntity
  8
躯体と製品
  6
Continuous
 62
     7
100
AcDbLine
 10
159.1531205745741
 20
347.2377716748706
 30
0.0
 11
139.1531205745741
 21
327.2377716748706
 31
0.0
  0
LINE
  5
6C65
330
1E
100
AcDbEntity
  8
躯体と製品
  6
Continuous
 62
     7
100
AcDbLine
 10
159.1531205745741
 20
350.0662016748711
 30
0.0
 11
139.1531205745741
 21
330.0662016748711
 31
0.0
  0
LINE
  5
6C66
330
1E
100
AcDbEntity
  8
躯体と製品
  6
Continuous
 62
     7
100
AcDbLine
 10
159.1531205745741
 20
348.6519916748703
 30
0.0
 11
139.1531205745741
 21
328.6519916748702
 31
0.0
  0
LINE
  5
6C67
330
1E
100
AcDbEntity
  8
文字-記号
  6
Continuous
 62
     7
100
AcDbLine
 10
143.8118905745741
 20
294.6641816748707
 30
0.0
 11
98.66189257457428
 21
294.6641816748707
 31
0.0
  0
LINE
  5
6C68
330
1E
100
AcDbEntity
  8
文字-記号
  6
Continuous
 62
     7
100
AcDbLine
 10
142.7193605745742
 20
284.6641856748711
 30
0.0
 11
112.6193695745742
 21
284.6641856748711
 31
0.0
  0
LINE
  5
6C69
330
1E
100
AcDbEntity
  8
文字-記号
  6
Continuous
 62
     7
100
AcDbLine
 10
166.1531205745741
 20
351.3641816748704
 30
0.0
 11
177.5846605745742
 21
371.1641816748706
 31
0.0
  0
LINE
  5
6C6A
330
1E
100
AcDbEntity
  8
文字-記号
  6
Continuous
 62
     7
100
AcDbLine
 10
172.1531205745741
 20
334.5641816748703
 30
0.0
 11
187.5106405745741
 21
361.1641816748706
 31
0.0
  0
LINE
  5
6C6B
330
1E
100
AcDbEntity
  8
躯体と製品
  6
Continuous
 62
     7
100
AcDbLine
 10
159.1531205745741
 20
379.6641816748707
 30
0.0
 11
159.1531205745741
 21
299.6641816748706
 31
0.0
  0
LINE
  5
6C6C
330
1E
100
AcDbEntity
  8
躯体と製品
  6
Continuous
 62
     7
100
AcDbLine
 10
163.1531205745741
 20
379.6641816748707
 30
0.0
 11
163.1531205745741
 21
299.6641816748706
 31
0.0
  0
LINE
  5
6C6D
330
1E
100
AcDbEntity
  8
躯体と製品
  6
Continuous
 62
     7
100
AcDbLine
 10
163.1531205745741
 20
348.6641816748706
 30
0.0
 11
213.1531205745741
 21
348.6641816748706
 31
0.0
  0
LINE
  5
6C6E
330
1E
100
AcDbEntity
  8
躯体と製品
  6
Continuous
 62
     7
100
AcDbLine
 10
213.1531205745741
 20
351.1641816748706
 30
0.0
 11
163.3531205745744
 21
351.1641816748706
 31
0.0
  0
LINE
  5
6C6F
330
1E
100
AcDbEntity
  8
躯体と製品
  6
Continuous
 62
     7
100
AcDbLine
 10
163.1531205745741
 20
346.1641816748706
 30
0.0
 11
213.1531205745741
 21
346.1641816748706
 31
0.0
  0
TEXT
  5
6C70
330
1E
100
AcDbEntity
  8
文字-記号
 62
     7
100
AcDbText
 10
163.1531205745741
 20
284.6641846748708
 30
0.0
 40
5.0
  1
継目処理の場合
 41
0.8
  7
ACAD
100
AcDbText
  0
LINE
  5
6C71
330
1E
100
AcDbEntity
  8
躯体と製品
  6
Continuous
 62
     7
100
AcDbLine
 10
163.1531205745741
 20
330.6641816748706
 30
0.0
 11
213.1531205745741
 21
330.6641816748706
 31
0.0
  0
LINE
  5
6C72
330
1E
100
AcDbEntity
  8
躯体と製品
  6
Continuous
 62
     7
100
AcDbLine
 10
163.1531205745741
 20
328.1641816748706
 30
0.0
 11
213.1531205745741
 21
328.1641816748706
 31
0.0
  0
LINE
  5
6C73
330
1E
100
AcDbEntity
  8
躯体と製品
  6
Continuous
 62
     7
100
AcDbLine
 10
163.1531205745741
 20
333.1641816748706
 30
0.0
 11
213.1531205745741
 21
333.1641816748706
 31
0.0
  0
CIRCLE
  5
6C74
330
1E
100
AcDbEntity
  8
躯体と製品
  6
Continuous
 62
     7
100
AcDbCircle
 10
160.6530105745742
 20
352.8891416748711
 30
0.0
 40
0.2
  0
LINE
  5
6C75
330
1E
100
AcDbEntity
  8
躯体と製品
  6
Continuous
 62
     7
100
AcDbLine
 10
169.1531205745741
 20
348.8641816748704
 30
0.0
 11
169.1531205745741
 21
348.6641816748706
 31
0.0
  0
LINE
  5
6C76
330
1E
100
AcDbEntity
  8
躯体と製品
  6
Continuous
 62
     7
100
AcDbLine
 10
166.1531205745741
 20
351.1641816748706
 30
0.0
 11
166.1531205745741
 21
351.3641816748704
 31
0.0
  0
LINE
  5
6C77
330
1E
100
AcDbEntity
  8
躯体と製品
  6
Continuous
 62
     7
100
AcDbLine
 10
172.1531205745741
 20
344.764181674871
 30
0.0
 11
171.0531205745742
 21
344.764181674871
 31
0.0
  0
LINE
  5
6C78
330
1E
100
AcDbEntity
  8
躯体と製品
  6
Continuous
 62
     7
100
AcDbLine
 10
171.0531205745742
 20
344.9241816748708
 30
0.0
 11
171.0531205745742
 21
344.764181674871
 31
0.0
  0
LINE
  5
6C79
330
1E
100
AcDbEntity
  8
躯体と製品
  6
Continuous
 62
     7
100
AcDbLine
 10
171.9931205745742
 20
344.9241816748708
 30
0.0
 11
171.0531205745742
 21
344.9241816748708
 31
0.0
  0
LINE
  5
6C7A
330
1E
100
AcDbEntity
  8
躯体と製品
  6
Continuous
 62
     7
100
AcDbLine
 10
172.1531205745741
 20
346.1641816748706
 30
0.0
 11
172.1531205745741
 21
344.764181674871
 31
0.0
  0
LINE
  5
6C7B
330
1E
100
AcDbEntity
  8
躯体と製品
  6
Continuous
 62
     7
100
AcDbLine
 10
171.9931205745742
 20
346.0041816748708
 30
0.0
 11
171.9931205745742
 21
344.9241816748708
 31
0.0
  0
CIRCLE
  5
6C7C
330
1E
100
AcDbEntity
  8
躯体と製品
  6
Continuous
 62
     7
100
AcDbCircle
 10
161.9697405745742
 20
351.2667416748709
 30
0.0
 40
0.2
  0
CIRCLE
  5
6C7D
330
1E
100
AcDbEntity
  8
躯体と製品
  6
Continuous
 62
     7
100
AcDbCircle
 10
162.5575705745741
 20
349.1975916748706
 30
0.0
 40
0.2
  0
LINE
  5
6C7E
330
1E
100
AcDbEntity
  8
躯体と製品
  6
Continuous
 62
     7
100
AcDbLine
 10
163.3531205745744
 20
351.1641816748706
 30
0.0
 11
163.3531205745744
 21
348.8641816748704
 31
0.0
  0
CIRCLE
  5
6C7F
330
1E
100
AcDbEntity
  8
躯体と製品
  6
Continuous
 62
     7
100
AcDbCircle
 10
159.6654605745743
 20
351.2432216748712
 30
0.0
 40
0.2
  0
CIRCLE
  5
6C80
330
1E
100
AcDbEntity
  8
躯体と製品
  6
Continuous
 62
     7
100
AcDbCircle
 10
160.794090574574
 20
348.2805816748705
 30
0.0
 40
0.2
  0
CIRCLE
  5
6C81
330
1E
100
AcDbEntity
  8
躯体と製品
  6
Continuous
 62
     7
100
AcDbCircle
 10
160.5354405745743
 20
350.5378316748711
 30
0.0
 40
0.2
  0
CIRCLE
  5
6C82
330
1E
100
AcDbEntity
  8
躯体と製品
  6
Continuous
 62
     7
100
AcDbCircle
 10
162.2989205745744
 20
341.6734116748703
 30
0.0
 40
0.2
  0
CIRCLE
  5
6C83
330
1E
100
AcDbEntity
  8
躯体と製品
  6
Continuous
 62
     7
100
AcDbCircle
 10
161.0057005745743
 20
344.1187716748709
 30
0.0
 40
0.2
  0
CIRCLE
  5
6C84
330
1E
100
AcDbEntity
  8
躯体と製品
  6
Continuous
 62
     7
100
AcDbCircle
 10
162.3694605745741
 20
343.5074316748705
 30
0.0
 40
0.2
  0
LINE
  5
6C85
330
1E
100
AcDbEntity
  8
躯体と製品
  6
Continuous
 62
     7
100
AcDbLine
 10
163.4531205745743
 20
340.6641816748706
 30
0.0
 11
164.253120574574
 21
340.6641816748706
 31
0.0
  0
LINE
  5
6C86
330
1E
100
AcDbEntity
  8
躯体と製品
  6
Continuous
 62
     7
100
AcDbLine
 10
163.1531205745741
 20
344.764181674871
 30
0.0
 11
163.293120574574
 21
344.6833516748711
 31
0.0
  0
LINE
  5
6C87
330
1E
100
AcDbEntity
  8
躯体と製品
  6
Continuous
 62
     7
100
AcDbLine
 10
163.4531205745743
 20
344.7757316748703
 30
0.0
 11
163.313120574574
 21
344.8565616748711
 31
0.0
  0
CIRCLE
  5
6C88
330
1E
100
AcDbEntity
  8
躯体と製品
  6
Continuous
 62
     7
100
AcDbCircle
 10
159.8535605745742
 20
340.9445016748705
 30
0.0
 40
0.2
  0
CIRCLE
  5
6C89
330
1E
100
AcDbEntity
  8
躯体と製品
  6
Continuous
 62
     7
100
AcDbCircle
 10
159.9476205745741
 20
342.6139316748704
 30
0.0
 40
0.2
  0
CIRCLE
  5
6C8A
330
1E
100
AcDbEntity
  8
躯体と製品
  6
Continuous
 62
     7
100
AcDbCircle
 10
160.3473405745744
 20
345.4355016748705
 30
0.0
 40
0.2
  0
CIRCLE
  5
6C8B
330
1E
100
AcDbEntity
  8
躯体と製品
  6
Continuous
 62
     7
100
AcDbCircle
 10
162.2048705745742
 20
345.8117116748708
 30
0.0
 40
0.2
  0
LINE
  5
6C8C
330
1E
100
AcDbEntity
  8
躯体と製品
  6
Continuous
 62
     7
100
AcDbLine
 10
163.313120574574
 20
344.8565616748711
 30
0.0
 11
163.313120574574
 21
346.0041816748708
 31
0.0
  0
LINE
  5
6C8D
330
1E
100
AcDbEntity
  8
躯体と製品
  6
Continuous
 62
     7
100
AcDbLine
 10
166.1531205745741
 20
351.3641816748704
 30
0.0
 11
163.1531205745741
 21
351.3641816748704
 31
0.0
  0
LINE
  5
6C8E
330
1E
100
AcDbEntity
  8
躯体と製品
  6
Continuous
 62
     7
100
AcDbLine
 10
163.3531205745744
 20
348.8641816748704
 30
0.0
 11
169.1531205745741
 21
348.8641816748704
 31
0.0
  0
LINE
  5
6C8F
330
1E
100
AcDbEntity
  8
躯体と製品
  6
Continuous
 62
     7
100
AcDbLine
 10
171.9931205745742
 20
346.0041816748708
 30
0.0
 11
163.313120574574
 21
346.0041816748708
 31
0.0
  0
CIRCLE
  5
6C90
330
1E
100
AcDbEntity
  8
文字-記号
  6
Continuous
 62
     7
100
AcDbCircle
 10
166.1531205745741
 20
351.3641816748704
 30
0.0
 40
0.3
  0
LINE
  5
6C91
330
1E
100
AcDbEntity
  8
躯体と製品
  6
Continuous
 62
     7
100
AcDbLine
 10
163.4531205745743
 20
340.1641816748707
 30
0.0
 11
152.0795305745741
 21
340.1641816748707
 31
0.0
  0
CIRCLE
  5
6C92
330
1E
100
AcDbEntity
  8
文字-記号
  6
Continuous
 62
     7
100
AcDbCircle
 10
172.1531205745741
 20
334.5641816748703
 30
0.0
 40
0.3
  0
LINE
  5
6C93
330
1E
100
AcDbEntity
  8
躯体と製品
  6
Continuous
 62
     7
100
AcDbLine
 10
172.1531205745741
 20
334.5641816748703
 30
0.0
 11
171.0531205745742
 21
334.5641816748703
 31
0.0
  0
LINE
  5
6C94
330
1E
100
AcDbEntity
  8
躯体と製品
  6
Continuous
 62
     7
100
AcDbLine
 10
171.0531205745742
 20
334.5641816748703
 30
0.0
 11
171.0531205745742
 21
334.4041816748704
 31
0.0
  0
LINE
  5
6C95
330
1E
100
AcDbEntity
  8
躯体と製品
  6
Continuous
 62
     7
100
AcDbLine
 10
171.9931205745742
 20
334.4041816748704
 30
0.0
 11
171.0531205745742
 21
334.4041816748704
 31
0.0
  0
LINE
  5
6C96
330
1E
100
AcDbEntity
  8
躯体と製品
  6
Continuous
 62
     7
100
AcDbLine
 10
172.1531205745741
 20
334.5641816748703
 30
0.0
 11
172.1531205745741
 21
333.1641816748706
 31
0.0
  0
LINE
  5
6C97
330
1E
100
AcDbEntity
  8
躯体と製品
  6
Continuous
 62
     7
100
AcDbLine
 10
171.9931205745742
 20
333.3241816748705
 30
0.0
 11
171.9931205745742
 21
334.4041816748704
 31
0.0
  0
LINE
  5
6C98
330
1E
100
AcDbEntity
  8
躯体と製品
  6
Continuous
 62
     7
100
AcDbLine
 10
164.253120574574
 20
338.6641816748706
 30
0.0
 11
163.4531205745743
 21
338.6641816748706
 31
0.0
  0
LINE
  5
6C99
330
1E
100
AcDbEntity
  8
躯体と製品
  6
Continuous
 62
     7
100
AcDbLine
 10
163.1531205745741
 20
334.5641816748703
 30
0.0
 11
163.293120574574
 21
334.6450116748711
 31
0.0
  0
LINE
  5
6C9A
330
1E
100
AcDbEntity
  8
躯体と製品
  6
Continuous
 62
     7
100
AcDbLine
 10
163.313120574574
 20
334.4718016748711
 30
0.0
 11
163.4531205745743
 21
334.552631674871
 31
0.0
  0
LINE
  5
6C9B
330
1E
100
AcDbEntity
  8
躯体と製品
  6
Continuous
 62
     7
100
AcDbLine
 10
159.1531205745741
 20
337.9484516748707
 30
0.0
 11
157.4373905745742
 21
339.6641816748706
 31
0.0
  0
LINE
  5
6C9C
330
1E
100
AcDbEntity
  8
躯体と製品
  6
Continuous
 62
     7
100
AcDbLine
 10
159.1531205745741
 20
339.3626616748707
 30
0.0
 11
158.8516105745743
 21
339.6641816748706
 31
0.0
  0
CIRCLE
  5
6C9D
330
1E
100
AcDbEntity
  8
躯体と製品
  6
Continuous
 62
     7
100
AcDbCircle
 10
159.4652905745743
 20
338.6160616748703
 30
0.0
 40
0.2
  0
CIRCLE
  5
6C9E
330
1E
100
AcDbEntity
  8
躯体と製品
  6
Continuous
 62
     7
100
AcDbCircle
 10
159.618580574574
 20
335.3969016748706
 30
0.0
 40
0.2
  0
CIRCLE
  5
6C9F
330
1E
100
AcDbEntity
  8
躯体と製品
  6
Continuous
 62
     7
100
AcDbCircle
 10
159.9251705745741
 20
336.6402816748705
 30
0.0
 40
0.2
  0
CIRCLE
  5
6CA0
330
1E
100
AcDbEntity
  8
躯体と製品
  6
Continuous
 62
     7
100
AcDbCircle
 10
160.1976905745741
 20
335.1243816748711
 30
0.0
 40
0.2
  0
CIRCLE
  5
6CA1
330
1E
100
AcDbEntity
  8
躯体と製品
  6
Continuous
 62
     7
100
AcDbCircle
 10
160.5894405745744
 20
337.5089416748706
 30
0.0
 40
0.2
  0
CIRCLE
  5
6CA2
330
1E
100
AcDbEntity
  8
躯体と製品
  6
Continuous
 62
     7
100
AcDbCircle
 10
159.7037405745741
 20
332.9101516748706
 30
0.0
 40
0.2
  0
ARC
  5
6CA3
330
1E
100
AcDbEntity
  8
躯体と製品
  6
Continuous
 62
     7
100
AcDbCircle
 10
159.1531205745741
 20
339.6641816748706
 30
0.0
 40
8.0
100
AcDbArc
 50
270.0
 51
284.4775100000029
  0
CIRCLE
  5
6CA4
330
1E
100
AcDbEntity
  8
躯体と製品
  6
Continuous
 62
     7
100
AcDbCircle
 10
160.5042805745743
 20
332.8590516748709
 30
0.0
 40
0.2
  0
LINE
  5
6CA5
330
1E
100
AcDbEntity
  8
躯体と製品
  6
Continuous
 62
     7
100
AcDbLine
 10
163.313120574574
 20
333.3241816748705
 30
0.0
 11
163.313120574574
 21
334.4718016748711
 31
0.0
  0
LINE
  5
6CA6
330
1E
100
AcDbEntity
  8
躯体と製品
  6
Continuous
 62
     7
100
AcDbLine
 10
171.9931205745742
 20
333.3241816748705
 30
0.0
 11
163.313120574574
 21
333.3241816748705
 31
0.0
  0
ARC
  5
6CA7
330
1E
100
AcDbEntity
  8
躯体と製品
  6
Continuous
 62
     7
100
AcDbCircle
 10
159.1531205745741
 20
315.6641816748706
 30
0.0
 40
8.0
100
AcDbArc
 50
75.52248799998325
 51
90.0
  0
CIRCLE
  5
6CA8
330
1E
100
AcDbEntity
  8
躯体と製品
  6
Continuous
 62
     7
100
AcDbCircle
 10
159.7718705745742
 20
317.7341316748707
 30
0.0
 40
0.2
  0
CIRCLE
  5
6CA9
330
1E
100
AcDbEntity
  8
躯体と製品
  6
Continuous
 62
     7
100
AcDbCircle
 10
160.4702105745741
 20
320.1357316748708
 30
0.0
 40
0.2
  0
CIRCLE
  5
6CAA
330
1E
100
AcDbEntity
  8
躯体と製品
  6
Continuous
 62
     7
100
AcDbCircle
 10
159.8059405745743
 20
322.4521516748709
 30
0.0
 40
0.2
  0
CIRCLE
  5
6CAB
330
1E
100
AcDbEntity
  8
文字-記号
  6
Continuous
 62
     7
100
AcDbCircle
 10
163.1531205745741
 20
328.1641816748706
 30
0.0
 40
0.3
  0
LINE
  5
6CAC
330
1E
100
AcDbEntity
  8
躯体と製品
  6
Continuous
 62
     7
100
AcDbLine
 10
155.2120005745742
 20
339.6641816748706
 30
0.0
 11
155.1531205745741
 21
339.6053016748711
 31
0.0
  0
LINE
  5
6CAD
330
1E
100
AcDbEntity
  8
躯体と製品
  6
Continuous
 62
     7
100
AcDbLine
 10
159.1531205745741
 20
320.977891674871
 30
0.0
 11
155.1531205745741
 21
316.977891674871
 31
0.0
  0
LINE
  5
6CAE
330
1E
100
AcDbEntity
  8
躯体と製品
  6
Continuous
 62
     7
100
AcDbLine
 10
159.1531205745741
 20
322.3921016748709
 30
0.0
 11
155.1531205745741
 21
318.3921016748709
 31
0.0
  0
LINE
  5
6CAF
330
1E
100
AcDbEntity
  8
躯体と製品
  6
Continuous
 62
     7
100
AcDbLine
 10
159.1531205745741
 20
323.8063116748708
 30
0.0
 11
155.1531205745741
 21
319.8063116748708
 31
0.0
  0
LINE
  5
6CB0
330
1E
100
AcDbEntity
  8
躯体と製品
  6
Continuous
 62
     7
100
AcDbLine
 10
159.1531205745741
 20
325.2205316748705
 30
0.0
 11
155.1531205745741
 21
321.2205316748705
 31
0.0
  0
LINE
  5
6CB1
330
1E
100
AcDbEntity
  8
躯体と製品
  6
Continuous
 62
     7
100
AcDbLine
 10
159.1531205745741
 20
326.6347416748704
 30
0.0
 11
155.1531205745741
 21
322.6347416748704
 31
0.0
  0
LINE
  5
6CB2
330
1E
100
AcDbEntity
  8
躯体と製品
  6
Continuous
 62
     7
100
AcDbLine
 10
159.1531205745741
 20
328.048961674871
 30
0.0
 11
155.1531205745741
 21
324.048961674871
 31
0.0
  0
LINE
  5
6CB3
330
1E
100
AcDbEntity
  8
躯体と製品
  6
Continuous
 62
     7
100
AcDbLine
 10
159.1531205745741
 20
329.4631716748709
 30
0.0
 11
155.1531205745741
 21
325.4631716748709
 31
0.0
  0
LINE
  5
6CB4
330
1E
100
AcDbEntity
  8
躯体と製品
  6
Continuous
 62
     7
100
AcDbLine
 10
159.1531205745741
 20
330.8773816748708
 30
0.0
 11
155.1531205745741
 21
326.8773816748708
 31
0.0
  0
LINE
  5
6CB5
330
1E
100
AcDbEntity
  8
躯体と製品
  6
Continuous
 62
     7
100
AcDbLine
 10
159.1531205745741
 20
332.2916016748704
 30
0.0
 11
155.1531205745741
 21
328.2916016748704
 31
0.0
  0
LINE
  5
6CB6
330
1E
100
AcDbEntity
  8
躯体と製品
  6
Continuous
 62
     7
100
AcDbLine
 10
159.1531205745741
 20
333.7058116748703
 30
0.0
 11
155.1531205745741
 21
329.7058116748703
 31
0.0
  0
LINE
  5
6CB7
330
1E
100
AcDbEntity
  8
躯体と製品
  6
Continuous
 62
     7
100
AcDbLine
 10
159.1531205745741
 20
335.1200216748712
 30
0.0
 11
155.1531205745741
 21
331.1200216748712
 31
0.0
  0
LINE
  5
6CB8
330
1E
100
AcDbEntity
  8
躯体と製品
  6
Continuous
 62
     7
100
AcDbLine
 10
159.1531205745741
 20
336.5342416748708
 30
0.0
 11
155.1531205745741
 21
332.5342416748708
 31
0.0
  0
LINE
  5
6CB9
330
1E
100
AcDbEntity
  8
躯体と製品
  6
Continuous
 62
     7
100
AcDbLine
 10
159.1531205745741
 20
337.9484516748707
 30
0.0
 11
155.1531205745741
 21
333.9484516748707
 31
0.0
  0
LINE
  5
6CBA
330
1E
100
AcDbEntity
  8
躯体と製品
  6
Continuous
 62
     7
100
AcDbLine
 10
159.1531205745741
 20
339.3626616748707
 30
0.0
 11
155.1531205745741
 21
335.3626616748706
 31
0.0
  0
LINE
  5
6CBB
330
1E
100
AcDbEntity
  8
躯体と製品
  6
Continuous
 62
     7
100
AcDbLine
 10
158.040420574574
 20
339.6641816748706
 30
0.0
 11
155.1531205745741
 21
336.7768816748703
 31
0.0
  0
LINE
  5
6CBC
330
1E
100
AcDbEntity
  8
躯体と製品
  6
Continuous
 62
     7
100
AcDbLine
 10
156.6262105745741
 20
339.6641816748706
 30
0.0
 11
155.1531205745741
 21
338.1910916748712
 31
0.0
  0
LINE
  5
6CBD
330
1E
100
AcDbEntity
  8
躯体と製品
  6
Continuous
 62
     7
100
AcDbLine
 10
159.1531205745741
 20
316.7352516748706
 30
0.0
 11
155.1531205745741
 21
320.7352516748706
 31
0.0
  0
LINE
  5
6CBE
330
1E
100
AcDbEntity
  8
躯体と製品
  6
Continuous
 62
     7
100
AcDbLine
 10
159.1531205745741
 20
318.1494616748705
 30
0.0
 11
155.1531205745741
 21
322.1494616748705
 31
0.0
  0
LINE
  5
6CBF
330
1E
100
AcDbEntity
  8
躯体と製品
  6
Continuous
 62
     7
100
AcDbLine
 10
159.1531205745741
 20
319.5636716748704
 30
0.0
 11
155.1531205745741
 21
323.5636716748704
 31
0.0
  0
LINE
  5
6CC0
330
1E
100
AcDbEntity
  8
躯体と製品
  6
Continuous
 62
     7
100
AcDbLine
 10
159.1531205745741
 20
320.977891674871
 30
0.0
 11
155.1531205745741
 21
324.977891674871
 31
0.0
  0
LINE
  5
6CC1
330
1E
100
AcDbEntity
  8
躯体と製品
  6
Continuous
 62
     7
100
AcDbLine
 10
159.1531205745741
 20
322.3921016748709
 30
0.0
 11
155.1531205745741
 21
326.3921016748709
 31
0.0
  0
LINE
  5
6CC2
330
1E
100
AcDbEntity
  8
躯体と製品
  6
Continuous
 62
     7
100
AcDbLine
 10
159.1531205745741
 20
323.8063116748708
 30
0.0
 11
155.1531205745741
 21
327.8063116748708
 31
0.0
  0
LINE
  5
6CC3
330
1E
100
AcDbEntity
  8
躯体と製品
  6
Continuous
 62
     7
100
AcDbLine
 10
159.1531205745741
 20
325.2205316748705
 30
0.0
 11
155.1531205745741
 21
329.2205316748705
 31
0.0
  0
LINE
  5
6CC4
330
1E
100
AcDbEntity
  8
躯体と製品
  6
Continuous
 62
     7
100
AcDbLine
 10
159.1531205745741
 20
326.6347416748704
 30
0.0
 11
155.1531205745741
 21
330.6347416748704
 31
0.0
  0
LINE
  5
6CC5
330
1E
100
AcDbEntity
  8
躯体と製品
  6
Continuous
 62
     7
100
AcDbLine
 10
159.1531205745741
 20
328.048961674871
 30
0.0
 11
155.1531205745741
 21
332.048961674871
 31
0.0
  0
LINE
  5
6CC6
330
1E
100
AcDbEntity
  8
躯体と製品
  6
Continuous
 62
     7
100
AcDbLine
 10
159.1531205745741
 20
329.4631716748709
 30
0.0
 11
155.1531205745741
 21
333.4631716748709
 31
0.0
  0
LINE
  5
6CC7
330
1E
100
AcDbEntity
  8
躯体と製品
  6
Continuous
 62
     7
100
AcDbLine
 10
159.1531205745741
 20
330.8773816748708
 30
0.0
 11
155.1531205745741
 21
334.8773816748708
 31
0.0
  0
LINE
  5
6CC8
330
1E
100
AcDbEntity
  8
躯体と製品
  6
Continuous
 62
     7
100
AcDbLine
 10
159.1531205745741
 20
332.2916016748704
 30
0.0
 11
155.1531205745741
 21
336.2916016748704
 31
0.0
  0
LINE
  5
6CC9
330
1E
100
AcDbEntity
  8
躯体と製品
  6
Continuous
 62
     7
100
AcDbLine
 10
159.1531205745741
 20
333.7058116748703
 30
0.0
 11
155.1531205745741
 21
337.7058116748703
 31
0.0
  0
LINE
  5
6CCA
330
1E
100
AcDbEntity
  8
躯体と製品
  6
Continuous
 62
     7
100
AcDbLine
 10
159.1531205745741
 20
335.1200216748712
 30
0.0
 11
155.1531205745741
 21
339.1200216748712
 31
0.0
  0
LINE
  5
6CCB
330
1E
100
AcDbEntity
  8
躯体と製品
  6
Continuous
 62
     7
100
AcDbLine
 10
159.1531205745741
 20
336.5342416748708
 30
0.0
 11
156.0231805745743
 21
339.6641816748706
 31
0.0
  0
LINE
  5
6CCC
330
1E
100
AcDbEntity
  8
躯体と製品
  6
Continuous
 62
     7
100
AcDbLine
 10
163.4531205745743
 20
339.1641816748706
 30
0.0
 11
151.0795305745741
 21
339.1641816748706
 31
0.0
  0
CIRCLE
  5
6CCD
330
1E
100
AcDbEntity
  8
躯体と製品
  6
Continuous
 62
     7
100
AcDbCircle
 10
159.7718705745742
 20
314.5320116748708
 30
0.0
 40
0.2
  0
CIRCLE
  5
6CCE
330
1E
100
AcDbEntity
  8
躯体と製品
  6
Continuous
 62
     7
100
AcDbCircle
 10
160.5894405745744
 20
312.9479816748708
 30
0.0
 40
0.2
  0
LINE
  5
6CCF
330
1E
100
AcDbEntity
  8
躯体と製品
  6
Continuous
 62
     7
100
AcDbLine
 10
159.1531205745741
 20
309.6698416748704
 30
0.0
 11
159.1474605745743
 21
309.6641816748706
 31
0.0
  0
CIRCLE
  5
6CD0
330
1E
100
AcDbEntity
  8
文字-記号
  6
Continuous
 62
     7
100
AcDbCircle
 10
157.1531205745741
 20
309.6641816748706
 30
0.0
 40
0.3
  0
CIRCLE
  5
6CD1
330
1E
100
AcDbEntity
  8
躯体と製品
  6
Continuous
 62
     7
100
AcDbCircle
 10
160.3680105745743
 20
308.2810616748711
 30
0.0
 40
0.2
  0
ARC
  5
6CD2
330
1E
100
AcDbEntity
  8
躯体と製品
  6
Continuous
 62
     7
100
AcDbCircle
 10
159.1531205745741
 20
315.6641816748706
 30
0.0
 40
8.0
100
AcDbArc
 50
270.0
 51
284.4775100000029
  0
CIRCLE
  5
6CD3
330
1E
100
AcDbEntity
  8
躯体と製品
  6
Continuous
 62
     7
100
AcDbCircle
 10
159.6356105745744
 20
310.8700116748705
 30
0.0
 40
0.2
  0
LINE
  5
6CD4
330
1E
100
AcDbEntity
  8
躯体と製品
  6
Continuous
 62
     7
100
AcDbLine
 10
159.1531205745741
 20
301.1789016748708
 30
0.0
 11
157.638400574574
 21
299.6641816748706
 31
0.0
  0
LINE
  5
6CD5
330
1E
100
AcDbEntity
  8
躯体と製品
  6
Continuous
 62
     7
100
AcDbLine
 10
155.1531205745741
 20
300.9362616748703
 30
0.0
 11
156.4252005745743
 21
299.6641816748706
 31
0.0
  0
LINE
  5
6CD6
330
1E
100
AcDbEntity
  8
躯体と製品
  6
Continuous
 62
     7
100
AcDbLine
 10
159.1531205745741
 20
313.906821674871
 30
0.0
 11
155.1531205745741
 21
309.906821674871
 31
0.0
  0
LINE
  5
6CD7
330
1E
100
AcDbEntity
  8
躯体と製品
  6
Continuous
 62
     7
100
AcDbLine
 10
159.1531205745741
 20
315.3210316748709
 30
0.0
 11
155.1531205745741
 21
311.3210316748709
 31
0.0
  0
LINE
  5
6CD8
330
1E
100
AcDbEntity
  8
躯体と製品
  6
Continuous
 62
     7
100
AcDbLine
 10
155.1531205745741
 20
313.6585216748708
 30
0.0
 11
159.1474605745743
 21
309.6641816748706
 31
0.0
  0
LINE
  5
6CD9
330
1E
100
AcDbEntity
  8
躯体と製品
  6
Continuous
 62
     7
100
AcDbLine
 10
159.1531205745741
 20
311.0783916748705
 30
0.0
 11
155.1531205745741
 21
315.0783916748705
 31
0.0
  0
LINE
  5
6CDA
330
1E
100
AcDbEntity
  8
躯体と製品
  6
Continuous
 62
     7
100
AcDbLine
 10
159.1531205745741
 20
312.4926116748711
 30
0.0
 11
155.1531205745741
 21
316.4926116748711
 31
0.0
  0
LINE
  5
6CDB
330
1E
100
AcDbEntity
  8
躯体と製品
  6
Continuous
 62
     7
100
AcDbLine
 10
159.1531205745741
 20
312.4926116748711
 30
0.0
 11
155.1531205745741
 21
308.4926116748711
 31
0.0
  0
LINE
  5
6CDC
330
1E
100
AcDbEntity
  8
躯体と製品
  6
Continuous
 62
     7
100
AcDbLine
 10
159.1531205745741
 20
311.0783916748705
 30
0.0
 11
155.1531205745741
 21
307.0783916748705
 31
0.0
  0
LINE
  5
6CDD
330
1E
100
AcDbEntity
  8
躯体と製品
  6
Continuous
 62
     7
100
AcDbLine
 10
155.1531205745741
 20
312.2499716748707
 30
0.0
 11
159.1531205745741
 21
308.2499716748707
 31
0.0
  0
LINE
  5
6CDE
330
1E
100
AcDbEntity
  8
躯体と製品
  6
Continuous
 62
     7
100
AcDbLine
 10
155.1531205745741
 20
310.8357516748711
 30
0.0
 11
159.1531205745741
 21
306.8357516748711
 31
0.0
  0
LINE
  5
6CDF
330
1E
100
AcDbEntity
  8
躯体と製品
  6
Continuous
 62
     7
100
AcDbLine
 10
155.1531205745741
 20
309.4215416748702
 30
0.0
 11
159.1531205745741
 21
305.4215416748702
 31
0.0
  0
LINE
  5
6CE0
330
1E
100
AcDbEntity
  8
躯体と製品
  6
Continuous
 62
     7
100
AcDbLine
 10
155.1531205745741
 20
308.0073216748706
 30
0.0
 11
159.1531205745741
 21
304.0073216748706
 31
0.0
  0
LINE
  5
6CE1
330
1E
100
AcDbEntity
  8
躯体と製品
  6
Continuous
 62
     7
100
AcDbLine
 10
155.1531205745741
 20
306.5931116748707
 30
0.0
 11
159.1531205745741
 21
302.5931116748707
 31
0.0
  0
LINE
  5
6CE2
330
1E
100
AcDbEntity
  8
躯体と製品
  6
Continuous
 62
     7
100
AcDbLine
 10
155.1531205745741
 20
305.1789016748708
 30
0.0
 11
159.1531205745741
 21
301.1789016748708
 31
0.0
  0
LINE
  5
6CE3
330
1E
100
AcDbEntity
  8
躯体と製品
  6
Continuous
 62
     7
100
AcDbLine
 10
155.1531205745741
 20
303.7646816748711
 30
0.0
 11
159.1531205745741
 21
299.7646816748711
 31
0.0
  0
LINE
  5
6CE4
330
1E
100
AcDbEntity
  8
躯体と製品
  6
Continuous
 62
     7
100
AcDbLine
 10
155.1531205745741
 20
302.3504716748703
 30
0.0
 11
157.8394105745742
 21
299.6641816748706
 31
0.0
  0
LINE
  5
6CE5
330
1E
100
AcDbEntity
  8
躯体と製品
  6
Continuous
 62
     7
100
AcDbLine
 10
159.1531205745741
 20
309.6641816748706
 30
0.0
 11
155.1531205745741
 21
305.6641816748706
 31
0.0
  0
LINE
  5
6CE6
330
1E
100
AcDbEntity
  8
躯体と製品
  6
Continuous
 62
     7
100
AcDbLine
 10
159.1531205745741
 20
308.2499716748707
 30
0.0
 11
155.1531205745741
 21
304.2499716748707
 31
0.0
  0
LINE
  5
6CE7
330
1E
100
AcDbEntity
  8
躯体と製品
  6
Continuous
 62
     7
100
AcDbLine
 10
159.1531205745741
 20
306.8357516748711
 30
0.0
 11
155.1531205745741
 21
302.8357516748711
 31
0.0
  0
LINE
  5
6CE8
330
1E
100
AcDbEntity
  8
躯体と製品
  6
Continuous
 62
     7
100
AcDbLine
 10
159.1531205745741
 20
305.4215416748702
 30
0.0
 11
155.1531205745741
 21
301.4215416748702
 31
0.0
  0
LINE
  5
6CE9
330
1E
100
AcDbEntity
  8
躯体と製品
  6
Continuous
 62
     7
100
AcDbLine
 10
159.1531205745741
 20
304.0073216748706
 30
0.0
 11
155.1531205745741
 21
300.0073216748706
 31
0.0
  0
LINE
  5
6CEA
330
1E
100
AcDbEntity
  8
躯体と製品
  6
Continuous
 62
     7
100
AcDbLine
 10
159.1531205745741
 20
302.5931116748707
 30
0.0
 11
156.2241905745741
 21
299.6641816748706
 31
0.0
  0
LINE
  5
6CEB
330
1E
100
AcDbEntity
  8
躯体と製品
  6
Continuous
 62
     7
100
AcDbLine
 10
159.1531205745741
 20
307.6397916748711
 30
0.0
 11
151.1775105745742
 21
299.6641816748706
 31
0.0
  0
LINE
  5
6CEC
330
1E
100
AcDbEntity
  8
躯体と製品
  6
Continuous
 62
     7
100
AcDbLine
 10
159.1531205745741
 20
306.2255816748711
 30
0.0
 11
152.5917205745741
 21
299.6641816748706
 31
0.0
  0
LINE
  5
6CED
330
1E
100
AcDbEntity
  8
躯体と製品
  6
Continuous
 62
     7
100
AcDbLine
 10
159.1531205745741
 20
304.8113716748703
 30
0.0
 11
154.0059405745742
 21
299.6641816748706
 31
0.0
  0
LINE
  5
6CEE
330
1E
100
AcDbEntity
  8
躯体と製品
  6
Continuous
 62
     7
100
AcDbLine
 10
159.1531205745741
 20
316.7352516748706
 30
0.0
 11
155.1531205745741
 21
312.7352516748706
 31
0.0
  0
LINE
  5
6CEF
330
1E
100
AcDbEntity
  8
躯体と製品
  6
Continuous
 62
     7
100
AcDbLine
 10
159.1531205745741
 20
318.1494616748705
 30
0.0
 11
155.1531205745741
 21
314.1494616748705
 31
0.0
  0
LINE
  5
6CF0
330
1E
100
AcDbEntity
  8
躯体と製品
  6
Continuous
 62
     7
100
AcDbLine
 10
159.1531205745741
 20
319.5636716748704
 30
0.0
 11
155.1531205745741
 21
315.5636716748704
 31
0.0
  0
LINE
  5
6CF1
330
1E
100
AcDbEntity
  8
躯体と製品
  6
Continuous
 62
     7
100
AcDbLine
 10
159.1531205745741
 20
313.906821674871
 30
0.0
 11
155.1531205745741
 21
317.906821674871
 31
0.0
  0
LINE
  5
6CF2
330
1E
100
AcDbEntity
  8
躯体と製品
  6
Continuous
 62
     7
100
AcDbLine
 10
159.1531205745741
 20
315.3210316748709
 30
0.0
 11
155.1531205745741
 21
319.321031674871
 31
0.0
  0
CIRCLE
  5
6CF3
330
1E
100
AcDbEntity
  8
躯体と製品
  6
Continuous
 62
     7
100
AcDbCircle
 10
160.7427305745741
 20
316.6781116748707
 30
0.0
 40
0.2
  0
LINE
  5
6CF4
330
1E
100
AcDbEntity
  8
躯体と製品
  6
Continuous
 62
     7
100
AcDbLine
 10
161.1531205745741
 20
339.6641816748706
 30
0.0
 11
161.1531205745741
 21
299.6641816748706
 31
0.0
  0
LINE
  5
6CF5
330
1E
100
AcDbEntity
  8
躯体と製品
  6
Continuous
 62
     7
100
AcDbLine
 10
164.253120574574
 20
340.6641816748706
 30
0.0
 11
164.253120574574
 21
338.6641816748706
 31
0.0
  0
LINE
  5
6CF6
330
1E
100
AcDbEntity
  8
躯体と製品
  6
Continuous
 62
     7
100
AcDbLine
 10
163.293120574574
 20
344.6833516748711
 30
0.0
 11
163.293120574574
 21
334.6450116748711
 31
0.0
  0
LINE
  5
6CF7
330
1E
100
AcDbEntity
  8
躯体と製品
  6
Continuous
 62
     7
100
AcDbLine
 10
163.4531205745743
 20
334.552631674871
 30
0.0
 11
163.4531205745743
 21
344.7757316748703
 31
0.0
  0
LINE
  5
6CF8
330
1E
100
AcDbEntity
  8
文字-記号
  6
Continuous
 62
     7
100
AcDbLine
 10
177.5846605745742
 20
371.1641816748706
 30
0.0
 11
186.6146605745744
 21
371.1641816748706
 31
0.0
  0
TEXT
  5
6CF9
330
1E
100
AcDbEntity
  8
文字-記号
 62
     7
100
AcDbText
 10
177.5846405745742
 20
372.1641716748709
 30
0.0
 40
3.0
  1
見切縁
 41
0.8
  7
ACAD
100
AcDbText
  0
CIRCLE
  5
6CFA
330
1E
100
AcDbEntity
  8
躯体と製品
  6
Continuous
 62
     7
100
AcDbCircle
 10
161.875690574574
 20
377.1075816748707
 30
0.0
 40
0.2
  0
CIRCLE
  5
6CFB
330
1E
100
AcDbEntity
  8
躯体と製品
  6
Continuous
 62
     7
100
AcDbCircle
 10
161.2643505745741
 20
378.4478316748709
 30
0.0
 40
0.2
  0
CIRCLE
  5
6CFC
330
1E
100
AcDbEntity
  8
躯体と製品
  6
Continuous
 62
     7
100
AcDbCircle
 10
162.3694605745741
 20
375.4616716748706
 30
0.0
 40
0.2
  0
CIRCLE
  5
6CFD
330
1E
100
AcDbEntity
  8
躯体と製品
  6
Continuous
 62
     7
100
AcDbCircle
 10
159.8065405745742
 20
378.9886316748707
 30
0.0
 40
0.2
  0
CIRCLE
  5
6CFE
330
1E
100
AcDbEntity
  8
躯体と製品
  6
Continuous
 62
     7
100
AcDbCircle
 10
160.2297705745741
 20
375.6027516748709
 30
0.0
 40
0.2
  0
CIRCLE
  5
6CFF
330
1E
100
AcDbEntity
  8
躯体と製品
  6
Continuous
 62
     7
100
AcDbCircle
 10
161.640560574574
 20
373.0633416748706
 30
0.0
 40
0.2
  0
CIRCLE
  5
6D00
330
1E
100
AcDbEntity
  8
躯体と製品
  6
Continuous
 62
     7
100
AcDbCircle
 10
162.5340505745744
 20
370.2417716748705
 30
0.0
 40
0.2
  0
CIRCLE
  5
6D01
330
1E
100
AcDbEntity
  8
躯体と製品
  6
Continuous
 62
     7
100
AcDbCircle
 10
160.1357205745744
 20
371.299861674871
 30
0.0
 40
0.2
  0
CIRCLE
  5
6D02
330
1E
100
AcDbEntity
  8
躯体と製品
  6
Continuous
 62
     7
100
AcDbCircle
 10
160.3708505745744
 20
373.4395516748709
 30
0.0
 40
0.2
  0
CIRCLE
  5
6D03
330
1E
100
AcDbEntity
  8
躯体と製品
  6
Continuous
 62
     7
100
AcDbCircle
 10
161.8051505745743
 20
364.9043116748708
 30
0.0
 40
0.2
  0
CIRCLE
  5
6D04
330
1E
100
AcDbEntity
  8
躯体と製品
  6
Continuous
 62
     7
100
AcDbCircle
 10
162.0402805745743
 20
367.5142616748708
 30
0.0
 40
0.2
  0
CIRCLE
  5
6D05
330
1E
100
AcDbEntity
  8
躯体と製品
  6
Continuous
 62
     7
100
AcDbCircle
 10
160.3003105745743
 20
366.3386116748707
 30
0.0
 40
0.2
  0
CIRCLE
  5
6D06
330
1E
100
AcDbEntity
  8
躯体と製品
  6
Continuous
 62
     7
100
AcDbCircle
 10
160.5354405745743
 20
364.0343316748704
 30
0.0
 40
0.2
  0
CIRCLE
  5
6D07
330
1E
100
AcDbEntity
  8
躯体と製品
  6
Continuous
 62
     7
100
AcDbCircle
 10
160.4884205745743
 20
368.3372116748706
 30
0.0
 40
0.2
  0
CIRCLE
  5
6D08
330
1E
100
AcDbEntity
  8
躯体と製品
  6
Continuous
 62
     7
100
AcDbCircle
 10
161.687580574574
 20
362.2003116748711
 30
0.0
 40
0.2
  0
CIRCLE
  5
6D09
330
1E
100
AcDbEntity
  8
躯体と製品
  6
Continuous
 62
     7
100
AcDbCircle
 10
161.2173205745744
 20
359.4727916748707
 30
0.0
 40
0.2
  0
CIRCLE
  5
6D0A
330
1E
100
AcDbEntity
  8
躯体と製品
  6
Continuous
 62
     7
100
AcDbCircle
 10
160.2768005745742
 20
361.1422216748706
 30
0.0
 40
0.2
  0
CIRCLE
  5
6D0B
330
1E
100
AcDbEntity
  8
躯体と製品
  6
Continuous
 62
     7
100
AcDbCircle
 10
161.9932505745742
 20
356.1574516748706
 30
0.0
 40
0.2
  0
CIRCLE
  5
6D0C
330
1E
100
AcDbEntity
  8
躯体と製品
  6
Continuous
 62
     7
100
AcDbCircle
 10
162.110820574574
 20
354.0647916748703
 30
0.0
 40
0.2
  0
CIRCLE
  5
6D0D
330
1E
100
AcDbEntity
  8
躯体と製品
  6
Continuous
 62
     7
100
AcDbCircle
 10
160.0416705745742
 20
355.1699016748707
 30
0.0
 40
0.2
  0
CIRCLE
  5
6D0E
330
1E
100
AcDbEntity
  8
躯体と製品
  6
Continuous
 62
     7
100
AcDbCircle
 10
159.9476205745741
 20
357.2625716748707
 30
0.0
 40
0.2
  0
LINE
  5
6D0F
330
1E
100
AcDbEntity
  8
文字-記号
  6
Continuous
 62
     7
100
AcDbLine
 10
187.5106405745741
 20
361.1641816748706
 30
0.0
 11
211.5906405745741
 21
361.1641816748706
 31
0.0
  0
TEXT
  5
6D10
330
1E
100
AcDbEntity
  8
文字-記号
 62
     7
100
AcDbText
 10
353.3154305745743
 20
362.8544616748704
 30
0.0
 40
3.0
  1
６５×４５×０．８
 41
0.8
  7
ACAD
100
AcDbText
  0
LINE
  5
6D11
330
1E
100
AcDbEntity
  8
文字-記号
  6
Continuous
 62
     7
100
AcDbLine
 10
353.3154005745741
 20
361.8544416748709
 30
0.0
 11
377.3954005745741
 21
361.8544416748709
 31
0.0
  0
LINE
  5
6D12
330
1E
100
AcDbEntity
  8
躯体と製品
  6
Continuous
 62
     7
100
AcDbLine
 10
380.3088805745742
 20
351.854441674871
 30
0.0
 11
330.508880574574
 21
351.854441674871
 31
0.0
  0
LINE
  5
6D13
330
1E
100
AcDbEntity
  8
躯体と製品
  6
Continuous
 62
     7
100
AcDbLine
 10
330.3088805745742
 20
349.1944416748711
 30
0.0
 11
380.3088805745742
 21
349.1944416748711
 31
0.0
  0
LINE
  5
6D14
330
1E
100
AcDbEntity
  8
躯体と製品
  6
CENTER2
 62
     7
100
AcDbLine
 10
306.3088805745743
 20
342.6944416748711
 30
0.0
 11
380.3088805745742
 21
342.6944416748711
 31
0.0
  0
LINE
  5
6D15
330
1E
100
AcDbEntity
  8
躯体と製品
  6
Continuous
 62
     7
100
AcDbLine
 10
330.3088805745742
 20
333.8544416748709
 30
0.0
 11
380.3088805745742
 21
333.8544416748709
 31
0.0
  0
LINE
  5
6D16
330
1E
100
AcDbEntity
  8
躯体と製品
  6
Continuous
 62
     7
100
AcDbLine
 10
330.3088805745742
 20
336.1944416748711
 30
0.0
 11
380.3088805745742
 21
336.1944416748711
 31
0.0
  0
TEXT
  5
6D17
330
1E
100
AcDbEntity
  8
文字-記号
 62
     7
100
AcDbText
 10
264.3728305745745
 20
298.6944316748704
 30
0.0
 40
3.0
  1
テープ張りの上継ぎ目用パテ盛り
 41
0.8
  7
ACAD
100
AcDbText
  0
TEXT
  5
6D18
330
1E
100
AcDbEntity
  8
文字-記号
 62
     7
100
AcDbText
 10
279.8357505745744
 20
288.6944366748703
 30
0.0
 40
3.0
  1
断熱材打ち込みの場合
 41
0.8
  7
ACAD
100
AcDbText
  0
LINE
  5
6D19
330
1E
100
AcDbEntity
  8
文字-記号
  6
Continuous
 62
     7
100
AcDbLine
 10
309.8751205745744
 20
287.6944426748705
 30
0.0
 11
279.7751205745744
 21
287.6944426748705
 31
0.0
  0
LINE
  5
6D1A
330
1E
100
AcDbEntity
  8
文字-記号
  6
Continuous
 62
     7
100
AcDbLine
 10
309.4319005745742
 20
297.6944416748711
 30
0.0
 11
264.2819005745741
 21
297.6944416748711
 31
0.0
  0
CIRCLE
  5
6D1B
330
1E
100
AcDbEntity
  8
躯体と製品
  6
Continuous
 62
     7
100
AcDbCircle
 10
327.6912005745744
 20
353.5680916748706
 30
0.0
 40
0.2
  0
LINE
  5
6D1C
330
1E
100
AcDbEntity
  8
躯体と製品
  6
Continuous
 62
     7
100
AcDbLine
 10
326.3088805745742
 20
364.4101616748703
 30
0.0
 11
306.3088805745743
 21
344.4101616748703
 31
0.0
  0
LINE
  5
6D1D
330
1E
100
AcDbEntity
  8
躯体と製品
  6
Continuous
 62
     7
100
AcDbLine
 10
326.3088805745742
 20
367.2385916748708
 30
0.0
 11
306.3088805745743
 21
347.2385916748708
 31
0.0
  0
LINE
  5
6D1E
330
1E
100
AcDbEntity
  8
躯体と製品
  6
Continuous
 62
     7
100
AcDbLine
 10
326.3088805745742
 20
365.8243816748709
 30
0.0
 11
306.3088805745743
 21
345.8243816748709
 31
0.0
  0
LINE
  5
6D1F
330
1E
100
AcDbEntity
  8
文字-記号
  6
Continuous
 62
     7
100
AcDbLine
 10
333.3088805745742
 20
352.0544416748708
 30
0.0
 11
344.7404205745743
 21
371.8544416748709
 31
0.0
  0
LINE
  5
6D20
330
1E
100
AcDbEntity
  8
文字-記号
  6
Continuous
 62
     7
100
AcDbLine
 10
339.3088805745742
 20
337.5944416748707
 30
0.0
 11
353.3154005745741
 21
361.8544416748709
 31
0.0
  0
LINE
  5
6D21
330
1E
100
AcDbEntity
  8
躯体と製品
  6
Continuous
 62
     7
100
AcDbLine
 10
326.3088805745742
 20
382.6944416748711
 30
0.0
 11
326.3088805745742
 21
302.6944416748711
 31
0.0
  0
LINE
  5
6D22
330
1E
100
AcDbEntity
  8
躯体と製品
  6
Continuous
 62
     7
100
AcDbLine
 10
330.3088805745742
 20
382.6944416748711
 30
0.0
 11
330.3088805745742
 21
302.6944416748711
 31
0.0
  0
LINE
  5
6D23
330
1E
100
AcDbEntity
  8
躯体と製品
  6
Continuous
 62
     7
100
AcDbLine
 10
330.508880574574
 20
349.3944416748709
 30
0.0
 11
336.3088805745742
 21
349.3944416748709
 31
0.0
  0
LINE
  5
6D24
330
1E
100
AcDbEntity
  8
躯体と製品
  6
Continuous
 62
     7
100
AcDbLine
 10
339.1488805745744
 20
349.0344416748703
 30
0.0
 11
330.4688805745741
 21
349.0344416748703
 31
0.0
  0
LINE
  5
6D25
330
1E
100
AcDbEntity
  8
躯体と製品
  6
Continuous
 62
     7
100
AcDbLine
 10
339.1488805745744
 20
336.3544416748709
 30
0.0
 11
330.4688805745741
 21
336.3544416748709
 31
0.0
  0
TEXT
  5
6D26
330
1E
100
AcDbEntity
  8
文字-記号
 62
     7
100
AcDbText
 10
330.3088805745742
 20
287.6944416748711
 30
0.0
 40
5.0
  1
継目処理の場合
 41
0.8
  7
ACAD
100
AcDbText
  0
CIRCLE
  5
6D27
330
1E
100
AcDbEntity
  8
文字-記号
  6
Continuous
 62
     7
100
AcDbCircle
 10
333.3088805745742
 20
352.0544416748708
 30
0.0
 40
0.3
  0
LINE
  5
6D28
330
1E
100
AcDbEntity
  8
躯体と製品
  6
Continuous
 62
     7
100
AcDbLine
 10
333.3088805745742
 20
351.854441674871
 30
0.0
 11
333.3088805745742
 21
352.0544416748708
 31
0.0
  0
CIRCLE
  5
6D29
330
1E
100
AcDbEntity
  8
躯体と製品
  6
Continuous
 62
     7
100
AcDbCircle
 10
329.7133305745742
 20
352.2278416748704
 30
0.0
 40
0.2
  0
LINE
  5
6D2A
330
1E
100
AcDbEntity
  8
躯体と製品
  6
Continuous
 62
     7
100
AcDbLine
 10
333.3088805745742
 20
352.0544416748708
 30
0.0
 11
330.3088805745742
 21
352.0544416748708
 31
0.0
  0
CIRCLE
  5
6D2B
330
1E
100
AcDbEntity
  8
躯体と製品
  6
Continuous
 62
     7
100
AcDbCircle
 10
329.3606305745743
 20
348.8419616748706
 30
0.0
 40
0.2
  0
CIRCLE
  5
6D2C
330
1E
100
AcDbEntity
  8
躯体と製品
  6
Continuous
 62
     7
100
AcDbCircle
 10
329.5252205745742
 20
346.5376816748703
 30
0.0
 40
0.2
  0
LINE
  5
6D2D
330
1E
100
AcDbEntity
  8
躯体と製品
  6
Continuous
 62
     7
100
AcDbLine
 10
330.4688805745741
 20
347.8868116748708
 30
0.0
 11
330.4688805745741
 21
349.0344416748703
 31
0.0
  0
LINE
  5
6D2E
330
1E
100
AcDbEntity
  8
躯体と製品
  6
Continuous
 62
     7
100
AcDbLine
 10
330.3088805745742
 20
347.7944416748706
 30
0.0
 11
330.4488805745741
 21
347.7136116748706
 31
0.0
  0
LINE
  5
6D2F
330
1E
100
AcDbEntity
  8
躯体と製品
  6
Continuous
 62
     7
100
AcDbLine
 10
330.6088805745744
 20
347.805981674871
 30
0.0
 11
330.4688805745741
 21
347.8868116748708
 31
0.0
  0
CIRCLE
  5
6D30
330
1E
100
AcDbEntity
  8
躯体と製品
  6
Continuous
 62
     7
100
AcDbCircle
 10
329.454680574574
 20
344.7036716748708
 30
0.0
 40
0.2
  0
LINE
  5
6D31
330
1E
100
AcDbEntity
  8
躯体と製品
  6
Continuous
 62
     7
100
AcDbLine
 10
330.6088805745744
 20
343.6944416748711
 30
0.0
 11
331.4088805745742
 21
343.6944416748711
 31
0.0
  0
LINE
  5
6D32
330
1E
100
AcDbEntity
  8
躯体と製品
  6
Continuous
 62
     7
100
AcDbLine
 10
331.4088805745742
 20
343.6944416748711
 30
0.0
 11
331.4088805745742
 21
341.6944416748711
 31
0.0
  0
LINE
  5
6D33
330
1E
100
AcDbEntity
  8
躯体と製品
  6
Continuous
 62
     7
100
AcDbLine
 10
331.4088805745742
 20
341.6944416748711
 30
0.0
 11
330.6088805745744
 21
341.6944416748711
 31
0.0
  0
CIRCLE
  5
6D34
330
1E
100
AcDbEntity
  8
躯体と製品
  6
Continuous
 62
     7
100
AcDbCircle
 10
328.1614605745744
 20
347.1490216748707
 30
0.0
 40
0.2
  0
CIRCLE
  5
6D35
330
1E
100
AcDbEntity
  8
躯体と製品
  6
Continuous
 62
     7
100
AcDbCircle
 10
327.5031005745741
 20
348.4657516748703
 30
0.0
 40
0.2
  0
LINE
  5
6D36
330
1E
100
AcDbEntity
  8
躯体と製品
  6
Continuous
 62
     7
100
AcDbLine
 10
326.3088805745742
 20
342.3929216748711
 30
0.0
 11
326.0073705745745
 21
342.6944416748711
 31
0.0
  0
CIRCLE
  5
6D37
330
1E
100
AcDbEntity
  8
躯体と製品
  6
Continuous
 62
     7
100
AcDbCircle
 10
326.6210505745744
 20
341.6463216748707
 30
0.0
 40
0.2
  0
CIRCLE
  5
6D38
330
1E
100
AcDbEntity
  8
躯体と製品
  6
Continuous
 62
     7
100
AcDbCircle
 10
327.7452005745745
 20
340.539201674871
 30
0.0
 40
0.2
  0
CIRCLE
  5
6D39
330
1E
100
AcDbEntity
  8
躯体と製品
  6
Continuous
 62
     7
100
AcDbCircle
 10
327.0093205745743
 20
343.9747616748709
 30
0.0
 40
0.2
  0
LINE
  5
6D3A
330
1E
100
AcDbEntity
  8
躯体と製品
  6
Continuous
 62
     7
100
AcDbLine
 10
323.7819705745742
 20
342.6944416748711
 30
0.0
 11
322.3088805745742
 21
341.2213516748707
 31
0.0
  0
LINE
  5
6D3B
330
1E
100
AcDbEntity
  8
躯体と製品
  6
Continuous
 62
     7
100
AcDbLine
 10
322.3677605745743
 20
342.6944416748711
 30
0.0
 11
322.3088805745742
 21
342.6355616748706
 31
0.0
  0
LINE
  5
6D3C
330
1E
100
AcDbEntity
  8
躯体と製品
  6
Continuous
 62
     7
100
AcDbLine
 10
326.3088805745742
 20
340.9787116748703
 30
0.0
 11
324.5931505745744
 21
342.6944416748711
 31
0.0
  0
CIRCLE
  5
6D3D
330
1E
100
AcDbEntity
  8
躯体と製品
  6
Continuous
 62
     7
100
AcDbCircle
 10
327.1033805745742
 20
345.6441916748709
 30
0.0
 40
0.2
  0
CIRCLE
  5
6D3E
330
1E
100
AcDbEntity
  8
躯体と製品
  6
Continuous
 62
     7
100
AcDbCircle
 10
327.9498505745741
 20
351.3108316748703
 30
0.0
 40
0.2
  0
LINE
  5
6D3F
330
1E
100
AcDbEntity
  8
躯体と製品
  6
Continuous
 62
     7
100
AcDbLine
 10
330.508880574574
 20
351.854441674871
 30
0.0
 11
330.508880574574
 21
349.3944416748709
 31
0.0
  0
LINE
  5
6D40
330
1E
100
AcDbEntity
  8
躯体と製品
  6
Continuous
 62
     7
100
AcDbLine
 10
330.6088805745744
 20
343.1944416748711
 30
0.0
 11
319.2352905745743
 21
343.1944416748711
 31
0.0
  0
LINE
  5
6D41
330
1E
100
AcDbEntity
  8
躯体と製品
  6
Continuous
 62
     7
100
AcDbLine
 10
330.6088805745744
 20
342.1944416748711
 30
0.0
 11
318.2352905745743
 21
342.1944416748711
 31
0.0
  0
LINE
  5
6D42
330
1E
100
AcDbEntity
  8
躯体と製品
  6
Continuous
 62
     7
100
AcDbLine
 10
330.3088805745742
 20
337.5944416748707
 30
0.0
 11
330.4488805745741
 21
337.6752716748706
 31
0.0
  0
LINE
  5
6D43
330
1E
100
AcDbEntity
  8
躯体と製品
  6
Continuous
 62
     7
100
AcDbLine
 10
330.4688805745741
 20
336.3544416748709
 30
0.0
 11
330.4688805745741
 21
337.5020616748707
 31
0.0
  0
LINE
  5
6D44
330
1E
100
AcDbEntity
  8
躯体と製品
  6
Continuous
 62
     7
100
AcDbLine
 10
330.4688805745741
 20
337.5020616748707
 30
0.0
 11
330.6088805745744
 21
337.5828916748706
 31
0.0
  0
CIRCLE
  5
6D45
330
1E
100
AcDbEntity
  8
文字-記号
  6
Continuous
 62
     7
100
AcDbCircle
 10
330.3088805745742
 20
333.8544416748709
 30
0.0
 40
0.3
  0
ARC
  5
6D46
330
1E
100
AcDbEntity
  8
躯体と製品
  6
Continuous
 62
     7
100
AcDbCircle
 10
326.3088805745742
 20
342.6944416748711
 30
0.0
 40
8.0
100
AcDbArc
 50
270.0
 51
284.4775100000029
  0
CIRCLE
  5
6D47
330
1E
100
AcDbEntity
  8
躯体と製品
  6
Continuous
 62
     7
100
AcDbCircle
 10
327.6600405745744
 20
335.8893116748705
 30
0.0
 40
0.2
  0
CIRCLE
  5
6D48
330
1E
100
AcDbEntity
  8
躯体と製品
  6
Continuous
 62
     7
100
AcDbCircle
 10
326.7743405745741
 20
338.4271616748711
 30
0.0
 40
0.2
  0
CIRCLE
  5
6D49
330
1E
100
AcDbEntity
  8
躯体と製品
  6
Continuous
 62
     7
100
AcDbCircle
 10
327.0809305745743
 20
339.670541674871
 30
0.0
 40
0.2
  0
CIRCLE
  5
6D4A
330
1E
100
AcDbEntity
  8
躯体と製品
  6
Continuous
 62
     7
100
AcDbCircle
 10
327.3534505745743
 20
338.1546416748706
 30
0.0
 40
0.2
  0
CIRCLE
  5
6D4B
330
1E
100
AcDbEntity
  8
躯体と製品
  6
Continuous
 62
     7
100
AcDbCircle
 10
326.8595005745742
 20
335.940411674871
 30
0.0
 40
0.2
  0
LINE
  5
6D4C
330
1E
100
AcDbEntity
  8
躯体と製品
  6
Continuous
 62
     7
100
AcDbLine
 10
326.3088805745742
 20
338.1502816748707
 30
0.0
 11
322.3088805745742
 21
334.1502816748707
 31
0.0
  0
LINE
  5
6D4D
330
1E
100
AcDbEntity
  8
躯体と製品
  6
Continuous
 62
     7
100
AcDbLine
 10
326.3088805745742
 20
339.5644916748706
 30
0.0
 11
322.3088805745742
 21
335.5644916748706
 31
0.0
  0
LINE
  5
6D4E
330
1E
100
AcDbEntity
  8
躯体と製品
  6
Continuous
 62
     7
100
AcDbLine
 10
326.3088805745742
 20
335.3218516748711
 30
0.0
 11
322.3088805745742
 21
339.3218516748711
 31
0.0
  0
LINE
  5
6D4F
330
1E
100
AcDbEntity
  8
躯体と製品
  6
Continuous
 62
     7
100
AcDbLine
 10
326.3088805745742
 20
332.4934316748704
 30
0.0
 11
322.3088805745742
 21
328.4934316748704
 31
0.0
  0
LINE
  5
6D50
330
1E
100
AcDbEntity
  8
躯体と製品
  6
Continuous
 62
     7
100
AcDbLine
 10
326.3088805745742
 20
333.9076416748703
 30
0.0
 11
322.3088805745742
 21
329.9076416748703
 31
0.0
  0
LINE
  5
6D51
330
1E
100
AcDbEntity
  8
躯体と製品
  6
Continuous
 62
     7
100
AcDbLine
 10
326.3088805745742
 20
329.6650016748708
 30
0.0
 11
322.3088805745742
 21
333.6650016748708
 31
0.0
  0
LINE
  5
6D52
330
1E
100
AcDbEntity
  8
躯体と製品
  6
Continuous
 62
     7
100
AcDbLine
 10
326.3088805745742
 20
335.3218516748711
 30
0.0
 11
322.3088805745742
 21
331.3218516748711
 31
0.0
  0
LINE
  5
6D53
330
1E
100
AcDbEntity
  8
躯体と製品
  6
Continuous
 62
     7
100
AcDbLine
 10
326.3088805745742
 20
336.7360716748708
 30
0.0
 11
322.3088805745742
 21
332.7360716748708
 31
0.0
  0
LINE
  5
6D54
330
1E
100
AcDbEntity
  8
躯体と製品
  6
Continuous
 62
     7
100
AcDbLine
 10
326.3088805745742
 20
331.0792116748708
 30
0.0
 11
322.3088805745742
 21
335.0792116748707
 31
0.0
  0
LINE
  5
6D55
330
1E
100
AcDbEntity
  8
躯体と製品
  6
Continuous
 62
     7
100
AcDbLine
 10
326.3088805745742
 20
332.4934316748704
 30
0.0
 11
322.3088805745742
 21
336.4934316748704
 31
0.0
  0
LINE
  5
6D56
330
1E
100
AcDbEntity
  8
躯体と製品
  6
Continuous
 62
     7
100
AcDbLine
 10
326.3088805745742
 20
333.9076416748703
 30
0.0
 11
322.3088805745742
 21
337.9076416748703
 31
0.0
  0
ARC
  5
6D57
330
1E
100
AcDbEntity
  8
躯体と製品
  6
Continuous
 62
     7
100
AcDbCircle
 10
326.3088805745742
 20
318.6944416748711
 30
0.0
 40
8.0
100
AcDbArc
 50
75.52248799998325
 51
90.0
  0
CIRCLE
  5
6D58
330
1E
100
AcDbEntity
  8
躯体と製品
  6
Continuous
 62
     7
100
AcDbCircle
 10
326.961700574574
 20
325.4824116748705
 30
0.0
 40
0.2
  0
CIRCLE
  5
6D59
330
1E
100
AcDbEntity
  8
躯体と製品
  6
Continuous
 62
     7
100
AcDbCircle
 10
327.6259705745742
 20
323.1659816748706
 30
0.0
 40
0.2
  0
LINE
  5
6D5A
330
1E
100
AcDbEntity
  8
躯体と製品
  6
Continuous
 62
     7
100
AcDbLine
 10
326.3088805745742
 20
326.8365716748704
 30
0.0
 11
322.3088805745742
 21
322.8365716748704
 31
0.0
  0
LINE
  5
6D5B
330
1E
100
AcDbEntity
  8
躯体と製品
  6
Continuous
 62
     7
100
AcDbLine
 10
326.3088805745742
 20
328.2507916748709
 30
0.0
 11
322.3088805745742
 21
324.2507916748709
 31
0.0
  0
LINE
  5
6D5C
330
1E
100
AcDbEntity
  8
躯体と製品
  6
Continuous
 62
     7
100
AcDbLine
 10
326.3088805745742
 20
322.5939316748709
 30
0.0
 11
322.3088805745742
 21
326.5939316748709
 31
0.0
  0
LINE
  5
6D5D
330
1E
100
AcDbEntity
  8
躯体と製品
  6
Continuous
 62
     7
100
AcDbLine
 10
326.3088805745742
 20
324.0081416748708
 30
0.0
 11
322.3088805745742
 21
328.0081416748708
 31
0.0
  0
CIRCLE
  5
6D5E
330
1E
100
AcDbEntity
  8
躯体と製品
  6
Continuous
 62
     7
100
AcDbCircle
 10
326.9276305745743
 20
320.7643916748712
 30
0.0
 40
0.2
  0
CIRCLE
  5
6D5F
330
1E
100
AcDbEntity
  8
躯体と製品
  6
Continuous
 62
     7
100
AcDbCircle
 10
326.9276305745743
 20
317.5622716748703
 30
0.0
 40
0.2
  0
CIRCLE
  5
6D60
330
1E
100
AcDbEntity
  8
躯体と製品
  6
Continuous
 62
     7
100
AcDbCircle
 10
327.8984905745742
 20
319.7083716748712
 30
0.0
 40
0.2
  0
LINE
  5
6D61
330
1E
100
AcDbEntity
  8
躯体と製品
  6
Continuous
 62
     7
100
AcDbLine
 10
326.3088805745742
 20
321.179721674871
 30
0.0
 11
322.3088805745742
 21
317.179721674871
 31
0.0
  0
LINE
  5
6D62
330
1E
100
AcDbEntity
  8
躯体と製品
  6
Continuous
 62
     7
100
AcDbLine
 10
326.3088805745742
 20
316.9370816748706
 30
0.0
 11
322.3088805745742
 21
320.9370816748706
 31
0.0
  0
LINE
  5
6D63
330
1E
100
AcDbEntity
  8
躯体と製品
  6
Continuous
 62
     7
100
AcDbLine
 10
326.3088805745742
 20
318.3512916748705
 30
0.0
 11
322.3088805745742
 21
322.3512916748705
 31
0.0
  0
LINE
  5
6D64
330
1E
100
AcDbEntity
  8
躯体と製品
  6
Continuous
 62
     7
100
AcDbLine
 10
326.3088805745742
 20
322.5939316748709
 30
0.0
 11
322.3088805745742
 21
318.5939316748709
 31
0.0
  0
LINE
  5
6D65
330
1E
100
AcDbEntity
  8
躯体と製品
  6
Continuous
 62
     7
100
AcDbLine
 10
326.3088805745742
 20
324.0081416748708
 30
0.0
 11
322.3088805745742
 21
320.0081416748708
 31
0.0
  0
LINE
  5
6D66
330
1E
100
AcDbEntity
  8
躯体と製品
  6
Continuous
 62
     7
100
AcDbLine
 10
326.3088805745742
 20
325.4223616748705
 30
0.0
 11
322.3088805745742
 21
321.4223616748705
 31
0.0
  0
LINE
  5
6D67
330
1E
100
AcDbEntity
  8
躯体と製品
  6
Continuous
 62
     7
100
AcDbLine
 10
326.3088805745742
 20
319.7655016748704
 30
0.0
 11
322.3088805745742
 21
323.7655016748704
 31
0.0
  0
LINE
  5
6D68
330
1E
100
AcDbEntity
  8
躯体と製品
  6
Continuous
 62
     7
100
AcDbLine
 10
326.3088805745742
 20
321.179721674871
 30
0.0
 11
322.3088805745742
 21
325.1797216748709
 31
0.0
  0
LINE
  5
6D69
330
1E
100
AcDbEntity
  8
躯体と製品
  6
Continuous
 62
     7
100
AcDbLine
 10
326.3088805745742
 20
329.6650016748708
 30
0.0
 11
322.3088805745742
 21
325.6650016748708
 31
0.0
  0
LINE
  5
6D6A
330
1E
100
AcDbEntity
  8
躯体と製品
  6
Continuous
 62
     7
100
AcDbLine
 10
326.3088805745742
 20
331.0792116748708
 30
0.0
 11
322.3088805745742
 21
327.0792116748708
 31
0.0
  0
LINE
  5
6D6B
330
1E
100
AcDbEntity
  8
躯体と製品
  6
Continuous
 62
     7
100
AcDbLine
 10
326.3088805745742
 20
325.4223616748705
 30
0.0
 11
322.3088805745742
 21
329.4223616748705
 31
0.0
  0
LINE
  5
6D6C
330
1E
100
AcDbEntity
  8
躯体と製品
  6
Continuous
 62
     7
100
AcDbLine
 10
326.3088805745742
 20
326.8365716748704
 30
0.0
 11
322.3088805745742
 21
330.8365716748704
 31
0.0
  0
LINE
  5
6D6D
330
1E
100
AcDbEntity
  8
躯体と製品
  6
Continuous
 62
     7
100
AcDbLine
 10
326.3088805745742
 20
328.2507916748709
 30
0.0
 11
322.3088805745742
 21
332.2507916748709
 31
0.0
  0
LINE
  5
6D6E
330
1E
100
AcDbEntity
  8
躯体と製品
  6
Continuous
 62
     7
100
AcDbLine
 10
326.3088805745742
 20
338.9543216748707
 30
0.0
 11
306.3088805745743
 21
318.9543216748707
 31
0.0
  0
LINE
  5
6D6F
330
1E
100
AcDbEntity
  8
躯体と製品
  6
Continuous
 62
     7
100
AcDbLine
 10
326.3088805745742
 20
337.5401116748708
 30
0.0
 11
306.3088805745743
 21
317.5401116748708
 31
0.0
  0
LINE
  5
6D70
330
1E
100
AcDbEntity
  8
躯体と製品
  6
Continuous
 62
     7
100
AcDbLine
 10
326.3088805745742
 20
312.7000916748711
 30
0.0
 11
326.303220574574
 21
312.6944416748711
 31
0.0
  0
CIRCLE
  5
6D71
330
1E
100
AcDbEntity
  8
躯体と製品
  6
Continuous
 62
     7
100
AcDbCircle
 10
327.7452005745745
 20
315.9782416748703
 30
0.0
 40
0.2
  0
CIRCLE
  5
6D72
330
1E
100
AcDbEntity
  8
躯体と製品
  6
Continuous
 62
     7
100
AcDbCircle
 10
326.7913705745741
 20
313.900271674871
 30
0.0
 40
0.2
  0
CIRCLE
  5
6D73
330
1E
100
AcDbEntity
  8
躯体と製品
  6
Continuous
 62
     7
100
AcDbCircle
 10
327.523770574574
 20
311.3113216748707
 30
0.0
 40
0.2
  0
CIRCLE
  5
6D74
330
1E
100
AcDbEntity
  8
文字-記号
  6
Continuous
 62
     7
100
AcDbCircle
 10
324.3088805745742
 20
312.6944416748711
 30
0.0
 40
0.3
  0
LINE
  5
6D75
330
1E
100
AcDbEntity
  8
躯体と製品
  6
Continuous
 62
     7
100
AcDbLine
 10
326.3088805745742
 20
315.5228616748709
 30
0.0
 11
322.3088805745742
 21
311.5228616748709
 31
0.0
  0
LINE
  5
6D76
330
1E
100
AcDbEntity
  8
躯体と製品
  6
Continuous
 62
     7
100
AcDbLine
 10
322.3088805745742
 20
315.2802216748705
 30
0.0
 11
326.3088805745742
 21
311.2802216748705
 31
0.0
  0
LINE
  5
6D77
330
1E
100
AcDbEntity
  8
躯体と製品
  6
Continuous
 62
     7
100
AcDbLine
 10
322.3088805745742
 20
309.6233716748711
 30
0.0
 11
326.3088805745742
 21
305.6233716748711
 31
0.0
  0
LINE
  5
6D78
330
1E
100
AcDbEntity
  8
躯体と製品
  6
Continuous
 62
     7
100
AcDbLine
 10
326.3088805745742
 20
309.8660116748706
 30
0.0
 11
322.3088805745742
 21
305.8660116748706
 31
0.0
  0
LINE
  5
6D79
330
1E
100
AcDbEntity
  8
躯体と製品
  6
Continuous
 62
     7
100
AcDbLine
 10
326.3088805745742
 20
314.108651674871
 30
0.0
 11
322.3088805745742
 21
310.108651674871
 31
0.0
  0
LINE
  5
6D7A
330
1E
100
AcDbEntity
  8
躯体と製品
  6
Continuous
 62
     7
100
AcDbLine
 10
322.3088805745742
 20
313.8660116748706
 30
0.0
 11
326.3088805745742
 21
309.8660116748706
 31
0.0
  0
ARC
  5
6D7B
330
1E
100
AcDbEntity
  8
躯体と製品
  6
Continuous
 62
     7
100
AcDbCircle
 10
326.3088805745742
 20
318.6944416748711
 30
0.0
 40
8.0
100
AcDbArc
 50
270.0
 51
284.4775100000029
  0
LINE
  5
6D7C
330
1E
100
AcDbEntity
  8
躯体と製品
  6
Continuous
 62
     7
100
AcDbLine
 10
322.3088805745742
 20
312.4518016748707
 30
0.0
 11
326.3088805745742
 21
308.4518016748707
 31
0.0
  0
LINE
  5
6D7D
330
1E
100
AcDbEntity
  8
躯体と製品
  6
Continuous
 62
     7
100
AcDbLine
 10
322.3088805745742
 20
311.037581674871
 30
0.0
 11
326.3088805745742
 21
307.037581674871
 31
0.0
  0
LINE
  5
6D7E
330
1E
100
AcDbEntity
  8
躯体と製品
  6
Continuous
 62
     7
100
AcDbLine
 10
326.3088805745742
 20
312.6944416748711
 30
0.0
 11
322.3088805745742
 21
308.6944416748711
 31
0.0
  0
LINE
  5
6D7F
330
1E
100
AcDbEntity
  8
躯体と製品
  6
Continuous
 62
     7
100
AcDbLine
 10
326.3088805745742
 20
311.2802216748705
 30
0.0
 11
322.3088805745742
 21
307.2802216748705
 31
0.0
  0
LINE
  5
6D80
330
1E
100
AcDbEntity
  8
躯体と製品
  6
Continuous
 62
     7
100
AcDbLine
 10
326.3088805745742
 20
304.2091516748706
 30
0.0
 11
324.7941605745741
 21
302.6944416748711
 31
0.0
  0
LINE
  5
6D81
330
1E
100
AcDbEntity
  8
躯体と製品
  6
Continuous
 62
     7
100
AcDbLine
 10
322.3088805745742
 20
303.9665116748711
 30
0.0
 11
323.5809605745744
 21
302.6944416748711
 31
0.0
  0
LINE
  5
6D82
330
1E
100
AcDbEntity
  8
躯体と製品
  6
Continuous
 62
     7
100
AcDbLine
 10
322.3088805745742
 20
308.2091516748706
 30
0.0
 11
326.3088805745742
 21
304.2091516748706
 31
0.0
  0
LINE
  5
6D83
330
1E
100
AcDbEntity
  8
躯体と製品
  6
Continuous
 62
     7
100
AcDbLine
 10
322.3088805745742
 20
306.7949416748707
 30
0.0
 11
326.3088805745742
 21
302.7949416748707
 31
0.0
  0
LINE
  5
6D84
330
1E
100
AcDbEntity
  8
躯体と製品
  6
Continuous
 62
     7
100
AcDbLine
 10
322.3088805745742
 20
305.3807316748707
 30
0.0
 11
324.9951705745743
 21
302.6944416748711
 31
0.0
  0
LINE
  5
6D85
330
1E
100
AcDbEntity
  8
躯体と製品
  6
Continuous
 62
     7
100
AcDbLine
 10
326.3088805745742
 20
308.4518016748707
 30
0.0
 11
322.3088805745742
 21
304.4518016748707
 31
0.0
  0
LINE
  5
6D86
330
1E
100
AcDbEntity
  8
躯体と製品
  6
Continuous
 62
     7
100
AcDbLine
 10
326.3088805745742
 20
307.037581674871
 30
0.0
 11
322.3088805745742
 21
303.037581674871
 31
0.0
  0
LINE
  5
6D87
330
1E
100
AcDbEntity
  8
躯体と製品
  6
Continuous
 62
     7
100
AcDbLine
 10
326.3088805745742
 20
305.6233716748711
 30
0.0
 11
323.3799505745742
 21
302.6944416748711
 31
0.0
  0
LINE
  5
6D88
330
1E
100
AcDbEntity
  8
躯体と製品
  6
Continuous
 62
     7
100
AcDbLine
 10
326.3088805745742
 20
307.841621674871
 30
0.0
 11
321.1617005745743
 21
302.6944416748711
 31
0.0
  0
LINE
  5
6D89
330
1E
100
AcDbEntity
  8
躯体と製品
  6
Continuous
 62
     7
100
AcDbLine
 10
326.3088805745742
 20
310.6700516748706
 30
0.0
 11
318.3332705745743
 21
302.6944416748711
 31
0.0
  0
LINE
  5
6D8A
330
1E
100
AcDbEntity
  8
躯体と製品
  6
Continuous
 62
     7
100
AcDbLine
 10
326.3088805745742
 20
309.2558416748707
 30
0.0
 11
319.7474805745742
 21
302.6944416748711
 31
0.0
  0
LINE
  5
6D8B
330
1E
100
AcDbEntity
  8
躯体と製品
  6
Continuous
 62
     7
100
AcDbLine
 10
326.3088805745742
 20
336.1258916748711
 30
0.0
 11
306.3088805745743
 21
316.1258916748711
 31
0.0
  0
LINE
  5
6D8C
330
1E
100
AcDbEntity
  8
躯体と製品
  6
Continuous
 62
     7
100
AcDbLine
 10
326.3088805745742
 20
321.9837616748709
 30
0.0
 11
307.0195605745744
 21
302.6944416748711
 31
0.0
  0
LINE
  5
6D8D
330
1E
100
AcDbEntity
  8
躯体と製品
  6
Continuous
 62
     7
100
AcDbLine
 10
326.3088805745742
 20
324.8121916748705
 30
0.0
 11
306.3088805745743
 21
304.8121916748705
 31
0.0
  0
LINE
  5
6D8E
330
1E
100
AcDbEntity
  8
躯体と製品
  6
Continuous
 62
     7
100
AcDbLine
 10
326.3088805745742
 20
316.9370816748706
 30
0.0
 11
322.3088805745742
 21
312.9370816748706
 31
0.0
  0
LINE
  5
6D8F
330
1E
100
AcDbEntity
  8
躯体と製品
  6
Continuous
 62
     7
100
AcDbLine
 10
326.3088805745742
 20
318.3512916748705
 30
0.0
 11
322.3088805745742
 21
314.3512916748705
 31
0.0
  0
LINE
  5
6D90
330
1E
100
AcDbEntity
  8
躯体と製品
  6
Continuous
 62
     7
100
AcDbLine
 10
326.3088805745742
 20
319.7655016748704
 30
0.0
 11
322.3088805745742
 21
315.7655016748704
 31
0.0
  0
LINE
  5
6D91
330
1E
100
AcDbEntity
  8
躯体と製品
  6
Continuous
 62
     7
100
AcDbLine
 10
322.3088805745742
 20
316.6887816748704
 30
0.0
 11
326.303220574574
 21
312.6944416748711
 31
0.0
  0
LINE
  5
6D92
330
1E
100
AcDbEntity
  8
躯体と製品
  6
Continuous
 62
     7
100
AcDbLine
 10
326.3088805745742
 20
314.108651674871
 30
0.0
 11
322.3088805745742
 21
318.108651674871
 31
0.0
  0
LINE
  5
6D93
330
1E
100
AcDbEntity
  8
躯体と製品
  6
Continuous
 62
     7
100
AcDbLine
 10
326.3088805745742
 20
315.5228616748709
 30
0.0
 11
322.3088805745742
 21
319.5228616748709
 31
0.0
  0
LINE
  5
6D94
330
1E
100
AcDbEntity
  8
躯体と製品
  6
Continuous
 62
     7
100
AcDbLine
 10
326.3088805745742
 20
323.3979716748708
 30
0.0
 11
306.3088805745743
 21
303.3979716748709
 31
0.0
  0
LINE
  5
6D95
330
1E
100
AcDbEntity
  8
文字-記号
  6
Continuous
 62
     7
100
AcDbLine
 10
330.3088805745742
 20
333.8544416748709
 30
0.0
 11
309.4319005745742
 21
297.6944416748711
 31
0.0
  0
LINE
  5
6D96
330
1E
100
AcDbEntity
  8
文字-記号
  6
Continuous
 62
     7
100
AcDbLine
 10
324.3088805745742
 20
312.6944416748711
 30
0.0
 11
309.8751205745744
 21
287.6944426748705
 31
0.0
  0
LINE
  5
6D97
330
1E
100
AcDbEntity
  8
躯体と製品
  6
Continuous
 62
     7
100
AcDbLine
 10
326.3088805745742
 20
350.2680316748711
 30
0.0
 11
306.3088805745743
 21
330.268031674871
 31
0.0
  0
LINE
  5
6D98
330
1E
100
AcDbEntity
  8
躯体と製品
  6
Continuous
 62
     7
100
AcDbLine
 10
326.3088805745742
 20
353.0964616748706
 30
0.0
 11
306.3088805745743
 21
333.0964616748706
 31
0.0
  0
LINE
  5
6D99
330
1E
100
AcDbEntity
  8
躯体と製品
  6
Continuous
 62
     7
100
AcDbLine
 10
326.3088805745742
 20
340.9787116748703
 30
0.0
 11
322.3088805745742
 21
336.9787116748703
 31
0.0
  0
LINE
  5
6D9A
330
1E
100
AcDbEntity
  8
躯体と製品
  6
Continuous
 62
     7
100
AcDbLine
 10
326.3088805745742
 20
342.3929216748711
 30
0.0
 11
322.3088805745742
 21
338.3929216748711
 31
0.0
  0
LINE
  5
6D9B
330
1E
100
AcDbEntity
  8
躯体と製品
  6
Continuous
 62
     7
100
AcDbLine
 10
325.1961805745741
 20
342.6944416748711
 30
0.0
 11
322.3088805745742
 21
339.807131674871
 31
0.0
  0
LINE
  5
6D9C
330
1E
100
AcDbEntity
  8
躯体と製品
  6
Continuous
 62
     7
100
AcDbLine
 10
326.3088805745742
 20
336.7360716748708
 30
0.0
 11
322.3088805745742
 21
340.7360716748708
 31
0.0
  0
LINE
  5
6D9D
330
1E
100
AcDbEntity
  8
躯体と製品
  6
Continuous
 62
     7
100
AcDbLine
 10
326.3088805745742
 20
338.1502816748707
 30
0.0
 11
322.3088805745742
 21
342.1502816748707
 31
0.0
  0
LINE
  5
6D9E
330
1E
100
AcDbEntity
  8
躯体と製品
  6
Continuous
 62
     7
100
AcDbLine
 10
326.3088805745742
 20
339.5644916748706
 30
0.0
 11
323.1789405745744
 21
342.6944416748711
 31
0.0
  0
LINE
  5
6D9F
330
1E
100
AcDbEntity
  8
躯体と製品
  6
Continuous
 62
     7
100
AcDbLine
 10
326.3088805745742
 20
351.682241674871
 30
0.0
 11
306.3088805745743
 21
331.682241674871
 31
0.0
  0
LINE
  5
6DA0
330
1E
100
AcDbEntity
  8
躯体と製品
  6
Continuous
 62
     7
100
AcDbLine
 10
328.3088805745742
 20
342.6944416748711
 30
0.0
 11
328.3088805745742
 21
302.6944416748711
 31
0.0
  0
LINE
  5
6DA1
330
1E
100
AcDbEntity
  8
躯体と製品
  6
Continuous
 62
     7
100
AcDbLine
 10
330.4488805745741
 20
347.7136116748706
 30
0.0
 11
330.4488805745741
 21
337.6752716748706
 31
0.0
  0
LINE
  5
6DA2
330
1E
100
AcDbEntity
  8
躯体と製品
  6
Continuous
 62
     7
100
AcDbLine
 10
330.6088805745744
 20
337.5828916748706
 30
0.0
 11
330.6088805745744
 21
347.805981674871
 31
0.0
  0
LINE
  5
6DA3
330
1E
100
AcDbEntity
  8
躯体と製品
  6
Continuous
 62
     7
100
AcDbLine
 10
339.3088805745742
 20
349.1944416748711
 30
0.0
 11
339.3088805745742
 21
347.7944416748706
 31
0.0
  0
LINE
  5
6DA4
330
1E
100
AcDbEntity
  8
躯体と製品
  6
Continuous
 62
     7
100
AcDbLine
 10
339.3088805745742
 20
347.7944416748706
 30
0.0
 11
338.2088805745743
 21
347.7944416748706
 31
0.0
  0
LINE
  5
6DA5
330
1E
100
AcDbEntity
  8
躯体と製品
  6
Continuous
 62
     7
100
AcDbLine
 10
338.2088805745743
 20
347.9544416748704
 30
0.0
 11
338.2088805745743
 21
347.7944416748706
 31
0.0
  0
LINE
  5
6DA6
330
1E
100
AcDbEntity
  8
躯体と製品
  6
Continuous
 62
     7
100
AcDbLine
 10
339.1488805745744
 20
349.0344416748703
 30
0.0
 11
339.1488805745744
 21
347.9544416748704
 31
0.0
  0
LINE
  5
6DA7
330
1E
100
AcDbEntity
  8
躯体と製品
  6
Continuous
 62
     7
100
AcDbLine
 10
339.1488805745744
 20
347.9544416748704
 30
0.0
 11
338.2088805745743
 21
347.9544416748704
 31
0.0
  0
LINE
  5
6DA8
330
1E
100
AcDbEntity
  8
躯体と製品
  6
Continuous
 62
     7
100
AcDbLine
 10
336.3088805745742
 20
349.3944416748709
 30
0.0
 11
336.3088805745742
 21
349.1944416748711
 31
0.0
  0
LINE
  5
6DA9
330
1E
100
AcDbEntity
  8
躯体と製品
  6
Continuous
 62
     7
100
AcDbLine
 10
339.3088805745742
 20
337.5944416748707
 30
0.0
 11
339.3088805745742
 21
336.1944416748711
 31
0.0
  0
CIRCLE
  5
6DAA
330
1E
100
AcDbEntity
  8
文字-記号
  6
Continuous
 62
     7
100
AcDbCircle
 10
339.3088805745742
 20
337.5944416748707
 30
0.0
 40
0.3
  0
LINE
  5
6DAB
330
1E
100
AcDbEntity
  8
躯体と製品
  6
Continuous
 62
     7
100
AcDbLine
 10
339.3088805745742
 20
337.5944416748707
 30
0.0
 11
338.2088805745743
 21
337.5944416748707
 31
0.0
  0
LINE
  5
6DAC
330
1E
100
AcDbEntity
  8
躯体と製品
  6
Continuous
 62
     7
100
AcDbLine
 10
338.2088805745743
 20
337.5944416748707
 30
0.0
 11
338.2088805745743
 21
337.4344416748709
 31
0.0
  0
LINE
  5
6DAD
330
1E
100
AcDbEntity
  8
躯体と製品
  6
Continuous
 62
     7
100
AcDbLine
 10
339.1488805745744
 20
336.3544416748709
 30
0.0
 11
339.1488805745744
 21
337.4344416748709
 31
0.0
  0
LINE
  5
6DAE
330
1E
100
AcDbEntity
  8
躯体と製品
  6
Continuous
 62
     7
100
AcDbLine
 10
339.1488805745744
 20
337.4344416748709
 30
0.0
 11
338.2088805745743
 21
337.4344416748709
 31
0.0
  0
CIRCLE
  5
6DAF
330
1E
100
AcDbEntity
  8
躯体と製品
  6
Continuous
 62
     7
100
AcDbCircle
 10
329.0314505745741
 20
380.1378416748703
 30
0.0
 40
0.2
  0
CIRCLE
  5
6DB0
330
1E
100
AcDbEntity
  8
躯体と製品
  6
Continuous
 62
     7
100
AcDbCircle
 10
329.5252205745742
 20
378.491931674871
 30
0.0
 40
0.2
  0
CIRCLE
  5
6DB1
330
1E
100
AcDbEntity
  8
躯体と製品
  6
Continuous
 62
     7
100
AcDbCircle
 10
326.9623005745743
 20
382.0188916748703
 30
0.0
 40
0.2
  0
CIRCLE
  5
6DB2
330
1E
100
AcDbEntity
  8
躯体と製品
  6
Continuous
 62
     7
100
AcDbCircle
 10
328.4201105745742
 20
381.4780916748705
 30
0.0
 40
0.2
  0
CIRCLE
  5
6DB3
330
1E
100
AcDbEntity
  8
躯体と製品
  6
Continuous
 62
     7
100
AcDbCircle
 10
327.3855305745742
 20
378.6330116748704
 30
0.0
 40
0.2
  0
CIRCLE
  5
6DB4
330
1E
100
AcDbEntity
  8
躯体と製品
  6
Continuous
 62
     7
100
AcDbCircle
 10
327.5266105745741
 20
376.4698116748705
 30
0.0
 40
0.2
  0
CIRCLE
  5
6DB5
330
1E
100
AcDbEntity
  8
躯体と製品
  6
Continuous
 62
     7
100
AcDbCircle
 10
328.7963205745741
 20
376.093601674871
 30
0.0
 40
0.2
  0
CIRCLE
  5
6DB6
330
1E
100
AcDbEntity
  8
躯体と製品
  6
Continuous
 62
     7
100
AcDbCircle
 10
329.689810574574
 20
373.2720316748709
 30
0.0
 40
0.2
  0
CIRCLE
  5
6DB7
330
1E
100
AcDbEntity
  8
躯体と製品
  6
Continuous
 62
     7
100
AcDbCircle
 10
329.196040574574
 20
370.5445116748706
 30
0.0
 40
0.2
  0
CIRCLE
  5
6DB8
330
1E
100
AcDbEntity
  8
躯体と製品
  6
Continuous
 62
     7
100
AcDbCircle
 10
327.291480574574
 20
374.3301216748705
 30
0.0
 40
0.2
  0
CIRCLE
  5
6DB9
330
1E
100
AcDbEntity
  8
躯体と製品
  6
Continuous
 62
     7
100
AcDbCircle
 10
327.6441805745744
 20
371.367471674871
 30
0.0
 40
0.2
  0
CIRCLE
  5
6DBA
330
1E
100
AcDbEntity
  8
躯体と製品
  6
Continuous
 62
     7
100
AcDbCircle
 10
327.4560705745744
 20
369.3688616748705
 30
0.0
 40
0.2
  0
CIRCLE
  5
6DBB
330
1E
100
AcDbEntity
  8
躯体と製品
  6
Continuous
 62
     7
100
AcDbCircle
 10
327.6912005745744
 20
367.0645816748711
 30
0.0
 40
0.2
  0
CIRCLE
  5
6DBC
330
1E
100
AcDbEntity
  8
躯体と製品
  6
Continuous
 62
     7
100
AcDbCircle
 10
327.4325605745744
 20
364.172481674871
 30
0.0
 40
0.2
  0
CIRCLE
  5
6DBD
330
1E
100
AcDbEntity
  8
躯体と製品
  6
Continuous
 62
     7
100
AcDbCircle
 10
328.960910574574
 20
367.9345716748703
 30
0.0
 40
0.2
  0
CIRCLE
  5
6DBE
330
1E
100
AcDbEntity
  8
躯体と製品
  6
Continuous
 62
     7
100
AcDbCircle
 10
328.8433405745741
 20
365.2305616748709
 30
0.0
 40
0.2
  0
LINE
  5
6DBF
330
1E
100
AcDbEntity
  8
躯体と製品
  6
Continuous
 62
     7
100
AcDbLine
 10
313.4804505745742
 20
382.6944416748711
 30
0.0
 11
306.3088805745743
 21
375.5228616748709
 31
0.0
  0
LINE
  5
6DC0
330
1E
100
AcDbEntity
  8
躯体と製品
  6
Continuous
 62
     7
100
AcDbLine
 10
314.8946705745743
 20
382.6944416748711
 30
0.0
 11
306.3088805745743
 21
374.108651674871
 31
0.0
  0
LINE
  5
6DC1
330
1E
100
AcDbEntity
  8
躯体と製品
  6
Continuous
 62
     7
100
AcDbLine
 10
316.3088805745742
 20
382.6944416748711
 30
0.0
 11
306.3088805745743
 21
372.6944416748711
 31
0.0
  0
CIRCLE
  5
6DC2
330
1E
100
AcDbEntity
  8
躯体と製品
  6
Continuous
 62
     7
100
AcDbCircle
 10
329.1490105745743
 20
359.187711674871
 30
0.0
 40
0.2
  0
CIRCLE
  5
6DC3
330
1E
100
AcDbEntity
  8
躯体と製品
  6
Continuous
 62
     7
100
AcDbCircle
 10
329.1255005745743
 20
354.2969916748707
 30
0.0
 40
0.2
  0
CIRCLE
  5
6DC4
330
1E
100
AcDbEntity
  8
躯体と製品
  6
Continuous
 62
     7
100
AcDbCircle
 10
329.2665805745742
 20
357.0950516748708
 30
0.0
 40
0.2
  0
CIRCLE
  5
6DC5
330
1E
100
AcDbEntity
  8
躯体と製品
  6
Continuous
 62
     7
100
AcDbCircle
 10
327.1033805745742
 20
360.2928216748706
 30
0.0
 40
0.2
  0
CIRCLE
  5
6DC6
330
1E
100
AcDbEntity
  8
躯体と製品
  6
Continuous
 62
     7
100
AcDbCircle
 10
327.1974305745743
 20
358.2001616748703
 30
0.0
 40
0.2
  0
CIRCLE
  5
6DC7
330
1E
100
AcDbEntity
  8
躯体と製品
  6
Continuous
 62
     7
100
AcDbCircle
 10
328.3730805745741
 20
362.5030516748712
 30
0.0
 40
0.2
  0
CIRCLE
  5
6DC8
330
1E
100
AcDbEntity
  8
躯体と製品
  6
Continuous
 62
     7
100
AcDbCircle
 10
327.8087705745743
 20
355.9193916748709
 30
0.0
 40
0.2
  0
CIRCLE
  5
6DC9
330
1E
100
AcDbEntity
  8
躯体と製品
  6
Continuous
 62
     7
100
AcDbCircle
 10
326.821220574574
 20
354.2734816748707
 30
0.0
 40
0.2
  0
LINE
  5
6DCA
330
1E
100
AcDbEntity
  8
躯体と製品
  6
Continuous
 62
     7
100
AcDbLine
 10
326.3088805745742
 20
378.5523016748702
 30
0.0
 11
306.3088805745743
 21
358.5523016748703
 31
0.0
  0
LINE
  5
6DCB
330
1E
100
AcDbEntity
  8
躯体と製品
  6
Continuous
 62
     7
100
AcDbLine
 10
326.3088805745742
 20
381.3807316748707
 30
0.0
 11
306.3088805745743
 21
361.3807316748707
 31
0.0
  0
LINE
  5
6DCC
330
1E
100
AcDbEntity
  8
躯体と製品
  6
Continuous
 62
     7
100
AcDbLine
 10
326.3088805745742
 20
379.9665116748711
 30
0.0
 11
306.3088805745743
 21
359.9665116748711
 31
0.0
  0
TEXT
  5
6DCD
330
1E
100
AcDbEntity
  8
文字-記号
 62
     7
100
AcDbText
 10
344.7404005745743
 20
372.8544316748703
 30
0.0
 40
3.0
  1
見切縁
 41
0.8
  7
ACAD
100
AcDbText
  0
LINE
  5
6DCE
330
1E
100
AcDbEntity
  8
文字-記号
  6
Continuous
 62
     7
100
AcDbLine
 10
344.7404205745743
 20
371.8544416748709
 30
0.0
 11
353.770420574574
 21
371.8544416748709
 31
0.0
  0
DIMENSION
  5
6DCF
330
1E
100
AcDbEntity
  8
寸法
  6
Continuous
100
AcDbDimension
  2
*D4
 10
390.3088805745742
 20
333.8544416748709
 30
0.0
 11
387.2231662888599
 21
342.854441674871
 31
0.0
 70
    32
  1
(90)
 71
     5
 42
18.0
  3
AutoCAD
100
AcDbAlignedDimension
 13
381.3088805745742
 23
351.854441674871
 33
0.0
 14
381.3088805745742
 24
333.8544416748709
 34
0.0
 50
90.0
100
AcDbRotatedDimension
1001
ACAD
1000
DSTYLE
1002
{
1070
   147
1040
0.8
1070
   140
1040
10.0
1002
}
  0
ENDSEC
  0
SECTION
  2
OBJECTS
  0
DICTIONARY
  5
C
330
0
100
AcDbDictionary
281
     1
  3
ACAD_COLOR
350
6E5B
  3
ACAD_GROUP
350
D
  3
ACAD_LAYOUT
350
19
  3
ACAD_MATERIAL
350
6E46
  3
ACAD_MLINESTYLE
350
16
  3
ACAD_PLOTSETTINGS
350
18
  3
ACAD_PLOTSTYLENAME
350
E
  3
ACAD_TABLESTYLE
350
6E5C
  3
ACAD_VISUALSTYLE
350
6E4A
  3
AcDbVariableDictionary
350
169
  3
DWGPROPS
350
6E97
  0
DICTIONARY
  5
6E76
330
8
100
AcDbDictionary
280
     1
281
     1
  0
DICTIONARY
  5
175
330
2
100
AcDbDictionary
280
     1
281
     1
  3
ACAD_LAYERFILTERS
360
185
  3
ACAD_LAYERSTATES
360
176
  0
DICTIONARY
  5
28B
330
1E
100
AcDbDictionary
280
     1
281
     1
  3
ACAD_LAYOUTSELFREF
360
6E3F
  0
DICTIONARY
  5
28D
330
1A
100
AcDbDictionary
280
     1
281
     1
  3
ACAD_LAYOUTSELFREF
360
6E3E
  0
DICTIONARY
  5
6E5B
102
{ACAD_REACTORS
330
C
102
}
330
C
100
AcDbDictionary
281
     1
  0
DICTIONARY
  5
D
102
{ACAD_REACTORS
330
C
102
}
330
C
100
AcDbDictionary
281
     1
  0
DICTIONARY
  5
19
102
{ACAD_REACTORS
330
C
102
}
330
C
100
AcDbDictionary
281
     1
  3
Model
350
21
  3
ﾚｲｱｳﾄ1
350
1D
  0
DICTIONARY
  5
6E46
102
{ACAD_REACTORS
330
C
102
}
330
C
100
AcDbDictionary
281
     1
  3
ByBlock
350
6E48
  3
ByLayer
350
6E47
  3
Global
350
6E49
  0
DICTIONARY
  5
16
102
{ACAD_REACTORS
330
C
102
}
330
C
100
AcDbDictionary
281
     1
  3
Standard
350
17
  0
DICTIONARY
  5
18
102
{ACAD_REACTORS
330
C
102
}
330
C
100
AcDbDictionary
281
     1
  0
ACDBDICTIONARYWDFLT
  5
E
102
{ACAD_REACTORS
330
C
102
}
330
C
100
AcDbDictionary
281
     1
  3
Normal
350
F
100
AcDbDictionaryWithDefault
340
F
1001
ACAD
1000
TREAT_AS_HARD
1070
     0
1000
TREAT_AS_HARD
1070
     0
1000
TREAT_AS_HARD
1070
     0
1000
TREAT_AS_HARD
1070
     0
1000
TREAT_AS_HARD
1070
     0
1000
TREAT_AS_HARD
1070
     0
1000
TREAT_AS_HARD
1070
     0
1000
TREAT_AS_HARD
1070
     0
1000
TREAT_AS_HARD
1070
     0
1000
TREAT_AS_HARD
1070
     0
1000
TREAT_AS_HARD
1070
     0
1000
TREAT_AS_HARD
1070
     0
1000
TREAT_AS_HARD
1070
     0
1000
TREAT_AS_HARD
1070
     0
1000
TREAT_AS_HARD
1070
     0
1000
TREAT_AS_HARD
1070
     0
1000
TREAT_AS_HARD
1070
     0
1000
TREAT_AS_HARD
1070
     0
1000
TREAT_AS_HARD
1070
     0
1000
TREAT_AS_HARD
1070
     0
1000
TREAT_AS_HARD
1070
     0
1000
TREAT_AS_HARD
1070
     0
1000
TREAT_AS_HARD
1070
     0
1000
TREAT_AS_HARD
1070
     0
1000
TREAT_AS_HARD
1070
     0
1000
TREAT_AS_HARD
1070
     0
1000
TREAT_AS_HARD
1070
     0
1000
TREAT_AS_HARD
1070
     0
1000
TREAT_AS_HARD
1070
     0
1000
TREAT_AS_HARD
1070
     0
  0
DICTIONARY
  5
6E5C
102
{ACAD_REACTORS
330
C
102
}
330
C
100
AcDbDictionary
281
     1
  3
Standard
350
6E5D
  0
DICTIONARY
  5
6E4A
102
{ACAD_REACTORS
330
C
102
}
330
C
100
AcDbDictionary
281
     1
  3
2dWireframe
350
6E50
  3
3D Hidden
350
6E52
  3
3dWireframe
350
6E51
  3
Basic
350
6E4F
  3
Brighten
350
6E56
  3
ColorChange
350
6E5A
  3
Conceptual
350
6E53
  3
Dim
350
6E55
  3
Facepattern
350
6E59
  3
Flat
350
6E4B
  3
FlatWithEdges
350
6E4C
  3
Gouraud
350
6E4D
  3
GouraudWithEdges
350
6E4E
  3
Linepattern
350
6E58
  3
Realistic
350
6E54
  3
Thicken
350
6E57
  0
DICTIONARY
  5
169
102
{ACAD_REACTORS
330
C
102
}
330
C
100
AcDbDictionary
281
     1
  3
CTABLESTYLE
350
6E8E
  3
DIMASSOC
350
16A
  3
INDEXCTL
350
6E90
  3
SORTENTS
350
6E8F
  0
XRECORD
  5
6E97
102
{ACAD_REACTORS
330
C
102
}
330
C
100
AcDbXrecord
280
     1
  1
DWGPROPS COOKIE
  2

  3

  4

  6

  7

  8
HON1000AV
  9

300
=
301
=
302
=
303
=
304
=
305
=
306
=
307
=
308
=
309
=
 40
0.2418803587962963
 41
2454316.693457674
 42
2454736.375138518
  1

 90
        0
  0
DICTIONARY
  5
185
102
{ACAD_REACTORS
330
175
102
}
330
175
100
AcDbDictionary
280
     1
281
     1
  0
DICTIONARY
  5
176
102
{ACAD_REACTORS
330
175
102
}
330
175
100
AcDbDictionary
281
     1
  3
ACAD
350
177
  0
XRECORD
  5
6E3F
102
{ACAD_REACTORS
330
28B
102
}
330
28B
100
AcDbXrecord
280
     1
340
1E
  0
XRECORD
  5
6E3E
102
{ACAD_REACTORS
330
28D
102
}
330
28D
100
AcDbXrecord
280
     1
340
1A
  0
LAYOUT
  5
21
102
{ACAD_XDICTIONARY
360
6E9A
102
}
102
{ACAD_REACTORS
330
19
102
}
330
19
100
AcDbPlotSettings
  1

  2
\\MEISEI-1\EPSON Stylus Photo EX3
  4

  6

 40
0.0
 41
0.0
 42
0.0
 43
0.0
 44
0.0
 45
0.0
 46
0.0
 47
0.0
 48
0.0
 49
0.0
140
0.0
141
0.0
142
1.0
143
1.0
 70
  1712
 72
     0
 73
     0
 74
     0
  7

 75
     0
147
1.0
148
0.0
149
0.0
100
AcDbLayout
  1
Model
 70
     1
 71
     0
 10
0.0
 20
0.0
 11
12.0
 21
9.0
 12
0.0
 22
0.0
 32
0.0
 14
0.0
 24
0.0
 34
0.0
 15
0.0
 25
0.0
 35
0.0
146
0.0
 13
0.0
 23
0.0
 33
0.0
 16
1.0
 26
0.0
 36
0.0
 17
0.0
 27
1.0
 37
0.0
 76
     0
330
1E
331
6DFA
  0
LAYOUT
  5
1D
102
{ACAD_XDICTIONARY
360
6E98
102
}
102
{ACAD_REACTORS
330
19
102
}
330
19
100
AcDbPlotSettings
  1

  2
\\MEISEI-1\EPSON Stylus Photo EX3
  4

  6

 40
0.0
 41
0.0
 42
0.0
 43
0.0
 44
0.0
 45
0.0
 46
0.0
 47
0.0
 48
0.0
 49
0.0
140
0.0
141
0.0
142
1.0
143
1.0
 70
   688
 72
     0
 73
     0
 74
     5
  7

 75
    16
147
1.0
148
0.0
149
0.0
100
AcDbLayout
  1
ﾚｲｱｳﾄ1
 70
     1
 71
     1
 10
0.0
 20
0.0
 11
12.0
 21
9.0
 12
0.0
 22
0.0
 32
0.0
 14
1.000000000000000E+20
 24
1.000000000000000E+20
 34
1.000000000000000E+20
 15
-1.000000000000000E+20
 25
-1.000000000000000E+20
 35
-1.000000000000000E+20
146
0.0
 13
0.0
 23
0.0
 33
0.0
 16
1.0
 26
0.0
 36
0.0
 17
0.0
 27
1.0
 37
0.0
 76
     0
330
1A
  0
MATERIAL
  5
6E48
102
{ACAD_XDICTIONARY
360
6E9E
102
}
102
{ACAD_REACTORS
330
6E46
102
}
330
6E46
100
AcDbMaterial
  1
ByBlock
  0
MATERIAL
  5
6E47
102
{ACAD_XDICTIONARY
360
6E9C
102
}
102
{ACAD_REACTORS
330
6E46
102
}
330
6E46
100
AcDbMaterial
  1
ByLayer
  0
MATERIAL
  5
6E49
102
{ACAD_XDICTIONARY
360
6EA0
102
}
102
{ACAD_REACTORS
330
6E46
102
}
330
6E46
100
AcDbMaterial
  1
Global
  0
MLINESTYLE
  5
17
102
{ACAD_REACTORS
330
16
102
}
330
16
100
AcDbMlineStyle
  2
STANDARD
 70
     0
  3

 62
   256
 51
90.0
 52
90.0
 71
     2
 49
0.5
 62
   256
  6
BYLAYER
 49
-0.5
 62
   256
  6
BYLAYER
  0
ACDBPLACEHOLDER
  5
F
102
{ACAD_REACTORS
330
E
102
}
330
E
  0
TABLESTYLE
  5
6E5D
102
{ACAD_XDICTIONARY
360
6EA2
102
}
102
{ACAD_REACTORS
330
6E5C
102
}
330
6E5C
100
AcDbTableStyle
  3
Standard
 70
     0
 71
     0
 40
0.06
 41
0.06
280
     0
281
     0
  7
STANDARD
140
0.18
170
     2
 62
     0
 63
     7
283
     0
274
    -2
284
     1
 64
     0
275
    -2
285
     1
 65
     0
276
    -2
286
     1
 66
     0
277
    -2
287
     1
 67
     0
278
    -2
288
     1
 68
     0
279
    -2
289
     1
 69
     0
  7
STANDARD
140
0.25
170
     5
 62
     0
 63
     7
283
     0
274
    -2
284
     1
 64
     0
275
    -2
285
     1
 65
     0
276
    -2
286
     1
 66
     0
277
    -2
287
     1
 67
     0
278
    -2
288
     1
 68
     0
279
    -2
289
     1
 69
     0
  7
STANDARD
140
0.18
170
     5
 62
     0
 63
     7
283
     0
274
    -2
284
     1
 64
     0
275
    -2
285
     1
 65
     0
276
    -2
286
     1
 66
     0
277
    -2
287
     1
 67
     0
278
    -2
288
     1
 68
     0
279
    -2
289
     1
 69
     0
  0
VISUALSTYLE
  5
6E50
102
{ACAD_REACTORS
330
6E4A
102
}
330
6E4A
100
AcDbVisualStyle
  2
2dWireframe
 70
     4
 71
     0
 72
     2
 73
     0
 90
        0
 40
-0.6
 41
-30.0
 62
     5
 63
     7
 74
     1
 91
        4
 64
     7
 65
   257
 75
     1
175
     1
 42
1.0
 92
        0
 66
   257
 43
1.0
 76
     1
 77
     6
 78
     2
 67
     7
 79
     5
170
     0
171
     0
290
     0
174
     0
 93
        1
 44
0.0
173
     0
291
     0
 45
0.0
1001
ACAD
1000
AcDbSavedByObjectVersion
1070
     0
  0
VISUALSTYLE
  5
6E52
102
{ACAD_REACTORS
330
6E4A
102
}
330
6E4A
100
AcDbVisualStyle
  2
3D Hidden
 70
     6
 71
     1
 72
     2
 73
     2
 90
        0
 40
-0.6
 41
-30.0
 62
     5
 63
     7
 74
     2
 91
        2
 64
     7
 65
   257
 75
     2
175
     1
 42
40.0
 92
        0
 66
   257
 43
1.0
 76
     1
 77
     6
 78
     2
 67
     7
 79
     3
170
     0
171
     0
290
     0
174
     0
 93
        1
 44
0.0
173
     0
291
     0
 45
0.0
1001
ACAD
1000
AcDbSavedByObjectVersion
1070
     0
  0
VISUALSTYLE
  5
6E51
102
{ACAD_REACTORS
330
6E4A
102
}
330
6E4A
100
AcDbVisualStyle
  2
3dWireframe
 70
     5
 71
     0
 72
     2
 73
     0
 90
        0
 40
-0.6
 41
-30.0
 62
     5
 63
     7
 74
     1
 91
        4
 64
     7
 65
   257
 75
     1
175
     1
 42
1.0
 92
        0
 66
   257
 43
1.0
 76
     1
 77
     6
 78
     2
 67
     7
 79
     5
170
     0
171
     0
290
     0
174
     0
 93
        1
 44
0.0
173
     0
291
     0
 45
0.0
1001
ACAD
1000
AcDbSavedByObjectVersion
1070
     0
  0
VISUALSTYLE
  5
6E4F
102
{ACAD_REACTORS
330
6E4A
102
}
330
6E4A
100
AcDbVisualStyle
  2
Basic
 70
     7
 71
     1
 72
     0
 73
     1
 90
        0
 40
-0.6
 41
-30.0
 62
     5
 63
     7
 74
     0
 91
        4
 64
     7
 65
   257
 75
     1
175
     1
 42
1.0
 92
        8
 66
     7
 43
1.0
 76
     1
 77
     6
 78
     2
 67
     7
 79
     5
170
     0
171
     0
290
     0
174
     0
 93
        1
 44
0.0
173
     0
291
     1
 45
0.0
1001
ACAD
1000
AcDbSavedByObjectVersion
1070
     0
  0
VISUALSTYLE
  5
6E56
102
{ACAD_REACTORS
330
6E4A
102
}
330
6E4A
100
AcDbVisualStyle
  2
Brighten
 70
    12
 71
     2
 72
     2
 73
     0
 90
        0
 40
-0.6
 41
-30.0
 62
     5
 63
     7
 74
     1
 91
        4
 64
     7
 65
   257
 75
     1
175
     1
 42
1.0
 92
        8
 66
     7
 43
1.0
 76
     1
 77
     6
 78
     2
 67
     7
 79
     5
170
     0
171
     0
290
     0
174
     0
 93
        1
 44
50.0
173
     0
291
     1
 45
0.0
1001
ACAD
1000
AcDbSavedByObjectVersion
1070
     0
  0
VISUALSTYLE
  5
6E5A
102
{ACAD_REACTORS
330
6E4A
102
}
330
6E4A
100
AcDbVisualStyle
  2
ColorChange
 70
    16
 71
     2
 72
     2
 73
     3
 90
        0
 40
-0.6
 41
-30.0
 62
     5
 63
     8
 74
     1
 91
        4
 64
     7
 65
   257
 75
     1
175
     1
 42
1.0
 92
        8
 66
     8
 43
1.0
 76
     1
 77
     6
 78
     2
 67
     7
 79
     5
170
     0
171
     0
290
     0
174
     0
 93
        1
 44
0.0
173
     0
291
     1
 45
0.0
1001
ACAD
1000
AcDbSavedByObjectVersion
1070
     0
  0
VISUALSTYLE
  5
6E53
102
{ACAD_REACTORS
330
6E4A
102
}
330
6E4A
100
AcDbVisualStyle
  2
Conceptual
 70
     9
 71
     3
 72
     2
 73
     0
 90
        0
 40
-0.6
 41
-30.0
 62
     5
 63
     7
 74
     2
 91
        2
 64
     7
 65
   257
 75
     1
175
     1
 42
40.0
 92
        8
 66
     7
 43
1.0
 76
     1
 77
     6
 78
     2
 67
     7
 79
     3
170
     0
171
     0
290
     0
174
     0
 93
        1
 44
0.0
173
     0
291
     0
 45
0.0
1001
ACAD
1000
AcDbSavedByObjectVersion
1070
     0
  0
VISUALSTYLE
  5
6E55
102
{ACAD_REACTORS
330
6E4A
102
}
330
6E4A
100
AcDbVisualStyle
  2
Dim
 70
    11
 71
     2
 72
     2
 73
     0
 90
        0
 40
-0.6
 41
-30.0
 62
     5
 63
     7
 74
     1
 91
        4
 64
     7
 65
   257
 75
     1
175
     1
 42
1.0
 92
        8
 66
     7
 43
1.0
 76
     1
 77
     6
 78
     2
 67
     7
 79
     5
170
     0
171
     0
290
     0
174
     0
 93
        1
 44
-50.0
173
     0
291
     1
 45
0.0
1001
ACAD
1000
AcDbSavedByObjectVersion
1070
     0
  0
VISUALSTYLE
  5
6E59
102
{ACAD_REACTORS
330
6E4A
102
}
330
6E4A
100
AcDbVisualStyle
  2
Facepattern
 70
    15
 71
     2
 72
     2
 73
     0
 90
        0
 40
-0.6
 41
-30.0
 62
     5
 63
     7
 74
     1
 91
        4
 64
     7
 65
   257
 75
     1
175
     1
 42
1.0
 92
        8
 66
     7
 43
1.0
 76
     1
 77
     6
 78
     2
 67
     7
 79
     5
170
     0
171
     0
290
     0
174
     0
 93
        1
 44
0.0
173
     0
291
     1
 45
0.0
1001
ACAD
1000
AcDbSavedByObjectVersion
1070
     0
  0
VISUALSTYLE
  5
6E4B
102
{ACAD_REACTORS
330
6E4A
102
}
330
6E4A
100
AcDbVisualStyle
  2
Flat
 70
     0
 71
     2
 72
     1
 73
     1
 90
        2
 40
-0.6
 41
30.0
 62
     5
 63
     7
 74
     0
 91
        4
 64
     7
 65
   257
 75
     1
175
     1
 42
1.0
 92
        8
 66
     7
 43
1.0
 76
     1
 77
     6
 78
     2
 67
     7
 79
     5
170
     0
171
     0
290
     0
174
     0
 93
       13
 44
0.0
173
     0
291
     1
 45
0.0
1001
ACAD
1000
AcDbSavedByObjectVersion
1070
     0
  0
VISUALSTYLE
  5
6E4C
102
{ACAD_REACTORS
330
6E4A
102
}
330
6E4A
100
AcDbVisualStyle
  2
FlatWithEdges
 70
     1
 71
     2
 72
     1
 73
     1
 90
        2
 40
-0.6
 41
30.0
 62
     5
 63
     7
 74
     1
 91
        4
 64
     7
 65
   257
 75
     1
175
     1
 42
1.0
 92
        0
 66
   257
 43
1.0
 76
     1
 77
     6
 78
     2
 67
     7
 79
     5
170
     0
171
     0
290
     0
174
     0
 93
       13
 44
0.0
173
     0
291
     1
 45
0.0
1001
ACAD
1000
AcDbSavedByObjectVersion
1070
     0
  0
VISUALSTYLE
  5
6E4D
102
{ACAD_REACTORS
330
6E4A
102
}
330
6E4A
100
AcDbVisualStyle
  2
Gouraud
 70
     2
 71
     2
 72
     2
 73
     1
 90
        2
 40
-0.6
 41
30.0
 62
     5
 63
     7
 74
     0
 91
        4
 64
     7
 65
   257
 75
     1
175
     1
 42
1.0
 92
        0
 66
     7
 43
1.0
 76
     1
 77
     6
 78
     2
 67
     7
 79
     5
170
     0
171
     0
290
     0
174
     0
 93
       13
 44
0.0
173
     0
291
     1
 45
0.0
1001
ACAD
1000
AcDbSavedByObjectVersion
1070
     0
  0
VISUALSTYLE
  5
6E4E
102
{ACAD_REACTORS
330
6E4A
102
}
330
6E4A
100
AcDbVisualStyle
  2
GouraudWithEdges
 70
     3
 71
     2
 72
     2
 73
     1
 90
        2
 40
-0.6
 41
30.0
 62
     5
 63
     7
 74
     1
 91
        4
 64
     7
 65
   257
 75
     1
175
     1
 42
1.0
 92
        0
 66
   257
 43
1.0
 76
     1
 77
     6
 78
     2
 67
     7
 79
     5
170
     0
171
     0
290
     0
174
     0
 93
       13
 44
0.0
173
     0
291
     1
 45
0.0
1001
ACAD
1000
AcDbSavedByObjectVersion
1070
     0
  0
VISUALSTYLE
  5
6E58
102
{ACAD_REACTORS
330
6E4A
102
}
330
6E4A
100
AcDbVisualStyle
  2
Linepattern
 70
    14
 71
     2
 72
     2
 73
     0
 90
        0
 40
-0.6
 41
-30.0
 62
     5
 63
     7
 74
     1
 91
        4
 64
     7
 65
   257
 75
     7
175
     7
 42
1.0
 92
        8
 66
     7
 43
1.0
 76
     1
 77
     6
 78
     2
 67
     7
 79
     5
170
     0
171
     0
290
     0
174
     0
 93
        1
 44
0.0
173
     0
291
     1
 45
0.0
1001
ACAD
1000
AcDbSavedByObjectVersion
1070
     0
  0
VISUALSTYLE
  5
6E54
102
{ACAD_REACTORS
330
6E4A
102
}
330
6E4A
100
AcDbVisualStyle
  2
Realistic
 70
     8
 71
     2
 72
     2
 73
     0
 90
        0
 40
-0.6
 41
-30.0
 62
     5
 63
     7
 74
     1
 91
        0
 64
     7
 65
   257
 75
     1
175
     1
 42
1.0
 92
        8
 66
     8
 43
1.0
 76
     1
 77
     6
 78
     2
 67
     7
 79
     5
170
     0
171
     0
290
     0
174
     0
 93
       13
 44
0.0
173
     0
291
     0
 45
0.0
1001
ACAD
1000
AcDbSavedByObjectVersion
1070
     0
  0
VISUALSTYLE
  5
6E57
102
{ACAD_REACTORS
330
6E4A
102
}
330
6E4A
100
AcDbVisualStyle
  2
Thicken
 70
    13
 71
     2
 72
     2
 73
     0
 90
        0
 40
-0.6
 41
-30.0
 62
     5
 63
     7
 74
     1
 91
        4
 64
     7
 65
   257
 75
     1
175
     1
 42
1.0
 92
       12
 66
     7
 43
1.0
 76
     1
 77
     6
 78
     2
 67
     7
 79
     5
170
     0
171
     0
290
     0
174
     0
 93
        1
 44
0.0
173
     0
291
     1
 45
0.0
1001
ACAD
1000
AcDbSavedByObjectVersion
1070
     0
  0
DICTIONARYVAR
  5
6E8E
102
{ACAD_REACTORS
330
169
102
}
330
169
100
DictionaryVariables
280
     0
  1
STANDARD
  0
DICTIONARYVAR
  5
16A
102
{ACAD_REACTORS
330
169
102
}
330
169
100
DictionaryVariables
280
     0
  1
1
  0
DICTIONARYVAR
  5
6E90
102
{ACAD_REACTORS
330
169
102
}
330
169
100
DictionaryVariables
280
     0
  1
0
  0
DICTIONARYVAR
  5
6E8F
102
{ACAD_REACTORS
330
169
102
}
330
169
100
DictionaryVariables
280
     0
  1
127
  0
XRECORD
  5
177
102
{ACAD_REACTORS
330
176
102
}
330
176
100
AcDbXrecord
280
     1
 91
      476
330
179
 90
        8
 62
     7
370
    -3
331
15
  1
Color_7
330
178
 90
        8
 62
     7
370
    -3
331
15
  1
Color_7
330
128
 90
        0
 62
     7
370
    -3
331
15
  1
Color_7
330
10
 90
        8
 62
     7
370
    -3
331
15
  1
Color_7
  0
DICTIONARY
  5
6E9A
330
21
100
AcDbDictionary
280
     1
281
     1
  3
ACAD_XREC_ROUNDTRIP
360
6E9B
  0
DICTIONARY
  5
6E98
330
1D
100
AcDbDictionary
280
     1
281
     1
  3
ACAD_XREC_ROUNDTRIP
360
6E99
  0
DICTIONARY
  5
6E9E
330
6E48
100
AcDbDictionary
280
     1
281
     1
  3
ACAD_XREC_ROUNDTRIP
360
6E9F
  0
DICTIONARY
  5
6E9C
330
6E47
100
AcDbDictionary
280
     1
281
     1
  3
ACAD_XREC_ROUNDTRIP
360
6E9D
  0
DICTIONARY
  5
6EA0
330
6E49
100
AcDbDictionary
280
     1
281
     1
  3
ACAD_XREC_ROUNDTRIP
360
6EA1
  0
DICTIONARY
  5
6EA2
330
6E5D
100
AcDbDictionary
280
     1
281
     1
  3
ACAD_XREC_ROUNDTRIP
360
6EA3
  0
XRECORD
  5
6E9B
102
{ACAD_REACTORS
330
6E9A
102
}
330
6E9A
100
AcDbXrecord
280
     1
102
SHADEPLOT
 70
     0
102
SHADEPLOTRESLEVEL
 70
     2
102
SHADEPLOTCUSTOMDPI
 70
   300
  0
XRECORD
  5
6E99
102
{ACAD_REACTORS
330
6E98
102
}
330
6E98
100
AcDbXrecord
280
     1
102
SHADEPLOT
 70
     0
102
SHADEPLOTRESLEVEL
 70
     2
102
SHADEPLOTCUSTOMDPI
 70
   300
  0
XRECORD
  5
6E9F
102
{ACAD_REACTORS
330
6E9E
102
}
330
6E9E
100
AcDbXrecord
280
     1
102
MATERIAL
148
0.0
149
0.0
149
0.0
 93
        0
 94
       63
282
     0
 72
     1
 77
     1
171
     1
175
     1
179
     1
273
     0
  0
XRECORD
  5
6E9D
102
{ACAD_REACTORS
330
6E9C
102
}
330
6E9C
100
AcDbXrecord
280
     1
102
MATERIAL
148
0.0
149
0.0
149
0.0
 93
        0
 94
       63
282
     0
 72
     1
 77
     1
171
     1
175
     1
179
     1
273
     0
  0
XRECORD
  5
6EA1
102
{ACAD_REACTORS
330
6EA0
102
}
330
6EA0
100
AcDbXrecord
280
     1
102
MATERIAL
148
0.0
149
0.0
149
0.0
 93
        0
 94
       63
282
     0
 72
     1
 77
     1
171
     1
175
     1
179
     1
273
     0
  0
XRECORD
  5
6EA3
102
{ACAD_REACTORS
330
6EA2
102
}
330
6EA2
100
AcDbXrecord
280
     1
102
ACAD_ROUNDTRIP_PRE2007_TABLESTYLE
 90
      512
 91
        0
  1

 92
      512
 93
        0
  2

 94
      512
 95
        0
  3

  0
ENDSEC
  0
EOF
