  0
SECTION
  2
HEADER
  9
$ACADVER
  1
AC1015
  9
$ACADMAINTVER
 70
    20
  9
$DWGCODEPAGE
  3
ANSI_932
  9
$INSBASE
 10
0.0
 20
0.0
 30
0.0
  9
$EXTMIN
 10
1457.545741366239
 20
363.6584894240532
 30
-0.0000000000000058
  9
$EXTMAX
 10
1986.454679041623
 20
737.5808496602799
 30
0.0000000000000104
  9
$LIMMIN
 10
0.0
 20
0.0
  9
$LIMMAX
 10
420.0
 20
297.0
  9
$ORTHOMODE
 70
     0
  9
$REGENMODE
 70
     1
  9
$FILLMODE
 70
     1
  9
$QTEXTMODE
 70
     0
  9
$MIRRTEXT
 70
     1
  9
$LTSCALE
 40
1.0
  9
$ATTMODE
 70
     1
  9
$TEXTSIZE
 40
5.0
  9
$TRACEWID
 40
0.05
  9
$TEXTSTYLE
  7
ACAD
  9
$CLAYER
  8
0
  9
$CELTYPE
  6
CONTINUOUS
  9
$CECOLOR
 62
   256
  9
$CELTSCALE
 40
1.0
  9
$DISPSILH
 70
     0
  9
$DIMSCALE
 40
1.0
  9
$DIMASZ
 40
1.0
  9
$DIMEXO
 40
0.0
  9
$DIMDLI
 40
0.38
  9
$DIMRND
 40
0.0
  9
$DIMDLE
 40
0.0
  9
$DIMEXE
 40
0.0
  9
$DIMTP
 40
0.0
  9
$DIMTM
 40
0.0
  9
$DIMTXT
 40
3.0
  9
$DIMCEN
 40
0.09
  9
$DIMTSZ
 40
0.0
  9
$DIMTOL
 70
     0
  9
$DIMLIM
 70
     0
  9
$DIMTIH
 70
     0
  9
$DIMTOH
 70
     1
  9
$DIMSE1
 70
     0
  9
$DIMSE2
 70
     0
  9
$DIMTAD
 70
     1
  9
$DIMZIN
 70
     0
  9
$DIMBLK
  1
Dot
  9
$DIMASO
 70
     1
  9
$DIMSHO
 70
     1
  9
$DIMPOST
  1

  9
$DIMAPOST
  1

  9
$DIMALT
 70
     0
  9
$DIMALTD
 70
     2
  9
$DIMALTF
 40
25.4
  9
$DIMLFAC
 40
1.0
  9
$DIMTOFL
 70
     0
  9
$DIMTVP
 40
0.0
  9
$DIMTIX
 70
     1
  9
$DIMSOXD
 70
     0
  9
$DIMSAH
 70
     0
  9
$DIMBLK1
  1

  9
$DIMBLK2
  1

  9
$DIMSTYLE
  2
AutoCAD
  9
$DIMCLRD
 70
     4
  9
$DIMCLRE
 70
     4
  9
$DIMCLRT
 70
     3
  9
$DIMTFAC
 40
1.0
  9
$DIMGAP
 40
1.0
  9
$DIMJUST
 70
     0
  9
$DIMSD1
 70
     0
  9
$DIMSD2
 70
     0
  9
$DIMTOLJ
 70
     1
  9
$DIMTZIN
 70
     0
  9
$DIMALTZ
 70
     0
  9
$DIMALTTZ
 70
     0
  9
$DIMUPT
 70
     0
  9
$DIMDEC
 70
     0
  9
$DIMTDEC
 70
     0
  9
$DIMALTU
 70
     2
  9
$DIMALTTD
 70
     2
  9
$DIMTXSTY
  7
ACAD
  9
$DIMAUNIT
 70
     0
  9
$DIMADEC
 70
     0
  9
$DIMALTRND
 40
0.0
  9
$DIMAZIN
 70
     0
  9
$DIMDSEP
 70
    46
  9
$DIMATFIT
 70
     0
  9
$DIMFRAC
 70
     0
  9
$DIMLDRBLK
  1
None
  9
$DIMLUNIT
 70
     2
  9
$DIMLWD
 70
    -2
  9
$DIMLWE
 70
    -2
  9
$DIMTMOVE
 70
     0
  9
$LUNITS
 70
     2
  9
$LUPREC
 70
     4
  9
$SKETCHINC
 40
0.1
  9
$FILLETRAD
 40
0.0
  9
$AUNITS
 70
     0
  9
$AUPREC
 70
     0
  9
$MENU
  1
.
  9
$ELEVATION
 40
0.0
  9
$PELEVATION
 40
0.0
  9
$THICKNESS
 40
0.0
  9
$LIMCHECK
 70
     0
  9
$CHAMFERA
 40
0.0
  9
$CHAMFERB
 40
0.0
  9
$CHAMFERC
 40
0.0
  9
$CHAMFERD
 40
0.0
  9
$SKPOLY
 70
     0
  9
$TDCREATE
 40
2454316.693457674
  9
$TDUCREATE
 40
2454316.318457674
  9
$TDUPDATE
 40
2454736.422645579
  9
$TDUUPDATE
 40
2454736.047645579
  9
$TDINDWG
 40
0.2628156829
  9
$TDUSRTIMER
 40
0.2628156829
  9
$USRTIMER
 70
     1
  9
$ANGBASE
 50
0.0
  9
$ANGDIR
 70
     0
  9
$PDMODE
 70
     0
  9
$PDSIZE
 40
0.0
  9
$PLINEWID
 40
0.0
  9
$SPLFRAME
 70
     0
  9
$SPLINETYPE
 70
     6
  9
$SPLINESEGS
 70
     8
  9
$HANDSEED
  5
7767
  9
$SURFTAB1
 70
     6
  9
$SURFTAB2
 70
     6
  9
$SURFTYPE
 70
     6
  9
$SURFU
 70
     6
  9
$SURFV
 70
     6
  9
$UCSBASE
  2

  9
$UCSNAME
  2

  9
$UCSORG
 10
0.0
 20
0.0
 30
0.0
  9
$UCSXDIR
 10
1.0
 20
0.0
 30
0.0
  9
$UCSYDIR
 10
0.0
 20
1.0
 30
0.0
  9
$UCSORTHOREF
  2

  9
$UCSORTHOVIEW
 70
     0
  9
$UCSORGTOP
 10
0.0
 20
0.0
 30
0.0
  9
$UCSORGBOTTOM
 10
0.0
 20
0.0
 30
0.0
  9
$UCSORGLEFT
 10
0.0
 20
0.0
 30
0.0
  9
$UCSORGRIGHT
 10
0.0
 20
0.0
 30
0.0
  9
$UCSORGFRONT
 10
0.0
 20
0.0
 30
0.0
  9
$UCSORGBACK
 10
0.0
 20
0.0
 30
0.0
  9
$PUCSBASE
  2

  9
$PUCSNAME
  2

  9
$PUCSORG
 10
0.0
 20
0.0
 30
0.0
  9
$PUCSXDIR
 10
1.0
 20
0.0
 30
0.0
  9
$PUCSYDIR
 10
0.0
 20
1.0
 30
0.0
  9
$PUCSORTHOREF
  2

  9
$PUCSORTHOVIEW
 70
     0
  9
$PUCSORGTOP
 10
0.0
 20
0.0
 30
0.0
  9
$PUCSORGBOTTOM
 10
0.0
 20
0.0
 30
0.0
  9
$PUCSORGLEFT
 10
0.0
 20
0.0
 30
0.0
  9
$PUCSORGRIGHT
 10
0.0
 20
0.0
 30
0.0
  9
$PUCSORGFRONT
 10
0.0
 20
0.0
 30
0.0
  9
$PUCSORGBACK
 10
0.0
 20
0.0
 30
0.0
  9
$USERI1
 70
     0
  9
$USERI2
 70
     0
  9
$USERI3
 70
     0
  9
$USERI4
 70
     0
  9
$USERI5
 70
     0
  9
$USERR1
 40
0.0
  9
$USERR2
 40
0.0
  9
$USERR3
 40
0.0
  9
$USERR4
 40
0.0
  9
$USERR5
 40
0.0
  9
$WORLDVIEW
 70
     1
  9
$SHADEDGE
 70
     3
  9
$SHADEDIF
 70
    70
  9
$TILEMODE
 70
     1
  9
$MAXACTVP
 70
    48
  9
$PINSBASE
 10
0.0
 20
0.0
 30
0.0
  9
$PLIMCHECK
 70
     0
  9
$PEXTMIN
 10
1.000000000000000E+20
 20
1.000000000000000E+20
 30
1.000000000000000E+20
  9
$PEXTMAX
 10
-1.000000000000000E+20
 20
-1.000000000000000E+20
 30
-1.000000000000000E+20
  9
$PLIMMIN
 10
0.0
 20
0.0
  9
$PLIMMAX
 10
12.0
 20
9.0
  9
$UNITMODE
 70
     0
  9
$VISRETAIN
 70
     0
  9
$PLINEGEN
 70
     0
  9
$PSLTSCALE
 70
     1
  9
$TREEDEPTH
 70
  3020
  9
$CMLSTYLE
  2
Standard
  9
$CMLJUST
 70
     0
  9
$CMLSCALE
 40
1.0
  9
$PROXYGRAPHICS
 70
     1
  9
$MEASUREMENT
 70
     0
  9
$CELWEIGHT
370
    -1
  9
$ENDCAPS
280
     0
  9
$JOINSTYLE
280
     0
  9
$LWDISPLAY
290
     0
  9
$INSUNITS
 70
     0
  9
$HYPERLINKBASE
  1

  9
$STYLESHEET
  1

  9
$XEDIT
290
     1
  9
$CEPSNTYPE
380
     0
  9
$PSTYLEMODE
290
     1
  9
$FINGERPRINTGUID
  2
{CC7D6DEE-A9F1-4F3E-AC95-C84B62CCA3FD}
  9
$VERSIONGUID
  2
{758A9B88-3AA9-4B71-8C18-D71B8503FD09}
  9
$EXTNAMES
290
     1
  9
$PSVPSCALE
 40
0.0
  9
$OLESTARTUP
290
     0
  0
ENDSEC
  0
SECTION
  2
CLASSES
  0
CLASS
  1
ACDBDICTIONARYWDFLT
  2
AcDbDictionaryWithDefault
  3
ObjectDBX Classes
 90
        0
280
     0
281
     0
  0
CLASS
  1
ACDBPLACEHOLDER
  2
AcDbPlaceHolder
  3
ObjectDBX Classes
 90
        0
280
     0
281
     0
  0
CLASS
  1
LAYOUT
  2
AcDbLayout
  3
ObjectDBX Classes
 90
        0
280
     0
281
     0
  0
CLASS
  1
DICTIONARYVAR
  2
AcDbDictionaryVar
  3
ObjectDBX Classes
 90
        0
280
     0
281
     0
  0
CLASS
  1
MATERIAL
  2
AcDbMaterial
  3
ObjectDBX Classes
 90
     1153
280
     0
281
     0
  0
CLASS
  1
VISUALSTYLE
  2
AcDbVisualStyle
  3
ObjectDBX Classes
 90
     4095
280
     0
281
     0
  0
CLASS
  1
TABLESTYLE
  2
AcDbTableStyle
  3
ObjectDBX Classes
 90
     4095
280
     0
281
     0
  0
ENDSEC
  0
SECTION
  2
TABLES
  0
TABLE
  2
VPORT
  5
8
102
{ACAD_XDICTIONARY
360
76FC
102
}
330
0
100
AcDbSymbolTable
 70
     1
  0
VPORT
  5
75F2
330
8
100
AcDbSymbolTableRecord
100
AcDbViewportTableRecord
  2
*Active
 70
     0
 10
0.0
 20
0.0
 11
1.0
 21
1.0
 12
1722.000210203931
 22
550.6196695421665
 13
0.0
 23
0.0
 14
1.0
 24
1.0
 15
0.0
 25
0.0
 16
0.0
 26
0.0
 36
1.0
 17
0.0
 27
0.0
 37
0.0
 40
376.8398298869645
 41
1.571614583333333
 42
50.0
 43
0.0
 44
0.0
 50
0.0
 51
0.0
 71
     0
 72
   100
 73
     1
 74
     1
 75
     0
 76
     0
 77
     0
 78
     0
281
     0
 65
     1
110
0.0
120
0.0
130
0.0
111
1.0
121
0.0
131
0.0
112
0.0
122
1.0
132
0.0
 79
     0
146
0.0
  0
ENDTAB
  0
TABLE
  2
LTYPE
  5
5
330
0
100
AcDbSymbolTable
 70
    51
  0
LTYPE
  5
13
330
5
100
AcDbSymbolTableRecord
100
AcDbLinetypeTableRecord
  2
ByBlock
 70
     0
  3

 72
    65
 73
     0
 40
0.0
  0
LTYPE
  5
14
330
5
100
AcDbSymbolTableRecord
100
AcDbLinetypeTableRecord
  2
ByLayer
 70
     0
  3

 72
    65
 73
     0
 40
0.0
  0
LTYPE
  5
15
330
5
100
AcDbSymbolTableRecord
100
AcDbLinetypeTableRecord
  2
CONTINUOUS
 70
     0
  3
実線
 72
    65
 73
     0
 40
0.0
  0
LTYPE
  5
22
330
5
100
AcDbSymbolTableRecord
100
AcDbLinetypeTableRecord
  2
DASHED1
 70
     0
  3
--  --  --  --  --  --  --  --  
 72
    65
 73
     2
 40
2.5
 49
1.25
 74
     0
 49
-1.25
 74
     0
  0
LTYPE
  5
23
330
5
100
AcDbSymbolTableRecord
100
AcDbLinetypeTableRecord
  2
DASHED2
 70
     0
  3
----    ----    ----    ----    
 72
    65
 73
     2
 40
5.0
 49
2.5
 74
     0
 49
-2.5
 74
     0
  0
LTYPE
  5
24
330
5
100
AcDbSymbolTableRecord
100
AcDbLinetypeTableRecord
  2
DASHED3
 70
     0
  3
------  ------  ------  ------  
 72
    65
 73
     2
 40
5.0
 49
3.75
 74
     0
 49
-1.25
 74
     0
  0
LTYPE
  5
25
330
5
100
AcDbSymbolTableRecord
100
AcDbLinetypeTableRecord
  2
CENTER1
 70
     0
  3
----- - ----- - ----- - ----- - 
 72
    65
 73
     4
 40
10.0
 49
6.25
 74
     0
 49
-1.25
 74
     0
 49
1.25
 74
     0
 49
-1.25
 74
     0
  0
LTYPE
  5
26
330
5
100
AcDbSymbolTableRecord
100
AcDbLinetypeTableRecord
  2
CENTER2
 70
     0
  3
----------  --  ----------  --  
 72
    65
 73
     4
 40
20.0
 49
12.5
 74
     0
 49
-2.5
 74
     0
 49
2.5
 74
     0
 49
-2.5
 74
     0
  0
LTYPE
  5
27
330
5
100
AcDbSymbolTableRecord
100
AcDbLinetypeTableRecord
  2
PHANTOM1
 70
     0
  3
--- - - --- - - --- - - --- - - 
 72
    65
 73
     6
 40
10.0
 49
3.25
 74
     0
 49
-1.25
 74
     0
 49
1.25
 74
     0
 49
-1.25
 74
     0
 49
1.25
 74
     0
 49
-1.25
 74
     0
  0
LTYPE
  5
28
330
5
100
AcDbSymbolTableRecord
100
AcDbLinetypeTableRecord
  2
PHANTOM2
 70
     0
  3
--------  -  -  --------  -  -  
 72
    65
 73
     6
 40
20.0
 49
10.0
 74
     0
 49
-2.5
 74
     0
 49
1.25
 74
     0
 49
-2.5
 74
     0
 49
1.25
 74
     0
 49
-2.5
 74
     0
  0
LTYPE
  5
29
330
5
100
AcDbSymbolTableRecord
100
AcDbLinetypeTableRecord
  2
DOT
 70
     0
  3
-   -   -   -   -   -   -   -   
 72
    65
 73
     2
 40
2.5
 49
0.625
 74
     0
 49
-1.875
 74
     0
  0
LTYPE
  5
2A
330
5
100
AcDbSymbolTableRecord
100
AcDbLinetypeTableRecord
  2
DUMMY
 70
     0
  3
ダミー
 72
    65
 73
     0
 40
0.0
  0
LTYPE
  5
2B
330
5
100
AcDbSymbolTableRecord
100
AcDbLinetypeTableRecord
  2
RAND1
 70
     0
  3
ランダム線1
 72
    65
 73
     4
 40
10.0
 49
1.0
 74
     0
 49
-2.0
 74
     0
 49
3.0
 74
     0
 49
-4.0
 74
     0
  0
LTYPE
  5
2C
330
5
100
AcDbSymbolTableRecord
100
AcDbLinetypeTableRecord
  2
RAND2
 70
     0
  3
ランダム線2
 72
    65
 73
     4
 40
14.0
 49
2.0
 74
     0
 49
-3.0
 74
     0
 49
4.0
 74
     0
 49
-5.0
 74
     0
  0
LTYPE
  5
2D
330
5
100
AcDbSymbolTableRecord
100
AcDbLinetypeTableRecord
  2
RAND3
 70
     0
  3
ランダム線3
 72
    65
 73
     4
 40
18.0
 49
3.0
 74
     0
 49
-4.0
 74
     0
 49
5.0
 74
     0
 49
-6.0
 74
     0
  0
LTYPE
  5
2E
330
5
100
AcDbSymbolTableRecord
100
AcDbLinetypeTableRecord
  2
RAND4
 70
     0
  3
ランダム線4
 72
    65
 73
     4
 40
22.0
 49
4.0
 74
     0
 49
-5.0
 74
     0
 49
6.0
 74
     0
 49
-7.0
 74
     0
  0
LTYPE
  5
2F
330
5
100
AcDbSymbolTableRecord
100
AcDbLinetypeTableRecord
  2
RAND5
 70
     0
  3
ランダム線5
 72
    65
 73
     4
 40
26.0
 49
5.0
 74
     0
 49
-6.0
 74
     0
 49
7.0
 74
     0
 49
-8.0
 74
     0
  0
LTYPE
  5
30
330
5
100
AcDbSymbolTableRecord
100
AcDbLinetypeTableRecord
  2
LONG1
 70
     0
  3
----------  --  ----------  --  
 72
    65
 73
     4
 40
40.0
 49
32.5
 74
     0
 49
-2.5
 74
     0
 49
2.5
 74
     0
 49
-2.5
 74
     0
  0
LTYPE
  5
31
330
5
100
AcDbSymbolTableRecord
100
AcDbLinetypeTableRecord
  2
LONG2
 70
     0
  3
--------  -  -  --------  -  -  
 72
    65
 73
     6
 40
40.0
 49
30.0
 74
     0
 49
-2.5
 74
     0
 49
1.25
 74
     0
 49
-2.5
 74
     0
 49
1.25
 74
     0
 49
-2.5
 74
     0
  0
LTYPE
  5
32
330
5
100
AcDbSymbolTableRecord
100
AcDbLinetypeTableRecord
  2
LONG3
 70
     0
  3
+++++++++++++++..+++++++++++++++
 72
    65
 73
     2
 40
40.0
 49
37.5
 74
     0
 49
-2.5
 74
     0
  0
LTYPE
  5
33
330
5
100
AcDbSymbolTableRecord
100
AcDbLinetypeTableRecord
  2
LONG4
 70
     0
  3
+++++++++++++++..+++++++++++++++
 72
    65
 73
     2
 40
80.0
 49
75.0
 74
     0
 49
-5.0
 74
     0
  0
LTYPE
  5
34
330
5
100
AcDbSymbolTableRecord
100
AcDbLinetypeTableRecord
  2
LONG5
 70
     0
  3
----------  --  ----------  --  
 72
    65
 73
     4
 40
60.0
 49
37.5
 74
     0
 49
-7.5
 74
     0
 49
7.5
 74
     0
 49
-7.5
 74
     0
  0
LTYPE
  5
35
330
5
100
AcDbSymbolTableRecord
100
AcDbLinetypeTableRecord
  2
DASHED
 70
     0
  3
-------   -------------   ------
 72
    65
 73
     2
 40
7.5
 49
6.0
 74
     0
 49
-1.5
 74
     0
  0
LTYPE
  5
36
330
5
100
AcDbSymbolTableRecord
100
AcDbLinetypeTableRecord
  2
DASHED_SPACED
 70
     0
  3
----        --------        ----
 72
    65
 73
     2
 40
12.0
 49
6.0
 74
     0
 49
-6.0
 74
     0
  0
LTYPE
  5
37
330
5
100
AcDbSymbolTableRecord
100
AcDbLinetypeTableRecord
  2
LONG_DASHED_DOTTED
 70
     0
  3
------------- --- --------------
 72
    65
 73
     4
 40
15.25
 49
12.0
 74
     0
 49
-1.5
 74
     0
 49
0.25
 74
     0
 49
-1.5
 74
     0
  0
LTYPE
  5
38
330
5
100
AcDbSymbolTableRecord
100
AcDbLinetypeTableRecord
  2
LONG_DASHED_DOUBLE-DOTTED
 70
     0
  3
----------- --- --- ------------
 72
    65
 73
     6
 40
17.0
 49
12.0
 74
     0
 49
-1.5
 74
     0
 49
0.25
 74
     0
 49
-1.5
 74
     0
 49
0.25
 74
     0
 49
-1.5
 74
     0
  0
LTYPE
  5
39
330
5
100
AcDbSymbolTableRecord
100
AcDbLinetypeTableRecord
  2
LONG_DASHED_TRIPLICATE-DOTTED
 70
     0
  3
--------- --- --- --- ----------
 72
    65
 73
     8
 40
18.75
 49
12.0
 74
     0
 49
-1.5
 74
     0
 49
0.25
 74
     0
 49
-1.5
 74
     0
 49
0.25
 74
     0
 49
-1.5
 74
     0
 49
0.25
 74
     0
 49
-1.5
 74
     0
  0
LTYPE
  5
3A
330
5
100
AcDbSymbolTableRecord
100
AcDbLinetypeTableRecord
  2
DOTTED
 70
     0
  3
   -       -       -       -    
 72
    65
 73
     2
 40
1.75
 49
0.25
 74
     0
 49
-1.5
 74
     0
  0
LTYPE
  5
3B
330
5
100
AcDbSymbolTableRecord
100
AcDbLinetypeTableRecord
  2
CHAIN
 70
     0
  3
-------------- -- --------------
 72
    65
 73
     4
 40
18.5
 49
12.0
 74
     0
 49
-1.5
 74
     0
 49
3.5
 74
     0
 49
-1.5
 74
     0
  0
LTYPE
  5
3C
330
5
100
AcDbSymbolTableRecord
100
AcDbLinetypeTableRecord
  2
CHAIN_DOUBLE_DASH
 70
     0
  3
------------ -- -- -------------
 72
    65
 73
     6
 40
23.5
 49
12.0
 74
     0
 49
-1.5
 74
     0
 49
3.5
 74
     0
 49
-1.5
 74
     0
 49
3.5
 74
     0
 49
-1.5
 74
     0
  0
LTYPE
  5
3D
330
5
100
AcDbSymbolTableRecord
100
AcDbLinetypeTableRecord
  2
DASHED_DOTTED
 70
     0
  3
-----------     -     ----------
 72
    65
 73
     4
 40
9.25
 49
6.0
 74
     0
 49
-1.5
 74
     0
 49
0.25
 74
     0
 49
-1.5
 74
     0
  0
LTYPE
  5
3E
330
5
100
AcDbSymbolTableRecord
100
AcDbLinetypeTableRecord
  2
DOUBLE-DASHED_DOTTED
 70
     0
  3
------   -----------   -   -----
 72
    65
 73
     6
 40
16.75
 49
6.0
 74
     0
 49
-1.5
 74
     0
 49
6.0
 74
     0
 49
-1.5
 74
     0
 49
0.25
 74
     0
 49
-1.5
 74
     0
  0
LTYPE
  5
3F
330
5
100
AcDbSymbolTableRecord
100
AcDbLinetypeTableRecord
  2
DASHED_DOUBLE-DOTTED
 70
     0
  3
---------    -    -    ---------
 72
    65
 73
     6
 40
11.0
 49
6.0
 74
     0
 49
-1.5
 74
     0
 49
0.25
 74
     0
 49
-1.5
 74
     0
 49
0.25
 74
     0
 49
-1.5
 74
     0
  0
LTYPE
  5
40
330
5
100
AcDbSymbolTableRecord
100
AcDbLinetypeTableRecord
  2
DOUBLE-DASHED_DOUBLE-DOTTED
 70
     0
  3
-----   ---------   -   -   ----
 72
    65
 73
     8
 40
18.5
 49
6.0
 74
     0
 49
-1.5
 74
     0
 49
6.0
 74
     0
 49
-1.5
 74
     0
 49
0.25
 74
     0
 49
-1.5
 74
     0
 49
0.25
 74
     0
 49
-1.5
 74
     0
  0
LTYPE
  5
41
330
5
100
AcDbSymbolTableRecord
100
AcDbLinetypeTableRecord
  2
DASHED_TRIPLICATE-DOTTED
 70
     0
  3
-------    -    -    -    ------
 72
    65
 73
     8
 40
12.75
 49
6.0
 74
     0
 49
-1.5
 74
     0
 49
0.25
 74
     0
 49
-1.5
 74
     0
 49
0.25
 74
     0
 49
-1.5
 74
     0
 49
0.25
 74
     0
 49
-1.5
 74
     0
  0
LTYPE
  5
42
330
5
100
AcDbSymbolTableRecord
100
AcDbLinetypeTableRecord
  2
DOUBLE-DASHED_TRIPLICATE-DOTTED
 70
     0
  3
-----  ---------  -  -  -  -----
 72
    65
 73
    10
 40
20.25
 49
6.0
 74
     0
 49
-1.5
 74
     0
 49
6.0
 74
     0
 49
-1.5
 74
     0
 49
0.25
 74
     0
 49
-1.5
 74
     0
 49
0.25
 74
     0
 49
-1.5
 74
     0
 49
0.25
 74
     0
 49
-1.5
 74
     0
  0
LTYPE
  5
43
330
5
100
AcDbSymbolTableRecord
100
AcDbLinetypeTableRecord
  2
UNDEFINED
 70
     0
  3
--------------------------------
 72
    65
 73
     0
 40
0.0
  0
LTYPE
  5
44
330
5
100
AcDbSymbolTableRecord
100
AcDbLinetypeTableRecord
  2
PLINE2
 70
     0
  3
------     -----------     -----
 72
    65
 73
     2
 40
3.0
 49
2.1
 74
     0
 49
-0.9
 74
     0
  0
LTYPE
  5
45
330
5
100
AcDbSymbolTableRecord
100
AcDbLinetypeTableRecord
  2
PLINE3
 70
     0
  3
------------   ---   -----------
 72
    65
 73
     4
 40
10.0
 49
7.0
 74
     0
 49
-1.0
 74
     0
 49
1.0
 74
     0
 49
-1.0
 74
     0
  0
LTYPE
  5
46
330
5
100
AcDbSymbolTableRecord
100
AcDbLinetypeTableRecord
  2
PLINE4
 70
     0
  3
---------   ---   ---   --------
 72
    65
 73
     6
 40
10.0
 49
5.0
 74
     0
 49
-1.0
 74
     0
 49
1.0
 74
     0
 49
-1.0
 74
     0
 49
1.0
 74
     0
 49
-1.0
 74
     0
  0
LTYPE
  5
47
330
5
100
AcDbSymbolTableRecord
100
AcDbLinetypeTableRecord
  2
PLINE5
 70
     0
  3
------     -----------     -----
 72
    65
 73
     2
 40
5.0
 49
3.5
 74
     0
 49
-1.5
 74
     0
  0
LTYPE
  5
48
330
5
100
AcDbSymbolTableRecord
100
AcDbLinetypeTableRecord
  2
PLINE6
 70
     0
  3
------------   ---   -----------
 72
    65
 73
     4
 40
15.0
 49
10.5
 74
     0
 49
-1.5
 74
     0
 49
1.5
 74
     0
 49
-1.5
 74
     0
  0
LTYPE
  5
49
330
5
100
AcDbSymbolTableRecord
100
AcDbLinetypeTableRecord
  2
PLINE7
 70
     0
  3
---------   ---   ---   --------
 72
    65
 73
     6
 40
15.0
 49
7.5
 74
     0
 49
-1.5
 74
     0
 49
1.5
 74
     0
 49
-1.5
 74
     0
 49
1.5
 74
     0
 49
-1.5
 74
     0
  0
LTYPE
  5
4A
330
5
100
AcDbSymbolTableRecord
100
AcDbLinetypeTableRecord
  2
PLINE8
 70
     0
  3
------     -----------     -----
 72
    65
 73
     2
 40
7.0
 49
4.9
 74
     0
 49
-2.1
 74
     0
  0
LTYPE
  5
4B
330
5
100
AcDbSymbolTableRecord
100
AcDbLinetypeTableRecord
  2
PLINE9
 70
     0
  3
------------   ---   -----------
 72
    65
 73
     4
 40
20.0
 49
14.0
 74
     0
 49
-2.0
 74
     0
 49
2.0
 74
     0
 49
-2.0
 74
     0
  0
LTYPE
  5
4C
330
5
100
AcDbSymbolTableRecord
100
AcDbLinetypeTableRecord
  2
PLINE10
 70
     0
  3
---------   ---   ---   --------
 72
    65
 73
     6
 40
20.0
 49
10.0
 74
     0
 49
-2.0
 74
     0
 49
2.0
 74
     0
 49
-2.0
 74
     0
 49
2.0
 74
     0
 49
-2.0
 74
     0
  0
LTYPE
  5
4D
330
5
100
AcDbSymbolTableRecord
100
AcDbLinetypeTableRecord
  2
PLINE11
 70
     0
  3
------     -----------     -----
 72
    65
 73
     2
 40
9.0
 49
6.299999999999999
 74
     0
 49
-2.7
 74
     0
  0
LTYPE
  5
4E
330
5
100
AcDbSymbolTableRecord
100
AcDbLinetypeTableRecord
  2
PLINE12
 70
     0
  3
------------   ---   -----------
 72
    65
 73
     4
 40
25.0
 49
17.5
 74
     0
 49
-2.5
 74
     0
 49
2.5
 74
     0
 49
-2.5
 74
     0
  0
LTYPE
  5
4F
330
5
100
AcDbSymbolTableRecord
100
AcDbLinetypeTableRecord
  2
PLINE13
 70
     0
  3
---------   ---   ---   --------
 72
    65
 73
     6
 40
25.0
 49
12.5
 74
     0
 49
-2.5
 74
     0
 49
2.5
 74
     0
 49
-2.5
 74
     0
 49
2.5
 74
     0
 49
-2.5
 74
     0
  0
LTYPE
  5
50
330
5
100
AcDbSymbolTableRecord
100
AcDbLinetypeTableRecord
  2
PLINE14
 70
     0
  3
------     -----------     -----
 72
    65
 73
     2
 40
11.0
 49
7.7
 74
     0
 49
-3.299999999999999
 74
     0
  0
LTYPE
  5
51
330
5
100
AcDbSymbolTableRecord
100
AcDbLinetypeTableRecord
  2
PLINE15
 70
     0
  3
------------   ---   -----------
 72
    65
 73
     4
 40
30.0
 49
21.0
 74
     0
 49
-3.0
 74
     0
 49
3.0
 74
     0
 49
-3.0
 74
     0
  0
LTYPE
  5
52
330
5
100
AcDbSymbolTableRecord
100
AcDbLinetypeTableRecord
  2
PLINE16
 70
     0
  3
---------   ---   ---   --------
 72
    65
 73
     6
 40
30.0
 49
15.0
 74
     0
 49
-3.0
 74
     0
 49
3.0
 74
     0
 49
-3.0
 74
     0
 49
3.0
 74
     0
 49
-3.0
 74
     0
  0
ENDTAB
  0
TABLE
  2
LAYER
  5
2
102
{ACAD_XDICTIONARY
360
175
102
}
330
0
100
AcDbSymbolTable
 70
     5
  0
LAYER
  5
10
330
2
100
AcDbSymbolTableRecord
100
AcDbLayerTableRecord
  2
0
 70
     0
 62
     7
  6
CONTINUOUS
370
    -3
390
F
  0
LAYER
  5
128
330
2
100
AcDbSymbolTableRecord
100
AcDbLayerTableRecord
  2
Defpoints
 70
     0
 62
     7
  6
CONTINUOUS
290
     0
370
    -3
390
F
  0
LAYER
  5
178
330
2
100
AcDbSymbolTableRecord
100
AcDbLayerTableRecord
  2
寸法
 70
     0
 62
     7
  6
CONTINUOUS
370
    -3
390
F
  0
LAYER
  5
179
330
2
100
AcDbSymbolTableRecord
100
AcDbLayerTableRecord
  2
躯体と製品
 70
     0
 62
     7
  6
CONTINUOUS
370
    -3
390
F
  0
LAYER
  5
7510
330
2
100
AcDbSymbolTableRecord
100
AcDbLayerTableRecord
  2
文字-記号
 70
     0
 62
     7
  6
CONTINUOUS
370
    -3
390
F
  0
ENDTAB
  0
TABLE
  2
STYLE
  5
3
330
0
100
AcDbSymbolTable
 70
     4
  0
STYLE
  5
11
330
3
100
AcDbSymbolTableRecord
100
AcDbTextStyleTableRecord
  2
STANDARD
 70
     0
 40
0.0
 41
1.0
 50
0.0
 71
     0
 42
0.2
  3
txt
  4
bigfont.shx
  0
STYLE
  5
53
330
3
100
AcDbSymbolTableRecord
100
AcDbTextStyleTableRecord
  2
TATEGAKI
 70
     4
 40
0.0
 41
1.0
 50
0.0
 71
     0
 42
1.0
  3
txt
  4
bigfont.shx
  0
STYLE
  5
123
330
3
100
AcDbSymbolTableRecord
100
AcDbTextStyleTableRecord
  2
ACAD
 70
     0
 40
3.0
 41
0.8
 50
0.0
 71
     0
 42
5.0
  3
romans.shx
  4
extfont.shx
  0
STYLE
  5
3A5F
330
3
100
AcDbSymbolTableRecord
100
AcDbTextStyleTableRecord
  2
VERTXT
 70
     4
 40
0.0
 41
0.8582679999999999
 50
0.0
 71
     0
 42
3.5
  3
txt.shx
  4
BIGFONT
  0
ENDTAB
  0
TABLE
  2
VIEW
  5
6
330
0
100
AcDbSymbolTable
 70
     0
  0
ENDTAB
  0
TABLE
  2
UCS
  5
7
330
0
100
AcDbSymbolTable
 70
     0
  0
ENDTAB
  0
TABLE
  2
APPID
  5
9
330
0
100
AcDbSymbolTable
 70
     2
  0
APPID
  5
12
330
9
100
AcDbSymbolTableRecord
100
AcDbRegAppTableRecord
  2
ACAD
 70
     0
  0
APPID
  5
773C
330
9
100
AcDbSymbolTableRecord
100
AcDbRegAppTableRecord
  2
ACAD_EXEMPT_FROM_CAD_STANDARDS
 70
     0
  0
ENDTAB
  0
TABLE
  2
DIMSTYLE
  5
A
330
0
100
AcDbSymbolTable
 70
     4
100
AcDbDimStyleTable
 71
     1
340
126
  0
DIMSTYLE
105
11C
330
A
100
AcDbSymbolTableRecord
100
AcDbDimStyleTableRecord
  2
Standard
 70
     0
340
11
  0
DIMSTYLE
105
126
102
{ACAD_REACTORS
330
6FC1
330
71DC
330
7269
330
726A
330
734D
330
73D2
330
73FC
330
73FD
102
}
330
A
100
AcDbSymbolTableRecord
100
AcDbDimStyleTableRecord
  2
AutoCAD
 70
     0
 41
1.0
 42
0.0
 44
0.0
 73
     0
 77
     1
140
3.0
147
1.0
174
     1
176
     4
177
     4
178
     3
271
     0
272
     0
289
     0
340
123
341
15B0
342
11E
  0
DIMSTYLE
105
2CBB
330
A
100
AcDbSymbolTableRecord
100
AcDbDimStyleTableRecord
  2
111
 70
     0
 41
1.0
 42
0.0
 44
0.0
 73
     0
 77
     1
140
5.0
147
1.0
174
     1
176
     4
177
     4
178
     3
271
     0
272
     0
289
     0
340
123
341
15B0
342
2CB5
  0
ENDTAB
  0
TABLE
  2
BLOCK_RECORD
  5
1
330
0
100
AcDbSymbolTable
 70
    13
  0
BLOCK_RECORD
  5
1E
102
{ACAD_XDICTIONARY
360
28B
102
}
330
1
100
AcDbSymbolTableRecord
100
AcDbBlockTableRecord
  2
*Model_Space
340
21
  0
BLOCK_RECORD
  5
1A
102
{ACAD_XDICTIONARY
360
28D
102
}
330
1
100
AcDbSymbolTableRecord
100
AcDbBlockTableRecord
  2
*Paper_Space
340
1D
  0
BLOCK_RECORD
  5
11E
330
1
100
AcDbSymbolTableRecord
100
AcDbBlockTableRecord
  2
_Dot
340
0
102
{BLKREFS
331
76BA
331
76BB
331
76C4
331
76C5
331
76CB
331
76CC
331
76D5
331
76D6
331
76DE
331
76DF
331
76E5
331
76E6
331
76EC
331
76ED
331
76F5
331
76F6
102
}
  0
BLOCK_RECORD
  5
15B0
330
1
100
AcDbSymbolTableRecord
100
AcDbBlockTableRecord
  2
_None
340
0
  0
BLOCK_RECORD
  5
2CB5
330
1
100
AcDbSymbolTableRecord
100
AcDbBlockTableRecord
  2
_Open30
340
0
  0
BLOCK_RECORD
  5
35E3
330
1
100
AcDbSymbolTableRecord
100
AcDbBlockTableRecord
  2
_DotBlank
340
0
  0
BLOCK_RECORD
  5
7474
330
1
100
AcDbSymbolTableRecord
100
AcDbBlockTableRecord
  2
*D4
340
0
  0
BLOCK_RECORD
  5
747E
330
1
100
AcDbSymbolTableRecord
100
AcDbBlockTableRecord
  2
*D5
340
0
  0
BLOCK_RECORD
  5
748B
330
1
100
AcDbSymbolTableRecord
100
AcDbBlockTableRecord
  2
*D6
340
0
  0
BLOCK_RECORD
  5
7495
330
1
100
AcDbSymbolTableRecord
100
AcDbBlockTableRecord
  2
*D7
340
0
  0
BLOCK_RECORD
  5
74A2
330
1
100
AcDbSymbolTableRecord
100
AcDbBlockTableRecord
  2
*D8
340
0
  0
BLOCK_RECORD
  5
74AE
330
1
100
AcDbSymbolTableRecord
100
AcDbBlockTableRecord
  2
*D9
340
0
  0
BLOCK_RECORD
  5
74B8
330
1
100
AcDbSymbolTableRecord
100
AcDbBlockTableRecord
  2
*D10
340
0
  0
BLOCK_RECORD
  5
74C2
330
1
100
AcDbSymbolTableRecord
100
AcDbBlockTableRecord
  2
*D11
340
0
  0
ENDTAB
  0
ENDSEC
  0
SECTION
  2
BLOCKS
  0
BLOCK
  5
1F
330
1E
100
AcDbEntity
  8
0
100
AcDbBlockBegin
  2
*Model_Space
 70
     0
 10
0.0
 20
0.0
 30
0.0
  3
*Model_Space
  1

  0
ENDBLK
  5
20
330
1E
100
AcDbEntity
  8
0
100
AcDbBlockEnd
  0
BLOCK
  5
1B
330
1A
100
AcDbEntity
 67
     1
  8
0
100
AcDbBlockBegin
  2
*Paper_Space
 70
     0
 10
0.0
 20
0.0
 30
0.0
  3
*Paper_Space
  1

  0
ENDBLK
  5
1C
330
1A
100
AcDbEntity
 67
     1
  8
0
100
AcDbBlockEnd
  0
BLOCK
  5
121
330
11E
100
AcDbEntity
  8
0
100
AcDbBlockBegin
  2
_Dot
 70
     0
 10
0.0
 20
0.0
 30
0.0
  3
_Dot
  1

  0
LWPOLYLINE
  5
11F
330
11E
100
AcDbEntity
  8
0
  6
ByBlock
 62
     0
100
AcDbPolyline
 90
        2
 70
     1
 43
0.5
 10
-0.25
 20
0.0
 42
1.0
 10
0.25
 20
0.0
 42
1.0
  0
LINE
  5
120
330
11E
100
AcDbEntity
  8
0
  6
ByBlock
 62
     0
370
    -2
100
AcDbLine
 10
-0.5
 20
0.0
 30
0.0
 11
-1.0
 21
0.0
 31
0.0
  0
ENDBLK
  5
122
330
11E
100
AcDbEntity
  8
0
100
AcDbBlockEnd
  0
BLOCK
  5
15B1
330
15B0
100
AcDbEntity
  8
0
100
AcDbBlockBegin
  2
_None
 70
     0
 10
0.0
 20
0.0
 30
0.0
  3
_None
  1

  0
ENDBLK
  5
15B2
330
15B0
100
AcDbEntity
  8
0
100
AcDbBlockEnd
  0
BLOCK
  5
2CB9
330
2CB5
100
AcDbEntity
  8
0
100
AcDbBlockBegin
  2
_Open30
 70
     0
 10
0.0
 20
0.0
 30
0.0
  3
_Open30
  1

  0
LINE
  5
2CB6
330
2CB5
100
AcDbEntity
  8
0
  6
ByBlock
 62
     0
370
    -2
100
AcDbLine
 10
-1.0
 20
0.26794919
 30
0.0
 11
0.0
 21
0.0
 31
0.0
  0
LINE
  5
2CB7
330
2CB5
100
AcDbEntity
  8
0
  6
ByBlock
 62
     0
370
    -2
100
AcDbLine
 10
0.0
 20
0.0
 30
0.0
 11
-1.0
 21
-0.26794919
 31
0.0
  0
LINE
  5
2CB8
330
2CB5
100
AcDbEntity
  8
0
  6
ByBlock
 62
     0
370
    -2
100
AcDbLine
 10
0.0
 20
0.0
 30
0.0
 11
-1.0
 21
0.0
 31
0.0
  0
ENDBLK
  5
2CBA
330
2CB5
100
AcDbEntity
  8
0
100
AcDbBlockEnd
  0
BLOCK
  5
35E6
330
35E3
100
AcDbEntity
  8
0
100
AcDbBlockBegin
  2
_DotBlank
 70
     0
 10
0.0
 20
0.0
 30
0.0
  3
_DotBlank
  1

  0
CIRCLE
  5
35E4
330
35E3
100
AcDbEntity
  8
0
  6
ByBlock
 62
     0
370
    -2
100
AcDbCircle
 10
0.0
 20
0.0
 30
0.0
 40
0.5
  0
LINE
  5
35E5
330
35E3
100
AcDbEntity
  8
0
  6
ByBlock
 62
     0
370
    -2
100
AcDbLine
 10
-0.5
 20
0.0
 30
0.0
 11
-1.0
 21
0.0
 31
0.0
  0
ENDBLK
  5
35E7
330
35E3
100
AcDbEntity
  8
0
100
AcDbBlockEnd
  0
BLOCK
  5
747C
330
7474
100
AcDbEntity
  8
0
100
AcDbBlockBegin
  2
*D4
 70
     1
 10
0.0
 20
0.0
 30
0.0
  3
*D4
  1

  0
LINE
  5
76B9
330
7474
100
AcDbEntity
  8
寸法
  6
Continuous
 62
     4
370
    -2
100
AcDbLine
 10
1542.787501800851
 20
682.7219085352071
 30
0.0
 11
1570.78750180085
 21
682.7219085352071
 31
0.0
  0
INSERT
  5
76BA
330
7474
100
AcDbEntity
  8
寸法
  6
Continuous
 62
     4
370
    -2
100
AcDbBlockReference
  2
_Dot
 10
1541.787501800851
 20
682.7219085352071
 30
0.0
 50
180.0
  0
INSERT
  5
76BB
330
7474
100
AcDbEntity
  8
寸法
  6
Continuous
 62
     4
370
    -2
100
AcDbBlockReference
  2
_Dot
 10
1571.787501800851
 20
682.7219085352071
 30
0.0
  0
MTEXT
  5
76BC
330
7474
100
AcDbEntity
  8
寸法
  6
Continuous
 62
     3
100
AcDbMText
 10
1556.787501800851
 20
685.0219085352071
 30
0.0
 40
3.0
 41
0.0
 71
     5
 72
     1
  1
\A1;150以内
  7
ACAD
 73
     1
 44
1.0
1001
ACAD
1000
MTEXTBEGIN
1070
    73
1070
     1
1070
    44
1040
1.0
1070
    74
1070
     0
1000
MTEXTEND
  0
POINT
  5
76BD
330
7474
100
AcDbEntity
  8
Defpoints
  6
Continuous
 62
     0
100
AcDbPoint
 10
1541.787501800851
 20
682.7219085352071
 30
0.0
  0
POINT
  5
76BE
330
7474
100
AcDbEntity
  8
Defpoints
  6
Continuous
 62
     0
100
AcDbPoint
 10
1571.787501800851
 20
682.7219085352071
 30
0.0
  0
POINT
  5
76BF
330
7474
100
AcDbEntity
  8
Defpoints
  6
Continuous
 62
     0
100
AcDbPoint
 10
1571.787501800851
 20
682.7219085352071
 30
0.0
  0
ENDBLK
  5
747D
330
7474
100
AcDbEntity
  8
0
100
AcDbBlockEnd
  0
BLOCK
  5
7489
330
747E
100
AcDbEntity
  8
0
100
AcDbBlockBegin
  2
*D5
 70
     1
 10
0.0
 20
0.0
 30
0.0
  3
*D5
  1

  0
LINE
  5
76C0
330
747E
100
AcDbEntity
  8
寸法
  6
Continuous
 62
     4
370
    -2
100
AcDbLine
 10
1592.787501800851
 20
550.0219085352073
 30
0.0
 11
1592.787501800851
 21
541.5219085352073
 31
0.0
  0
LINE
  5
76C1
330
747E
100
AcDbEntity
  8
寸法
  6
Continuous
 62
     4
370
    -2
100
AcDbLine
 10
1590.787501800851
 20
554.1219085352072
 30
0.0
 11
1590.787501800851
 21
541.5219085352073
 31
0.0
  0
LINE
  5
76C2
330
747E
100
AcDbEntity
  8
寸法
  6
Continuous
 62
     4
370
    -2
100
AcDbLine
 10
1593.787501800851
 20
541.5219085352073
 30
0.0
 11
1594.787501800851
 21
541.5219085352073
 31
0.0
  0
LINE
  5
76C3
330
747E
100
AcDbEntity
  8
寸法
  6
Continuous
 62
     4
370
    -2
100
AcDbLine
 10
1589.787501800851
 20
541.5219085352073
 30
0.0
 11
1588.787501800851
 21
541.5219085352073
 31
0.0
  0
INSERT
  5
76C4
330
747E
100
AcDbEntity
  8
寸法
  6
Continuous
 62
     4
370
    -2
100
AcDbBlockReference
  2
_Dot
 10
1592.787501800851
 20
541.5219085352073
 30
0.0
 50
180.0
  0
INSERT
  5
76C5
330
747E
100
AcDbEntity
  8
寸法
  6
Continuous
 62
     4
370
    -2
100
AcDbBlockReference
  2
_Dot
 10
1590.787501800851
 20
541.5219085352073
 30
0.0
  0
MTEXT
  5
76C6
330
747E
100
AcDbEntity
  8
寸法
  6
Continuous
 62
     3
100
AcDbMText
 10
1591.787501800851
 20
543.8219085352073
 30
0.0
 40
3.0
 41
0.0
 71
     5
 72
     1
  1
\A1;10
  7
ACAD
 73
     1
 44
1.0
1001
ACAD
1000
MTEXTBEGIN
1070
    73
1070
     1
1070
    44
1040
1.0
1070
    74
1070
     0
1000
MTEXTEND
  0
POINT
  5
76C7
330
747E
100
AcDbEntity
  8
Defpoints
  6
Continuous
 62
     0
100
AcDbPoint
 10
1592.787501800851
 20
550.0219085352073
 30
0.0
  0
POINT
  5
76C8
330
747E
100
AcDbEntity
  8
Defpoints
  6
Continuous
 62
     0
100
AcDbPoint
 10
1590.787501800851
 20
554.1219085352072
 30
0.0
  0
POINT
  5
76C9
330
747E
100
AcDbEntity
  8
Defpoints
  6
Continuous
 62
     0
100
AcDbPoint
 10
1590.787501800851
 20
541.5219085352073
 30
0.0
  0
ENDBLK
  5
748A
330
747E
100
AcDbEntity
  8
0
100
AcDbBlockEnd
  0
BLOCK
  5
7493
330
748B
100
AcDbEntity
  8
0
100
AcDbBlockBegin
  2
*D6
 70
     1
 10
0.0
 20
0.0
 30
0.0
  3
*D6
  1

  0
LINE
  5
76CA
330
748B
100
AcDbEntity
  8
寸法
  6
Continuous
 62
     4
370
    -2
100
AcDbLine
 10
1587.187501800851
 20
639.0219085352073
 30
0.0
 11
1615.187501800851
 21
639.0219085352073
 31
0.0
  0
INSERT
  5
76CB
330
748B
100
AcDbEntity
  8
寸法
  6
Continuous
 62
     4
370
    -2
100
AcDbBlockReference
  2
_Dot
 10
1586.187501800851
 20
639.0219085352073
 30
0.0
 50
180.0
  0
INSERT
  5
76CC
330
748B
100
AcDbEntity
  8
寸法
  6
Continuous
 62
     4
370
    -2
100
AcDbBlockReference
  2
_Dot
 10
1616.187501800851
 20
639.0219085352073
 30
0.0
  0
MTEXT
  5
76CD
330
748B
100
AcDbEntity
  8
寸法
  6
Continuous
 62
     3
100
AcDbMText
 10
1601.187501800851
 20
641.3219085352072
 30
0.0
 40
3.0
 41
0.0
 71
     5
 72
     1
  1
\A1;150
  7
ACAD
 73
     1
 44
1.0
1001
ACAD
1000
MTEXTBEGIN
1070
    73
1070
     1
1070
    44
1040
1.0
1070
    74
1070
     0
1000
MTEXTEND
  0
POINT
  5
76CE
330
748B
100
AcDbEntity
  8
Defpoints
  6
Continuous
 62
     0
100
AcDbPoint
 10
1586.187501800851
 20
639.0219085352073
 30
0.0
  0
POINT
  5
76CF
330
748B
100
AcDbEntity
  8
Defpoints
  6
Continuous
 62
     0
100
AcDbPoint
 10
1616.187501800851
 20
639.0219085352073
 30
0.0
  0
POINT
  5
76D0
330
748B
100
AcDbEntity
  8
Defpoints
  6
Continuous
 62
     0
100
AcDbPoint
 10
1616.187501800851
 20
639.0219085352073
 30
0.0
  0
ENDBLK
  5
7494
330
748B
100
AcDbEntity
  8
0
100
AcDbBlockEnd
  0
BLOCK
  5
74A0
330
7495
100
AcDbEntity
  8
0
100
AcDbBlockBegin
  2
*D7
 70
     1
 10
0.0
 20
0.0
 30
0.0
  3
*D7
  1

  0
LINE
  5
76D1
330
7495
100
AcDbEntity
  8
寸法
  6
Continuous
 62
     4
370
    -2
100
AcDbLine
 10
1565.787501800851
 20
630.5219085352073
 30
0.0
 11
1565.787501800851
 21
621.5219085352073
 31
0.0
  0
LINE
  5
76D2
330
7495
100
AcDbEntity
  8
寸法
  6
Continuous
 62
     4
370
    -2
100
AcDbLine
 10
1567.787501800851
 20
634.0219085352073
 30
0.0
 11
1567.787501800851
 21
621.5219085352073
 31
0.0
  0
LINE
  5
76D3
330
7495
100
AcDbEntity
  8
寸法
  6
Continuous
 62
     4
370
    -2
100
AcDbLine
 10
1564.787501800851
 20
621.5219085352073
 30
0.0
 11
1563.787501800851
 21
621.5219085352073
 31
0.0
  0
LINE
  5
76D4
330
7495
100
AcDbEntity
  8
寸法
  6
Continuous
 62
     4
370
    -2
100
AcDbLine
 10
1568.787501800851
 20
621.5219085352073
 30
0.0
 11
1569.787501800851
 21
621.5219085352073
 31
0.0
  0
INSERT
  5
76D5
330
7495
100
AcDbEntity
  8
寸法
  6
Continuous
 62
     4
370
    -2
100
AcDbBlockReference
  2
_Dot
 10
1565.787501800851
 20
621.5219085352073
 30
0.0
  0
INSERT
  5
76D6
330
7495
100
AcDbEntity
  8
寸法
  6
Continuous
 62
     4
370
    -2
100
AcDbBlockReference
  2
_Dot
 10
1567.787501800851
 20
621.5219085352073
 30
0.0
 50
180.0
  0
MTEXT
  5
76D7
330
7495
100
AcDbEntity
  8
寸法
  6
Continuous
 62
     3
100
AcDbMText
 10
1566.787501800851
 20
623.8219085352072
 30
0.0
 40
3.0
 41
0.0
 71
     5
 72
     1
  1
\A1;10
  7
ACAD
 73
     1
 44
1.0
1001
ACAD
1000
MTEXTBEGIN
1070
    73
1070
     1
1070
    44
1040
1.0
1070
    74
1070
     0
1000
MTEXTEND
  0
POINT
  5
76D8
330
7495
100
AcDbEntity
  8
Defpoints
  6
Continuous
 62
     0
100
AcDbPoint
 10
1565.787501800851
 20
630.5219085352073
 30
0.0
  0
POINT
  5
76D9
330
7495
100
AcDbEntity
  8
Defpoints
  6
Continuous
 62
     0
100
AcDbPoint
 10
1567.787501800851
 20
634.0219085352073
 30
0.0
  0
POINT
  5
76DA
330
7495
100
AcDbEntity
  8
Defpoints
  6
Continuous
 62
     0
100
AcDbPoint
 10
1567.787501800851
 20
621.5219085352073
 30
0.0
  0
ENDBLK
  5
74A1
330
7495
100
AcDbEntity
  8
0
100
AcDbBlockEnd
  0
BLOCK
  5
74AC
330
74A2
100
AcDbEntity
  8
0
100
AcDbBlockBegin
  2
*D8
 70
     1
 10
0.0
 20
0.0
 30
0.0
  3
*D8
  1

  0
LINE
  5
76DB
330
74A2
100
AcDbEntity
  8
寸法
  6
Continuous
 62
     4
370
    -2
100
AcDbLine
 10
1907.363744800851
 20
547.2058685352071
 30
0.0
 11
1907.363744800851
 21
538.7058685352071
 31
0.0
  0
LINE
  5
76DC
330
74A2
100
AcDbEntity
  8
寸法
  6
Continuous
 62
     4
370
    -2
100
AcDbLine
 10
1908.363744800851
 20
538.7058685352071
 30
0.0
 11
1909.363744800851
 21
538.7058685352071
 31
0.0
  0
LINE
  5
76DD
330
74A2
100
AcDbEntity
  8
寸法
  6
Continuous
 62
     4
370
    -2
100
AcDbLine
 10
1904.363744800851
 20
538.7058685352071
 30
0.0
 11
1903.363744800851
 21
538.7058685352071
 31
0.0
  0
INSERT
  5
76DE
330
74A2
100
AcDbEntity
  8
寸法
  6
Continuous
 62
     4
370
    -2
100
AcDbBlockReference
  2
_Dot
 10
1907.363744800851
 20
538.7058685352071
 30
0.0
 50
180.0
  0
INSERT
  5
76DF
330
74A2
100
AcDbEntity
  8
寸法
  6
Continuous
 62
     4
370
    -2
100
AcDbBlockReference
  2
_Dot
 10
1905.363744800851
 20
538.7058685352071
 30
0.0
  0
MTEXT
  5
76E0
330
74A2
100
AcDbEntity
  8
寸法
  6
Continuous
 62
     3
100
AcDbMText
 10
1906.363744800851
 20
541.0058685352071
 30
0.0
 40
3.0
 41
0.0
 71
     5
 72
     1
  1
\A1;10
  7
ACAD
 73
     1
 44
1.0
1001
ACAD
1000
MTEXTBEGIN
1070
    73
1070
     1
1070
    44
1040
1.0
1070
    74
1070
     0
1000
MTEXTEND
  0
POINT
  5
76E1
330
74A2
100
AcDbEntity
  8
Defpoints
  6
Continuous
 62
     0
100
AcDbPoint
 10
1907.363744800851
 20
547.2058685352071
 30
0.0
  0
POINT
  5
76E2
330
74A2
100
AcDbEntity
  8
Defpoints
  6
Continuous
 62
     0
100
AcDbPoint
 10
1905.363744800851
 20
538.7058685352071
 30
0.0
  0
POINT
  5
76E3
330
74A2
100
AcDbEntity
  8
Defpoints
  6
Continuous
 62
     0
100
AcDbPoint
 10
1905.363744800851
 20
538.7058685352071
 30
0.0
  0
ENDBLK
  5
74AD
330
74A2
100
AcDbEntity
  8
0
100
AcDbBlockEnd
  0
BLOCK
  5
74B6
330
74AE
100
AcDbEntity
  8
0
100
AcDbBlockBegin
  2
*D9
 70
     1
 10
0.0
 20
0.0
 30
0.0
  3
*D9
  1

  0
LINE
  5
76E4
330
74AE
100
AcDbEntity
  8
寸法
  6
Continuous
 62
     4
370
    -2
100
AcDbLine
 10
1859.863744800851
 20
679.9058685352074
 30
0.0
 11
1887.863744800851
 21
679.9058685352074
 31
0.0
  0
INSERT
  5
76E5
330
74AE
100
AcDbEntity
  8
寸法
  6
Continuous
 62
     4
370
    -2
100
AcDbBlockReference
  2
_Dot
 10
1858.863744800851
 20
679.9058685352074
 30
0.0
 50
180.0
  0
INSERT
  5
76E6
330
74AE
100
AcDbEntity
  8
寸法
  6
Continuous
 62
     4
370
    -2
100
AcDbBlockReference
  2
_Dot
 10
1888.863744800851
 20
679.9058685352074
 30
0.0
  0
MTEXT
  5
76E7
330
74AE
100
AcDbEntity
  8
寸法
  6
Continuous
 62
     3
100
AcDbMText
 10
1873.863744800851
 20
682.2058685352073
 30
0.0
 40
3.0
 41
0.0
 71
     5
 72
     1
  1
\A1;150以内
  7
ACAD
 73
     1
 44
1.0
1001
ACAD
1000
MTEXTBEGIN
1070
    73
1070
     1
1070
    44
1040
1.0
1070
    74
1070
     0
1000
MTEXTEND
  0
POINT
  5
76E8
330
74AE
100
AcDbEntity
  8
Defpoints
  6
Continuous
 62
     0
100
AcDbPoint
 10
1858.863744800851
 20
679.9058685352074
 30
0.0
  0
POINT
  5
76E9
330
74AE
100
AcDbEntity
  8
Defpoints
  6
Continuous
 62
     0
100
AcDbPoint
 10
1888.863744800851
 20
679.9058685352074
 30
0.0
  0
POINT
  5
76EA
330
74AE
100
AcDbEntity
  8
Defpoints
  6
Continuous
 62
     0
100
AcDbPoint
 10
1888.863744800851
 20
679.9058685352074
 30
0.0
  0
ENDBLK
  5
74B7
330
74AE
100
AcDbEntity
  8
0
100
AcDbBlockEnd
  0
BLOCK
  5
74C0
330
74B8
100
AcDbEntity
  8
0
100
AcDbBlockBegin
  2
*D10
 70
     1
 10
0.0
 20
0.0
 30
0.0
  3
*D10
  1

  0
LINE
  5
76EB
330
74B8
100
AcDbEntity
  8
寸法
  6
Continuous
 62
     4
370
    -2
100
AcDbLine
 10
1904.263744800851
 20
636.2058685352076
 30
0.0
 11
1932.263744800851
 21
636.2058685352076
 31
0.0
  0
INSERT
  5
76EC
330
74B8
100
AcDbEntity
  8
寸法
  6
Continuous
 62
     4
370
    -2
100
AcDbBlockReference
  2
_Dot
 10
1903.263744800851
 20
636.2058685352076
 30
0.0
 50
180.0
  0
INSERT
  5
76ED
330
74B8
100
AcDbEntity
  8
寸法
  6
Continuous
 62
     4
370
    -2
100
AcDbBlockReference
  2
_Dot
 10
1933.263744800851
 20
636.2058685352076
 30
0.0
  0
MTEXT
  5
76EE
330
74B8
100
AcDbEntity
  8
寸法
  6
Continuous
 62
     3
100
AcDbMText
 10
1918.263744800851
 20
638.5058685352076
 30
0.0
 40
3.0
 41
0.0
 71
     5
 72
     1
  1
\A1;150
  7
ACAD
 73
     1
 44
1.0
1001
ACAD
1000
MTEXTBEGIN
1070
    73
1070
     1
1070
    44
1040
1.0
1070
    74
1070
     0
1000
MTEXTEND
  0
POINT
  5
76EF
330
74B8
100
AcDbEntity
  8
Defpoints
  6
Continuous
 62
     0
100
AcDbPoint
 10
1903.263744800851
 20
636.2058685352076
 30
0.0
  0
POINT
  5
76F0
330
74B8
100
AcDbEntity
  8
Defpoints
  6
Continuous
 62
     0
100
AcDbPoint
 10
1933.263744800851
 20
636.2058685352076
 30
0.0
  0
POINT
  5
76F1
330
74B8
100
AcDbEntity
  8
Defpoints
  6
Continuous
 62
     0
100
AcDbPoint
 10
1933.263744800851
 20
636.2058685352076
 30
0.0
  0
ENDBLK
  5
74C1
330
74B8
100
AcDbEntity
  8
0
100
AcDbBlockEnd
  0
BLOCK
  5
74CC
330
74C2
100
AcDbEntity
  8
0
100
AcDbBlockBegin
  2
*D11
 70
     1
 10
0.0
 20
0.0
 30
0.0
  3
*D11
  1

  0
LINE
  5
76F2
330
74C2
100
AcDbEntity
  8
寸法
  6
Continuous
 62
     4
370
    -2
100
AcDbLine
 10
1885.363744800851
 20
627.7058685352076
 30
0.0
 11
1885.363744800851
 21
618.7058685352071
 31
0.0
  0
LINE
  5
76F3
330
74C2
100
AcDbEntity
  8
寸法
  6
Continuous
 62
     4
370
    -2
100
AcDbLine
 10
1884.36374480085
 20
618.7058685352071
 30
0.0
 11
1883.363744800851
 21
618.7058685352071
 31
0.0
  0
LINE
  5
76F4
330
74C2
100
AcDbEntity
  8
寸法
  6
Continuous
 62
     4
370
    -2
100
AcDbLine
 10
1888.363744800851
 20
618.7058685352071
 30
0.0
 11
1889.363744800851
 21
618.7058685352071
 31
0.0
  0
INSERT
  5
76F5
330
74C2
100
AcDbEntity
  8
寸法
  6
Continuous
 62
     4
370
    -2
100
AcDbBlockReference
  2
_Dot
 10
1885.363744800851
 20
618.7058685352071
 30
0.0
  0
INSERT
  5
76F6
330
74C2
100
AcDbEntity
  8
寸法
  6
Continuous
 62
     4
370
    -2
100
AcDbBlockReference
  2
_Dot
 10
1887.363744800851
 20
618.7058685352071
 30
0.0
 50
180.0
  0
MTEXT
  5
76F7
330
74C2
100
AcDbEntity
  8
寸法
  6
Continuous
 62
     3
100
AcDbMText
 10
1886.363744800851
 20
621.0058685352071
 30
0.0
 40
3.0
 41
0.0
 71
     5
 72
     1
  1
\A1;10
  7
ACAD
 73
     1
 44
1.0
1001
ACAD
1000
MTEXTBEGIN
1070
    73
1070
     1
1070
    44
1040
1.0
1070
    74
1070
     0
1000
MTEXTEND
  0
POINT
  5
76F8
330
74C2
100
AcDbEntity
  8
Defpoints
  6
Continuous
 62
     0
100
AcDbPoint
 10
1885.363744800851
 20
627.7058685352076
 30
0.0
  0
POINT
  5
76F9
330
74C2
100
AcDbEntity
  8
Defpoints
  6
Continuous
 62
     0
100
AcDbPoint
 10
1887.363744800851
 20
618.7058685352071
 30
0.0
  0
POINT
  5
76FA
330
74C2
100
AcDbEntity
  8
Defpoints
  6
Continuous
 62
     0
100
AcDbPoint
 10
1887.363744800851
 20
618.7058685352071
 30
0.0
  0
ENDBLK
  5
74CD
330
74C2
100
AcDbEntity
  8
0
100
AcDbBlockEnd
  0
ENDSEC
  0
SECTION
  2
ENTITIES
  0
DIMENSION
  5
6FC1
330
1E
100
AcDbEntity
  8
寸法
  6
Continuous
100
AcDbDimension
  2
*D4
 10
1571.787501800851
 20
682.7219085352071
 30
0.0
 11
1556.787501800851
 21
685.0219085352071
 31
0.0
 70
    32
  1
150以内
 71
     5
 42
30.0
  3
AutoCAD
100
AcDbAlignedDimension
 13
1541.787501800851
 23
682.7219085352071
 33
0.0
 14
1571.787501800851
 24
682.7219085352071
 34
0.0
100
AcDbRotatedDimension
1001
ACAD
1000
DSTYLE
1002
{
1070
   147
1040
0.8
1070
   140
1040
10.0
1002
}
  0
TEXT
  5
6FC2
330
1E
100
AcDbEntity
  8
文字-記号
 62
     7
100
AcDbText
 10
1547.42693480085
 20
655.1219085352072
 30
0.0
 40
3.0
  1
シングル野縁
 41
0.8
  7
ACAD
100
AcDbText
  0
LINE
  5
6FC3
330
1E
100
AcDbEntity
  8
文字-記号
  6
Continuous
 62
     7
100
AcDbLine
 10
1565.450571800851
 20
654.1219085352072
 30
0.0
 11
1547.390572800851
 21
654.1219085352072
 31
0.0
  0
LINE
  5
6FC4
330
1E
100
AcDbEntity
  8
躯体と製品
  6
Continuous
 62
     7
100
AcDbLine
 10
1544.08750180085
 20
649.1219085352072
 30
0.0
 11
1571.787501800851
 21
649.1219085352072
 31
0.0
  0
LINE
  5
6FC5
330
1E
100
AcDbEntity
  8
文字-記号
  6
Continuous
 62
     7
100
AcDbLine
 10
1567.629171800851
 20
733.5219085352073
 30
0.0
 11
1534.956062556039
 21
733.5219085352073
 31
0.0
  0
TEXT
  5
6FC6
330
1E
100
AcDbEntity
  8
文字-記号
 62
     7
100
AcDbText
 10
1542.990365800851
 20
612.5218985352075
 30
0.0
 40
3.0
  1
吹出など別途
 41
0.8
  7
ACAD
100
AcDbText
  0
LINE
  5
6FC7
330
1E
100
AcDbEntity
  8
文字-記号
  6
Continuous
 62
     7
100
AcDbLine
 10
1561.013991800851
 20
611.5219085352073
 30
0.0
 11
1542.95399880085
 21
611.5219085352073
 31
0.0
  0
LINE
  5
6FC8
330
1E
100
AcDbEntity
  8
躯体と製品
  6
Continuous
 62
     7
100
AcDbLine
 10
1544.08750180085
 20
641.5219085352073
 30
0.0
 11
1571.787501800851
 21
641.5219085352073
 31
0.0
  0
TEXT
  5
6FC9
330
1E
100
AcDbEntity
  8
文字-記号
 62
     7
100
AcDbText
 10
1549.445050065979
 20
564.0890772581153
 30
0.0
 40
3.0
  1
スペーサ　
 41
0.8
  7
ACAD
100
AcDbText
  0
LINE
  5
6FCA
330
1E
100
AcDbEntity
  8
文字-記号
  6
Continuous
 62
     7
100
AcDbLine
 10
1561.966991800851
 20
563.2219085352075
 30
0.0
 11
1548.389788291862
 21
563.2219085352075
 31
0.0
  0
LINE
  5
6FCB
330
1E
100
AcDbEntity
  8
躯体と製品
  6
Continuous
 62
     7
100
AcDbLine
 10
1479.287502800851
 20
631.5219085352073
 30
0.0
 11
1565.787501800851
 21
631.5219085352073
 31
0.0
  0
LINE
  5
6FCC
330
1E
100
AcDbEntity
  8
躯体と製品
  6
Continuous
 62
     7
100
AcDbLine
 10
1479.287502800851
 20
634.0219085352073
 30
0.0
 11
1572.787501800851
 21
634.0219085352073
 31
0.0
  0
LINE
  5
6FCD
330
1E
100
AcDbEntity
  8
躯体と製品
  6
Continuous
 62
     7
100
AcDbLine
 10
1479.287502800851
 20
636.5219085352073
 30
0.0
 11
1572.787501800851
 21
636.5219085352073
 31
0.0
  0
LINE
  5
6FCE
330
1E
100
AcDbEntity
  8
躯体と製品
  6
Continuous
 62
     7
100
AcDbLine
 10
1479.287502800851
 20
711.5219085352073
 30
0.0
 11
1659.287494800851
 21
711.5219085352073
 31
0.0
  0
TEXT
  5
6FCF
330
1E
100
AcDbEntity
  8
文字-記号
 62
     7
100
AcDbText
 10
1535.617597325289
 20
734.5661832007117
 30
0.0
 40
3.0
  1
あと施工アンカーなど
 41
0.8
  7
ACAD
100
AcDbText
  0
LINE
  5
6FD0
330
1E
100
AcDbEntity
  8
躯体と製品
  6
Continuous
 62
     7
100
AcDbLine
 10
1465.886204800851
 20
726.5219085352073
 30
0.0
 11
1669.287494800851
 21
726.5219085352073
 31
0.0
  0
TEXT
  5
6FD1
330
1E
100
AcDbEntity
  8
文字-記号
 62
     7
100
AcDbText
 10
1553.800730800851
 20
423.5219355352073
 30
0.0
 40
3.0
  1
ランナ
 41
0.8
  7
ACAD
100
AcDbText
  0
LINE
  5
6FD2
330
1E
100
AcDbEntity
  8
文字-記号
  6
Continuous
 62
     7
100
AcDbLine
 10
1562.812541800851
 20
422.5219145352075
 30
0.0
 11
1553.78254680085
 21
422.5219145352075
 31
0.0
  0
LINE
  5
6FD3
330
1E
100
AcDbEntity
  8
躯体と製品
  6
Continuous
 62
     7
100
AcDbLine
 10
1479.287502800851
 20
398.5219150352073
 30
0.0
 11
1567.787501800851
 21
398.5219150352073
 31
0.0
  0
LINE
  5
6FD4
330
1E
100
AcDbEntity
  8
躯体と製品
  6
Continuous
 62
     7
100
AcDbLine
 10
1479.287502800851
 20
391.5219155352074
 30
0.0
 11
1659.287494800851
 21
391.5219155352074
 31
0.0
  0
LINE
  5
6FD5
330
1E
100
AcDbEntity
  8
躯体と製品
  6
Continuous
 62
     7
100
AcDbLine
 10
1479.287502800851
 20
397.5219150352073
 30
0.0
 11
1659.287494800851
 21
397.5219150352073
 31
0.0
  0
LINE
  5
6FD6
330
1E
100
AcDbEntity
  8
躯体と製品
  6
Continuous
 62
     7
100
AcDbLine
 10
1457.684849800851
 20
376.5219155352074
 30
0.0
 11
1669.287494800851
 21
376.5219155352074
 31
0.0
  0
LINE
  5
6FD7
330
1E
100
AcDbEntity
  8
躯体と製品
  6
Continuous
 62
     7
100
AcDbLine
 10
1482.16618280085
 20
376.5219155352074
 30
0.0
 11
1497.16618280085
 21
391.5219155352074
 31
0.0
  0
LINE
  5
6FD8
330
1E
100
AcDbEntity
  8
躯体と製品
  6
Continuous
 62
     7
100
AcDbLine
 10
1484.287502800851
 20
376.5219155352074
 30
0.0
 11
1499.28750280085
 21
391.5219155352074
 31
0.0
  0
LINE
  5
6FD9
330
1E
100
AcDbEntity
  8
躯体と製品
  6
Continuous
 62
     7
100
AcDbLine
 10
1486.408822800851
 20
376.5219155352074
 30
0.0
 11
1501.408822800851
 21
391.5219155352074
 31
0.0
  0
CIRCLE
  5
6FDA
330
1E
100
AcDbEntity
  8
躯体と製品
  6
Continuous
 62
     7
100
AcDbCircle
 10
1494.572610800851
 20
394.3904010352076
 30
0.0
 40
0.1
  0
CIRCLE
  5
6FDB
330
1E
100
AcDbEntity
  8
躯体と製品
  6
Continuous
 62
     7
100
AcDbCircle
 10
1491.05640380085
 20
395.3703280352074
 30
0.0
 40
0.1
  0
CIRCLE
  5
6FDC
330
1E
100
AcDbEntity
  8
躯体と製品
  6
Continuous
 62
     7
100
AcDbCircle
 10
1486.21441480085
 20
395.8314700352076
 30
0.0
 40
0.1
  0
CIRCLE
  5
6FDD
330
1E
100
AcDbEntity
  8
躯体と製品
  6
Continuous
 62
     7
100
AcDbCircle
 10
1490.88347580085
 20
392.9493330352075
 30
0.0
 40
0.1
  0
CIRCLE
  5
6FDE
330
1E
100
AcDbEntity
  8
躯体と製品
  6
Continuous
 62
     7
100
AcDbCircle
 10
1484.658060800851
 20
393.0069760352076
 30
0.0
 40
0.1
  0
CIRCLE
  5
6FDF
330
1E
100
AcDbEntity
  8
躯体と製品
  6
Continuous
 62
     7
100
AcDbCircle
 10
1482.133035800851
 20
395.5409340352076
 30
0.0
 40
0.1
  0
LINE
  5
6FE0
330
1E
100
AcDbEntity
  8
躯体と製品
  6
Continuous
 62
     7
100
AcDbLine
 10
1526.713909300851
 20
376.5219155352074
 30
0.0
 11
1541.713908800851
 21
391.5219155352074
 31
0.0
  0
LINE
  5
6FE1
330
1E
100
AcDbEntity
  8
躯体と製品
  6
Continuous
 62
     7
100
AcDbLine
 10
1524.592589300851
 20
376.5219155352074
 30
0.0
 11
1539.59258880085
 21
391.5219155352074
 31
0.0
  0
CIRCLE
  5
6FE2
330
1E
100
AcDbEntity
  8
躯体と製品
  6
Continuous
 62
     7
100
AcDbCircle
 10
1521.318840300851
 20
395.8314700352076
 30
0.0
 40
0.1
  0
CIRCLE
  5
6FE3
330
1E
100
AcDbEntity
  8
躯体と製品
  6
Continuous
 62
     7
100
AcDbCircle
 10
1523.912763300851
 20
393.7563310352075
 30
0.0
 40
0.1
  0
CIRCLE
  5
6FE4
330
1E
100
AcDbEntity
  8
躯体と製品
  6
Continuous
 62
     7
100
AcDbCircle
 10
1517.917919400851
 20
393.8139740352076
 30
0.0
 40
0.1
  0
CIRCLE
  5
6FE5
330
1E
100
AcDbEntity
  8
躯体と製品
  6
Continuous
 62
     7
100
AcDbCircle
 10
1525.238546300851
 20
395.2550420352072
 30
0.0
 40
0.1
  0
CIRCLE
  5
6FE6
330
1E
100
AcDbEntity
  8
躯体と製品
  6
Continuous
 62
     7
100
AcDbCircle
 10
1508.98329580085
 20
395.0244710352072
 30
0.0
 40
0.1
  0
CIRCLE
  5
6FE7
330
1E
100
AcDbEntity
  8
躯体と製品
  6
Continuous
 62
     7
100
AcDbCircle
 10
1512.84535840085
 20
394.5056870352073
 30
0.0
 40
0.1
  0
CIRCLE
  5
6FE8
330
1E
100
AcDbEntity
  8
躯体と製品
  6
Continuous
 62
     7
100
AcDbCircle
 10
1505.812944800851
 20
393.5257600352074
 30
0.0
 40
0.1
  0
CIRCLE
  5
6FE9
330
1E
100
AcDbEntity
  8
躯体と製品
  6
Continuous
 62
     7
100
AcDbCircle
 10
1501.72031080085
 20
393.6986890352073
 30
0.0
 40
0.1
  0
CIRCLE
  5
6FEA
330
1E
100
AcDbEntity
  8
躯体と製品
  6
Continuous
 62
     7
100
AcDbCircle
 10
1499.818099800851
 20
395.7161840352073
 30
0.0
 40
0.1
  0
CIRCLE
  5
6FEB
330
1E
100
AcDbEntity
  8
躯体と製品
  6
Continuous
 62
     7
100
AcDbCircle
 10
1559.70890180085
 20
396.0043980352075
 30
0.0
 40
0.1
  0
CIRCLE
  5
6FEC
330
1E
100
AcDbEntity
  8
躯体と製品
  6
Continuous
 62
     7
100
AcDbCircle
 10
1551.754204800851
 20
395.8891130352072
 30
0.0
 40
0.1
  0
CIRCLE
  5
6FED
330
1E
100
AcDbEntity
  8
躯体と製品
  6
Continuous
 62
     7
100
AcDbCircle
 10
1552.388274800851
 20
393.4681180352072
 30
0.0
 40
0.1
  0
CIRCLE
  5
6FEE
330
1E
100
AcDbEntity
  8
躯体と製品
  6
Continuous
 62
     7
100
AcDbCircle
 10
1558.15254880085
 20
393.1222610352074
 30
0.0
 40
0.1
  0
CIRCLE
  5
6FEF
330
1E
100
AcDbEntity
  8
躯体と製品
  6
Continuous
 62
     7
100
AcDbCircle
 10
1545.644074800851
 20
394.1598300352075
 30
0.0
 40
0.1
  0
CIRCLE
  5
6FF0
330
1E
100
AcDbEntity
  8
躯体と製品
  6
Continuous
 62
     7
100
AcDbCircle
 10
1540.85972780085
 20
395.3126850352073
 30
0.0
 40
0.1
  0
CIRCLE
  5
6FF1
330
1E
100
AcDbEntity
  8
躯体と製品
  6
Continuous
 62
     7
100
AcDbCircle
 10
1535.21073980085
 20
394.9668290352074
 30
0.0
 40
0.1
  0
CIRCLE
  5
6FF2
330
1E
100
AcDbEntity
  8
躯体と製品
  6
Continuous
 62
     7
100
AcDbCircle
 10
1537.919947800851
 20
392.7764050352075
 30
0.0
 40
0.1
  0
CIRCLE
  5
6FF3
330
1E
100
AcDbEntity
  8
躯体と製品
  6
Continuous
 62
     7
100
AcDbCircle
 10
1530.714605800851
 20
395.1974000352075
 30
0.0
 40
0.1
  0
LINE
  5
6FF4
330
1E
100
AcDbEntity
  8
躯体と製品
  6
Continuous
 62
     7
100
AcDbLine
 10
1528.83522930085
 20
376.5219155352074
 30
0.0
 11
1543.835228800851
 21
391.5219155352074
 31
0.0
  0
LINE
  5
6FF5
330
1E
100
AcDbEntity
  8
躯体と製品
  6
Continuous
 62
     7
100
AcDbLine
 10
1481.408822800851
 20
711.5219085352073
 30
0.0
 11
1496.408822800851
 21
726.5219085352073
 31
0.0
  0
LINE
  5
6FF6
330
1E
100
AcDbEntity
  8
躯体と製品
  6
Continuous
 62
     7
100
AcDbLine
 10
1479.287502800851
 20
649.1219085352072
 30
0.0
 11
1539.487501800851
 21
649.1219085352072
 31
0.0
  0
LINE
  5
6FF7
330
1E
100
AcDbEntity
  8
躯体と製品
  6
Continuous
 62
     7
100
AcDbLine
 10
1479.287502800851
 20
641.5219085352073
 30
0.0
 11
1539.487501800851
 21
641.5219085352073
 31
0.0
  0
LINE
  5
6FF8
330
1E
100
AcDbEntity
  8
躯体と製品
  6
Continuous
 62
     7
100
AcDbLine
 10
1479.287502800851
 20
713.6432285352075
 30
0.0
 11
1492.16618280085
 21
726.5219085352073
 31
0.0
  0
LINE
  5
6FF9
330
1E
100
AcDbEntity
  8
躯体と製品
  6
Continuous
 62
     7
100
AcDbLine
 10
1479.287502800851
 20
711.5219085352073
 30
0.0
 11
1494.28750280085
 21
726.5219085352073
 31
0.0
  0
LINE
  5
6FFA
330
1E
100
AcDbEntity
  8
躯体と製品
  6
Continuous
 62
     7
100
AcDbLine
 10
1540.83750180085
 20
662.3219085352075
 30
0.0
 11
1540.83750180085
 21
689.0219085352073
 31
0.0
  0
LINE
  5
6FFB
330
1E
100
AcDbEntity
  8
躯体と製品
  6
Continuous
 62
     7
100
AcDbLine
 10
1542.73750180085
 20
689.0219085352073
 30
0.0
 11
1542.73750180085
 21
662.3219085352075
 31
0.0
  0
LINE
  5
6FFC
330
1E
100
AcDbEntity
  8
躯体と製品
  6
Continuous
 62
     7
100
AcDbLine
 10
1541.787501800851
 20
639.1219085352072
 30
0.0
 11
1541.787501800851
 21
689.0219085352073
 31
0.0
  0
ARC
  5
6FFD
330
1E
100
AcDbEntity
  8
躯体と製品
  6
Continuous
 62
     7
100
AcDbCircle
 10
1543.195774800851
 20
661.5961685352072
 30
0.0
 40
0.7257350000000001
100
AcDbArc
 50
90.0
 51
129.157939999995
  0
LINE
  5
6FFE
330
1E
100
AcDbEntity
  8
躯体と製品
  6
Continuous
 62
     7
100
AcDbLine
 10
1543.405187800851
 20
662.3219085352075
 30
0.0
 11
1543.687501800851
 21
662.1589085352074
 31
0.0
  0
LINE
  5
6FFF
330
1E
100
AcDbEntity
  8
躯体と製品
  6
Continuous
 62
     7
100
AcDbLine
 10
1543.687501800851
 20
662.1589085352074
 30
0.0
 11
1543.687501800851
 21
660.7219085352071
 31
0.0
  0
LINE
  5
7000
330
1E
100
AcDbEntity
  8
躯体と製品
  6
Continuous
 62
     7
100
AcDbLine
 10
1542.73750180085
 20
662.1589085352074
 30
0.0
 11
1542.73750180085
 21
660.7219085352071
 31
0.0
  0
LINE
  5
7001
330
1E
100
AcDbEntity
  8
躯体と製品
  6
Continuous
 62
     7
100
AcDbLine
 10
1539.887501800851
 20
662.1589085352074
 30
0.0
 11
1540.16981580085
 21
662.3219085352075
 31
0.0
  0
ARC
  5
7002
330
1E
100
AcDbEntity
  8
躯体と製品
  6
Continuous
 62
     7
100
AcDbCircle
 10
1540.379228800851
 20
661.5961685352072
 30
0.0
 40
0.7257350000000001
100
AcDbArc
 50
50.84205499999225
 51
90.0
  0
LINE
  5
7003
330
1E
100
AcDbEntity
  8
躯体と製品
  6
Continuous
 62
     7
100
AcDbLine
 10
1540.83750180085
 20
660.7219085352071
 30
0.0
 11
1540.83750180085
 21
662.1589085352074
 31
0.0
  0
LINE
  5
7004
330
1E
100
AcDbEntity
  8
躯体と製品
  6
Continuous
 62
     7
100
AcDbLine
 10
1539.887501800851
 20
662.1589085352074
 30
0.0
 11
1539.887501800851
 21
660.7219085352071
 31
0.0
  0
LINE
  5
7005
330
1E
100
AcDbEntity
  8
躯体と製品
  6
Continuous
 62
     7
100
AcDbLine
 10
1539.487501800851
 20
660.7219085352071
 30
0.0
 11
1544.08750180085
 21
660.7219085352071
 31
0.0
  0
LINE
  5
7006
330
1E
100
AcDbEntity
  8
躯体と製品
  6
Continuous
 62
     7
100
AcDbLine
 10
1540.16981580085
 20
662.3219085352075
 30
0.0
 11
1543.405187800851
 21
662.3219085352075
 31
0.0
  0
ARC
  5
7007
330
1E
100
AcDbEntity
  8
躯体と製品
  6
Continuous
 62
     7
100
AcDbCircle
 10
1541.787501800851
 20
659.4719085352071
 30
0.0
 40
2.85
100
AcDbArc
 50
70.52877899999099
 51
109.471220000014
  0
LINE
  5
7008
330
1E
100
AcDbEntity
  8
躯体と製品
  6
Continuous
 62
     7
100
AcDbLine
 10
1539.487501800851
 20
641.1219085352072
 30
0.0
 11
1544.08750180085
 21
641.1219085352072
 31
0.0
  0
LINE
  5
7009
330
1E
100
AcDbEntity
  8
躯体と製品
  6
Continuous
 62
     7
100
AcDbLine
 10
1544.08750180085
 20
660.7219085352071
 30
0.0
 11
1544.08750180085
 21
641.1219085352072
 31
0.0
  0
LINE
  5
700A
330
1E
100
AcDbEntity
  8
躯体と製品
  6
Continuous
 62
     7
100
AcDbLine
 10
1539.487501800851
 20
660.7219085352071
 30
0.0
 11
1539.487501800851
 21
641.1219085352072
 31
0.0
  0
LINE
  5
700B
330
1E
100
AcDbEntity
  8
躯体と製品
  6
Continuous
 62
     7
100
AcDbLine
 10
1523.835229300851
 20
711.5219085352073
 30
0.0
 11
1538.835228800851
 21
726.5219085352073
 31
0.0
  0
LINE
  5
700C
330
1E
100
AcDbEntity
  8
躯体と製品
  6
Continuous
 62
     7
100
AcDbLine
 10
1521.713909300851
 20
711.5219085352073
 30
0.0
 11
1536.713908800851
 21
726.5219085352073
 31
0.0
  0
LINE
  5
700D
330
1E
100
AcDbEntity
  8
躯体と製品
  6
Continuous
 62
     7
100
AcDbLine
 10
1519.59258940085
 20
711.5219085352073
 30
0.0
 11
1534.59258880085
 21
726.5219085352073
 31
0.0
  0
LINE
  5
700E
330
1E
100
AcDbEntity
  8
躯体と製品
  6
Continuous
 62
     7
100
AcDbLine
 10
1545.787501800851
 20
711.5219085352073
 30
0.0
 11
1545.787501800851
 21
712.5219085352073
 31
0.0
  0
LINE
  5
700F
330
1E
100
AcDbEntity
  8
躯体と製品
  6
Continuous
 62
     7
100
AcDbLine
 10
1545.787501800851
 20
712.5219085352073
 30
0.0
 11
1543.73750180085
 21
712.5219085352073
 31
0.0
  0
LINE
  5
7010
330
1E
100
AcDbEntity
  8
躯体と製品
  6
Continuous
 62
     7
100
AcDbLine
 10
1537.787501800851
 20
711.5219085352073
 30
0.0
 11
1537.787501800851
 21
712.5219085352073
 31
0.0
  0
LINE
  5
7011
330
1E
100
AcDbEntity
  8
躯体と製品
  6
Continuous
 62
     7
100
AcDbLine
 10
1537.787501800851
 20
712.5219085352073
 30
0.0
 11
1539.83750180085
 21
712.5219085352073
 31
0.0
  0
LINE
  5
7012
330
1E
100
AcDbEntity
  8
躯体と製品
  6
Continuous
 62
     7
100
AcDbLine
 10
1540.83750180085
 20
694.0219085352073
 30
0.0
 11
1540.83750180085
 21
711.5219085352073
 31
0.0
  0
LINE
  5
7013
330
1E
100
AcDbEntity
  8
躯体と製品
  6
Continuous
 62
     7
100
AcDbLine
 10
1542.73750180085
 20
711.5219085352073
 30
0.0
 11
1542.73750180085
 21
694.0219085352073
 31
0.0
  0
LINE
  5
7014
330
1E
100
AcDbEntity
  8
躯体と製品
  6
Continuous
 62
     7
100
AcDbLine
 10
1542.73750180085
 20
711.5219085352073
 30
0.0
 11
1542.73750180085
 21
719.5219085352073
 31
0.0
  0
LINE
  5
7015
330
1E
100
AcDbEntity
  8
躯体と製品
  6
Continuous
 62
     7
100
AcDbLine
 10
1543.73750180085
 20
712.5219085352073
 30
0.0
 11
1543.73750180085
 21
719.5219085352073
 31
0.0
  0
LINE
  5
7016
330
1E
100
AcDbEntity
  8
躯体と製品
  6
Continuous
 62
     7
100
AcDbLine
 10
1541.787501800851
 20
694.0219085352073
 30
0.0
 11
1541.787501800851
 21
719.5219085352073
 31
0.0
  0
LINE
  5
7017
330
1E
100
AcDbEntity
  8
躯体と製品
  6
Continuous
 62
     7
100
AcDbLine
 10
1540.83750180085
 20
711.5219085352073
 30
0.0
 11
1540.83750180085
 21
719.5219085352073
 31
0.0
  0
LINE
  5
7018
330
1E
100
AcDbEntity
  8
躯体と製品
  6
Continuous
 62
     7
100
AcDbLine
 10
1539.83750180085
 20
712.5219085352073
 30
0.0
 11
1539.83750180085
 21
719.5219085352073
 31
0.0
  0
LINE
  5
7019
330
1E
100
AcDbEntity
  8
躯体と製品
  6
Continuous
 62
     7
100
AcDbLine
 10
1803.48506480085
 20
373.7058795352073
 30
0.0
 11
1818.48506480085
 21
388.7058795352073
 31
0.0
  0
LINE
  5
701A
330
1E
100
AcDbEntity
  8
躯体と製品
  6
Continuous
 62
     7
100
AcDbLine
 10
1801.363744800851
 20
373.7058795352073
 30
0.0
 11
1816.363744800851
 21
388.7058795352073
 31
0.0
  0
LINE
  5
701B
330
1E
100
AcDbEntity
  8
躯体と製品
  6
Continuous
 62
     7
100
AcDbLine
 10
1796.363744800851
 20
388.7058795352073
 30
0.0
 11
1976.36373480085
 21
388.7058795352073
 31
0.0
  0
LINE
  5
701C
330
1E
100
AcDbEntity
  8
躯体と製品
  6
Continuous
 62
     7
100
AcDbLine
 10
1796.363744800851
 20
394.7058791352074
 30
0.0
 11
1976.36373480085
 21
394.7058791352074
 31
0.0
  0
LINE
  5
701D
330
1E
100
AcDbEntity
  8
躯体と製品
  6
Continuous
 62
     7
100
AcDbLine
 10
1796.363744800851
 20
395.7058791352074
 30
0.0
 11
1887.363744800851
 21
395.7058791352074
 31
0.0
  0
LINE
  5
701E
330
1E
100
AcDbEntity
  8
躯体と製品
  6
Continuous
 62
     7
100
AcDbLine
 10
1774.761084800851
 20
373.7058795352073
 30
0.0
 11
1986.36373480085
 21
373.7058795352073
 31
0.0
  0
LINE
  5
701F
330
1E
100
AcDbEntity
  8
躯体と製品
  6
Continuous
 62
     7
100
AcDbLine
 10
1613.688041800851
 20
376.5219155352074
 30
0.0
 11
1628.688034800851
 21
391.5219155352074
 31
0.0
  0
LINE
  5
7020
330
1E
100
AcDbEntity
  8
躯体と製品
  6
Continuous
 62
     7
100
AcDbLine
 10
1611.566721800851
 20
376.5219155352074
 30
0.0
 11
1626.566714800851
 21
391.5219155352074
 31
0.0
  0
LINE
  5
7021
330
1E
100
AcDbEntity
  8
躯体と製品
  6
Continuous
 62
     7
100
AcDbLine
 10
1609.44540180085
 20
376.5219155352074
 30
0.0
 11
1624.445394800851
 21
391.5219155352074
 31
0.0
  0
TEXT
  5
7022
330
1E
100
AcDbEntity
  8
文字-記号
 62
     7
100
AcDbText
 10
1595.853311800851
 20
367.5219105352076
 30
0.0
 40
3.0
  1
あと施工アンカーなど
 41
0.8
  7
ACAD
100
AcDbText
  0
LINE
  5
7023
330
1E
100
AcDbEntity
  8
文字-記号
  6
Continuous
 62
     7
100
AcDbLine
 10
1595.853301800851
 20
366.5219155352074
 30
0.0
 11
1624.625545304787
 21
366.5219155352074
 31
0.0
  0
LINE
  5
7024
330
1E
100
AcDbEntity
  8
躯体と製品
  6
Continuous
 62
     7
100
AcDbLine
 10
1659.287494800851
 20
398.5219150352073
 30
0.0
 11
1590.787501800851
 21
398.5219150352073
 31
0.0
  0
LINE
  5
7025
330
1E
100
AcDbEntity
  8
躯体と製品
  6
Continuous
 62
     7
100
AcDbLine
 10
1585.94750180085
 20
397.5219150352073
 30
0.0
 11
1585.94750180085
 21
405.5219149352073
 31
0.0
  0
LINE
  5
7026
330
1E
100
AcDbEntity
  8
躯体と製品
  6
Continuous
 62
     7
100
AcDbLine
 10
1572.62750180085
 20
397.5219150352073
 30
0.0
 11
1572.62750180085
 21
405.5219149352073
 31
0.0
  0
LINE
  5
7027
330
1E
100
AcDbEntity
  8
躯体と製品
  6
Continuous
 62
     7
100
AcDbLine
 10
1579.287501800851
 20
456.5219145352075
 30
0.0
 11
1579.287501800851
 21
389.6819155352073
 31
0.0
  0
LINE
  5
7028
330
1E
100
AcDbEntity
  8
躯体と製品
  6
Continuous
 62
     7
100
AcDbLine
 10
1572.787501800851
 20
456.5219145352075
 30
0.0
 11
1572.787501800851
 21
397.6819150352076
 31
0.0
  0
LINE
  5
7029
330
1E
100
AcDbEntity
  8
躯体と製品
  6
Continuous
 62
     7
100
AcDbLine
 10
1585.787501800851
 20
456.5219145352075
 30
0.0
 11
1585.787501800851
 21
397.6819150352076
 31
0.0
  0
LINE
  5
702A
330
1E
100
AcDbEntity
  8
躯体と製品
  6
Continuous
 62
     7
100
AcDbLine
 10
1591.587501800851
 20
399.3219150352075
 30
0.0
 11
1591.587501800851
 21
417.7219145352073
 31
0.0
  0
LINE
  5
702B
330
1E
100
AcDbEntity
  8
躯体と製品
  6
Continuous
 62
     7
100
AcDbLine
 10
1566.98750180085
 20
399.3219150352075
 30
0.0
 11
1566.98750180085
 21
417.7219145352073
 31
0.0
  0
LINE
  5
702C
330
1E
100
AcDbEntity
  8
躯体と製品
  6
Continuous
 62
     7
100
AcDbLine
 10
1574.187501800851
 20
417.5219145352075
 30
0.0
 11
1574.187501800851
 21
397.6819150352076
 31
0.0
  0
LINE
  5
702D
330
1E
100
AcDbEntity
  8
躯体と製品
  6
Continuous
 62
     7
100
AcDbLine
 10
1584.387501800851
 20
417.5219145352075
 30
0.0
 11
1584.387501800851
 21
397.6819150352076
 31
0.0
  0
LINE
  5
702E
330
1E
100
AcDbEntity
  8
躯体と製品
  6
Continuous
 62
     7
100
AcDbLine
 10
1570.287501800851
 20
456.5219145352075
 30
0.0
 11
1570.287501800851
 21
397.5219150352073
 31
0.0
  0
LINE
  5
702F
330
1E
100
AcDbEntity
  8
躯体と製品
  6
Continuous
 62
     7
100
AcDbLine
 10
1567.787501800851
 20
397.5219150352073
 30
0.0
 11
1567.787501800851
 21
456.5219145352075
 31
0.0
  0
LINE
  5
7030
330
1E
100
AcDbEntity
  8
躯体と製品
  6
Continuous
 62
     7
100
AcDbLine
 10
1588.287501800851
 20
456.5219145352075
 30
0.0
 11
1588.287501800851
 21
397.5219150352073
 31
0.0
  0
LINE
  5
7031
330
1E
100
AcDbEntity
  8
躯体と製品
  6
Continuous
 62
     7
100
AcDbLine
 10
1590.787501800851
 20
397.5219150352073
 30
0.0
 11
1590.787501800851
 21
456.5219145352075
 31
0.0
  0
ARC
  5
7032
330
1E
100
AcDbEntity
  8
躯体と製品
  6
Continuous
 62
     7
100
AcDbCircle
 10
1592.387501800851
 20
399.3219150352075
 30
0.0
 40
0.8
100
AcDbArc
 50
180.0
 51
270.0
  0
LINE
  5
7033
330
1E
100
AcDbEntity
  8
文字-記号
  6
Continuous
 62
     7
100
AcDbLine
 10
1579.687501800851
 20
394.5219150352073
 30
0.0
 11
1595.853301800851
 21
366.5219155352074
 31
0.0
  0
CIRCLE
  5
7034
330
1E
100
AcDbEntity
  8
躯体と製品
  6
Continuous
 62
     7
100
AcDbCircle
 10
1588.414981800851
 20
394.1598300352075
 30
0.0
 40
0.1
  0
CIRCLE
  5
7035
330
1E
100
AcDbEntity
  8
躯体と製品
  6
Continuous
 62
     7
100
AcDbCircle
 10
1583.976491800851
 20
395.5432560352074
 30
0.0
 40
0.1
  0
ARC
  5
7036
330
1E
100
AcDbEntity
  8
躯体と製品
  6
Continuous
 62
     7
100
AcDbCircle
 10
1591.79426180085
 20
399.5286970352072
 30
0.0
 40
1.006782
100
AcDbArc
 50
180.3859899999913
 51
270.0
  0
CIRCLE
  5
7037
330
1E
100
AcDbEntity
  8
文字-記号
  6
Continuous
 62
     7
100
AcDbCircle
 10
1579.687501800851
 20
394.5219150352073
 30
0.0
 40
0.3
  0
CIRCLE
  5
7038
330
1E
100
AcDbEntity
  8
躯体と製品
  6
Continuous
 62
     7
100
AcDbCircle
 10
1577.52050180085
 20
395.3126850352073
 30
0.0
 40
0.1
  0
ARC
  5
7039
330
1E
100
AcDbEntity
  8
躯体と製品
  6
Continuous
 62
     7
100
AcDbCircle
 10
1579.287501800851
 20
397.6819150352076
 30
0.0
 40
0.8
100
AcDbArc
 50
0.0
 51
180.0
  0
LINE
  5
703A
330
1E
100
AcDbEntity
  8
躯体と製品
  6
Continuous
 62
     7
100
AcDbLine
 10
1579.287501800851
 20
389.6819155352073
 30
0.0
 11
1579.687501800851
 21
390.0819155352074
 31
0.0
  0
LINE
  5
703B
330
1E
100
AcDbEntity
  8
躯体と製品
  6
Continuous
 62
     7
100
AcDbLine
 10
1578.887501800851
 20
390.0819155352074
 30
0.0
 11
1579.287501800851
 21
389.6819155352073
 31
0.0
  0
LINE
  5
703C
330
1E
100
AcDbEntity
  8
躯体と製品
  6
Continuous
 62
     7
100
AcDbLine
 10
1579.687501800851
 20
390.0819155352074
 30
0.0
 11
1579.687501800851
 21
397.6819150352076
 31
0.0
  0
LINE
  5
703D
330
1E
100
AcDbEntity
  8
躯体と製品
  6
Continuous
 62
     7
100
AcDbLine
 10
1578.887501800851
 20
397.6819150352076
 30
0.0
 11
1578.887501800851
 21
390.0819155352074
 31
0.0
  0
CIRCLE
  5
703E
330
1E
100
AcDbEntity
  8
躯体と製品
  6
Continuous
 62
     7
100
AcDbCircle
 10
1572.62087180085
 20
394.3327590352073
 30
0.0
 40
0.1
  0
ARC
  5
703F
330
1E
100
AcDbEntity
  8
躯体と製品
  6
Continuous
 62
     7
100
AcDbCircle
 10
1566.78074180085
 20
399.5286970352072
 30
0.0
 40
1.006782
100
AcDbArc
 50
270.0
 51
359.6139999999892
  0
CIRCLE
  5
7040
330
1E
100
AcDbEntity
  8
躯体と製品
  6
Continuous
 62
     7
100
AcDbCircle
 10
1569.450521800851
 20
395.0821140352073
 30
0.0
 40
0.1
  0
LINE
  5
7041
330
1E
100
AcDbEntity
  8
躯体と製品
  6
Continuous
 62
     7
100
AcDbLine
 10
1572.787501800851
 20
397.6819150352076
 30
0.0
 11
1585.787501800851
 21
397.6819150352076
 31
0.0
  0
LINE
  5
7042
330
1E
100
AcDbEntity
  8
躯体と製品
  6
Continuous
 62
     7
100
AcDbLine
 10
1571.261631800851
 20
376.5219155352074
 30
0.0
 11
1586.261631800851
 21
391.5219155352074
 31
0.0
  0
LINE
  5
7043
330
1E
100
AcDbEntity
  8
躯体と製品
  6
Continuous
 62
     7
100
AcDbLine
 10
1569.140311800851
 20
376.5219155352074
 30
0.0
 11
1584.140311800851
 21
391.5219155352074
 31
0.0
  0
LINE
  5
7044
330
1E
100
AcDbEntity
  8
躯体と製品
  6
Continuous
 62
     7
100
AcDbLine
 10
1567.018991800851
 20
376.5219155352074
 30
0.0
 11
1582.018991800851
 21
391.5219155352074
 31
0.0
  0
CIRCLE
  5
7045
330
1E
100
AcDbEntity
  8
躯体と製品
  6
Continuous
 62
     7
100
AcDbCircle
 10
1563.340391800851
 20
394.2751160352072
 30
0.0
 40
0.1
  0
ARC
  5
7046
330
1E
100
AcDbEntity
  8
躯体と製品
  6
Continuous
 62
     7
100
AcDbCircle
 10
1566.187501800851
 20
399.3219150352075
 30
0.0
 40
0.8
100
AcDbArc
 50
270.0
 51
0.0
  0
CIRCLE
  5
7047
330
1E
100
AcDbEntity
  8
躯体と製品
  6
Continuous
 62
     7
100
AcDbCircle
 10
1621.50190480085
 20
395.6008990352075
 30
0.0
 40
0.1
  0
CIRCLE
  5
7048
330
1E
100
AcDbEntity
  8
躯体と製品
  6
Continuous
 62
     7
100
AcDbCircle
 10
1622.078334800851
 20
393.3528320352075
 30
0.0
 40
0.1
  0
CIRCLE
  5
7049
330
1E
100
AcDbEntity
  8
躯体と製品
  6
Continuous
 62
     7
100
AcDbCircle
 10
1617.755131800851
 20
393.9869020352075
 30
0.0
 40
0.1
  0
CIRCLE
  5
704A
330
1E
100
AcDbEntity
  8
躯体と製品
  6
Continuous
 62
     7
100
AcDbCircle
 10
1612.740211800851
 20
396.4078970352075
 30
0.0
 40
0.1
  0
CIRCLE
  5
704B
330
1E
100
AcDbEntity
  8
躯体と製品
  6
Continuous
 62
     7
100
AcDbCircle
 10
1611.990861800851
 20
393.8716170352072
 30
0.0
 40
0.1
  0
CIRCLE
  5
704C
330
1E
100
AcDbEntity
  8
躯体と製品
  6
Continuous
 62
     7
100
AcDbCircle
 10
1606.68773180085
 20
395.8314700352076
 30
0.0
 40
0.1
  0
CIRCLE
  5
704D
330
1E
100
AcDbEntity
  8
躯体と製品
  6
Continuous
 62
     7
100
AcDbCircle
 10
1602.537451800851
 20
393.1799040352075
 30
0.0
 40
0.1
  0
CIRCLE
  5
704E
330
1E
100
AcDbEntity
  8
躯体と製品
  6
Continuous
 62
     7
100
AcDbCircle
 10
1598.90596180085
 20
395.8314700352076
 30
0.0
 40
0.1
  0
CIRCLE
  5
704F
330
1E
100
AcDbEntity
  8
躯体と製品
  6
Continuous
 62
     7
100
AcDbCircle
 10
1593.66047180085
 20
395.6585420352076
 30
0.0
 40
0.1
  0
LINE
  5
7050
330
1E
100
AcDbEntity
  8
躯体と製品
  6
Continuous
 62
     7
100
AcDbLine
 10
1584.33750180085
 20
417.5219145352075
 30
0.0
 11
1583.98750180085
 21
417.5219145352075
 31
0.0
  0
ARC
  5
7051
330
1E
100
AcDbEntity
  8
躯体と製品
  6
Continuous
 62
     7
100
AcDbCircle
 10
1583.62750180085
 20
417.5819145352074
 30
0.0
 40
0.24
100
AcDbArc
 50
90.0
 51
180.0
  0
LINE
  5
7052
330
1E
100
AcDbEntity
  8
躯体と製品
  6
Continuous
 62
     7
100
AcDbLine
 10
1583.62750180085
 20
417.8219145352072
 30
0.0
 11
1583.747501800851
 21
417.8219145352072
 31
0.0
  0
ARC
  5
7053
330
1E
100
AcDbEntity
  8
躯体と製品
  6
Continuous
 62
     7
100
AcDbCircle
 10
1583.747501800851
 20
417.5819145352074
 30
0.0
 40
0.24
100
AcDbArc
 50
0.0
 51
90.0
  0
LINE
  5
7054
330
1E
100
AcDbEntity
  8
躯体と製品
  6
Continuous
 62
     7
100
AcDbLine
 10
1585.58750180085
 20
421.4012865352073
 30
0.0
 11
1585.58750180085
 21
418.0812865352072
 31
0.0
  0
ARC
  5
7055
330
1E
100
AcDbEntity
  8
躯体と製品
  6
Continuous
 62
     7
100
AcDbCircle
 10
1585.38750180085
 20
418.0812865352072
 30
0.0
 40
0.2
100
AcDbArc
 50
270.0
 51
0.0
  0
ARC
  5
7056
330
1E
100
AcDbEntity
  8
躯体と製品
  6
Continuous
 62
     7
100
AcDbCircle
 10
1584.63750180085
 20
417.5812865352072
 30
0.0
 40
0.3
100
AcDbArc
 50
90.0
 51
180.0
  0
LINE
  5
7057
330
1E
100
AcDbEntity
  8
躯体と製品
  6
Continuous
 62
     7
100
AcDbLine
 10
1584.63750180085
 20
417.8812865352074
 30
0.0
 11
1585.38750180085
 21
417.8812865352074
 31
0.0
  0
LINE
  5
7058
330
1E
100
AcDbEntity
  8
躯体と製品
  6
Continuous
 62
     7
100
AcDbLine
 10
1583.08750180085
 20
414.3219145352072
 30
0.0
 11
1583.08750180085
 21
415.3219145352072
 31
0.0
  0
ARC
  5
7059
330
1E
100
AcDbEntity
  8
躯体と製品
  6
Continuous
 62
     7
100
AcDbCircle
 10
1583.287501800851
 20
414.3219145352072
 30
0.0
 40
0.2
100
AcDbArc
 50
180.0
 51
270.0
  0
ARC
  5
705A
330
1E
100
AcDbEntity
  8
躯体と製品
  6
Continuous
 62
     7
100
AcDbCircle
 10
1582.887501800851
 20
415.3219145352072
 30
0.0
 40
0.2
100
AcDbArc
 50
0.0
 51
90.0
  0
LINE
  5
705B
330
1E
100
AcDbEntity
  8
躯体と製品
  6
Continuous
 62
     7
100
AcDbLine
 10
1583.62750180085
 20
414.5265575352072
 30
0.0
 11
1583.747501800851
 21
414.5265575352072
 31
0.0
  0
ARC
  5
705C
330
1E
100
AcDbEntity
  8
躯体と製品
  6
Continuous
 62
     7
100
AcDbCircle
 10
1583.62750180085
 20
414.7665575352075
 30
0.0
 40
0.24
100
AcDbArc
 50
180.0
 51
270.0
  0
ARC
  5
705D
330
1E
100
AcDbEntity
  8
躯体と製品
  6
Continuous
 62
     7
100
AcDbCircle
 10
1583.747501800851
 20
414.7665575352075
 30
0.0
 40
0.24
100
AcDbArc
 50
270.0
 51
0.0
  0
LINE
  5
705E
330
1E
100
AcDbEntity
  8
躯体と製品
  6
Continuous
 62
     7
100
AcDbLine
 10
1584.387501800851
 20
416.6341465352075
 30
0.0
 11
1584.33750180085
 21
416.6812865352076
 31
0.0
  0
LINE
  5
705F
330
1E
100
AcDbEntity
  8
躯体と製品
  6
Continuous
 62
     7
100
AcDbLine
 10
1583.287501800851
 20
414.1219145352074
 30
0.0
 11
1584.387501800851
 21
414.1219145352074
 31
0.0
  0
LINE
  5
7060
330
1E
100
AcDbEntity
  8
躯体と製品
  6
Continuous
 62
     7
100
AcDbLine
 10
1584.33750180085
 20
417.5812865352072
 30
0.0
 11
1584.33750180085
 21
416.6812865352076
 31
0.0
  0
LINE
  5
7061
330
1E
100
AcDbEntity
  8
躯体と製品
  6
Continuous
 62
     7
100
AcDbLine
 10
1583.38750180085
 20
414.7665575352075
 30
0.0
 11
1583.38750180085
 21
417.5819145352074
 31
0.0
  0
LINE
  5
7062
330
1E
100
AcDbEntity
  8
躯体と製品
  6
Continuous
 62
     7
100
AcDbLine
 10
1583.98750180085
 20
414.7665575352075
 30
0.0
 11
1583.98750180085
 21
417.5819145352074
 31
0.0
  0
LINE
  5
7063
330
1E
100
AcDbEntity
  8
躯体と製品
  6
CENTER1
 62
     7
100
AcDbLine
 10
1583.687501800851
 20
418.0012865352073
 30
0.0
 11
1583.687501800851
 21
414.5312005352074
 31
0.0
  0
ARC
  5
7064
330
1E
100
AcDbEntity
  8
躯体と製品
  6
Continuous
 62
     7
100
AcDbCircle
 10
1590.787501800851
 20
417.7219145352073
 30
0.0
 40
0.8
100
AcDbArc
 50
0.0
 51
90.0
  0
LINE
  5
7065
330
1E
100
AcDbEntity
  8
躯体と製品
  6
Continuous
 62
     7
100
AcDbLine
 10
1578.78750180085
 20
420.4012865352074
 30
0.0
 11
1579.787501800851
 21
420.4012865352074
 31
0.0
  0
LINE
  5
7066
330
1E
100
AcDbEntity
  8
躯体と製品
  6
Continuous
 62
     7
100
AcDbLine
 10
1578.78750180085
 20
419.0012865352072
 30
0.0
 11
1579.787501800851
 21
419.0012865352072
 31
0.0
  0
ARC
  5
7067
330
1E
100
AcDbEntity
  8
躯体と製品
  6
Continuous
 62
     7
100
AcDbCircle
 10
1579.787501800851
 20
419.2012865352076
 30
0.0
 40
0.2
100
AcDbArc
 50
270.0
 51
0.0
  0
LINE
  5
7068
330
1E
100
AcDbEntity
  8
躯体と製品
  6
Continuous
 62
     7
100
AcDbLine
 10
1579.98750180085
 20
419.2012865352076
 30
0.0
 11
1579.98750180085
 21
420.2012865352076
 31
0.0
  0
ARC
  5
7069
330
1E
100
AcDbEntity
  8
躯体と製品
  6
Continuous
 62
     7
100
AcDbCircle
 10
1579.787501800851
 20
420.2012865352076
 30
0.0
 40
0.2
100
AcDbArc
 50
0.0
 51
90.0
  0
ARC
  5
706A
330
1E
100
AcDbEntity
  8
躯体と製品
  6
Continuous
 62
     7
100
AcDbCircle
 10
1574.94750180085
 20
417.5819145352074
 30
0.0
 40
0.24
100
AcDbArc
 50
0.0
 51
90.0
  0
ARC
  5
706B
330
1E
100
AcDbEntity
  8
躯体と製品
  6
Continuous
 62
     7
100
AcDbCircle
 10
1574.827501800851
 20
417.5819145352074
 30
0.0
 40
0.24
100
AcDbArc
 50
90.0
 51
180.0
  0
LINE
  5
706C
330
1E
100
AcDbEntity
  8
躯体と製品
  6
Continuous
 62
     7
100
AcDbLine
 10
1574.827501800851
 20
417.8219145352072
 30
0.0
 11
1574.94750180085
 21
417.8219145352072
 31
0.0
  0
LINE
  5
706D
330
1E
100
AcDbEntity
  8
躯体と製品
  6
Continuous
 62
     7
100
AcDbLine
 10
1578.58750180085
 20
420.2012865352076
 30
0.0
 11
1578.58750180085
 21
419.2012865352076
 31
0.0
  0
LINE
  5
706E
330
1E
100
AcDbEntity
  8
躯体と製品
  6
Continuous
 62
     7
100
AcDbLine
 10
1579.287501800851
 20
417.5219145352075
 30
0.0
 11
1575.187501800851
 21
417.5219145352075
 31
0.0
  0
ARC
  5
706F
330
1E
100
AcDbEntity
  8
躯体と製品
  6
Continuous
 62
     7
100
AcDbCircle
 10
1578.78750180085
 20
420.2012865352076
 30
0.0
 40
0.2
100
AcDbArc
 50
90.0
 51
180.0
  0
ARC
  5
7070
330
1E
100
AcDbEntity
  8
躯体と製品
  6
Continuous
 62
     7
100
AcDbCircle
 10
1578.78750180085
 20
419.2012865352076
 30
0.0
 40
0.2
100
AcDbArc
 50
180.0
 51
270.0
  0
LINE
  5
7071
330
1E
100
AcDbEntity
  8
躯体と製品
  6
Continuous
 62
     7
100
AcDbLine
 10
1581.58750180085
 20
416.9219145352071
 30
0.0
 11
1579.287501800851
 21
416.9219145352071
 31
0.0
  0
ARC
  5
7072
330
1E
100
AcDbEntity
  8
躯体と製品
  6
Continuous
 62
     7
100
AcDbCircle
 10
1581.98750180085
 20
415.7219145352073
 30
0.0
 40
0.2
100
AcDbArc
 50
180.0
 51
270.0
  0
LINE
  5
7073
330
1E
100
AcDbEntity
  8
躯体と製品
  6
Continuous
 62
     7
100
AcDbLine
 10
1581.787501800851
 20
415.7219145352073
 30
0.0
 11
1581.787501800851
 21
416.7219145352073
 31
0.0
  0
ARC
  5
7074
330
1E
100
AcDbEntity
  8
躯体と製品
  6
Continuous
 62
     7
100
AcDbCircle
 10
1581.58750180085
 20
416.7219145352073
 30
0.0
 40
0.2
100
AcDbArc
 50
0.0
 51
90.0
  0
ARC
  5
7075
330
1E
100
AcDbEntity
  8
躯体と製品
  6
Continuous
 62
     7
100
AcDbCircle
 10
1576.987501800851
 20
416.7219145352073
 30
0.0
 40
0.2
100
AcDbArc
 50
90.0
 51
180.0
  0
ARC
  5
7076
330
1E
100
AcDbEntity
  8
躯体と製品
  6
Continuous
 62
     7
100
AcDbCircle
 10
1575.287501800851
 20
414.3219145352072
 30
0.0
 40
0.2
100
AcDbArc
 50
270.0
 51
0.0
  0
LINE
  5
7077
330
1E
100
AcDbEntity
  8
躯体と製品
  6
Continuous
 62
     7
100
AcDbLine
 10
1575.48750180085
 20
414.3219145352072
 30
0.0
 11
1575.48750180085
 21
415.3219145352072
 31
0.0
  0
LINE
  5
7078
330
1E
100
AcDbEntity
  8
躯体と製品
  6
Continuous
 62
     7
100
AcDbLine
 10
1575.687501800851
 20
415.5219145352075
 30
0.0
 11
1576.58750180085
 21
415.5219145352075
 31
0.0
  0
ARC
  5
7079
330
1E
100
AcDbEntity
  8
躯体と製品
  6
Continuous
 62
     7
100
AcDbCircle
 10
1575.687501800851
 20
415.3219145352072
 30
0.0
 40
0.2
100
AcDbArc
 50
90.0
 51
180.0
  0
ARC
  5
707A
330
1E
100
AcDbEntity
  8
躯体と製品
  6
Continuous
 62
     7
100
AcDbCircle
 10
1576.58750180085
 20
415.7219145352073
 30
0.0
 40
0.2
100
AcDbArc
 50
270.0
 51
0.0
  0
LINE
  5
707B
330
1E
100
AcDbEntity
  8
躯体と製品
  6
Continuous
 62
     7
100
AcDbLine
 10
1576.787501800851
 20
415.7219145352073
 30
0.0
 11
1576.787501800851
 21
416.7219145352073
 31
0.0
  0
ARC
  5
707C
330
1E
100
AcDbEntity
  8
躯体と製品
  6
Continuous
 62
     7
100
AcDbCircle
 10
1574.94750180085
 20
414.7665575352075
 30
0.0
 40
0.24
100
AcDbArc
 50
270.0
 51
0.0
  0
LINE
  5
707D
330
1E
100
AcDbEntity
  8
躯体と製品
  6
Continuous
 62
     7
100
AcDbLine
 10
1574.827501800851
 20
414.5172705352074
 30
0.0
 11
1574.94750180085
 21
414.5172705352074
 31
0.0
  0
ARC
  5
707E
330
1E
100
AcDbEntity
  8
躯体と製品
  6
Continuous
 62
     7
100
AcDbCircle
 10
1574.827501800851
 20
414.7665575352075
 30
0.0
 40
0.24
100
AcDbArc
 50
180.0
 51
270.0
  0
LINE
  5
707F
330
1E
100
AcDbEntity
  8
躯体と製品
  6
Continuous
 62
     7
100
AcDbLine
 10
1576.987501800851
 20
416.9219145352071
 30
0.0
 11
1579.287501800851
 21
416.9219145352071
 31
0.0
  0
LINE
  5
7080
330
1E
100
AcDbEntity
  8
躯体と製品
  6
CENTER1
 62
     7
100
AcDbLine
 10
1574.887501800851
 20
418.0012865352073
 30
0.0
 11
1574.887501800851
 21
414.5219145352075
 31
0.0
  0
LINE
  5
7081
330
1E
100
AcDbEntity
  8
躯体と製品
  6
Continuous
 62
     7
100
AcDbLine
 10
1575.187501800851
 20
414.7665575352075
 30
0.0
 11
1575.187501800851
 21
417.5819145352074
 31
0.0
  0
LINE
  5
7082
330
1E
100
AcDbEntity
  8
躯体と製品
  6
Continuous
 62
     7
100
AcDbLine
 10
1574.587501800851
 20
414.7665575352075
 30
0.0
 11
1574.587501800851
 21
417.5819145352074
 31
0.0
  0
LINE
  5
7083
330
1E
100
AcDbEntity
  8
躯体と製品
  6
Continuous
 62
     7
100
AcDbLine
 10
1572.987501800851
 20
418.0812865352072
 30
0.0
 11
1572.987501800851
 21
421.4012865352073
 31
0.0
  0
ARC
  5
7084
330
1E
100
AcDbEntity
  8
躯体と製品
  6
Continuous
 62
     7
100
AcDbCircle
 10
1573.187501800851
 20
418.0812865352072
 30
0.0
 40
0.2
100
AcDbArc
 50
180.0
 51
270.0
  0
LINE
  5
7085
330
1E
100
AcDbEntity
  8
躯体と製品
  6
Continuous
 62
     7
100
AcDbLine
 10
1573.937501800851
 20
417.8812865352074
 30
0.0
 11
1573.187501800851
 21
417.8812865352074
 31
0.0
  0
ARC
  5
7086
330
1E
100
AcDbEntity
  8
躯体と製品
  6
Continuous
 62
     7
100
AcDbCircle
 10
1573.937501800851
 20
417.5812865352072
 30
0.0
 40
0.3
100
AcDbArc
 50
0.0
 51
90.0
  0
ARC
  5
7087
330
1E
100
AcDbEntity
  8
躯体と製品
  6
Continuous
 62
     7
100
AcDbCircle
 10
1567.787501800851
 20
417.7219145352073
 30
0.0
 40
0.8
100
AcDbArc
 50
90.0
 51
180.0
  0
LINE
  5
7088
330
1E
100
AcDbEntity
  8
躯体と製品
  6
Continuous
 62
     7
100
AcDbLine
 10
1574.187501800851
 20
416.6341465352075
 30
0.0
 11
1574.23750180085
 21
416.6812865352076
 31
0.0
  0
LINE
  5
7089
330
1E
100
AcDbEntity
  8
躯体と製品
  6
Continuous
 62
     7
100
AcDbLine
 10
1574.23750180085
 20
417.5812865352072
 30
0.0
 11
1574.23750180085
 21
416.6812865352076
 31
0.0
  0
LINE
  5
708A
330
1E
100
AcDbEntity
  8
躯体と製品
  6
Continuous
 62
     7
100
AcDbLine
 10
1574.587501800851
 20
417.5219145352075
 30
0.0
 11
1574.23750180085
 21
417.5219145352075
 31
0.0
  0
LINE
  5
708B
330
1E
100
AcDbEntity
  8
躯体と製品
  6
DASHED2
 62
     7
100
AcDbLine
 10
1572.987501800851
 20
418.1212865352072
 30
0.0
 11
1579.287501800851
 21
418.1212865352072
 31
0.0
  0
LINE
  5
708C
330
1E
100
AcDbEntity
  8
躯体と製品
  6
DASHED2
 62
     7
100
AcDbLine
 10
1572.987501800851
 20
421.2812865352075
 30
0.0
 11
1579.287501800851
 21
421.2812865352075
 31
0.0
  0
LINE
  5
708D
330
1E
100
AcDbEntity
  8
躯体と製品
  6
Continuous
 62
     7
100
AcDbLine
 10
1579.287501800851
 20
421.4012865352073
 30
0.0
 11
1572.987501800851
 21
421.4012865352073
 31
0.0
  0
LINE
  5
708E
330
1E
100
AcDbEntity
  8
躯体と製品
  6
Continuous
 62
     7
100
AcDbLine
 10
1573.004191800851
 20
418.0012865352073
 30
0.0
 11
1579.287501800851
 21
418.0012865352073
 31
0.0
  0
LINE
  5
708F
330
1E
100
AcDbEntity
  8
躯体と製品
  6
Continuous
 62
     7
100
AcDbLine
 10
1574.187501800851
 20
414.1219145352074
 30
0.0
 11
1575.287501800851
 21
414.1219145352074
 31
0.0
  0
LINE
  5
7090
330
1E
100
AcDbEntity
  8
躯体と製品
  6
Continuous
 62
     7
100
AcDbLine
 10
1587.740751800851
 20
417.5219145352075
 30
0.0
 11
1572.987501800851
 21
417.5219145352075
 31
0.0
  0
LINE
  5
7091
330
1E
100
AcDbEntity
  8
躯体と製品
  6
Continuous
 62
     7
100
AcDbLine
 10
1583.38750180085
 20
417.5219145352075
 30
0.0
 11
1579.287501800851
 21
417.5219145352075
 31
0.0
  0
LINE
  5
7092
330
1E
100
AcDbEntity
  8
躯体と製品
  6
DASHED2
 62
     7
100
AcDbLine
 10
1585.58750180085
 20
418.1212865352072
 30
0.0
 11
1579.287501800851
 21
418.1212865352072
 31
0.0
  0
LINE
  5
7093
330
1E
100
AcDbEntity
  8
躯体と製品
  6
DASHED2
 62
     7
100
AcDbLine
 10
1585.58750180085
 20
421.2812865352075
 30
0.0
 11
1579.287501800851
 21
421.2812865352075
 31
0.0
  0
LINE
  5
7094
330
1E
100
AcDbEntity
  8
躯体と製品
  6
Continuous
 62
     7
100
AcDbLine
 10
1579.287501800851
 20
421.4012865352073
 30
0.0
 11
1585.58750180085
 21
421.4012865352073
 31
0.0
  0
LINE
  5
7095
330
1E
100
AcDbEntity
  8
躯体と製品
  6
Continuous
 62
     7
100
AcDbLine
 10
1585.570801800851
 20
418.0012865352073
 30
0.0
 11
1579.287501800851
 21
418.0012865352073
 31
0.0
  0
LINE
  5
7096
330
1E
100
AcDbEntity
  8
躯体と製品
  6
Continuous
 62
     7
100
AcDbLine
 10
1582.887501800851
 20
415.5219145352075
 30
0.0
 11
1581.98750180085
 21
415.5219145352075
 31
0.0
  0
LINE
  5
7097
330
1E
100
AcDbEntity
  8
躯体と製品
  6
Continuous
 62
     7
100
AcDbLine
 10
1584.387501800851
 20
420.9219145352071
 30
0.0
 11
1584.387501800851
 21
456.5219145352075
 31
0.0
  0
LINE
  5
7098
330
1E
100
AcDbEntity
  8
躯体と製品
  6
Continuous
 62
     7
100
AcDbLine
 10
1574.187501800851
 20
420.9219145352071
 30
0.0
 11
1574.187501800851
 21
456.5219145352075
 31
0.0
  0
LINE
  5
7099
330
1E
100
AcDbEntity
  8
躯体と製品
  6
Continuous
 62
     7
100
AcDbLine
 10
1585.94750180085
 20
405.5219149352073
 30
0.0
 11
1585.787501800851
 21
405.5219149352073
 31
0.0
  0
LINE
  5
709A
330
1E
100
AcDbEntity
  8
躯体と製品
  6
Continuous
 62
     7
100
AcDbLine
 10
1572.62750180085
 20
405.5219149352073
 30
0.0
 11
1572.787501800851
 21
405.5219149352073
 31
0.0
  0
CIRCLE
  5
709B
330
1E
100
AcDbEntity
  8
文字-記号
  6
Continuous
 62
     7
100
AcDbCircle
 10
1572.62750180085
 20
405.5219149352073
 30
0.0
 40
0.3
  0
LINE
  5
709C
330
1E
100
AcDbEntity
  8
文字-記号
  6
Continuous
 62
     7
100
AcDbLine
 10
1572.62750180085
 20
405.5219149352073
 30
0.0
 11
1562.812541800851
 21
422.5219145352075
 31
0.0
  0
LINE
  5
709D
330
1E
100
AcDbEntity
  8
躯体と製品
  6
Continuous
 62
     7
100
AcDbLine
 10
1653.993114800851
 20
376.5219155352074
 30
0.0
 11
1659.287494800851
 21
381.8162885352076
 31
0.0
  0
LINE
  5
709E
330
1E
100
AcDbEntity
  8
躯体と製品
  6
Continuous
 62
     7
100
AcDbLine
 10
1651.87179480085
 20
376.5219155352074
 30
0.0
 11
1659.287494800851
 21
383.9376085352073
 31
0.0
  0
CIRCLE
  5
709F
330
1E
100
AcDbEntity
  8
躯体と製品
  6
Continuous
 62
     7
100
AcDbCircle
 10
1651.187914800851
 20
395.7161840352073
 30
0.0
 40
0.1
  0
CIRCLE
  5
70A0
330
1E
100
AcDbEntity
  8
躯体と製品
  6
Continuous
 62
     7
100
AcDbCircle
 10
1651.70669480085
 20
392.8340470352073
 30
0.0
 40
0.1
  0
CIRCLE
  5
70A1
330
1E
100
AcDbEntity
  8
躯体と製品
  6
Continuous
 62
     7
100
AcDbCircle
 10
1645.59656480085
 20
393.9869020352075
 30
0.0
 40
0.1
  0
CIRCLE
  5
70A2
330
1E
100
AcDbEntity
  8
躯体と製品
  6
Continuous
 62
     7
100
AcDbCircle
 10
1638.737084800851
 20
395.3703280352074
 30
0.0
 40
0.1
  0
CIRCLE
  5
70A3
330
1E
100
AcDbEntity
  8
躯体と製品
  6
Continuous
 62
     7
100
AcDbCircle
 10
1636.25844480085
 20
391.9694065352073
 30
0.0
 40
0.1
  0
CIRCLE
  5
70A4
330
1E
100
AcDbEntity
  8
躯体と製品
  6
Continuous
 62
     7
100
AcDbCircle
 10
1629.917744800851
 20
395.3703280352074
 30
0.0
 40
0.1
  0
CIRCLE
  5
70A5
330
1E
100
AcDbEntity
  8
躯体と製品
  6
Continuous
 62
     7
100
AcDbCircle
 10
1657.355684800851
 20
395.1397570352074
 30
0.0
 40
0.1
  0
CIRCLE
  5
70A6
330
1E
100
AcDbEntity
  8
躯体と製品
  6
Continuous
 62
     7
100
AcDbCircle
 10
1656.433404800851
 20
393.5257600352074
 30
0.0
 40
0.1
  0
LINE
  5
70A7
330
1E
100
AcDbEntity
  8
躯体と製品
  6
Continuous
 62
     7
100
AcDbLine
 10
1656.114434800851
 20
376.5219155352074
 30
0.0
 11
1659.287494800851
 21
379.6949675352075
 31
0.0
  0
CIRCLE
  5
70A8
330
1E
100
AcDbEntity
  8
躯体と製品
  6
Continuous
 62
     7
100
AcDbCircle
 10
1811.648844800851
 20
391.5743655352076
 30
0.0
 40
0.1
  0
CIRCLE
  5
70A9
330
1E
100
AcDbEntity
  8
躯体と製品
  6
Continuous
 62
     7
100
AcDbCircle
 10
1808.132644800851
 20
392.5542921352075
 30
0.0
 40
0.1
  0
CIRCLE
  5
70AA
330
1E
100
AcDbEntity
  8
躯体と製品
  6
Continuous
 62
     7
100
AcDbCircle
 10
1807.959714800851
 20
390.1332975352075
 30
0.0
 40
0.1
  0
CIRCLE
  5
70AB
330
1E
100
AcDbEntity
  8
躯体と製品
  6
Continuous
 62
     7
100
AcDbCircle
 10
1803.29065480085
 20
393.0154341352072
 30
0.0
 40
0.1
  0
CIRCLE
  5
70AC
330
1E
100
AcDbEntity
  8
躯体と製品
  6
Continuous
 62
     7
100
AcDbCircle
 10
1801.734294800851
 20
390.1909405352076
 30
0.0
 40
0.1
  0
CIRCLE
  5
70AD
330
1E
100
AcDbEntity
  8
躯体と製品
  6
Continuous
 62
     7
100
AcDbCircle
 10
1799.209274800851
 20
392.7248981352073
 30
0.0
 40
0.1
  0
LINE
  5
70AE
330
1E
100
AcDbEntity
  8
躯体と製品
  6
Continuous
 62
     7
100
AcDbLine
 10
1799.242424800851
 20
373.7058795352073
 30
0.0
 11
1814.24242480085
 21
388.7058795352073
 31
0.0
  0
LINE
  5
70AF
330
1E
100
AcDbEntity
  8
躯体と製品
  6
Continuous
 62
     7
100
AcDbLine
 10
1930.764284800851
 20
373.7058795352073
 30
0.0
 11
1945.764274800851
 21
388.7058795352073
 31
0.0
  0
LINE
  5
70B0
330
1E
100
AcDbEntity
  8
躯体と製品
  6
Continuous
 62
     7
100
AcDbLine
 10
1928.64296480085
 20
373.7058795352073
 30
0.0
 11
1943.642954800851
 21
388.7058795352073
 31
0.0
  0
LINE
  5
70B1
330
1E
100
AcDbEntity
  8
躯体と製品
  6
Continuous
 62
     7
100
AcDbLine
 10
1976.36373480085
 20
395.7058791352074
 30
0.0
 11
1907.363744800851
 21
395.7058791352074
 31
0.0
  0
LINE
  5
70B2
330
1E
100
AcDbEntity
  8
文字-記号
  6
Continuous
 62
     7
100
AcDbLine
 10
1912.92954480085
 20
363.7058795352073
 30
0.0
 11
1941.349587863731
 21
363.7058795352073
 31
0.0
  0
TEXT
  5
70B3
330
1E
100
AcDbEntity
  8
文字-記号
 62
     7
100
AcDbText
 10
1912.92953480085
 20
364.7058745352074
 30
0.0
 40
3.0
  1
あと施工アンカーなど
 41
0.8
  7
ACAD
100
AcDbText
  0
LINE
  5
70B4
330
1E
100
AcDbEntity
  8
文字-記号
  6
Continuous
 62
     7
100
AcDbLine
 10
1879.888784800851
 20
419.7058775352075
 30
0.0
 11
1870.85878480085
 21
419.7058775352075
 31
0.0
  0
TEXT
  5
70B5
330
1E
100
AcDbEntity
  8
文字-記号
 62
     7
100
AcDbText
 10
1870.87698480085
 20
420.7058985352073
 30
0.0
 40
3.0
  1
ランナ
 41
0.8
  7
ACAD
100
AcDbText
  0
LINE
  5
70B6
330
1E
100
AcDbEntity
  8
躯体と製品
  6
Continuous
 62
     7
100
AcDbLine
 10
1845.911464800851
 20
373.7058795352073
 30
0.0
 11
1860.911464800851
 21
388.7058795352073
 31
0.0
  0
LINE
  5
70B7
330
1E
100
AcDbEntity
  8
躯体と製品
  6
Continuous
 62
     7
100
AcDbLine
 10
1843.79014480085
 20
373.7058795352073
 30
0.0
 11
1858.79014480085
 21
388.7058795352073
 31
0.0
  0
LINE
  5
70B8
330
1E
100
AcDbEntity
  8
躯体と製品
  6
Continuous
 62
     7
100
AcDbLine
 10
1841.668824800851
 20
373.7058795352073
 30
0.0
 11
1856.668824800851
 21
388.7058795352073
 31
0.0
  0
CIRCLE
  5
70B9
330
1E
100
AcDbEntity
  8
躯体と製品
  6
Continuous
 62
     7
100
AcDbCircle
 10
1842.314784800851
 20
392.4390061352074
 30
0.0
 40
0.1
  0
CIRCLE
  5
70BA
330
1E
100
AcDbEntity
  8
躯体と製品
  6
Continuous
 62
     7
100
AcDbCircle
 10
1838.39507480085
 20
393.0154341352072
 30
0.0
 40
0.1
  0
CIRCLE
  5
70BB
330
1E
100
AcDbEntity
  8
躯体と製品
  6
Continuous
 62
     7
100
AcDbCircle
 10
1840.98900480085
 20
390.9402955352075
 30
0.0
 40
0.1
  0
CIRCLE
  5
70BC
330
1E
100
AcDbEntity
  8
躯体と製品
  6
Continuous
 62
     7
100
AcDbCircle
 10
1834.99415480085
 20
390.9979385352076
 30
0.0
 40
0.1
  0
CIRCLE
  5
70BD
330
1E
100
AcDbEntity
  8
躯体と製品
  6
Continuous
 62
     7
100
AcDbCircle
 10
1829.92159480085
 20
391.6896515352073
 30
0.0
 40
0.1
  0
CIRCLE
  5
70BE
330
1E
100
AcDbEntity
  8
躯体と製品
  6
Continuous
 62
     7
100
AcDbCircle
 10
1826.05953480085
 20
392.2084351352073
 30
0.0
 40
0.1
  0
CIRCLE
  5
70BF
330
1E
100
AcDbEntity
  8
躯体と製品
  6
Continuous
 62
     7
100
AcDbCircle
 10
1822.889184800851
 20
390.7097245352074
 30
0.0
 40
0.1
  0
CIRCLE
  5
70C0
330
1E
100
AcDbEntity
  8
躯体と製品
  6
Continuous
 62
     7
100
AcDbCircle
 10
1818.796544800851
 20
390.8826535352073
 30
0.0
 40
0.1
  0
CIRCLE
  5
70C1
330
1E
100
AcDbEntity
  8
躯体と製品
  6
Continuous
 62
     7
100
AcDbCircle
 10
1816.894334800851
 20
392.9001481352075
 30
0.0
 40
0.1
  0
CIRCLE
  5
70C2
330
1E
100
AcDbEntity
  8
躯体と製品
  6
Continuous
 62
     7
100
AcDbCircle
 10
1876.785144800851
 20
393.1883621352072
 30
0.0
 40
0.1
  0
CIRCLE
  5
70C3
330
1E
100
AcDbEntity
  8
躯体と製品
  6
Continuous
 62
     7
100
AcDbCircle
 10
1875.228784800851
 20
390.3062255352074
 30
0.0
 40
0.1
  0
CIRCLE
  5
70C4
330
1E
100
AcDbEntity
  8
躯体と製品
  6
Continuous
 62
     7
100
AcDbCircle
 10
1869.464514800851
 20
390.6520825352072
 30
0.0
 40
0.1
  0
CIRCLE
  5
70C5
330
1E
100
AcDbEntity
  8
躯体と製品
  6
Continuous
 62
     7
100
AcDbCircle
 10
1868.830444800851
 20
393.0730771352073
 30
0.0
 40
0.1
  0
CIRCLE
  5
70C6
330
1E
100
AcDbEntity
  8
躯体と製品
  6
Continuous
 62
     7
100
AcDbCircle
 10
1862.720314800851
 20
391.3437945352075
 30
0.0
 40
0.1
  0
CIRCLE
  5
70C7
330
1E
100
AcDbEntity
  8
躯体と製品
  6
Continuous
 62
     7
100
AcDbCircle
 10
1857.935964800851
 20
392.4966491352074
 30
0.0
 40
0.1
  0
CIRCLE
  5
70C8
330
1E
100
AcDbEntity
  8
躯体と製品
  6
Continuous
 62
     7
100
AcDbCircle
 10
1854.996184800851
 20
389.9603695352075
 30
0.0
 40
0.1
  0
CIRCLE
  5
70C9
330
1E
100
AcDbEntity
  8
躯体と製品
  6
Continuous
 62
     7
100
AcDbCircle
 10
1852.286974800851
 20
392.1507935352074
 30
0.0
 40
0.1
  0
CIRCLE
  5
70CA
330
1E
100
AcDbEntity
  8
躯体と製品
  6
Continuous
 62
     7
100
AcDbCircle
 10
1847.79084480085
 20
392.3813641352076
 30
0.0
 40
0.1
  0
LINE
  5
70CB
330
1E
100
AcDbEntity
  8
躯体と製品
  6
Continuous
 62
     7
100
AcDbLine
 10
1907.363744800851
 20
404.7460800352073
 30
0.0
 11
1903.02374480085
 21
400.4060801352075
 31
0.0
  0
LINE
  5
70CC
330
1E
100
AcDbEntity
  8
躯体と製品
  6
Continuous
 62
     7
100
AcDbLine
 10
1907.363744800851
 20
405.4531870352075
 30
0.0
 11
1903.02374480085
 21
401.1131871352072
 31
0.0
  0
LINE
  5
70CD
330
1E
100
AcDbEntity
  8
躯体と製品
  6
Continuous
 62
     7
100
AcDbLine
 10
1907.363744800851
 20
406.1602940352072
 30
0.0
 11
1903.02374480085
 21
401.8202941352074
 31
0.0
  0
LINE
  5
70CE
330
1E
100
AcDbEntity
  8
躯体と製品
  6
Continuous
 62
     7
100
AcDbLine
 10
1907.363744800851
 20
406.8674000352075
 30
0.0
 11
1903.02374480085
 21
402.5274000352074
 31
0.0
  0
LINE
  5
70CF
330
1E
100
AcDbEntity
  8
躯体と製品
  6
Continuous
 62
     7
100
AcDbLine
 10
1907.363744800851
 20
407.5745070352073
 30
0.0
 11
1903.02374480085
 21
403.2345070352075
 31
0.0
  0
LINE
  5
70D0
330
1E
100
AcDbEntity
  8
躯体と製品
  6
Continuous
 62
     7
100
AcDbLine
 10
1907.363744800851
 20
404.0389730352071
 30
0.0
 11
1903.02374480085
 21
399.6989731352073
 31
0.0
  0
LINE
  5
70D1
330
1E
100
AcDbEntity
  8
躯体と製品
  6
Continuous
 62
     7
100
AcDbLine
 10
1896.363744800851
 20
453.7058775352075
 30
0.0
 11
1896.363744800851
 21
386.8658795352076
 31
0.0
  0
LINE
  5
70D2
330
1E
100
AcDbEntity
  8
躯体と製品
  6
Continuous
 62
     7
100
AcDbLine
 10
1889.863744800851
 20
453.7058775352075
 30
0.0
 11
1889.863744800851
 21
394.8658791352073
 31
0.0
  0
LINE
  5
70D3
330
1E
100
AcDbEntity
  8
躯体と製品
  6
Continuous
 62
     7
100
AcDbLine
 10
1902.863744800851
 20
453.7058775352075
 30
0.0
 11
1902.863744800851
 21
394.8658791352073
 31
0.0
  0
LINE
  5
70D4
330
1E
100
AcDbEntity
  8
文字-記号
  6
Continuous
 62
     7
100
AcDbLine
 10
1889.70374480085
 20
402.7058790352075
 30
0.0
 11
1879.888784800851
 21
419.7058775352075
 31
0.0
  0
LINE
  5
70D5
330
1E
100
AcDbEntity
  8
躯体と製品
  6
Continuous
 62
     7
100
AcDbLine
 10
1886.56374480085
 20
396.5058791352076
 30
0.0
 11
1886.56374480085
 21
414.9058775352073
 31
0.0
  0
LINE
  5
70D6
330
1E
100
AcDbEntity
  8
躯体と製品
  6
Continuous
 62
     7
100
AcDbLine
 10
1891.263744800851
 20
414.7058775352075
 30
0.0
 11
1891.263744800851
 21
394.8658791352073
 31
0.0
  0
LINE
  5
70D7
330
1E
100
AcDbEntity
  8
躯体と製品
  6
Continuous
 62
     7
100
AcDbLine
 10
1901.463744800851
 20
414.7058775352075
 30
0.0
 11
1901.463744800851
 21
394.8658791352073
 31
0.0
  0
LINE
  5
70D8
330
1E
100
AcDbEntity
  8
躯体と製品
  6
Continuous
 62
     7
100
AcDbLine
 10
1887.363744800851
 20
453.7058775352075
 30
0.0
 11
1887.363744800851
 21
394.7058791352074
 31
0.0
  0
LINE
  5
70D9
330
1E
100
AcDbEntity
  8
躯体と製品
  6
Continuous
 62
     7
100
AcDbLine
 10
1907.363744800851
 20
394.7058791352074
 30
0.0
 11
1907.363744800851
 21
413.7058775352074
 31
0.0
  0
LINE
  5
70DA
330
1E
100
AcDbEntity
  8
躯体と製品
  6
Continuous
 62
     7
100
AcDbLine
 10
1903.02374480085
 20
394.7058791352074
 30
0.0
 11
1903.02374480085
 21
412.8411805352075
 31
0.0
  0
LINE
  5
70DB
330
1E
100
AcDbEntity
  8
文字-記号
  6
Continuous
 62
     7
100
AcDbLine
 10
1896.763744800851
 20
391.7058795352073
 30
0.0
 11
1912.92954480085
 21
363.7058795352073
 31
0.0
  0
LINE
  5
70DC
330
1E
100
AcDbEntity
  8
躯体と製品
  6
Continuous
 62
     7
100
AcDbLine
 10
1903.02374480085
 20
402.7058790352075
 30
0.0
 11
1902.863744800851
 21
402.7058790352075
 31
0.0
  0
LINE
  5
70DD
330
1E
100
AcDbEntity
  8
躯体と製品
  6
Continuous
 62
     7
100
AcDbLine
 10
1907.363744800851
 20
394.8465851352075
 30
0.0
 11
1907.223034800851
 21
394.7058791352074
 31
0.0
  0
LINE
  5
70DE
330
1E
100
AcDbEntity
  8
躯体と製品
  6
Continuous
 62
     7
100
AcDbLine
 10
1907.363744800851
 20
395.5536921352073
 30
0.0
 11
1906.515924800851
 21
394.7058791352074
 31
0.0
  0
LINE
  5
70DF
330
1E
100
AcDbEntity
  8
躯体と製品
  6
Continuous
 62
     7
100
AcDbLine
 10
1907.363744800851
 20
396.2607991352074
 30
0.0
 11
1905.80881480085
 21
394.7058791352074
 31
0.0
  0
LINE
  5
70E0
330
1E
100
AcDbEntity
  8
躯体と製品
  6
Continuous
 62
     7
100
AcDbLine
 10
1907.363744800851
 20
396.9679061352076
 30
0.0
 11
1905.101714800851
 21
394.7058791352074
 31
0.0
  0
LINE
  5
70E1
330
1E
100
AcDbEntity
  8
躯体と製品
  6
Continuous
 62
     7
100
AcDbLine
 10
1907.363744800851
 20
397.6750121352075
 30
0.0
 11
1904.394604800851
 21
394.7058791352074
 31
0.0
  0
LINE
  5
70E2
330
1E
100
AcDbEntity
  8
躯体と製品
  6
Continuous
 62
     7
100
AcDbLine
 10
1907.363744800851
 20
398.3821191352072
 30
0.0
 11
1903.687494800851
 21
394.7058791352074
 31
0.0
  0
LINE
  5
70E3
330
1E
100
AcDbEntity
  8
躯体と製品
  6
Continuous
 62
     7
100
AcDbLine
 10
1907.363744800851
 20
399.0892261352073
 30
0.0
 11
1903.02374480085
 21
394.7492261352072
 31
0.0
  0
LINE
  5
70E4
330
1E
100
AcDbEntity
  8
躯体と製品
  6
Continuous
 62
     7
100
AcDbLine
 10
1907.363744800851
 20
399.7963331352075
 30
0.0
 11
1903.02374480085
 21
395.4563331352074
 31
0.0
  0
CIRCLE
  5
70E5
330
1E
100
AcDbEntity
  8
躯体と製品
  6
Continuous
 62
     7
100
AcDbCircle
 10
1905.491224800851
 20
391.3437945352075
 30
0.0
 40
0.1
  0
ARC
  5
70E6
330
1E
100
AcDbEntity
  8
躯体と製品
  6
Continuous
 62
     7
100
AcDbCircle
 10
1896.363744800851
 20
394.8658791352073
 30
0.0
 40
0.8
100
AcDbArc
 50
0.0
 51
180.0
  0
CIRCLE
  5
70E7
330
1E
100
AcDbEntity
  8
躯体と製品
  6
Continuous
 62
     7
100
AcDbCircle
 10
1901.052734800851
 20
392.7272201352075
 30
0.0
 40
0.1
  0
CIRCLE
  5
70E8
330
1E
100
AcDbEntity
  8
文字-記号
  6
Continuous
 62
     7
100
AcDbCircle
 10
1896.763744800851
 20
391.7058795352073
 30
0.0
 40
0.3
  0
CIRCLE
  5
70E9
330
1E
100
AcDbEntity
  8
躯体と製品
  6
Continuous
 62
     7
100
AcDbCircle
 10
1894.59674480085
 20
392.4966491352074
 30
0.0
 40
0.1
  0
LINE
  5
70EA
330
1E
100
AcDbEntity
  8
躯体と製品
  6
Continuous
 62
     7
100
AcDbLine
 10
1907.363744800851
 20
400.5034391352073
 30
0.0
 11
1903.02374480085
 21
396.1634401352076
 31
0.0
  0
LINE
  5
70EB
330
1E
100
AcDbEntity
  8
躯体と製品
  6
Continuous
 62
     7
100
AcDbLine
 10
1907.363744800851
 20
401.2105461352075
 30
0.0
 11
1903.02374480085
 21
396.8705461352074
 31
0.0
  0
LINE
  5
70EC
330
1E
100
AcDbEntity
  8
躯体と製品
  6
Continuous
 62
     7
100
AcDbLine
 10
1907.363744800851
 20
401.9176531352072
 30
0.0
 11
1903.02374480085
 21
397.5776531352076
 31
0.0
  0
LINE
  5
70ED
330
1E
100
AcDbEntity
  8
躯体と製品
  6
Continuous
 62
     7
100
AcDbLine
 10
1907.363744800851
 20
402.6247600352076
 30
0.0
 11
1903.02374480085
 21
398.2847601352073
 31
0.0
  0
LINE
  5
70EE
330
1E
100
AcDbEntity
  8
躯体と製品
  6
Continuous
 62
     7
100
AcDbLine
 10
1907.363744800851
 20
403.3318670352072
 30
0.0
 11
1903.02374480085
 21
398.9918671352075
 31
0.0
  0
CIRCLE
  5
70EF
330
1E
100
AcDbEntity
  8
躯体と製品
  6
Continuous
 62
     7
100
AcDbCircle
 10
1910.736714800851
 20
392.8425061352072
 30
0.0
 40
0.1
  0
LINE
  5
70F0
330
1E
100
AcDbEntity
  8
躯体と製品
  6
Continuous
 62
     7
100
AcDbLine
 10
1896.363744800851
 20
386.8658795352076
 30
0.0
 11
1896.763744800851
 21
387.2658795352072
 31
0.0
  0
LINE
  5
70F1
330
1E
100
AcDbEntity
  8
躯体と製品
  6
Continuous
 62
     7
100
AcDbLine
 10
1895.963744800851
 20
387.2658795352072
 30
0.0
 11
1896.363744800851
 21
386.8658795352076
 31
0.0
  0
LINE
  5
70F2
330
1E
100
AcDbEntity
  8
躯体と製品
  6
Continuous
 62
     7
100
AcDbLine
 10
1896.763744800851
 20
387.2658795352072
 30
0.0
 11
1896.763744800851
 21
394.8658791352073
 31
0.0
  0
LINE
  5
70F3
330
1E
100
AcDbEntity
  8
躯体と製品
  6
Continuous
 62
     7
100
AcDbLine
 10
1895.963744800851
 20
394.8658791352073
 30
0.0
 11
1895.963744800851
 21
387.2658795352072
 31
0.0
  0
CIRCLE
  5
70F4
330
1E
100
AcDbEntity
  8
文字-記号
  6
Continuous
 62
     7
100
AcDbCircle
 10
1889.70374480085
 20
402.7058790352075
 30
0.0
 40
0.3
  0
LINE
  5
70F5
330
1E
100
AcDbEntity
  8
躯体と製品
  6
Continuous
 62
     7
100
AcDbLine
 10
1889.70374480085
 20
402.7058790352075
 30
0.0
 11
1889.863744800851
 21
402.7058790352075
 31
0.0
  0
ARC
  5
70F6
330
1E
100
AcDbEntity
  8
躯体と製品
  6
Continuous
 62
     7
100
AcDbCircle
 10
1886.35698480085
 20
396.7126611352073
 30
0.0
 40
1.006782
100
AcDbArc
 50
270.0
 51
359.6139999999892
  0
CIRCLE
  5
70F7
330
1E
100
AcDbEntity
  8
躯体と製品
  6
Continuous
 62
     7
100
AcDbCircle
 10
1886.526764800851
 20
392.2660781352074
 30
0.0
 40
0.1
  0
CIRCLE
  5
70F8
330
1E
100
AcDbEntity
  8
躯体と製品
  6
Continuous
 62
     7
100
AcDbCircle
 10
1889.697114800851
 20
391.5167235352074
 30
0.0
 40
0.1
  0
CIRCLE
  5
70F9
330
1E
100
AcDbEntity
  8
躯体と製品
  6
Continuous
 62
     7
100
AcDbCircle
 10
1880.416634800851
 20
391.4590805352073
 30
0.0
 40
0.1
  0
ARC
  5
70FA
330
1E
100
AcDbEntity
  8
躯体と製品
  6
Continuous
 62
     7
100
AcDbCircle
 10
1885.763744800851
 20
396.5058791352076
 30
0.0
 40
0.8
100
AcDbArc
 50
270.0
 51
0.0
  0
LINE
  5
70FB
330
1E
100
AcDbEntity
  8
躯体と製品
  6
Continuous
 62
     7
100
AcDbLine
 10
1889.70374480085
 20
394.7058791352074
 30
0.0
 11
1889.70374480085
 21
402.7058790352075
 31
0.0
  0
LINE
  5
70FC
330
1E
100
AcDbEntity
  8
躯体と製品
  6
Continuous
 62
     7
100
AcDbLine
 10
1888.337874800851
 20
373.7058795352073
 30
0.0
 11
1903.337874800851
 21
388.7058795352073
 31
0.0
  0
LINE
  5
70FD
330
1E
100
AcDbEntity
  8
躯体と製品
  6
Continuous
 62
     7
100
AcDbLine
 10
1886.21655480085
 20
373.7058795352073
 30
0.0
 11
1901.216554800851
 21
388.7058795352073
 31
0.0
  0
LINE
  5
70FE
330
1E
100
AcDbEntity
  8
躯体と製品
  6
Continuous
 62
     7
100
AcDbLine
 10
1884.09523480085
 20
373.7058795352073
 30
0.0
 11
1899.09523480085
 21
388.7058795352073
 31
0.0
  0
LINE
  5
70FF
330
1E
100
AcDbEntity
  8
躯体と製品
  6
Continuous
 62
     7
100
AcDbLine
 10
1889.863744800851
 20
394.8658791352073
 30
0.0
 11
1902.863744800851
 21
394.8658791352073
 31
0.0
  0
CIRCLE
  5
7100
330
1E
100
AcDbEntity
  8
躯体と製品
  6
Continuous
 62
     7
100
AcDbCircle
 10
1939.154584800851
 20
390.5367965352075
 30
0.0
 40
0.1
  0
CIRCLE
  5
7101
330
1E
100
AcDbEntity
  8
躯体と製品
  6
Continuous
 62
     7
100
AcDbCircle
 10
1938.578154800851
 20
392.7848631352076
 30
0.0
 40
0.1
  0
CIRCLE
  5
7102
330
1E
100
AcDbEntity
  8
躯体と製品
  6
Continuous
 62
     7
100
AcDbCircle
 10
1934.83137480085
 20
391.1708665352076
 30
0.0
 40
0.1
  0
CIRCLE
  5
7103
330
1E
100
AcDbEntity
  8
躯体と製品
  6
Continuous
 62
     7
100
AcDbCircle
 10
1929.067104800851
 20
391.0555815352072
 30
0.0
 40
0.1
  0
CIRCLE
  5
7104
330
1E
100
AcDbEntity
  8
躯体と製品
  6
Continuous
 62
     7
100
AcDbCircle
 10
1929.816454800851
 20
393.5918611352072
 30
0.0
 40
0.1
  0
CIRCLE
  5
7105
330
1E
100
AcDbEntity
  8
躯体と製品
  6
Continuous
 62
     7
100
AcDbCircle
 10
1923.76397480085
 20
393.0154341352072
 30
0.0
 40
0.1
  0
CIRCLE
  5
7106
330
1E
100
AcDbEntity
  8
躯体と製品
  6
Continuous
 62
     7
100
AcDbCircle
 10
1919.613694800851
 20
390.3638685352076
 30
0.0
 40
0.1
  0
CIRCLE
  5
7107
330
1E
100
AcDbEntity
  8
躯体と製品
  6
Continuous
 62
     7
100
AcDbCircle
 10
1915.982204800851
 20
393.0154341352072
 30
0.0
 40
0.1
  0
LINE
  5
7108
330
1E
100
AcDbEntity
  8
躯体と製品
  6
Continuous
 62
     7
100
AcDbLine
 10
1926.52164480085
 20
373.7058795352073
 30
0.0
 11
1941.521634800851
 21
388.7058795352073
 31
0.0
  0
LINE
  5
7109
330
1E
100
AcDbEntity
  8
文字-記号
  6
Continuous
 62
     7
100
AcDbLine
 10
1907.363744800851
 20
413.7058775352074
 30
0.0
 11
1911.55179480085
 21
420.6289995352071
 31
0.0
  0
LINE
  5
710A
330
1E
100
AcDbEntity
  8
躯体と製品
  6
Continuous
 62
     7
100
AcDbLine
 10
1905.363744800851
 20
414.7058775352075
 30
0.0
 11
1906.363744800851
 21
414.7058775352075
 31
0.0
  0
LINE
  5
710B
330
1E
100
AcDbEntity
  8
躯体と製品
  6
Continuous
 62
     7
100
AcDbLine
 10
1902.863744800851
 20
412.8411805352075
 30
0.0
 11
1905.363744800851
 21
412.8411805352075
 31
0.0
  0
LINE
  5
710C
330
1E
100
AcDbEntity
  8
躯体と製品
  6
Continuous
 62
     7
100
AcDbLine
 10
1906.540334800851
 20
414.5292785352076
 30
0.0
 11
1905.363744800851
 21
413.3526805352075
 31
0.0
  0
LINE
  5
710D
330
1E
100
AcDbEntity
  8
躯体と製品
  6
Continuous
 62
     7
100
AcDbLine
 10
1906.00982480085
 20
414.7058775352075
 30
0.0
 11
1905.363744800851
 21
414.0597875352073
 31
0.0
  0
LINE
  5
710E
330
1E
100
AcDbEntity
  8
躯体と製品
  6
Continuous
 62
     7
100
AcDbLine
 10
1904.145134800851
 20
412.8411805352075
 30
0.0
 11
1903.02374480085
 21
411.7197881352072
 31
0.0
  0
LINE
  5
710F
330
1E
100
AcDbEntity
  8
躯体と製品
  6
Continuous
 62
     7
100
AcDbLine
 10
1903.43802480085
 20
412.8411805352075
 30
0.0
 11
1903.02374480085
 21
412.4268935352074
 31
0.0
  0
LINE
  5
7110
330
1E
100
AcDbEntity
  8
躯体と製品
  6
Continuous
 62
     7
100
AcDbLine
 10
1906.363744800851
 20
414.7058775352075
 30
0.0
 11
1907.363744800851
 21
413.7058775352074
 31
0.0
  0
CIRCLE
  5
7111
330
1E
100
AcDbEntity
  8
文字-記号
  6
Continuous
 62
     7
100
AcDbCircle
 10
1907.363744800851
 20
413.7058775352074
 30
0.0
 40
1.399999999999999
  0
LINE
  5
7112
330
1E
100
AcDbEntity
  8
躯体と製品
  6
Continuous
 62
     7
100
AcDbLine
 10
1902.66374480085
 20
418.5852495352073
 30
0.0
 11
1902.66374480085
 21
415.2652495352072
 31
0.0
  0
ARC
  5
7113
330
1E
100
AcDbEntity
  8
躯体と製品
  6
Continuous
 62
     7
100
AcDbCircle
 10
1895.863744800851
 20
417.3852495352075
 30
0.0
 40
0.2
100
AcDbArc
 50
90.0
 51
180.0
  0
LINE
  5
7114
330
1E
100
AcDbEntity
  8
躯体と製品
  6
Continuous
 62
     7
100
AcDbLine
 10
1895.863744800851
 20
417.5852495352073
 30
0.0
 11
1896.863744800851
 21
417.5852495352073
 31
0.0
  0
ARC
  5
7115
330
1E
100
AcDbEntity
  8
躯体と製品
  6
Continuous
 62
     7
100
AcDbCircle
 10
1896.863744800851
 20
417.3852495352075
 30
0.0
 40
0.2
100
AcDbArc
 50
0.0
 51
90.0
  0
LINE
  5
7116
330
1E
100
AcDbEntity
  8
躯体と製品
  6
Continuous
 62
     7
100
AcDbLine
 10
1901.41374480085
 20
414.7058775352075
 30
0.0
 11
1901.06374480085
 21
414.7058775352075
 31
0.0
  0
LINE
  5
7117
330
1E
100
AcDbEntity
  8
躯体と製品
  6
Continuous
 62
     7
100
AcDbLine
 10
1899.963744800851
 20
412.7058775352074
 30
0.0
 11
1899.06374480085
 21
412.7058775352074
 31
0.0
  0
LINE
  5
7118
330
1E
100
AcDbEntity
  8
躯体と製品
  6
Continuous
 62
     7
100
AcDbLine
 10
1901.41374480085
 20
414.7652495352072
 30
0.0
 11
1901.41374480085
 21
413.8652495352075
 31
0.0
  0
LINE
  5
7119
330
1E
100
AcDbEntity
  8
躯体と製品
  6
Continuous
 62
     7
100
AcDbLine
 10
1900.16374480085
 20
411.5058781352072
 30
0.0
 11
1900.16374480085
 21
412.5058775352072
 31
0.0
  0
ARC
  5
711A
330
1E
100
AcDbEntity
  8
躯体と製品
  6
Continuous
 62
     7
100
AcDbCircle
 10
1899.963744800851
 20
412.5058775352072
 30
0.0
 40
0.2
100
AcDbArc
 50
0.0
 51
90.0
  0
LINE
  5
711B
330
1E
100
AcDbEntity
  8
躯体と製品
  6
Continuous
 62
     7
100
AcDbLine
 10
1900.70374480085
 20
411.7105211352073
 30
0.0
 11
1900.823744800851
 21
411.7105211352073
 31
0.0
  0
ARC
  5
711C
330
1E
100
AcDbEntity
  8
躯体と製品
  6
Continuous
 62
     7
100
AcDbCircle
 10
1900.70374480085
 20
411.9505211352075
 30
0.0
 40
0.24
100
AcDbArc
 50
180.0
 51
270.0
  0
LINE
  5
711D
330
1E
100
AcDbEntity
  8
躯体と製品
  6
Continuous
 62
     7
100
AcDbLine
 10
1900.46374480085
 20
411.9505211352075
 30
0.0
 11
1900.46374480085
 21
414.7658775352074
 31
0.0
  0
LINE
  5
711E
330
1E
100
AcDbEntity
  8
躯体と製品
  6
Continuous
 62
     7
100
AcDbLine
 10
1901.06374480085
 20
411.9505211352075
 30
0.0
 11
1901.06374480085
 21
414.7658775352074
 31
0.0
  0
ARC
  5
711F
330
1E
100
AcDbEntity
  8
躯体と製品
  6
Continuous
 62
     7
100
AcDbCircle
 10
1900.823744800851
 20
411.9505211352075
 30
0.0
 40
0.24
100
AcDbArc
 50
270.0
 51
0.0
  0
ARC
  5
7120
330
1E
100
AcDbEntity
  8
躯体と製品
  6
Continuous
 62
     7
100
AcDbCircle
 10
1900.70374480085
 20
414.7658775352074
 30
0.0
 40
0.24
100
AcDbArc
 50
90.0
 51
180.0
  0
LINE
  5
7121
330
1E
100
AcDbEntity
  8
躯体と製品
  6
Continuous
 62
     7
100
AcDbLine
 10
1900.70374480085
 20
415.0058775352071
 30
0.0
 11
1900.823744800851
 21
415.0058775352071
 31
0.0
  0
LINE
  5
7122
330
1E
100
AcDbEntity
  8
躯体と製品
  6
CENTER1
 62
     7
100
AcDbLine
 10
1900.763744800851
 20
415.1852495352073
 30
0.0
 11
1900.763744800851
 21
411.7151641352075
 31
0.0
  0
ARC
  5
7123
330
1E
100
AcDbEntity
  8
躯体と製品
  6
Continuous
 62
     7
100
AcDbCircle
 10
1900.823744800851
 20
414.7658775352074
 30
0.0
 40
0.24
100
AcDbArc
 50
0.0
 51
90.0
  0
ARC
  5
7124
330
1E
100
AcDbEntity
  8
躯体と製品
  6
Continuous
 62
     7
100
AcDbCircle
 10
1901.713744800851
 20
414.7652495352072
 30
0.0
 40
0.3
100
AcDbArc
 50
90.0
 51
180.0
  0
LINE
  5
7125
330
1E
100
AcDbEntity
  8
躯体と製品
  6
Continuous
 62
     7
100
AcDbLine
 10
1901.713744800851
 20
415.0652495352074
 30
0.0
 11
1902.463744800851
 21
415.0652495352074
 31
0.0
  0
ARC
  5
7126
330
1E
100
AcDbEntity
  8
躯体と製品
  6
Continuous
 62
     7
100
AcDbCircle
 10
1899.06374480085
 20
412.9058775352072
 30
0.0
 40
0.2
100
AcDbArc
 50
180.0
 51
270.0
  0
LINE
  5
7127
330
1E
100
AcDbEntity
  8
躯体と製品
  6
Continuous
 62
     7
100
AcDbLine
 10
1898.86374480085
 20
412.9058775352072
 30
0.0
 11
1898.86374480085
 21
413.9058775352073
 31
0.0
  0
ARC
  5
7128
330
1E
100
AcDbEntity
  8
躯体と製品
  6
Continuous
 62
     7
100
AcDbCircle
 10
1898.66374480085
 20
413.9058775352073
 30
0.0
 40
0.2
100
AcDbArc
 50
0.0
 51
90.0
  0
LINE
  5
7129
330
1E
100
AcDbEntity
  8
躯体と製品
  6
Continuous
 62
     7
100
AcDbLine
 10
1901.463744800851
 20
413.8181095352074
 30
0.0
 11
1901.41374480085
 21
413.8652495352075
 31
0.0
  0
ARC
  5
712A
330
1E
100
AcDbEntity
  8
躯体と製品
  6
Continuous
 62
     7
100
AcDbCircle
 10
1895.863744800851
 20
416.3852495352075
 30
0.0
 40
0.2
100
AcDbArc
 50
180.0
 51
270.0
  0
LINE
  5
712B
330
1E
100
AcDbEntity
  8
躯体と製品
  6
Continuous
 62
     7
100
AcDbLine
 10
1895.863744800851
 20
416.1852495352072
 30
0.0
 11
1896.863744800851
 21
416.1852495352072
 31
0.0
  0
ARC
  5
712C
330
1E
100
AcDbEntity
  8
躯体と製品
  6
Continuous
 62
     7
100
AcDbCircle
 10
1896.863744800851
 20
416.3852495352075
 30
0.0
 40
0.2
100
AcDbArc
 50
270.0
 51
0.0
  0
LINE
  5
712D
330
1E
100
AcDbEntity
  8
躯体と製品
  6
Continuous
 62
     7
100
AcDbLine
 10
1900.46374480085
 20
414.7058775352075
 30
0.0
 11
1896.363744800851
 21
414.7058775352075
 31
0.0
  0
LINE
  5
712E
330
1E
100
AcDbEntity
  8
躯体と製品
  6
Continuous
 62
     7
100
AcDbLine
 10
1898.66374480085
 20
414.1058775352076
 30
0.0
 11
1896.363744800851
 21
414.1058775352076
 31
0.0
  0
LINE
  5
712F
330
1E
100
AcDbEntity
  8
躯体と製品
  6
Continuous
 62
     7
100
AcDbLine
 10
1895.66374480085
 20
417.3852495352075
 30
0.0
 11
1895.66374480085
 21
416.3852495352075
 31
0.0
  0
LINE
  5
7130
330
1E
100
AcDbEntity
  8
躯体と製品
  6
Continuous
 62
     7
100
AcDbLine
 10
1897.063744800851
 20
416.3852495352075
 30
0.0
 11
1897.063744800851
 21
417.3852495352075
 31
0.0
  0
LINE
  5
7131
330
1E
100
AcDbEntity
  8
躯体と製品
  6
DASHED2
 62
     7
100
AcDbLine
 10
1902.66374480085
 20
415.3052495352076
 30
0.0
 11
1896.363744800851
 21
415.3052495352076
 31
0.0
  0
LINE
  5
7132
330
1E
100
AcDbEntity
  8
躯体と製品
  6
DASHED2
 62
     7
100
AcDbLine
 10
1902.66374480085
 20
418.4652495352074
 30
0.0
 11
1896.363744800851
 21
418.4652495352074
 31
0.0
  0
LINE
  5
7133
330
1E
100
AcDbEntity
  8
躯体と製品
  6
Continuous
 62
     7
100
AcDbLine
 10
1896.363744800851
 20
418.5852495352073
 30
0.0
 11
1902.66374480085
 21
418.5852495352073
 31
0.0
  0
LINE
  5
7134
330
1E
100
AcDbEntity
  8
躯体と製品
  6
Continuous
 62
     7
100
AcDbLine
 10
1902.647044800851
 20
415.1852495352073
 30
0.0
 11
1896.363744800851
 21
415.1852495352073
 31
0.0
  0
ARC
  5
7135
330
1E
100
AcDbEntity
  8
躯体と製品
  6
Continuous
 62
     7
100
AcDbCircle
 10
1902.463744800851
 20
415.2652495352072
 30
0.0
 40
0.2
100
AcDbArc
 50
270.0
 51
0.0
  0
LINE
  5
7136
330
1E
100
AcDbEntity
  8
躯体と製品
  6
Continuous
 62
     7
100
AcDbLine
 10
1905.363744800851
 20
412.8411805352075
 30
0.0
 11
1905.363744800851
 21
453.7058775352075
 31
0.0
  0
LINE
  5
7137
330
1E
100
AcDbEntity
  8
躯体と製品
  6
Continuous
 62
     7
100
AcDbLine
 10
1901.463744800851
 20
418.5852495352073
 30
0.0
 11
1901.463744800851
 21
453.7058775352075
 31
0.0
  0
LINE
  5
7138
330
1E
100
AcDbEntity
  8
躯体と製品
  6
Continuous
 62
     7
100
AcDbLine
 10
1891.66374480085
 20
414.7058775352075
 30
0.0
 11
1891.31374480085
 21
414.7058775352075
 31
0.0
  0
LINE
  5
7139
330
1E
100
AcDbEntity
  8
躯体と製品
  6
CENTER1
 62
     7
100
AcDbLine
 10
1891.963744800851
 20
415.1852495352073
 30
0.0
 11
1891.963744800851
 21
411.7058781352075
 31
0.0
  0
ARC
  5
713A
330
1E
100
AcDbEntity
  8
躯体と製品
  6
Continuous
 62
     7
100
AcDbCircle
 10
1894.06374480085
 20
413.9058775352073
 30
0.0
 40
0.2
100
AcDbArc
 50
90.0
 51
180.0
  0
LINE
  5
713B
330
1E
100
AcDbEntity
  8
躯体と製品
  6
Continuous
 62
     7
100
AcDbLine
 10
1892.56374480085
 20
411.5058781352072
 30
0.0
 11
1892.56374480085
 21
412.5058775352072
 31
0.0
  0
LINE
  5
713C
330
1E
100
AcDbEntity
  8
躯体と製品
  6
Continuous
 62
     7
100
AcDbLine
 10
1892.76374480085
 20
412.7058775352074
 30
0.0
 11
1893.66374480085
 21
412.7058775352074
 31
0.0
  0
ARC
  5
713D
330
1E
100
AcDbEntity
  8
躯体と製品
  6
Continuous
 62
     7
100
AcDbCircle
 10
1892.76374480085
 20
412.5058775352072
 30
0.0
 40
0.2
100
AcDbArc
 50
90.0
 51
180.0
  0
ARC
  5
713E
330
1E
100
AcDbEntity
  8
躯体と製品
  6
Continuous
 62
     7
100
AcDbCircle
 10
1893.66374480085
 20
412.9058775352072
 30
0.0
 40
0.2
100
AcDbArc
 50
270.0
 51
0.0
  0
LINE
  5
713F
330
1E
100
AcDbEntity
  8
躯体と製品
  6
Continuous
 62
     7
100
AcDbLine
 10
1893.863744800851
 20
412.9058775352072
 30
0.0
 11
1893.863744800851
 21
413.9058775352073
 31
0.0
  0
ARC
  5
7140
330
1E
100
AcDbEntity
  8
躯体と製品
  6
Continuous
 62
     7
100
AcDbCircle
 10
1892.023744800851
 20
414.7658775352074
 30
0.0
 40
0.24
100
AcDbArc
 50
0.0
 51
90.0
  0
LINE
  5
7141
330
1E
100
AcDbEntity
  8
躯体と製品
  6
Continuous
 62
     7
100
AcDbLine
 10
1892.263744800851
 20
411.9505211352075
 30
0.0
 11
1892.263744800851
 21
414.7658775352074
 31
0.0
  0
ARC
  5
7142
330
1E
100
AcDbEntity
  8
躯体と製品
  6
Continuous
 62
     7
100
AcDbCircle
 10
1892.023744800851
 20
411.9505211352075
 30
0.0
 40
0.24
100
AcDbArc
 50
270.0
 51
0.0
  0
LINE
  5
7143
330
1E
100
AcDbEntity
  8
躯体と製品
  6
Continuous
 62
     7
100
AcDbLine
 10
1891.90374480085
 20
411.7012341352074
 30
0.0
 11
1892.023744800851
 21
411.7012341352074
 31
0.0
  0
ARC
  5
7144
330
1E
100
AcDbEntity
  8
躯体と製品
  6
Continuous
 62
     7
100
AcDbCircle
 10
1891.90374480085
 20
411.9505211352075
 30
0.0
 40
0.24
100
AcDbArc
 50
180.0
 51
270.0
  0
LINE
  5
7145
330
1E
100
AcDbEntity
  8
躯体と製品
  6
Continuous
 62
     7
100
AcDbLine
 10
1891.66374480085
 20
411.9505211352075
 30
0.0
 11
1891.66374480085
 21
414.7658775352074
 31
0.0
  0
ARC
  5
7146
330
1E
100
AcDbEntity
  8
躯体と製品
  6
Continuous
 62
     7
100
AcDbCircle
 10
1891.90374480085
 20
414.7658775352074
 30
0.0
 40
0.24
100
AcDbArc
 50
90.0
 51
180.0
  0
LINE
  5
7147
330
1E
100
AcDbEntity
  8
躯体と製品
  6
Continuous
 62
     7
100
AcDbLine
 10
1891.90374480085
 20
415.0058775352071
 30
0.0
 11
1892.023744800851
 21
415.0058775352071
 31
0.0
  0
ARC
  5
7148
330
1E
100
AcDbEntity
  8
躯体と製品
  6
Continuous
 62
     7
100
AcDbCircle
 10
1891.013744800851
 20
414.7652495352072
 30
0.0
 40
0.3
100
AcDbArc
 50
0.0
 51
90.0
  0
LINE
  5
7149
330
1E
100
AcDbEntity
  8
躯体と製品
  6
Continuous
 62
     7
100
AcDbLine
 10
1891.31374480085
 20
414.7652495352072
 30
0.0
 11
1891.31374480085
 21
413.8652495352075
 31
0.0
  0
LINE
  5
714A
330
1E
100
AcDbEntity
  8
躯体と製品
  6
Continuous
 62
     7
100
AcDbLine
 10
1891.263744800851
 20
413.8181095352074
 30
0.0
 11
1891.31374480085
 21
413.8652495352075
 31
0.0
  0
ARC
  5
714B
330
1E
100
AcDbEntity
  8
躯体と製品
  6
Continuous
 62
     7
100
AcDbCircle
 10
1887.363744800851
 20
414.9058775352073
 30
0.0
 40
0.8
100
AcDbArc
 50
90.0
 51
180.0
  0
ARC
  5
714C
330
1E
100
AcDbEntity
  8
躯体と製品
  6
Continuous
 62
     7
100
AcDbCircle
 10
1890.263744800851
 20
415.2652495352072
 30
0.0
 40
0.2
100
AcDbArc
 50
180.0
 51
270.0
  0
LINE
  5
714D
330
1E
100
AcDbEntity
  8
躯体と製品
  6
Continuous
 62
     7
100
AcDbLine
 10
1891.013744800851
 20
415.0652495352074
 30
0.0
 11
1890.263744800851
 21
415.0652495352074
 31
0.0
  0
LINE
  5
714E
330
1E
100
AcDbEntity
  8
躯体と製品
  6
Continuous
 62
     7
100
AcDbLine
 10
1890.06374480085
 20
415.2652495352072
 30
0.0
 11
1890.06374480085
 21
418.5852495352073
 31
0.0
  0
LINE
  5
714F
330
1E
100
AcDbEntity
  8
躯体と製品
  6
Continuous
 62
     7
100
AcDbLine
 10
1891.263744800851
 20
418.5852495352073
 30
0.0
 11
1891.263744800851
 21
453.7058775352075
 31
0.0
  0
LINE
  5
7150
330
1E
100
AcDbEntity
  8
躯体と製品
  6
Continuous
 62
     7
100
AcDbLine
 10
1896.363744800851
 20
414.7058775352075
 30
0.0
 11
1892.263744800851
 21
414.7058775352075
 31
0.0
  0
LINE
  5
7151
330
1E
100
AcDbEntity
  8
躯体と製品
  6
Continuous
 62
     7
100
AcDbLine
 10
1894.06374480085
 20
414.1058775352076
 30
0.0
 11
1896.363744800851
 21
414.1058775352076
 31
0.0
  0
LINE
  5
7152
330
1E
100
AcDbEntity
  8
躯体と製品
  6
DASHED2
 62
     7
100
AcDbLine
 10
1890.06374480085
 20
415.3052495352076
 30
0.0
 11
1896.363744800851
 21
415.3052495352076
 31
0.0
  0
LINE
  5
7153
330
1E
100
AcDbEntity
  8
躯体と製品
  6
DASHED2
 62
     7
100
AcDbLine
 10
1890.06374480085
 20
418.4652495352074
 30
0.0
 11
1896.363744800851
 21
418.4652495352074
 31
0.0
  0
LINE
  5
7154
330
1E
100
AcDbEntity
  8
躯体と製品
  6
Continuous
 62
     7
100
AcDbLine
 10
1896.363744800851
 20
418.5852495352073
 30
0.0
 11
1890.06374480085
 21
418.5852495352073
 31
0.0
  0
LINE
  5
7155
330
1E
100
AcDbEntity
  8
躯体と製品
  6
Continuous
 62
     7
100
AcDbLine
 10
1890.08043480085
 20
415.1852495352073
 30
0.0
 11
1896.363744800851
 21
415.1852495352073
 31
0.0
  0
LINE
  5
7156
330
1E
100
AcDbEntity
  8
躯体と製品
  6
Continuous
 62
     7
100
AcDbLine
 10
1907.363744800851
 20
410.4029331352076
 30
0.0
 11
1903.02374480085
 21
406.0629340352075
 31
0.0
  0
LINE
  5
7157
330
1E
100
AcDbEntity
  8
躯体と製品
  6
Continuous
 62
     7
100
AcDbLine
 10
1907.363744800851
 20
411.1100401352073
 30
0.0
 11
1903.02374480085
 21
406.7700410352072
 31
0.0
  0
LINE
  5
7158
330
1E
100
AcDbEntity
  8
躯体と製品
  6
Continuous
 62
     7
100
AcDbLine
 10
1907.363744800851
 20
408.2816140352074
 30
0.0
 11
1903.02374480085
 21
403.9416140352073
 31
0.0
  0
LINE
  5
7159
330
1E
100
AcDbEntity
  8
躯体と製品
  6
Continuous
 62
     7
100
AcDbLine
 10
1907.363744800851
 20
408.9887210352071
 30
0.0
 11
1903.02374480085
 21
404.6487210352074
 31
0.0
  0
LINE
  5
715A
330
1E
100
AcDbEntity
  8
躯体と製品
  6
Continuous
 62
     7
100
AcDbLine
 10
1907.363744800851
 20
409.6958271352073
 30
0.0
 11
1903.02374480085
 21
405.3558280352071
 31
0.0
  0
LINE
  5
715B
330
1E
100
AcDbEntity
  8
躯体と製品
  6
Continuous
 62
     7
100
AcDbLine
 10
1900.36374480085
 20
411.3058781352074
 30
0.0
 11
1901.463744800851
 21
411.3058781352074
 31
0.0
  0
LINE
  5
715C
330
1E
100
AcDbEntity
  8
躯体と製品
  6
Continuous
 62
     7
100
AcDbLine
 10
1891.263744800851
 20
411.3058781352074
 30
0.0
 11
1892.363744800851
 21
411.3058781352074
 31
0.0
  0
ARC
  5
715D
330
1E
100
AcDbEntity
  8
躯体と製品
  6
Continuous
 62
     7
100
AcDbCircle
 10
1900.36374480085
 20
411.5058781352072
 30
0.0
 40
0.2
100
AcDbArc
 50
180.0
 51
270.0
  0
ARC
  5
715E
330
1E
100
AcDbEntity
  8
躯体と製品
  6
Continuous
 62
     7
100
AcDbCircle
 10
1892.363744800851
 20
411.5058781352072
 30
0.0
 40
0.2
100
AcDbArc
 50
270.0
 51
0.0
  0
LINE
  5
715F
330
1E
100
AcDbEntity
  8
躯体と製品
  6
Continuous
 62
     7
100
AcDbLine
 10
1907.363744800851
 20
411.8171471352074
 30
0.0
 11
1903.02374480085
 21
407.4771480352073
 31
0.0
  0
LINE
  5
7160
330
1E
100
AcDbEntity
  8
躯体と製品
  6
Continuous
 62
     7
100
AcDbLine
 10
1907.363744800851
 20
412.5242535352072
 30
0.0
 11
1903.02374480085
 21
408.1842550352075
 31
0.0
  0
LINE
  5
7161
330
1E
100
AcDbEntity
  8
躯体と製品
  6
Continuous
 62
     7
100
AcDbLine
 10
1907.363744800851
 20
413.2313605352074
 30
0.0
 11
1903.02374480085
 21
408.8913620352072
 31
0.0
  0
LINE
  5
7162
330
1E
100
AcDbEntity
  8
躯体と製品
  6
Continuous
 62
     7
100
AcDbLine
 10
1907.24744480085
 20
413.8221715352074
 30
0.0
 11
1903.02374480085
 21
409.5984671352075
 31
0.0
  0
LINE
  5
7163
330
1E
100
AcDbEntity
  8
躯体と製品
  6
Continuous
 62
     7
100
AcDbLine
 10
1906.893894800851
 20
414.1757255352072
 30
0.0
 11
1903.02374480085
 21
410.3055741352072
 31
0.0
  0
LINE
  5
7164
330
1E
100
AcDbEntity
  8
躯体と製品
  6
Continuous
 62
     7
100
AcDbLine
 10
1904.852244800851
 20
412.8411805352075
 30
0.0
 11
1903.02374480085
 21
411.0126811352074
 31
0.0
  0
LINE
  5
7165
330
1E
100
AcDbEntity
  8
文字-記号
  6
Continuous
 62
     7
100
AcDbLine
 10
1911.55179480085
 20
420.6289995352071
 30
0.0
 11
1922.559004800851
 21
420.6289995352071
 31
0.0
  0
TEXT
  5
7166
330
1E
100
AcDbEntity
  8
文字-記号
 62
     7
100
AcDbText
 10
1911.643134800851
 20
421.1206785352073
 30
0.0
 40
3.0
  1
木製巾木
 41
0.8
  7
ACAD
100
AcDbText
  0
LINE
  5
7167
330
1E
100
AcDbEntity
  8
躯体と製品
  6
Continuous
 62
     7
100
AcDbLine
 10
1973.19067480085
 20
373.7058795352073
 30
0.0
 11
1976.36373480085
 21
376.8789315352074
 31
0.0
  0
LINE
  5
7168
330
1E
100
AcDbEntity
  8
躯体と製品
  6
Continuous
 62
     7
100
AcDbLine
 10
1971.069354800851
 20
373.7058795352073
 30
0.0
 11
1976.36373480085
 21
379.0002525352075
 31
0.0
  0
LINE
  5
7169
330
1E
100
AcDbEntity
  8
躯体と製品
  6
Continuous
 62
     7
100
AcDbLine
 10
1968.94803480085
 20
373.7058795352073
 30
0.0
 11
1976.36373480085
 21
381.1215725352072
 31
0.0
  0
CIRCLE
  5
716A
330
1E
100
AcDbEntity
  8
躯体と製品
  6
Continuous
 62
     7
100
AcDbCircle
 10
1974.43192480085
 20
392.3237211352075
 30
0.0
 40
0.1
  0
CIRCLE
  5
716B
330
1E
100
AcDbEntity
  8
躯体と製品
  6
Continuous
 62
     7
100
AcDbCircle
 10
1973.509644800851
 20
390.7097245352074
 30
0.0
 40
0.1
  0
CIRCLE
  5
716C
330
1E
100
AcDbEntity
  8
躯体と製品
  6
Continuous
 62
     7
100
AcDbCircle
 10
1968.782934800851
 20
390.0180115352073
 30
0.0
 40
0.1
  0
CIRCLE
  5
716D
330
1E
100
AcDbEntity
  8
躯体と製品
  6
Continuous
 62
     7
100
AcDbCircle
 10
1962.672804800851
 20
391.1708665352076
 30
0.0
 40
0.1
  0
CIRCLE
  5
716E
330
1E
100
AcDbEntity
  8
躯体と製品
  6
Continuous
 62
     7
100
AcDbCircle
 10
1968.26415480085
 20
392.9001481352075
 30
0.0
 40
0.1
  0
CIRCLE
  5
716F
330
1E
100
AcDbEntity
  8
躯体と製品
  6
Continuous
 62
     7
100
AcDbCircle
 10
1955.813324800851
 20
392.5542921352075
 30
0.0
 40
0.1
  0
CIRCLE
  5
7170
330
1E
100
AcDbEntity
  8
躯体と製品
  6
Continuous
 62
     7
100
AcDbCircle
 10
1953.33468480085
 20
389.1533705352076
 30
0.0
 40
0.1
  0
CIRCLE
  5
7171
330
1E
100
AcDbEntity
  8
躯体と製品
  6
Continuous
 62
     7
100
AcDbCircle
 10
1946.993984800851
 20
392.5542921352075
 30
0.0
 40
0.1
  0
LINE
  5
7172
330
1E
100
AcDbEntity
  8
躯体と製品
  6
Continuous
 62
     7
100
AcDbLine
 10
1796.363744800851
 20
646.3058685352075
 30
0.0
 11
1856.56374480085
 21
646.3058685352075
 31
0.0
  0
LINE
  5
7173
330
1E
100
AcDbEntity
  8
躯体と製品
  6
Continuous
 62
     7
100
AcDbLine
 10
1796.363744800851
 20
638.7058685352076
 30
0.0
 11
1856.56374480085
 21
638.7058685352076
 31
0.0
  0
LINE
  5
7174
330
1E
100
AcDbEntity
  8
躯体と製品
  6
Continuous
 62
     7
100
AcDbLine
 10
1796.363744800851
 20
628.7058685352076
 30
0.0
 11
1885.363744800851
 21
628.7058685352076
 31
0.0
  0
LINE
  5
7175
330
1E
100
AcDbEntity
  8
躯体と製品
  6
Continuous
 62
     7
100
AcDbLine
 10
1796.363744800851
 20
631.2058685352076
 30
0.0
 11
1889.863744800851
 21
631.2058685352076
 31
0.0
  0
LINE
  5
7176
330
1E
100
AcDbEntity
  8
躯体と製品
  6
Continuous
 62
     7
100
AcDbLine
 10
1796.363744800851
 20
633.7058685352076
 30
0.0
 11
1889.863744800851
 21
633.7058685352076
 31
0.0
  0
LINE
  5
7177
330
1E
100
AcDbEntity
  8
躯体と製品
  6
Continuous
 62
     7
100
AcDbLine
 10
1796.363744800851
 20
708.7058685352076
 30
0.0
 11
1976.36373480085
 21
708.7058685352076
 31
0.0
  0
LINE
  5
7178
330
1E
100
AcDbEntity
  8
躯体と製品
  6
Continuous
 62
     7
100
AcDbLine
 10
1782.962444800851
 20
723.7058685352076
 30
0.0
 11
1986.36373480085
 21
723.7058685352076
 31
0.0
  0
LINE
  5
7179
330
1E
100
AcDbEntity
  8
躯体と製品
  6
Continuous
 62
     7
100
AcDbLine
 10
1617.137501800851
 20
689.0219085352073
 30
0.0
 11
1617.137501800851
 21
597.2296885352075
 31
0.0
  0
LINE
  5
717A
330
1E
100
AcDbEntity
  8
躯体と製品
  6
Continuous
 62
     7
100
AcDbLine
 10
1615.23750180085
 20
596.3160685352072
 30
0.0
 11
1615.23750180085
 21
689.0219085352073
 31
0.0
  0
LINE
  5
717B
330
1E
100
AcDbEntity
  8
躯体と製品
  6
Continuous
 62
     7
100
AcDbLine
 10
1616.187501800851
 20
598.3816485352072
 30
0.0
 11
1616.187501800851
 21
689.0219085352073
 31
0.0
  0
LINE
  5
717C
330
1E
100
AcDbEntity
  8
文字-記号
  6
Continuous
 62
     7
100
AcDbLine
 10
1566.787501800851
 20
601.5219085352073
 30
0.0
 11
1561.013991800851
 21
611.5219085352073
 31
0.0
  0
LINE
  5
717D
330
1E
100
AcDbEntity
  8
躯体と製品
  6
Continuous
 62
     7
100
AcDbLine
 10
1566.787501800851
 20
615.2219085352071
 30
0.0
 11
1566.787501800851
 21
587.8219085352075
 31
0.0
  0
LINE
  5
717E
330
1E
100
AcDbEntity
  8
躯体と製品
  6
Continuous
 62
     7
100
AcDbLine
 10
1586.187501800851
 20
567.9219085352074
 30
0.0
 11
1586.187501800851
 21
641.0219085352073
 31
0.0
  0
LINE
  5
717F
330
1E
100
AcDbEntity
  8
文字-記号
  6
Continuous
 62
     7
100
AcDbLine
 10
1581.287501800851
 20
619.0219085352073
 30
0.0
 11
1599.820441800851
 21
586.9219085352074
 31
0.0
  0
LINE
  5
7180
330
1E
100
AcDbEntity
  8
躯体と製品
  6
Continuous
 62
     7
100
AcDbLine
 10
1579.287501800851
 20
689.0219085352073
 30
0.0
 11
1579.287501800851
 21
486.5219145352075
 31
0.0
  0
LINE
  5
7181
330
1E
100
AcDbEntity
  8
躯体と製品
  6
Continuous
 62
     7
100
AcDbLine
 10
1572.787501800851
 20
689.0219085352073
 30
0.0
 11
1572.787501800851
 21
486.5219145352075
 31
0.0
  0
LINE
  5
7182
330
1E
100
AcDbEntity
  8
躯体と製品
  6
Continuous
 62
     7
100
AcDbLine
 10
1585.787501800851
 20
689.0219085352073
 30
0.0
 11
1585.787501800851
 21
486.5219145352075
 31
0.0
  0
LINE
  5
7183
330
1E
100
AcDbEntity
  8
躯体と製品
  6
Continuous
 62
     7
100
AcDbLine
 10
1574.187501800851
 20
534.9219085352074
 30
0.0
 11
1574.187501800851
 21
689.0219085352073
 31
0.0
  0
LINE
  5
7184
330
1E
100
AcDbEntity
  8
躯体と製品
  6
Continuous
 62
     7
100
AcDbLine
 10
1584.387501800851
 20
534.9219085352074
 30
0.0
 11
1584.387501800851
 21
689.0219085352073
 31
0.0
  0
LINE
  5
7185
330
1E
100
AcDbEntity
  8
躯体と製品
  6
Continuous
 62
     7
100
AcDbLine
 10
1567.787501800851
 20
486.5219145352075
 30
0.0
 11
1567.787501800851
 21
634.0219085352073
 31
0.0
  0
LINE
  5
7186
330
1E
100
AcDbEntity
  8
躯体と製品
  6
Continuous
 62
     7
100
AcDbLine
 10
1570.287501800851
 20
634.0219085352073
 30
0.0
 11
1570.287501800851
 21
486.5219145352075
 31
0.0
  0
TEXT
  5
7187
330
1E
100
AcDbEntity
  8
文字-記号
 62
     7
100
AcDbText
 10
1599.820441800851
 20
591.9218985352072
 30
0.0
 40
3.0
  1
吹出口補強枠
 41
0.8
  7
ACAD
100
AcDbText
  0
TEXT
  5
7188
330
1E
100
AcDbEntity
  8
文字-記号
 62
     7
100
AcDbText
 10
1599.820451800851
 20
587.9218985352072
 30
0.0
 40
3.0
  1
（６０×４５×０．８）
 41
0.8
  7
ACAD
100
AcDbText
  0
LINE
  5
7189
330
1E
100
AcDbEntity
  8
文字-記号
  6
Continuous
 62
     7
100
AcDbLine
 10
1599.820441800851
 20
586.9219085352074
 30
0.0
 11
1629.920434800851
 21
586.9219085352074
 31
0.0
  0
LINE
  5
718A
330
1E
100
AcDbEntity
  8
躯体と製品
  6
Continuous
 62
     7
100
AcDbLine
 10
1659.287494800851
 20
566.9219085352074
 30
0.0
 11
1618.48750180085
 21
566.9219085352074
 31
0.0
  0
LINE
  5
718B
330
1E
100
AcDbEntity
  8
躯体と製品
  6
Continuous
 62
     7
100
AcDbLine
 10
1618.48750180085
 20
559.3219085352075
 30
0.0
 11
1659.287494800851
 21
559.3219085352075
 31
0.0
  0
LINE
  5
718C
330
1E
100
AcDbEntity
  8
躯体と製品
  6
Continuous
 62
     7
100
AcDbLine
 10
1659.287494800851
 20
554.1219085352072
 30
0.0
 11
1592.98750180085
 21
554.1219085352072
 31
0.0
  0
LINE
  5
718D
330
1E
100
AcDbEntity
  8
躯体と製品
  6
Continuous
 62
     7
100
AcDbLine
 10
1592.98750180085
 20
551.5219085352073
 30
0.0
 11
1659.287494800851
 21
551.5219085352073
 31
0.0
  0
TEXT
  5
718E
330
1E
100
AcDbEntity
  8
文字-記号
 62
     7
100
AcDbText
 10
1609.412971800851
 20
534.2218985352074
 30
0.0
 40
3.0
  1
ダブル野縁
 41
0.8
  7
ACAD
100
AcDbText
  0
LINE
  5
718F
330
1E
100
AcDbEntity
  8
文字-記号
  6
Continuous
 62
     7
100
AcDbLine
 10
1609.41296180085
 20
533.2219085352075
 30
0.0
 11
1624.462954800851
 21
533.2219085352075
 31
0.0
  0
LINE
  5
7190
330
1E
100
AcDbEntity
  8
躯体と製品
  6
Continuous
 62
     7
100
AcDbLine
 10
1590.787501800851
 20
486.5219145352075
 30
0.0
 11
1590.787501800851
 21
554.1219085352072
 31
0.0
  0
LINE
  5
7191
330
1E
100
AcDbEntity
  8
躯体と製品
  6
Continuous
 62
     7
100
AcDbLine
 10
1588.287501800851
 20
554.3219085352075
 30
0.0
 11
1588.287501800851
 21
486.5219145352075
 31
0.0
  0
LINE
  5
7192
330
1E
100
AcDbEntity
  8
文字-記号
  6
Continuous
 62
     7
100
AcDbLine
 10
1595.787501800851
 20
556.8219085352075
 30
0.0
 11
1609.41296180085
 21
533.2219085352075
 31
0.0
  0
LINE
  5
7193
330
1E
100
AcDbEntity
  8
文字-記号
  6
Continuous
 62
     7
100
AcDbLine
 10
1572.987501800851
 20
535.4012785352074
 30
0.0
 11
1561.966991800851
 21
563.2219085352075
 31
0.0
  0
LINE
  5
7194
330
1E
100
AcDbEntity
  8
躯体と製品
  6
Continuous
 62
     7
100
AcDbLine
 10
1584.33750180085
 20
531.5219085352073
 30
0.0
 11
1583.98750180085
 21
531.5219085352073
 31
0.0
  0
LINE
  5
7195
330
1E
100
AcDbEntity
  8
躯体と製品
  6
Continuous
 62
     7
100
AcDbLine
 10
1584.33750180085
 20
531.5812785352072
 30
0.0
 11
1584.33750180085
 21
530.6812785352072
 31
0.0
  0
LINE
  5
7196
330
1E
100
AcDbEntity
  8
躯体と製品
  6
Continuous
 62
     7
100
AcDbLine
 10
1583.08750180085
 20
528.3219085352075
 30
0.0
 11
1583.08750180085
 21
529.3219085352075
 31
0.0
  0
ARC
  5
7197
330
1E
100
AcDbEntity
  8
躯体と製品
  6
Continuous
 62
     7
100
AcDbCircle
 10
1583.287501800851
 20
528.3219085352075
 30
0.0
 40
0.2
100
AcDbArc
 50
180.0
 51
270.0
  0
ARC
  5
7198
330
1E
100
AcDbEntity
  8
躯体と製品
  6
Continuous
 62
     7
100
AcDbCircle
 10
1582.887501800851
 20
529.3219085352075
 30
0.0
 40
0.2
100
AcDbArc
 50
0.0
 51
90.0
  0
LINE
  5
7199
330
1E
100
AcDbEntity
  8
躯体と製品
  6
Continuous
 62
     7
100
AcDbLine
 10
1583.62750180085
 20
528.5265485352074
 30
0.0
 11
1583.747501800851
 21
528.5265485352074
 31
0.0
  0
ARC
  5
719A
330
1E
100
AcDbEntity
  8
躯体と製品
  6
Continuous
 62
     7
100
AcDbCircle
 10
1583.62750180085
 20
528.7665485352071
 30
0.0
 40
0.24
100
AcDbArc
 50
180.0
 51
270.0
  0
LINE
  5
719B
330
1E
100
AcDbEntity
  8
躯体と製品
  6
Continuous
 62
     7
100
AcDbLine
 10
1583.38750180085
 20
528.7665485352071
 30
0.0
 11
1583.38750180085
 21
531.5819085352073
 31
0.0
  0
LINE
  5
719C
330
1E
100
AcDbEntity
  8
躯体と製品
  6
Continuous
 62
     7
100
AcDbLine
 10
1583.98750180085
 20
528.7665485352071
 30
0.0
 11
1583.98750180085
 21
531.5819085352073
 31
0.0
  0
ARC
  5
719D
330
1E
100
AcDbEntity
  8
躯体と製品
  6
Continuous
 62
     7
100
AcDbCircle
 10
1583.747501800851
 20
528.7665485352071
 30
0.0
 40
0.24
100
AcDbArc
 50
270.0
 51
0.0
  0
ARC
  5
719E
330
1E
100
AcDbEntity
  8
躯体と製品
  6
Continuous
 62
     7
100
AcDbCircle
 10
1583.62750180085
 20
531.5819085352073
 30
0.0
 40
0.24
100
AcDbArc
 50
90.0
 51
180.0
  0
LINE
  5
719F
330
1E
100
AcDbEntity
  8
躯体と製品
  6
Continuous
 62
     7
100
AcDbLine
 10
1583.62750180085
 20
531.8219085352075
 30
0.0
 11
1583.747501800851
 21
531.8219085352075
 31
0.0
  0
LINE
  5
71A0
330
1E
100
AcDbEntity
  8
躯体と製品
  6
CENTER1
 62
     7
100
AcDbLine
 10
1583.687501800851
 20
532.0012785352073
 30
0.0
 11
1583.687501800851
 21
528.5311885352075
 31
0.0
  0
ARC
  5
71A1
330
1E
100
AcDbEntity
  8
躯体と製品
  6
Continuous
 62
     7
100
AcDbCircle
 10
1583.747501800851
 20
531.5819085352073
 30
0.0
 40
0.24
100
AcDbArc
 50
0.0
 51
90.0
  0
ARC
  5
71A2
330
1E
100
AcDbEntity
  8
躯体と製品
  6
Continuous
 62
     7
100
AcDbCircle
 10
1585.38750180085
 20
532.0812785352073
 30
0.0
 40
0.2
100
AcDbArc
 50
270.0
 51
0.0
  0
ARC
  5
71A3
330
1E
100
AcDbEntity
  8
躯体と製品
  6
Continuous
 62
     7
100
AcDbCircle
 10
1584.63750180085
 20
531.5812785352072
 30
0.0
 40
0.3
100
AcDbArc
 50
90.0
 51
180.0
  0
LINE
  5
71A4
330
1E
100
AcDbEntity
  8
躯体と製品
  6
Continuous
 62
     7
100
AcDbLine
 10
1584.63750180085
 20
531.8812785352074
 30
0.0
 11
1585.38750180085
 21
531.8812785352074
 31
0.0
  0
LINE
  5
71A5
330
1E
100
AcDbEntity
  8
躯体と製品
  6
Continuous
 62
     7
100
AcDbLine
 10
1584.387501800851
 20
530.6341385352075
 30
0.0
 11
1584.33750180085
 21
530.6812785352072
 31
0.0
  0
LINE
  5
71A6
330
1E
100
AcDbEntity
  8
躯体と製品
  6
Continuous
 62
     7
100
AcDbLine
 10
1583.287501800851
 20
528.1219085352072
 30
0.0
 11
1584.387501800851
 21
528.1219085352072
 31
0.0
  0
LINE
  5
71A7
330
1E
100
AcDbEntity
  8
躯体と製品
  6
Continuous
 62
     7
100
AcDbLine
 10
1585.58750180085
 20
535.4012785352074
 30
0.0
 11
1585.58750180085
 21
532.0812785352073
 31
0.0
  0
LINE
  5
71A8
330
1E
100
AcDbEntity
  8
躯体と製品
  6
Continuous
 62
     7
100
AcDbLine
 10
1578.78750180085
 20
534.4012785352074
 30
0.0
 11
1579.787501800851
 21
534.4012785352074
 31
0.0
  0
ARC
  5
71A9
330
1E
100
AcDbEntity
  8
躯体と製品
  6
Continuous
 62
     7
100
AcDbCircle
 10
1579.787501800851
 20
534.2012785352071
 30
0.0
 40
0.2
100
AcDbArc
 50
0.0
 51
90.0
  0
ARC
  5
71AA
330
1E
100
AcDbEntity
  8
躯体と製品
  6
Continuous
 62
     7
100
AcDbCircle
 10
1578.78750180085
 20
534.2012785352071
 30
0.0
 40
0.2
100
AcDbArc
 50
90.0
 51
180.0
  0
LINE
  5
71AB
330
1E
100
AcDbEntity
  8
躯体と製品
  6
Continuous
 62
     7
100
AcDbLine
 10
1581.58750180085
 20
530.9219085352074
 30
0.0
 11
1579.287501800851
 21
530.9219085352074
 31
0.0
  0
LINE
  5
71AC
330
1E
100
AcDbEntity
  8
躯体と製品
  6
Continuous
 62
     7
100
AcDbLine
 10
1578.78750180085
 20
533.0012785352074
 30
0.0
 11
1579.787501800851
 21
533.0012785352074
 31
0.0
  0
ARC
  5
71AD
330
1E
100
AcDbEntity
  8
躯体と製品
  6
Continuous
 62
     7
100
AcDbCircle
 10
1579.787501800851
 20
533.2012785352072
 30
0.0
 40
0.2
100
AcDbArc
 50
270.0
 51
0.0
  0
ARC
  5
71AE
330
1E
100
AcDbEntity
  8
躯体と製品
  6
Continuous
 62
     7
100
AcDbCircle
 10
1581.98750180085
 20
529.7219085352075
 30
0.0
 40
0.2
100
AcDbArc
 50
180.0
 51
270.0
  0
LINE
  5
71AF
330
1E
100
AcDbEntity
  8
躯体と製品
  6
Continuous
 62
     7
100
AcDbLine
 10
1581.787501800851
 20
529.7219085352075
 30
0.0
 11
1581.787501800851
 21
530.7219085352076
 31
0.0
  0
ARC
  5
71B0
330
1E
100
AcDbEntity
  8
躯体と製品
  6
Continuous
 62
     7
100
AcDbCircle
 10
1581.58750180085
 20
530.7219085352076
 30
0.0
 40
0.2
100
AcDbArc
 50
0.0
 51
90.0
  0
LINE
  5
71B1
330
1E
100
AcDbEntity
  8
躯体と製品
  6
CENTER1
 62
     7
100
AcDbLine
 10
1574.887501800851
 20
532.0012785352073
 30
0.0
 11
1574.887501800851
 21
528.5219085352073
 31
0.0
  0
ARC
  5
71B2
330
1E
100
AcDbEntity
  8
躯体と製品
  6
Continuous
 62
     7
100
AcDbCircle
 10
1576.987501800851
 20
530.7219085352076
 30
0.0
 40
0.2
100
AcDbArc
 50
90.0
 51
180.0
  0
ARC
  5
71B3
330
1E
100
AcDbEntity
  8
躯体と製品
  6
Continuous
 62
     7
100
AcDbCircle
 10
1575.287501800851
 20
528.3219085352075
 30
0.0
 40
0.2
100
AcDbArc
 50
270.0
 51
0.0
  0
LINE
  5
71B4
330
1E
100
AcDbEntity
  8
躯体と製品
  6
Continuous
 62
     7
100
AcDbLine
 10
1575.48750180085
 20
528.3219085352075
 30
0.0
 11
1575.48750180085
 21
529.3219085352075
 31
0.0
  0
LINE
  5
71B5
330
1E
100
AcDbEntity
  8
躯体と製品
  6
Continuous
 62
     7
100
AcDbLine
 10
1575.687501800851
 20
529.5219085352073
 30
0.0
 11
1576.58750180085
 21
529.5219085352073
 31
0.0
  0
ARC
  5
71B6
330
1E
100
AcDbEntity
  8
躯体と製品
  6
Continuous
 62
     7
100
AcDbCircle
 10
1575.687501800851
 20
529.3219085352075
 30
0.0
 40
0.2
100
AcDbArc
 50
90.0
 51
180.0
  0
ARC
  5
71B7
330
1E
100
AcDbEntity
  8
躯体と製品
  6
Continuous
 62
     7
100
AcDbCircle
 10
1576.58750180085
 20
529.7219085352075
 30
0.0
 40
0.2
100
AcDbArc
 50
270.0
 51
0.0
  0
LINE
  5
71B8
330
1E
100
AcDbEntity
  8
躯体と製品
  6
Continuous
 62
     7
100
AcDbLine
 10
1576.787501800851
 20
529.7219085352075
 30
0.0
 11
1576.787501800851
 21
530.7219085352076
 31
0.0
  0
ARC
  5
71B9
330
1E
100
AcDbEntity
  8
躯体と製品
  6
Continuous
 62
     7
100
AcDbCircle
 10
1574.94750180085
 20
531.5819085352073
 30
0.0
 40
0.24
100
AcDbArc
 50
0.0
 51
90.0
  0
LINE
  5
71BA
330
1E
100
AcDbEntity
  8
躯体と製品
  6
Continuous
 62
     7
100
AcDbLine
 10
1575.187501800851
 20
528.7665485352071
 30
0.0
 11
1575.187501800851
 21
531.5819085352073
 31
0.0
  0
ARC
  5
71BB
330
1E
100
AcDbEntity
  8
躯体と製品
  6
Continuous
 62
     7
100
AcDbCircle
 10
1574.94750180085
 20
528.7665485352071
 30
0.0
 40
0.24
100
AcDbArc
 50
270.0
 51
0.0
  0
LINE
  5
71BC
330
1E
100
AcDbEntity
  8
躯体と製品
  6
Continuous
 62
     7
100
AcDbLine
 10
1574.827501800851
 20
528.5172585352074
 30
0.0
 11
1574.94750180085
 21
528.5172585352074
 31
0.0
  0
ARC
  5
71BD
330
1E
100
AcDbEntity
  8
躯体と製品
  6
Continuous
 62
     7
100
AcDbCircle
 10
1574.827501800851
 20
528.7665485352071
 30
0.0
 40
0.24
100
AcDbArc
 50
180.0
 51
270.0
  0
LINE
  5
71BE
330
1E
100
AcDbEntity
  8
躯体と製品
  6
Continuous
 62
     7
100
AcDbLine
 10
1574.587501800851
 20
528.7665485352071
 30
0.0
 11
1574.587501800851
 21
531.5819085352073
 31
0.0
  0
ARC
  5
71BF
330
1E
100
AcDbEntity
  8
躯体と製品
  6
Continuous
 62
     7
100
AcDbCircle
 10
1574.827501800851
 20
531.5819085352073
 30
0.0
 40
0.24
100
AcDbArc
 50
90.0
 51
180.0
  0
LINE
  5
71C0
330
1E
100
AcDbEntity
  8
躯体と製品
  6
Continuous
 62
     7
100
AcDbLine
 10
1574.827501800851
 20
531.8219085352075
 30
0.0
 11
1574.94750180085
 21
531.8219085352075
 31
0.0
  0
LINE
  5
71C1
330
1E
100
AcDbEntity
  8
躯体と製品
  6
Continuous
 62
     7
100
AcDbLine
 10
1579.287501800851
 20
531.5219085352073
 30
0.0
 11
1575.187501800851
 21
531.5219085352073
 31
0.0
  0
LINE
  5
71C2
330
1E
100
AcDbEntity
  8
躯体と製品
  6
Continuous
 62
     7
100
AcDbLine
 10
1576.987501800851
 20
530.9219085352074
 30
0.0
 11
1579.287501800851
 21
530.9219085352074
 31
0.0
  0
ARC
  5
71C3
330
1E
100
AcDbEntity
  8
躯体と製品
  6
Continuous
 62
     7
100
AcDbCircle
 10
1578.78750180085
 20
533.2012785352072
 30
0.0
 40
0.2
100
AcDbArc
 50
180.0
 51
270.0
  0
LINE
  5
71C4
330
1E
100
AcDbEntity
  8
躯体と製品
  6
Continuous
 62
     7
100
AcDbLine
 10
1578.58750180085
 20
534.2012785352071
 30
0.0
 11
1578.58750180085
 21
533.2012785352072
 31
0.0
  0
LINE
  5
71C5
330
1E
100
AcDbEntity
  8
躯体と製品
  6
Continuous
 62
     7
100
AcDbLine
 10
1579.98750180085
 20
533.2012785352072
 30
0.0
 11
1579.98750180085
 21
534.2012785352071
 31
0.0
  0
CIRCLE
  5
71C6
330
1E
100
AcDbEntity
  8
文字-記号
  6
Continuous
 62
     7
100
AcDbCircle
 10
1572.987501800851
 20
535.4012785352074
 30
0.0
 40
1.399999999999999
  0
ARC
  5
71C7
330
1E
100
AcDbEntity
  8
躯体と製品
  6
Continuous
 62
     7
100
AcDbCircle
 10
1573.187501800851
 20
532.0812785352073
 30
0.0
 40
0.2
100
AcDbArc
 50
180.0
 51
270.0
  0
LINE
  5
71C8
330
1E
100
AcDbEntity
  8
躯体と製品
  6
Continuous
 62
     7
100
AcDbLine
 10
1573.937501800851
 20
531.8812785352074
 30
0.0
 11
1573.187501800851
 21
531.8812785352074
 31
0.0
  0
ARC
  5
71C9
330
1E
100
AcDbEntity
  8
躯体と製品
  6
Continuous
 62
     7
100
AcDbCircle
 10
1573.937501800851
 20
531.5812785352072
 30
0.0
 40
0.3
100
AcDbArc
 50
0.0
 51
90.0
  0
LINE
  5
71CA
330
1E
100
AcDbEntity
  8
躯体と製品
  6
Continuous
 62
     7
100
AcDbLine
 10
1574.23750180085
 20
531.5812785352072
 30
0.0
 11
1574.23750180085
 21
530.6812785352072
 31
0.0
  0
LINE
  5
71CB
330
1E
100
AcDbEntity
  8
躯体と製品
  6
Continuous
 62
     7
100
AcDbLine
 10
1574.187501800851
 20
530.6341385352075
 30
0.0
 11
1574.23750180085
 21
530.6812785352072
 31
0.0
  0
LINE
  5
71CC
330
1E
100
AcDbEntity
  8
躯体と製品
  6
Continuous
 62
     7
100
AcDbLine
 10
1572.987501800851
 20
532.0812785352073
 30
0.0
 11
1572.987501800851
 21
535.4012785352074
 31
0.0
  0
LINE
  5
71CD
330
1E
100
AcDbEntity
  8
躯体と製品
  6
Continuous
 62
     7
100
AcDbLine
 10
1574.587501800851
 20
531.5219085352073
 30
0.0
 11
1574.23750180085
 21
531.5219085352073
 31
0.0
  0
LINE
  5
71CE
330
1E
100
AcDbEntity
  8
躯体と製品
  6
DASHED2
 62
     7
100
AcDbLine
 10
1572.987501800851
 20
532.1212785352072
 30
0.0
 11
1579.287501800851
 21
532.1212785352072
 31
0.0
  0
LINE
  5
71CF
330
1E
100
AcDbEntity
  8
躯体と製品
  6
DASHED2
 62
     7
100
AcDbLine
 10
1572.987501800851
 20
535.2812785352075
 30
0.0
 11
1579.287501800851
 21
535.2812785352075
 31
0.0
  0
LINE
  5
71D0
330
1E
100
AcDbEntity
  8
躯体と製品
  6
Continuous
 62
     7
100
AcDbLine
 10
1579.287501800851
 20
535.4012785352074
 30
0.0
 11
1572.987501800851
 21
535.4012785352074
 31
0.0
  0
LINE
  5
71D1
330
1E
100
AcDbEntity
  8
躯体と製品
  6
Continuous
 62
     7
100
AcDbLine
 10
1573.004191800851
 20
532.0012785352073
 30
0.0
 11
1579.287501800851
 21
532.0012785352073
 31
0.0
  0
LINE
  5
71D2
330
1E
100
AcDbEntity
  8
躯体と製品
  6
Continuous
 62
     7
100
AcDbLine
 10
1574.187501800851
 20
528.1219085352072
 30
0.0
 11
1575.287501800851
 21
528.1219085352072
 31
0.0
  0
LINE
  5
71D3
330
1E
100
AcDbEntity
  8
躯体と製品
  6
Continuous
 62
     7
100
AcDbLine
 10
1587.568531800851
 20
531.5219085352073
 30
0.0
 11
1572.987501800851
 21
531.5219085352073
 31
0.0
  0
LINE
  5
71D4
330
1E
100
AcDbEntity
  8
躯体と製品
  6
Continuous
 62
     7
100
AcDbLine
 10
1583.38750180085
 20
531.5219085352073
 30
0.0
 11
1579.287501800851
 21
531.5219085352073
 31
0.0
  0
LINE
  5
71D5
330
1E
100
AcDbEntity
  8
躯体と製品
  6
DASHED2
 62
     7
100
AcDbLine
 10
1585.58750180085
 20
532.1212785352072
 30
0.0
 11
1579.287501800851
 21
532.1212785352072
 31
0.0
  0
LINE
  5
71D6
330
1E
100
AcDbEntity
  8
躯体と製品
  6
DASHED2
 62
     7
100
AcDbLine
 10
1585.58750180085
 20
535.2812785352075
 30
0.0
 11
1579.287501800851
 21
535.2812785352075
 31
0.0
  0
LINE
  5
71D7
330
1E
100
AcDbEntity
  8
躯体と製品
  6
Continuous
 62
     7
100
AcDbLine
 10
1579.287501800851
 20
535.4012785352074
 30
0.0
 11
1585.58750180085
 21
535.4012785352074
 31
0.0
  0
LINE
  5
71D8
330
1E
100
AcDbEntity
  8
躯体と製品
  6
Continuous
 62
     7
100
AcDbLine
 10
1585.570801800851
 20
532.0012785352073
 30
0.0
 11
1579.287501800851
 21
532.0012785352073
 31
0.0
  0
LINE
  5
71D9
330
1E
100
AcDbEntity
  8
躯体と製品
  6
Continuous
 62
     7
100
AcDbLine
 10
1582.887501800851
 20
529.5219085352073
 30
0.0
 11
1581.98750180085
 21
529.5219085352073
 31
0.0
  0
LINE
  5
71DA
330
1E
100
AcDbEntity
  8
躯体と製品
  6
Continuous
 62
     7
100
AcDbLine
 10
1584.387501800851
 20
486.5219145352075
 30
0.0
 11
1584.387501800851
 21
531.5219085352073
 31
0.0
  0
LINE
  5
71DB
330
1E
100
AcDbEntity
  8
躯体と製品
  6
Continuous
 62
     7
100
AcDbLine
 10
1574.187501800851
 20
486.5219145352075
 30
0.0
 11
1574.187501800851
 21
531.5219085352073
 31
0.0
  0
DIMENSION
  5
71DC
330
1E
100
AcDbEntity
  8
寸法
  6
Continuous
100
AcDbDimension
  2
*D5
 10
1590.787501800851
 20
541.5219085352073
 30
0.0
 11
1591.787501800851
 21
543.8219085352073
 31
0.0
 70
    32
  1
10
 71
     5
 42
2.0
  3
AutoCAD
100
AcDbAlignedDimension
 13
1592.787501800851
 23
550.0219085352073
 33
0.0
 14
1590.787501800851
 24
554.1219085352072
 34
0.0
100
AcDbRotatedDimension
1001
ACAD
1000
DSTYLE
1002
{
1070
   147
1040
0.8
1070
   140
1040
10.0
1002
}
  0
LINE
  5
71DD
330
1E
100
AcDbEntity
  8
躯体と製品
  6
Continuous
 62
     7
100
AcDbLine
 10
1591.98750180085
 20
554.5219085352073
 30
0.0
 11
1591.787501800851
 21
554.4219085352074
 31
0.0
  0
LINE
  5
71DE
330
1E
100
AcDbEntity
  8
躯体と製品
  6
Continuous
 62
     7
100
AcDbLine
 10
1591.98750180085
 20
554.4219085352074
 30
0.0
 11
1591.787501800851
 21
554.3219085352075
 31
0.0
  0
LINE
  5
71DF
330
1E
100
AcDbEntity
  8
躯体と製品
  6
Continuous
 62
     7
100
AcDbLine
 10
1589.787501800851
 20
554.3219085352075
 30
0.0
 11
1598.787501800851
 21
554.3219085352075
 31
0.0
  0
LINE
  5
71E0
330
1E
100
AcDbEntity
  8
躯体と製品
  6
Continuous
 62
     7
100
AcDbLine
 10
1592.787501800851
 20
554.1219085352072
 30
0.0
 11
1588.287501800851
 21
554.1219085352072
 31
0.0
  0
LINE
  5
71E1
330
1E
100
AcDbEntity
  8
躯体と製品
  6
Continuous
 62
     7
100
AcDbLine
 10
1586.08750180085
 20
559.3219085352075
 30
0.0
 11
1613.887501800851
 21
559.3219085352075
 31
0.0
  0
LINE
  5
71E2
330
1E
100
AcDbEntity
  8
躯体と製品
  6
Continuous
 62
     7
100
AcDbLine
 10
1613.887501800851
 20
566.9219085352074
 30
0.0
 11
1586.187501800851
 21
566.9219085352074
 31
0.0
  0
LINE
  5
71E3
330
1E
100
AcDbEntity
  8
文字-記号
  6
Continuous
 62
     7
100
AcDbLine
 10
1579.287501800851
 20
584.0219085352073
 30
0.0
 11
1599.820441800851
 21
586.9219085352074
 31
0.0
  0
CIRCLE
  5
71E4
330
1E
100
AcDbEntity
  8
文字-記号
  6
Continuous
 62
     7
100
AcDbCircle
 10
1566.787501800851
 20
601.5219085352073
 30
0.0
 40
0.3
  0
LINE
  5
71E5
330
1E
100
AcDbEntity
  8
躯体と製品
  6
CENTER2
 62
     7
100
AcDbLine
 10
1563.787501800851
 20
601.5219085352073
 30
0.0
 11
1590.787501800851
 21
601.5219085352073
 31
0.0
  0
LINE
  5
71E6
330
1E
100
AcDbEntity
  8
躯体と製品
  6
Continuous
 62
     7
100
AcDbLine
 10
1584.54750180085
 20
586.6619085352072
 30
0.0
 11
1584.54750180085
 21
585.7219085352076
 31
0.0
  0
LINE
  5
71E7
330
1E
100
AcDbEntity
  8
躯体と製品
  6
Continuous
 62
     7
100
AcDbLine
 10
1585.62750180085
 20
586.6619085352072
 30
0.0
 11
1584.54750180085
 21
586.6619085352072
 31
0.0
  0
LINE
  5
71E8
330
1E
100
AcDbEntity
  8
躯体と製品
  6
Continuous
 62
     7
100
AcDbLine
 10
1584.387501800851
 20
586.8219085352075
 30
0.0
 11
1585.787501800851
 21
586.8219085352075
 31
0.0
  0
LINE
  5
71E9
330
1E
100
AcDbEntity
  8
躯体と製品
  6
Continuous
 62
     7
100
AcDbLine
 10
1584.387501800851
 20
585.7219085352076
 30
0.0
 11
1584.54750180085
 21
585.7219085352076
 31
0.0
  0
LINE
  5
71EA
330
1E
100
AcDbEntity
  8
躯体と製品
  6
Continuous
 62
     7
100
AcDbLine
 10
1585.58750180085
 20
584.0219085352073
 30
0.0
 11
1585.58750180085
 21
580.6219085352072
 31
0.0
  0
LINE
  5
71EB
330
1E
100
AcDbEntity
  8
躯体と製品
  6
Continuous
 62
     7
100
AcDbLine
 10
1584.479871800851
 20
577.9819085352073
 30
0.0
 11
1584.399041800851
 21
578.1219085352072
 31
0.0
  0
LINE
  5
71EC
330
1E
100
AcDbEntity
  8
躯体と製品
  6
Continuous
 62
     7
100
AcDbLine
 10
1585.62750180085
 20
577.9819085352073
 30
0.0
 11
1584.479871800851
 21
577.9819085352073
 31
0.0
  0
LINE
  5
71ED
330
1E
100
AcDbEntity
  8
躯体と製品
  6
Continuous
 62
     7
100
AcDbLine
 10
1584.306671800851
 20
577.9619085352074
 30
0.0
 11
1584.387501800851
 21
577.8219085352075
 31
0.0
  0
LINE
  5
71EE
330
1E
100
AcDbEntity
  8
躯体と製品
  6
Continuous
 62
     7
100
AcDbLine
 10
1585.787501800851
 20
577.8219085352075
 30
0.0
 11
1584.387501800851
 21
577.8219085352075
 31
0.0
  0
LINE
  5
71EF
330
1E
100
AcDbEntity
  8
躯体と製品
  6
Continuous
 62
     7
100
AcDbLine
 10
1585.62750180085
 20
586.6619085352072
 30
0.0
 11
1585.62750180085
 21
577.9819085352073
 31
0.0
  0
LINE
  5
71F0
330
1E
100
AcDbEntity
  8
躯体と製品
  6
Continuous
 62
     7
100
AcDbLine
 10
1574.02750180085
 20
586.6619085352072
 30
0.0
 11
1574.02750180085
 21
585.7219085352076
 31
0.0
  0
LINE
  5
71F1
330
1E
100
AcDbEntity
  8
躯体と製品
  6
Continuous
 62
     7
100
AcDbLine
 10
1572.94750180085
 20
586.6619085352072
 30
0.0
 11
1574.02750180085
 21
586.6619085352072
 31
0.0
  0
LINE
  5
71F2
330
1E
100
AcDbEntity
  8
躯体と製品
  6
Continuous
 62
     7
100
AcDbLine
 10
1572.787501800851
 20
586.8219085352075
 30
0.0
 11
1574.187501800851
 21
586.8219085352075
 31
0.0
  0
LINE
  5
71F3
330
1E
100
AcDbEntity
  8
躯体と製品
  6
Continuous
 62
     7
100
AcDbLine
 10
1574.02750180085
 20
585.7219085352076
 30
0.0
 11
1574.187501800851
 21
585.7219085352076
 31
0.0
  0
LINE
  5
71F4
330
1E
100
AcDbEntity
  8
躯体と製品
  6
Continuous
 62
     7
100
AcDbLine
 10
1566.787501800851
 20
587.9219085352074
 30
0.0
 11
1567.787501800851
 21
587.9219085352074
 31
0.0
  0
CIRCLE
  5
71F5
330
1E
100
AcDbEntity
  8
文字-記号
  6
Continuous
 62
     7
100
AcDbCircle
 10
1579.287501800851
 20
584.0219085352073
 30
0.0
 40
0.3
  0
CIRCLE
  5
71F6
330
1E
100
AcDbEntity
  8
躯体と製品
  6
Continuous
 62
     7
100
AcDbCircle
 10
1579.287501800851
 20
579.3219085352075
 30
0.0
 40
0.6
  0
LINE
  5
71F7
330
1E
100
AcDbEntity
  8
躯体と製品
  6
Continuous
 62
     7
100
AcDbLine
 10
1572.987501800851
 20
580.6219085352072
 30
0.0
 11
1572.987501800851
 21
584.0219085352073
 31
0.0
  0
LINE
  5
71F8
330
1E
100
AcDbEntity
  8
躯体と製品
  6
Continuous
 62
     7
100
AcDbLine
 10
1572.787501800851
 20
577.8219085352075
 30
0.0
 11
1574.187501800851
 21
577.8219085352075
 31
0.0
  0
LINE
  5
71F9
330
1E
100
AcDbEntity
  8
躯体と製品
  6
Continuous
 62
     7
100
AcDbLine
 10
1574.175951800851
 20
578.1219085352072
 30
0.0
 11
1574.095121800851
 21
577.9819085352073
 31
0.0
  0
LINE
  5
71FA
330
1E
100
AcDbEntity
  8
躯体と製品
  6
Continuous
 62
     7
100
AcDbLine
 10
1574.187501800851
 20
577.8219085352075
 30
0.0
 11
1574.268321800851
 21
577.9619085352074
 31
0.0
  0
LINE
  5
71FB
330
1E
100
AcDbEntity
  8
躯体と製品
  6
Continuous
 62
     7
100
AcDbLine
 10
1574.095121800851
 20
577.9819085352073
 30
0.0
 11
1572.94750180085
 21
577.9819085352073
 31
0.0
  0
LINE
  5
71FC
330
1E
100
AcDbEntity
  8
躯体と製品
  6
Continuous
 62
     7
100
AcDbLine
 10
1572.94750180085
 20
586.6619085352072
 30
0.0
 11
1572.94750180085
 21
577.9819085352073
 31
0.0
  0
LINE
  5
71FD
330
1E
100
AcDbEntity
  8
躯体と製品
  6
Continuous
 62
     7
100
AcDbLine
 10
1567.787501800851
 20
590.8219085352075
 30
0.0
 11
1590.787501800851
 21
590.8219085352075
 31
0.0
  0
LINE
  5
71FE
330
1E
100
AcDbEntity
  8
躯体と製品
  6
Continuous
 62
     7
100
AcDbLine
 10
1572.987501800851
 20
584.0219085352073
 30
0.0
 11
1585.58750180085
 21
584.0219085352073
 31
0.0
  0
LINE
  5
71FF
330
1E
100
AcDbEntity
  8
躯体と製品
  6
Continuous
 62
     7
100
AcDbLine
 10
1585.58750180085
 20
580.6219085352072
 30
0.0
 11
1572.987501800851
 21
580.6219085352072
 31
0.0
  0
LINE
  5
7200
330
1E
100
AcDbEntity
  8
躯体と製品
  6
Continuous
 62
     7
100
AcDbLine
 10
1584.399041800851
 20
578.1219085352072
 30
0.0
 11
1574.175951800851
 21
578.1219085352072
 31
0.0
  0
LINE
  5
7201
330
1E
100
AcDbEntity
  8
躯体と製品
  6
Continuous
 62
     7
100
AcDbLine
 10
1574.268321800851
 20
577.9619085352074
 30
0.0
 11
1584.306671800851
 21
577.9619085352074
 31
0.0
  0
LINE
  5
7202
330
1E
100
AcDbEntity
  8
躯体と製品
  6
Continuous
 62
     7
100
AcDbLine
 10
1591.787501800851
 20
554.4219085352074
 30
0.0
 11
1590.98750180085
 21
554.4219085352074
 31
0.0
  0
LINE
  5
7203
330
1E
100
AcDbEntity
  8
躯体と製品
  6
Continuous
 62
     7
100
AcDbLine
 10
1591.787501800851
 20
554.3219085352075
 30
0.0
 11
1590.98750180085
 21
554.3219085352075
 31
0.0
  0
ARC
  5
7204
330
1E
100
AcDbEntity
  8
躯体と製品
  6
Continuous
 62
     7
100
AcDbCircle
 10
1586.08750180085
 20
559.0219085352073
 30
0.0
 40
0.2
100
AcDbArc
 50
90.0
 51
180.0
  0
LINE
  5
7205
330
1E
100
AcDbEntity
  8
躯体と製品
  6
Continuous
 62
     7
100
AcDbLine
 10
1586.08750180085
 20
559.2219085352076
 30
0.0
 11
1586.287501800851
 21
559.2219085352076
 31
0.0
  0
ARC
  5
7206
330
1E
100
AcDbEntity
  8
躯体と製品
  6
Continuous
 62
     7
100
AcDbCircle
 10
1586.287501800851
 20
559.0219085352073
 30
0.0
 40
0.2
100
AcDbArc
 50
0.0
 51
90.0
  0
LINE
  5
7207
330
1E
100
AcDbEntity
  8
躯体と製品
  6
Continuous
 62
     7
100
AcDbLine
 10
1586.48750180085
 20
559.0219085352073
 30
0.0
 11
1586.48750180085
 21
558.7219085352075
 31
0.0
  0
LINE
  5
7208
330
1E
100
AcDbEntity
  8
躯体と製品
  6
Continuous
 62
     7
100
AcDbLine
 10
1586.48750180085
 20
558.7219085352075
 30
0.0
 11
1586.58750180085
 21
558.7219085352075
 31
0.0
  0
LINE
  5
7209
330
1E
100
AcDbEntity
  8
躯体と製品
  6
Continuous
 62
     7
100
AcDbLine
 10
1586.58750180085
 20
558.7219085352075
 30
0.0
 11
1586.58750180085
 21
559.0219085352073
 31
0.0
  0
ARC
  5
720A
330
1E
100
AcDbEntity
  8
躯体と製品
  6
Continuous
 62
     7
100
AcDbCircle
 10
1586.287501800851
 20
559.0219085352073
 30
0.0
 40
0.3
100
AcDbArc
 50
0.0
 51
90.0
  0
ARC
  5
720B
330
1E
100
AcDbEntity
  8
躯体と製品
  6
Continuous
 62
     7
100
AcDbCircle
 10
1586.08750180085
 20
559.0219085352073
 30
0.0
 40
0.3
100
AcDbArc
 50
90.0
 51
180.0
  0
LINE
  5
720C
330
1E
100
AcDbEntity
  8
躯体と製品
  6
Continuous
 62
     7
100
AcDbLine
 10
1589.787501800851
 20
554.4219085352074
 30
0.0
 11
1590.58750180085
 21
554.4219085352074
 31
0.0
  0
LINE
  5
720D
330
1E
100
AcDbEntity
  8
躯体と製品
  6
Continuous
 62
     7
100
AcDbLine
 10
1590.58750180085
 20
554.4219085352074
 30
0.0
 11
1590.787501800851
 21
554.5219085352073
 31
0.0
  0
LINE
  5
720E
330
1E
100
AcDbEntity
  8
躯体と製品
  6
Continuous
 62
     7
100
AcDbLine
 10
1589.787501800851
 20
554.3219085352075
 30
0.0
 11
1590.58750180085
 21
554.3219085352075
 31
0.0
  0
LINE
  5
720F
330
1E
100
AcDbEntity
  8
躯体と製品
  6
Continuous
 62
     7
100
AcDbLine
 10
1590.58750180085
 20
554.3219085352075
 30
0.0
 11
1590.787501800851
 21
554.4219085352074
 31
0.0
  0
LINE
  5
7210
330
1E
100
AcDbEntity
  8
躯体と製品
  6
Continuous
 62
     7
100
AcDbLine
 10
1589.787501800851
 20
554.4219085352074
 30
0.0
 11
1589.58750180085
 21
554.5219085352073
 31
0.0
  0
LINE
  5
7211
330
1E
100
AcDbEntity
  8
躯体と製品
  6
Continuous
 62
     7
100
AcDbLine
 10
1589.58750180085
 20
554.5219085352073
 30
0.0
 11
1589.287501800851
 21
554.4219085352074
 31
0.0
  0
LINE
  5
7212
330
1E
100
AcDbEntity
  8
躯体と製品
  6
Continuous
 62
     7
100
AcDbLine
 10
1589.287501800851
 20
554.4219085352074
 30
0.0
 11
1588.987501800851
 21
554.5219085352073
 31
0.0
  0
LINE
  5
7213
330
1E
100
AcDbEntity
  8
躯体と製品
  6
Continuous
 62
     7
100
AcDbLine
 10
1588.987501800851
 20
554.5219085352073
 30
0.0
 11
1588.687501800851
 21
554.4219085352074
 31
0.0
  0
LINE
  5
7214
330
1E
100
AcDbEntity
  8
躯体と製品
  6
Continuous
 62
     7
100
AcDbLine
 10
1588.687501800851
 20
554.4219085352074
 30
0.0
 11
1588.387501800851
 21
554.5219085352073
 31
0.0
  0
LINE
  5
7215
330
1E
100
AcDbEntity
  8
躯体と製品
  6
Continuous
 62
     7
100
AcDbLine
 10
1588.387501800851
 20
554.5219085352073
 30
0.0
 11
1588.08750180085
 21
554.4219085352074
 31
0.0
  0
LINE
  5
7216
330
1E
100
AcDbEntity
  8
躯体と製品
  6
Continuous
 62
     7
100
AcDbLine
 10
1588.08750180085
 20
554.4219085352074
 30
0.0
 11
1587.787501800851
 21
554.5219085352073
 31
0.0
  0
LINE
  5
7217
330
1E
100
AcDbEntity
  8
躯体と製品
  6
Continuous
 62
     7
100
AcDbLine
 10
1587.787501800851
 20
554.5219085352073
 30
0.0
 11
1587.48750180085
 21
554.4219085352074
 31
0.0
  0
LINE
  5
7218
330
1E
100
AcDbEntity
  8
躯体と製品
  6
Continuous
 62
     7
100
AcDbLine
 10
1589.787501800851
 20
554.3219085352075
 30
0.0
 11
1589.58750180085
 21
554.4219085352074
 31
0.0
  0
LINE
  5
7219
330
1E
100
AcDbEntity
  8
躯体と製品
  6
Continuous
 62
     7
100
AcDbLine
 10
1589.58750180085
 20
554.4219085352074
 30
0.0
 11
1589.287501800851
 21
554.3219085352075
 31
0.0
  0
LINE
  5
721A
330
1E
100
AcDbEntity
  8
躯体と製品
  6
Continuous
 62
     7
100
AcDbLine
 10
1589.287501800851
 20
554.3219085352075
 30
0.0
 11
1588.987501800851
 21
554.4219085352074
 31
0.0
  0
LINE
  5
721B
330
1E
100
AcDbEntity
  8
躯体と製品
  6
Continuous
 62
     7
100
AcDbLine
 10
1588.987501800851
 20
554.4219085352074
 30
0.0
 11
1588.687501800851
 21
554.3219085352075
 31
0.0
  0
LINE
  5
721C
330
1E
100
AcDbEntity
  8
躯体と製品
  6
Continuous
 62
     7
100
AcDbLine
 10
1588.687501800851
 20
554.3219085352075
 30
0.0
 11
1588.387501800851
 21
554.4219085352074
 31
0.0
  0
LINE
  5
721D
330
1E
100
AcDbEntity
  8
躯体と製品
  6
Continuous
 62
     7
100
AcDbLine
 10
1588.387501800851
 20
554.4219085352074
 30
0.0
 11
1588.08750180085
 21
554.3219085352075
 31
0.0
  0
LINE
  5
721E
330
1E
100
AcDbEntity
  8
躯体と製品
  6
Continuous
 62
     7
100
AcDbLine
 10
1588.08750180085
 20
554.3219085352075
 30
0.0
 11
1587.787501800851
 21
554.4219085352074
 31
0.0
  0
LINE
  5
721F
330
1E
100
AcDbEntity
  8
躯体と製品
  6
Continuous
 62
     7
100
AcDbLine
 10
1587.787501800851
 20
554.4219085352074
 30
0.0
 11
1587.48750180085
 21
554.3219085352075
 31
0.0
  0
LINE
  5
7220
330
1E
100
AcDbEntity
  8
躯体と製品
  6
Continuous
 62
     7
100
AcDbLine
 10
1589.787501800851
 20
554.3219085352075
 30
0.0
 11
1589.787501800851
 21
554.1219085352072
 31
0.0
  0
LINE
  5
7221
330
1E
100
AcDbEntity
  8
躯体と製品
  6
Continuous
 62
     7
100
AcDbLine
 10
1587.48750180085
 20
554.4219085352074
 30
0.0
 11
1587.187501800851
 21
554.5219085352073
 31
0.0
  0
LINE
  5
7222
330
1E
100
AcDbEntity
  8
躯体と製品
  6
Continuous
 62
     7
100
AcDbLine
 10
1587.48750180085
 20
554.3219085352075
 30
0.0
 11
1587.187501800851
 21
554.4219085352074
 31
0.0
  0
LINE
  5
7223
330
1E
100
AcDbEntity
  8
躯体と製品
  6
Continuous
 62
     7
100
AcDbLine
 10
1587.187501800851
 20
554.5219085352073
 30
0.0
 11
1586.987501800851
 21
554.4219085352074
 31
0.0
  0
LINE
  5
7224
330
1E
100
AcDbEntity
  8
躯体と製品
  6
Continuous
 62
     7
100
AcDbLine
 10
1587.187501800851
 20
554.4219085352074
 30
0.0
 11
1586.987501800851
 21
554.3219085352075
 31
0.0
  0
ARC
  5
7225
330
1E
100
AcDbEntity
  8
躯体と製品
  6
Continuous
 62
     7
100
AcDbCircle
 10
1586.387501800851
 20
554.9219085352074
 30
0.0
 40
0.6
100
AcDbArc
 50
180.0
 51
270.0
  0
ARC
  5
7226
330
1E
100
AcDbEntity
  8
躯体と製品
  6
Continuous
 62
     7
100
AcDbCircle
 10
1586.387501800851
 20
554.9219085352074
 30
0.0
 40
0.5
100
AcDbArc
 50
180.0
 51
270.0
  0
LINE
  5
7227
330
1E
100
AcDbEntity
  8
躯体と製品
  6
Continuous
 62
     7
100
AcDbLine
 10
1586.387501800851
 20
554.3219085352075
 30
0.0
 11
1586.987501800851
 21
554.3219085352075
 31
0.0
  0
LINE
  5
7228
330
1E
100
AcDbEntity
  8
躯体と製品
  6
Continuous
 62
     7
100
AcDbLine
 10
1586.387501800851
 20
554.4219085352074
 30
0.0
 11
1586.987501800851
 21
554.4219085352074
 31
0.0
  0
LINE
  5
7229
330
1E
100
AcDbEntity
  8
躯体と製品
  6
Continuous
 62
     7
100
AcDbLine
 10
1585.787501800851
 20
554.9219085352074
 30
0.0
 11
1585.787501800851
 21
559.0219085352073
 31
0.0
  0
LINE
  5
722A
330
1E
100
AcDbEntity
  8
躯体と製品
  6
Continuous
 62
     7
100
AcDbLine
 10
1585.887501800851
 20
554.9219085352074
 30
0.0
 11
1585.887501800851
 21
559.0219085352073
 31
0.0
  0
LINE
  5
722B
330
1E
100
AcDbEntity
  8
躯体と製品
  6
Continuous
 62
     7
100
AcDbLine
 10
1590.98750180085
 20
554.4219085352074
 30
0.0
 11
1590.787501800851
 21
554.5219085352073
 31
0.0
  0
LINE
  5
722C
330
1E
100
AcDbEntity
  8
躯体と製品
  6
Continuous
 62
     7
100
AcDbLine
 10
1590.98750180085
 20
554.3219085352075
 30
0.0
 11
1590.787501800851
 21
554.4219085352074
 31
0.0
  0
LINE
  5
722D
330
1E
100
AcDbEntity
  8
躯体と製品
  6
Continuous
 62
     7
100
AcDbLine
 10
1586.187501800851
 20
566.9219085352074
 30
0.0
 11
1586.187501800851
 21
559.3219085352075
 31
0.0
  0
ARC
  5
722E
330
1E
100
AcDbEntity
  8
躯体と製品
  6
Continuous
 62
     7
100
AcDbCircle
 10
1617.595771800851
 20
579.3961685352074
 30
0.0
 40
0.7257350000000001
100
AcDbArc
 50
90.0
 51
129.157939999995
  0
LINE
  5
722F
330
1E
100
AcDbEntity
  8
躯体と製品
  6
Continuous
 62
     7
100
AcDbLine
 10
1617.805181800851
 20
580.1219085352072
 30
0.0
 11
1618.08750180085
 21
579.9589085352072
 31
0.0
  0
LINE
  5
7230
330
1E
100
AcDbEntity
  8
躯体と製品
  6
Continuous
 62
     7
100
AcDbLine
 10
1617.137501800851
 20
584.0814785352072
 30
0.0
 11
1617.137501800851
 21
580.1219085352072
 31
0.0
  0
LINE
  5
7231
330
1E
100
AcDbEntity
  8
躯体と製品
  6
Continuous
 62
     7
100
AcDbLine
 10
1618.08750180085
 20
579.9589085352072
 30
0.0
 11
1618.08750180085
 21
578.5219085352073
 31
0.0
  0
LINE
  5
7232
330
1E
100
AcDbEntity
  8
躯体と製品
  6
Continuous
 62
     7
100
AcDbLine
 10
1617.137501800851
 20
579.9589085352072
 30
0.0
 11
1617.137501800851
 21
578.5219085352073
 31
0.0
  0
LINE
  5
7233
330
1E
100
AcDbEntity
  8
躯体と製品
  6
Continuous
 62
     7
100
AcDbLine
 10
1614.28750180085
 20
579.9589085352072
 30
0.0
 11
1614.569811800851
 21
580.1219085352072
 31
0.0
  0
ARC
  5
7234
330
1E
100
AcDbEntity
  8
躯体と製品
  6
Continuous
 62
     7
100
AcDbCircle
 10
1614.779221800851
 20
579.3961685352074
 30
0.0
 40
0.7257350000000001
100
AcDbArc
 50
50.84205499999225
 51
90.0
  0
LINE
  5
7235
330
1E
100
AcDbEntity
  8
躯体と製品
  6
Continuous
 62
     7
100
AcDbLine
 10
1615.23750180085
 20
580.1219085352072
 30
0.0
 11
1615.23750180085
 21
585.0348185352072
 31
0.0
  0
LINE
  5
7236
330
1E
100
AcDbEntity
  8
躯体と製品
  6
Continuous
 62
     7
100
AcDbLine
 10
1615.23750180085
 20
578.5219085352073
 30
0.0
 11
1615.23750180085
 21
579.9589085352072
 31
0.0
  0
LINE
  5
7237
330
1E
100
AcDbEntity
  8
躯体と製品
  6
Continuous
 62
     7
100
AcDbLine
 10
1614.28750180085
 20
579.9589085352072
 30
0.0
 11
1614.28750180085
 21
578.5219085352073
 31
0.0
  0
LINE
  5
7238
330
1E
100
AcDbEntity
  8
躯体と製品
  6
Continuous
 62
     7
100
AcDbLine
 10
1614.569811800851
 20
580.1219085352072
 30
0.0
 11
1617.805181800851
 21
580.1219085352072
 31
0.0
  0
ARC
  5
7239
330
1E
100
AcDbEntity
  8
躯体と製品
  6
Continuous
 62
     7
100
AcDbCircle
 10
1616.187501800851
 20
577.2719085352073
 30
0.0
 40
2.85
100
AcDbArc
 50
70.52877899999099
 51
109.471220000014
  0
LINE
  5
723A
330
1E
100
AcDbEntity
  8
躯体と製品
  6
Continuous
 62
     7
100
AcDbLine
 10
1618.48750180085
 20
578.5219085352073
 30
0.0
 11
1613.887501800851
 21
578.5219085352073
 31
0.0
  0
LINE
  5
723B
330
1E
100
AcDbEntity
  8
躯体と製品
  6
Continuous
 62
     7
100
AcDbLine
 10
1613.887501800851
 20
558.9219085352074
 30
0.0
 11
1618.48750180085
 21
558.9219085352074
 31
0.0
  0
LINE
  5
723C
330
1E
100
AcDbEntity
  8
躯体と製品
  6
Continuous
 62
     7
100
AcDbLine
 10
1616.187501800851
 20
556.9219085352074
 30
0.0
 11
1616.187501800851
 21
584.9156485352072
 31
0.0
  0
LINE
  5
723D
330
1E
100
AcDbEntity
  8
躯体と製品
  6
Continuous
 62
     7
100
AcDbLine
 10
1618.48750180085
 20
558.9219085352074
 30
0.0
 11
1618.48750180085
 21
578.5219085352073
 31
0.0
  0
LINE
  5
723E
330
1E
100
AcDbEntity
  8
躯体と製品
  6
Continuous
 62
     7
100
AcDbLine
 10
1613.887501800851
 20
578.5219085352073
 30
0.0
 11
1613.887501800851
 21
558.9219085352074
 31
0.0
  0
ARC
  5
723F
330
1E
100
AcDbEntity
  8
躯体と製品
  6
Continuous
 62
     7
100
AcDbCircle
 10
1595.48750180085
 20
559.0219085352073
 30
0.0
 40
0.2
100
AcDbArc
 50
0.0
 51
90.0
  0
LINE
  5
7240
330
1E
100
AcDbEntity
  8
躯体と製品
  6
Continuous
 62
     7
100
AcDbLine
 10
1595.48750180085
 20
559.2219085352076
 30
0.0
 11
1595.287501800851
 21
559.2219085352076
 31
0.0
  0
ARC
  5
7241
330
1E
100
AcDbEntity
  8
躯体と製品
  6
Continuous
 62
     7
100
AcDbCircle
 10
1595.287501800851
 20
559.0219085352073
 30
0.0
 40
0.2
100
AcDbArc
 50
90.0
 51
180.0
  0
LINE
  5
7242
330
1E
100
AcDbEntity
  8
躯体と製品
  6
Continuous
 62
     7
100
AcDbLine
 10
1595.08750180085
 20
559.0219085352073
 30
0.0
 11
1595.08750180085
 21
558.7219085352075
 31
0.0
  0
ARC
  5
7243
330
1E
100
AcDbEntity
  8
躯体と製品
  6
Continuous
 62
     7
100
AcDbCircle
 10
1595.48750180085
 20
559.0219085352073
 30
0.0
 40
0.3
100
AcDbArc
 50
0.0
 51
90.0
  0
CIRCLE
  5
7244
330
1E
100
AcDbEntity
  8
文字-記号
  6
Continuous
 62
     7
100
AcDbCircle
 10
1595.787501800851
 20
556.8219085352075
 30
0.0
 40
0.3
  0
LINE
  5
7245
330
1E
100
AcDbEntity
  8
躯体と製品
  6
Continuous
 62
     7
100
AcDbLine
 10
1594.987501800851
 20
558.7219085352075
 30
0.0
 11
1594.987501800851
 21
559.0219085352073
 31
0.0
  0
LINE
  5
7246
330
1E
100
AcDbEntity
  8
躯体と製品
  6
Continuous
 62
     7
100
AcDbLine
 10
1595.08750180085
 20
558.7219085352075
 30
0.0
 11
1594.987501800851
 21
558.7219085352075
 31
0.0
  0
ARC
  5
7247
330
1E
100
AcDbEntity
  8
躯体と製品
  6
Continuous
 62
     7
100
AcDbCircle
 10
1595.287501800851
 20
559.0219085352073
 30
0.0
 40
0.3
100
AcDbArc
 50
90.0
 51
180.0
  0
ARC
  5
7248
330
1E
100
AcDbEntity
  8
躯体と製品
  6
Continuous
 62
     7
100
AcDbCircle
 10
1595.187501800851
 20
554.9219085352074
 30
0.0
 40
0.6
100
AcDbArc
 50
270.0
 51
0.0
  0
ARC
  5
7249
330
1E
100
AcDbEntity
  8
躯体と製品
  6
Continuous
 62
     7
100
AcDbCircle
 10
1595.187501800851
 20
554.9219085352074
 30
0.0
 40
0.5
100
AcDbArc
 50
270.0
 51
0.0
  0
LINE
  5
724A
330
1E
100
AcDbEntity
  8
躯体と製品
  6
Continuous
 62
     7
100
AcDbLine
 10
1598.787501800851
 20
554.3219085352075
 30
0.0
 11
1598.787501800851
 21
554.1219085352072
 31
0.0
  0
LINE
  5
724B
330
1E
100
AcDbEntity
  8
躯体と製品
  6
Continuous
 62
     7
100
AcDbLine
 10
1595.787501800851
 20
551.0219085352073
 30
0.0
 11
1595.787501800851
 21
551.5219085352073
 31
0.0
  0
LINE
  5
724C
330
1E
100
AcDbEntity
  8
躯体と製品
  6
Continuous
 62
     7
100
AcDbLine
 10
1595.58750180085
 20
551.5219085352073
 30
0.0
 11
1595.58750180085
 21
551.2219085352076
 31
0.0
  0
LINE
  5
724D
330
1E
100
AcDbEntity
  8
躯体と製品
  6
Continuous
 62
     7
100
AcDbLine
 10
1594.58750180085
 20
554.4219085352074
 30
0.0
 11
1594.387501800851
 21
554.5219085352073
 31
0.0
  0
LINE
  5
724E
330
1E
100
AcDbEntity
  8
躯体と製品
  6
Continuous
 62
     7
100
AcDbLine
 10
1594.387501800851
 20
554.5219085352073
 30
0.0
 11
1594.08750180085
 21
554.4219085352074
 31
0.0
  0
LINE
  5
724F
330
1E
100
AcDbEntity
  8
躯体と製品
  6
Continuous
 62
     7
100
AcDbLine
 10
1594.08750180085
 20
554.4219085352074
 30
0.0
 11
1593.787501800851
 21
554.5219085352073
 31
0.0
  0
LINE
  5
7250
330
1E
100
AcDbEntity
  8
躯体と製品
  6
Continuous
 62
     7
100
AcDbLine
 10
1593.787501800851
 20
554.5219085352073
 30
0.0
 11
1593.487501800851
 21
554.4219085352074
 31
0.0
  0
LINE
  5
7251
330
1E
100
AcDbEntity
  8
躯体と製品
  6
Continuous
 62
     7
100
AcDbLine
 10
1593.487501800851
 20
554.4219085352074
 30
0.0
 11
1593.187501800851
 21
554.5219085352073
 31
0.0
  0
LINE
  5
7252
330
1E
100
AcDbEntity
  8
躯体と製品
  6
Continuous
 62
     7
100
AcDbLine
 10
1593.187501800851
 20
554.5219085352073
 30
0.0
 11
1592.88750180085
 21
554.4219085352074
 31
0.0
  0
LINE
  5
7253
330
1E
100
AcDbEntity
  8
躯体と製品
  6
Continuous
 62
     7
100
AcDbLine
 10
1592.88750180085
 20
554.4219085352074
 30
0.0
 11
1592.58750180085
 21
554.5219085352073
 31
0.0
  0
LINE
  5
7254
330
1E
100
AcDbEntity
  8
躯体と製品
  6
Continuous
 62
     7
100
AcDbLine
 10
1592.58750180085
 20
554.5219085352073
 30
0.0
 11
1592.287501800851
 21
554.4219085352074
 31
0.0
  0
LINE
  5
7255
330
1E
100
AcDbEntity
  8
躯体と製品
  6
Continuous
 62
     7
100
AcDbLine
 10
1592.287501800851
 20
554.4219085352074
 30
0.0
 11
1591.98750180085
 21
554.5219085352073
 31
0.0
  0
LINE
  5
7256
330
1E
100
AcDbEntity
  8
躯体と製品
  6
Continuous
 62
     7
100
AcDbLine
 10
1594.58750180085
 20
554.3219085352075
 30
0.0
 11
1594.387501800851
 21
554.4219085352074
 31
0.0
  0
LINE
  5
7257
330
1E
100
AcDbEntity
  8
躯体と製品
  6
Continuous
 62
     7
100
AcDbLine
 10
1594.387501800851
 20
554.4219085352074
 30
0.0
 11
1594.08750180085
 21
554.3219085352075
 31
0.0
  0
LINE
  5
7258
330
1E
100
AcDbEntity
  8
躯体と製品
  6
Continuous
 62
     7
100
AcDbLine
 10
1594.08750180085
 20
554.3219085352075
 30
0.0
 11
1593.787501800851
 21
554.4219085352074
 31
0.0
  0
LINE
  5
7259
330
1E
100
AcDbEntity
  8
躯体と製品
  6
Continuous
 62
     7
100
AcDbLine
 10
1593.787501800851
 20
554.4219085352074
 30
0.0
 11
1593.487501800851
 21
554.3219085352075
 31
0.0
  0
LINE
  5
725A
330
1E
100
AcDbEntity
  8
躯体と製品
  6
Continuous
 62
     7
100
AcDbLine
 10
1593.487501800851
 20
554.3219085352075
 30
0.0
 11
1593.187501800851
 21
554.4219085352074
 31
0.0
  0
LINE
  5
725B
330
1E
100
AcDbEntity
  8
躯体と製品
  6
Continuous
 62
     7
100
AcDbLine
 10
1593.187501800851
 20
554.4219085352074
 30
0.0
 11
1592.88750180085
 21
554.3219085352075
 31
0.0
  0
LINE
  5
725C
330
1E
100
AcDbEntity
  8
躯体と製品
  6
Continuous
 62
     7
100
AcDbLine
 10
1592.88750180085
 20
554.3219085352075
 30
0.0
 11
1592.58750180085
 21
554.4219085352074
 31
0.0
  0
LINE
  5
725D
330
1E
100
AcDbEntity
  8
躯体と製品
  6
Continuous
 62
     7
100
AcDbLine
 10
1592.58750180085
 20
554.4219085352074
 30
0.0
 11
1592.287501800851
 21
554.3219085352075
 31
0.0
  0
LINE
  5
725E
330
1E
100
AcDbEntity
  8
躯体と製品
  6
Continuous
 62
     7
100
AcDbLine
 10
1592.287501800851
 20
554.3219085352075
 30
0.0
 11
1591.98750180085
 21
554.4219085352074
 31
0.0
  0
LINE
  5
725F
330
1E
100
AcDbEntity
  8
躯体と製品
  6
Continuous
 62
     7
100
AcDbLine
 10
1592.98750180085
 20
554.1219085352072
 30
0.0
 11
1592.98750180085
 21
551.2219085352076
 31
0.0
  0
LINE
  5
7260
330
1E
100
AcDbEntity
  8
躯体と製品
  6
Continuous
 62
     7
100
AcDbLine
 10
1592.787501800851
 20
554.1219085352072
 30
0.0
 11
1592.787501800851
 21
551.0219085352073
 31
0.0
  0
LINE
  5
7261
330
1E
100
AcDbEntity
  8
躯体と製品
  6
Continuous
 62
     7
100
AcDbLine
 10
1595.187501800851
 20
554.3219085352075
 30
0.0
 11
1594.58750180085
 21
554.3219085352075
 31
0.0
  0
LINE
  5
7262
330
1E
100
AcDbEntity
  8
躯体と製品
  6
Continuous
 62
     7
100
AcDbLine
 10
1595.187501800851
 20
554.4219085352074
 30
0.0
 11
1594.58750180085
 21
554.4219085352074
 31
0.0
  0
LINE
  5
7263
330
1E
100
AcDbEntity
  8
躯体と製品
  6
Continuous
 62
     7
100
AcDbLine
 10
1592.98750180085
 20
551.2219085352076
 30
0.0
 11
1595.58750180085
 21
551.2219085352076
 31
0.0
  0
LINE
  5
7264
330
1E
100
AcDbEntity
  8
躯体と製品
  6
Continuous
 62
     7
100
AcDbLine
 10
1592.787501800851
 20
551.0219085352073
 30
0.0
 11
1595.787501800851
 21
551.0219085352073
 31
0.0
  0
LINE
  5
7265
330
1E
100
AcDbEntity
  8
躯体と製品
  6
Continuous
 62
     7
100
AcDbLine
 10
1595.787501800851
 20
554.9219085352074
 30
0.0
 11
1595.787501800851
 21
559.0219085352073
 31
0.0
  0
LINE
  5
7266
330
1E
100
AcDbEntity
  8
躯体と製品
  6
Continuous
 62
     7
100
AcDbLine
 10
1595.687501800851
 20
554.9219085352074
 30
0.0
 11
1595.687501800851
 21
559.0219085352073
 31
0.0
  0
LINE
  5
7267
330
1E
100
AcDbEntity
  8
躯体と製品
  6
Continuous
 62
     7
100
AcDbLine
 10
1592.787501800851
 20
550.0219085352073
 30
0.0
 11
1592.787501800851
 21
539.5219085352073
 31
0.0
  0
LINE
  5
7268
330
1E
100
AcDbEntity
  8
躯体と製品
  6
Continuous
 62
     7
100
AcDbLine
 10
1571.787501800851
 20
650.1219085352072
 30
0.0
 11
1571.787501800851
 21
684.7219085352072
 31
0.0
  0
DIMENSION
  5
7269
330
1E
100
AcDbEntity
  8
寸法
  6
Continuous
100
AcDbDimension
  2
*D6
 10
1616.187501800851
 20
639.0219085352073
 30
0.0
 11
1601.187501800851
 21
641.3219085352072
 31
0.0
 70
    32
  1
150
 71
     5
 42
30.0
  3
AutoCAD
100
AcDbAlignedDimension
 13
1586.187501800851
 23
639.0219085352073
 33
0.0
 14
1616.187501800851
 24
639.0219085352073
 34
0.0
100
AcDbRotatedDimension
1001
ACAD
1000
DSTYLE
1002
{
1070
   147
1040
0.8
1070
   140
1040
10.0
1002
}
  0
DIMENSION
  5
726A
330
1E
100
AcDbEntity
  8
寸法
  6
Continuous
100
AcDbDimension
  2
*D7
 10
1567.787501800851
 20
621.5219085352073
 30
0.0
 11
1566.787501800851
 21
623.8219085352072
 31
0.0
 70
    32
  1
10
 71
     5
 42
2.0
  3
AutoCAD
100
AcDbAlignedDimension
 13
1565.787501800851
 23
630.5219085352073
 33
0.0
 14
1567.787501800851
 24
634.0219085352073
 34
0.0
100
AcDbRotatedDimension
1001
ACAD
1000
DSTYLE
1002
{
1070
   147
1040
0.8
1070
   140
1040
10.0
1002
}
  0
LINE
  5
726B
330
1E
100
AcDbEntity
  8
躯体と製品
  6
Continuous
 62
     7
100
AcDbLine
 10
1584.479871800851
 20
625.0619085352073
 30
0.0
 11
1584.399041800851
 21
624.9219085352073
 31
0.0
  0
LINE
  5
726C
330
1E
100
AcDbEntity
  8
躯体と製品
  6
Continuous
 62
     7
100
AcDbLine
 10
1585.62750180085
 20
625.0619085352073
 30
0.0
 11
1584.479871800851
 21
625.0619085352073
 31
0.0
  0
LINE
  5
726D
330
1E
100
AcDbEntity
  8
躯体と製品
  6
Continuous
 62
     7
100
AcDbLine
 10
1584.306671800851
 20
625.0819085352072
 30
0.0
 11
1584.387501800851
 21
625.2219085352071
 31
0.0
  0
LINE
  5
726E
330
1E
100
AcDbEntity
  8
躯体と製品
  6
Continuous
 62
     7
100
AcDbLine
 10
1585.787501800851
 20
625.2219085352071
 30
0.0
 11
1584.387501800851
 21
625.2219085352071
 31
0.0
  0
CIRCLE
  5
726F
330
1E
100
AcDbEntity
  8
文字-記号
  6
Continuous
 62
     7
100
AcDbCircle
 10
1568.987501800851
 20
640.9219085352074
 30
0.0
 40
0.3
  0
ARC
  5
7270
330
1E
100
AcDbEntity
  8
躯体と製品
  6
Continuous
 62
     7
100
AcDbCircle
 10
1569.48750180085
 20
641.2219085352071
 30
0.0
 40
0.2
100
AcDbArc
 50
0.0
 51
90.0
  0
LINE
  5
7271
330
1E
100
AcDbEntity
  8
躯体と製品
  6
Continuous
 62
     7
100
AcDbLine
 10
1569.48750180085
 20
641.4219085352073
 30
0.0
 11
1569.287501800851
 21
641.4219085352073
 31
0.0
  0
ARC
  5
7272
330
1E
100
AcDbEntity
  8
躯体と製品
  6
Continuous
 62
     7
100
AcDbCircle
 10
1569.287501800851
 20
641.2219085352071
 30
0.0
 40
0.2
100
AcDbArc
 50
90.0
 51
180.0
  0
LINE
  5
7273
330
1E
100
AcDbEntity
  8
躯体と製品
  6
Continuous
 62
     7
100
AcDbLine
 10
1569.08750180085
 20
641.2219085352071
 30
0.0
 11
1569.08750180085
 21
640.9219085352074
 31
0.0
  0
LINE
  5
7274
330
1E
100
AcDbEntity
  8
躯体と製品
  6
Continuous
 62
     7
100
AcDbLine
 10
1569.08750180085
 20
640.9219085352074
 30
0.0
 11
1568.987501800851
 21
640.9219085352074
 31
0.0
  0
LINE
  5
7275
330
1E
100
AcDbEntity
  8
躯体と製品
  6
Continuous
 62
     7
100
AcDbLine
 10
1568.987501800851
 20
640.9219085352074
 30
0.0
 11
1568.987501800851
 21
641.2219085352071
 31
0.0
  0
ARC
  5
7276
330
1E
100
AcDbEntity
  8
躯体と製品
  6
Continuous
 62
     7
100
AcDbCircle
 10
1569.287501800851
 20
641.2219085352071
 30
0.0
 40
0.3
100
AcDbArc
 50
90.0
 51
180.0
  0
ARC
  5
7277
330
1E
100
AcDbEntity
  8
躯体と製品
  6
Continuous
 62
     7
100
AcDbCircle
 10
1569.48750180085
 20
641.2219085352071
 30
0.0
 40
0.3
100
AcDbArc
 50
0.0
 51
90.0
  0
LINE
  5
7278
330
1E
100
AcDbEntity
  8
躯体と製品
  6
Continuous
 62
     7
100
AcDbLine
 10
1569.187501800851
 20
636.6219085352072
 30
0.0
 11
1568.987501800851
 21
636.6219085352072
 31
0.0
  0
LINE
  5
7279
330
1E
100
AcDbEntity
  8
躯体と製品
  6
Continuous
 62
     7
100
AcDbLine
 10
1569.187501800851
 20
636.5219085352073
 30
0.0
 11
1568.987501800851
 21
636.5219085352073
 31
0.0
  0
LINE
  5
727A
330
1E
100
AcDbEntity
  8
躯体と製品
  6
Continuous
 62
     7
100
AcDbLine
 10
1568.987501800851
 20
636.5219085352073
 30
0.0
 11
1568.787501800851
 21
636.6219085352072
 31
0.0
  0
LINE
  5
727B
330
1E
100
AcDbEntity
  8
躯体と製品
  6
Continuous
 62
     7
100
AcDbLine
 10
1568.787501800851
 20
636.6219085352072
 30
0.0
 11
1568.487501800851
 21
636.5219085352073
 31
0.0
  0
LINE
  5
727C
330
1E
100
AcDbEntity
  8
躯体と製品
  6
Continuous
 62
     7
100
AcDbLine
 10
1568.487501800851
 20
636.5219085352073
 30
0.0
 11
1568.187501800851
 21
636.6219085352072
 31
0.0
  0
LINE
  5
727D
330
1E
100
AcDbEntity
  8
躯体と製品
  6
Continuous
 62
     7
100
AcDbLine
 10
1568.187501800851
 20
636.6219085352072
 30
0.0
 11
1567.887501800851
 21
636.5219085352073
 31
0.0
  0
LINE
  5
727E
330
1E
100
AcDbEntity
  8
躯体と製品
  6
Continuous
 62
     7
100
AcDbLine
 10
1567.887501800851
 20
636.5219085352073
 30
0.0
 11
1567.58750180085
 21
636.6219085352072
 31
0.0
  0
LINE
  5
727F
330
1E
100
AcDbEntity
  8
躯体と製品
  6
Continuous
 62
     7
100
AcDbLine
 10
1567.58750180085
 20
636.6219085352072
 30
0.0
 11
1567.287501800851
 21
636.5219085352073
 31
0.0
  0
LINE
  5
7280
330
1E
100
AcDbEntity
  8
躯体と製品
  6
Continuous
 62
     7
100
AcDbLine
 10
1568.787501800851
 20
636.7219085352071
 30
0.0
 11
1568.487501800851
 21
636.6219085352072
 31
0.0
  0
LINE
  5
7281
330
1E
100
AcDbEntity
  8
躯体と製品
  6
Continuous
 62
     7
100
AcDbLine
 10
1568.487501800851
 20
636.6219085352072
 30
0.0
 11
1568.187501800851
 21
636.7219085352071
 31
0.0
  0
LINE
  5
7282
330
1E
100
AcDbEntity
  8
躯体と製品
  6
Continuous
 62
     7
100
AcDbLine
 10
1568.187501800851
 20
636.7219085352071
 30
0.0
 11
1567.887501800851
 21
636.6219085352072
 31
0.0
  0
LINE
  5
7283
330
1E
100
AcDbEntity
  8
躯体と製品
  6
Continuous
 62
     7
100
AcDbLine
 10
1567.887501800851
 20
636.6219085352072
 30
0.0
 11
1567.58750180085
 21
636.7219085352071
 31
0.0
  0
LINE
  5
7284
330
1E
100
AcDbEntity
  8
躯体と製品
  6
Continuous
 62
     7
100
AcDbLine
 10
1567.58750180085
 20
636.7219085352071
 30
0.0
 11
1567.287501800851
 21
636.6219085352072
 31
0.0
  0
LINE
  5
7285
330
1E
100
AcDbEntity
  8
躯体と製品
  6
Continuous
 62
     7
100
AcDbLine
 10
1568.987501800851
 20
636.6219085352072
 30
0.0
 11
1568.787501800851
 21
636.7219085352071
 31
0.0
  0
LINE
  5
7286
330
1E
100
AcDbEntity
  8
躯体と製品
  6
Continuous
 62
     7
100
AcDbLine
 10
1566.387501800851
 20
636.6219085352072
 30
0.0
 11
1566.687501800851
 21
636.5219085352073
 31
0.0
  0
LINE
  5
7287
330
1E
100
AcDbEntity
  8
躯体と製品
  6
Continuous
 62
     7
100
AcDbLine
 10
1566.687501800851
 20
636.5219085352073
 30
0.0
 11
1566.98750180085
 21
636.6219085352072
 31
0.0
  0
LINE
  5
7288
330
1E
100
AcDbEntity
  8
躯体と製品
  6
Continuous
 62
     7
100
AcDbLine
 10
1566.98750180085
 20
636.6219085352072
 30
0.0
 11
1567.287501800851
 21
636.5219085352073
 31
0.0
  0
LINE
  5
7289
330
1E
100
AcDbEntity
  8
躯体と製品
  6
Continuous
 62
     7
100
AcDbLine
 10
1566.387501800851
 20
636.7219085352071
 30
0.0
 11
1566.687501800851
 21
636.6219085352072
 31
0.0
  0
LINE
  5
728A
330
1E
100
AcDbEntity
  8
躯体と製品
  6
Continuous
 62
     7
100
AcDbLine
 10
1566.687501800851
 20
636.6219085352072
 30
0.0
 11
1566.98750180085
 21
636.7219085352071
 31
0.0
  0
LINE
  5
728B
330
1E
100
AcDbEntity
  8
躯体と製品
  6
Continuous
 62
     7
100
AcDbLine
 10
1566.98750180085
 20
636.7219085352071
 30
0.0
 11
1567.287501800851
 21
636.6219085352072
 31
0.0
  0
ARC
  5
728C
330
1E
100
AcDbEntity
  8
躯体と製品
  6
Continuous
 62
     7
100
AcDbCircle
 10
1569.187501800851
 20
637.1219085352072
 30
0.0
 40
0.5
100
AcDbArc
 50
270.0
 51
0.0
  0
ARC
  5
728D
330
1E
100
AcDbEntity
  8
躯体と製品
  6
Continuous
 62
     7
100
AcDbCircle
 10
1569.187501800851
 20
637.1219085352072
 30
0.0
 40
0.6
100
AcDbArc
 50
270.0
 51
0.0
  0
LINE
  5
728E
330
1E
100
AcDbEntity
  8
躯体と製品
  6
Continuous
 62
     7
100
AcDbLine
 10
1569.687501800851
 20
637.1219085352072
 30
0.0
 11
1569.687501800851
 21
641.2219085352071
 31
0.0
  0
LINE
  5
728F
330
1E
100
AcDbEntity
  8
躯体と製品
  6
Continuous
 62
     7
100
AcDbLine
 10
1569.787501800851
 20
637.1219085352072
 30
0.0
 11
1569.787501800851
 21
641.2219085352071
 31
0.0
  0
CIRCLE
  5
7290
330
1E
100
AcDbEntity
  8
躯体と製品
  6
Continuous
 62
     7
100
AcDbCircle
 10
1579.287501800851
 20
623.7219085352071
 30
0.0
 40
0.6
  0
LINE
  5
7291
330
1E
100
AcDbEntity
  8
躯体と製品
  6
Continuous
 62
     7
100
AcDbLine
 10
1572.787501800851
 20
625.2219085352071
 30
0.0
 11
1574.187501800851
 21
625.2219085352071
 31
0.0
  0
LINE
  5
7292
330
1E
100
AcDbEntity
  8
躯体と製品
  6
Continuous
 62
     7
100
AcDbLine
 10
1574.175951800851
 20
624.9219085352073
 30
0.0
 11
1574.095121800851
 21
625.0619085352073
 31
0.0
  0
LINE
  5
7293
330
1E
100
AcDbEntity
  8
躯体と製品
  6
Continuous
 62
     7
100
AcDbLine
 10
1574.187501800851
 20
625.2219085352071
 30
0.0
 11
1574.268321800851
 21
625.0819085352072
 31
0.0
  0
LINE
  5
7294
330
1E
100
AcDbEntity
  8
躯体と製品
  6
Continuous
 62
     7
100
AcDbLine
 10
1574.095121800851
 20
625.0619085352073
 30
0.0
 11
1572.94750180085
 21
625.0619085352073
 31
0.0
  0
LINE
  5
7295
330
1E
100
AcDbEntity
  8
躯体と製品
  6
Continuous
 62
     7
100
AcDbLine
 10
1585.58750180085
 20
622.4219085352074
 30
0.0
 11
1572.987501800851
 21
622.4219085352074
 31
0.0
  0
LINE
  5
7296
330
1E
100
AcDbEntity
  8
躯体と製品
  6
Continuous
 62
     7
100
AcDbLine
 10
1584.399041800851
 20
624.9219085352073
 30
0.0
 11
1574.175951800851
 21
624.9219085352073
 31
0.0
  0
LINE
  5
7297
330
1E
100
AcDbEntity
  8
躯体と製品
  6
Continuous
 62
     7
100
AcDbLine
 10
1574.268321800851
 20
625.0819085352072
 30
0.0
 11
1584.306671800851
 21
625.0819085352072
 31
0.0
  0
LINE
  5
7298
330
1E
100
AcDbEntity
  8
躯体と製品
  6
Continuous
 62
     7
100
AcDbLine
 10
1584.54750180085
 20
616.3819085352074
 30
0.0
 11
1584.54750180085
 21
617.3219085352075
 31
0.0
  0
LINE
  5
7299
330
1E
100
AcDbEntity
  8
躯体と製品
  6
Continuous
 62
     7
100
AcDbLine
 10
1585.62750180085
 20
616.3819085352074
 30
0.0
 11
1584.54750180085
 21
616.3819085352074
 31
0.0
  0
LINE
  5
729A
330
1E
100
AcDbEntity
  8
躯体と製品
  6
Continuous
 62
     7
100
AcDbLine
 10
1584.387501800851
 20
616.2219085352071
 30
0.0
 11
1585.787501800851
 21
616.2219085352071
 31
0.0
  0
LINE
  5
729B
330
1E
100
AcDbEntity
  8
躯体と製品
  6
Continuous
 62
     7
100
AcDbLine
 10
1584.387501800851
 20
617.3219085352075
 30
0.0
 11
1584.54750180085
 21
617.3219085352075
 31
0.0
  0
CIRCLE
  5
729C
330
1E
100
AcDbEntity
  8
文字-記号
  6
Continuous
 62
     7
100
AcDbCircle
 10
1581.287501800851
 20
619.0219085352073
 30
0.0
 40
0.3
  0
LINE
  5
729D
330
1E
100
AcDbEntity
  8
躯体と製品
  6
Continuous
 62
     7
100
AcDbLine
 10
1574.02750180085
 20
616.3819085352074
 30
0.0
 11
1574.02750180085
 21
617.3219085352075
 31
0.0
  0
LINE
  5
729E
330
1E
100
AcDbEntity
  8
躯体と製品
  6
Continuous
 62
     7
100
AcDbLine
 10
1572.94750180085
 20
616.3819085352074
 30
0.0
 11
1574.02750180085
 21
616.3819085352074
 31
0.0
  0
LINE
  5
729F
330
1E
100
AcDbEntity
  8
躯体と製品
  6
Continuous
 62
     7
100
AcDbLine
 10
1572.787501800851
 20
616.2219085352071
 30
0.0
 11
1574.187501800851
 21
616.2219085352071
 31
0.0
  0
LINE
  5
72A0
330
1E
100
AcDbEntity
  8
躯体と製品
  6
Continuous
 62
     7
100
AcDbLine
 10
1574.02750180085
 20
617.3219085352075
 30
0.0
 11
1574.187501800851
 21
617.3219085352075
 31
0.0
  0
LINE
  5
72A1
330
1E
100
AcDbEntity
  8
躯体と製品
  6
Continuous
 62
     7
100
AcDbLine
 10
1566.787501800851
 20
615.1219085352072
 30
0.0
 11
1567.787501800851
 21
615.1219085352072
 31
0.0
  0
LINE
  5
72A2
330
1E
100
AcDbEntity
  8
躯体と製品
  6
Continuous
 62
     7
100
AcDbLine
 10
1567.787501800851
 20
612.2219085352071
 30
0.0
 11
1590.787501800851
 21
612.2219085352071
 31
0.0
  0
LINE
  5
72A3
330
1E
100
AcDbEntity
  8
躯体と製品
  6
Continuous
 62
     7
100
AcDbLine
 10
1572.987501800851
 20
619.0219085352073
 30
0.0
 11
1585.58750180085
 21
619.0219085352073
 31
0.0
  0
LINE
  5
72A4
330
1E
100
AcDbEntity
  8
躯体と製品
  6
Continuous
 62
     7
100
AcDbLine
 10
1585.58750180085
 20
619.0219085352073
 30
0.0
 11
1585.58750180085
 21
622.4219085352074
 31
0.0
  0
LINE
  5
72A5
330
1E
100
AcDbEntity
  8
躯体と製品
  6
Continuous
 62
     7
100
AcDbLine
 10
1572.987501800851
 20
622.4219085352074
 30
0.0
 11
1572.987501800851
 21
619.0219085352073
 31
0.0
  0
LINE
  5
72A6
330
1E
100
AcDbEntity
  8
躯体と製品
  6
Continuous
 62
     7
100
AcDbLine
 10
1572.94750180085
 20
616.3819085352074
 30
0.0
 11
1572.94750180085
 21
625.0619085352073
 31
0.0
  0
LINE
  5
72A7
330
1E
100
AcDbEntity
  8
躯体と製品
  6
Continuous
 62
     7
100
AcDbLine
 10
1585.62750180085
 20
616.3819085352074
 30
0.0
 11
1585.62750180085
 21
625.0619085352073
 31
0.0
  0
ARC
  5
72A8
330
1E
100
AcDbEntity
  8
躯体と製品
  6
Continuous
 62
     7
100
AcDbCircle
 10
1565.08750180085
 20
641.2219085352071
 30
0.0
 40
0.2
100
AcDbArc
 50
90.0
 51
180.0
  0
LINE
  5
72A9
330
1E
100
AcDbEntity
  8
躯体と製品
  6
Continuous
 62
     7
100
AcDbLine
 10
1565.08750180085
 20
641.4219085352073
 30
0.0
 11
1565.287501800851
 21
641.4219085352073
 31
0.0
  0
ARC
  5
72AA
330
1E
100
AcDbEntity
  8
躯体と製品
  6
Continuous
 62
     7
100
AcDbCircle
 10
1565.287501800851
 20
641.2219085352071
 30
0.0
 40
0.2
100
AcDbArc
 50
0.0
 51
90.0
  0
LINE
  5
72AB
330
1E
100
AcDbEntity
  8
躯体と製品
  6
Continuous
 62
     7
100
AcDbLine
 10
1565.48750180085
 20
641.2219085352071
 30
0.0
 11
1565.48750180085
 21
640.9219085352074
 31
0.0
  0
LINE
  5
72AC
330
1E
100
AcDbEntity
  8
躯体と製品
  6
Continuous
 62
     7
100
AcDbLine
 10
1565.48750180085
 20
640.9219085352074
 30
0.0
 11
1565.58750180085
 21
640.9219085352074
 31
0.0
  0
LINE
  5
72AD
330
1E
100
AcDbEntity
  8
躯体と製品
  6
Continuous
 62
     7
100
AcDbLine
 10
1565.58750180085
 20
640.9219085352074
 30
0.0
 11
1565.58750180085
 21
641.2219085352071
 31
0.0
  0
ARC
  5
72AE
330
1E
100
AcDbEntity
  8
躯体と製品
  6
Continuous
 62
     7
100
AcDbCircle
 10
1565.287501800851
 20
641.2219085352071
 30
0.0
 40
0.3
100
AcDbArc
 50
0.0
 51
90.0
  0
ARC
  5
72AF
330
1E
100
AcDbEntity
  8
躯体と製品
  6
Continuous
 62
     7
100
AcDbCircle
 10
1565.08750180085
 20
641.2219085352071
 30
0.0
 40
0.3
100
AcDbArc
 50
90.0
 51
180.0
  0
LINE
  5
72B0
330
1E
100
AcDbEntity
  8
躯体と製品
  6
Continuous
 62
     7
100
AcDbLine
 10
1565.387501800851
 20
636.6219085352072
 30
0.0
 11
1565.58750180085
 21
636.6219085352072
 31
0.0
  0
ARC
  5
72B1
330
1E
100
AcDbEntity
  8
躯体と製品
  6
Continuous
 62
     7
100
AcDbCircle
 10
1565.387501800851
 20
637.1219085352072
 30
0.0
 40
0.5
100
AcDbArc
 50
180.0
 51
270.0
  0
LINE
  5
72B2
330
1E
100
AcDbEntity
  8
躯体と製品
  6
Continuous
 62
     7
100
AcDbLine
 10
1565.387501800851
 20
636.5219085352073
 30
0.0
 11
1565.58750180085
 21
636.5219085352073
 31
0.0
  0
ARC
  5
72B3
330
1E
100
AcDbEntity
  8
躯体と製品
  6
Continuous
 62
     7
100
AcDbCircle
 10
1565.387501800851
 20
637.1219085352072
 30
0.0
 40
0.6
100
AcDbArc
 50
180.0
 51
270.0
  0
LINE
  5
72B4
330
1E
100
AcDbEntity
  8
躯体と製品
  6
Continuous
 62
     7
100
AcDbLine
 10
1565.58750180085
 20
636.5219085352073
 30
0.0
 11
1565.787501800851
 21
636.6219085352072
 31
0.0
  0
LINE
  5
72B5
330
1E
100
AcDbEntity
  8
躯体と製品
  6
Continuous
 62
     7
100
AcDbLine
 10
1565.787501800851
 20
636.6219085352072
 30
0.0
 11
1566.08750180085
 21
636.5219085352073
 31
0.0
  0
LINE
  5
72B6
330
1E
100
AcDbEntity
  8
躯体と製品
  6
Continuous
 62
     7
100
AcDbLine
 10
1565.787501800851
 20
636.7219085352071
 30
0.0
 11
1566.08750180085
 21
636.6219085352072
 31
0.0
  0
LINE
  5
72B7
330
1E
100
AcDbEntity
  8
躯体と製品
  6
Continuous
 62
     7
100
AcDbLine
 10
1565.58750180085
 20
636.6219085352072
 30
0.0
 11
1565.787501800851
 21
636.7219085352071
 31
0.0
  0
LINE
  5
72B8
330
1E
100
AcDbEntity
  8
躯体と製品
  6
Continuous
 62
     7
100
AcDbLine
 10
1564.887501800851
 20
637.1219085352072
 30
0.0
 11
1564.887501800851
 21
641.2219085352071
 31
0.0
  0
LINE
  5
72B9
330
1E
100
AcDbEntity
  8
躯体と製品
  6
Continuous
 62
     7
100
AcDbLine
 10
1564.787501800851
 20
637.1219085352072
 30
0.0
 11
1564.787501800851
 21
641.2219085352071
 31
0.0
  0
LINE
  5
72BA
330
1E
100
AcDbEntity
  8
躯体と製品
  6
Continuous
 62
     7
100
AcDbLine
 10
1565.787501800851
 20
631.5219085352073
 30
0.0
 11
1565.787501800851
 21
634.0219085352073
 31
0.0
  0
LINE
  5
72BB
330
1E
100
AcDbEntity
  8
躯体と製品
  6
Continuous
 62
     7
100
AcDbLine
 10
1566.08750180085
 20
636.5219085352073
 30
0.0
 11
1566.387501800851
 21
636.6219085352072
 31
0.0
  0
LINE
  5
72BC
330
1E
100
AcDbEntity
  8
躯体と製品
  6
Continuous
 62
     7
100
AcDbLine
 10
1566.08750180085
 20
636.6219085352072
 30
0.0
 11
1566.387501800851
 21
636.7219085352071
 31
0.0
  0
LINE
  5
72BD
330
1E
100
AcDbEntity
  8
文字-記号
  6
Continuous
 62
     7
100
AcDbLine
 10
1568.987501800851
 20
640.9219085352074
 30
0.0
 11
1565.450571800851
 21
654.1219085352072
 31
0.0
  0
LINE
  5
72BE
330
1E
100
AcDbEntity
  8
躯体と製品
  6
Continuous
 62
     7
100
AcDbLine
 10
1571.787501800851
 20
649.1219085352072
 30
0.0
 11
1571.787501800851
 21
641.5219085352073
 31
0.0
  0
CIRCLE
  5
72BF
330
1E
100
AcDbEntity
  8
文字-記号
  6
Continuous
 62
     7
100
AcDbCircle
 10
1578.887501800851
 20
714.0219085352073
 30
0.0
 40
0.3
  0
LINE
  5
72C0
330
1E
100
AcDbEntity
  8
文字-記号
  6
Continuous
 62
     7
100
AcDbLine
 10
1578.887501800851
 20
714.0219085352073
 30
0.0
 11
1567.629171800851
 21
733.5219085352073
 31
0.0
  0
LINE
  5
72C1
330
1E
100
AcDbEntity
  8
躯体と製品
  6
Continuous
 62
     7
100
AcDbLine
 10
1585.787501800851
 20
703.5219085352073
 30
0.0
 11
1585.94750180085
 21
703.5219085352073
 31
0.0
  0
LINE
  5
72C2
330
1E
100
AcDbEntity
  8
躯体と製品
  6
Continuous
 62
     7
100
AcDbLine
 10
1585.94750180085
 20
703.5219085352073
 30
0.0
 11
1585.94750180085
 21
711.5219085352073
 31
0.0
  0
LINE
  5
72C3
330
1E
100
AcDbEntity
  8
躯体と製品
  6
Continuous
 62
     7
100
AcDbLine
 10
1585.787501800851
 20
711.3619085352074
 30
0.0
 11
1585.787501800851
 21
694.0219085352073
 31
0.0
  0
LINE
  5
72C4
330
1E
100
AcDbEntity
  8
躯体と製品
  6
Continuous
 62
     7
100
AcDbLine
 10
1584.387501800851
 20
694.0219085352073
 30
0.0
 11
1584.387501800851
 21
711.3619085352074
 31
0.0
  0
ARC
  5
72C5
330
1E
100
AcDbEntity
  8
躯体と製品
  6
Continuous
 62
     7
100
AcDbCircle
 10
1579.287501800851
 20
711.3619085352074
 30
0.0
 40
0.8
100
AcDbArc
 50
180.0
 51
0.0
  0
LINE
  5
72C6
330
1E
100
AcDbEntity
  8
躯体と製品
  6
Continuous
 62
     7
100
AcDbLine
 10
1572.62750180085
 20
703.5219085352073
 30
0.0
 11
1572.787501800851
 21
703.5219085352073
 31
0.0
  0
LINE
  5
72C7
330
1E
100
AcDbEntity
  8
躯体と製品
  6
Continuous
 62
     7
100
AcDbLine
 10
1572.62750180085
 20
711.5219085352073
 30
0.0
 11
1572.62750180085
 21
703.5219085352073
 31
0.0
  0
LINE
  5
72C8
330
1E
100
AcDbEntity
  8
躯体と製品
  6
Continuous
 62
     7
100
AcDbLine
 10
1572.787501800851
 20
711.3619085352074
 30
0.0
 11
1572.787501800851
 21
694.0219085352073
 31
0.0
  0
LINE
  5
72C9
330
1E
100
AcDbEntity
  8
躯体と製品
  6
Continuous
 62
     7
100
AcDbLine
 10
1574.187501800851
 20
694.0219085352073
 30
0.0
 11
1574.187501800851
 21
711.3619085352074
 31
0.0
  0
LINE
  5
72CA
330
1E
100
AcDbEntity
  8
躯体と製品
  6
Continuous
 62
     7
100
AcDbLine
 10
1572.787501800851
 20
711.3619085352074
 30
0.0
 11
1585.787501800851
 21
711.3619085352074
 31
0.0
  0
LINE
  5
72CB
330
1E
100
AcDbEntity
  8
躯体と製品
  6
Continuous
 62
     7
100
AcDbLine
 10
1579.687501800851
 20
716.5219085352073
 30
0.0
 11
1579.687501800851
 21
711.3619085352074
 31
0.0
  0
LINE
  5
72CC
330
1E
100
AcDbEntity
  8
躯体と製品
  6
Continuous
 62
     7
100
AcDbLine
 10
1578.887501800851
 20
711.3619085352074
 30
0.0
 11
1578.887501800851
 21
716.5219085352073
 31
0.0
  0
LINE
  5
72CD
330
1E
100
AcDbEntity
  8
躯体と製品
  6
Continuous
 62
     7
100
AcDbLine
 10
1579.287501800851
 20
716.5219085352073
 30
0.0
 11
1579.287501800851
 21
694.0219085352073
 31
0.0
  0
LINE
  5
72CE
330
1E
100
AcDbEntity
  8
躯体と製品
  6
Continuous
 62
     7
100
AcDbLine
 10
1566.261631800851
 20
711.5219085352073
 30
0.0
 11
1581.261631800851
 21
726.5219085352073
 31
0.0
  0
LINE
  5
72CF
330
1E
100
AcDbEntity
  8
躯体と製品
  6
Continuous
 62
     7
100
AcDbLine
 10
1564.140311800851
 20
711.5219085352073
 30
0.0
 11
1579.14031180085
 21
726.5219085352073
 31
0.0
  0
LINE
  5
72D0
330
1E
100
AcDbEntity
  8
躯体と製品
  6
Continuous
 62
     7
100
AcDbLine
 10
1562.018991800851
 20
711.5219085352073
 30
0.0
 11
1577.018991800851
 21
726.5219085352073
 31
0.0
  0
LINE
  5
72D1
330
1E
100
AcDbEntity
  8
躯体と製品
  6
Continuous
 62
     7
100
AcDbLine
 10
1620.187501800851
 20
711.5219085352073
 30
0.0
 11
1620.187501800851
 21
712.5219085352073
 31
0.0
  0
LINE
  5
72D2
330
1E
100
AcDbEntity
  8
躯体と製品
  6
Continuous
 62
     7
100
AcDbLine
 10
1620.187501800851
 20
712.5219085352073
 30
0.0
 11
1618.13750180085
 21
712.5219085352073
 31
0.0
  0
LINE
  5
72D3
330
1E
100
AcDbEntity
  8
躯体と製品
  6
Continuous
 62
     7
100
AcDbLine
 10
1617.137501800851
 20
711.5219085352073
 30
0.0
 11
1617.137501800851
 21
694.0219085352073
 31
0.0
  0
LINE
  5
72D4
330
1E
100
AcDbEntity
  8
躯体と製品
  6
Continuous
 62
     7
100
AcDbLine
 10
1612.187501800851
 20
711.5219085352073
 30
0.0
 11
1612.187501800851
 21
712.5219085352073
 31
0.0
  0
LINE
  5
72D5
330
1E
100
AcDbEntity
  8
躯体と製品
  6
Continuous
 62
     7
100
AcDbLine
 10
1612.187501800851
 20
712.5219085352073
 30
0.0
 11
1614.23750180085
 21
712.5219085352073
 31
0.0
  0
LINE
  5
72D6
330
1E
100
AcDbEntity
  8
躯体と製品
  6
Continuous
 62
     7
100
AcDbLine
 10
1615.23750180085
 20
694.0219085352073
 30
0.0
 11
1615.23750180085
 21
711.5219085352073
 31
0.0
  0
LINE
  5
72D7
330
1E
100
AcDbEntity
  8
躯体と製品
  6
Continuous
 62
     7
100
AcDbLine
 10
1617.137501800851
 20
711.5219085352073
 30
0.0
 11
1617.137501800851
 21
719.5219085352073
 31
0.0
  0
LINE
  5
72D8
330
1E
100
AcDbEntity
  8
躯体と製品
  6
Continuous
 62
     7
100
AcDbLine
 10
1618.13750180085
 20
712.5219085352073
 30
0.0
 11
1618.13750180085
 21
719.5219085352073
 31
0.0
  0
LINE
  5
72D9
330
1E
100
AcDbEntity
  8
躯体と製品
  6
Continuous
 62
     7
100
AcDbLine
 10
1615.23750180085
 20
711.5219085352073
 30
0.0
 11
1615.23750180085
 21
719.5219085352073
 31
0.0
  0
LINE
  5
72DA
330
1E
100
AcDbEntity
  8
躯体と製品
  6
Continuous
 62
     7
100
AcDbLine
 10
1614.23750180085
 20
712.5219085352073
 30
0.0
 11
1614.23750180085
 21
719.5219085352073
 31
0.0
  0
LINE
  5
72DB
330
1E
100
AcDbEntity
  8
躯体と製品
  6
Continuous
 62
     7
100
AcDbLine
 10
1608.688041800851
 20
711.5219085352073
 30
0.0
 11
1623.688034800851
 21
726.5219085352073
 31
0.0
  0
LINE
  5
72DC
330
1E
100
AcDbEntity
  8
躯体と製品
  6
Continuous
 62
     7
100
AcDbLine
 10
1606.566721800851
 20
711.5219085352073
 30
0.0
 11
1621.566714800851
 21
726.5219085352073
 31
0.0
  0
LINE
  5
72DD
330
1E
100
AcDbEntity
  8
躯体と製品
  6
Continuous
 62
     7
100
AcDbLine
 10
1604.44540180085
 20
711.5219085352073
 30
0.0
 11
1619.445401800851
 21
726.5219085352073
 31
0.0
  0
LINE
  5
72DE
330
1E
100
AcDbEntity
  8
躯体と製品
  6
Continuous
 62
     7
100
AcDbLine
 10
1616.187501800851
 20
694.0219085352073
 30
0.0
 11
1616.187501800851
 21
719.5219085352073
 31
0.0
  0
LINE
  5
72DF
330
1E
100
AcDbEntity
  8
躯体と製品
  6
Continuous
 62
     7
100
AcDbLine
 10
1651.114434800851
 20
711.5219085352073
 30
0.0
 11
1659.287494800851
 21
719.6949585352072
 31
0.0
  0
LINE
  5
72E0
330
1E
100
AcDbEntity
  8
躯体と製品
  6
Continuous
 62
     7
100
AcDbLine
 10
1648.993114800851
 20
711.5219085352073
 30
0.0
 11
1659.287494800851
 21
721.8162785352074
 31
0.0
  0
LINE
  5
72E1
330
1E
100
AcDbEntity
  8
躯体と製品
  6
Continuous
 62
     7
100
AcDbLine
 10
1646.871794800851
 20
711.5219085352073
 30
0.0
 11
1659.287494800851
 21
723.9375985352076
 31
0.0
  0
LINE
  5
72E2
330
1E
100
AcDbEntity
  8
躯体と製品
  6
Continuous
 62
     7
100
AcDbLine
 10
1796.363744800851
 20
710.8271885352073
 30
0.0
 11
1809.24242480085
 21
723.7058685352076
 31
0.0
  0
LINE
  5
72E3
330
1E
100
AcDbEntity
  8
躯体と製品
  6
Continuous
 62
     7
100
AcDbLine
 10
1798.485064800851
 20
708.7058685352076
 30
0.0
 11
1813.48506480085
 21
723.7058685352076
 31
0.0
  0
LINE
  5
72E4
330
1E
100
AcDbEntity
  8
躯体と製品
  6
Continuous
 62
     7
100
AcDbLine
 10
1796.363744800851
 20
708.7058685352076
 30
0.0
 11
1811.363744800851
 21
723.7058685352076
 31
0.0
  0
LINE
  5
72E5
330
1E
100
AcDbEntity
  8
躯体と製品
  6
Continuous
 62
     7
100
AcDbLine
 10
1976.36373480085
 20
564.1058685352072
 30
0.0
 11
1935.56374480085
 21
564.1058685352072
 31
0.0
  0
LINE
  5
72E6
330
1E
100
AcDbEntity
  8
躯体と製品
  6
Continuous
 62
     7
100
AcDbLine
 10
1935.56374480085
 20
556.5058685352073
 30
0.0
 11
1976.36373480085
 21
556.5058685352073
 31
0.0
  0
LINE
  5
72E7
330
1E
100
AcDbEntity
  8
文字-記号
  6
Continuous
 62
     7
100
AcDbLine
 10
1916.896684800851
 20
584.1058685352073
 30
0.0
 11
1946.99667480085
 21
584.1058685352073
 31
0.0
  0
LINE
  5
72E8
330
1E
100
AcDbEntity
  8
躯体と製品
  6
Continuous
 62
     7
100
AcDbLine
 10
1976.36373480085
 20
551.3058685352075
 30
0.0
 11
1907.563744800851
 21
551.3058685352075
 31
0.0
  0
TEXT
  5
72E9
330
1E
100
AcDbEntity
  8
文字-記号
 62
     7
100
AcDbText
 10
1916.896694800851
 20
585.1058585352075
 30
0.0
 40
3.0
  1
（６０×４５×０．８）
 41
0.8
  7
ACAD
100
AcDbText
  0
TEXT
  5
72EA
330
1E
100
AcDbEntity
  8
文字-記号
 62
     7
100
AcDbText
 10
1916.896694800851
 20
589.1058585352075
 30
0.0
 40
3.0
  1
吹出口補強枠
 41
0.8
  7
ACAD
100
AcDbText
  0
LINE
  5
72EB
330
1E
100
AcDbEntity
  8
躯体と製品
  6
Continuous
 62
     7
100
AcDbLine
 10
1907.563744800851
 20
548.7058685352072
 30
0.0
 11
1976.36373480085
 21
548.7058685352072
 31
0.0
  0
TEXT
  5
72EC
330
1E
100
AcDbEntity
  8
文字-記号
 62
     7
100
AcDbText
 10
1926.489224800851
 20
531.4058585352072
 30
0.0
 40
3.0
  1
ダブル野縁
 41
0.8
  7
ACAD
100
AcDbText
  0
LINE
  5
72ED
330
1E
100
AcDbEntity
  8
文字-記号
  6
Continuous
 62
     7
100
AcDbLine
 10
1886.363744800851
 20
598.7058685352072
 30
0.0
 11
1880.590234800851
 21
608.7058685352071
 31
0.0
  0
LINE
  5
72EE
330
1E
100
AcDbEntity
  8
文字-記号
  6
Continuous
 62
     7
100
AcDbLine
 10
1898.363744800851
 20
616.2058685352072
 30
0.0
 11
1916.896684800851
 21
584.1058685352073
 31
0.0
  0
LINE
  5
72EF
330
1E
100
AcDbEntity
  8
躯体と製品
  6
Continuous
 62
     7
100
AcDbLine
 10
1886.363744800851
 20
612.4058685352074
 30
0.0
 11
1886.363744800851
 21
585.0058685352073
 31
0.0
  0
LINE
  5
72F0
330
1E
100
AcDbEntity
  8
躯体と製品
  6
Continuous
 62
     7
100
AcDbLine
 10
1903.263744800851
 20
565.1058685352072
 30
0.0
 11
1903.263744800851
 21
638.2058685352076
 31
0.0
  0
LINE
  5
72F1
330
1E
100
AcDbEntity
  8
躯体と製品
  6
Continuous
 62
     7
100
AcDbLine
 10
1934.213744800851
 20
686.2058685352076
 30
0.0
 11
1934.213744800851
 21
594.4136485352073
 31
0.0
  0
LINE
  5
72F2
330
1E
100
AcDbEntity
  8
躯体と製品
  6
Continuous
 62
     7
100
AcDbLine
 10
1932.31374480085
 20
593.5000285352075
 30
0.0
 11
1932.31374480085
 21
686.2058685352076
 31
0.0
  0
LINE
  5
72F3
330
1E
100
AcDbEntity
  8
躯体と製品
  6
Continuous
 62
     7
100
AcDbLine
 10
1933.263744800851
 20
595.5656085352075
 30
0.0
 11
1933.263744800851
 21
686.2058685352076
 31
0.0
  0
LINE
  5
72F4
330
1E
100
AcDbEntity
  8
躯体と製品
  6
Continuous
 62
     7
100
AcDbLine
 10
1896.363744800851
 20
686.2058685352076
 30
0.0
 11
1896.363744800851
 21
483.7058775352074
 31
0.0
  0
LINE
  5
72F5
330
1E
100
AcDbEntity
  8
躯体と製品
  6
Continuous
 62
     7
100
AcDbLine
 10
1889.863744800851
 20
686.2058685352076
 30
0.0
 11
1889.863744800851
 21
483.7058775352074
 31
0.0
  0
LINE
  5
72F6
330
1E
100
AcDbEntity
  8
躯体と製品
  6
Continuous
 62
     7
100
AcDbLine
 10
1902.863744800851
 20
686.2058685352076
 30
0.0
 11
1902.863744800851
 21
483.7058775352074
 31
0.0
  0
LINE
  5
72F7
330
1E
100
AcDbEntity
  8
躯体と製品
  6
Continuous
 62
     7
100
AcDbLine
 10
1891.263744800851
 20
532.1058685352072
 30
0.0
 11
1891.263744800851
 21
686.2058685352076
 31
0.0
  0
LINE
  5
72F8
330
1E
100
AcDbEntity
  8
躯体と製品
  6
Continuous
 62
     7
100
AcDbLine
 10
1901.463744800851
 20
532.1058685352072
 30
0.0
 11
1901.463744800851
 21
686.2058685352076
 31
0.0
  0
LINE
  5
72F9
330
1E
100
AcDbEntity
  8
躯体と製品
  6
Continuous
 62
     7
100
AcDbLine
 10
1887.363744800851
 20
631.2058685352076
 30
0.0
 11
1887.363744800851
 21
483.7058775352074
 31
0.0
  0
TEXT
  5
72FA
330
1E
100
AcDbEntity
  8
文字-記号
 62
     7
100
AcDbText
 10
1865.052939944177
 20
561.3241253402343
 30
0.0
 40
3.0
  1
スペーサ　
 41
0.8
  7
ACAD
100
AcDbText
  0
LINE
  5
72FB
330
1E
100
AcDbEntity
  8
文字-記号
  6
Continuous
 62
     7
100
AcDbLine
 10
1890.06374480085
 20
532.4652385352074
 30
0.0
 11
1879.043234800851
 21
560.4058685352074
 31
0.0
  0
LINE
  5
72FC
330
1E
100
AcDbEntity
  8
文字-記号
  6
Continuous
 62
     7
100
AcDbLine
 10
1879.043234800851
 20
560.4058685352074
 30
0.0
 11
1863.739960985434
 21
560.4058685352074
 31
0.0
  0
LINE
  5
72FD
330
1E
100
AcDbEntity
  8
文字-記号
  6
Continuous
 62
     7
100
AcDbLine
 10
1912.863744800851
 20
554.0058685352073
 30
0.0
 11
1926.48920480085
 21
530.4058685352074
 31
0.0
  0
LINE
  5
72FE
330
1E
100
AcDbEntity
  8
躯体と製品
  6
Continuous
 62
     7
100
AcDbLine
 10
1905.363744800851
 20
551.3058685352075
 30
0.0
 11
1905.363744800851
 21
483.7058775352074
 31
0.0
  0
LINE
  5
72FF
330
1E
100
AcDbEntity
  8
躯体と製品
  6
Continuous
 62
     7
100
AcDbLine
 10
1902.66374480085
 20
532.5852385352073
 30
0.0
 11
1902.66374480085
 21
529.2652385352075
 31
0.0
  0
LINE
  5
7300
330
1E
100
AcDbEntity
  8
躯体と製品
  6
Continuous
 62
     7
100
AcDbLine
 10
1901.41374480085
 20
528.7058685352076
 30
0.0
 11
1901.06374480085
 21
528.7058685352076
 31
0.0
  0
LINE
  5
7301
330
1E
100
AcDbEntity
  8
躯体と製品
  6
Continuous
 62
     7
100
AcDbLine
 10
1901.41374480085
 20
528.7652385352076
 30
0.0
 11
1901.41374480085
 21
527.8652385352074
 31
0.0
  0
ARC
  5
7302
330
1E
100
AcDbEntity
  8
躯体と製品
  6
Continuous
 62
     7
100
AcDbCircle
 10
1900.70374480085
 20
528.7658685352075
 30
0.0
 40
0.24
100
AcDbArc
 50
90.0
 51
180.0
  0
LINE
  5
7303
330
1E
100
AcDbEntity
  8
躯体と製品
  6
Continuous
 62
     7
100
AcDbLine
 10
1900.70374480085
 20
529.0058685352073
 30
0.0
 11
1900.823744800851
 21
529.0058685352073
 31
0.0
  0
ARC
  5
7304
330
1E
100
AcDbEntity
  8
躯体と製品
  6
Continuous
 62
     7
100
AcDbCircle
 10
1900.823744800851
 20
528.7658685352075
 30
0.0
 40
0.24
100
AcDbArc
 50
0.0
 51
90.0
  0
ARC
  5
7305
330
1E
100
AcDbEntity
  8
躯体と製品
  6
Continuous
 62
     7
100
AcDbCircle
 10
1901.713744800851
 20
528.7652385352076
 30
0.0
 40
0.3
100
AcDbArc
 50
90.0
 51
180.0
  0
LINE
  5
7306
330
1E
100
AcDbEntity
  8
躯体と製品
  6
Continuous
 62
     7
100
AcDbLine
 10
1901.713744800851
 20
529.0652385352073
 30
0.0
 11
1902.463744800851
 21
529.0652385352073
 31
0.0
  0
ARC
  5
7307
330
1E
100
AcDbEntity
  8
躯体と製品
  6
Continuous
 62
     7
100
AcDbCircle
 10
1898.66374480085
 20
527.9058685352074
 30
0.0
 40
0.2
100
AcDbArc
 50
0.0
 51
90.0
  0
LINE
  5
7308
330
1E
100
AcDbEntity
  8
躯体と製品
  6
Continuous
 62
     7
100
AcDbLine
 10
1901.463744800851
 20
527.8180985352073
 30
0.0
 11
1901.41374480085
 21
527.8652385352074
 31
0.0
  0
LINE
  5
7309
330
1E
100
AcDbEntity
  8
躯体と製品
  6
Continuous
 62
     7
100
AcDbLine
 10
1895.66374480085
 20
531.3852385352074
 30
0.0
 11
1895.66374480085
 21
530.3852385352074
 31
0.0
  0
ARC
  5
730A
330
1E
100
AcDbEntity
  8
躯体と製品
  6
Continuous
 62
     7
100
AcDbCircle
 10
1895.863744800851
 20
531.3852385352074
 30
0.0
 40
0.2
100
AcDbArc
 50
90.0
 51
180.0
  0
LINE
  5
730B
330
1E
100
AcDbEntity
  8
躯体と製品
  6
Continuous
 62
     7
100
AcDbLine
 10
1895.863744800851
 20
531.5852385352072
 30
0.0
 11
1896.863744800851
 21
531.5852385352072
 31
0.0
  0
ARC
  5
730C
330
1E
100
AcDbEntity
  8
躯体と製品
  6
Continuous
 62
     7
100
AcDbCircle
 10
1895.863744800851
 20
530.3852385352074
 30
0.0
 40
0.2
100
AcDbArc
 50
180.0
 51
270.0
  0
LINE
  5
730D
330
1E
100
AcDbEntity
  8
躯体と製品
  6
Continuous
 62
     7
100
AcDbLine
 10
1895.863744800851
 20
530.1852385352072
 30
0.0
 11
1896.863744800851
 21
530.1852385352072
 31
0.0
  0
ARC
  5
730E
330
1E
100
AcDbEntity
  8
躯体と製品
  6
Continuous
 62
     7
100
AcDbCircle
 10
1896.863744800851
 20
530.3852385352074
 30
0.0
 40
0.2
100
AcDbArc
 50
270.0
 51
0.0
  0
LINE
  5
730F
330
1E
100
AcDbEntity
  8
躯体と製品
  6
Continuous
 62
     7
100
AcDbLine
 10
1897.063744800851
 20
530.3852385352074
 30
0.0
 11
1897.063744800851
 21
531.3852385352074
 31
0.0
  0
ARC
  5
7310
330
1E
100
AcDbEntity
  8
躯体と製品
  6
Continuous
 62
     7
100
AcDbCircle
 10
1896.863744800851
 20
531.3852385352074
 30
0.0
 40
0.2
100
AcDbArc
 50
0.0
 51
90.0
  0
LINE
  5
7311
330
1E
100
AcDbEntity
  8
躯体と製品
  6
Continuous
 62
     7
100
AcDbLine
 10
1900.46374480085
 20
528.7058685352076
 30
0.0
 11
1896.363744800851
 21
528.7058685352076
 31
0.0
  0
LINE
  5
7312
330
1E
100
AcDbEntity
  8
躯体と製品
  6
Continuous
 62
     7
100
AcDbLine
 10
1898.66374480085
 20
528.1058685352072
 30
0.0
 11
1896.363744800851
 21
528.1058685352072
 31
0.0
  0
LINE
  5
7313
330
1E
100
AcDbEntity
  8
躯体と製品
  6
DASHED2
 62
     7
100
AcDbLine
 10
1902.66374480085
 20
529.3052385352075
 30
0.0
 11
1896.363744800851
 21
529.3052385352075
 31
0.0
  0
LINE
  5
7314
330
1E
100
AcDbEntity
  8
躯体と製品
  6
DASHED2
 62
     7
100
AcDbLine
 10
1902.66374480085
 20
532.4652385352074
 30
0.0
 11
1896.363744800851
 21
532.4652385352074
 31
0.0
  0
LINE
  5
7315
330
1E
100
AcDbEntity
  8
躯体と製品
  6
Continuous
 62
     7
100
AcDbLine
 10
1896.363744800851
 20
532.5852385352073
 30
0.0
 11
1902.66374480085
 21
532.5852385352073
 31
0.0
  0
LINE
  5
7316
330
1E
100
AcDbEntity
  8
躯体と製品
  6
Continuous
 62
     7
100
AcDbLine
 10
1902.647044800851
 20
529.1852385352076
 30
0.0
 11
1896.363744800851
 21
529.1852385352076
 31
0.0
  0
ARC
  5
7317
330
1E
100
AcDbEntity
  8
躯体と製品
  6
Continuous
 62
     7
100
AcDbCircle
 10
1902.463744800851
 20
529.2652385352075
 30
0.0
 40
0.2
100
AcDbArc
 50
270.0
 51
0.0
  0
LINE
  5
7318
330
1E
100
AcDbEntity
  8
躯体と製品
  6
Continuous
 62
     7
100
AcDbLine
 10
1899.963744800851
 20
526.7058685352075
 30
0.0
 11
1899.06374480085
 21
526.7058685352075
 31
0.0
  0
LINE
  5
7319
330
1E
100
AcDbEntity
  8
躯体と製品
  6
Continuous
 62
     7
100
AcDbLine
 10
1900.16374480085
 20
525.5058685352073
 30
0.0
 11
1900.16374480085
 21
526.5058685352073
 31
0.0
  0
ARC
  5
731A
330
1E
100
AcDbEntity
  8
躯体と製品
  6
Continuous
 62
     7
100
AcDbCircle
 10
1900.36374480085
 20
525.5058685352073
 30
0.0
 40
0.2
100
AcDbArc
 50
180.0
 51
270.0
  0
ARC
  5
731B
330
1E
100
AcDbEntity
  8
躯体と製品
  6
Continuous
 62
     7
100
AcDbCircle
 10
1899.963744800851
 20
526.5058685352073
 30
0.0
 40
0.2
100
AcDbArc
 50
0.0
 51
90.0
  0
LINE
  5
731C
330
1E
100
AcDbEntity
  8
躯体と製品
  6
Continuous
 62
     7
100
AcDbLine
 10
1900.70374480085
 20
525.7105085352073
 30
0.0
 11
1900.823744800851
 21
525.7105085352073
 31
0.0
  0
ARC
  5
731D
330
1E
100
AcDbEntity
  8
躯体と製品
  6
Continuous
 62
     7
100
AcDbCircle
 10
1900.70374480085
 20
525.9505085352075
 30
0.0
 40
0.24
100
AcDbArc
 50
180.0
 51
270.0
  0
ARC
  5
731E
330
1E
100
AcDbEntity
  8
躯体と製品
  6
Continuous
 62
     7
100
AcDbCircle
 10
1900.823744800851
 20
525.9505085352075
 30
0.0
 40
0.24
100
AcDbArc
 50
270.0
 51
0.0
  0
ARC
  5
731F
330
1E
100
AcDbEntity
  8
躯体と製品
  6
Continuous
 62
     7
100
AcDbCircle
 10
1899.06374480085
 20
526.9058685352074
 30
0.0
 40
0.2
100
AcDbArc
 50
180.0
 51
270.0
  0
LINE
  5
7320
330
1E
100
AcDbEntity
  8
躯体と製品
  6
Continuous
 62
     7
100
AcDbLine
 10
1900.36374480085
 20
525.3058685352075
 30
0.0
 11
1901.463744800851
 21
525.3058685352075
 31
0.0
  0
LINE
  5
7321
330
1E
100
AcDbEntity
  8
躯体と製品
  6
Continuous
 62
     7
100
AcDbLine
 10
1900.46374480085
 20
525.9505085352075
 30
0.0
 11
1900.46374480085
 21
528.7658685352075
 31
0.0
  0
LINE
  5
7322
330
1E
100
AcDbEntity
  8
躯体と製品
  6
Continuous
 62
     7
100
AcDbLine
 10
1901.06374480085
 20
525.9505085352075
 30
0.0
 11
1901.06374480085
 21
528.7658685352075
 31
0.0
  0
LINE
  5
7323
330
1E
100
AcDbEntity
  8
躯体と製品
  6
CENTER1
 62
     7
100
AcDbLine
 10
1900.763744800851
 20
529.1852385352076
 30
0.0
 11
1900.763744800851
 21
525.7151485352074
 31
0.0
  0
LINE
  5
7324
330
1E
100
AcDbEntity
  8
躯体と製品
  6
Continuous
 62
     7
100
AcDbLine
 10
1898.86374480085
 20
526.9058685352074
 30
0.0
 11
1898.86374480085
 21
527.9058685352074
 31
0.0
  0
LINE
  5
7325
330
1E
100
AcDbEntity
  8
躯体と製品
  6
Continuous
 62
     7
100
AcDbLine
 10
1891.66374480085
 20
528.7058685352076
 30
0.0
 11
1891.31374480085
 21
528.7058685352076
 31
0.0
  0
ARC
  5
7326
330
1E
100
AcDbEntity
  8
躯体と製品
  6
Continuous
 62
     7
100
AcDbCircle
 10
1894.06374480085
 20
527.9058685352074
 30
0.0
 40
0.2
100
AcDbArc
 50
90.0
 51
180.0
  0
ARC
  5
7327
330
1E
100
AcDbEntity
  8
躯体と製品
  6
Continuous
 62
     7
100
AcDbCircle
 10
1892.023744800851
 20
528.7658685352075
 30
0.0
 40
0.24
100
AcDbArc
 50
0.0
 51
90.0
  0
ARC
  5
7328
330
1E
100
AcDbEntity
  8
躯体と製品
  6
Continuous
 62
     7
100
AcDbCircle
 10
1891.90374480085
 20
528.7658685352075
 30
0.0
 40
0.24
100
AcDbArc
 50
90.0
 51
180.0
  0
LINE
  5
7329
330
1E
100
AcDbEntity
  8
躯体と製品
  6
Continuous
 62
     7
100
AcDbLine
 10
1891.90374480085
 20
529.0058685352073
 30
0.0
 11
1892.023744800851
 21
529.0058685352073
 31
0.0
  0
ARC
  5
732A
330
1E
100
AcDbEntity
  8
躯体と製品
  6
Continuous
 62
     7
100
AcDbCircle
 10
1891.013744800851
 20
528.7652385352076
 30
0.0
 40
0.3
100
AcDbArc
 50
0.0
 51
90.0
  0
LINE
  5
732B
330
1E
100
AcDbEntity
  8
躯体と製品
  6
Continuous
 62
     7
100
AcDbLine
 10
1891.31374480085
 20
528.7652385352076
 30
0.0
 11
1891.31374480085
 21
527.8652385352074
 31
0.0
  0
LINE
  5
732C
330
1E
100
AcDbEntity
  8
躯体と製品
  6
Continuous
 62
     7
100
AcDbLine
 10
1891.263744800851
 20
527.8180985352073
 30
0.0
 11
1891.31374480085
 21
527.8652385352074
 31
0.0
  0
LINE
  5
732D
330
1E
100
AcDbEntity
  8
躯体と製品
  6
Continuous
 62
     7
100
AcDbLine
 10
1890.06374480085
 20
529.2652385352075
 30
0.0
 11
1890.06374480085
 21
532.5852385352073
 31
0.0
  0
ARC
  5
732E
330
1E
100
AcDbEntity
  8
躯体と製品
  6
Continuous
 62
     7
100
AcDbCircle
 10
1890.263744800851
 20
529.2652385352075
 30
0.0
 40
0.2
100
AcDbArc
 50
180.0
 51
270.0
  0
LINE
  5
732F
330
1E
100
AcDbEntity
  8
躯体と製品
  6
Continuous
 62
     7
100
AcDbLine
 10
1891.013744800851
 20
529.0652385352073
 30
0.0
 11
1890.263744800851
 21
529.0652385352073
 31
0.0
  0
CIRCLE
  5
7330
330
1E
100
AcDbEntity
  8
文字-記号
  6
Continuous
 62
     7
100
AcDbCircle
 10
1890.06374480085
 20
532.4652385352074
 30
0.0
 40
1.399999999999999
  0
ARC
  5
7331
330
1E
100
AcDbEntity
  8
躯体と製品
  6
Continuous
 62
     7
100
AcDbCircle
 10
1892.363744800851
 20
525.5058685352073
 30
0.0
 40
0.2
100
AcDbArc
 50
270.0
 51
0.0
  0
LINE
  5
7332
330
1E
100
AcDbEntity
  8
躯体と製品
  6
Continuous
 62
     7
100
AcDbLine
 10
1892.56374480085
 20
525.5058685352073
 30
0.0
 11
1892.56374480085
 21
526.5058685352073
 31
0.0
  0
LINE
  5
7333
330
1E
100
AcDbEntity
  8
躯体と製品
  6
Continuous
 62
     7
100
AcDbLine
 10
1892.76374480085
 20
526.7058685352075
 30
0.0
 11
1893.66374480085
 21
526.7058685352075
 31
0.0
  0
ARC
  5
7334
330
1E
100
AcDbEntity
  8
躯体と製品
  6
Continuous
 62
     7
100
AcDbCircle
 10
1892.76374480085
 20
526.5058685352073
 30
0.0
 40
0.2
100
AcDbArc
 50
90.0
 51
180.0
  0
ARC
  5
7335
330
1E
100
AcDbEntity
  8
躯体と製品
  6
Continuous
 62
     7
100
AcDbCircle
 10
1893.66374480085
 20
526.9058685352074
 30
0.0
 40
0.2
100
AcDbArc
 50
270.0
 51
0.0
  0
ARC
  5
7336
330
1E
100
AcDbEntity
  8
躯体と製品
  6
Continuous
 62
     7
100
AcDbCircle
 10
1892.023744800851
 20
525.9505085352075
 30
0.0
 40
0.24
100
AcDbArc
 50
270.0
 51
0.0
  0
LINE
  5
7337
330
1E
100
AcDbEntity
  8
躯体と製品
  6
Continuous
 62
     7
100
AcDbLine
 10
1891.90374480085
 20
525.7012185352073
 30
0.0
 11
1892.023744800851
 21
525.7012185352073
 31
0.0
  0
ARC
  5
7338
330
1E
100
AcDbEntity
  8
躯体と製品
  6
Continuous
 62
     7
100
AcDbCircle
 10
1891.90374480085
 20
525.9505085352075
 30
0.0
 40
0.24
100
AcDbArc
 50
180.0
 51
270.0
  0
LINE
  5
7339
330
1E
100
AcDbEntity
  8
躯体と製品
  6
Continuous
 62
     7
100
AcDbLine
 10
1891.263744800851
 20
525.3058685352075
 30
0.0
 11
1892.363744800851
 21
525.3058685352075
 31
0.0
  0
LINE
  5
733A
330
1E
100
AcDbEntity
  8
躯体と製品
  6
CENTER1
 62
     7
100
AcDbLine
 10
1891.963744800851
 20
529.1852385352076
 30
0.0
 11
1891.963744800851
 21
525.7058685352076
 31
0.0
  0
LINE
  5
733B
330
1E
100
AcDbEntity
  8
躯体と製品
  6
Continuous
 62
     7
100
AcDbLine
 10
1893.863744800851
 20
526.9058685352074
 30
0.0
 11
1893.863744800851
 21
527.9058685352074
 31
0.0
  0
LINE
  5
733C
330
1E
100
AcDbEntity
  8
躯体と製品
  6
Continuous
 62
     7
100
AcDbLine
 10
1892.263744800851
 20
525.9505085352075
 30
0.0
 11
1892.263744800851
 21
528.7658685352075
 31
0.0
  0
LINE
  5
733D
330
1E
100
AcDbEntity
  8
躯体と製品
  6
Continuous
 62
     7
100
AcDbLine
 10
1891.66374480085
 20
525.9505085352075
 30
0.0
 11
1891.66374480085
 21
528.7658685352075
 31
0.0
  0
LINE
  5
733E
330
1E
100
AcDbEntity
  8
躯体と製品
  6
Continuous
 62
     7
100
AcDbLine
 10
1896.363744800851
 20
528.7058685352076
 30
0.0
 11
1892.263744800851
 21
528.7058685352076
 31
0.0
  0
LINE
  5
733F
330
1E
100
AcDbEntity
  8
躯体と製品
  6
Continuous
 62
     7
100
AcDbLine
 10
1894.06374480085
 20
528.1058685352072
 30
0.0
 11
1896.363744800851
 21
528.1058685352072
 31
0.0
  0
LINE
  5
7340
330
1E
100
AcDbEntity
  8
躯体と製品
  6
DASHED2
 62
     7
100
AcDbLine
 10
1890.06374480085
 20
529.3052385352075
 30
0.0
 11
1896.363744800851
 21
529.3052385352075
 31
0.0
  0
LINE
  5
7341
330
1E
100
AcDbEntity
  8
躯体と製品
  6
DASHED2
 62
     7
100
AcDbLine
 10
1890.06374480085
 20
532.4652385352074
 30
0.0
 11
1896.363744800851
 21
532.4652385352074
 31
0.0
  0
LINE
  5
7342
330
1E
100
AcDbEntity
  8
躯体と製品
  6
Continuous
 62
     7
100
AcDbLine
 10
1896.363744800851
 20
532.5852385352073
 30
0.0
 11
1890.06374480085
 21
532.5852385352073
 31
0.0
  0
LINE
  5
7343
330
1E
100
AcDbEntity
  8
躯体と製品
  6
Continuous
 62
     7
100
AcDbLine
 10
1890.08043480085
 20
529.1852385352076
 30
0.0
 11
1896.363744800851
 21
529.1852385352076
 31
0.0
  0
LINE
  5
7344
330
1E
100
AcDbEntity
  8
躯体と製品
  6
Continuous
 62
     7
100
AcDbLine
 10
1901.463744800851
 20
483.7058775352074
 30
0.0
 11
1901.463744800851
 21
528.7058685352076
 31
0.0
  0
LINE
  5
7345
330
1E
100
AcDbEntity
  8
躯体と製品
  6
Continuous
 62
     7
100
AcDbLine
 10
1891.263744800851
 20
483.7058775352074
 30
0.0
 11
1891.263744800851
 21
528.7058685352076
 31
0.0
  0
LINE
  5
7346
330
1E
100
AcDbEntity
  8
文字-記号
  6
Continuous
 62
     7
100
AcDbLine
 10
1926.48920480085
 20
530.4058685352074
 30
0.0
 11
1941.539194800851
 21
530.4058685352074
 31
0.0
  0
LINE
  5
7347
330
1E
100
AcDbEntity
  8
文字-記号
  6
Continuous
 62
     7
100
AcDbLine
 10
1896.363744800851
 20
581.2058685352071
 30
0.0
 11
1916.896684800851
 21
584.1058685352073
 31
0.0
  0
LINE
  5
7348
330
1E
100
AcDbEntity
  8
躯体と製品
  6
Continuous
 62
     7
100
AcDbLine
 10
1911.463744800851
 20
551.7058685352071
 30
0.0
 11
1911.16374480085
 21
551.6058685352072
 31
0.0
  0
LINE
  5
7349
330
1E
100
AcDbEntity
  8
躯体と製品
  6
Continuous
 62
     7
100
AcDbLine
 10
1911.463744800851
 20
551.6058685352072
 30
0.0
 11
1911.16374480085
 21
551.5058685352073
 31
0.0
  0
LINE
  5
734A
330
1E
100
AcDbEntity
  8
躯体と製品
  6
Continuous
 62
     7
100
AcDbLine
 10
1904.363744800851
 20
551.5058685352073
 30
0.0
 11
1913.36374480085
 21
551.5058685352073
 31
0.0
  0
LINE
  5
734B
330
1E
100
AcDbEntity
  8
躯体と製品
  6
Continuous
 62
     7
100
AcDbLine
 10
1903.163744800851
 20
556.5058685352073
 30
0.0
 11
1930.963744800851
 21
556.5058685352073
 31
0.0
  0
LINE
  5
734C
330
1E
100
AcDbEntity
  8
躯体と製品
  6
Continuous
 62
     7
100
AcDbLine
 10
1930.963744800851
 20
564.1058685352072
 30
0.0
 11
1903.263744800851
 21
564.1058685352072
 31
0.0
  0
DIMENSION
  5
734D
330
1E
100
AcDbEntity
  8
寸法
  6
Continuous
100
AcDbDimension
  2
*D8
 10
1905.363744800851
 20
538.7058685352071
 30
0.0
 11
1906.363744800851
 21
541.0058685352071
 31
0.0
 70
    32
  1
10
 71
     5
 42
2.0
  3
AutoCAD
100
AcDbAlignedDimension
 13
1907.363744800851
 23
547.2058685352071
 33
0.0
 14
1905.363744800851
 24
538.7058685352071
 34
0.0
100
AcDbRotatedDimension
1001
ACAD
1000
DSTYLE
1002
{
1070
   147
1040
0.8
1070
   140
1040
10.0
1002
}
  0
CIRCLE
  5
734E
330
1E
100
AcDbEntity
  8
文字-記号
  6
Continuous
 62
     7
100
AcDbCircle
 10
1886.363744800851
 20
598.7058685352072
 30
0.0
 40
0.3
  0
LINE
  5
734F
330
1E
100
AcDbEntity
  8
躯体と製品
  6
CENTER2
 62
     7
100
AcDbLine
 10
1883.363744800851
 20
598.7058685352072
 30
0.0
 11
1907.363744800851
 21
598.7058685352072
 31
0.0
  0
LINE
  5
7350
330
1E
100
AcDbEntity
  8
躯体と製品
  6
Continuous
 62
     7
100
AcDbLine
 10
1902.66374480085
 20
581.2058685352071
 30
0.0
 11
1902.66374480085
 21
577.8058685352075
 31
0.0
  0
LINE
  5
7351
330
1E
100
AcDbEntity
  8
躯体と製品
  6
Continuous
 62
     7
100
AcDbLine
 10
1902.703744800851
 20
583.8458685352074
 30
0.0
 11
1902.703744800851
 21
575.1658685352071
 31
0.0
  0
LINE
  5
7352
330
1E
100
AcDbEntity
  8
躯体と製品
  6
Continuous
 62
     7
100
AcDbLine
 10
1901.623744800851
 20
583.8458685352074
 30
0.0
 11
1901.623744800851
 21
582.9058685352074
 31
0.0
  0
LINE
  5
7353
330
1E
100
AcDbEntity
  8
躯体と製品
  6
Continuous
 62
     7
100
AcDbLine
 10
1901.463744800851
 20
582.9058685352074
 30
0.0
 11
1901.623744800851
 21
582.9058685352074
 31
0.0
  0
CIRCLE
  5
7354
330
1E
100
AcDbEntity
  8
文字-記号
  6
Continuous
 62
     7
100
AcDbCircle
 10
1896.363744800851
 20
581.2058685352071
 30
0.0
 40
0.3
  0
LINE
  5
7355
330
1E
100
AcDbEntity
  8
躯体と製品
  6
Continuous
 62
     7
100
AcDbLine
 10
1901.55611480085
 20
575.1658685352071
 30
0.0
 11
1901.47528480085
 21
575.3058685352075
 31
0.0
  0
LINE
  5
7356
330
1E
100
AcDbEntity
  8
躯体と製品
  6
Continuous
 62
     7
100
AcDbLine
 10
1901.382914800851
 20
575.1458685352072
 30
0.0
 11
1901.463744800851
 21
575.0058685352073
 31
0.0
  0
CIRCLE
  5
7357
330
1E
100
AcDbEntity
  8
躯体と製品
  6
Continuous
 62
     7
100
AcDbCircle
 10
1896.363744800851
 20
576.5058685352073
 30
0.0
 40
0.6
  0
LINE
  5
7358
330
1E
100
AcDbEntity
  8
躯体と製品
  6
Continuous
 62
     7
100
AcDbLine
 10
1902.703744800851
 20
575.1658685352071
 30
0.0
 11
1901.55611480085
 21
575.1658685352071
 31
0.0
  0
LINE
  5
7359
330
1E
100
AcDbEntity
  8
躯体と製品
  6
Continuous
 62
     7
100
AcDbLine
 10
1902.703744800851
 20
583.8458685352074
 30
0.0
 11
1901.623744800851
 21
583.8458685352074
 31
0.0
  0
LINE
  5
735A
330
1E
100
AcDbEntity
  8
躯体と製品
  6
Continuous
 62
     7
100
AcDbLine
 10
1901.463744800851
 20
584.0058685352073
 30
0.0
 11
1902.863744800851
 21
584.0058685352073
 31
0.0
  0
LINE
  5
735B
330
1E
100
AcDbEntity
  8
躯体と製品
  6
Continuous
 62
     7
100
AcDbLine
 10
1902.863744800851
 20
575.0058685352073
 30
0.0
 11
1901.463744800851
 21
575.0058685352073
 31
0.0
  0
LINE
  5
735C
330
1E
100
AcDbEntity
  8
躯体と製品
  6
Continuous
 62
     7
100
AcDbLine
 10
1911.16374480085
 20
551.6058685352072
 30
0.0
 11
1910.863744800851
 21
551.7058685352071
 31
0.0
  0
LINE
  5
735D
330
1E
100
AcDbEntity
  8
躯体と製品
  6
Continuous
 62
     7
100
AcDbLine
 10
1911.16374480085
 20
551.5058685352073
 30
0.0
 11
1910.863744800851
 21
551.6058685352072
 31
0.0
  0
LINE
  5
735E
330
1E
100
AcDbEntity
  8
躯体と製品
  6
Continuous
 62
     7
100
AcDbLine
 10
1910.56374480085
 20
551.6058685352072
 30
0.0
 11
1910.26374480085
 21
551.7058685352071
 31
0.0
  0
LINE
  5
735F
330
1E
100
AcDbEntity
  8
躯体と製品
  6
Continuous
 62
     7
100
AcDbLine
 10
1910.26374480085
 20
551.7058685352071
 30
0.0
 11
1909.963744800851
 21
551.6058685352072
 31
0.0
  0
LINE
  5
7360
330
1E
100
AcDbEntity
  8
躯体と製品
  6
Continuous
 62
     7
100
AcDbLine
 10
1909.963744800851
 20
551.6058685352072
 30
0.0
 11
1909.66374480085
 21
551.7058685352071
 31
0.0
  0
LINE
  5
7361
330
1E
100
AcDbEntity
  8
躯体と製品
  6
Continuous
 62
     7
100
AcDbLine
 10
1909.66374480085
 20
551.7058685352071
 30
0.0
 11
1909.363744800851
 21
551.6058685352072
 31
0.0
  0
LINE
  5
7362
330
1E
100
AcDbEntity
  8
躯体と製品
  6
Continuous
 62
     7
100
AcDbLine
 10
1909.363744800851
 20
551.6058685352072
 30
0.0
 11
1909.063744800851
 21
551.7058685352071
 31
0.0
  0
LINE
  5
7363
330
1E
100
AcDbEntity
  8
躯体と製品
  6
Continuous
 62
     7
100
AcDbLine
 10
1909.063744800851
 20
551.7058685352071
 30
0.0
 11
1908.863744800851
 21
551.6058685352072
 31
0.0
  0
LINE
  5
7364
330
1E
100
AcDbEntity
  8
躯体と製品
  6
Continuous
 62
     7
100
AcDbLine
 10
1908.863744800851
 20
551.6058685352072
 30
0.0
 11
1908.06374480085
 21
551.6058685352072
 31
0.0
  0
LINE
  5
7365
330
1E
100
AcDbEntity
  8
躯体と製品
  6
Continuous
 62
     7
100
AcDbLine
 10
1908.06374480085
 20
551.6058685352072
 30
0.0
 11
1907.863744800851
 21
551.7058685352071
 31
0.0
  0
LINE
  5
7366
330
1E
100
AcDbEntity
  8
躯体と製品
  6
Continuous
 62
     7
100
AcDbLine
 10
1910.56374480085
 20
551.5058685352073
 30
0.0
 11
1910.26374480085
 21
551.6058685352072
 31
0.0
  0
LINE
  5
7367
330
1E
100
AcDbEntity
  8
躯体と製品
  6
Continuous
 62
     7
100
AcDbLine
 10
1910.26374480085
 20
551.6058685352072
 30
0.0
 11
1909.963744800851
 21
551.5058685352073
 31
0.0
  0
LINE
  5
7368
330
1E
100
AcDbEntity
  8
躯体と製品
  6
Continuous
 62
     7
100
AcDbLine
 10
1909.963744800851
 20
551.5058685352073
 30
0.0
 11
1909.66374480085
 21
551.6058685352072
 31
0.0
  0
LINE
  5
7369
330
1E
100
AcDbEntity
  8
躯体と製品
  6
Continuous
 62
     7
100
AcDbLine
 10
1909.66374480085
 20
551.6058685352072
 30
0.0
 11
1909.363744800851
 21
551.5058685352073
 31
0.0
  0
LINE
  5
736A
330
1E
100
AcDbEntity
  8
躯体と製品
  6
Continuous
 62
     7
100
AcDbLine
 10
1909.363744800851
 20
551.5058685352073
 30
0.0
 11
1909.063744800851
 21
551.6058685352072
 31
0.0
  0
LINE
  5
736B
330
1E
100
AcDbEntity
  8
躯体と製品
  6
Continuous
 62
     7
100
AcDbLine
 10
1909.063744800851
 20
551.6058685352072
 30
0.0
 11
1908.863744800851
 21
551.5058685352073
 31
0.0
  0
LINE
  5
736C
330
1E
100
AcDbEntity
  8
躯体と製品
  6
Continuous
 62
     7
100
AcDbLine
 10
1908.06374480085
 20
551.5058685352073
 30
0.0
 11
1907.863744800851
 21
551.6058685352072
 31
0.0
  0
LINE
  5
736D
330
1E
100
AcDbEntity
  8
躯体と製品
  6
Continuous
 62
     7
100
AcDbLine
 10
1906.863744800851
 20
551.6058685352072
 30
0.0
 11
1907.66374480085
 21
551.6058685352072
 31
0.0
  0
LINE
  5
736E
330
1E
100
AcDbEntity
  8
躯体と製品
  6
Continuous
 62
     7
100
AcDbLine
 10
1907.66374480085
 20
551.6058685352072
 30
0.0
 11
1907.863744800851
 21
551.7058685352071
 31
0.0
  0
LINE
  5
736F
330
1E
100
AcDbEntity
  8
躯体と製品
  6
Continuous
 62
     7
100
AcDbLine
 10
1907.66374480085
 20
551.5058685352073
 30
0.0
 11
1907.863744800851
 21
551.6058685352072
 31
0.0
  0
LINE
  5
7370
330
1E
100
AcDbEntity
  8
躯体と製品
  6
Continuous
 62
     7
100
AcDbLine
 10
1909.763744800851
 20
551.5058685352073
 30
0.0
 11
1909.16374480085
 21
551.5058685352073
 31
0.0
  0
ARC
  5
7371
330
1E
100
AcDbEntity
  8
躯体と製品
  6
Continuous
 62
     7
100
AcDbCircle
 10
1903.163744800851
 20
556.2058685352071
 30
0.0
 40
0.2
100
AcDbArc
 50
90.0
 51
180.0
  0
LINE
  5
7372
330
1E
100
AcDbEntity
  8
躯体と製品
  6
Continuous
 62
     7
100
AcDbLine
 10
1903.163744800851
 20
556.4058685352074
 30
0.0
 11
1903.363744800851
 21
556.4058685352074
 31
0.0
  0
ARC
  5
7373
330
1E
100
AcDbEntity
  8
躯体と製品
  6
Continuous
 62
     7
100
AcDbCircle
 10
1903.363744800851
 20
556.2058685352071
 30
0.0
 40
0.2
100
AcDbArc
 50
0.0
 51
90.0
  0
LINE
  5
7374
330
1E
100
AcDbEntity
  8
躯体と製品
  6
Continuous
 62
     7
100
AcDbLine
 10
1903.563744800851
 20
556.2058685352071
 30
0.0
 11
1903.563744800851
 21
555.9058685352074
 31
0.0
  0
LINE
  5
7375
330
1E
100
AcDbEntity
  8
躯体と製品
  6
Continuous
 62
     7
100
AcDbLine
 10
1903.563744800851
 20
555.9058685352074
 30
0.0
 11
1903.66374480085
 21
555.9058685352074
 31
0.0
  0
LINE
  5
7376
330
1E
100
AcDbEntity
  8
躯体と製品
  6
Continuous
 62
     7
100
AcDbLine
 10
1903.66374480085
 20
555.9058685352074
 30
0.0
 11
1903.66374480085
 21
556.2058685352071
 31
0.0
  0
LINE
  5
7377
330
1E
100
AcDbEntity
  8
躯体と製品
  6
Continuous
 62
     7
100
AcDbLine
 10
1903.46374480085
 20
551.5058685352073
 30
0.0
 11
1904.063744800851
 21
551.5058685352073
 31
0.0
  0
ARC
  5
7378
330
1E
100
AcDbEntity
  8
躯体と製品
  6
Continuous
 62
     7
100
AcDbCircle
 10
1903.46374480085
 20
552.1058685352072
 30
0.0
 40
0.6
100
AcDbArc
 50
180.0
 51
270.0
  0
LINE
  5
7379
330
1E
100
AcDbEntity
  8
躯体と製品
  6
Continuous
 62
     7
100
AcDbLine
 10
1902.863744800851
 20
552.1058685352072
 30
0.0
 11
1902.863744800851
 21
556.2058685352071
 31
0.0
  0
LINE
  5
737A
330
1E
100
AcDbEntity
  8
躯体と製品
  6
Continuous
 62
     7
100
AcDbLine
 10
1903.46374480085
 20
551.6058685352072
 30
0.0
 11
1904.063744800851
 21
551.6058685352072
 31
0.0
  0
ARC
  5
737B
330
1E
100
AcDbEntity
  8
躯体と製品
  6
Continuous
 62
     7
100
AcDbCircle
 10
1903.46374480085
 20
552.1058685352072
 30
0.0
 40
0.5
100
AcDbArc
 50
180.0
 51
270.0
  0
LINE
  5
737C
330
1E
100
AcDbEntity
  8
躯体と製品
  6
Continuous
 62
     7
100
AcDbLine
 10
1902.963744800851
 20
552.1058685352072
 30
0.0
 11
1902.963744800851
 21
556.2058685352071
 31
0.0
  0
LINE
  5
737D
330
1E
100
AcDbEntity
  8
躯体と製品
  6
Continuous
 62
     7
100
AcDbLine
 10
1906.663744800851
 20
551.7058685352071
 30
0.0
 11
1906.363744800851
 21
551.6058685352072
 31
0.0
  0
LINE
  5
737E
330
1E
100
AcDbEntity
  8
躯体と製品
  6
Continuous
 62
     7
100
AcDbLine
 10
1906.363744800851
 20
551.6058685352072
 30
0.0
 11
1906.063744800851
 21
551.7058685352071
 31
0.0
  0
LINE
  5
737F
330
1E
100
AcDbEntity
  8
躯体と製品
  6
Continuous
 62
     7
100
AcDbLine
 10
1906.063744800851
 20
551.7058685352071
 30
0.0
 11
1905.763744800851
 21
551.6058685352072
 31
0.0
  0
LINE
  5
7380
330
1E
100
AcDbEntity
  8
躯体と製品
  6
Continuous
 62
     7
100
AcDbLine
 10
1905.763744800851
 20
551.6058685352072
 30
0.0
 11
1905.46374480085
 21
551.7058685352071
 31
0.0
  0
LINE
  5
7381
330
1E
100
AcDbEntity
  8
躯体と製品
  6
Continuous
 62
     7
100
AcDbLine
 10
1905.46374480085
 20
551.7058685352071
 30
0.0
 11
1905.16374480085
 21
551.6058685352072
 31
0.0
  0
LINE
  5
7382
330
1E
100
AcDbEntity
  8
躯体と製品
  6
Continuous
 62
     7
100
AcDbLine
 10
1905.16374480085
 20
551.6058685352072
 30
0.0
 11
1904.863744800851
 21
551.7058685352071
 31
0.0
  0
LINE
  5
7383
330
1E
100
AcDbEntity
  8
躯体と製品
  6
Continuous
 62
     7
100
AcDbLine
 10
1904.863744800851
 20
551.7058685352071
 30
0.0
 11
1904.56374480085
 21
551.6058685352072
 31
0.0
  0
LINE
  5
7384
330
1E
100
AcDbEntity
  8
躯体と製品
  6
Continuous
 62
     7
100
AcDbLine
 10
1904.56374480085
 20
551.6058685352072
 30
0.0
 11
1904.263744800851
 21
551.7058685352071
 31
0.0
  0
LINE
  5
7385
330
1E
100
AcDbEntity
  8
躯体と製品
  6
Continuous
 62
     7
100
AcDbLine
 10
1904.263744800851
 20
551.7058685352071
 30
0.0
 11
1904.063744800851
 21
551.6058685352072
 31
0.0
  0
LINE
  5
7386
330
1E
100
AcDbEntity
  8
躯体と製品
  6
Continuous
 62
     7
100
AcDbLine
 10
1906.663744800851
 20
551.6058685352072
 30
0.0
 11
1906.363744800851
 21
551.5058685352073
 31
0.0
  0
LINE
  5
7387
330
1E
100
AcDbEntity
  8
躯体と製品
  6
Continuous
 62
     7
100
AcDbLine
 10
1906.363744800851
 20
551.5058685352073
 30
0.0
 11
1906.063744800851
 21
551.6058685352072
 31
0.0
  0
LINE
  5
7388
330
1E
100
AcDbEntity
  8
躯体と製品
  6
Continuous
 62
     7
100
AcDbLine
 10
1906.063744800851
 20
551.6058685352072
 30
0.0
 11
1905.763744800851
 21
551.5058685352073
 31
0.0
  0
LINE
  5
7389
330
1E
100
AcDbEntity
  8
躯体と製品
  6
Continuous
 62
     7
100
AcDbLine
 10
1905.763744800851
 20
551.5058685352073
 30
0.0
 11
1905.46374480085
 21
551.6058685352072
 31
0.0
  0
LINE
  5
738A
330
1E
100
AcDbEntity
  8
躯体と製品
  6
Continuous
 62
     7
100
AcDbLine
 10
1905.46374480085
 20
551.6058685352072
 30
0.0
 11
1905.16374480085
 21
551.5058685352073
 31
0.0
  0
LINE
  5
738B
330
1E
100
AcDbEntity
  8
躯体と製品
  6
Continuous
 62
     7
100
AcDbLine
 10
1905.16374480085
 20
551.5058685352073
 30
0.0
 11
1904.863744800851
 21
551.6058685352072
 31
0.0
  0
LINE
  5
738C
330
1E
100
AcDbEntity
  8
躯体と製品
  6
Continuous
 62
     7
100
AcDbLine
 10
1904.863744800851
 20
551.6058685352072
 30
0.0
 11
1904.56374480085
 21
551.5058685352073
 31
0.0
  0
LINE
  5
738D
330
1E
100
AcDbEntity
  8
躯体と製品
  6
Continuous
 62
     7
100
AcDbLine
 10
1904.56374480085
 20
551.5058685352073
 30
0.0
 11
1904.263744800851
 21
551.6058685352072
 31
0.0
  0
LINE
  5
738E
330
1E
100
AcDbEntity
  8
躯体と製品
  6
Continuous
 62
     7
100
AcDbLine
 10
1904.263744800851
 20
551.6058685352072
 30
0.0
 11
1904.063744800851
 21
551.5058685352073
 31
0.0
  0
LINE
  5
738F
330
1E
100
AcDbEntity
  8
躯体と製品
  6
Continuous
 62
     7
100
AcDbLine
 10
1904.363744800851
 20
551.5058685352073
 30
0.0
 11
1904.363744800851
 21
551.3058685352075
 31
0.0
  0
LINE
  5
7390
330
1E
100
AcDbEntity
  8
躯体と製品
  6
Continuous
 62
     7
100
AcDbLine
 10
1906.363744800851
 20
551.5058685352073
 30
0.0
 11
1905.563744800851
 21
551.5058685352073
 31
0.0
  0
LINE
  5
7391
330
1E
100
AcDbEntity
  8
躯体と製品
  6
Continuous
 62
     7
100
AcDbLine
 10
1904.363744800851
 20
551.5058685352073
 30
0.0
 11
1905.16374480085
 21
551.5058685352073
 31
0.0
  0
LINE
  5
7392
330
1E
100
AcDbEntity
  8
躯体と製品
  6
Continuous
 62
     7
100
AcDbLine
 10
1906.863744800851
 20
551.6058685352072
 30
0.0
 11
1906.663744800851
 21
551.7058685352071
 31
0.0
  0
LINE
  5
7393
330
1E
100
AcDbEntity
  8
躯体と製品
  6
Continuous
 62
     7
100
AcDbLine
 10
1906.863744800851
 20
551.5058685352073
 30
0.0
 11
1906.663744800851
 21
551.6058685352072
 31
0.0
  0
LINE
  5
7394
330
1E
100
AcDbEntity
  8
躯体と製品
  6
Continuous
 62
     7
100
AcDbLine
 10
1907.363744800851
 20
551.3058685352075
 30
0.0
 11
1904.363744800851
 21
551.3058685352075
 31
0.0
  0
ARC
  5
7395
330
1E
100
AcDbEntity
  8
躯体と製品
  6
Continuous
 62
     7
100
AcDbCircle
 10
1903.363744800851
 20
556.2058685352071
 30
0.0
 40
0.3
100
AcDbArc
 50
0.0
 51
90.0
  0
ARC
  5
7396
330
1E
100
AcDbEntity
  8
躯体と製品
  6
Continuous
 62
     7
100
AcDbCircle
 10
1903.163744800851
 20
556.2058685352071
 30
0.0
 40
0.3
100
AcDbArc
 50
90.0
 51
180.0
  0
LINE
  5
7397
330
1E
100
AcDbEntity
  8
躯体と製品
  6
Continuous
 62
     7
100
AcDbLine
 10
1903.263744800851
 20
564.1058685352072
 30
0.0
 11
1903.263744800851
 21
556.5058685352073
 31
0.0
  0
LINE
  5
7398
330
1E
100
AcDbEntity
  8
躯体と製品
  6
Continuous
 62
     7
100
AcDbLine
 10
1910.863744800851
 20
551.7058685352071
 30
0.0
 11
1910.56374480085
 21
551.6058685352072
 31
0.0
  0
LINE
  5
7399
330
1E
100
AcDbEntity
  8
躯体と製品
  6
Continuous
 62
     7
100
AcDbLine
 10
1910.863744800851
 20
551.6058685352072
 30
0.0
 11
1910.56374480085
 21
551.5058685352073
 31
0.0
  0
LINE
  5
739A
330
1E
100
AcDbEntity
  8
躯体と製品
  6
Continuous
 62
     7
100
AcDbLine
 10
1891.103744800851
 20
583.8458685352074
 30
0.0
 11
1891.103744800851
 21
582.9058685352074
 31
0.0
  0
LINE
  5
739B
330
1E
100
AcDbEntity
  8
躯体と製品
  6
Continuous
 62
     7
100
AcDbLine
 10
1891.103744800851
 20
582.9058685352074
 30
0.0
 11
1891.263744800851
 21
582.9058685352074
 31
0.0
  0
LINE
  5
739C
330
1E
100
AcDbEntity
  8
躯体と製品
  6
Continuous
 62
     7
100
AcDbLine
 10
1886.363744800851
 20
585.1058685352072
 30
0.0
 11
1887.363744800851
 21
585.1058685352072
 31
0.0
  0
LINE
  5
739D
330
1E
100
AcDbEntity
  8
躯体と製品
  6
Continuous
 62
     7
100
AcDbLine
 10
1890.023744800851
 20
583.8458685352074
 30
0.0
 11
1891.103744800851
 21
583.8458685352074
 31
0.0
  0
LINE
  5
739E
330
1E
100
AcDbEntity
  8
躯体と製品
  6
Continuous
 62
     7
100
AcDbLine
 10
1889.863744800851
 20
584.0058685352073
 30
0.0
 11
1891.263744800851
 21
584.0058685352073
 31
0.0
  0
LINE
  5
739F
330
1E
100
AcDbEntity
  8
躯体と製品
  6
Continuous
 62
     7
100
AcDbLine
 10
1891.25219480085
 20
575.3058685352075
 30
0.0
 11
1891.17136480085
 21
575.1658685352071
 31
0.0
  0
LINE
  5
73A0
330
1E
100
AcDbEntity
  8
躯体と製品
  6
Continuous
 62
     7
100
AcDbLine
 10
1891.263744800851
 20
575.0058685352073
 30
0.0
 11
1891.34456480085
 21
575.1458685352072
 31
0.0
  0
LINE
  5
73A1
330
1E
100
AcDbEntity
  8
躯体と製品
  6
Continuous
 62
     7
100
AcDbLine
 10
1889.863744800851
 20
575.0058685352073
 30
0.0
 11
1891.263744800851
 21
575.0058685352073
 31
0.0
  0
LINE
  5
73A2
330
1E
100
AcDbEntity
  8
躯体と製品
  6
Continuous
 62
     7
100
AcDbLine
 10
1891.17136480085
 20
575.1658685352071
 30
0.0
 11
1890.023744800851
 21
575.1658685352071
 31
0.0
  0
LINE
  5
73A3
330
1E
100
AcDbEntity
  8
躯体と製品
  6
Continuous
 62
     7
100
AcDbLine
 10
1890.06374480085
 20
577.8058685352075
 30
0.0
 11
1890.06374480085
 21
581.2058685352071
 31
0.0
  0
LINE
  5
73A4
330
1E
100
AcDbEntity
  8
躯体と製品
  6
Continuous
 62
     7
100
AcDbLine
 10
1890.023744800851
 20
583.8458685352074
 30
0.0
 11
1890.023744800851
 21
575.1658685352071
 31
0.0
  0
LINE
  5
73A5
330
1E
100
AcDbEntity
  8
躯体と製品
  6
Continuous
 62
     7
100
AcDbLine
 10
1890.06374480085
 20
581.2058685352071
 30
0.0
 11
1902.66374480085
 21
581.2058685352071
 31
0.0
  0
LINE
  5
73A6
330
1E
100
AcDbEntity
  8
躯体と製品
  6
Continuous
 62
     7
100
AcDbLine
 10
1902.66374480085
 20
577.8058685352075
 30
0.0
 11
1890.06374480085
 21
577.8058685352075
 31
0.0
  0
LINE
  5
73A7
330
1E
100
AcDbEntity
  8
躯体と製品
  6
Continuous
 62
     7
100
AcDbLine
 10
1901.47528480085
 20
575.3058685352075
 30
0.0
 11
1891.25219480085
 21
575.3058685352075
 31
0.0
  0
LINE
  5
73A8
330
1E
100
AcDbEntity
  8
躯体と製品
  6
Continuous
 62
     7
100
AcDbLine
 10
1891.34456480085
 20
575.1458685352072
 30
0.0
 11
1901.382914800851
 21
575.1458685352072
 31
0.0
  0
LINE
  5
73A9
330
1E
100
AcDbEntity
  8
躯体と製品
  6
Continuous
 62
     7
100
AcDbLine
 10
1887.363744800851
 20
588.0058685352073
 30
0.0
 11
1907.363744800851
 21
588.0058685352073
 31
0.0
  0
LINE
  5
73AA
330
1E
100
AcDbEntity
  8
躯体と製品
  6
Continuous
 62
     7
100
AcDbLine
 10
1907.563744800851
 20
548.4058685352074
 30
0.0
 11
1910.163744800851
 21
548.4058685352074
 31
0.0
  0
LINE
  5
73AB
330
1E
100
AcDbEntity
  8
躯体と製品
  6
Continuous
 62
     7
100
AcDbLine
 10
1907.363744800851
 20
548.2058685352071
 30
0.0
 11
1910.363744800851
 21
548.2058685352071
 31
0.0
  0
LINE
  5
73AC
330
1E
100
AcDbEntity
  8
躯体と製品
  6
Continuous
 62
     7
100
AcDbLine
 10
1910.363744800851
 20
548.2058685352071
 30
0.0
 11
1910.363744800851
 21
548.7058685352072
 31
0.0
  0
LINE
  5
73AD
330
1E
100
AcDbEntity
  8
躯体と製品
  6
Continuous
 62
     7
100
AcDbLine
 10
1910.163744800851
 20
548.7058685352072
 30
0.0
 11
1910.163744800851
 21
548.4058685352074
 31
0.0
  0
LINE
  5
73AE
330
1E
100
AcDbEntity
  8
躯体と製品
  6
Continuous
 62
     7
100
AcDbLine
 10
1907.563744800851
 20
551.3058685352075
 30
0.0
 11
1907.563744800851
 21
548.4058685352074
 31
0.0
  0
LINE
  5
73AF
330
1E
100
AcDbEntity
  8
躯体と製品
  6
Continuous
 62
     7
100
AcDbLine
 10
1907.363744800851
 20
551.3058685352075
 30
0.0
 11
1907.363744800851
 21
548.2058685352071
 31
0.0
  0
LINE
  5
73B0
330
1E
100
AcDbEntity
  8
躯体と製品
  6
Continuous
 62
     7
100
AcDbLine
 10
1935.163744800851
 20
577.1428685352075
 30
0.0
 11
1935.163744800851
 21
575.7058685352071
 31
0.0
  0
ARC
  5
73B1
330
1E
100
AcDbEntity
  8
躯体と製品
  6
Continuous
 62
     7
100
AcDbCircle
 10
1934.672014800851
 20
576.5801285352072
 30
0.0
 40
0.7257350000000001
100
AcDbArc
 50
90.0
 51
129.157939999995
  0
LINE
  5
73B2
330
1E
100
AcDbEntity
  8
躯体と製品
  6
Continuous
 62
     7
100
AcDbLine
 10
1932.31374480085
 20
575.7058685352071
 30
0.0
 11
1932.31374480085
 21
577.1428685352075
 31
0.0
  0
LINE
  5
73B3
330
1E
100
AcDbEntity
  8
躯体と製品
  6
Continuous
 62
     7
100
AcDbLine
 10
1934.213744800851
 20
577.1428685352075
 30
0.0
 11
1934.213744800851
 21
575.7058685352071
 31
0.0
  0
LINE
  5
73B4
330
1E
100
AcDbEntity
  8
躯体と製品
  6
Continuous
 62
     7
100
AcDbLine
 10
1934.881424800851
 20
577.3058685352075
 30
0.0
 11
1935.163744800851
 21
577.1428685352075
 31
0.0
  0
LINE
  5
73B5
330
1E
100
AcDbEntity
  8
躯体と製品
  6
Continuous
 62
     7
100
AcDbLine
 10
1931.64605480085
 20
577.3058685352075
 30
0.0
 11
1934.881424800851
 21
577.3058685352075
 31
0.0
  0
LINE
  5
73B6
330
1E
100
AcDbEntity
  8
躯体と製品
  6
Continuous
 62
     7
100
AcDbLine
 10
1931.363744800851
 20
577.1428685352075
 30
0.0
 11
1931.64605480085
 21
577.3058685352075
 31
0.0
  0
LINE
  5
73B7
330
1E
100
AcDbEntity
  8
躯体と製品
  6
Continuous
 62
     7
100
AcDbLine
 10
1931.363744800851
 20
577.1428685352075
 30
0.0
 11
1931.363744800851
 21
575.7058685352071
 31
0.0
  0
ARC
  5
73B8
330
1E
100
AcDbEntity
  8
躯体と製品
  6
Continuous
 62
     7
100
AcDbCircle
 10
1931.85546480085
 20
576.5801285352072
 30
0.0
 40
0.7257350000000001
100
AcDbArc
 50
50.84205499999225
 51
90.0
  0
ARC
  5
73B9
330
1E
100
AcDbEntity
  8
躯体と製品
  6
Continuous
 62
     7
100
AcDbCircle
 10
1933.263744800851
 20
574.4558685352071
 30
0.0
 40
2.85
100
AcDbArc
 50
70.52877899999099
 51
109.471220000014
  0
LINE
  5
73BA
330
1E
100
AcDbEntity
  8
躯体と製品
  6
Continuous
 62
     7
100
AcDbLine
 10
1934.213744800851
 20
581.2654385352074
 30
0.0
 11
1934.213744800851
 21
577.3058685352075
 31
0.0
  0
LINE
  5
73BB
330
1E
100
AcDbEntity
  8
躯体と製品
  6
Continuous
 62
     7
100
AcDbLine
 10
1932.31374480085
 20
577.3058685352075
 30
0.0
 11
1932.31374480085
 21
582.2187785352075
 31
0.0
  0
LINE
  5
73BC
330
1E
100
AcDbEntity
  8
躯体と製品
  6
Continuous
 62
     7
100
AcDbLine
 10
1935.56374480085
 20
575.7058685352071
 30
0.0
 11
1930.963744800851
 21
575.7058685352071
 31
0.0
  0
LINE
  5
73BD
330
1E
100
AcDbEntity
  8
躯体と製品
  6
Continuous
 62
     7
100
AcDbLine
 10
1930.963744800851
 20
556.1058685352072
 30
0.0
 11
1935.56374480085
 21
556.1058685352072
 31
0.0
  0
LINE
  5
73BE
330
1E
100
AcDbEntity
  8
躯体と製品
  6
Continuous
 62
     7
100
AcDbLine
 10
1933.263744800851
 20
554.1058685352072
 30
0.0
 11
1933.263744800851
 21
582.0996085352076
 31
0.0
  0
LINE
  5
73BF
330
1E
100
AcDbEntity
  8
躯体と製品
  6
Continuous
 62
     7
100
AcDbLine
 10
1935.56374480085
 20
556.1058685352072
 30
0.0
 11
1935.56374480085
 21
575.7058685352071
 31
0.0
  0
LINE
  5
73C0
330
1E
100
AcDbEntity
  8
躯体と製品
  6
Continuous
 62
     7
100
AcDbLine
 10
1930.963744800851
 20
575.7058685352071
 30
0.0
 11
1930.963744800851
 21
556.1058685352072
 31
0.0
  0
CIRCLE
  5
73C1
330
1E
100
AcDbEntity
  8
文字-記号
  6
Continuous
 62
     7
100
AcDbCircle
 10
1912.863744800851
 20
554.0058685352073
 30
0.0
 40
0.3
  0
LINE
  5
73C2
330
1E
100
AcDbEntity
  8
躯体と製品
  6
Continuous
 62
     7
100
AcDbLine
 10
1911.66374480085
 20
551.6058685352072
 30
0.0
 11
1911.463744800851
 21
551.7058685352071
 31
0.0
  0
LINE
  5
73C3
330
1E
100
AcDbEntity
  8
躯体と製品
  6
Continuous
 62
     7
100
AcDbLine
 10
1911.66374480085
 20
551.5058685352073
 30
0.0
 11
1911.463744800851
 21
551.6058685352072
 31
0.0
  0
ARC
  5
73C4
330
1E
100
AcDbEntity
  8
躯体と製品
  6
Continuous
 62
     7
100
AcDbCircle
 10
1912.56374480085
 20
556.2058685352071
 30
0.0
 40
0.2
100
AcDbArc
 50
0.0
 51
90.0
  0
LINE
  5
73C5
330
1E
100
AcDbEntity
  8
躯体と製品
  6
Continuous
 62
     7
100
AcDbLine
 10
1912.56374480085
 20
556.4058685352074
 30
0.0
 11
1912.363744800851
 21
556.4058685352074
 31
0.0
  0
ARC
  5
73C6
330
1E
100
AcDbEntity
  8
躯体と製品
  6
Continuous
 62
     7
100
AcDbCircle
 10
1912.363744800851
 20
556.2058685352071
 30
0.0
 40
0.2
100
AcDbArc
 50
90.0
 51
180.0
  0
LINE
  5
73C7
330
1E
100
AcDbEntity
  8
躯体と製品
  6
Continuous
 62
     7
100
AcDbLine
 10
1912.163744800851
 20
556.2058685352071
 30
0.0
 11
1912.163744800851
 21
555.9058685352074
 31
0.0
  0
LINE
  5
73C8
330
1E
100
AcDbEntity
  8
躯体と製品
  6
Continuous
 62
     7
100
AcDbLine
 10
1912.163744800851
 20
555.9058685352074
 30
0.0
 11
1912.06374480085
 21
555.9058685352074
 31
0.0
  0
LINE
  5
73C9
330
1E
100
AcDbEntity
  8
躯体と製品
  6
Continuous
 62
     7
100
AcDbLine
 10
1912.06374480085
 20
555.9058685352074
 30
0.0
 11
1912.06374480085
 21
556.2058685352071
 31
0.0
  0
ARC
  5
73CA
330
1E
100
AcDbEntity
  8
躯体と製品
  6
Continuous
 62
     7
100
AcDbCircle
 10
1912.263744800851
 20
552.1058685352072
 30
0.0
 40
0.6
100
AcDbArc
 50
270.0
 51
0.0
  0
LINE
  5
73CB
330
1E
100
AcDbEntity
  8
躯体と製品
  6
Continuous
 62
     7
100
AcDbLine
 10
1912.863744800851
 20
552.1058685352072
 30
0.0
 11
1912.863744800851
 21
556.2058685352071
 31
0.0
  0
LINE
  5
73CC
330
1E
100
AcDbEntity
  8
躯体と製品
  6
Continuous
 62
     7
100
AcDbLine
 10
1912.263744800851
 20
551.6058685352072
 30
0.0
 11
1911.66374480085
 21
551.6058685352072
 31
0.0
  0
ARC
  5
73CD
330
1E
100
AcDbEntity
  8
躯体と製品
  6
Continuous
 62
     7
100
AcDbCircle
 10
1912.263744800851
 20
552.1058685352072
 30
0.0
 40
0.5
100
AcDbArc
 50
270.0
 51
0.0
  0
LINE
  5
73CE
330
1E
100
AcDbEntity
  8
躯体と製品
  6
Continuous
 62
     7
100
AcDbLine
 10
1912.763744800851
 20
552.1058685352072
 30
0.0
 11
1912.763744800851
 21
556.2058685352071
 31
0.0
  0
LINE
  5
73CF
330
1E
100
AcDbEntity
  8
躯体と製品
  6
Continuous
 62
     7
100
AcDbLine
 10
1913.36374480085
 20
551.5058685352073
 30
0.0
 11
1913.36374480085
 21
551.3058685352075
 31
0.0
  0
ARC
  5
73D0
330
1E
100
AcDbEntity
  8
躯体と製品
  6
Continuous
 62
     7
100
AcDbCircle
 10
1912.363744800851
 20
556.2058685352071
 30
0.0
 40
0.3
100
AcDbArc
 50
90.0
 51
180.0
  0
ARC
  5
73D1
330
1E
100
AcDbEntity
  8
躯体と製品
  6
Continuous
 62
     7
100
AcDbCircle
 10
1912.56374480085
 20
556.2058685352071
 30
0.0
 40
0.3
100
AcDbArc
 50
0.0
 51
90.0
  0
DIMENSION
  5
73D2
330
1E
100
AcDbEntity
  8
寸法
  6
Continuous
100
AcDbDimension
  2
*D9
 10
1888.863744800851
 20
679.9058685352074
 30
0.0
 11
1873.863744800851
 21
682.2058685352073
 31
0.0
 70
    32
  1
150以内
 71
     5
 42
30.0
  3
AutoCAD
100
AcDbAlignedDimension
 13
1858.863744800851
 23
679.9058685352074
 33
0.0
 14
1888.863744800851
 24
679.9058685352074
 34
0.0
100
AcDbRotatedDimension
1001
ACAD
1000
DSTYLE
1002
{
1070
   147
1040
0.8
1070
   140
1040
10.0
1002
}
  0
LINE
  5
73D3
330
1E
100
AcDbEntity
  8
躯体と製品
  6
Continuous
 62
     7
100
AcDbLine
 10
1879.09523480085
 20
708.7058685352076
 30
0.0
 11
1894.09523480085
 21
723.7058685352076
 31
0.0
  0
LINE
  5
73D4
330
1E
100
AcDbEntity
  8
文字-記号
  6
Continuous
 62
     7
100
AcDbLine
 10
1882.526814800851
 20
651.3058685352075
 30
0.0
 11
1864.466814800851
 21
651.3058685352075
 31
0.0
  0
TEXT
  5
73D5
330
1E
100
AcDbEntity
  8
文字-記号
 62
     7
100
AcDbText
 10
1864.50317480085
 20
652.3058685352075
 30
0.0
 40
3.0
  1
シングル野縁
 41
0.8
  7
ACAD
100
AcDbText
  0
LINE
  5
73D6
330
1E
100
AcDbEntity
  8
文字-記号
  6
Continuous
 62
     7
100
AcDbLine
 10
1880.590234800851
 20
608.7058685352071
 30
0.0
 11
1862.530234800851
 21
608.7058685352071
 31
0.0
  0
TEXT
  5
73D7
330
1E
100
AcDbEntity
  8
文字-記号
 62
     7
100
AcDbText
 10
1862.56658480085
 20
609.7058585352074
 30
0.0
 40
3.0
  1
吹出など別途
 41
0.8
  7
ACAD
100
AcDbText
  0
LINE
  5
73D8
330
1E
100
AcDbEntity
  8
文字-記号
  6
Continuous
 62
     7
100
AcDbLine
 10
1884.705414800851
 20
730.7058685352076
 30
0.0
 11
1853.194108440992
 21
730.7058685352076
 31
0.0
  0
LINE
  5
73D9
330
1E
100
AcDbEntity
  8
躯体と製品
  6
Continuous
 62
     7
100
AcDbLine
 10
1861.16374480085
 20
646.3058685352075
 30
0.0
 11
1888.863744800851
 21
646.3058685352075
 31
0.0
  0
LINE
  5
73DA
330
1E
100
AcDbEntity
  8
躯体と製品
  6
Continuous
 62
     7
100
AcDbLine
 10
1861.16374480085
 20
638.7058685352076
 30
0.0
 11
1888.863744800851
 21
638.7058685352076
 31
0.0
  0
TEXT
  5
73DB
330
1E
100
AcDbEntity
  8
文字-記号
 62
     7
100
AcDbText
 10
1853.337596236996
 20
731.602153993826
 30
0.0
 40
3.0
  1
あと施工アンカーなど
 41
0.8
  7
ACAD
100
AcDbText
  0
LINE
  5
73DC
330
1E
100
AcDbEntity
  8
躯体と製品
  6
Continuous
 62
     7
100
AcDbLine
 10
1857.91374480085
 20
659.5058685352073
 30
0.0
 11
1857.91374480085
 21
686.2058685352076
 31
0.0
  0
LINE
  5
73DD
330
1E
100
AcDbEntity
  8
躯体と製品
  6
Continuous
 62
     7
100
AcDbLine
 10
1859.813744800851
 20
686.2058685352076
 30
0.0
 11
1859.813744800851
 21
659.5058685352073
 31
0.0
  0
LINE
  5
73DE
330
1E
100
AcDbEntity
  8
躯体と製品
  6
Continuous
 62
     7
100
AcDbLine
 10
1858.863744800851
 20
636.3058685352075
 30
0.0
 11
1858.863744800851
 21
686.2058685352076
 31
0.0
  0
LINE
  5
73DF
330
1E
100
AcDbEntity
  8
躯体と製品
  6
Continuous
 62
     7
100
AcDbLine
 10
1860.763744800851
 20
659.3428685352073
 30
0.0
 11
1860.763744800851
 21
657.9058685352074
 31
0.0
  0
ARC
  5
73E0
330
1E
100
AcDbEntity
  8
躯体と製品
  6
Continuous
 62
     7
100
AcDbCircle
 10
1860.272014800851
 20
658.7801285352075
 30
0.0
 40
0.7257350000000001
100
AcDbArc
 50
90.0
 51
129.157939999995
  0
LINE
  5
73E1
330
1E
100
AcDbEntity
  8
躯体と製品
  6
Continuous
 62
     7
100
AcDbLine
 10
1857.91374480085
 20
657.9058685352074
 30
0.0
 11
1857.91374480085
 21
659.3428685352073
 31
0.0
  0
LINE
  5
73E2
330
1E
100
AcDbEntity
  8
躯体と製品
  6
Continuous
 62
     7
100
AcDbLine
 10
1859.813744800851
 20
659.3428685352073
 30
0.0
 11
1859.813744800851
 21
657.9058685352074
 31
0.0
  0
LINE
  5
73E3
330
1E
100
AcDbEntity
  8
躯体と製品
  6
Continuous
 62
     7
100
AcDbLine
 10
1860.48142480085
 20
659.5058685352073
 30
0.0
 11
1860.763744800851
 21
659.3428685352073
 31
0.0
  0
ARC
  5
73E4
330
1E
100
AcDbEntity
  8
躯体と製品
  6
Continuous
 62
     7
100
AcDbCircle
 10
1858.863744800851
 20
656.6558685352074
 30
0.0
 40
2.85
100
AcDbArc
 50
70.52877899999099
 51
109.471220000014
  0
LINE
  5
73E5
330
1E
100
AcDbEntity
  8
躯体と製品
  6
Continuous
 62
     7
100
AcDbLine
 10
1856.96374480085
 20
659.3428685352073
 30
0.0
 11
1857.246054800851
 21
659.5058685352073
 31
0.0
  0
LINE
  5
73E6
330
1E
100
AcDbEntity
  8
躯体と製品
  6
Continuous
 62
     7
100
AcDbLine
 10
1856.96374480085
 20
659.3428685352073
 30
0.0
 11
1856.96374480085
 21
657.9058685352074
 31
0.0
  0
LINE
  5
73E7
330
1E
100
AcDbEntity
  8
躯体と製品
  6
Continuous
 62
     7
100
AcDbLine
 10
1856.56374480085
 20
657.9058685352074
 30
0.0
 11
1861.16374480085
 21
657.9058685352074
 31
0.0
  0
LINE
  5
73E8
330
1E
100
AcDbEntity
  8
躯体と製品
  6
Continuous
 62
     7
100
AcDbLine
 10
1857.246054800851
 20
659.5058685352073
 30
0.0
 11
1860.48142480085
 21
659.5058685352073
 31
0.0
  0
ARC
  5
73E9
330
1E
100
AcDbEntity
  8
躯体と製品
  6
Continuous
 62
     7
100
AcDbCircle
 10
1857.455464800851
 20
658.7801285352075
 30
0.0
 40
0.7257350000000001
100
AcDbArc
 50
50.84205499999225
 51
90.0
  0
LINE
  5
73EA
330
1E
100
AcDbEntity
  8
躯体と製品
  6
Continuous
 62
     7
100
AcDbLine
 10
1856.56374480085
 20
638.3058685352075
 30
0.0
 11
1861.16374480085
 21
638.3058685352075
 31
0.0
  0
LINE
  5
73EB
330
1E
100
AcDbEntity
  8
躯体と製品
  6
Continuous
 62
     7
100
AcDbLine
 10
1861.16374480085
 20
657.9058685352074
 30
0.0
 11
1861.16374480085
 21
638.3058685352075
 31
0.0
  0
LINE
  5
73EC
330
1E
100
AcDbEntity
  8
躯体と製品
  6
Continuous
 62
     7
100
AcDbLine
 10
1856.56374480085
 20
657.9058685352074
 30
0.0
 11
1856.56374480085
 21
638.3058685352075
 31
0.0
  0
LINE
  5
73ED
330
1E
100
AcDbEntity
  8
躯体と製品
  6
Continuous
 62
     7
100
AcDbLine
 10
1840.911464800851
 20
708.7058685352076
 30
0.0
 11
1855.911464800851
 21
723.7058685352076
 31
0.0
  0
LINE
  5
73EE
330
1E
100
AcDbEntity
  8
躯体と製品
  6
Continuous
 62
     7
100
AcDbLine
 10
1838.79014480085
 20
708.7058685352076
 30
0.0
 11
1853.790144800851
 21
723.7058685352076
 31
0.0
  0
LINE
  5
73EF
330
1E
100
AcDbEntity
  8
躯体と製品
  6
Continuous
 62
     7
100
AcDbLine
 10
1836.668824800851
 20
708.7058685352076
 30
0.0
 11
1851.668824800851
 21
723.7058685352076
 31
0.0
  0
LINE
  5
73F0
330
1E
100
AcDbEntity
  8
躯体と製品
  6
Continuous
 62
     7
100
AcDbLine
 10
1862.863744800851
 20
708.7058685352076
 30
0.0
 11
1862.863744800851
 21
709.7058685352076
 31
0.0
  0
LINE
  5
73F1
330
1E
100
AcDbEntity
  8
躯体と製品
  6
Continuous
 62
     7
100
AcDbLine
 10
1854.863744800851
 20
708.7058685352076
 30
0.0
 11
1854.863744800851
 21
709.7058685352076
 31
0.0
  0
LINE
  5
73F2
330
1E
100
AcDbEntity
  8
躯体と製品
  6
Continuous
 62
     7
100
AcDbLine
 10
1854.863744800851
 20
709.7058685352076
 30
0.0
 11
1856.91374480085
 21
709.7058685352076
 31
0.0
  0
LINE
  5
73F3
330
1E
100
AcDbEntity
  8
躯体と製品
  6
Continuous
 62
     7
100
AcDbLine
 10
1857.91374480085
 20
691.2058685352076
 30
0.0
 11
1857.91374480085
 21
708.7058685352076
 31
0.0
  0
LINE
  5
73F4
330
1E
100
AcDbEntity
  8
躯体と製品
  6
Continuous
 62
     7
100
AcDbLine
 10
1859.813744800851
 20
708.7058685352076
 30
0.0
 11
1859.813744800851
 21
691.2058685352076
 31
0.0
  0
LINE
  5
73F5
330
1E
100
AcDbEntity
  8
躯体と製品
  6
Continuous
 62
     7
100
AcDbLine
 10
1859.813744800851
 20
708.7058685352076
 30
0.0
 11
1859.813744800851
 21
716.7058685352076
 31
0.0
  0
LINE
  5
73F6
330
1E
100
AcDbEntity
  8
躯体と製品
  6
Continuous
 62
     7
100
AcDbLine
 10
1860.81374480085
 20
709.7058685352076
 30
0.0
 11
1860.81374480085
 21
716.7058685352076
 31
0.0
  0
LINE
  5
73F7
330
1E
100
AcDbEntity
  8
躯体と製品
  6
Continuous
 62
     7
100
AcDbLine
 10
1858.863744800851
 20
691.2058685352076
 30
0.0
 11
1858.863744800851
 21
716.7058685352076
 31
0.0
  0
LINE
  5
73F8
330
1E
100
AcDbEntity
  8
躯体と製品
  6
Continuous
 62
     7
100
AcDbLine
 10
1857.91374480085
 20
708.7058685352076
 30
0.0
 11
1857.91374480085
 21
716.7058685352076
 31
0.0
  0
LINE
  5
73F9
330
1E
100
AcDbEntity
  8
躯体と製品
  6
Continuous
 62
     7
100
AcDbLine
 10
1856.91374480085
 20
709.7058685352076
 30
0.0
 11
1856.91374480085
 21
716.7058685352076
 31
0.0
  0
LINE
  5
73FA
330
1E
100
AcDbEntity
  8
躯体と製品
  6
Continuous
 62
     7
100
AcDbLine
 10
1862.863744800851
 20
709.7058685352076
 30
0.0
 11
1860.81374480085
 21
709.7058685352076
 31
0.0
  0
LINE
  5
73FB
330
1E
100
AcDbEntity
  8
躯体と製品
  6
Continuous
 62
     7
100
AcDbLine
 10
1888.863744800851
 20
647.3058685352075
 30
0.0
 11
1888.863744800851
 21
681.9058685352074
 31
0.0
  0
DIMENSION
  5
73FC
330
1E
100
AcDbEntity
  8
寸法
  6
Continuous
100
AcDbDimension
  2
*D10
 10
1933.263744800851
 20
636.2058685352076
 30
0.0
 11
1918.263744800851
 21
638.5058685352076
 31
0.0
 70
    32
  1
150
 71
     5
 42
30.0
  3
AutoCAD
100
AcDbAlignedDimension
 13
1903.263744800851
 23
636.2058685352076
 33
0.0
 14
1933.263744800851
 24
636.2058685352076
 34
0.0
100
AcDbRotatedDimension
1001
ACAD
1000
DSTYLE
1002
{
1070
   147
1040
0.8
1070
   140
1040
10.0
1002
}
  0
DIMENSION
  5
73FD
330
1E
100
AcDbEntity
  8
寸法
  6
Continuous
100
AcDbDimension
  2
*D11
 10
1887.363744800851
 20
618.7058685352071
 30
0.0
 11
1886.363744800851
 21
621.0058685352071
 31
0.0
 70
    32
  1
10
 71
     5
 42
2.0
  3
AutoCAD
100
AcDbAlignedDimension
 13
1885.363744800851
 23
627.7058685352076
 33
0.0
 14
1887.363744800851
 24
618.7058685352071
 34
0.0
100
AcDbRotatedDimension
1001
ACAD
1000
DSTYLE
1002
{
1070
   147
1040
0.8
1070
   140
1040
10.0
1002
}
  0
LINE
  5
73FE
330
1E
100
AcDbEntity
  8
躯体と製品
  6
Continuous
 62
     7
100
AcDbLine
 10
1901.55611480085
 20
622.2458685352076
 30
0.0
 11
1901.47528480085
 21
622.1058685352073
 31
0.0
  0
LINE
  5
73FF
330
1E
100
AcDbEntity
  8
躯体と製品
  6
Continuous
 62
     7
100
AcDbLine
 10
1901.382914800851
 20
622.2658685352071
 30
0.0
 11
1901.463744800851
 21
622.4058685352074
 31
0.0
  0
CIRCLE
  5
7400
330
1E
100
AcDbEntity
  8
躯体と製品
  6
Continuous
 62
     7
100
AcDbCircle
 10
1896.363744800851
 20
620.9058685352074
 30
0.0
 40
0.6
  0
LINE
  5
7401
330
1E
100
AcDbEntity
  8
躯体と製品
  6
Continuous
 62
     7
100
AcDbLine
 10
1902.703744800851
 20
622.2458685352076
 30
0.0
 11
1901.55611480085
 21
622.2458685352076
 31
0.0
  0
LINE
  5
7402
330
1E
100
AcDbEntity
  8
躯体と製品
  6
Continuous
 62
     7
100
AcDbLine
 10
1902.863744800851
 20
622.4058685352074
 30
0.0
 11
1901.463744800851
 21
622.4058685352074
 31
0.0
  0
LINE
  5
7403
330
1E
100
AcDbEntity
  8
躯体と製品
  6
Continuous
 62
     7
100
AcDbLine
 10
1902.66374480085
 20
616.2058685352072
 30
0.0
 11
1902.66374480085
 21
619.6058685352072
 31
0.0
  0
LINE
  5
7404
330
1E
100
AcDbEntity
  8
躯体と製品
  6
Continuous
 62
     7
100
AcDbLine
 10
1901.463744800851
 20
614.5058685352073
 30
0.0
 11
1901.623744800851
 21
614.5058685352073
 31
0.0
  0
CIRCLE
  5
7405
330
1E
100
AcDbEntity
  8
文字-記号
  6
Continuous
 62
     7
100
AcDbCircle
 10
1898.363744800851
 20
616.2058685352072
 30
0.0
 40
0.3
  0
LINE
  5
7406
330
1E
100
AcDbEntity
  8
躯体と製品
  6
Continuous
 62
     7
100
AcDbLine
 10
1901.623744800851
 20
613.5658685352073
 30
0.0
 11
1901.623744800851
 21
614.5058685352073
 31
0.0
  0
LINE
  5
7407
330
1E
100
AcDbEntity
  8
躯体と製品
  6
Continuous
 62
     7
100
AcDbLine
 10
1902.703744800851
 20
613.5658685352073
 30
0.0
 11
1901.623744800851
 21
613.5658685352073
 31
0.0
  0
LINE
  5
7408
330
1E
100
AcDbEntity
  8
躯体と製品
  6
Continuous
 62
     7
100
AcDbLine
 10
1901.463744800851
 20
613.4058685352074
 30
0.0
 11
1902.863744800851
 21
613.4058685352074
 31
0.0
  0
LINE
  5
7409
330
1E
100
AcDbEntity
  8
躯体と製品
  6
Continuous
 62
     7
100
AcDbLine
 10
1902.703744800851
 20
613.5658685352073
 30
0.0
 11
1902.703744800851
 21
622.2458685352076
 31
0.0
  0
ARC
  5
740A
330
1E
100
AcDbEntity
  8
躯体と製品
  6
Continuous
 62
     7
100
AcDbCircle
 10
1886.56374480085
 20
638.4058685352074
 30
0.0
 40
0.2
100
AcDbArc
 50
0.0
 51
90.0
  0
LINE
  5
740B
330
1E
100
AcDbEntity
  8
躯体と製品
  6
Continuous
 62
     7
100
AcDbLine
 10
1886.56374480085
 20
638.6058685352073
 30
0.0
 11
1886.363744800851
 21
638.6058685352073
 31
0.0
  0
ARC
  5
740C
330
1E
100
AcDbEntity
  8
躯体と製品
  6
Continuous
 62
     7
100
AcDbCircle
 10
1886.56374480085
 20
638.4058685352074
 30
0.0
 40
0.3
100
AcDbArc
 50
0.0
 51
90.0
  0
ARC
  5
740D
330
1E
100
AcDbEntity
  8
躯体と製品
  6
Continuous
 62
     7
100
AcDbCircle
 10
1886.263744800851
 20
634.3058685352075
 30
0.0
 40
0.5
100
AcDbArc
 50
270.0
 51
0.0
  0
ARC
  5
740E
330
1E
100
AcDbEntity
  8
躯体と製品
  6
Continuous
 62
     7
100
AcDbCircle
 10
1886.263744800851
 20
634.3058685352075
 30
0.0
 40
0.6
100
AcDbArc
 50
270.0
 51
0.0
  0
LINE
  5
740F
330
1E
100
AcDbEntity
  8
躯体と製品
  6
Continuous
 62
     7
100
AcDbLine
 10
1886.763744800851
 20
634.3058685352075
 30
0.0
 11
1886.763744800851
 21
638.4058685352074
 31
0.0
  0
LINE
  5
7410
330
1E
100
AcDbEntity
  8
躯体と製品
  6
Continuous
 62
     7
100
AcDbLine
 10
1886.863744800851
 20
634.3058685352075
 30
0.0
 11
1886.863744800851
 21
638.4058685352074
 31
0.0
  0
LINE
  5
7411
330
1E
100
AcDbEntity
  8
躯体と製品
  6
Continuous
 62
     7
100
AcDbLine
 10
1882.16374480085
 20
638.6058685352073
 30
0.0
 11
1882.363744800851
 21
638.6058685352073
 31
0.0
  0
ARC
  5
7412
330
1E
100
AcDbEntity
  8
躯体と製品
  6
Continuous
 62
     7
100
AcDbCircle
 10
1882.363744800851
 20
638.4058685352074
 30
0.0
 40
0.2
100
AcDbArc
 50
0.0
 51
90.0
  0
LINE
  5
7413
330
1E
100
AcDbEntity
  8
躯体と製品
  6
Continuous
 62
     7
100
AcDbLine
 10
1882.563744800851
 20
638.4058685352074
 30
0.0
 11
1882.563744800851
 21
638.1058685352073
 31
0.0
  0
LINE
  5
7414
330
1E
100
AcDbEntity
  8
躯体と製品
  6
Continuous
 62
     7
100
AcDbLine
 10
1882.563744800851
 20
638.1058685352073
 30
0.0
 11
1882.66374480085
 21
638.1058685352073
 31
0.0
  0
LINE
  5
7415
330
1E
100
AcDbEntity
  8
躯体と製品
  6
Continuous
 62
     7
100
AcDbLine
 10
1882.66374480085
 20
638.1058685352073
 30
0.0
 11
1882.66374480085
 21
638.4058685352074
 31
0.0
  0
ARC
  5
7416
330
1E
100
AcDbEntity
  8
躯体と製品
  6
Continuous
 62
     7
100
AcDbCircle
 10
1882.363744800851
 20
638.4058685352074
 30
0.0
 40
0.3
100
AcDbArc
 50
0.0
 51
90.0
  0
LINE
  5
7417
330
1E
100
AcDbEntity
  8
躯体と製品
  6
Continuous
 62
     7
100
AcDbLine
 10
1886.16374480085
 20
638.4058685352074
 30
0.0
 11
1886.16374480085
 21
638.1058685352073
 31
0.0
  0
LINE
  5
7418
330
1E
100
AcDbEntity
  8
躯体と製品
  6
Continuous
 62
     7
100
AcDbLine
 10
1886.16374480085
 20
638.1058685352073
 30
0.0
 11
1886.063744800851
 21
638.1058685352073
 31
0.0
  0
LINE
  5
7419
330
1E
100
AcDbEntity
  8
躯体と製品
  6
Continuous
 62
     7
100
AcDbLine
 10
1886.063744800851
 20
638.1058685352073
 30
0.0
 11
1886.063744800851
 21
638.4058685352074
 31
0.0
  0
ARC
  5
741A
330
1E
100
AcDbEntity
  8
躯体と製品
  6
Continuous
 62
     7
100
AcDbCircle
 10
1882.16374480085
 20
638.4058685352074
 30
0.0
 40
0.2
100
AcDbArc
 50
90.0
 51
180.0
  0
ARC
  5
741B
330
1E
100
AcDbEntity
  8
躯体と製品
  6
Continuous
 62
     7
100
AcDbCircle
 10
1882.16374480085
 20
638.4058685352074
 30
0.0
 40
0.3
100
AcDbArc
 50
90.0
 51
180.0
  0
LINE
  5
741C
330
1E
100
AcDbEntity
  8
躯体と製品
  6
Continuous
 62
     7
100
AcDbLine
 10
1886.063744800851
 20
633.7058685352076
 30
0.0
 11
1885.863744800851
 21
633.8058685352075
 31
0.0
  0
LINE
  5
741D
330
1E
100
AcDbEntity
  8
躯体と製品
  6
Continuous
 62
     7
100
AcDbLine
 10
1885.863744800851
 20
633.8058685352075
 30
0.0
 11
1885.56374480085
 21
633.7058685352076
 31
0.0
  0
LINE
  5
741E
330
1E
100
AcDbEntity
  8
躯体と製品
  6
Continuous
 62
     7
100
AcDbLine
 10
1885.56374480085
 20
633.7058685352076
 30
0.0
 11
1885.263744800851
 21
633.8058685352075
 31
0.0
  0
LINE
  5
741F
330
1E
100
AcDbEntity
  8
躯体と製品
  6
Continuous
 62
     7
100
AcDbLine
 10
1885.263744800851
 20
633.8058685352075
 30
0.0
 11
1884.963744800851
 21
633.7058685352076
 31
0.0
  0
LINE
  5
7420
330
1E
100
AcDbEntity
  8
躯体と製品
  6
Continuous
 62
     7
100
AcDbLine
 10
1884.963744800851
 20
633.7058685352076
 30
0.0
 11
1884.66374480085
 21
633.8058685352075
 31
0.0
  0
LINE
  5
7421
330
1E
100
AcDbEntity
  8
躯体と製品
  6
Continuous
 62
     7
100
AcDbLine
 10
1884.66374480085
 20
633.8058685352075
 30
0.0
 11
1884.36374480085
 21
633.7058685352076
 31
0.0
  0
LINE
  5
7422
330
1E
100
AcDbEntity
  8
躯体と製品
  6
Continuous
 62
     7
100
AcDbLine
 10
1885.863744800851
 20
633.9058685352074
 30
0.0
 11
1885.56374480085
 21
633.8058685352075
 31
0.0
  0
LINE
  5
7423
330
1E
100
AcDbEntity
  8
躯体と製品
  6
Continuous
 62
     7
100
AcDbLine
 10
1885.56374480085
 20
633.8058685352075
 30
0.0
 11
1885.263744800851
 21
633.9058685352074
 31
0.0
  0
LINE
  5
7424
330
1E
100
AcDbEntity
  8
躯体と製品
  6
Continuous
 62
     7
100
AcDbLine
 10
1885.263744800851
 20
633.9058685352074
 30
0.0
 11
1884.963744800851
 21
633.8058685352075
 31
0.0
  0
LINE
  5
7425
330
1E
100
AcDbEntity
  8
躯体と製品
  6
Continuous
 62
     7
100
AcDbLine
 10
1884.963744800851
 20
633.8058685352075
 30
0.0
 11
1884.66374480085
 21
633.9058685352074
 31
0.0
  0
LINE
  5
7426
330
1E
100
AcDbEntity
  8
躯体と製品
  6
Continuous
 62
     7
100
AcDbLine
 10
1884.66374480085
 20
633.9058685352074
 30
0.0
 11
1884.36374480085
 21
633.8058685352075
 31
0.0
  0
LINE
  5
7427
330
1E
100
AcDbEntity
  8
躯体と製品
  6
Continuous
 62
     7
100
AcDbLine
 10
1886.063744800851
 20
633.8058685352075
 30
0.0
 11
1885.863744800851
 21
633.9058685352074
 31
0.0
  0
LINE
  5
7428
330
1E
100
AcDbEntity
  8
躯体と製品
  6
Continuous
 62
     7
100
AcDbLine
 10
1882.46374480085
 20
633.8058685352075
 30
0.0
 11
1882.66374480085
 21
633.8058685352075
 31
0.0
  0
LINE
  5
7429
330
1E
100
AcDbEntity
  8
躯体と製品
  6
Continuous
 62
     7
100
AcDbLine
 10
1882.46374480085
 20
633.7058685352076
 30
0.0
 11
1882.66374480085
 21
633.7058685352076
 31
0.0
  0
LINE
  5
742A
330
1E
100
AcDbEntity
  8
躯体と製品
  6
Continuous
 62
     7
100
AcDbLine
 10
1882.66374480085
 20
633.7058685352076
 30
0.0
 11
1882.86374480085
 21
633.8058685352075
 31
0.0
  0
LINE
  5
742B
330
1E
100
AcDbEntity
  8
躯体と製品
  6
Continuous
 62
     7
100
AcDbLine
 10
1882.86374480085
 20
633.8058685352075
 30
0.0
 11
1883.16374480085
 21
633.7058685352076
 31
0.0
  0
LINE
  5
742C
330
1E
100
AcDbEntity
  8
躯体と製品
  6
Continuous
 62
     7
100
AcDbLine
 10
1883.16374480085
 20
633.7058685352076
 30
0.0
 11
1883.463744800851
 21
633.8058685352075
 31
0.0
  0
LINE
  5
742D
330
1E
100
AcDbEntity
  8
躯体と製品
  6
Continuous
 62
     7
100
AcDbLine
 10
1883.463744800851
 20
633.8058685352075
 30
0.0
 11
1883.763744800851
 21
633.7058685352076
 31
0.0
  0
LINE
  5
742E
330
1E
100
AcDbEntity
  8
躯体と製品
  6
Continuous
 62
     7
100
AcDbLine
 10
1883.763744800851
 20
633.7058685352076
 30
0.0
 11
1884.063744800851
 21
633.8058685352075
 31
0.0
  0
LINE
  5
742F
330
1E
100
AcDbEntity
  8
躯体と製品
  6
Continuous
 62
     7
100
AcDbLine
 10
1884.063744800851
 20
633.8058685352075
 30
0.0
 11
1884.36374480085
 21
633.7058685352076
 31
0.0
  0
LINE
  5
7430
330
1E
100
AcDbEntity
  8
躯体と製品
  6
Continuous
 62
     7
100
AcDbLine
 10
1882.86374480085
 20
633.9058685352074
 30
0.0
 11
1883.16374480085
 21
633.8058685352075
 31
0.0
  0
LINE
  5
7431
330
1E
100
AcDbEntity
  8
躯体と製品
  6
Continuous
 62
     7
100
AcDbLine
 10
1883.16374480085
 20
633.8058685352075
 30
0.0
 11
1883.463744800851
 21
633.9058685352074
 31
0.0
  0
LINE
  5
7432
330
1E
100
AcDbEntity
  8
躯体と製品
  6
Continuous
 62
     7
100
AcDbLine
 10
1883.463744800851
 20
633.9058685352074
 30
0.0
 11
1883.763744800851
 21
633.8058685352075
 31
0.0
  0
LINE
  5
7433
330
1E
100
AcDbEntity
  8
躯体と製品
  6
Continuous
 62
     7
100
AcDbLine
 10
1883.763744800851
 20
633.8058685352075
 30
0.0
 11
1884.063744800851
 21
633.9058685352074
 31
0.0
  0
LINE
  5
7434
330
1E
100
AcDbEntity
  8
躯体と製品
  6
Continuous
 62
     7
100
AcDbLine
 10
1884.063744800851
 20
633.9058685352074
 30
0.0
 11
1884.36374480085
 21
633.8058685352075
 31
0.0
  0
LINE
  5
7435
330
1E
100
AcDbEntity
  8
躯体と製品
  6
Continuous
 62
     7
100
AcDbLine
 10
1882.66374480085
 20
633.8058685352075
 30
0.0
 11
1882.86374480085
 21
633.9058685352074
 31
0.0
  0
ARC
  5
7436
330
1E
100
AcDbEntity
  8
躯体と製品
  6
Continuous
 62
     7
100
AcDbCircle
 10
1882.46374480085
 20
634.3058685352075
 30
0.0
 40
0.5
100
AcDbArc
 50
180.0
 51
270.0
  0
ARC
  5
7437
330
1E
100
AcDbEntity
  8
躯体と製品
  6
Continuous
 62
     7
100
AcDbCircle
 10
1882.46374480085
 20
634.3058685352075
 30
0.0
 40
0.6
100
AcDbArc
 50
180.0
 51
270.0
  0
LINE
  5
7438
330
1E
100
AcDbEntity
  8
躯体と製品
  6
Continuous
 62
     7
100
AcDbLine
 10
1881.963744800851
 20
634.3058685352075
 30
0.0
 11
1881.963744800851
 21
638.4058685352074
 31
0.0
  0
LINE
  5
7439
330
1E
100
AcDbEntity
  8
躯体と製品
  6
Continuous
 62
     7
100
AcDbLine
 10
1881.863744800851
 20
634.3058685352075
 30
0.0
 11
1881.863744800851
 21
638.4058685352074
 31
0.0
  0
CIRCLE
  5
743A
330
1E
100
AcDbEntity
  8
文字-記号
  6
Continuous
 62
     7
100
AcDbCircle
 10
1886.063744800851
 20
638.1058685352073
 30
0.0
 40
0.3
  0
LINE
  5
743B
330
1E
100
AcDbEntity
  8
躯体と製品
  6
Continuous
 62
     7
100
AcDbLine
 10
1886.263744800851
 20
633.8058685352075
 30
0.0
 11
1886.063744800851
 21
633.8058685352075
 31
0.0
  0
LINE
  5
743C
330
1E
100
AcDbEntity
  8
躯体と製品
  6
Continuous
 62
     7
100
AcDbLine
 10
1886.263744800851
 20
633.7058685352076
 30
0.0
 11
1886.063744800851
 21
633.7058685352076
 31
0.0
  0
ARC
  5
743D
330
1E
100
AcDbEntity
  8
躯体と製品
  6
Continuous
 62
     7
100
AcDbCircle
 10
1886.363744800851
 20
638.4058685352074
 30
0.0
 40
0.2
100
AcDbArc
 50
90.0
 51
180.0
  0
ARC
  5
743E
330
1E
100
AcDbEntity
  8
躯体と製品
  6
Continuous
 62
     7
100
AcDbCircle
 10
1886.363744800851
 20
638.4058685352074
 30
0.0
 40
0.3
100
AcDbArc
 50
90.0
 51
180.0
  0
LINE
  5
743F
330
1E
100
AcDbEntity
  8
躯体と製品
  6
Continuous
 62
     7
100
AcDbLine
 10
1891.25219480085
 20
622.1058685352073
 30
0.0
 11
1891.17136480085
 21
622.2458685352076
 31
0.0
  0
LINE
  5
7440
330
1E
100
AcDbEntity
  8
躯体と製品
  6
Continuous
 62
     7
100
AcDbLine
 10
1891.263744800851
 20
622.4058685352074
 30
0.0
 11
1891.34456480085
 21
622.2658685352071
 31
0.0
  0
LINE
  5
7441
330
1E
100
AcDbEntity
  8
躯体と製品
  6
Continuous
 62
     7
100
AcDbLine
 10
1889.863744800851
 20
622.4058685352074
 30
0.0
 11
1891.263744800851
 21
622.4058685352074
 31
0.0
  0
LINE
  5
7442
330
1E
100
AcDbEntity
  8
躯体と製品
  6
Continuous
 62
     7
100
AcDbLine
 10
1891.17136480085
 20
622.2458685352076
 30
0.0
 11
1890.023744800851
 21
622.2458685352076
 31
0.0
  0
LINE
  5
7443
330
1E
100
AcDbEntity
  8
躯体と製品
  6
Continuous
 62
     7
100
AcDbLine
 10
1885.363744800851
 20
628.7058685352076
 30
0.0
 11
1885.363744800851
 21
631.2058685352076
 31
0.0
  0
LINE
  5
7444
330
1E
100
AcDbEntity
  8
躯体と製品
  6
Continuous
 62
     7
100
AcDbLine
 10
1891.103744800851
 20
614.5058685352073
 30
0.0
 11
1891.263744800851
 21
614.5058685352073
 31
0.0
  0
LINE
  5
7445
330
1E
100
AcDbEntity
  8
躯体と製品
  6
Continuous
 62
     7
100
AcDbLine
 10
1890.06374480085
 20
619.6058685352072
 30
0.0
 11
1890.06374480085
 21
616.2058685352072
 31
0.0
  0
LINE
  5
7446
330
1E
100
AcDbEntity
  8
躯体と製品
  6
Continuous
 62
     7
100
AcDbLine
 10
1886.363744800851
 20
612.3058685352075
 30
0.0
 11
1887.363744800851
 21
612.3058685352075
 31
0.0
  0
LINE
  5
7447
330
1E
100
AcDbEntity
  8
躯体と製品
  6
Continuous
 62
     7
100
AcDbLine
 10
1890.023744800851
 20
613.5658685352073
 30
0.0
 11
1891.103744800851
 21
613.5658685352073
 31
0.0
  0
LINE
  5
7448
330
1E
100
AcDbEntity
  8
躯体と製品
  6
Continuous
 62
     7
100
AcDbLine
 10
1889.863744800851
 20
613.4058685352074
 30
0.0
 11
1891.263744800851
 21
613.4058685352074
 31
0.0
  0
LINE
  5
7449
330
1E
100
AcDbEntity
  8
躯体と製品
  6
Continuous
 62
     7
100
AcDbLine
 10
1891.103744800851
 20
613.5658685352073
 30
0.0
 11
1891.103744800851
 21
614.5058685352073
 31
0.0
  0
LINE
  5
744A
330
1E
100
AcDbEntity
  8
躯体と製品
  6
Continuous
 62
     7
100
AcDbLine
 10
1890.023744800851
 20
613.5658685352073
 30
0.0
 11
1890.023744800851
 21
622.2458685352076
 31
0.0
  0
LINE
  5
744B
330
1E
100
AcDbEntity
  8
躯体と製品
  6
Continuous
 62
     7
100
AcDbLine
 10
1890.06374480085
 20
616.2058685352072
 30
0.0
 11
1902.66374480085
 21
616.2058685352072
 31
0.0
  0
LINE
  5
744C
330
1E
100
AcDbEntity
  8
躯体と製品
  6
Continuous
 62
     7
100
AcDbLine
 10
1902.66374480085
 20
619.6058685352072
 30
0.0
 11
1890.06374480085
 21
619.6058685352072
 31
0.0
  0
LINE
  5
744D
330
1E
100
AcDbEntity
  8
躯体と製品
  6
Continuous
 62
     7
100
AcDbLine
 10
1901.47528480085
 20
622.1058685352073
 30
0.0
 11
1891.25219480085
 21
622.1058685352073
 31
0.0
  0
LINE
  5
744E
330
1E
100
AcDbEntity
  8
躯体と製品
  6
Continuous
 62
     7
100
AcDbLine
 10
1891.34456480085
 20
622.2658685352071
 30
0.0
 11
1901.382914800851
 21
622.2658685352071
 31
0.0
  0
LINE
  5
744F
330
1E
100
AcDbEntity
  8
躯体と製品
  6
Continuous
 62
     7
100
AcDbLine
 10
1887.363744800851
 20
609.4058685352074
 30
0.0
 11
1907.363744800851
 21
609.4058685352074
 31
0.0
  0
LINE
  5
7450
330
1E
100
AcDbEntity
  8
文字-記号
  6
Continuous
 62
     7
100
AcDbLine
 10
1886.063744800851
 20
638.1058685352073
 30
0.0
 11
1882.526814800851
 21
651.3058685352075
 31
0.0
  0
LINE
  5
7451
330
1E
100
AcDbEntity
  8
躯体と製品
  6
Continuous
 62
     7
100
AcDbLine
 10
1888.863744800851
 20
646.3058685352075
 30
0.0
 11
1888.863744800851
 21
638.7058685352076
 31
0.0
  0
CIRCLE
  5
7452
330
1E
100
AcDbEntity
  8
文字-記号
  6
Continuous
 62
     7
100
AcDbCircle
 10
1895.963744800851
 20
711.2058685352076
 30
0.0
 40
0.3
  0
ARC
  5
7453
330
1E
100
AcDbEntity
  8
躯体と製品
  6
Continuous
 62
     7
100
AcDbCircle
 10
1896.363744800851
 20
708.5458685352072
 30
0.0
 40
0.8
100
AcDbArc
 50
180.0
 51
0.0
  0
LINE
  5
7454
330
1E
100
AcDbEntity
  8
躯体と製品
  6
Continuous
 62
     7
100
AcDbLine
 10
1902.863744800851
 20
700.7058685352076
 30
0.0
 11
1903.02374480085
 21
700.7058685352076
 31
0.0
  0
LINE
  5
7455
330
1E
100
AcDbEntity
  8
躯体と製品
  6
Continuous
 62
     7
100
AcDbLine
 10
1903.02374480085
 20
700.7058685352076
 30
0.0
 11
1903.02374480085
 21
708.7058685352076
 31
0.0
  0
LINE
  5
7456
330
1E
100
AcDbEntity
  8
躯体と製品
  6
Continuous
 62
     7
100
AcDbLine
 10
1902.863744800851
 20
708.5458685352072
 30
0.0
 11
1902.863744800851
 21
691.2058685352076
 31
0.0
  0
LINE
  5
7457
330
1E
100
AcDbEntity
  8
躯体と製品
  6
Continuous
 62
     7
100
AcDbLine
 10
1901.463744800851
 20
691.2058685352076
 30
0.0
 11
1901.463744800851
 21
708.5458685352072
 31
0.0
  0
LINE
  5
7458
330
1E
100
AcDbEntity
  8
躯体と製品
  6
Continuous
 62
     7
100
AcDbLine
 10
1896.763744800851
 20
713.7058685352076
 30
0.0
 11
1896.763744800851
 21
708.5458685352072
 31
0.0
  0
LINE
  5
7459
330
1E
100
AcDbEntity
  8
躯体と製品
  6
Continuous
 62
     7
100
AcDbLine
 10
1895.963744800851
 20
708.5458685352072
 30
0.0
 11
1895.963744800851
 21
713.7058685352076
 31
0.0
  0
LINE
  5
745A
330
1E
100
AcDbEntity
  8
躯体と製品
  6
Continuous
 62
     7
100
AcDbLine
 10
1896.363744800851
 20
713.7058685352076
 30
0.0
 11
1896.363744800851
 21
691.2058685352076
 31
0.0
  0
LINE
  5
745B
330
1E
100
AcDbEntity
  8
躯体と製品
  6
Continuous
 62
     7
100
AcDbLine
 10
1889.70374480085
 20
700.7058685352076
 30
0.0
 11
1889.863744800851
 21
700.7058685352076
 31
0.0
  0
LINE
  5
745C
330
1E
100
AcDbEntity
  8
躯体と製品
  6
Continuous
 62
     7
100
AcDbLine
 10
1889.70374480085
 20
708.7058685352076
 30
0.0
 11
1889.70374480085
 21
700.7058685352076
 31
0.0
  0
LINE
  5
745D
330
1E
100
AcDbEntity
  8
躯体と製品
  6
Continuous
 62
     7
100
AcDbLine
 10
1889.863744800851
 20
708.5458685352072
 30
0.0
 11
1889.863744800851
 21
691.2058685352076
 31
0.0
  0
LINE
  5
745E
330
1E
100
AcDbEntity
  8
躯体と製品
  6
Continuous
 62
     7
100
AcDbLine
 10
1891.263744800851
 20
691.2058685352076
 30
0.0
 11
1891.263744800851
 21
708.5458685352072
 31
0.0
  0
LINE
  5
745F
330
1E
100
AcDbEntity
  8
文字-記号
  6
Continuous
 62
     7
100
AcDbLine
 10
1895.963744800851
 20
711.2058685352076
 30
0.0
 11
1884.705414800851
 21
730.7058685352076
 31
0.0
  0
LINE
  5
7460
330
1E
100
AcDbEntity
  8
躯体と製品
  6
Continuous
 62
     7
100
AcDbLine
 10
1883.337874800851
 20
708.7058685352076
 30
0.0
 11
1898.337874800851
 21
723.7058685352076
 31
0.0
  0
LINE
  5
7461
330
1E
100
AcDbEntity
  8
躯体と製品
  6
Continuous
 62
     7
100
AcDbLine
 10
1881.21655480085
 20
708.7058685352076
 30
0.0
 11
1896.216554800851
 21
723.7058685352076
 31
0.0
  0
LINE
  5
7462
330
1E
100
AcDbEntity
  8
躯体と製品
  6
Continuous
 62
     7
100
AcDbLine
 10
1889.863744800851
 20
708.5458685352072
 30
0.0
 11
1902.863744800851
 21
708.5458685352072
 31
0.0
  0
LINE
  5
7463
330
1E
100
AcDbEntity
  8
躯体と製品
  6
Continuous
 62
     7
100
AcDbLine
 10
1937.263744800851
 20
708.7058685352076
 30
0.0
 11
1937.263744800851
 21
709.7058685352076
 31
0.0
  0
LINE
  5
7464
330
1E
100
AcDbEntity
  8
躯体と製品
  6
Continuous
 62
     7
100
AcDbLine
 10
1929.263744800851
 20
708.7058685352076
 30
0.0
 11
1929.263744800851
 21
709.7058685352076
 31
0.0
  0
LINE
  5
7465
330
1E
100
AcDbEntity
  8
躯体と製品
  6
Continuous
 62
     7
100
AcDbLine
 10
1929.263744800851
 20
709.7058685352076
 30
0.0
 11
1931.313744800851
 21
709.7058685352076
 31
0.0
  0
LINE
  5
7466
330
1E
100
AcDbEntity
  8
躯体と製品
  6
Continuous
 62
     7
100
AcDbLine
 10
1937.263744800851
 20
709.7058685352076
 30
0.0
 11
1935.21374480085
 21
709.7058685352076
 31
0.0
  0
LINE
  5
7467
330
1E
100
AcDbEntity
  8
躯体と製品
  6
Continuous
 62
     7
100
AcDbLine
 10
1934.213744800851
 20
708.7058685352076
 30
0.0
 11
1934.213744800851
 21
691.2058685352076
 31
0.0
  0
LINE
  5
7468
330
1E
100
AcDbEntity
  8
躯体と製品
  6
Continuous
 62
     7
100
AcDbLine
 10
1932.31374480085
 20
691.2058685352076
 30
0.0
 11
1932.31374480085
 21
708.7058685352076
 31
0.0
  0
LINE
  5
7469
330
1E
100
AcDbEntity
  8
躯体と製品
  6
Continuous
 62
     7
100
AcDbLine
 10
1934.213744800851
 20
708.7058685352076
 30
0.0
 11
1934.213744800851
 21
716.7058685352076
 31
0.0
  0
LINE
  5
746A
330
1E
100
AcDbEntity
  8
躯体と製品
  6
Continuous
 62
     7
100
AcDbLine
 10
1935.21374480085
 20
709.7058685352076
 30
0.0
 11
1935.21374480085
 21
716.7058685352076
 31
0.0
  0
LINE
  5
746B
330
1E
100
AcDbEntity
  8
躯体と製品
  6
Continuous
 62
     7
100
AcDbLine
 10
1932.31374480085
 20
708.7058685352076
 30
0.0
 11
1932.31374480085
 21
716.7058685352076
 31
0.0
  0
LINE
  5
746C
330
1E
100
AcDbEntity
  8
躯体と製品
  6
Continuous
 62
     7
100
AcDbLine
 10
1931.313744800851
 20
709.7058685352076
 30
0.0
 11
1931.313744800851
 21
716.7058685352076
 31
0.0
  0
LINE
  5
746D
330
1E
100
AcDbEntity
  8
躯体と製品
  6
Continuous
 62
     7
100
AcDbLine
 10
1933.263744800851
 20
691.2058685352076
 30
0.0
 11
1933.263744800851
 21
716.7058685352076
 31
0.0
  0
LINE
  5
746E
330
1E
100
AcDbEntity
  8
躯体と製品
  6
Continuous
 62
     7
100
AcDbLine
 10
1925.764284800851
 20
708.7058685352076
 30
0.0
 11
1940.76427480085
 21
723.7058685352076
 31
0.0
  0
LINE
  5
746F
330
1E
100
AcDbEntity
  8
躯体と製品
  6
Continuous
 62
     7
100
AcDbLine
 10
1923.642964800851
 20
708.7058685352076
 30
0.0
 11
1938.642964800851
 21
723.7058685352076
 31
0.0
  0
LINE
  5
7470
330
1E
100
AcDbEntity
  8
躯体と製品
  6
Continuous
 62
     7
100
AcDbLine
 10
1921.52164480085
 20
708.7058685352076
 30
0.0
 11
1936.521644800851
 21
723.7058685352076
 31
0.0
  0
LINE
  5
7471
330
1E
100
AcDbEntity
  8
躯体と製品
  6
Continuous
 62
     7
100
AcDbLine
 10
1968.19067480085
 20
708.7058685352076
 30
0.0
 11
1976.36373480085
 21
716.8789185352075
 31
0.0
  0
LINE
  5
7472
330
1E
100
AcDbEntity
  8
躯体と製品
  6
Continuous
 62
     7
100
AcDbLine
 10
1966.06935480085
 20
708.7058685352076
 30
0.0
 11
1976.36373480085
 21
719.0002385352072
 31
0.0
  0
LINE
  5
7473
330
1E
100
AcDbEntity
  8
躯体と製品
  6
Continuous
 62
     7
100
AcDbLine
 10
1963.94803480085
 20
708.7058685352076
 30
0.0
 11
1976.36373480085
 21
721.1215585352074
 31
0.0
  0
ENDSEC
  0
SECTION
  2
OBJECTS
  0
DICTIONARY
  5
C
330
0
100
AcDbDictionary
281
     1
  3
ACAD_COLOR
350
7653
  3
ACAD_GROUP
350
D
  3
ACAD_LAYOUT
350
19
  3
ACAD_MATERIAL
350
763E
  3
ACAD_MLINESTYLE
350
16
  3
ACAD_PLOTSETTINGS
350
18
  3
ACAD_PLOTSTYLENAME
350
E
  3
ACAD_TABLESTYLE
350
7654
  3
ACAD_VISUALSTYLE
350
7642
  3
AcDbVariableDictionary
350
169
  3
DWGPROPS
350
775A
  0
DICTIONARY
  5
76FC
330
8
100
AcDbDictionary
280
     1
281
     1
  0
DICTIONARY
  5
175
330
2
100
AcDbDictionary
280
     1
281
     1
  3
ACAD_LAYERFILTERS
360
185
  3
ACAD_LAYERSTATES
360
176
  0
DICTIONARY
  5
28B
330
1E
100
AcDbDictionary
280
     1
281
     1
  3
ACAD_LAYOUTSELFREF
360
7637
  0
DICTIONARY
  5
28D
330
1A
100
AcDbDictionary
280
     1
281
     1
  3
ACAD_LAYOUTSELFREF
360
7636
  0
DICTIONARY
  5
7653
102
{ACAD_REACTORS
330
C
102
}
330
C
100
AcDbDictionary
281
     1
  0
DICTIONARY
  5
D
102
{ACAD_REACTORS
330
C
102
}
330
C
100
AcDbDictionary
281
     1
  0
DICTIONARY
  5
19
102
{ACAD_REACTORS
330
C
102
}
330
C
100
AcDbDictionary
281
     1
  3
Model
350
21
  3
ﾚｲｱｳﾄ1
350
1D
  0
DICTIONARY
  5
763E
102
{ACAD_REACTORS
330
C
102
}
330
C
100
AcDbDictionary
281
     1
  3
ByBlock
350
7640
  3
ByLayer
350
763F
  3
Global
350
7641
  0
DICTIONARY
  5
16
102
{ACAD_REACTORS
330
C
102
}
330
C
100
AcDbDictionary
281
     1
  3
Standard
350
17
  0
DICTIONARY
  5
18
102
{ACAD_REACTORS
330
C
102
}
330
C
100
AcDbDictionary
281
     1
  0
ACDBDICTIONARYWDFLT
  5
E
102
{ACAD_REACTORS
330
C
102
}
330
C
100
AcDbDictionary
281
     1
  3
Normal
350
F
100
AcDbDictionaryWithDefault
340
F
1001
ACAD
1000
TREAT_AS_HARD
1070
     0
1000
TREAT_AS_HARD
1070
     0
1000
TREAT_AS_HARD
1070
     0
1000
TREAT_AS_HARD
1070
     0
1000
TREAT_AS_HARD
1070
     0
1000
TREAT_AS_HARD
1070
     0
1000
TREAT_AS_HARD
1070
     0
1000
TREAT_AS_HARD
1070
     0
1000
TREAT_AS_HARD
1070
     0
1000
TREAT_AS_HARD
1070
     0
1000
TREAT_AS_HARD
1070
     0
1000
TREAT_AS_HARD
1070
     0
1000
TREAT_AS_HARD
1070
     0
1000
TREAT_AS_HARD
1070
     0
1000
TREAT_AS_HARD
1070
     0
1000
TREAT_AS_HARD
1070
     0
1000
TREAT_AS_HARD
1070
     0
1000
TREAT_AS_HARD
1070
     0
1000
TREAT_AS_HARD
1070
     0
1000
TREAT_AS_HARD
1070
     0
1000
TREAT_AS_HARD
1070
     0
1000
TREAT_AS_HARD
1070
     0
1000
TREAT_AS_HARD
1070
     0
1000
TREAT_AS_HARD
1070
     0
1000
TREAT_AS_HARD
1070
     0
1000
TREAT_AS_HARD
1070
     0
1000
TREAT_AS_HARD
1070
     0
1000
TREAT_AS_HARD
1070
     0
1000
TREAT_AS_HARD
1070
     0
1000
TREAT_AS_HARD
1070
     0
  0
DICTIONARY
  5
7654
102
{ACAD_REACTORS
330
C
102
}
330
C
100
AcDbDictionary
281
     1
  3
Standard
350
7655
  0
DICTIONARY
  5
7642
102
{ACAD_REACTORS
330
C
102
}
330
C
100
AcDbDictionary
281
     1
  3
2dWireframe
350
7648
  3
3D Hidden
350
764A
  3
3dWireframe
350
7649
  3
Basic
350
7647
  3
Brighten
350
764E
  3
ColorChange
350
7652
  3
Conceptual
350
764B
  3
Dim
350
764D
  3
Facepattern
350
7651
  3
Flat
350
7643
  3
FlatWithEdges
350
7644
  3
Gouraud
350
7645
  3
GouraudWithEdges
350
7646
  3
Linepattern
350
7650
  3
Realistic
350
764C
  3
Thicken
350
764F
  0
DICTIONARY
  5
169
102
{ACAD_REACTORS
330
C
102
}
330
C
100
AcDbDictionary
281
     1
  3
CTABLESTYLE
350
7714
  3
DIMASSOC
350
16A
  3
INDEXCTL
350
7716
  3
SORTENTS
350
7715
  0
XRECORD
  5
775A
102
{ACAD_REACTORS
330
C
102
}
330
C
100
AcDbXrecord
280
     1
  1
DWGPROPS COOKIE
  2

  3

  4

  6

  7

  8
HON1000AV
  9

300
=
301
=
302
=
303
=
304
=
305
=
306
=
307
=
308
=
309
=
 40
0.2628154976851852
 41
2454316.693457674
 42
2454736.422645579
  1

 90
        0
  0
DICTIONARY
  5
185
102
{ACAD_REACTORS
330
175
102
}
330
175
100
AcDbDictionary
280
     1
281
     1
  0
DICTIONARY
  5
176
102
{ACAD_REACTORS
330
175
102
}
330
175
100
AcDbDictionary
281
     1
  3
ACAD
350
177
  0
XRECORD
  5
7637
102
{ACAD_REACTORS
330
28B
102
}
330
28B
100
AcDbXrecord
280
     1
340
1E
  0
XRECORD
  5
7636
102
{ACAD_REACTORS
330
28D
102
}
330
28D
100
AcDbXrecord
280
     1
340
1A
  0
LAYOUT
  5
21
102
{ACAD_XDICTIONARY
360
775D
102
}
102
{ACAD_REACTORS
330
19
102
}
330
19
100
AcDbPlotSettings
  1

  2
\\MEISEI-1\EPSON Stylus Photo EX3
  4

  6

 40
0.0
 41
0.0
 42
0.0
 43
0.0
 44
0.0
 45
0.0
 46
0.0
 47
0.0
 48
0.0
 49
0.0
140
0.0
141
0.0
142
1.0
143
1.0
 70
  1712
 72
     0
 73
     0
 74
     0
  7

 75
     0
147
1.0
148
0.0
149
0.0
100
AcDbLayout
  1
Model
 70
     1
 71
     0
 10
0.0
 20
0.0
 11
12.0
 21
9.0
 12
0.0
 22
0.0
 32
0.0
 14
0.0
 24
0.0
 34
0.0
 15
0.0
 25
0.0
 35
0.0
146
0.0
 13
0.0
 23
0.0
 33
0.0
 16
1.0
 26
0.0
 36
0.0
 17
0.0
 27
1.0
 37
0.0
 76
     0
330
1E
331
75F2
  0
LAYOUT
  5
1D
102
{ACAD_XDICTIONARY
360
775B
102
}
102
{ACAD_REACTORS
330
19
102
}
330
19
100
AcDbPlotSettings
  1

  2
\\MEISEI-1\EPSON Stylus Photo EX3
  4

  6

 40
0.0
 41
0.0
 42
0.0
 43
0.0
 44
0.0
 45
0.0
 46
0.0
 47
0.0
 48
0.0
 49
0.0
140
0.0
141
0.0
142
1.0
143
1.0
 70
   688
 72
     0
 73
     0
 74
     5
  7

 75
    16
147
1.0
148
0.0
149
0.0
100
AcDbLayout
  1
ﾚｲｱｳﾄ1
 70
     1
 71
     1
 10
0.0
 20
0.0
 11
12.0
 21
9.0
 12
0.0
 22
0.0
 32
0.0
 14
1.000000000000000E+20
 24
1.000000000000000E+20
 34
1.000000000000000E+20
 15
-1.000000000000000E+20
 25
-1.000000000000000E+20
 35
-1.000000000000000E+20
146
0.0
 13
0.0
 23
0.0
 33
0.0
 16
1.0
 26
0.0
 36
0.0
 17
0.0
 27
1.0
 37
0.0
 76
     0
330
1A
  0
MATERIAL
  5
7640
102
{ACAD_XDICTIONARY
360
7761
102
}
102
{ACAD_REACTORS
330
763E
102
}
330
763E
100
AcDbMaterial
  1
ByBlock
  0
MATERIAL
  5
763F
102
{ACAD_XDICTIONARY
360
775F
102
}
102
{ACAD_REACTORS
330
763E
102
}
330
763E
100
AcDbMaterial
  1
ByLayer
  0
MATERIAL
  5
7641
102
{ACAD_XDICTIONARY
360
7763
102
}
102
{ACAD_REACTORS
330
763E
102
}
330
763E
100
AcDbMaterial
  1
Global
  0
MLINESTYLE
  5
17
102
{ACAD_REACTORS
330
16
102
}
330
16
100
AcDbMlineStyle
  2
STANDARD
 70
     0
  3

 62
   256
 51
90.0
 52
90.0
 71
     2
 49
0.5
 62
   256
  6
BYLAYER
 49
-0.5
 62
   256
  6
BYLAYER
  0
ACDBPLACEHOLDER
  5
F
102
{ACAD_REACTORS
330
E
102
}
330
E
  0
TABLESTYLE
  5
7655
102
{ACAD_XDICTIONARY
360
7765
102
}
102
{ACAD_REACTORS
330
7654
102
}
330
7654
100
AcDbTableStyle
  3
Standard
 70
     0
 71
     0
 40
0.06
 41
0.06
280
     0
281
     0
  7
STANDARD
140
0.18
170
     2
 62
     0
 63
     7
283
     0
274
    -2
284
     1
 64
     0
275
    -2
285
     1
 65
     0
276
    -2
286
     1
 66
     0
277
    -2
287
     1
 67
     0
278
    -2
288
     1
 68
     0
279
    -2
289
     1
 69
     0
  7
STANDARD
140
0.25
170
     5
 62
     0
 63
     7
283
     0
274
    -2
284
     1
 64
     0
275
    -2
285
     1
 65
     0
276
    -2
286
     1
 66
     0
277
    -2
287
     1
 67
     0
278
    -2
288
     1
 68
     0
279
    -2
289
     1
 69
     0
  7
STANDARD
140
0.18
170
     5
 62
     0
 63
     7
283
     0
274
    -2
284
     1
 64
     0
275
    -2
285
     1
 65
     0
276
    -2
286
     1
 66
     0
277
    -2
287
     1
 67
     0
278
    -2
288
     1
 68
     0
279
    -2
289
     1
 69
     0
  0
VISUALSTYLE
  5
7648
102
{ACAD_REACTORS
330
7642
102
}
330
7642
100
AcDbVisualStyle
  2
2dWireframe
 70
     4
 71
     0
 72
     2
 73
     0
 90
        0
 40
-0.6
 41
-30.0
 62
     5
 63
     7
 74
     1
 91
        4
 64
     7
 65
   257
 75
     1
175
     1
 42
1.0
 92
        0
 66
   257
 43
1.0
 76
     1
 77
     6
 78
     2
 67
     7
 79
     5
170
     0
171
     0
290
     0
174
     0
 93
        1
 44
0.0
173
     0
291
     0
 45
0.0
1001
ACAD
1000
AcDbSavedByObjectVersion
1070
     0
  0
VISUALSTYLE
  5
764A
102
{ACAD_REACTORS
330
7642
102
}
330
7642
100
AcDbVisualStyle
  2
3D Hidden
 70
     6
 71
     1
 72
     2
 73
     2
 90
        0
 40
-0.6
 41
-30.0
 62
     5
 63
     7
 74
     2
 91
        2
 64
     7
 65
   257
 75
     2
175
     1
 42
40.0
 92
        0
 66
   257
 43
1.0
 76
     1
 77
     6
 78
     2
 67
     7
 79
     3
170
     0
171
     0
290
     0
174
     0
 93
        1
 44
0.0
173
     0
291
     0
 45
0.0
1001
ACAD
1000
AcDbSavedByObjectVersion
1070
     0
  0
VISUALSTYLE
  5
7649
102
{ACAD_REACTORS
330
7642
102
}
330
7642
100
AcDbVisualStyle
  2
3dWireframe
 70
     5
 71
     0
 72
     2
 73
     0
 90
        0
 40
-0.6
 41
-30.0
 62
     5
 63
     7
 74
     1
 91
        4
 64
     7
 65
   257
 75
     1
175
     1
 42
1.0
 92
        0
 66
   257
 43
1.0
 76
     1
 77
     6
 78
     2
 67
     7
 79
     5
170
     0
171
     0
290
     0
174
     0
 93
        1
 44
0.0
173
     0
291
     0
 45
0.0
1001
ACAD
1000
AcDbSavedByObjectVersion
1070
     0
  0
VISUALSTYLE
  5
7647
102
{ACAD_REACTORS
330
7642
102
}
330
7642
100
AcDbVisualStyle
  2
Basic
 70
     7
 71
     1
 72
     0
 73
     1
 90
        0
 40
-0.6
 41
-30.0
 62
     5
 63
     7
 74
     0
 91
        4
 64
     7
 65
   257
 75
     1
175
     1
 42
1.0
 92
        8
 66
     7
 43
1.0
 76
     1
 77
     6
 78
     2
 67
     7
 79
     5
170
     0
171
     0
290
     0
174
     0
 93
        1
 44
0.0
173
     0
291
     1
 45
0.0
1001
ACAD
1000
AcDbSavedByObjectVersion
1070
     0
  0
VISUALSTYLE
  5
764E
102
{ACAD_REACTORS
330
7642
102
}
330
7642
100
AcDbVisualStyle
  2
Brighten
 70
    12
 71
     2
 72
     2
 73
     0
 90
        0
 40
-0.6
 41
-30.0
 62
     5
 63
     7
 74
     1
 91
        4
 64
     7
 65
   257
 75
     1
175
     1
 42
1.0
 92
        8
 66
     7
 43
1.0
 76
     1
 77
     6
 78
     2
 67
     7
 79
     5
170
     0
171
     0
290
     0
174
     0
 93
        1
 44
50.0
173
     0
291
     1
 45
0.0
1001
ACAD
1000
AcDbSavedByObjectVersion
1070
     0
  0
VISUALSTYLE
  5
7652
102
{ACAD_REACTORS
330
7642
102
}
330
7642
100
AcDbVisualStyle
  2
ColorChange
 70
    16
 71
     2
 72
     2
 73
     3
 90
        0
 40
-0.6
 41
-30.0
 62
     5
 63
     8
 74
     1
 91
        4
 64
     7
 65
   257
 75
     1
175
     1
 42
1.0
 92
        8
 66
     8
 43
1.0
 76
     1
 77
     6
 78
     2
 67
     7
 79
     5
170
     0
171
     0
290
     0
174
     0
 93
        1
 44
0.0
173
     0
291
     1
 45
0.0
1001
ACAD
1000
AcDbSavedByObjectVersion
1070
     0
  0
VISUALSTYLE
  5
764B
102
{ACAD_REACTORS
330
7642
102
}
330
7642
100
AcDbVisualStyle
  2
Conceptual
 70
     9
 71
     3
 72
     2
 73
     0
 90
        0
 40
-0.6
 41
-30.0
 62
     5
 63
     7
 74
     2
 91
        2
 64
     7
 65
   257
 75
     1
175
     1
 42
40.0
 92
        8
 66
     7
 43
1.0
 76
     1
 77
     6
 78
     2
 67
     7
 79
     3
170
     0
171
     0
290
     0
174
     0
 93
        1
 44
0.0
173
     0
291
     0
 45
0.0
1001
ACAD
1000
AcDbSavedByObjectVersion
1070
     0
  0
VISUALSTYLE
  5
764D
102
{ACAD_REACTORS
330
7642
102
}
330
7642
100
AcDbVisualStyle
  2
Dim
 70
    11
 71
     2
 72
     2
 73
     0
 90
        0
 40
-0.6
 41
-30.0
 62
     5
 63
     7
 74
     1
 91
        4
 64
     7
 65
   257
 75
     1
175
     1
 42
1.0
 92
        8
 66
     7
 43
1.0
 76
     1
 77
     6
 78
     2
 67
     7
 79
     5
170
     0
171
     0
290
     0
174
     0
 93
        1
 44
-50.0
173
     0
291
     1
 45
0.0
1001
ACAD
1000
AcDbSavedByObjectVersion
1070
     0
  0
VISUALSTYLE
  5
7651
102
{ACAD_REACTORS
330
7642
102
}
330
7642
100
AcDbVisualStyle
  2
Facepattern
 70
    15
 71
     2
 72
     2
 73
     0
 90
        0
 40
-0.6
 41
-30.0
 62
     5
 63
     7
 74
     1
 91
        4
 64
     7
 65
   257
 75
     1
175
     1
 42
1.0
 92
        8
 66
     7
 43
1.0
 76
     1
 77
     6
 78
     2
 67
     7
 79
     5
170
     0
171
     0
290
     0
174
     0
 93
        1
 44
0.0
173
     0
291
     1
 45
0.0
1001
ACAD
1000
AcDbSavedByObjectVersion
1070
     0
  0
VISUALSTYLE
  5
7643
102
{ACAD_REACTORS
330
7642
102
}
330
7642
100
AcDbVisualStyle
  2
Flat
 70
     0
 71
     2
 72
     1
 73
     1
 90
        2
 40
-0.6
 41
30.0
 62
     5
 63
     7
 74
     0
 91
        4
 64
     7
 65
   257
 75
     1
175
     1
 42
1.0
 92
        8
 66
     7
 43
1.0
 76
     1
 77
     6
 78
     2
 67
     7
 79
     5
170
     0
171
     0
290
     0
174
     0
 93
       13
 44
0.0
173
     0
291
     1
 45
0.0
1001
ACAD
1000
AcDbSavedByObjectVersion
1070
     0
  0
VISUALSTYLE
  5
7644
102
{ACAD_REACTORS
330
7642
102
}
330
7642
100
AcDbVisualStyle
  2
FlatWithEdges
 70
     1
 71
     2
 72
     1
 73
     1
 90
        2
 40
-0.6
 41
30.0
 62
     5
 63
     7
 74
     1
 91
        4
 64
     7
 65
   257
 75
     1
175
     1
 42
1.0
 92
        0
 66
   257
 43
1.0
 76
     1
 77
     6
 78
     2
 67
     7
 79
     5
170
     0
171
     0
290
     0
174
     0
 93
       13
 44
0.0
173
     0
291
     1
 45
0.0
1001
ACAD
1000
AcDbSavedByObjectVersion
1070
     0
  0
VISUALSTYLE
  5
7645
102
{ACAD_REACTORS
330
7642
102
}
330
7642
100
AcDbVisualStyle
  2
Gouraud
 70
     2
 71
     2
 72
     2
 73
     1
 90
        2
 40
-0.6
 41
30.0
 62
     5
 63
     7
 74
     0
 91
        4
 64
     7
 65
   257
 75
     1
175
     1
 42
1.0
 92
        0
 66
     7
 43
1.0
 76
     1
 77
     6
 78
     2
 67
     7
 79
     5
170
     0
171
     0
290
     0
174
     0
 93
       13
 44
0.0
173
     0
291
     1
 45
0.0
1001
ACAD
1000
AcDbSavedByObjectVersion
1070
     0
  0
VISUALSTYLE
  5
7646
102
{ACAD_REACTORS
330
7642
102
}
330
7642
100
AcDbVisualStyle
  2
GouraudWithEdges
 70
     3
 71
     2
 72
     2
 73
     1
 90
        2
 40
-0.6
 41
30.0
 62
     5
 63
     7
 74
     1
 91
        4
 64
     7
 65
   257
 75
     1
175
     1
 42
1.0
 92
        0
 66
   257
 43
1.0
 76
     1
 77
     6
 78
     2
 67
     7
 79
     5
170
     0
171
     0
290
     0
174
     0
 93
       13
 44
0.0
173
     0
291
     1
 45
0.0
1001
ACAD
1000
AcDbSavedByObjectVersion
1070
     0
  0
VISUALSTYLE
  5
7650
102
{ACAD_REACTORS
330
7642
102
}
330
7642
100
AcDbVisualStyle
  2
Linepattern
 70
    14
 71
     2
 72
     2
 73
     0
 90
        0
 40
-0.6
 41
-30.0
 62
     5
 63
     7
 74
     1
 91
        4
 64
     7
 65
   257
 75
     7
175
     7
 42
1.0
 92
        8
 66
     7
 43
1.0
 76
     1
 77
     6
 78
     2
 67
     7
 79
     5
170
     0
171
     0
290
     0
174
     0
 93
        1
 44
0.0
173
     0
291
     1
 45
0.0
1001
ACAD
1000
AcDbSavedByObjectVersion
1070
     0
  0
VISUALSTYLE
  5
764C
102
{ACAD_REACTORS
330
7642
102
}
330
7642
100
AcDbVisualStyle
  2
Realistic
 70
     8
 71
     2
 72
     2
 73
     0
 90
        0
 40
-0.6
 41
-30.0
 62
     5
 63
     7
 74
     1
 91
        0
 64
     7
 65
   257
 75
     1
175
     1
 42
1.0
 92
        8
 66
     8
 43
1.0
 76
     1
 77
     6
 78
     2
 67
     7
 79
     5
170
     0
171
     0
290
     0
174
     0
 93
       13
 44
0.0
173
     0
291
     0
 45
0.0
1001
ACAD
1000
AcDbSavedByObjectVersion
1070
     0
  0
VISUALSTYLE
  5
764F
102
{ACAD_REACTORS
330
7642
102
}
330
7642
100
AcDbVisualStyle
  2
Thicken
 70
    13
 71
     2
 72
     2
 73
     0
 90
        0
 40
-0.6
 41
-30.0
 62
     5
 63
     7
 74
     1
 91
        4
 64
     7
 65
   257
 75
     1
175
     1
 42
1.0
 92
       12
 66
     7
 43
1.0
 76
     1
 77
     6
 78
     2
 67
     7
 79
     5
170
     0
171
     0
290
     0
174
     0
 93
        1
 44
0.0
173
     0
291
     1
 45
0.0
1001
ACAD
1000
AcDbSavedByObjectVersion
1070
     0
  0
DICTIONARYVAR
  5
7714
102
{ACAD_REACTORS
330
169
102
}
330
169
100
DictionaryVariables
280
     0
  1
STANDARD
  0
DICTIONARYVAR
  5
16A
102
{ACAD_REACTORS
330
169
102
}
330
169
100
DictionaryVariables
280
     0
  1
1
  0
DICTIONARYVAR
  5
7716
102
{ACAD_REACTORS
330
169
102
}
330
169
100
DictionaryVariables
280
     0
  1
0
  0
DICTIONARYVAR
  5
7715
102
{ACAD_REACTORS
330
169
102
}
330
169
100
DictionaryVariables
280
     0
  1
127
  0
XRECORD
  5
177
102
{ACAD_REACTORS
330
176
102
}
330
176
100
AcDbXrecord
280
     1
 91
      476
330
179
 90
        8
 62
     7
370
    -3
331
15
  1
Color_7
330
178
 90
        8
 62
     7
370
    -3
331
15
  1
Color_7
330
128
 90
        0
 62
     7
370
    -3
331
15
  1
Color_7
330
10
 90
        8
 62
     7
370
    -3
331
15
  1
Color_7
  0
DICTIONARY
  5
775D
330
21
100
AcDbDictionary
280
     1
281
     1
  3
ACAD_XREC_ROUNDTRIP
360
775E
  0
DICTIONARY
  5
775B
330
1D
100
AcDbDictionary
280
     1
281
     1
  3
ACAD_XREC_ROUNDTRIP
360
775C
  0
DICTIONARY
  5
7761
330
7640
100
AcDbDictionary
280
     1
281
     1
  3
ACAD_XREC_ROUNDTRIP
360
7762
  0
DICTIONARY
  5
775F
330
763F
100
AcDbDictionary
280
     1
281
     1
  3
ACAD_XREC_ROUNDTRIP
360
7760
  0
DICTIONARY
  5
7763
330
7641
100
AcDbDictionary
280
     1
281
     1
  3
ACAD_XREC_ROUNDTRIP
360
7764
  0
DICTIONARY
  5
7765
330
7655
100
AcDbDictionary
280
     1
281
     1
  3
ACAD_XREC_ROUNDTRIP
360
7766
  0
XRECORD
  5
775E
102
{ACAD_REACTORS
330
775D
102
}
330
775D
100
AcDbXrecord
280
     1
102
SHADEPLOT
 70
     0
102
SHADEPLOTRESLEVEL
 70
     2
102
SHADEPLOTCUSTOMDPI
 70
   300
  0
XRECORD
  5
775C
102
{ACAD_REACTORS
330
775B
102
}
330
775B
100
AcDbXrecord
280
     1
102
SHADEPLOT
 70
     0
102
SHADEPLOTRESLEVEL
 70
     2
102
SHADEPLOTCUSTOMDPI
 70
   300
  0
XRECORD
  5
7762
102
{ACAD_REACTORS
330
7761
102
}
330
7761
100
AcDbXrecord
280
     1
102
MATERIAL
148
0.0
149
0.0
149
0.0
 93
        0
 94
       63
282
     0
 72
     1
 77
     1
171
     1
175
     1
179
     1
273
     0
  0
XRECORD
  5
7760
102
{ACAD_REACTORS
330
775F
102
}
330
775F
100
AcDbXrecord
280
     1
102
MATERIAL
148
0.0
149
0.0
149
0.0
 93
        0
 94
       63
282
     0
 72
     1
 77
     1
171
     1
175
     1
179
     1
273
     0
  0
XRECORD
  5
7764
102
{ACAD_REACTORS
330
7763
102
}
330
7763
100
AcDbXrecord
280
     1
102
MATERIAL
148
0.0
149
0.0
149
0.0
 93
        0
 94
       63
282
     0
 72
     1
 77
     1
171
     1
175
     1
179
     1
273
     0
  0
XRECORD
  5
7766
102
{ACAD_REACTORS
330
7765
102
}
330
7765
100
AcDbXrecord
280
     1
102
ACAD_ROUNDTRIP_PRE2007_TABLESTYLE
 90
      512
 91
        0
  1

 92
      512
 93
        0
  2

 94
      512
 95
        0
  3

  0
ENDSEC
  0
EOF
