  0
SECTION
  2
HEADER
  9
$ACADVER
  1
AC1015
  9
$ACADMAINTVER
 70
    13
  9
$DWGCODEPAGE
  3
ANSI_932
  9
$INSBASE
 10
0.0
 20
0.0
 30
0.0
  9
$EXTMIN
 10
193.5937512032614
 20
122.8496712446791
 30
-0.0015258207003583
  9
$EXTMAX
 10
537.5161754311018
 20
352.8642433102525
 30
0.0000000349246037
  9
$LIMMIN
 10
0.0
 20
0.0
  9
$LIMMAX
 10
420.0
 20
297.0
  9
$ORTHOMODE
 70
     0
  9
$REGENMODE
 70
     1
  9
$FILLMODE
 70
     1
  9
$QTEXTMODE
 70
     0
  9
$MIRRTEXT
 70
     1
  9
$LTSCALE
 40
1.0
  9
$ATTMODE
 70
     1
  9
$TEXTSIZE
 40
5.0
  9
$TRACEWID
 40
0.05
  9
$TEXTSTYLE
  7
ACAD
  9
$CLAYER
  8
0
  9
$CELTYPE
  6
CONTINUOUS
  9
$CECOLOR
 62
   256
  9
$CELTSCALE
 40
1.0
  9
$DISPSILH
 70
     0
  9
$DIMSCALE
 40
1.0
  9
$DIMASZ
 40
1.0
  9
$DIMEXO
 40
0.0
  9
$DIMDLI
 40
0.38
  9
$DIMRND
 40
0.0
  9
$DIMDLE
 40
0.0
  9
$DIMEXE
 40
0.0
  9
$DIMTP
 40
0.0
  9
$DIMTM
 40
0.0
  9
$DIMTXT
 40
5.0
  9
$DIMCEN
 40
0.09
  9
$DIMTSZ
 40
0.0
  9
$DIMTOL
 70
     0
  9
$DIMLIM
 70
     0
  9
$DIMTIH
 70
     0
  9
$DIMTOH
 70
     1
  9
$DIMSE1
 70
     0
  9
$DIMSE2
 70
     0
  9
$DIMTAD
 70
     1
  9
$DIMZIN
 70
     0
  9
$DIMBLK
  1
Dot
  9
$DIMASO
 70
     1
  9
$DIMSHO
 70
     1
  9
$DIMPOST
  1

  9
$DIMAPOST
  1

  9
$DIMALT
 70
     0
  9
$DIMALTD
 70
     2
  9
$DIMALTF
 40
25.4
  9
$DIMLFAC
 40
1.0
  9
$DIMTOFL
 70
     0
  9
$DIMTVP
 40
0.0
  9
$DIMTIX
 70
     1
  9
$DIMSOXD
 70
     0
  9
$DIMSAH
 70
     0
  9
$DIMBLK1
  1

  9
$DIMBLK2
  1

  9
$DIMSTYLE
  2
AutoCAD
  9
$DIMCLRD
 70
     4
  9
$DIMCLRE
 70
     4
  9
$DIMCLRT
 70
     3
  9
$DIMTFAC
 40
1.0
  9
$DIMGAP
 40
1.0
  9
$DIMJUST
 70
     0
  9
$DIMSD1
 70
     0
  9
$DIMSD2
 70
     0
  9
$DIMTOLJ
 70
     1
  9
$DIMTZIN
 70
     0
  9
$DIMALTZ
 70
     0
  9
$DIMALTTZ
 70
     0
  9
$DIMUPT
 70
     0
  9
$DIMDEC
 70
     0
  9
$DIMTDEC
 70
     0
  9
$DIMALTU
 70
     2
  9
$DIMALTTD
 70
     2
  9
$DIMTXSTY
  7
ACAD
  9
$DIMAUNIT
 70
     0
  9
$DIMADEC
 70
     0
  9
$DIMALTRND
 40
0.0
  9
$DIMAZIN
 70
     0
  9
$DIMDSEP
 70
    46
  9
$DIMATFIT
 70
     0
  9
$DIMFRAC
 70
     0
  9
$DIMLDRBLK
  1
None
  9
$DIMLUNIT
 70
     2
  9
$DIMLWD
 70
    -2
  9
$DIMLWE
 70
    -2
  9
$DIMTMOVE
 70
     0
  9
$LUNITS
 70
     2
  9
$LUPREC
 70
     4
  9
$SKETCHINC
 40
0.1
  9
$FILLETRAD
 40
0.0
  9
$AUNITS
 70
     0
  9
$AUPREC
 70
     0
  9
$MENU
  1
.
  9
$ELEVATION
 40
0.0
  9
$PELEVATION
 40
0.0
  9
$THICKNESS
 40
0.0
  9
$LIMCHECK
 70
     0
  9
$CHAMFERA
 40
0.0
  9
$CHAMFERB
 40
0.0
  9
$CHAMFERC
 40
0.0
  9
$CHAMFERD
 40
0.0
  9
$SKPOLY
 70
     0
  9
$TDCREATE
 40
2454316.693457673
  9
$TDUCREATE
 40
2454316.318457673
  9
$TDUPDATE
 40
2454440.652528564
  9
$TDUUPDATE
 40
2454440.277528564
  9
$TDINDWG
 40
0.2403840509
  9
$TDUSRTIMER
 40
0.2403840509
  9
$USRTIMER
 70
     1
  9
$ANGBASE
 50
0.0
  9
$ANGDIR
 70
     0
  9
$PDMODE
 70
     0
  9
$PDSIZE
 40
0.0
  9
$PLINEWID
 40
0.0
  9
$SPLFRAME
 70
     0
  9
$SPLINETYPE
 70
     6
  9
$SPLINESEGS
 70
     8
  9
$HANDSEED
  5
6F68
  9
$SURFTAB1
 70
     6
  9
$SURFTAB2
 70
     6
  9
$SURFTYPE
 70
     6
  9
$SURFU
 70
     6
  9
$SURFV
 70
     6
  9
$UCSBASE
  2

  9
$UCSNAME
  2

  9
$UCSORG
 10
0.0
 20
0.0
 30
0.0
  9
$UCSXDIR
 10
1.0
 20
0.0
 30
0.0
  9
$UCSYDIR
 10
0.0
 20
1.0
 30
0.0
  9
$UCSORTHOREF
  2

  9
$UCSORTHOVIEW
 70
     0
  9
$UCSORGTOP
 10
0.0
 20
0.0
 30
0.0
  9
$UCSORGBOTTOM
 10
0.0
 20
0.0
 30
0.0
  9
$UCSORGLEFT
 10
0.0
 20
0.0
 30
0.0
  9
$UCSORGRIGHT
 10
0.0
 20
0.0
 30
0.0
  9
$UCSORGFRONT
 10
0.0
 20
0.0
 30
0.0
  9
$UCSORGBACK
 10
0.0
 20
0.0
 30
0.0
  9
$PUCSBASE
  2

  9
$PUCSNAME
  2

  9
$PUCSORG
 10
0.0
 20
0.0
 30
0.0
  9
$PUCSXDIR
 10
1.0
 20
0.0
 30
0.0
  9
$PUCSYDIR
 10
0.0
 20
1.0
 30
0.0
  9
$PUCSORTHOREF
  2

  9
$PUCSORTHOVIEW
 70
     0
  9
$PUCSORGTOP
 10
0.0
 20
0.0
 30
0.0
  9
$PUCSORGBOTTOM
 10
0.0
 20
0.0
 30
0.0
  9
$PUCSORGLEFT
 10
0.0
 20
0.0
 30
0.0
  9
$PUCSORGRIGHT
 10
0.0
 20
0.0
 30
0.0
  9
$PUCSORGFRONT
 10
0.0
 20
0.0
 30
0.0
  9
$PUCSORGBACK
 10
0.0
 20
0.0
 30
0.0
  9
$USERI1
 70
     0
  9
$USERI2
 70
     0
  9
$USERI3
 70
     0
  9
$USERI4
 70
     0
  9
$USERI5
 70
     0
  9
$USERR1
 40
0.0
  9
$USERR2
 40
0.0
  9
$USERR3
 40
0.0
  9
$USERR4
 40
0.0
  9
$USERR5
 40
0.0
  9
$WORLDVIEW
 70
     1
  9
$SHADEDGE
 70
     3
  9
$SHADEDIF
 70
    70
  9
$TILEMODE
 70
     1
  9
$MAXACTVP
 70
    48
  9
$PINSBASE
 10
0.0
 20
0.0
 30
0.0
  9
$PLIMCHECK
 70
     0
  9
$PEXTMIN
 10
1.000000000000000E+20
 20
1.000000000000000E+20
 30
1.000000000000000E+20
  9
$PEXTMAX
 10
-1.000000000000000E+20
 20
-1.000000000000000E+20
 30
-1.000000000000000E+20
  9
$PLIMMIN
 10
0.0
 20
0.0
  9
$PLIMMAX
 10
12.0
 20
9.0
  9
$UNITMODE
 70
     0
  9
$VISRETAIN
 70
     0
  9
$PLINEGEN
 70
     0
  9
$PSLTSCALE
 70
     1
  9
$TREEDEPTH
 70
  3020
  9
$CMLSTYLE
  2
Standard
  9
$CMLJUST
 70
     0
  9
$CMLSCALE
 40
1.0
  9
$PROXYGRAPHICS
 70
     1
  9
$MEASUREMENT
 70
     0
  9
$CELWEIGHT
370
    -1
  9
$ENDCAPS
280
     0
  9
$JOINSTYLE
280
     0
  9
$LWDISPLAY
290
     0
  9
$INSUNITS
 70
     0
  9
$HYPERLINKBASE
  1

  9
$STYLESHEET
  1

  9
$XEDIT
290
     1
  9
$CEPSNTYPE
380
     0
  9
$PSTYLEMODE
290
     1
  9
$FINGERPRINTGUID
  2
{CC7D6DEE-A9F1-4F3E-AC95-C84B62CCA3FD}
  9
$VERSIONGUID
  2
{516B5570-4D23-4FCB-B84E-4F775B3E8737}
  9
$EXTNAMES
290
     1
  9
$PSVPSCALE
 40
0.0
  9
$OLESTARTUP
290
     0
  0
ENDSEC
  0
SECTION
  2
CLASSES
  0
CLASS
  1
ACDBDICTIONARYWDFLT
  2
AcDbDictionaryWithDefault
  3
AutoCAD 2000
 90
        0
280
     0
281
     0
  0
CLASS
  1
ACDBPLACEHOLDER
  2
AcDbPlaceHolder
  3
AutoCAD 2000
 90
        0
280
     0
281
     0
  0
CLASS
  1
LAYOUT
  2
AcDbLayout
  3
AutoCAD 2000
 90
        0
280
     0
281
     0
  0
CLASS
  1
DICTIONARYVAR
  2
AcDbDictionaryVar
  3
AutoCAD 2000
 90
        0
280
     0
281
     0
  0
CLASS
  1
LONG_TRANSACTION
  2
AcDbLongTransaction
  3
AutoCAD 2000
 90
    32768
280
     0
281
     0
  0
CLASS
  1
LWPOLYLINE
  2
AcDbPolyline
  3
AutoCAD 2000
 90
    32768
280
     0
281
     1
  0
CLASS
  1
HATCH
  2
AcDbHatch
  3
AutoCAD 2000
 90
    32768
280
     0
281
     1
  0
CLASS
  1
XRECORD
  2
AcDbXrecord
  3
AutoCAD 2000
 90
    32768
280
     0
281
     0
  0
CLASS
  1
LONG_TRANSACTION
  2
AcDbLongTransaction
  3
AutoCAD 2000
 90
    32768
280
     0
281
     0
  0
CLASS
  1
LWPOLYLINE
  2
AcDbPolyline
  3
AutoCAD 2000
 90
    32768
280
     0
281
     1
  0
CLASS
  1
HATCH
  2
AcDbHatch
  3
AutoCAD 2000
 90
    32768
280
     0
281
     1
  0
CLASS
  1
XRECORD
  2
AcDbXrecord
  3
AutoCAD 2000
 90
    32768
280
     0
281
     0
  0
CLASS
  1
LONG_TRANSACTION
  2
AcDbLongTransaction
  3
AutoCAD 2000
 90
    32768
280
     0
281
     0
  0
CLASS
  1
LWPOLYLINE
  2
AcDbPolyline
  3
AutoCAD 2000
 90
    32768
280
     0
281
     1
  0
CLASS
  1
HATCH
  2
AcDbHatch
  3
AutoCAD 2000
 90
    32768
280
     0
281
     1
  0
CLASS
  1
XRECORD
  2
AcDbXrecord
  3
AutoCAD 2000
 90
    32768
280
     0
281
     0
  0
CLASS
  1
LONG_TRANSACTION
  2
AcDbLongTransaction
  3
AutoCAD 2000
 90
    32768
280
     0
281
     0
  0
CLASS
  1
LWPOLYLINE
  2
AcDbPolyline
  3
AutoCAD 2000
 90
    32768
280
     0
281
     1
  0
CLASS
  1
HATCH
  2
AcDbHatch
  3
AutoCAD 2000
 90
    32768
280
     0
281
     1
  0
CLASS
  1
XRECORD
  2
AcDbXrecord
  3
AutoCAD 2000
 90
    32768
280
     0
281
     0
  0
CLASS
  1
LONG_TRANSACTION
  2
AcDbLongTransaction
  3
AutoCAD 2000
 90
    32768
280
     0
281
     0
  0
CLASS
  1
LWPOLYLINE
  2
AcDbPolyline
  3
AutoCAD 2000
 90
    32768
280
     0
281
     1
  0
CLASS
  1
HATCH
  2
AcDbHatch
  3
AutoCAD 2000
 90
    32768
280
     0
281
     1
  0
CLASS
  1
XRECORD
  2
AcDbXrecord
  3
AutoCAD 2000
 90
    32768
280
     0
281
     0
  0
CLASS
  1
LONG_TRANSACTION
  2
AcDbLongTransaction
  3
AutoCAD 2000
 90
    32768
280
     0
281
     0
  0
CLASS
  1
LWPOLYLINE
  2
AcDbPolyline
  3
AutoCAD 2000
 90
    32768
280
     0
281
     1
  0
CLASS
  1
HATCH
  2
AcDbHatch
  3
AutoCAD 2000
 90
    32768
280
     0
281
     1
  0
CLASS
  1
XRECORD
  2
AcDbXrecord
  3
AutoCAD 2000
 90
    32768
280
     0
281
     0
  0
CLASS
  1
LONG_TRANSACTION
  2
AcDbLongTransaction
  3
AutoCAD 2000
 90
    32768
280
     0
281
     0
  0
CLASS
  1
LWPOLYLINE
  2
AcDbPolyline
  3
AutoCAD 2000
 90
    32768
280
     0
281
     1
  0
CLASS
  1
HATCH
  2
AcDbHatch
  3
AutoCAD 2000
 90
    32768
280
     0
281
     1
  0
CLASS
  1
XRECORD
  2
AcDbXrecord
  3
AutoCAD 2000
 90
    32768
280
     0
281
     0
  0
CLASS
  1
LONG_TRANSACTION
  2
AcDbLongTransaction
  3
AutoCAD 2000
 90
    32768
280
     0
281
     0
  0
CLASS
  1
LWPOLYLINE
  2
AcDbPolyline
  3
AutoCAD 2000
 90
    32768
280
     0
281
     1
  0
CLASS
  1
HATCH
  2
AcDbHatch
  3
AutoCAD 2000
 90
    32768
280
     0
281
     1
  0
CLASS
  1
XRECORD
  2
AcDbXrecord
  3
AutoCAD 2000
 90
    32768
280
     0
281
     0
  0
CLASS
  1
LONG_TRANSACTION
  2
AcDbLongTransaction
  3
AutoCAD 2000
 90
    32768
280
     0
281
     0
  0
CLASS
  1
LWPOLYLINE
  2
AcDbPolyline
  3
AutoCAD 2000
 90
    32768
280
     0
281
     1
  0
CLASS
  1
HATCH
  2
AcDbHatch
  3
AutoCAD 2000
 90
    32768
280
     0
281
     1
  0
CLASS
  1
XRECORD
  2
AcDbXrecord
  3
AutoCAD 2000
 90
    32768
280
     0
281
     0
  0
CLASS
  1
LONG_TRANSACTION
  2
AcDbLongTransaction
  3
AutoCAD 2000
 90
    32768
280
     0
281
     0
  0
CLASS
  1
LWPOLYLINE
  2
AcDbPolyline
  3
AutoCAD 2000
 90
    32768
280
     0
281
     1
  0
CLASS
  1
HATCH
  2
AcDbHatch
  3
AutoCAD 2000
 90
    32768
280
     0
281
     1
  0
CLASS
  1
XRECORD
  2
AcDbXrecord
  3
AutoCAD 2000
 90
    32768
280
     0
281
     0
  0
CLASS
  1
LONG_TRANSACTION
  2
AcDbLongTransaction
  3
AutoCAD 2000
 90
    32768
280
     0
281
     0
  0
CLASS
  1
LWPOLYLINE
  2
AcDbPolyline
  3
AutoCAD 2000
 90
    32768
280
     0
281
     1
  0
CLASS
  1
HATCH
  2
AcDbHatch
  3
AutoCAD 2000
 90
    32768
280
     0
281
     1
  0
CLASS
  1
XRECORD
  2
AcDbXrecord
  3
AutoCAD 2000
 90
    32768
280
     0
281
     0
  0
CLASS
  1
LONG_TRANSACTION
  2
AcDbLongTransaction
  3
AutoCAD 2000
 90
    32768
280
     0
281
     0
  0
CLASS
  1
LWPOLYLINE
  2
AcDbPolyline
  3
AutoCAD 2000
 90
    32768
280
     0
281
     1
  0
CLASS
  1
HATCH
  2
AcDbHatch
  3
AutoCAD 2000
 90
    32768
280
     0
281
     1
  0
CLASS
  1
XRECORD
  2
AcDbXrecord
  3
AutoCAD 2000
 90
    32768
280
     0
281
     0
  0
CLASS
  1
LONG_TRANSACTION
  2
AcDbLongTransaction
  3
AutoCAD 2000
 90
    32768
280
     0
281
     0
  0
CLASS
  1
LWPOLYLINE
  2
AcDbPolyline
  3
AutoCAD 2000
 90
    32768
280
     0
281
     1
  0
CLASS
  1
HATCH
  2
AcDbHatch
  3
AutoCAD 2000
 90
    32768
280
     0
281
     1
  0
CLASS
  1
XRECORD
  2
AcDbXrecord
  3
AutoCAD 2000
 90
    32768
280
     0
281
     0
  0
CLASS
  1
LONG_TRANSACTION
  2
AcDbLongTransaction
  3
AutoCAD 2000
 90
    32768
280
     0
281
     0
  0
CLASS
  1
LWPOLYLINE
  2
AcDbPolyline
  3
AutoCAD 2000
 90
    32768
280
     0
281
     1
  0
CLASS
  1
HATCH
  2
AcDbHatch
  3
AutoCAD 2000
 90
    32768
280
     0
281
     1
  0
CLASS
  1
XRECORD
  2
AcDbXrecord
  3
AutoCAD 2000
 90
    32768
280
     0
281
     0
  0
CLASS
  1
LONG_TRANSACTION
  2
AcDbLongTransaction
  3
AutoCAD 2000
 90
    32768
280
     0
281
     0
  0
CLASS
  1
LWPOLYLINE
  2
AcDbPolyline
  3
AutoCAD 2000
 90
    32768
280
     0
281
     1
  0
CLASS
  1
HATCH
  2
AcDbHatch
  3
AutoCAD 2000
 90
    32768
280
     0
281
     1
  0
CLASS
  1
XRECORD
  2
AcDbXrecord
  3
AutoCAD 2000
 90
    32768
280
     0
281
     0
  0
CLASS
  1
LONG_TRANSACTION
  2
AcDbLongTransaction
  3
AutoCAD 2000
 90
    32768
280
     0
281
     0
  0
CLASS
  1
LWPOLYLINE
  2
AcDbPolyline
  3
AutoCAD 2000
 90
    32768
280
     0
281
     1
  0
CLASS
  1
HATCH
  2
AcDbHatch
  3
AutoCAD 2000
 90
    32768
280
     0
281
     1
  0
CLASS
  1
XRECORD
  2
AcDbXrecord
  3
AutoCAD 2000
 90
    32768
280
     0
281
     0
  0
CLASS
  1
LONG_TRANSACTION
  2
AcDbLongTransaction
  3
AutoCAD 2000
 90
    32768
280
     0
281
     0
  0
CLASS
  1
LWPOLYLINE
  2
AcDbPolyline
  3
AutoCAD 2000
 90
    32768
280
     0
281
     1
  0
CLASS
  1
HATCH
  2
AcDbHatch
  3
AutoCAD 2000
 90
    32768
280
     0
281
     1
  0
CLASS
  1
XRECORD
  2
AcDbXrecord
  3
AutoCAD 2000
 90
    32768
280
     0
281
     0
  0
CLASS
  1
LONG_TRANSACTION
  2
AcDbLongTransaction
  3
AutoCAD 2000
 90
    32768
280
     0
281
     0
  0
CLASS
  1
LWPOLYLINE
  2
AcDbPolyline
  3
AutoCAD 2000
 90
    32768
280
     0
281
     1
  0
CLASS
  1
HATCH
  2
AcDbHatch
  3
AutoCAD 2000
 90
    32768
280
     0
281
     1
  0
CLASS
  1
XRECORD
  2
AcDbXrecord
  3
AutoCAD 2000
 90
    32768
280
     0
281
     0
  0
CLASS
  1
LONG_TRANSACTION
  2
AcDbLongTransaction
  3
AutoCAD 2000
 90
    32768
280
     0
281
     0
  0
CLASS
  1
LWPOLYLINE
  2
AcDbPolyline
  3
AutoCAD 2000
 90
    32768
280
     0
281
     1
  0
CLASS
  1
HATCH
  2
AcDbHatch
  3
AutoCAD 2000
 90
    32768
280
     0
281
     1
  0
CLASS
  1
XRECORD
  2
AcDbXrecord
  3
AutoCAD 2000
 90
    32768
280
     0
281
     0
  0
CLASS
  1
LONG_TRANSACTION
  2
AcDbLongTransaction
  3
AutoCAD 2000
 90
    32768
280
     0
281
     0
  0
CLASS
  1
LWPOLYLINE
  2
AcDbPolyline
  3
AutoCAD 2000
 90
    32768
280
     0
281
     1
  0
CLASS
  1
HATCH
  2
AcDbHatch
  3
AutoCAD 2000
 90
    32768
280
     0
281
     1
  0
CLASS
  1
XRECORD
  2
AcDbXrecord
  3
AutoCAD 2000
 90
    32768
280
     0
281
     0
  0
CLASS
  1
LONG_TRANSACTION
  2
AcDbLongTransaction
  3
AutoCAD 2000
 90
    32768
280
     0
281
     0
  0
CLASS
  1
LWPOLYLINE
  2
AcDbPolyline
  3
AutoCAD 2000
 90
    32768
280
     0
281
     1
  0
CLASS
  1
HATCH
  2
AcDbHatch
  3
AutoCAD 2000
 90
    32768
280
     0
281
     1
  0
CLASS
  1
XRECORD
  2
AcDbXrecord
  3
AutoCAD 2000
 90
    32768
280
     0
281
     0
  0
CLASS
  1
LONG_TRANSACTION
  2
AcDbLongTransaction
  3
AutoCAD 2000
 90
    32768
280
     0
281
     0
  0
CLASS
  1
LWPOLYLINE
  2
AcDbPolyline
  3
AutoCAD 2000
 90
    32768
280
     0
281
     1
  0
CLASS
  1
HATCH
  2
AcDbHatch
  3
AutoCAD 2000
 90
    32768
280
     0
281
     1
  0
CLASS
  1
XRECORD
  2
AcDbXrecord
  3
AutoCAD 2000
 90
    32768
280
     0
281
     0
  0
CLASS
  1
LONG_TRANSACTION
  2
AcDbLongTransaction
  3
AutoCAD 2000
 90
    32768
280
     0
281
     0
  0
CLASS
  1
LWPOLYLINE
  2
AcDbPolyline
  3
AutoCAD 2000
 90
    32768
280
     0
281
     1
  0
CLASS
  1
HATCH
  2
AcDbHatch
  3
AutoCAD 2000
 90
    32768
280
     0
281
     1
  0
CLASS
  1
XRECORD
  2
AcDbXrecord
  3
AutoCAD 2000
 90
    32768
280
     0
281
     0
  0
CLASS
  1
LONG_TRANSACTION
  2
AcDbLongTransaction
  3
AutoCAD 2000
 90
    32768
280
     0
281
     0
  0
CLASS
  1
LWPOLYLINE
  2
AcDbPolyline
  3
AutoCAD 2000
 90
    32768
280
     0
281
     1
  0
CLASS
  1
HATCH
  2
AcDbHatch
  3
AutoCAD 2000
 90
    32768
280
     0
281
     1
  0
CLASS
  1
XRECORD
  2
AcDbXrecord
  3
AutoCAD 2000
 90
    32768
280
     0
281
     0
  0
CLASS
  1
LONG_TRANSACTION
  2
AcDbLongTransaction
  3
AutoCAD 2000
 90
    32768
280
     0
281
     0
  0
CLASS
  1
LWPOLYLINE
  2
AcDbPolyline
  3
AutoCAD 2000
 90
    32768
280
     0
281
     1
  0
CLASS
  1
HATCH
  2
AcDbHatch
  3
AutoCAD 2000
 90
    32768
280
     0
281
     1
  0
CLASS
  1
XRECORD
  2
AcDbXrecord
  3
AutoCAD 2000
 90
    32768
280
     0
281
     0
  0
CLASS
  1
LONG_TRANSACTION
  2
AcDbLongTransaction
  3
AutoCAD 2000
 90
    32768
280
     0
281
     0
  0
CLASS
  1
LWPOLYLINE
  2
AcDbPolyline
  3
AutoCAD 2000
 90
    32768
280
     0
281
     1
  0
CLASS
  1
HATCH
  2
AcDbHatch
  3
AutoCAD 2000
 90
    32768
280
     0
281
     1
  0
CLASS
  1
XRECORD
  2
AcDbXrecord
  3
AutoCAD 2000
 90
    32768
280
     0
281
     0
  0
CLASS
  1
LONG_TRANSACTION
  2
AcDbLongTransaction
  3
AutoCAD 2000
 90
    32768
280
     0
281
     0
  0
CLASS
  1
LWPOLYLINE
  2
AcDbPolyline
  3
AutoCAD 2000
 90
    32768
280
     0
281
     1
  0
CLASS
  1
HATCH
  2
AcDbHatch
  3
AutoCAD 2000
 90
    32768
280
     0
281
     1
  0
CLASS
  1
XRECORD
  2
AcDbXrecord
  3
AutoCAD 2000
 90
    32768
280
     0
281
     0
  0
CLASS
  1
LONG_TRANSACTION
  2
AcDbLongTransaction
  3
AutoCAD 2000
 90
    32768
280
     0
281
     0
  0
CLASS
  1
LWPOLYLINE
  2
AcDbPolyline
  3
AutoCAD 2000
 90
    32768
280
     0
281
     1
  0
CLASS
  1
HATCH
  2
AcDbHatch
  3
AutoCAD 2000
 90
    32768
280
     0
281
     1
  0
CLASS
  1
XRECORD
  2
AcDbXrecord
  3
AutoCAD 2000
 90
    32768
280
     0
281
     0
  0
CLASS
  1
LONG_TRANSACTION
  2
AcDbLongTransaction
  3
AutoCAD 2000
 90
    32768
280
     0
281
     0
  0
CLASS
  1
LWPOLYLINE
  2
AcDbPolyline
  3
AutoCAD 2000
 90
    32768
280
     0
281
     1
  0
CLASS
  1
HATCH
  2
AcDbHatch
  3
AutoCAD 2000
 90
    32768
280
     0
281
     1
  0
CLASS
  1
XRECORD
  2
AcDbXrecord
  3
AutoCAD 2000
 90
    32768
280
     0
281
     0
  0
CLASS
  1
LONG_TRANSACTION
  2
AcDbLongTransaction
  3
AutoCAD 2000
 90
    32768
280
     0
281
     0
  0
CLASS
  1
LWPOLYLINE
  2
AcDbPolyline
  3
AutoCAD 2000
 90
    32768
280
     0
281
     1
  0
CLASS
  1
HATCH
  2
AcDbHatch
  3
AutoCAD 2000
 90
    32768
280
     0
281
     1
  0
CLASS
  1
XRECORD
  2
AcDbXrecord
  3
AutoCAD 2000
 90
    32768
280
     0
281
     0
  0
ENDSEC
  0
SECTION
  2
TABLES
  0
TABLE
  2
VPORT
  5
8
330
0
100
AcDbSymbolTable
 70
     3
  0
VPORT
  5
6F67
330
8
100
AcDbSymbolTableRecord
100
AcDbViewportTableRecord
  2
*Active
 70
     0
 10
0.0
 20
0.0
 11
1.0
 21
1.0
 12
365.5549633171817
 22
237.8569572774658
 13
0.0
 23
0.0
 14
1.0
 24
1.0
 15
0.0
 25
0.0
 16
0.0
 26
0.0
 36
1.0
 17
0.0
 27
0.0
 37
0.0
 40
231.763732309418
 41
1.527918781725888
 42
50.0
 43
0.0
 44
0.0
 50
0.0
 51
0.0
 71
     0
 72
   100
 73
     1
 74
     1
 75
     0
 76
     0
 77
     0
 78
     0
281
     0
 65
     1
110
0.0
120
0.0
130
0.0
111
1.0
121
0.0
131
0.0
112
0.0
122
1.0
132
0.0
 79
     0
146
0.0
  0
ENDTAB
  0
TABLE
  2
LTYPE
  5
5
330
0
100
AcDbSymbolTable
 70
    50
  0
LTYPE
  5
13
330
5
100
AcDbSymbolTableRecord
100
AcDbLinetypeTableRecord
  2
ByBlock
 70
     0
  3

 72
    65
 73
     0
 40
0.0
  0
LTYPE
  5
14
330
5
100
AcDbSymbolTableRecord
100
AcDbLinetypeTableRecord
  2
ByLayer
 70
     0
  3

 72
    65
 73
     0
 40
0.0
  0
LTYPE
  5
15
330
5
100
AcDbSymbolTableRecord
100
AcDbLinetypeTableRecord
  2
CONTINUOUS
 70
     0
  3
実線
 72
    65
 73
     0
 40
0.0
  0
LTYPE
  5
22
330
5
100
AcDbSymbolTableRecord
100
AcDbLinetypeTableRecord
  2
DASHED1
 70
     0
  3
--  --  --  --  --  --  --  --  
 72
    65
 73
     2
 40
2.5
 49
1.25
 74
     0
 49
-1.25
 74
     0
  0
LTYPE
  5
23
330
5
100
AcDbSymbolTableRecord
100
AcDbLinetypeTableRecord
  2
DASHED2
 70
     0
  3
----    ----    ----    ----    
 72
    65
 73
     2
 40
5.0
 49
2.5
 74
     0
 49
-2.5
 74
     0
  0
LTYPE
  5
24
330
5
100
AcDbSymbolTableRecord
100
AcDbLinetypeTableRecord
  2
DASHED3
 70
     0
  3
------  ------  ------  ------  
 72
    65
 73
     2
 40
5.0
 49
3.75
 74
     0
 49
-1.25
 74
     0
  0
LTYPE
  5
25
330
5
100
AcDbSymbolTableRecord
100
AcDbLinetypeTableRecord
  2
CENTER1
 70
     0
  3
----- - ----- - ----- - ----- - 
 72
    65
 73
     4
 40
10.0
 49
6.25
 74
     0
 49
-1.25
 74
     0
 49
1.25
 74
     0
 49
-1.25
 74
     0
  0
LTYPE
  5
26
330
5
100
AcDbSymbolTableRecord
100
AcDbLinetypeTableRecord
  2
CENTER2
 70
     0
  3
----------  --  ----------  --  
 72
    65
 73
     4
 40
20.0
 49
12.5
 74
     0
 49
-2.5
 74
     0
 49
2.5
 74
     0
 49
-2.5
 74
     0
  0
LTYPE
  5
27
330
5
100
AcDbSymbolTableRecord
100
AcDbLinetypeTableRecord
  2
PHANTOM1
 70
     0
  3
--- - - --- - - --- - - --- - - 
 72
    65
 73
     6
 40
10.0
 49
3.25
 74
     0
 49
-1.25
 74
     0
 49
1.25
 74
     0
 49
-1.25
 74
     0
 49
1.25
 74
     0
 49
-1.25
 74
     0
  0
LTYPE
  5
28
330
5
100
AcDbSymbolTableRecord
100
AcDbLinetypeTableRecord
  2
PHANTOM2
 70
     0
  3
--------  -  -  --------  -  -  
 72
    65
 73
     6
 40
20.0
 49
10.0
 74
     0
 49
-2.5
 74
     0
 49
1.25
 74
     0
 49
-2.5
 74
     0
 49
1.25
 74
     0
 49
-2.5
 74
     0
  0
LTYPE
  5
29
330
5
100
AcDbSymbolTableRecord
100
AcDbLinetypeTableRecord
  2
DOT
 70
     0
  3
-   -   -   -   -   -   -   -   
 72
    65
 73
     2
 40
2.5
 49
0.625
 74
     0
 49
-1.875
 74
     0
  0
LTYPE
  5
2A
330
5
100
AcDbSymbolTableRecord
100
AcDbLinetypeTableRecord
  2
DUMMY
 70
     0
  3
ダミー
 72
    65
 73
     0
 40
0.0
  0
LTYPE
  5
2B
330
5
100
AcDbSymbolTableRecord
100
AcDbLinetypeTableRecord
  2
RAND1
 70
     0
  3
ランダム線1
 72
    65
 73
     4
 40
10.0
 49
1.0
 74
     0
 49
-2.0
 74
     0
 49
3.0
 74
     0
 49
-4.0
 74
     0
  0
LTYPE
  5
2C
330
5
100
AcDbSymbolTableRecord
100
AcDbLinetypeTableRecord
  2
RAND2
 70
     0
  3
ランダム線2
 72
    65
 73
     4
 40
14.0
 49
2.0
 74
     0
 49
-3.0
 74
     0
 49
4.0
 74
     0
 49
-5.0
 74
     0
  0
LTYPE
  5
2D
330
5
100
AcDbSymbolTableRecord
100
AcDbLinetypeTableRecord
  2
RAND3
 70
     0
  3
ランダム線3
 72
    65
 73
     4
 40
18.0
 49
3.0
 74
     0
 49
-4.0
 74
     0
 49
5.0
 74
     0
 49
-6.0
 74
     0
  0
LTYPE
  5
2E
330
5
100
AcDbSymbolTableRecord
100
AcDbLinetypeTableRecord
  2
RAND4
 70
     0
  3
ランダム線4
 72
    65
 73
     4
 40
22.0
 49
4.0
 74
     0
 49
-5.0
 74
     0
 49
6.0
 74
     0
 49
-7.0
 74
     0
  0
LTYPE
  5
2F
330
5
100
AcDbSymbolTableRecord
100
AcDbLinetypeTableRecord
  2
RAND5
 70
     0
  3
ランダム線5
 72
    65
 73
     4
 40
26.0
 49
5.0
 74
     0
 49
-6.0
 74
     0
 49
7.0
 74
     0
 49
-8.0
 74
     0
  0
LTYPE
  5
30
330
5
100
AcDbSymbolTableRecord
100
AcDbLinetypeTableRecord
  2
LONG1
 70
     0
  3
----------  --  ----------  --  
 72
    65
 73
     4
 40
40.0
 49
32.5
 74
     0
 49
-2.5
 74
     0
 49
2.5
 74
     0
 49
-2.5
 74
     0
  0
LTYPE
  5
31
330
5
100
AcDbSymbolTableRecord
100
AcDbLinetypeTableRecord
  2
LONG2
 70
     0
  3
--------  -  -  --------  -  -  
 72
    65
 73
     6
 40
40.0
 49
30.0
 74
     0
 49
-2.5
 74
     0
 49
1.25
 74
     0
 49
-2.5
 74
     0
 49
1.25
 74
     0
 49
-2.5
 74
     0
  0
LTYPE
  5
32
330
5
100
AcDbSymbolTableRecord
100
AcDbLinetypeTableRecord
  2
LONG3
 70
     0
  3
+++++++++++++++..+++++++++++++++
 72
    65
 73
     2
 40
40.0
 49
37.5
 74
     0
 49
-2.5
 74
     0
  0
LTYPE
  5
33
330
5
100
AcDbSymbolTableRecord
100
AcDbLinetypeTableRecord
  2
LONG4
 70
     0
  3
+++++++++++++++..+++++++++++++++
 72
    65
 73
     2
 40
80.0
 49
75.0
 74
     0
 49
-5.0
 74
     0
  0
LTYPE
  5
34
330
5
100
AcDbSymbolTableRecord
100
AcDbLinetypeTableRecord
  2
LONG5
 70
     0
  3
----------  --  ----------  --  
 72
    65
 73
     4
 40
60.0
 49
37.5
 74
     0
 49
-7.5
 74
     0
 49
7.5
 74
     0
 49
-7.5
 74
     0
  0
LTYPE
  5
35
330
5
100
AcDbSymbolTableRecord
100
AcDbLinetypeTableRecord
  2
DASHED
 70
     0
  3
-------   -------------   ------
 72
    65
 73
     2
 40
7.5
 49
6.0
 74
     0
 49
-1.5
 74
     0
  0
LTYPE
  5
36
330
5
100
AcDbSymbolTableRecord
100
AcDbLinetypeTableRecord
  2
DASHED_SPACED
 70
     0
  3
----        --------        ----
 72
    65
 73
     2
 40
12.0
 49
6.0
 74
     0
 49
-6.0
 74
     0
  0
LTYPE
  5
37
330
5
100
AcDbSymbolTableRecord
100
AcDbLinetypeTableRecord
  2
LONG_DASHED_DOTTED
 70
     0
  3
------------- --- --------------
 72
    65
 73
     4
 40
15.25
 49
12.0
 74
     0
 49
-1.5
 74
     0
 49
0.25
 74
     0
 49
-1.5
 74
     0
  0
LTYPE
  5
38
330
5
100
AcDbSymbolTableRecord
100
AcDbLinetypeTableRecord
  2
LONG_DASHED_DOUBLE-DOTTED
 70
     0
  3
----------- --- --- ------------
 72
    65
 73
     6
 40
17.0
 49
12.0
 74
     0
 49
-1.5
 74
     0
 49
0.25
 74
     0
 49
-1.5
 74
     0
 49
0.25
 74
     0
 49
-1.5
 74
     0
  0
LTYPE
  5
39
330
5
100
AcDbSymbolTableRecord
100
AcDbLinetypeTableRecord
  2
LONG_DASHED_TRIPLICATE-DOTTED
 70
     0
  3
--------- --- --- --- ----------
 72
    65
 73
     8
 40
18.75
 49
12.0
 74
     0
 49
-1.5
 74
     0
 49
0.25
 74
     0
 49
-1.5
 74
     0
 49
0.25
 74
     0
 49
-1.5
 74
     0
 49
0.25
 74
     0
 49
-1.5
 74
     0
  0
LTYPE
  5
3A
330
5
100
AcDbSymbolTableRecord
100
AcDbLinetypeTableRecord
  2
DOTTED
 70
     0
  3
   -       -       -       -    
 72
    65
 73
     2
 40
1.75
 49
0.25
 74
     0
 49
-1.5
 74
     0
  0
LTYPE
  5
3B
330
5
100
AcDbSymbolTableRecord
100
AcDbLinetypeTableRecord
  2
CHAIN
 70
     0
  3
-------------- -- --------------
 72
    65
 73
     4
 40
18.5
 49
12.0
 74
     0
 49
-1.5
 74
     0
 49
3.5
 74
     0
 49
-1.5
 74
     0
  0
LTYPE
  5
3C
330
5
100
AcDbSymbolTableRecord
100
AcDbLinetypeTableRecord
  2
CHAIN_DOUBLE_DASH
 70
     0
  3
------------ -- -- -------------
 72
    65
 73
     6
 40
23.5
 49
12.0
 74
     0
 49
-1.5
 74
     0
 49
3.5
 74
     0
 49
-1.5
 74
     0
 49
3.5
 74
     0
 49
-1.5
 74
     0
  0
LTYPE
  5
3D
330
5
100
AcDbSymbolTableRecord
100
AcDbLinetypeTableRecord
  2
DASHED_DOTTED
 70
     0
  3
-----------     -     ----------
 72
    65
 73
     4
 40
9.25
 49
6.0
 74
     0
 49
-1.5
 74
     0
 49
0.25
 74
     0
 49
-1.5
 74
     0
  0
LTYPE
  5
3E
330
5
100
AcDbSymbolTableRecord
100
AcDbLinetypeTableRecord
  2
DOUBLE-DASHED_DOTTED
 70
     0
  3
------   -----------   -   -----
 72
    65
 73
     6
 40
16.75
 49
6.0
 74
     0
 49
-1.5
 74
     0
 49
6.0
 74
     0
 49
-1.5
 74
     0
 49
0.25
 74
     0
 49
-1.5
 74
     0
  0
LTYPE
  5
3F
330
5
100
AcDbSymbolTableRecord
100
AcDbLinetypeTableRecord
  2
DASHED_DOUBLE-DOTTED
 70
     0
  3
---------    -    -    ---------
 72
    65
 73
     6
 40
11.0
 49
6.0
 74
     0
 49
-1.5
 74
     0
 49
0.25
 74
     0
 49
-1.5
 74
     0
 49
0.25
 74
     0
 49
-1.5
 74
     0
  0
LTYPE
  5
40
330
5
100
AcDbSymbolTableRecord
100
AcDbLinetypeTableRecord
  2
DOUBLE-DASHED_DOUBLE-DOTTED
 70
     0
  3
-----   ---------   -   -   ----
 72
    65
 73
     8
 40
18.5
 49
6.0
 74
     0
 49
-1.5
 74
     0
 49
6.0
 74
     0
 49
-1.5
 74
     0
 49
0.25
 74
     0
 49
-1.5
 74
     0
 49
0.25
 74
     0
 49
-1.5
 74
     0
  0
LTYPE
  5
41
330
5
100
AcDbSymbolTableRecord
100
AcDbLinetypeTableRecord
  2
DASHED_TRIPLICATE-DOTTED
 70
     0
  3
-------    -    -    -    ------
 72
    65
 73
     8
 40
12.75
 49
6.0
 74
     0
 49
-1.5
 74
     0
 49
0.25
 74
     0
 49
-1.5
 74
     0
 49
0.25
 74
     0
 49
-1.5
 74
     0
 49
0.25
 74
     0
 49
-1.5
 74
     0
  0
LTYPE
  5
42
330
5
100
AcDbSymbolTableRecord
100
AcDbLinetypeTableRecord
  2
DOUBLE-DASHED_TRIPLICATE-DOTTED
 70
     0
  3
-----  ---------  -  -  -  -----
 72
    65
 73
    10
 40
20.24999999999999
 49
6.0
 74
     0
 49
-1.5
 74
     0
 49
6.0
 74
     0
 49
-1.5
 74
     0
 49
0.25
 74
     0
 49
-1.5
 74
     0
 49
0.25
 74
     0
 49
-1.5
 74
     0
 49
0.25
 74
     0
 49
-1.5
 74
     0
  0
LTYPE
  5
43
330
5
100
AcDbSymbolTableRecord
100
AcDbLinetypeTableRecord
  2
UNDEFINED
 70
     0
  3
--------------------------------
 72
    65
 73
     0
 40
0.0
  0
LTYPE
  5
44
330
5
100
AcDbSymbolTableRecord
100
AcDbLinetypeTableRecord
  2
PLINE2
 70
     0
  3
------     -----------     -----
 72
    65
 73
     2
 40
3.0
 49
2.1
 74
     0
 49
-0.9
 74
     0
  0
LTYPE
  5
45
330
5
100
AcDbSymbolTableRecord
100
AcDbLinetypeTableRecord
  2
PLINE3
 70
     0
  3
------------   ---   -----------
 72
    65
 73
     4
 40
10.0
 49
7.0
 74
     0
 49
-1.0
 74
     0
 49
1.0
 74
     0
 49
-1.0
 74
     0
  0
LTYPE
  5
46
330
5
100
AcDbSymbolTableRecord
100
AcDbLinetypeTableRecord
  2
PLINE4
 70
     0
  3
---------   ---   ---   --------
 72
    65
 73
     6
 40
10.0
 49
5.0
 74
     0
 49
-1.0
 74
     0
 49
1.0
 74
     0
 49
-1.0
 74
     0
 49
1.0
 74
     0
 49
-1.0
 74
     0
  0
LTYPE
  5
47
330
5
100
AcDbSymbolTableRecord
100
AcDbLinetypeTableRecord
  2
PLINE5
 70
     0
  3
------     -----------     -----
 72
    65
 73
     2
 40
5.0
 49
3.5
 74
     0
 49
-1.5
 74
     0
  0
LTYPE
  5
48
330
5
100
AcDbSymbolTableRecord
100
AcDbLinetypeTableRecord
  2
PLINE6
 70
     0
  3
------------   ---   -----------
 72
    65
 73
     4
 40
15.0
 49
10.5
 74
     0
 49
-1.5
 74
     0
 49
1.5
 74
     0
 49
-1.5
 74
     0
  0
LTYPE
  5
49
330
5
100
AcDbSymbolTableRecord
100
AcDbLinetypeTableRecord
  2
PLINE7
 70
     0
  3
---------   ---   ---   --------
 72
    65
 73
     6
 40
15.0
 49
7.5
 74
     0
 49
-1.5
 74
     0
 49
1.5
 74
     0
 49
-1.5
 74
     0
 49
1.5
 74
     0
 49
-1.5
 74
     0
  0
LTYPE
  5
4A
330
5
100
AcDbSymbolTableRecord
100
AcDbLinetypeTableRecord
  2
PLINE8
 70
     0
  3
------     -----------     -----
 72
    65
 73
     2
 40
7.0
 49
4.9
 74
     0
 49
-2.1
 74
     0
  0
LTYPE
  5
4B
330
5
100
AcDbSymbolTableRecord
100
AcDbLinetypeTableRecord
  2
PLINE9
 70
     0
  3
------------   ---   -----------
 72
    65
 73
     4
 40
20.0
 49
14.0
 74
     0
 49
-2.0
 74
     0
 49
2.0
 74
     0
 49
-2.0
 74
     0
  0
LTYPE
  5
4C
330
5
100
AcDbSymbolTableRecord
100
AcDbLinetypeTableRecord
  2
PLINE10
 70
     0
  3
---------   ---   ---   --------
 72
    65
 73
     6
 40
20.0
 49
10.0
 74
     0
 49
-2.0
 74
     0
 49
2.0
 74
     0
 49
-2.0
 74
     0
 49
2.0
 74
     0
 49
-2.0
 74
     0
  0
LTYPE
  5
4D
330
5
100
AcDbSymbolTableRecord
100
AcDbLinetypeTableRecord
  2
PLINE11
 70
     0
  3
------     -----------     -----
 72
    65
 73
     2
 40
9.0
 49
6.299999999999999
 74
     0
 49
-2.7
 74
     0
  0
LTYPE
  5
4E
330
5
100
AcDbSymbolTableRecord
100
AcDbLinetypeTableRecord
  2
PLINE12
 70
     0
  3
------------   ---   -----------
 72
    65
 73
     4
 40
25.0
 49
17.5
 74
     0
 49
-2.5
 74
     0
 49
2.5
 74
     0
 49
-2.5
 74
     0
  0
LTYPE
  5
4F
330
5
100
AcDbSymbolTableRecord
100
AcDbLinetypeTableRecord
  2
PLINE13
 70
     0
  3
---------   ---   ---   --------
 72
    65
 73
     6
 40
25.0
 49
12.5
 74
     0
 49
-2.5
 74
     0
 49
2.5
 74
     0
 49
-2.5
 74
     0
 49
2.5
 74
     0
 49
-2.5
 74
     0
  0
LTYPE
  5
50
330
5
100
AcDbSymbolTableRecord
100
AcDbLinetypeTableRecord
  2
PLINE14
 70
     0
  3
------     -----------     -----
 72
    65
 73
     2
 40
11.0
 49
7.7
 74
     0
 49
-3.299999999999999
 74
     0
  0
LTYPE
  5
51
330
5
100
AcDbSymbolTableRecord
100
AcDbLinetypeTableRecord
  2
PLINE15
 70
     0
  3
------------   ---   -----------
 72
    65
 73
     4
 40
30.0
 49
21.0
 74
     0
 49
-3.0
 74
     0
 49
3.0
 74
     0
 49
-3.0
 74
     0
  0
LTYPE
  5
52
330
5
100
AcDbSymbolTableRecord
100
AcDbLinetypeTableRecord
  2
PLINE16
 70
     0
  3
---------   ---   ---   --------
 72
    65
 73
     6
 40
30.0
 49
15.0
 74
     0
 49
-3.0
 74
     0
 49
3.0
 74
     0
 49
-3.0
 74
     0
 49
3.0
 74
     0
 49
-3.0
 74
     0
  0
ENDTAB
  0
TABLE
  2
LAYER
  5
2
102
{ACAD_XDICTIONARY
360
175
102
}
330
0
100
AcDbSymbolTable
 70
     5
  0
LAYER
  5
10
330
2
100
AcDbSymbolTableRecord
100
AcDbLayerTableRecord
  2
0
 70
     0
 62
     7
  6
CONTINUOUS
370
    -3
390
F
  0
LAYER
  5
128
330
2
100
AcDbSymbolTableRecord
100
AcDbLayerTableRecord
  2
Defpoints
 70
     0
 62
     7
  6
CONTINUOUS
290
     0
370
    -3
390
F
  0
LAYER
  5
179
330
2
100
AcDbSymbolTableRecord
100
AcDbLayerTableRecord
  2
製品
 70
     0
 62
     7
  6
CONTINUOUS
370
    -3
390
F
  0
LAYER
  5
6B7F
330
2
100
AcDbSymbolTableRecord
100
AcDbLayerTableRecord
  2
寸法
 70
     0
 62
     7
  6
CONTINUOUS
370
    -3
390
F
  0
LAYER
  5
6B80
330
2
100
AcDbSymbolTableRecord
100
AcDbLayerTableRecord
  2
図面枠
 70
     0
 62
     7
  6
CONTINUOUS
370
    -3
390
F
  0
ENDTAB
  0
TABLE
  2
STYLE
  5
3
330
0
100
AcDbSymbolTable
 70
     4
  0
STYLE
  5
11
330
3
100
AcDbSymbolTableRecord
100
AcDbTextStyleTableRecord
  2
STANDARD
 70
     0
 40
0.0
 41
1.0
 50
0.0
 71
     0
 42
0.2
  3
txt
  4
bigfont.shx
  0
STYLE
  5
53
330
3
100
AcDbSymbolTableRecord
100
AcDbTextStyleTableRecord
  2
TATEGAKI
 70
     4
 40
0.0
 41
1.0
 50
0.0
 71
     0
 42
1.0
  3
txt
  4
bigfont.shx
  0
STYLE
  5
123
330
3
100
AcDbSymbolTableRecord
100
AcDbTextStyleTableRecord
  2
ACAD
 70
     0
 40
5.0
 41
0.8
 50
0.0
 71
     0
 42
5.0
  3
romans.shx
  4
extfont.shx
  0
STYLE
  5
3A5F
330
3
100
AcDbSymbolTableRecord
100
AcDbTextStyleTableRecord
  2
VERTXT
 70
     4
 40
0.0
 41
0.8582679999999999
 50
0.0
 71
     0
 42
3.5
  3
txt.shx
  4
BIGFONT
  0
ENDTAB
  0
TABLE
  2
VIEW
  5
6
330
0
100
AcDbSymbolTable
 70
     0
  0
ENDTAB
  0
TABLE
  2
UCS
  5
7
330
0
100
AcDbSymbolTable
 70
     0
  0
ENDTAB
  0
TABLE
  2
APPID
  5
9
330
0
100
AcDbSymbolTable
 70
     1
  0
APPID
  5
12
330
9
100
AcDbSymbolTableRecord
100
AcDbRegAppTableRecord
  2
ACAD
 70
     0
  0
ENDTAB
  0
TABLE
  2
DIMSTYLE
  5
A
330
0
100
AcDbSymbolTable
 70
     3
100
AcDbDimStyleTable
 71
     0
  0
DIMSTYLE
105
11C
330
A
100
AcDbSymbolTableRecord
100
AcDbDimStyleTableRecord
  2
Standard
 70
     0
340
11
  0
DIMSTYLE
105
126
102
{ACAD_REACTORS
330
6E54
330
6E55
330
6E77
330
6E78
330
6DB2
102
}
330
A
100
AcDbSymbolTableRecord
100
AcDbDimStyleTableRecord
  2
AutoCAD
 70
     0
 41
1.0
 42
0.0
 44
0.0
 73
     0
 77
     1
140
5.0
147
1.0
174
     1
176
     4
177
     4
178
     3
271
     0
272
     0
289
     0
340
123
341
15B0
342
11E
  0
DIMSTYLE
105
2CBB
330
A
100
AcDbSymbolTableRecord
100
AcDbDimStyleTableRecord
  2
111
 70
     0
 41
1.0
 42
0.0
 44
0.0
 73
     0
 77
     1
140
5.0
147
1.0
174
     1
176
     4
177
     4
178
     3
271
     0
272
     0
289
     0
340
123
341
15B0
342
2CB5
  0
ENDTAB
  0
TABLE
  2
BLOCK_RECORD
  5
1
330
0
100
AcDbSymbolTable
 70
    15
  0
BLOCK_RECORD
  5
1E
102
{ACAD_XDICTIONARY
360
28B
102
}
330
1
100
AcDbSymbolTableRecord
100
AcDbBlockTableRecord
  2
*Model_Space
340
21
  0
BLOCK_RECORD
  5
1A
102
{ACAD_XDICTIONARY
360
28D
102
}
330
1
100
AcDbSymbolTableRecord
100
AcDbBlockTableRecord
  2
*Paper_Space
340
1D
  0
BLOCK_RECORD
  5
11E
330
1
100
AcDbSymbolTableRecord
100
AcDbBlockTableRecord
  2
_Dot
340
0
102
{BLKREFS
331
6B63
331
6B64
331
6B77
331
6B78
331
6B6D
331
6B6E
331
6B57
331
6B58
331
6B4D
331
6B4E
331
6EC5
331
6EC6
331
6ECF
331
6ED0
331
6ED9
331
6EDA
331
6EE3
331
6EE4
331
6EEF
331
6EF0
331
6EF8
331
6EF9
331
6EFF
331
6F00
331
6F06
331
6F07
331
6F0D
331
6F0E
331
6F16
331
6F17
102
}
  0
BLOCK_RECORD
  5
15B0
330
1
100
AcDbSymbolTableRecord
100
AcDbBlockTableRecord
  2
_None
340
0
  0
BLOCK_RECORD
  5
2CB5
330
1
100
AcDbSymbolTableRecord
100
AcDbBlockTableRecord
  2
_Open30
340
0
  0
BLOCK_RECORD
  5
35E3
330
1
100
AcDbSymbolTableRecord
100
AcDbBlockTableRecord
  2
_DotBlank
340
0
  0
BLOCK_RECORD
  5
6B4B
330
1
100
AcDbSymbolTableRecord
100
AcDbBlockTableRecord
  2
*D4
340
0
  0
BLOCK_RECORD
  5
6B55
330
1
100
AcDbSymbolTableRecord
100
AcDbBlockTableRecord
  2
*D5
340
0
  0
BLOCK_RECORD
  5
6B5F
330
1
100
AcDbSymbolTableRecord
100
AcDbBlockTableRecord
  2
*D6
340
0
  0
BLOCK_RECORD
  5
6B6B
330
1
100
AcDbSymbolTableRecord
100
AcDbBlockTableRecord
  2
*D7
340
0
  0
BLOCK_RECORD
  5
6B75
330
1
100
AcDbSymbolTableRecord
100
AcDbBlockTableRecord
  2
*D8
340
0
  0
BLOCK_RECORD
  5
6EC3
330
1
100
AcDbSymbolTableRecord
100
AcDbBlockTableRecord
  2
*D10
340
0
  0
BLOCK_RECORD
  5
6ECD
330
1
100
AcDbSymbolTableRecord
100
AcDbBlockTableRecord
  2
*D11
340
0
  0
BLOCK_RECORD
  5
6ED7
330
1
100
AcDbSymbolTableRecord
100
AcDbBlockTableRecord
  2
*D12
340
0
  0
BLOCK_RECORD
  5
6EE1
330
1
100
AcDbSymbolTableRecord
100
AcDbBlockTableRecord
  2
*D13
340
0
  0
BLOCK_RECORD
  5
6EEB
330
1
100
AcDbSymbolTableRecord
100
AcDbBlockTableRecord
  2
*D14
340
0
  0
ENDTAB
  0
ENDSEC
  0
SECTION
  2
BLOCKS
  0
BLOCK
  5
1F
330
1E
100
AcDbEntity
  8
0
100
AcDbBlockBegin
  2
*Model_Space
 70
     0
 10
0.0
 20
0.0
 30
0.0
  3
*Model_Space
  1

  0
ENDBLK
  5
20
330
1E
100
AcDbEntity
  8
0
100
AcDbBlockEnd
  0
BLOCK
  5
1B
330
1A
100
AcDbEntity
 67
     1
  8
0
100
AcDbBlockBegin
  2
*Paper_Space
 70
     0
 10
0.0
 20
0.0
 30
0.0
  3
*Paper_Space
  1

  0
ENDBLK
  5
1C
330
1A
100
AcDbEntity
 67
     1
  8
0
100
AcDbBlockEnd
  0
BLOCK
  5
121
330
11E
100
AcDbEntity
  8
0
100
AcDbBlockBegin
  2
_Dot
 70
     0
 10
0.0
 20
0.0
 30
0.0
  3
_Dot
  1

  0
LWPOLYLINE
  5
11F
330
11E
100
AcDbEntity
  8
0
  6
ByBlock
 62
     0
100
AcDbPolyline
 90
        2
 70
     1
 43
0.5
 10
-0.25
 20
0.0
 42
1.0
 10
0.25
 20
0.0
 42
1.0
  0
LINE
  5
120
330
11E
100
AcDbEntity
  8
0
  6
ByBlock
 62
     0
370
    -2
100
AcDbLine
 10
-0.5
 20
0.0
 30
0.0
 11
-1.0
 21
0.0
 31
0.0
  0
ENDBLK
  5
122
330
11E
100
AcDbEntity
  8
0
100
AcDbBlockEnd
  0
BLOCK
  5
15B1
330
15B0
100
AcDbEntity
  8
0
100
AcDbBlockBegin
  2
_None
 70
     0
 10
0.0
 20
0.0
 30
0.0
  3
_None
  1

  0
ENDBLK
  5
15B2
330
15B0
100
AcDbEntity
  8
0
100
AcDbBlockEnd
  0
BLOCK
  5
2CB9
330
2CB5
100
AcDbEntity
  8
0
100
AcDbBlockBegin
  2
_Open30
 70
     0
 10
0.0
 20
0.0
 30
0.0
  3
_Open30
  1

  0
LINE
  5
2CB6
330
2CB5
100
AcDbEntity
  8
0
  6
ByBlock
 62
     0
370
    -2
100
AcDbLine
 10
-1.0
 20
0.26794919
 30
0.0
 11
0.0
 21
0.0
 31
0.0
  0
LINE
  5
2CB7
330
2CB5
100
AcDbEntity
  8
0
  6
ByBlock
 62
     0
370
    -2
100
AcDbLine
 10
0.0
 20
0.0
 30
0.0
 11
-1.0
 21
-0.26794919
 31
0.0
  0
LINE
  5
2CB8
330
2CB5
100
AcDbEntity
  8
0
  6
ByBlock
 62
     0
370
    -2
100
AcDbLine
 10
0.0
 20
0.0
 30
0.0
 11
-1.0
 21
0.0
 31
0.0
  0
ENDBLK
  5
2CBA
330
2CB5
100
AcDbEntity
  8
0
100
AcDbBlockEnd
  0
BLOCK
  5
35E6
330
35E3
100
AcDbEntity
  8
0
100
AcDbBlockBegin
  2
_DotBlank
 70
     0
 10
0.0
 20
0.0
 30
0.0
  3
_DotBlank
  1

  0
CIRCLE
  5
35E4
330
35E3
100
AcDbEntity
  8
0
  6
ByBlock
 62
     0
370
    -2
100
AcDbCircle
 10
0.0
 20
0.0
 30
0.0
 40
0.5
  0
LINE
  5
35E5
330
35E3
100
AcDbEntity
  8
0
  6
ByBlock
 62
     0
370
    -2
100
AcDbLine
 10
-0.5
 20
0.0
 30
0.0
 11
-1.0
 21
0.0
 31
0.0
  0
ENDBLK
  5
35E7
330
35E3
100
AcDbEntity
  8
0
100
AcDbBlockEnd
  0
BLOCK
  5
6B53
330
6B4B
100
AcDbEntity
  8
0
100
AcDbBlockBegin
  2
*D4
 70
     1
 10
0.0
 20
0.0
 30
0.0
  3
*D4
  1

  0
LINE
  5
6B4C
330
6B4B
100
AcDbEntity
  8
寸法
  6
Continuous
 62
     4
370
    -2
100
AcDbLine
 10
-2957.897432774325
 20
-3255.697729654974
 30
0.0
 11
-2957.897432774325
 21
-3291.697729654973
 31
0.0
  0
INSERT
  5
6B4D
330
6B4B
100
AcDbEntity
  8
寸法
  6
Continuous
 62
     4
370
    -2
100
AcDbBlockReference
  2
_Dot
 10
-2957.897432774325
 20
-3254.697729654974
 30
0.0
 50
90.0
  0
INSERT
  5
6B4E
330
6B4B
100
AcDbEntity
  8
寸法
  6
Continuous
 62
     4
370
    -2
100
AcDbBlockReference
  2
_Dot
 10
-2957.897432774325
 20
-3292.697729654973
 30
0.0
 50
270.0
  0
MTEXT
  5
6B4F
330
6B4B
100
AcDbEntity
  8
寸法
  6
Continuous
 62
     3
100
AcDbMText
 10
-2961.197432774325
 20
-3273.697729654974
 30
0.0
 40
5.0
 41
0.0
 71
     5
 72
     1
  1
\A1;38
  7
ACAD
 11
0.0000000000000001
 21
1.0
 31
0.0
 73
     1
 44
1.0
  0
POINT
  5
6B50
330
6B4B
100
AcDbEntity
  8
Defpoints
  6
Continuous
 62
     0
100
AcDbPoint
 10
-2957.897432774325
 20
-3254.697729654974
 30
0.0
  0
POINT
  5
6B51
330
6B4B
100
AcDbEntity
  8
Defpoints
  6
Continuous
 62
     0
100
AcDbPoint
 10
-2957.897432774325
 20
-3292.697729654973
 30
0.0
  0
POINT
  5
6B52
330
6B4B
100
AcDbEntity
  8
Defpoints
  6
Continuous
 62
     0
100
AcDbPoint
 10
-2957.897432774325
 20
-3292.697729654973
 30
0.0
  0
ENDBLK
  5
6B54
330
6B4B
100
AcDbEntity
  8
0
100
AcDbBlockEnd
  0
BLOCK
  5
6B5D
330
6B55
100
AcDbEntity
  8
0
100
AcDbBlockBegin
  2
*D5
 70
     1
 10
0.0
 20
0.0
 30
0.0
  3
*D5
  1

  0
LINE
  5
6B56
330
6B55
100
AcDbEntity
  8
寸法
  6
Continuous
 62
     4
370
    -2
100
AcDbLine
 10
-2957.897432774325
 20
-3293.697729654974
 30
0.0
 11
-2957.897432774325
 21
-3316.697729654974
 31
0.0
  0
INSERT
  5
6B57
330
6B55
100
AcDbEntity
  8
寸法
  6
Continuous
 62
     4
370
    -2
100
AcDbBlockReference
  2
_Dot
 10
-2957.897432774325
 20
-3292.697729654973
 30
0.0
 50
90.0
  0
INSERT
  5
6B58
330
6B55
100
AcDbEntity
  8
寸法
  6
Continuous
 62
     4
370
    -2
100
AcDbBlockReference
  2
_Dot
 10
-2957.897432774325
 20
-3317.697729654973
 30
0.0
 50
270.0
  0
MTEXT
  5
6B59
330
6B55
100
AcDbEntity
  8
寸法
  6
Continuous
 62
     3
100
AcDbMText
 10
-2961.197432774325
 20
-3305.197729654974
 30
0.0
 40
5.0
 41
0.0
 71
     5
 72
     1
  1
\A1;25
  7
ACAD
 11
0.0000000000000001
 21
1.0
 31
0.0
 73
     1
 44
1.0
  0
POINT
  5
6B5A
330
6B55
100
AcDbEntity
  8
Defpoints
  6
Continuous
 62
     0
100
AcDbPoint
 10
-2957.897432774325
 20
-3292.697729654973
 30
0.0
  0
POINT
  5
6B5B
330
6B55
100
AcDbEntity
  8
Defpoints
  6
Continuous
 62
     0
100
AcDbPoint
 10
-2957.897432774325
 20
-3317.697729654973
 30
0.0
  0
POINT
  5
6B5C
330
6B55
100
AcDbEntity
  8
Defpoints
  6
Continuous
 62
     0
100
AcDbPoint
 10
-2957.897432774325
 20
-3317.697729654973
 30
0.0
  0
ENDBLK
  5
6B5E
330
6B55
100
AcDbEntity
  8
0
100
AcDbBlockEnd
  0
BLOCK
  5
6B69
330
6B5F
100
AcDbEntity
  8
0
100
AcDbBlockBegin
  2
*D6
 70
     1
 10
0.0
 20
0.0
 30
0.0
  3
*D6
  1

  0
LINE
  5
6B60
330
6B5F
100
AcDbEntity
  8
寸法
  6
Continuous
 62
     4
370
    -2
100
AcDbLine
 10
-3045.330055774325
 20
-3316.643570654973
 30
0.0
 11
-3045.330055774325
 21
-3327.678047654973
 31
0.0
  0
LINE
  5
6B61
330
6B5F
100
AcDbEntity
  8
寸法
  6
Continuous
 62
     4
370
    -2
100
AcDbLine
 10
-2995.330055774325
 20
-3316.643570654973
 30
0.0
 11
-2995.330055774325
 21
-3327.678047654973
 31
0.0
  0
LINE
  5
6B62
330
6B5F
100
AcDbEntity
  8
寸法
  6
Continuous
 62
     4
370
    -2
100
AcDbLine
 10
-3044.330055774326
 20
-3327.678047654973
 30
0.0
 11
-2996.330055774325
 21
-3327.678047654973
 31
0.0
  0
INSERT
  5
6B63
330
6B5F
100
AcDbEntity
  8
寸法
  6
Continuous
 62
     4
370
    -2
100
AcDbBlockReference
  2
_Dot
 10
-3045.330055774325
 20
-3327.678047654973
 30
0.0
 50
180.0
  0
INSERT
  5
6B64
330
6B5F
100
AcDbEntity
  8
寸法
  6
Continuous
 62
     4
370
    -2
100
AcDbBlockReference
  2
_Dot
 10
-2995.330055774325
 20
-3327.678047654973
 30
0.0
  0
MTEXT
  5
6B65
330
6B5F
100
AcDbEntity
  8
寸法
  6
Continuous
 62
     3
100
AcDbMText
 10
-3020.330055774325
 20
-3324.378047654974
 30
0.0
 40
5.0
 41
0.0
 71
     5
 72
     1
  1
\A1;50
  7
ACAD
 73
     1
 44
1.0
  0
POINT
  5
6B66
330
6B5F
100
AcDbEntity
  8
Defpoints
  6
Continuous
 62
     0
100
AcDbPoint
 10
-3045.330055774325
 20
-3316.643570654973
 30
0.0
  0
POINT
  5
6B67
330
6B5F
100
AcDbEntity
  8
Defpoints
  6
Continuous
 62
     0
100
AcDbPoint
 10
-2995.330055774325
 20
-3316.643570654973
 30
0.0
  0
POINT
  5
6B68
330
6B5F
100
AcDbEntity
  8
Defpoints
  6
Continuous
 62
     0
100
AcDbPoint
 10
-2995.330055774325
 20
-3327.678047654973
 30
0.0
  0
ENDBLK
  5
6B6A
330
6B5F
100
AcDbEntity
  8
0
100
AcDbBlockEnd
  0
BLOCK
  5
6B73
330
6B6B
100
AcDbEntity
  8
0
100
AcDbBlockBegin
  2
*D7
 70
     1
 10
0.0
 20
0.0
 30
0.0
  3
*D7
  1

  0
LINE
  5
6B6C
330
6B6B
100
AcDbEntity
  8
寸法
  6
Continuous
 62
     4
370
    -2
100
AcDbLine
 10
-2957.897432774325
 20
-3372.911815654973
 30
0.0
 11
-2957.897432774325
 21
-3408.911815654974
 31
0.0
  0
INSERT
  5
6B6D
330
6B6B
100
AcDbEntity
  8
寸法
  6
Continuous
 62
     4
370
    -2
100
AcDbBlockReference
  2
_Dot
 10
-2957.897432774325
 20
-3371.911815654974
 30
0.0
 50
90.0
  0
INSERT
  5
6B6E
330
6B6B
100
AcDbEntity
  8
寸法
  6
Continuous
 62
     4
370
    -2
100
AcDbBlockReference
  2
_Dot
 10
-2957.897432774325
 20
-3409.911815654974
 30
0.0
 50
270.0
  0
MTEXT
  5
6B6F
330
6B6B
100
AcDbEntity
  8
寸法
  6
Continuous
 62
     3
100
AcDbMText
 10
-2961.197432774325
 20
-3390.911815654974
 30
0.0
 40
5.0
 41
0.0
 71
     5
 72
     1
  1
\A1;38
  7
ACAD
 11
0.0000000000000001
 21
1.0
 31
0.0
 73
     1
 44
1.0
  0
POINT
  5
6B70
330
6B6B
100
AcDbEntity
  8
Defpoints
  6
Continuous
 62
     0
100
AcDbPoint
 10
-2957.897432774325
 20
-3371.911815654974
 30
0.0
  0
POINT
  5
6B71
330
6B6B
100
AcDbEntity
  8
Defpoints
  6
Continuous
 62
     0
100
AcDbPoint
 10
-2957.897432774325
 20
-3409.911815654974
 30
0.0
  0
POINT
  5
6B72
330
6B6B
100
AcDbEntity
  8
Defpoints
  6
Continuous
 62
     0
100
AcDbPoint
 10
-2957.897432774325
 20
-3409.911815654974
 30
0.0
  0
ENDBLK
  5
6B74
330
6B6B
100
AcDbEntity
  8
0
100
AcDbBlockEnd
  0
BLOCK
  5
6B7D
330
6B75
100
AcDbEntity
  8
0
100
AcDbBlockBegin
  2
*D8
 70
     1
 10
0.0
 20
0.0
 30
0.0
  3
*D8
  1

  0
LINE
  5
6B76
330
6B75
100
AcDbEntity
  8
寸法
  6
Continuous
 62
     4
370
    -2
100
AcDbLine
 10
-2957.897432774325
 20
-3410.911815654974
 30
0.0
 11
-2957.897432774325
 21
-3433.907575654973
 31
0.0
  0
INSERT
  5
6B77
330
6B75
100
AcDbEntity
  8
寸法
  6
Continuous
 62
     4
370
    -2
100
AcDbBlockReference
  2
_Dot
 10
-2957.897432774325
 20
-3409.911815654974
 30
0.0
 50
90.0
  0
INSERT
  5
6B78
330
6B75
100
AcDbEntity
  8
寸法
  6
Continuous
 62
     4
370
    -2
100
AcDbBlockReference
  2
_Dot
 10
-2957.897432774325
 20
-3434.907575654973
 30
0.0
 50
270.0
  0
MTEXT
  5
6B79
330
6B75
100
AcDbEntity
  8
寸法
  6
Continuous
 62
     3
100
AcDbMText
 10
-2961.197432774325
 20
-3422.409695654974
 30
0.0
 40
5.0
 41
0.0
 71
     5
 72
     1
  1
\A1;25
  7
ACAD
 11
0.0000000000000001
 21
1.0
 31
0.0
 73
     1
 44
1.0
  0
POINT
  5
6B7A
330
6B75
100
AcDbEntity
  8
Defpoints
  6
Continuous
 62
     0
100
AcDbPoint
 10
-2957.897432774325
 20
-3409.911815654974
 30
0.0
  0
POINT
  5
6B7B
330
6B75
100
AcDbEntity
  8
Defpoints
  6
Continuous
 62
     0
100
AcDbPoint
 10
-2957.897432774325
 20
-3434.907575654973
 30
0.0
  0
POINT
  5
6B7C
330
6B75
100
AcDbEntity
  8
Defpoints
  6
Continuous
 62
     0
100
AcDbPoint
 10
-2957.897432774325
 20
-3434.907575654973
 30
0.0
  0
ENDBLK
  5
6B7E
330
6B75
100
AcDbEntity
  8
0
100
AcDbBlockEnd
  0
BLOCK
  5
6ECB
330
6EC3
100
AcDbEntity
  8
0
100
AcDbBlockBegin
  2
*D10
 70
     1
 10
0.0
 20
0.0
 30
0.0
  3
*D10
  1

  0
LINE
  5
6EF7
330
6EC3
100
AcDbEntity
  8
寸法
  6
Continuous
 62
     4
370
    -2
100
AcDbLine
 10
326.9024384058378
 20
170.1141488843164
 30
0.0
 11
326.9024384058378
 21
147.1183888843166
 31
0.0
  0
INSERT
  5
6EF8
330
6EC3
100
AcDbEntity
  8
寸法
  6
Continuous
 62
     4
370
    -2
100
AcDbBlockReference
  2
_Dot
 10
326.9024384058378
 20
171.1141488843164
 30
0.0
 50
90.0
  0
INSERT
  5
6EF9
330
6EC3
100
AcDbEntity
  8
寸法
  6
Continuous
 62
     4
370
    -2
100
AcDbBlockReference
  2
_Dot
 10
326.9024384058378
 20
146.1183888843167
 30
0.0
 50
270.0
  0
MTEXT
  5
6EFA
330
6EC3
100
AcDbEntity
  8
寸法
  6
Continuous
 62
     3
100
AcDbMText
 10
323.6024384058378
 20
158.6162688843166
 30
0.0
 40
5.0
 41
0.0
 71
     5
 72
     1
  1
\A1;25
  7
ACAD
 11
0.0000000000000001
 21
1.0
 31
0.0
 73
     1
 44
1.0
  0
POINT
  5
6EFB
330
6EC3
100
AcDbEntity
  8
Defpoints
  6
Continuous
 62
     0
100
AcDbPoint
 10
326.9024384058378
 20
171.1141488843164
 30
0.0
  0
POINT
  5
6EFC
330
6EC3
100
AcDbEntity
  8
Defpoints
  6
Continuous
 62
     0
100
AcDbPoint
 10
326.9024384058378
 20
146.1183888843167
 30
0.0
  0
POINT
  5
6EFD
330
6EC3
100
AcDbEntity
  8
Defpoints
  6
Continuous
 62
     0
100
AcDbPoint
 10
326.9024384058378
 20
146.1183888843167
 30
0.0
  0
ENDBLK
  5
6ECC
330
6EC3
100
AcDbEntity
  8
0
100
AcDbBlockEnd
  0
BLOCK
  5
6ED5
330
6ECD
100
AcDbEntity
  8
0
100
AcDbBlockBegin
  2
*D11
 70
     1
 10
0.0
 20
0.0
 30
0.0
  3
*D11
  1

  0
LINE
  5
6EFE
330
6ECD
100
AcDbEntity
  8
寸法
  6
Continuous
 62
     4
370
    -2
100
AcDbLine
 10
326.9024384058378
 20
208.1141488843164
 30
0.0
 11
326.9024384058378
 21
172.1141488843164
 31
0.0
  0
INSERT
  5
6EFF
330
6ECD
100
AcDbEntity
  8
寸法
  6
Continuous
 62
     4
370
    -2
100
AcDbBlockReference
  2
_Dot
 10
326.9024384058378
 20
209.1141488843164
 30
0.0
 50
90.0
  0
INSERT
  5
6F00
330
6ECD
100
AcDbEntity
  8
寸法
  6
Continuous
 62
     4
370
    -2
100
AcDbBlockReference
  2
_Dot
 10
326.9024384058378
 20
171.1141488843164
 30
0.0
 50
270.0
  0
MTEXT
  5
6F01
330
6ECD
100
AcDbEntity
  8
寸法
  6
Continuous
 62
     3
100
AcDbMText
 10
323.6024384058378
 20
190.1141488843165
 30
0.0
 40
5.0
 41
0.0
 71
     5
 72
     1
  1
\A1;38
  7
ACAD
 11
0.0000000000000001
 21
1.0
 31
0.0
 73
     1
 44
1.0
  0
POINT
  5
6F02
330
6ECD
100
AcDbEntity
  8
Defpoints
  6
Continuous
 62
     0
100
AcDbPoint
 10
326.9024384058378
 20
209.1141488843164
 30
0.0
  0
POINT
  5
6F03
330
6ECD
100
AcDbEntity
  8
Defpoints
  6
Continuous
 62
     0
100
AcDbPoint
 10
326.9024384058378
 20
171.1141488843164
 30
0.0
  0
POINT
  5
6F04
330
6ECD
100
AcDbEntity
  8
Defpoints
  6
Continuous
 62
     0
100
AcDbPoint
 10
326.9024384058378
 20
171.1141488843164
 30
0.0
  0
ENDBLK
  5
6ED6
330
6ECD
100
AcDbEntity
  8
0
100
AcDbBlockEnd
  0
BLOCK
  5
6EDF
330
6ED7
100
AcDbEntity
  8
0
100
AcDbBlockBegin
  2
*D12
 70
     1
 10
0.0
 20
0.0
 30
0.0
  3
*D12
  1

  0
LINE
  5
6F05
330
6ED7
100
AcDbEntity
  8
寸法
  6
Continuous
 62
     4
370
    -2
100
AcDbLine
 10
326.9024384058378
 20
287.3282348843164
 30
0.0
 11
326.9024384058378
 21
264.3282348843164
 31
0.0
  0
INSERT
  5
6F06
330
6ED7
100
AcDbEntity
  8
寸法
  6
Continuous
 62
     4
370
    -2
100
AcDbBlockReference
  2
_Dot
 10
326.9024384058378
 20
288.3282348843164
 30
0.0
 50
90.0
  0
INSERT
  5
6F07
330
6ED7
100
AcDbEntity
  8
寸法
  6
Continuous
 62
     4
370
    -2
100
AcDbBlockReference
  2
_Dot
 10
326.9024384058378
 20
263.3282348843164
 30
0.0
 50
270.0
  0
MTEXT
  5
6F08
330
6ED7
100
AcDbEntity
  8
寸法
  6
Continuous
 62
     3
100
AcDbMText
 10
323.6024384058378
 20
275.8282348843164
 30
0.0
 40
5.0
 41
0.0
 71
     5
 72
     1
  1
\A1;25
  7
ACAD
 11
0.0000000000000001
 21
1.0
 31
0.0
 73
     1
 44
1.0
  0
POINT
  5
6F09
330
6ED7
100
AcDbEntity
  8
Defpoints
  6
Continuous
 62
     0
100
AcDbPoint
 10
326.9024384058378
 20
288.3282348843164
 30
0.0
  0
POINT
  5
6F0A
330
6ED7
100
AcDbEntity
  8
Defpoints
  6
Continuous
 62
     0
100
AcDbPoint
 10
326.9024384058378
 20
263.3282348843164
 30
0.0
  0
POINT
  5
6F0B
330
6ED7
100
AcDbEntity
  8
Defpoints
  6
Continuous
 62
     0
100
AcDbPoint
 10
326.9024384058378
 20
263.3282348843164
 30
0.0
  0
ENDBLK
  5
6EE0
330
6ED7
100
AcDbEntity
  8
0
100
AcDbBlockEnd
  0
BLOCK
  5
6EE9
330
6EE1
100
AcDbEntity
  8
0
100
AcDbBlockBegin
  2
*D13
 70
     1
 10
0.0
 20
0.0
 30
0.0
  3
*D13
  1

  0
LINE
  5
6F0C
330
6EE1
100
AcDbEntity
  8
寸法
  6
Continuous
 62
     4
370
    -2
100
AcDbLine
 10
326.9024384058378
 20
325.3282348843164
 30
0.0
 11
326.9024384058378
 21
289.3282348843164
 31
0.0
  0
INSERT
  5
6F0D
330
6EE1
100
AcDbEntity
  8
寸法
  6
Continuous
 62
     4
370
    -2
100
AcDbBlockReference
  2
_Dot
 10
326.9024384058378
 20
326.3282348843164
 30
0.0
 50
90.0
  0
INSERT
  5
6F0E
330
6EE1
100
AcDbEntity
  8
寸法
  6
Continuous
 62
     4
370
    -2
100
AcDbBlockReference
  2
_Dot
 10
326.9024384058378
 20
288.3282348843164
 30
0.0
 50
270.0
  0
MTEXT
  5
6F0F
330
6EE1
100
AcDbEntity
  8
寸法
  6
Continuous
 62
     3
100
AcDbMText
 10
323.6024384058378
 20
307.3282348843164
 30
0.0
 40
5.0
 41
0.0
 71
     5
 72
     1
  1
\A1;38
  7
ACAD
 11
0.0000000000000001
 21
1.0
 31
0.0
 73
     1
 44
1.0
  0
POINT
  5
6F10
330
6EE1
100
AcDbEntity
  8
Defpoints
  6
Continuous
 62
     0
100
AcDbPoint
 10
326.9024384058378
 20
326.3282348843164
 30
0.0
  0
POINT
  5
6F11
330
6EE1
100
AcDbEntity
  8
Defpoints
  6
Continuous
 62
     0
100
AcDbPoint
 10
326.9024384058378
 20
288.3282348843164
 30
0.0
  0
POINT
  5
6F12
330
6EE1
100
AcDbEntity
  8
Defpoints
  6
Continuous
 62
     0
100
AcDbPoint
 10
326.9024384058378
 20
288.3282348843164
 30
0.0
  0
ENDBLK
  5
6EEA
330
6EE1
100
AcDbEntity
  8
0
100
AcDbBlockEnd
  0
BLOCK
  5
6EF5
330
6EEB
100
AcDbEntity
  8
0
100
AcDbBlockBegin
  2
*D14
 70
     1
 10
0.0
 20
0.0
 30
0.0
  3
*D14
  1

  0
LINE
  5
6F13
330
6EEB
100
AcDbEntity
  8
寸法
  6
Continuous
 62
     4
370
    -2
100
AcDbLine
 10
239.4698154058377
 20
264.3823938843167
 30
0.0
 11
239.4698154058377
 21
253.3479168843165
 31
0.0
  0
LINE
  5
6F14
330
6EEB
100
AcDbEntity
  8
寸法
  6
Continuous
 62
     4
370
    -2
100
AcDbLine
 10
289.4698154058377
 20
264.3823938843167
 30
0.0
 11
289.4698154058377
 21
253.3479168843165
 31
0.0
  0
LINE
  5
6F15
330
6EEB
100
AcDbEntity
  8
寸法
  6
Continuous
 62
     4
370
    -2
100
AcDbLine
 10
240.4698154058377
 20
253.3479168843165
 30
0.0
 11
288.4698154058377
 21
253.3479168843165
 31
0.0
  0
INSERT
  5
6F16
330
6EEB
100
AcDbEntity
  8
寸法
  6
Continuous
 62
     4
370
    -2
100
AcDbBlockReference
  2
_Dot
 10
239.4698154058377
 20
253.3479168843165
 30
0.0
 50
180.0
  0
INSERT
  5
6F17
330
6EEB
100
AcDbEntity
  8
寸法
  6
Continuous
 62
     4
370
    -2
100
AcDbBlockReference
  2
_Dot
 10
289.4698154058377
 20
253.3479168843165
 30
0.0
  0
MTEXT
  5
6F18
330
6EEB
100
AcDbEntity
  8
寸法
  6
Continuous
 62
     3
100
AcDbMText
 10
264.4698154058377
 20
256.6479168843165
 30
0.0
 40
5.0
 41
0.0
 71
     5
 72
     1
  1
\A1;50
  7
ACAD
 73
     1
 44
1.0
  0
POINT
  5
6F19
330
6EEB
100
AcDbEntity
  8
Defpoints
  6
Continuous
 62
     0
100
AcDbPoint
 10
239.4698154058377
 20
264.3823938843167
 30
0.0
  0
POINT
  5
6F1A
330
6EEB
100
AcDbEntity
  8
Defpoints
  6
Continuous
 62
     0
100
AcDbPoint
 10
289.4698154058377
 20
264.3823938843167
 30
0.0
  0
POINT
  5
6F1B
330
6EEB
100
AcDbEntity
  8
Defpoints
  6
Continuous
 62
     0
100
AcDbPoint
 10
289.4698154058377
 20
253.3479168843165
 30
0.0
  0
ENDBLK
  5
6EF6
330
6EEB
100
AcDbEntity
  8
0
100
AcDbBlockEnd
  0
ENDSEC
  0
SECTION
  2
ENTITIES
  0
LINE
  5
6D25
330
1E
100
AcDbEntity
  8
製品
  6
Continuous
 62
     3
100
AcDbLine
 10
355.5063104058375
 20
288.3282348843164
 30
0.0
 11
283.4698154058377
 21
288.3282348843164
 31
0.0
  0
LINE
  5
6D26
330
1E
100
AcDbEntity
  8
製品
  6
Continuous
 62
     3
100
AcDbLine
 10
355.5063104058375
 20
326.3282348843164
 30
0.0
 11
288.4698154058377
 21
326.3282348843164
 31
0.0
  0
LINE
  5
6D27
330
1E
100
AcDbEntity
  8
製品
  6
Continuous
 62
     3
100
AcDbLine
 10
395.2421314058377
 20
171.1141488843164
 30
0.0
 11
270.9698154058377
 21
171.1141488843164
 31
0.0
  0
LINE
  5
6D28
330
1E
100
AcDbEntity
  8
製品
  6
Continuous
 62
     3
100
AcDbLine
 10
395.2421314058377
 20
209.1141488843164
 30
0.0
 11
276.9698154058377
 21
209.1141488843164
 31
0.0
  0
LINE
  5
6D29
330
1E
100
AcDbEntity
  8
製品
  6
PLINE3
 62
     3
100
AcDbLine
 10
264.4698154058377
 20
141.1049638843165
 30
0.0
 11
264.4698154058377
 21
213.2641488843165
 31
0.0
  0
LINE
  5
6D2A
330
1E
100
AcDbEntity
  8
製品
  6
Continuous
 62
     3
100
AcDbLine
 10
193.6093604058377
 20
171.1141488843164
 30
0.0
 11
257.9698154058377
 21
171.1141488843164
 31
0.0
  0
LINE
  5
6D2B
330
1E
100
AcDbEntity
  8
製品
  6
Continuous
 62
     3
100
AcDbLine
 10
193.6093604058377
 20
209.1141488843164
 30
0.0
 11
251.9698154058377
 21
209.1141488843164
 31
0.0
  0
TEXT
  5
6D2C
330
1E
100
AcDbEntity
  8
図面枠
  6
Continuous
 62
     3
100
AcDbText
 10
254.8296334058376
 20
122.1940458843165
 30
0.0
 40
5.0
  1
ＣＳ－２５
 41
0.8
  7
ACAD
100
AcDbText
  0
LINE
  5
6D2D
330
1E
100
AcDbEntity
  8
製品
  6
Continuous
 62
     4
100
AcDbLine
 10
276.9698154058377
 20
209.9141488843166
 30
0.0
 11
251.9698154058377
 21
209.9141488843166
 31
0.0
  0
LINE
  5
6D2E
330
1E
100
AcDbEntity
  8
製品
  6
Continuous
 62
     3
100
AcDbLine
 10
256.9698154058377
 20
204.1141488843164
 30
0.0
 11
271.9698154058377
 21
204.1141488843164
 31
0.0
  0
ARC
  5
6D2F
330
1E
100
AcDbEntity
  8
製品
  6
Continuous
 62
     3
100
AcDbCircle
 10
270.4698154058377
 20
183.1141488843164
 30
0.0
 40
3.0
100
AcDbArc
 50
90.0
 51
180.0
  0
LINE
  5
6D30
330
1E
100
AcDbEntity
  8
製品
  6
Continuous
 62
     4
100
AcDbLine
 10
254.9698154058377
 20
161.0141488843165
 30
0.0
 11
273.9698154058377
 21
161.0141488843165
 31
0.0
  0
ARC
  5
6D31
330
1E
100
AcDbEntity
  8
製品
  6
Continuous
 62
     3
100
AcDbCircle
 10
268.9878154058377
 20
146.4821488843164
 30
0.0
 40
0.6
100
AcDbArc
 50
71.53485100001211
 51
108.4651489999878
  0
ARC
  5
6D32
330
1E
100
AcDbEntity
  8
製品
  6
Continuous
 62
     3
100
AcDbCircle
 10
268.9878154058377
 20
145.9821488843164
 30
0.0
 40
0.6
100
AcDbArc
 50
71.53485100001211
 51
108.4651489999878
  0
ARC
  5
6D33
330
1E
100
AcDbEntity
  8
製品
  6
Continuous
 62
     3
100
AcDbCircle
 10
256.9698154058377
 20
202.1141488843164
 30
0.0
 40
2.0
100
AcDbArc
 50
90.0
 51
180.0
  0
LINE
  5
6D34
330
1E
100
AcDbEntity
  8
製品
  6
Continuous
 62
     3
100
AcDbLine
 10
267.4698154058377
 20
165.2200668843166
 30
0.0
 11
267.4698154058377
 21
183.1141488843164
 31
0.0
  0
LINE
  5
6D35
330
1E
100
AcDbEntity
  8
製品
  6
Continuous
 62
     3
100
AcDbLine
 10
256.9698154058377
 20
186.1141488843164
 30
0.0
 11
258.7809114058376
 21
186.1141488843164
 31
0.0
  0
ARC
  5
6D36
330
1E
100
AcDbEntity
  8
製品
  6
Continuous
 62
     3
100
AcDbCircle
 10
256.9698154058377
 20
188.1141488843164
 30
0.0
 40
2.0
100
AcDbArc
 50
180.0
 51
270.0
  0
ARC
  5
6D37
330
1E
100
AcDbEntity
  8
製品
  6
Continuous
 62
     4
100
AcDbCircle
 10
253.3854044058374
 20
179.5466208843164
 30
0.0
 40
4.604764
100
AcDbArc
 50
354.6109389999887
 51
82.70867800000724
  0
ARC
  5
6D38
330
1E
100
AcDbEntity
  8
製品
  6
Continuous
 62
     4
100
AcDbCircle
 10
253.9698154058377
 20
186.1141488843164
 30
0.0
 40
2.0
100
AcDbArc
 50
180.0
 51
270.0
  0
ARC
  5
6D39
330
1E
100
AcDbEntity
  8
製品
  6
Continuous
 62
     3
100
AcDbCircle
 10
258.4698154058377
 20
183.1141488843164
 30
0.0
 40
3.0
100
AcDbArc
 50
0.0
 51
90.0
  0
LINE
  5
6D3A
330
1E
100
AcDbEntity
  8
製品
  6
Continuous
 62
     3
100
AcDbLine
 10
253.4698154058377
 20
170.6141488843164
 30
0.0
 11
254.4698154058377
 21
170.6141488843164
 31
0.0
  0
ARC
  5
6D3B
330
1E
100
AcDbEntity
  8
製品
  6
Continuous
 62
     4
100
AcDbCircle
 10
253.9139714058377
 20
169.8141488843167
 30
0.0
 40
0.8
100
AcDbArc
 50
11.30993199999679
 51
90.0
  0
LINE
  5
6D3C
330
1E
100
AcDbEntity
  8
製品
  6
Continuous
 62
     3
100
AcDbLine
 10
255.4698154058377
 20
169.6141488843164
 30
0.0
 11
255.4698154058377
 21
168.1141488843164
 31
0.0
  0
LINE
  5
6D3D
330
1E
100
AcDbEntity
  8
製品
  6
Continuous
 62
     3
100
AcDbLine
 10
255.4698154058377
 20
168.1141488843164
 30
0.0
 11
255.9698154058377
 21
168.1141488843164
 31
0.0
  0
LINE
  5
6D3E
330
1E
100
AcDbEntity
  8
製品
  6
Continuous
 62
     3
100
AcDbLine
 10
255.9698154058377
 20
168.1141488843164
 30
0.0
 11
255.9698154058377
 21
169.6141488843164
 31
0.0
  0
ARC
  5
6D3F
330
1E
100
AcDbEntity
  8
製品
  6
Continuous
 62
     3
100
AcDbCircle
 10
253.4698154058377
 20
169.6141488843164
 30
0.0
 40
1.0
100
AcDbArc
 50
90.0
 51
180.0
  0
ARC
  5
6D40
330
1E
100
AcDbEntity
  8
製品
  6
Continuous
 62
     3
100
AcDbCircle
 10
254.4698154058377
 20
169.6141488843164
 30
0.0
 40
1.0
100
AcDbArc
 50
0.0
 51
90.0
  0
ARC
  5
6D41
330
1E
100
AcDbEntity
  8
製品
  6
Continuous
 62
     3
100
AcDbCircle
 10
253.4698154058377
 20
169.6141488843164
 30
0.0
 40
1.5
100
AcDbArc
 50
90.0
 51
180.0
  0
LINE
  5
6D42
330
1E
100
AcDbEntity
  8
製品
  6
Continuous
 62
     4
100
AcDbLine
 10
255.0880844058377
 20
168.0228028843167
 30
0.0
 11
254.6984364058374
 21
169.9710418843165
 31
0.0
  0
ARC
  5
6D43
330
1E
100
AcDbEntity
  8
製品
  6
Continuous
 62
     3
100
AcDbCircle
 10
254.4698154058377
 20
169.6141488843164
 30
0.0
 40
1.5
100
AcDbArc
 50
0.0
 51
90.0
  0
ARC
  5
6D44
330
1E
100
AcDbEntity
  8
製品
  6
Continuous
 62
     4
100
AcDbCircle
 10
256.4698154058377
 20
168.6066488843167
 30
0.0
 40
1.500018999999999
100
AcDbArc
 50
202.7960729999847
 51
0.2864770000049421
  0
ARC
  5
6D45
330
1E
100
AcDbEntity
  8
製品
  6
Continuous
 62
     4
100
AcDbCircle
 10
254.9698154058377
 20
163.0141488843165
 30
0.0
 40
2.0
100
AcDbArc
 50
180.0
 51
270.0
  0
LINE
  5
6D46
330
1E
100
AcDbEntity
  8
製品
  6
Continuous
 62
     4
100
AcDbLine
 10
252.9698154058377
 20
170.4801748843166
 30
0.0
 11
252.9698154058377
 21
163.0141488843165
 31
0.0
  0
LINE
  5
6D47
330
1E
100
AcDbEntity
  8
製品
  6
Continuous
 62
     4
100
AcDbLine
 10
257.9698154058377
 20
168.5991488843166
 30
0.0
 11
257.9698154058377
 21
179.1141488843164
 31
0.0
  0
LINE
  5
6D48
330
1E
100
AcDbEntity
  8
製品
  6
Continuous
 62
     3
100
AcDbLine
 10
261.4698154058377
 20
165.2200668843166
 30
0.0
 11
261.4698154058377
 21
183.1141488843164
 31
0.0
  0
ARC
  5
6D49
330
1E
100
AcDbEntity
  8
製品
  6
Continuous
 62
     3
100
AcDbCircle
 10
264.4698154058377
 20
165.2200668843166
 30
0.0
 40
3.0
100
AcDbArc
 50
180.0
 51
0.0
  0
LINE
  5
6D4A
330
1E
100
AcDbEntity
  8
製品
  6
Continuous
 62
     4
100
AcDbLine
 10
251.9698154058377
 20
209.9141488843166
 30
0.0
 11
251.9698154058377
 21
186.1141488843164
 31
0.0
  0
LINE
  5
6D4B
330
1E
100
AcDbEntity
  8
製品
  6
Continuous
 62
     3
100
AcDbLine
 10
254.9698154058377
 20
188.1141488843164
 30
0.0
 11
254.9698154058377
 21
202.1141488843164
 31
0.0
  0
LINE
  5
6D4C
330
1E
100
AcDbEntity
  8
製品
  6
Continuous
 62
     3
100
AcDbLine
 10
267.6778154058378
 20
146.6771488843165
 30
0.0
 11
268.7978154058376
 21
147.0511488843163
 31
0.0
  0
LINE
  5
6D4D
330
1E
100
AcDbEntity
  8
製品
  6
Continuous
 62
     3
100
AcDbLine
 10
267.6778154058378
 20
146.1771488843165
 30
0.0
 11
268.7978154058376
 21
146.5511488843163
 31
0.0
  0
ARC
  5
6D4E
330
1E
100
AcDbEntity
  8
製品
  6
Continuous
 62
     3
100
AcDbCircle
 10
264.4878154058377
 20
146.7461488843165
 30
0.0
 40
0.6
100
AcDbArc
 50
251.5348510000121
 51
288.4651489999878
  0
LINE
  5
6D4F
330
1E
100
AcDbEntity
  8
製品
  6
Continuous
 62
     3
100
AcDbLine
 10
264.6778154058377
 20
146.1771488843165
 30
0.0
 11
265.7978154058377
 21
146.5511488843163
 31
0.0
  0
ARC
  5
6D50
330
1E
100
AcDbEntity
  8
製品
  6
Continuous
 62
     3
100
AcDbCircle
 10
265.9878154058377
 20
146.4821488843164
 30
0.0
 40
0.6
100
AcDbArc
 50
71.53485100001211
 51
108.4651489999878
  0
LINE
  5
6D51
330
1E
100
AcDbEntity
  8
製品
  6
Continuous
 62
     3
100
AcDbLine
 10
264.6778154058377
 20
146.6771488843165
 30
0.0
 11
265.7978154058377
 21
147.0511488843163
 31
0.0
  0
ARC
  5
6D52
330
1E
100
AcDbEntity
  8
製品
  6
Continuous
 62
     3
100
AcDbCircle
 10
264.4878154058377
 20
147.2471488843167
 30
0.0
 40
0.6
100
AcDbArc
 50
251.5650479999934
 51
288.4349370000021
  0
ARC
  5
6D53
330
1E
100
AcDbEntity
  8
製品
  6
Continuous
 62
     3
100
AcDbCircle
 10
265.9878154058377
 20
145.9821488843164
 30
0.0
 40
0.6
100
AcDbArc
 50
71.53485100001211
 51
108.4651489999878
  0
LINE
  5
6D54
330
1E
100
AcDbEntity
  8
製品
  6
Continuous
 62
     3
100
AcDbLine
 10
266.1778154058378
 20
147.0511488843163
 30
0.0
 11
267.2978154058376
 21
146.6771488843165
 31
0.0
  0
LINE
  5
6D55
330
1E
100
AcDbEntity
  8
製品
  6
Continuous
 62
     3
100
AcDbLine
 10
266.1778154058378
 20
146.5511488843163
 30
0.0
 11
267.2978154058376
 21
146.1771488843165
 31
0.0
  0
ARC
  5
6D56
330
1E
100
AcDbEntity
  8
製品
  6
Continuous
 62
     3
100
AcDbCircle
 10
267.4878154058377
 20
147.2461488843165
 30
0.0
 40
0.6
100
AcDbArc
 50
251.5348510000121
 51
288.4651489999878
  0
ARC
  5
6D57
330
1E
100
AcDbEntity
  8
製品
  6
Continuous
 62
     3
100
AcDbCircle
 10
267.4878154058377
 20
146.7461488843165
 30
0.0
 40
0.6
100
AcDbArc
 50
251.5348510000121
 51
288.4651489999878
  0
ARC
  5
6D58
330
1E
100
AcDbEntity
  8
製品
  6
Continuous
 62
     3
100
AcDbCircle
 10
261.4878154058377
 20
146.7461488843165
 30
0.0
 40
0.6
100
AcDbArc
 50
251.5348510000121
 51
288.4651489999878
  0
ARC
  5
6D59
330
1E
100
AcDbEntity
  8
製品
  6
Continuous
 62
     3
100
AcDbCircle
 10
261.4878154058377
 20
147.2461488843165
 30
0.0
 40
0.6
100
AcDbArc
 50
251.5348510000121
 51
288.4651489999878
  0
LINE
  5
6D5A
330
1E
100
AcDbEntity
  8
製品
  6
Continuous
 62
     3
100
AcDbLine
 10
260.1778154058377
 20
146.5511488843163
 30
0.0
 11
261.2978154058377
 21
146.1771488843165
 31
0.0
  0
LINE
  5
6D5B
330
1E
100
AcDbEntity
  8
製品
  6
Continuous
 62
     3
100
AcDbLine
 10
260.1778154058377
 20
147.0511488843163
 30
0.0
 11
261.2978154058377
 21
146.6771488843165
 31
0.0
  0
LINE
  5
6D5C
330
1E
100
AcDbEntity
  8
製品
  6
Continuous
 62
     3
100
AcDbLine
 10
261.6778154058378
 20
146.6771488843165
 30
0.0
 11
262.7978154058376
 21
147.0511488843163
 31
0.0
  0
ARC
  5
6D5D
330
1E
100
AcDbEntity
  8
製品
  6
Continuous
 62
     3
100
AcDbCircle
 10
262.9878154058377
 20
146.4821488843164
 30
0.0
 40
0.6
100
AcDbArc
 50
71.53485100001211
 51
108.4651489999878
  0
LINE
  5
6D5E
330
1E
100
AcDbEntity
  8
製品
  6
Continuous
 62
     3
100
AcDbLine
 10
261.6778154058378
 20
146.1771488843165
 30
0.0
 11
262.7978154058376
 21
146.5511488843163
 31
0.0
  0
ARC
  5
6D5F
330
1E
100
AcDbEntity
  8
製品
  6
Continuous
 62
     3
100
AcDbCircle
 10
262.9878154058377
 20
145.9821488843164
 30
0.0
 40
0.6
100
AcDbArc
 50
71.53485100001211
 51
108.4651489999878
  0
ARC
  5
6D60
330
1E
100
AcDbEntity
  8
製品
  6
Continuous
 62
     3
100
AcDbCircle
 10
257.0338154058375
 20
145.9661488843168
 30
0.0
 40
0.6
100
AcDbArc
 50
71.53485100001211
 51
116.5223539999895
  0
LINE
  5
6D61
330
1E
100
AcDbEntity
  8
製品
  6
Continuous
 62
     3
100
AcDbLine
 10
256.1138154058375
 20
146.6771488843165
 30
0.0
 11
256.7658154058375
 21
147.0031488843166
 31
0.0
  0
ARC
  5
6D62
330
1E
100
AcDbEntity
  8
製品
  6
Continuous
 62
     3
100
AcDbCircle
 10
257.0338154058375
 20
146.4661488843167
 30
0.0
 40
0.6
100
AcDbArc
 50
71.56504799999338
 51
116.5223539999895
  0
LINE
  5
6D63
330
1E
100
AcDbEntity
  8
製品
  6
Continuous
 62
     3
100
AcDbLine
 10
257.2238154058376
 20
146.5351488843167
 30
0.0
 11
258.2988154058374
 21
146.1771488843165
 31
0.0
  0
ARC
  5
6D64
330
1E
100
AcDbEntity
  8
製品
  6
Continuous
 62
     3
100
AcDbCircle
 10
258.4878154058377
 20
146.7461488843165
 30
0.0
 40
0.6
100
AcDbArc
 50
251.6254879999921
 51
288.4651489999878
  0
LINE
  5
6D65
330
1E
100
AcDbEntity
  8
製品
  6
Continuous
 62
     3
100
AcDbLine
 10
257.2238154058376
 20
147.0361488843165
 30
0.0
 11
258.2978154058376
 21
146.6771488843165
 31
0.0
  0
ARC
  5
6D66
330
1E
100
AcDbEntity
  8
製品
  6
Continuous
 62
     3
100
AcDbCircle
 10
258.4878154058377
 20
147.2471488843167
 30
0.0
 40
0.6
100
AcDbArc
 50
251.5650479999934
 51
288.4349370000021
  0
LINE
  5
6D67
330
1E
100
AcDbEntity
  8
製品
  6
Continuous
 62
     3
100
AcDbLine
 10
258.6778154058378
 20
146.6771488843165
 30
0.0
 11
259.7978154058377
 21
147.0511488843163
 31
0.0
  0
LINE
  5
6D68
330
1E
100
AcDbEntity
  8
製品
  6
Continuous
 62
     3
100
AcDbLine
 10
258.6778154058378
 20
146.1771488843165
 30
0.0
 11
259.7978154058377
 21
146.5511488843163
 31
0.0
  0
LINE
  5
6D69
330
1E
100
AcDbEntity
  8
製品
  6
Continuous
 62
     3
100
AcDbLine
 10
256.1138154058375
 20
146.1771488843165
 30
0.0
 11
256.7658154058375
 21
146.5031488843166
 31
0.0
  0
ARC
  5
6D6A
330
1E
100
AcDbEntity
  8
製品
  6
Continuous
 62
     3
100
AcDbCircle
 10
259.9878154058377
 20
146.4821488843164
 30
0.0
 40
0.6
100
AcDbArc
 50
71.53485100001211
 51
108.4651489999878
  0
ARC
  5
6D6B
330
1E
100
AcDbEntity
  8
製品
  6
Continuous
 62
     3
100
AcDbCircle
 10
259.9878154058377
 20
145.9821488843164
 30
0.0
 40
0.6
100
AcDbArc
 50
71.53485100001211
 51
108.4651489999878
  0
LINE
  5
6D6C
330
1E
100
AcDbEntity
  8
製品
  6
Continuous
 62
     3
100
AcDbLine
 10
253.4698154058377
 20
146.6141488843164
 30
0.0
 11
255.8458154058374
 21
146.6141488843164
 31
0.0
  0
ARC
  5
6D6D
330
1E
100
AcDbEntity
  8
製品
  6
Continuous
 62
     3
100
AcDbCircle
 10
253.4698154058377
 20
147.6141488843164
 30
0.0
 40
1.0
100
AcDbArc
 50
180.0
 51
270.0
  0
LINE
  5
6D6E
330
1E
100
AcDbEntity
  8
製品
  6
Continuous
 62
     3
100
AcDbLine
 10
253.4698154058377
 20
146.1141488843164
 30
0.0
 11
255.8938154058377
 21
146.1141488843164
 31
0.0
  0
ARC
  5
6D6F
330
1E
100
AcDbEntity
  8
製品
  6
Continuous
 62
     3
100
AcDbCircle
 10
253.4698154058377
 20
147.6141488843164
 30
0.0
 40
1.5
100
AcDbArc
 50
180.0
 51
270.0
  0
ARC
  5
6D70
330
1E
100
AcDbEntity
  8
製品
  6
Continuous
 62
     3
100
AcDbCircle
 10
255.8458154058374
 20
147.2141488843163
 30
0.0
 40
0.6
100
AcDbArc
 50
270.0
 51
296.5223689999841
  0
ARC
  5
6D71
330
1E
100
AcDbEntity
  8
製品
  6
Continuous
 62
     3
100
AcDbCircle
 10
255.8458154058374
 20
146.7141488843163
 30
0.0
 40
0.6
100
AcDbArc
 50
270.0
 51
296.5223689999841
  0
LINE
  5
6D72
330
1E
100
AcDbEntity
  8
製品
  6
Continuous
 62
     3
100
AcDbLine
 10
263.1778154058378
 20
147.0511488843163
 30
0.0
 11
264.2978154058376
 21
146.6771488843165
 31
0.0
  0
LINE
  5
6D73
330
1E
100
AcDbEntity
  8
製品
  6
Continuous
 62
     3
100
AcDbLine
 10
263.1778154058378
 20
146.5511488843163
 30
0.0
 11
264.2978154058376
 21
146.1771488843165
 31
0.0
  0
LINE
  5
6D74
330
1E
100
AcDbEntity
  8
製品
  6
Continuous
 62
     3
100
AcDbLine
 10
252.4698154058377
 20
147.6141488843164
 30
0.0
 11
252.4698154058377
 21
169.6141488843164
 31
0.0
  0
LINE
  5
6D75
330
1E
100
AcDbEntity
  8
製品
  6
Continuous
 62
     3
100
AcDbLine
 10
251.9698154058377
 20
147.6141488843164
 30
0.0
 11
251.9698154058377
 21
169.6141488843164
 31
0.0
  0
ARC
  5
6D76
330
1E
100
AcDbEntity
  8
製品
  6
Continuous
 62
     3
100
AcDbCircle
 10
271.9698154058377
 20
202.1141488843164
 30
0.0
 40
2.0
100
AcDbArc
 50
0.0
 51
90.0
  0
ARC
  5
6D77
330
1E
100
AcDbEntity
  8
製品
  6
Continuous
 62
     3
100
AcDbCircle
 10
271.9698154058377
 20
188.1141488843164
 30
0.0
 40
2.0
100
AcDbArc
 50
270.0
 51
0.0
  0
LINE
  5
6D78
330
1E
100
AcDbEntity
  8
製品
  6
Continuous
 62
     3
100
AcDbLine
 10
271.9698154058377
 20
186.1141488843164
 30
0.0
 11
270.4698154058377
 21
186.1141488843164
 31
0.0
  0
ARC
  5
6D79
330
1E
100
AcDbEntity
  8
製品
  6
Continuous
 62
     4
100
AcDbCircle
 10
275.5542254058376
 20
179.5466208843164
 30
0.0
 40
4.604764
100
AcDbArc
 50
97.29132199999277
 51
185.3890610000112
  0
ARC
  5
6D7A
330
1E
100
AcDbEntity
  8
製品
  6
Continuous
 62
     4
100
AcDbCircle
 10
274.9698154058377
 20
186.1141488843164
 30
0.0
 40
2.0
100
AcDbArc
 50
270.0
 51
0.0
  0
ARC
  5
6D7B
330
1E
100
AcDbEntity
  8
製品
  6
Continuous
 62
     4
100
AcDbCircle
 10
275.0256584058378
 20
169.8141488843167
 30
0.0
 40
0.8
100
AcDbArc
 50
90.0
 51
168.6900680000032
  0
LINE
  5
6D7C
330
1E
100
AcDbEntity
  8
製品
  6
Continuous
 62
     3
100
AcDbLine
 10
275.4698154058377
 20
170.6141488843164
 30
0.0
 11
274.4698154058377
 21
170.6141488843164
 31
0.0
  0
LINE
  5
6D7D
330
1E
100
AcDbEntity
  8
製品
  6
Continuous
 62
     3
100
AcDbLine
 10
273.4698154058377
 20
169.6141488843164
 30
0.0
 11
273.4698154058377
 21
168.1141488843164
 31
0.0
  0
LINE
  5
6D7E
330
1E
100
AcDbEntity
  8
製品
  6
Continuous
 62
     3
100
AcDbLine
 10
273.4698154058377
 20
168.1141488843164
 30
0.0
 11
272.9698154058377
 21
168.1141488843164
 31
0.0
  0
LINE
  5
6D7F
330
1E
100
AcDbEntity
  8
製品
  6
Continuous
 62
     3
100
AcDbLine
 10
272.9698154058377
 20
168.1141488843164
 30
0.0
 11
272.9698154058377
 21
169.6141488843164
 31
0.0
  0
ARC
  5
6D80
330
1E
100
AcDbEntity
  8
製品
  6
Continuous
 62
     3
100
AcDbCircle
 10
275.4698154058377
 20
169.6141488843164
 30
0.0
 40
1.0
100
AcDbArc
 50
0.0
 51
90.0
  0
ARC
  5
6D81
330
1E
100
AcDbEntity
  8
製品
  6
Continuous
 62
     3
100
AcDbCircle
 10
274.4698154058377
 20
169.6141488843164
 30
0.0
 40
1.0
100
AcDbArc
 50
90.0
 51
180.0
  0
ARC
  5
6D82
330
1E
100
AcDbEntity
  8
製品
  6
Continuous
 62
     3
100
AcDbCircle
 10
274.4698154058377
 20
169.6141488843164
 30
0.0
 40
1.5
100
AcDbArc
 50
90.0
 51
180.0
  0
ARC
  5
6D83
330
1E
100
AcDbEntity
  8
製品
  6
Continuous
 62
     3
100
AcDbCircle
 10
275.4698154058377
 20
169.6141488843164
 30
0.0
 40
1.5
100
AcDbArc
 50
0.0
 51
90.0
  0
LINE
  5
6D84
330
1E
100
AcDbEntity
  8
製品
  6
Continuous
 62
     4
100
AcDbLine
 10
273.8515454058378
 20
168.0228028843167
 30
0.0
 11
274.2411934058376
 21
169.9710418843165
 31
0.0
  0
ARC
  5
6D85
330
1E
100
AcDbEntity
  8
製品
  6
Continuous
 62
     4
100
AcDbCircle
 10
272.4698154058377
 20
168.6066488843167
 30
0.0
 40
1.500018999999999
100
AcDbArc
 50
179.713522999995
 51
337.2039270000152
  0
ARC
  5
6D86
330
1E
100
AcDbEntity
  8
製品
  6
Continuous
 62
     4
100
AcDbCircle
 10
273.9698154058377
 20
163.0141488843165
 30
0.0
 40
2.0
100
AcDbArc
 50
270.0
 51
0.0
  0
LINE
  5
6D87
330
1E
100
AcDbEntity
  8
製品
  6
Continuous
 62
     4
100
AcDbLine
 10
275.9698154058377
 20
163.0141488843165
 30
0.0
 11
275.9698154058377
 21
170.5823948843163
 31
0.0
  0
LINE
  5
6D88
330
1E
100
AcDbEntity
  8
製品
  6
Continuous
 62
     4
100
AcDbLine
 10
270.9698154058377
 20
168.7360828843167
 30
0.0
 11
270.9698154058377
 21
179.1141488843164
 31
0.0
  0
LINE
  5
6D89
330
1E
100
AcDbEntity
  8
製品
  6
Continuous
 62
     4
100
AcDbLine
 10
276.9698154058377
 20
209.9141488843166
 30
0.0
 11
276.9698154058377
 21
186.1141488843164
 31
0.0
  0
LINE
  5
6D8A
330
1E
100
AcDbEntity
  8
製品
  6
Continuous
 62
     3
100
AcDbLine
 10
273.9698154058377
 20
202.1141488843164
 30
0.0
 11
273.9698154058377
 21
188.1141488843164
 31
0.0
  0
ARC
  5
6D8B
330
1E
100
AcDbEntity
  8
製品
  6
Continuous
 62
     3
100
AcDbCircle
 10
275.4698154058377
 20
147.6141488843164
 30
0.0
 40
1.5
100
AcDbArc
 50
270.0
 51
0.0
  0
ARC
  5
6D8C
330
1E
100
AcDbEntity
  8
製品
  6
Continuous
 62
     3
100
AcDbCircle
 10
275.4698154058377
 20
147.6141488843164
 30
0.0
 40
1.0
100
AcDbArc
 50
270.0
 51
0.0
  0
ARC
  5
6D8D
330
1E
100
AcDbEntity
  8
製品
  6
Continuous
 62
     3
100
AcDbCircle
 10
271.9418154058374
 20
146.4661488843167
 30
0.0
 40
0.6
100
AcDbArc
 50
63.47764199999557
 51
108.4651489999878
  0
ARC
  5
6D8E
330
1E
100
AcDbEntity
  8
製品
  6
Continuous
 62
     3
100
AcDbCircle
 10
271.9418154058374
 20
145.9661488843168
 30
0.0
 40
0.6
100
AcDbArc
 50
63.47764199999557
 51
108.4651489999878
  0
LINE
  5
6D8F
330
1E
100
AcDbEntity
  8
製品
  6
Continuous
 62
     3
100
AcDbLine
 10
272.2098154058375
 20
147.0031488843166
 30
0.0
 11
272.8618154058375
 21
146.6771488843165
 31
0.0
  0
ARC
  5
6D90
330
1E
100
AcDbEntity
  8
製品
  6
Continuous
 62
     3
100
AcDbCircle
 10
273.1298154058375
 20
147.2141488843163
 30
0.0
 40
0.6
100
AcDbArc
 50
243.4776460000104
 51
270.0
  0
LINE
  5
6D91
330
1E
100
AcDbEntity
  8
製品
  6
Continuous
 62
     3
100
AcDbLine
 10
272.2098154058375
 20
146.5031488843166
 30
0.0
 11
272.8618154058375
 21
146.1771488843165
 31
0.0
  0
ARC
  5
6D92
330
1E
100
AcDbEntity
  8
製品
  6
Continuous
 62
     3
100
AcDbCircle
 10
273.1298154058375
 20
146.7141488843163
 30
0.0
 40
0.6
100
AcDbArc
 50
243.4776460000104
 51
270.0
  0
LINE
  5
6D93
330
1E
100
AcDbEntity
  8
製品
  6
Continuous
 62
     3
100
AcDbLine
 10
273.0928154058377
 20
146.6141488843164
 30
0.0
 11
275.4698154058377
 21
146.6141488843164
 31
0.0
  0
LINE
  5
6D94
330
1E
100
AcDbEntity
  8
製品
  6
Continuous
 62
     3
100
AcDbLine
 10
273.0338154058375
 20
146.1141488843164
 30
0.0
 11
275.4698154058377
 21
146.1141488843164
 31
0.0
  0
ARC
  5
6D95
330
1E
100
AcDbEntity
  8
製品
  6
Continuous
 62
     3
100
AcDbCircle
 10
270.4878154058377
 20
146.7461488843165
 30
0.0
 40
0.6
100
AcDbArc
 50
251.5348510000121
 51
288.4651489999878
  0
LINE
  5
6D96
330
1E
100
AcDbEntity
  8
製品
  6
Continuous
 62
     3
100
AcDbLine
 10
269.1778154058378
 20
146.5511488843163
 30
0.0
 11
270.2978154058377
 21
146.1771488843165
 31
0.0
  0
ARC
  5
6D97
330
1E
100
AcDbEntity
  8
製品
  6
Continuous
 62
     3
100
AcDbCircle
 10
270.4878154058377
 20
147.2461488843165
 30
0.0
 40
0.6
100
AcDbArc
 50
251.5348510000121
 51
288.4651489999878
  0
LINE
  5
6D98
330
1E
100
AcDbEntity
  8
製品
  6
Continuous
 62
     3
100
AcDbLine
 10
269.1778154058378
 20
147.0511488843163
 30
0.0
 11
270.2978154058377
 21
146.6771488843165
 31
0.0
  0
LINE
  5
6D99
330
1E
100
AcDbEntity
  8
製品
  6
Continuous
 62
     3
100
AcDbLine
 10
270.6778154058377
 20
146.6771488843165
 30
0.0
 11
271.7518154058374
 21
147.0351488843167
 31
0.0
  0
LINE
  5
6D9A
330
1E
100
AcDbEntity
  8
製品
  6
Continuous
 62
     3
100
AcDbLine
 10
270.6778154058377
 20
146.1771488843165
 30
0.0
 11
271.7518154058374
 21
146.5351488843167
 31
0.0
  0
LINE
  5
6D9B
330
1E
100
AcDbEntity
  8
製品
  6
Continuous
 62
     3
100
AcDbLine
 10
276.4698154058377
 20
147.6141488843164
 30
0.0
 11
276.4698154058377
 21
169.6141488843164
 31
0.0
  0
LINE
  5
6D9C
330
1E
100
AcDbEntity
  8
製品
  6
Continuous
 62
     3
100
AcDbLine
 10
276.9698154058377
 20
147.6141488843164
 30
0.0
 11
276.9698154058377
 21
169.6141488843164
 31
0.0
  0
LINE
  5
6D9D
330
1E
100
AcDbEntity
  8
製品
  6
Continuous
 62
     3
100
AcDbLine
 10
193.6093604058377
 20
288.3282348843164
 30
0.0
 11
245.4698154058377
 21
288.3282348843164
 31
0.0
  0
LINE
  5
6D9E
330
1E
100
AcDbEntity
  8
製品
  6
Continuous
 62
     3
100
AcDbLine
 10
193.6093604058377
 20
326.3282348843164
 30
0.0
 11
240.4698154058377
 21
326.3282348843164
 31
0.0
  0
LINE
  5
6D9F
330
1E
100
AcDbEntity
  8
製品
  6
Continuous
 62
     4
100
AcDbLine
 10
288.4698154058377
 20
280.9282348843168
 30
0.0
 11
288.4698154058377
 21
287.7964798843164
 31
0.0
  0
LINE
  5
6DA0
330
1E
100
AcDbEntity
  8
製品
  6
Continuous
 62
     3
100
AcDbLine
 10
285.9698154058377
 20
286.8282348843164
 30
0.0
 11
285.9698154058377
 21
285.3282348843164
 31
0.0
  0
LINE
  5
6DA1
330
1E
100
AcDbEntity
  8
製品
  6
Continuous
 62
     3
100
AcDbLine
 10
285.4698154058377
 20
285.3282348843164
 30
0.0
 11
285.4698154058377
 21
286.8282348843164
 31
0.0
  0
ARC
  5
6DA2
330
1E
100
AcDbEntity
  8
製品
  6
Continuous
 62
     4
100
AcDbCircle
 10
284.9698154058377
 20
285.8207348843167
 30
0.0
 40
1.500018999999999
100
AcDbArc
 50
179.713522999995
 51
337.2039270000152
  0
LINE
  5
6DA3
330
1E
100
AcDbEntity
  8
製品
  6
Continuous
 62
     4
100
AcDbLine
 10
286.3515454058378
 20
285.2368878843163
 30
0.0
 11
286.7411934058376
 21
287.1851268843166
 31
0.0
  0
LINE
  5
6DA4
330
1E
100
AcDbEntity
  8
製品
  6
Continuous
 62
     3
100
AcDbLine
 10
276.9698154058377
 20
284.2282348843165
 30
0.0
 11
276.9698154058377
 21
300.3282348843164
 31
0.0
  0
LINE
  5
6DA5
330
1E
100
AcDbEntity
  8
製品
  6
Continuous
 62
     3
100
AcDbLine
 10
271.9698154058377
 20
284.2282348843165
 30
0.0
 11
271.9698154058377
 21
300.3282348843164
 31
0.0
  0
LINE
  5
6DA6
330
1E
100
AcDbEntity
  8
製品
  6
Continuous
 62
     3
100
AcDbLine
 10
251.9698154058377
 20
284.2282348843165
 30
0.0
 11
251.9698154058377
 21
300.3282348843164
 31
0.0
  0
LINE
  5
6DA7
330
1E
100
AcDbEntity
  8
製品
  6
Continuous
 62
     3
100
AcDbLine
 10
256.9698154058377
 20
284.2282348843165
 30
0.0
 11
256.9698154058377
 21
300.3282348843164
 31
0.0
  0
LINE
  5
6DA8
330
1E
100
AcDbEntity
  8
製品
  6
Continuous
 62
     3
100
AcDbLine
 10
242.9698154058377
 20
286.8282348843164
 30
0.0
 11
242.9698154058377
 21
285.3282348843164
 31
0.0
  0
LINE
  5
6DA9
330
1E
100
AcDbEntity
  8
製品
  6
Continuous
 62
     3
100
AcDbLine
 10
243.4698154058377
 20
285.3282348843164
 30
0.0
 11
243.4698154058377
 21
286.8282348843164
 31
0.0
  0
LINE
  5
6DAA
330
1E
100
AcDbEntity
  8
製品
  6
Continuous
 62
     4
100
AcDbLine
 10
242.5880844058377
 20
285.2368878843163
 30
0.0
 11
242.1984364058374
 21
287.1851268843166
 31
0.0
  0
ARC
  5
6DAB
330
1E
100
AcDbEntity
  8
製品
  6
Continuous
 62
     4
100
AcDbCircle
 10
243.9698154058377
 20
285.8207348843167
 30
0.0
 40
1.500018999999999
100
AcDbArc
 50
202.7960729999847
 51
0.2864770000049421
  0
LINE
  5
6DAC
330
1E
100
AcDbEntity
  8
製品
  6
Continuous
 62
     4
100
AcDbLine
 10
240.4698154058377
 20
287.6942598843167
 30
0.0
 11
240.4698154058377
 21
280.9282348843168
 31
0.0
  0
LINE
  5
6DAD
330
1E
100
AcDbEntity
  8
製品
  6
Continuous
 62
     3
100
AcDbLine
 10
288.9698154058377
 20
266.3282348843164
 30
0.0
 11
288.9698154058377
 21
286.8282348843164
 31
0.0
  0
LINE
  5
6DAE
330
1E
100
AcDbEntity
  8
製品
  6
Continuous
 62
     3
100
AcDbLine
 10
289.4698154058377
 20
266.3282348843164
 30
0.0
 11
289.4698154058377
 21
286.8282348843164
 31
0.0
  0
LINE
  5
6DAF
330
1E
100
AcDbEntity
  8
製品
  6
Continuous
 62
     3
100
AcDbLine
 10
239.9698154058377
 20
266.3282348843164
 30
0.0
 11
239.9698154058377
 21
286.8282348843164
 31
0.0
  0
LINE
  5
6DB0
330
1E
100
AcDbEntity
  8
製品
  6
Continuous
 62
     3
100
AcDbLine
 10
239.4698154058377
 20
266.3282348843164
 30
0.0
 11
239.4698154058377
 21
286.8282348843164
 31
0.0
  0
LINE
  5
6DB1
330
1E
100
AcDbEntity
  8
製品
  6
PLINE3
 62
     3
100
AcDbLine
 10
264.4698154058377
 20
258.2638948843165
 30
0.0
 11
264.4698154058377
 21
330.6782368843165
 31
0.0
  0
DIMENSION
  5
6DB2
330
1E
100
AcDbEntity
  8
寸法
  6
Continuous
100
AcDbDimension
  2
*D14
 10
289.4698154058377
 20
253.3479168843165
 30
0.0
 11
264.4698154058377
 21
256.6479168843165
 31
0.0
 70
    32
 71
     5
 42
50.0
  3
AutoCAD
100
AcDbAlignedDimension
 13
239.4698154058377
 23
264.3823938843167
 33
0.0
 14
289.4698154058377
 24
264.3823938843167
 34
0.0
100
AcDbRotatedDimension
1001
ACAD
1000
DSTYLE
1002
{
1070
   147
1040
0.8
1070
   140
1040
10.0
1002
}
  0
LINE
  5
6DB3
330
1E
100
AcDbEntity
  8
製品
  6
Continuous
 62
     3
100
AcDbLine
 10
269.3098154058374
 20
263.8282348843164
 30
0.0
 11
265.6118154058375
 21
263.8282348843164
 31
0.0
  0
LINE
  5
6DB4
330
1E
100
AcDbEntity
  8
製品
  6
Continuous
 62
     3
100
AcDbLine
 10
269.3098154058374
 20
263.3282348843164
 30
0.0
 11
265.6118154058375
 21
263.3282348843164
 31
0.0
  0
LINE
  5
6DB5
330
1E
100
AcDbEntity
  8
製品
  6
Continuous
 62
     4
100
AcDbLine
 10
286.4698154058377
 20
278.9282348843168
 30
0.0
 11
242.4698154058377
 21
278.9282348843168
 31
0.0
  0
TEXT
  5
6DB6
330
1E
100
AcDbEntity
  8
図面枠
  6
Continuous
 62
     3
100
AcDbText
 10
254.1967294058375
 20
243.1815738843166
 30
0.0
 40
5.0
  1
ＣＷ－２５
 41
0.8
  7
ACAD
100
AcDbText
  0
TEXT
  5
6DB7
330
1E
100
AcDbEntity
  8
図面枠
  6
Continuous
 62
     3
100
AcDbText
 10
245.8837564058375
 20
221.4653648843165
 30
0.0
 40
5.0
  1
シングルクリップ２５
 41
0.8
  7
ACAD
100
AcDbText
  0
ARC
  5
6DB8
330
1E
100
AcDbEntity
  8
製品
  6
Continuous
 62
     3
100
AcDbCircle
 10
254.4698154058377
 20
284.2282348843165
 30
0.0
 40
2.5
100
AcDbArc
 50
180.0
 51
0.0
  0
LINE
  5
6DB9
330
1E
100
AcDbEntity
  8
製品
  6
Continuous
 62
     3
100
AcDbLine
 10
242.9698154058377
 20
285.3282348843164
 30
0.0
 11
243.4698154058377
 21
285.3282348843164
 31
0.0
  0
LINE
  5
6DBA
330
1E
100
AcDbEntity
  8
製品
  6
Continuous
 62
     3
100
AcDbLine
 10
265.3438154058375
 20
263.8912348843165
 30
0.0
 11
264.7378154058377
 21
264.1942348843164
 31
0.0
  0
LINE
  5
6DBB
330
1E
100
AcDbEntity
  8
製品
  6
Continuous
 62
     3
100
AcDbLine
 10
265.3438154058375
 20
263.3912348843165
 30
0.0
 11
264.7378154058377
 21
263.6942348843164
 31
0.0
  0
ARC
  5
6DBC
330
1E
100
AcDbEntity
  8
製品
  6
Continuous
 62
     3
100
AcDbCircle
 10
264.4698154058377
 20
263.6572348843166
 30
0.0
 40
0.6
100
AcDbArc
 50
63.47764199999557
 51
116.5223539999895
  0
ARC
  5
6DBD
330
1E
100
AcDbEntity
  8
製品
  6
Continuous
 62
     3
100
AcDbCircle
 10
264.4698154058377
 20
263.1572348843166
 30
0.0
 40
0.6
100
AcDbArc
 50
63.47764199999557
 51
116.5223539999895
  0
ARC
  5
6DBE
330
1E
100
AcDbEntity
  8
製品
  6
Continuous
 62
     3
100
AcDbCircle
 10
265.6118154058375
 20
264.4282348843168
 30
0.0
 40
0.6
100
AcDbArc
 50
243.4776460000104
 51
270.0
  0
ARC
  5
6DBF
330
1E
100
AcDbEntity
  8
製品
  6
Continuous
 62
     3
100
AcDbCircle
 10
265.6118154058375
 20
263.9282348843167
 30
0.0
 40
0.6
100
AcDbArc
 50
243.4776460000104
 51
270.0
  0
ARC
  5
6DC0
330
1E
100
AcDbEntity
  8
製品
  6
Continuous
 62
     3
100
AcDbCircle
 10
263.3278154058374
 20
263.9282348843167
 30
0.0
 40
0.6
100
AcDbArc
 50
270.0
 51
296.5223689999841
  0
ARC
  5
6DC1
330
1E
100
AcDbEntity
  8
製品
  6
Continuous
 62
     3
100
AcDbCircle
 10
263.3278154058374
 20
264.4282348843168
 30
0.0
 40
0.6
100
AcDbArc
 50
270.0
 51
296.5223689999841
  0
ARC
  5
6DC2
330
1E
100
AcDbEntity
  8
製品
  6
Continuous
 62
     3
100
AcDbCircle
 10
256.9878154058377
 20
263.9602348843165
 30
0.0
 40
0.6
100
AcDbArc
 50
251.5348510000121
 51
288.4651489999878
  0
ARC
  5
6DC3
330
1E
100
AcDbEntity
  8
製品
  6
Continuous
 62
     3
100
AcDbCircle
 10
256.9878154058377
 20
264.4602348843164
 30
0.0
 40
0.6
100
AcDbArc
 50
251.5348510000121
 51
288.4651489999878
  0
LINE
  5
6DC4
330
1E
100
AcDbEntity
  8
製品
  6
Continuous
 62
     3
100
AcDbLine
 10
257.1778154058378
 20
263.8912348843165
 30
0.0
 11
258.2518154058374
 21
264.2492348843167
 31
0.0
  0
ARC
  5
6DC5
330
1E
100
AcDbEntity
  8
製品
  6
Continuous
 62
     3
100
AcDbCircle
 10
258.4418154058374
 20
263.6802348843167
 30
0.0
 40
0.6
100
AcDbArc
 50
63.47764199999557
 51
108.4651489999878
  0
LINE
  5
6DC6
330
1E
100
AcDbEntity
  8
製品
  6
Continuous
 62
     3
100
AcDbLine
 10
257.1778154058378
 20
263.3912348843165
 30
0.0
 11
258.2518154058374
 21
263.7492348843167
 31
0.0
  0
ARC
  5
6DC7
330
1E
100
AcDbEntity
  8
製品
  6
Continuous
 62
     3
100
AcDbCircle
 10
258.4418154058374
 20
263.1802348843167
 30
0.0
 40
0.6
100
AcDbArc
 50
63.47764199999557
 51
108.4651489999878
  0
LINE
  5
6DC8
330
1E
100
AcDbEntity
  8
製品
  6
Continuous
 62
     3
100
AcDbLine
 10
258.7098154058375
 20
264.2172348843165
 30
0.0
 11
259.3618154058375
 21
263.8912348843165
 31
0.0
  0
ARC
  5
6DC9
330
1E
100
AcDbEntity
  8
製品
  6
Continuous
 62
     3
100
AcDbCircle
 10
259.6298154058375
 20
264.4282348843168
 30
0.0
 40
0.6
100
AcDbArc
 50
243.4776460000104
 51
270.0
  0
LINE
  5
6DCA
330
1E
100
AcDbEntity
  8
製品
  6
Continuous
 62
     3
100
AcDbLine
 10
258.7098154058375
 20
263.7172348843165
 30
0.0
 11
259.3618154058375
 21
263.3912348843165
 31
0.0
  0
ARC
  5
6DCB
330
1E
100
AcDbEntity
  8
製品
  6
Continuous
 62
     3
100
AcDbCircle
 10
259.6298154058375
 20
263.9282348843167
 30
0.0
 40
0.6
100
AcDbArc
 50
243.4776460000104
 51
270.0
  0
LINE
  5
6DCC
330
1E
100
AcDbEntity
  8
製品
  6
Continuous
 62
     3
100
AcDbLine
 10
259.6298154058375
 20
263.3282348843164
 30
0.0
 11
263.3278154058374
 21
263.3282348843164
 31
0.0
  0
LINE
  5
6DCD
330
1E
100
AcDbEntity
  8
製品
  6
Continuous
 62
     3
100
AcDbLine
 10
259.6298154058375
 20
263.8282348843164
 30
0.0
 11
263.3278154058374
 21
263.8282348843164
 31
0.0
  0
ARC
  5
6DCE
330
1E
100
AcDbEntity
  8
製品
  6
Continuous
 62
     3
100
AcDbCircle
 10
252.4878154058377
 20
263.6962348843163
 30
0.0
 40
0.6
100
AcDbArc
 50
71.53485100001211
 51
108.4651489999878
  0
ARC
  5
6DCF
330
1E
100
AcDbEntity
  8
製品
  6
Continuous
 62
     3
100
AcDbCircle
 10
252.4878154058377
 20
263.1962348843163
 30
0.0
 40
0.6
100
AcDbArc
 50
71.53485100001211
 51
108.4651489999878
  0
LINE
  5
6DD0
330
1E
100
AcDbEntity
  8
製品
  6
Continuous
 62
     3
100
AcDbLine
 10
252.6778154058378
 20
264.2652348843167
 30
0.0
 11
253.7978154058377
 21
263.8912348843165
 31
0.0
  0
LINE
  5
6DD1
330
1E
100
AcDbEntity
  8
製品
  6
Continuous
 62
     3
100
AcDbLine
 10
252.6778154058378
 20
263.7652348843167
 30
0.0
 11
253.7978154058377
 21
263.3912348843165
 31
0.0
  0
ARC
  5
6DD2
330
1E
100
AcDbEntity
  8
製品
  6
Continuous
 62
     3
100
AcDbCircle
 10
253.9878154058377
 20
264.4602348843164
 30
0.0
 40
0.6
100
AcDbArc
 50
251.5348510000121
 51
288.4651489999878
  0
ARC
  5
6DD3
330
1E
100
AcDbEntity
  8
製品
  6
Continuous
 62
     3
100
AcDbCircle
 10
253.9878154058377
 20
263.9602348843165
 30
0.0
 40
0.6
100
AcDbArc
 50
251.5348510000121
 51
288.4651489999878
  0
LINE
  5
6DD4
330
1E
100
AcDbEntity
  8
製品
  6
Continuous
 62
     3
100
AcDbLine
 10
254.1778154058377
 20
263.8912348843165
 30
0.0
 11
255.2978154058377
 21
264.2652348843167
 31
0.0
  0
ARC
  5
6DD5
330
1E
100
AcDbEntity
  8
製品
  6
Continuous
 62
     3
100
AcDbCircle
 10
255.4878154058377
 20
263.6962348843163
 30
0.0
 40
0.6
100
AcDbArc
 50
71.53485100001211
 51
108.4651489999878
  0
LINE
  5
6DD6
330
1E
100
AcDbEntity
  8
製品
  6
Continuous
 62
     3
100
AcDbLine
 10
254.1778154058377
 20
263.3912348843165
 30
0.0
 11
255.2978154058377
 21
263.7652348843167
 31
0.0
  0
ARC
  5
6DD7
330
1E
100
AcDbEntity
  8
製品
  6
Continuous
 62
     3
100
AcDbCircle
 10
255.4878154058377
 20
263.1962348843163
 30
0.0
 40
0.6
100
AcDbArc
 50
71.53485100001211
 51
108.4651489999878
  0
LINE
  5
6DD8
330
1E
100
AcDbEntity
  8
製品
  6
Continuous
 62
     3
100
AcDbLine
 10
249.6778154058377
 20
263.7652348843167
 30
0.0
 11
250.7978154058377
 21
263.3912348843165
 31
0.0
  0
LINE
  5
6DD9
330
1E
100
AcDbEntity
  8
製品
  6
Continuous
 62
     3
100
AcDbLine
 10
249.6778154058377
 20
264.2652348843167
 30
0.0
 11
250.7978154058377
 21
263.8912348843165
 31
0.0
  0
ARC
  5
6DDA
330
1E
100
AcDbEntity
  8
製品
  6
Continuous
 62
     3
100
AcDbCircle
 10
249.4878154058377
 20
263.6962348843163
 30
0.0
 40
0.6
100
AcDbArc
 50
71.53485100001211
 51
108.4651489999878
  0
ARC
  5
6DDB
330
1E
100
AcDbEntity
  8
製品
  6
Continuous
 62
     3
100
AcDbCircle
 10
249.4878154058377
 20
263.1962348843163
 30
0.0
 40
0.6
100
AcDbArc
 50
71.53485100001211
 51
108.4651489999878
  0
ARC
  5
6DDC
330
1E
100
AcDbEntity
  8
製品
  6
Continuous
 62
     3
100
AcDbCircle
 10
250.9878154058377
 20
263.9602348843165
 30
0.0
 40
0.6
100
AcDbArc
 50
251.5348510000121
 51
288.4651489999878
  0
ARC
  5
6DDD
330
1E
100
AcDbEntity
  8
製品
  6
Continuous
 62
     3
100
AcDbCircle
 10
250.9878154058377
 20
264.4602348843164
 30
0.0
 40
0.6
100
AcDbArc
 50
251.5348510000121
 51
288.4651489999878
  0
LINE
  5
6DDE
330
1E
100
AcDbEntity
  8
製品
  6
Continuous
 62
     3
100
AcDbLine
 10
251.1778154058378
 20
263.8912348843165
 30
0.0
 11
252.2978154058376
 21
264.2652348843167
 31
0.0
  0
LINE
  5
6DDF
330
1E
100
AcDbEntity
  8
製品
  6
Continuous
 62
     3
100
AcDbLine
 10
251.1778154058378
 20
263.3912348843165
 30
0.0
 11
252.2978154058376
 21
263.7652348843167
 31
0.0
  0
LINE
  5
6DE0
330
1E
100
AcDbEntity
  8
製品
  6
Continuous
 62
     3
100
AcDbLine
 10
255.6778154058378
 20
263.7652348843167
 30
0.0
 11
256.7978154058376
 21
263.3912348843165
 31
0.0
  0
LINE
  5
6DE1
330
1E
100
AcDbEntity
  8
製品
  6
Continuous
 62
     3
100
AcDbLine
 10
255.6778154058378
 20
264.2652348843167
 30
0.0
 11
256.7978154058376
 21
263.8912348843165
 31
0.0
  0
ARC
  5
6DE2
330
1E
100
AcDbEntity
  8
製品
  6
Continuous
 62
     3
100
AcDbCircle
 10
246.5338154058375
 20
263.1802348843167
 30
0.0
 40
0.6
100
AcDbArc
 50
71.53485100001211
 51
116.5223539999895
  0
LINE
  5
6DE3
330
1E
100
AcDbEntity
  8
製品
  6
Continuous
 62
     3
100
AcDbLine
 10
245.6138154058375
 20
263.8912348843165
 30
0.0
 11
246.2658154058375
 21
264.2172348843165
 31
0.0
  0
ARC
  5
6DE4
330
1E
100
AcDbEntity
  8
製品
  6
Continuous
 62
     3
100
AcDbCircle
 10
246.5338154058375
 20
263.6802348843167
 30
0.0
 40
0.6
100
AcDbArc
 50
71.56504799999338
 51
116.5223539999895
  0
LINE
  5
6DE5
330
1E
100
AcDbEntity
  8
製品
  6
Continuous
 62
     3
100
AcDbLine
 10
246.7238154058376
 20
263.7492348843167
 30
0.0
 11
247.7988154058374
 21
263.3912348843165
 31
0.0
  0
ARC
  5
6DE6
330
1E
100
AcDbEntity
  8
製品
  6
Continuous
 62
     3
100
AcDbCircle
 10
247.9878154058377
 20
263.9602348843165
 30
0.0
 40
0.6
100
AcDbArc
 50
251.6254879999921
 51
288.4651489999878
  0
LINE
  5
6DE7
330
1E
100
AcDbEntity
  8
製品
  6
Continuous
 62
     3
100
AcDbLine
 10
245.6138154058375
 20
263.3912348843165
 30
0.0
 11
246.2658154058375
 21
263.7172348843165
 31
0.0
  0
LINE
  5
6DE8
330
1E
100
AcDbEntity
  8
製品
  6
Continuous
 62
     3
100
AcDbLine
 10
246.7238154058376
 20
264.2502348843164
 30
0.0
 11
247.7978154058376
 21
263.8912348843165
 31
0.0
  0
ARC
  5
6DE9
330
1E
100
AcDbEntity
  8
製品
  6
Continuous
 62
     3
100
AcDbCircle
 10
247.9878154058377
 20
264.4612348843167
 30
0.0
 40
0.6
100
AcDbArc
 50
251.5650479999934
 51
288.4349370000021
  0
ARC
  5
6DEA
330
1E
100
AcDbEntity
  8
製品
  6
Continuous
 62
     3
100
AcDbCircle
 10
245.3458154058374
 20
264.4282348843168
 30
0.0
 40
0.6
100
AcDbArc
 50
270.0
 51
296.5223689999841
  0
ARC
  5
6DEB
330
1E
100
AcDbEntity
  8
製品
  6
Continuous
 62
     3
100
AcDbCircle
 10
245.3458154058374
 20
263.9282348843167
 30
0.0
 40
0.6
100
AcDbArc
 50
270.0
 51
296.5223689999841
  0
LINE
  5
6DEC
330
1E
100
AcDbEntity
  8
製品
  6
Continuous
 62
     3
100
AcDbLine
 10
242.4698154058377
 20
263.8282348843164
 30
0.0
 11
245.3458154058374
 21
263.8282348843164
 31
0.0
  0
LINE
  5
6DED
330
1E
100
AcDbEntity
  8
製品
  6
Continuous
 62
     3
100
AcDbLine
 10
242.4698154058377
 20
263.3282348843164
 30
0.0
 11
245.4098154058377
 21
263.3282348843164
 31
0.0
  0
ARC
  5
6DEE
330
1E
100
AcDbEntity
  8
製品
  6
Continuous
 62
     3
100
AcDbCircle
 10
242.4698154058377
 20
266.3282348843164
 30
0.0
 40
3.0
100
AcDbArc
 50
180.0
 51
270.0
  0
ARC
  5
6DEF
330
1E
100
AcDbEntity
  8
製品
  6
Continuous
 62
     3
100
AcDbCircle
 10
242.4698154058377
 20
266.3282348843164
 30
0.0
 40
2.5
100
AcDbArc
 50
180.0
 51
270.0
  0
LINE
  5
6DF0
330
1E
100
AcDbEntity
  8
製品
  6
Continuous
 62
     3
100
AcDbLine
 10
248.1778154058378
 20
263.8912348843165
 30
0.0
 11
249.2978154058377
 21
264.2652348843167
 31
0.0
  0
LINE
  5
6DF1
330
1E
100
AcDbEntity
  8
製品
  6
Continuous
 62
     3
100
AcDbLine
 10
248.1778154058378
 20
263.3912348843165
 30
0.0
 11
249.2978154058377
 21
263.7652348843167
 31
0.0
  0
LINE
  5
6DF2
330
1E
100
AcDbEntity
  8
製品
  6
Continuous
 62
     3
100
AcDbLine
 10
263.5958154058374
 20
263.3912348843165
 30
0.0
 11
264.2018154058376
 21
263.6942348843164
 31
0.0
  0
LINE
  5
6DF3
330
1E
100
AcDbEntity
  8
製品
  6
Continuous
 62
     3
100
AcDbLine
 10
263.5958154058374
 20
263.8912348843165
 30
0.0
 11
264.2018154058376
 21
264.1942348843164
 31
0.0
  0
ARC
  5
6DF4
330
1E
100
AcDbEntity
  8
製品
  6
Continuous
 62
     4
100
AcDbCircle
 10
242.4698154058377
 20
280.9282348843168
 30
0.0
 40
2.0
100
AcDbArc
 50
180.0
 51
270.0
  0
LINE
  5
6DF5
330
1E
100
AcDbEntity
  8
製品
  6
Continuous
 62
     3
100
AcDbLine
 10
285.9698154058377
 20
285.3282348843164
 30
0.0
 11
285.4698154058377
 21
285.3282348843164
 31
0.0
  0
ARC
  5
6DF6
330
1E
100
AcDbEntity
  8
製品
  6
Continuous
 62
     3
100
AcDbCircle
 10
274.4698154058377
 20
284.2282348843165
 30
0.0
 40
2.5
100
AcDbArc
 50
180.0
 51
0.0
  0
LINE
  5
6DF7
330
1E
100
AcDbEntity
  8
製品
  6
Continuous
 62
     3
100
AcDbLine
 10
286.4698154058377
 20
263.8282348843164
 30
0.0
 11
283.5938154058375
 21
263.8282348843164
 31
0.0
  0
ARC
  5
6DF8
330
1E
100
AcDbEntity
  8
製品
  6
Continuous
 62
     3
100
AcDbCircle
 10
283.5938154058375
 20
264.4282348843168
 30
0.0
 40
0.6
100
AcDbArc
 50
243.4776460000104
 51
270.0
  0
ARC
  5
6DF9
330
1E
100
AcDbEntity
  8
製品
  6
Continuous
 62
     3
100
AcDbCircle
 10
283.5938154058375
 20
263.9282348843167
 30
0.0
 40
0.6
100
AcDbArc
 50
243.4776460000104
 51
270.0
  0
LINE
  5
6DFA
330
1E
100
AcDbEntity
  8
製品
  6
Continuous
 62
     3
100
AcDbLine
 10
286.4698154058377
 20
263.3282348843164
 30
0.0
 11
283.5298154058376
 21
263.3282348843164
 31
0.0
  0
ARC
  5
6DFB
330
1E
100
AcDbEntity
  8
製品
  6
Continuous
 62
     3
100
AcDbCircle
 10
282.4058154058378
 20
263.1802348843167
 30
0.0
 40
0.6
100
AcDbArc
 50
63.47764199999557
 51
108.4651489999878
  0
ARC
  5
6DFC
330
1E
100
AcDbEntity
  8
製品
  6
Continuous
 62
     3
100
AcDbCircle
 10
282.4058154058378
 20
263.6802348843167
 30
0.0
 40
0.6
100
AcDbArc
 50
63.47764199999557
 51
108.4349520000066
  0
ARC
  5
6DFD
330
1E
100
AcDbEntity
  8
製品
  6
Continuous
 62
     3
100
AcDbCircle
 10
280.9518154058376
 20
263.9602348843165
 30
0.0
 40
0.6
100
AcDbArc
 50
251.5348510000121
 51
288.3745120000078
  0
LINE
  5
6DFE
330
1E
100
AcDbEntity
  8
製品
  6
Continuous
 62
     3
100
AcDbLine
 10
282.2158154058378
 20
263.7492348843167
 30
0.0
 11
281.1408154058375
 21
263.3912348843165
 31
0.0
  0
ARC
  5
6DFF
330
1E
100
AcDbEntity
  8
製品
  6
Continuous
 62
     3
100
AcDbCircle
 10
280.9518154058376
 20
264.4612348843167
 30
0.0
 40
0.6
100
AcDbArc
 50
251.5650479999934
 51
288.4349370000021
  0
ARC
  5
6E00
330
1E
100
AcDbEntity
  8
製品
  6
Continuous
 62
     3
100
AcDbCircle
 10
279.4518154058376
 20
263.6962348843163
 30
0.0
 40
0.6
100
AcDbArc
 50
71.53485100001211
 51
108.4651489999878
  0
ARC
  5
6E01
330
1E
100
AcDbEntity
  8
製品
  6
Continuous
 62
     3
100
AcDbCircle
 10
279.4518154058376
 20
263.1962348843163
 30
0.0
 40
0.6
100
AcDbArc
 50
71.53485100001211
 51
108.4651489999878
  0
LINE
  5
6E02
330
1E
100
AcDbEntity
  8
製品
  6
Continuous
 62
     3
100
AcDbLine
 10
282.2158154058378
 20
264.2502348843164
 30
0.0
 11
281.1418154058377
 21
263.8912348843165
 31
0.0
  0
LINE
  5
6E03
330
1E
100
AcDbEntity
  8
製品
  6
Continuous
 62
     3
100
AcDbLine
 10
280.7618154058376
 20
263.8912348843165
 30
0.0
 11
279.6418154058377
 21
264.2652348843167
 31
0.0
  0
LINE
  5
6E04
330
1E
100
AcDbEntity
  8
製品
  6
Continuous
 62
     3
100
AcDbLine
 10
280.7618154058376
 20
263.3912348843165
 30
0.0
 11
279.6418154058377
 21
263.7652348843167
 31
0.0
  0
LINE
  5
6E05
330
1E
100
AcDbEntity
  8
製品
  6
Continuous
 62
     3
100
AcDbLine
 10
283.3258154058374
 20
263.8912348843165
 30
0.0
 11
282.6738154058374
 21
264.2172348843165
 31
0.0
  0
LINE
  5
6E06
330
1E
100
AcDbEntity
  8
製品
  6
Continuous
 62
     3
100
AcDbLine
 10
283.3258154058374
 20
263.3912348843165
 30
0.0
 11
282.6738154058374
 21
263.7172348843165
 31
0.0
  0
ARC
  5
6E07
330
1E
100
AcDbEntity
  8
製品
  6
Continuous
 62
     3
100
AcDbCircle
 10
286.4698154058377
 20
266.3282348843164
 30
0.0
 40
3.0
100
AcDbArc
 50
270.0
 51
0.0
  0
ARC
  5
6E08
330
1E
100
AcDbEntity
  8
製品
  6
Continuous
 62
     3
100
AcDbCircle
 10
286.4698154058377
 20
266.3282348843164
 30
0.0
 40
2.5
100
AcDbArc
 50
270.0
 51
0.0
  0
ARC
  5
6E09
330
1E
100
AcDbEntity
  8
製品
  6
Continuous
 62
     3
100
AcDbCircle
 10
276.4518154058376
 20
263.6962348843163
 30
0.0
 40
0.6
100
AcDbArc
 50
71.53485100001211
 51
108.4651489999878
  0
ARC
  5
6E0A
330
1E
100
AcDbEntity
  8
製品
  6
Continuous
 62
     3
100
AcDbCircle
 10
276.4518154058376
 20
263.1962348843163
 30
0.0
 40
0.6
100
AcDbArc
 50
71.53485100001211
 51
108.4651489999878
  0
LINE
  5
6E0B
330
1E
100
AcDbEntity
  8
製品
  6
Continuous
 62
     3
100
AcDbLine
 10
277.7618154058376
 20
263.8912348843165
 30
0.0
 11
276.6418154058377
 21
264.2652348843167
 31
0.0
  0
LINE
  5
6E0C
330
1E
100
AcDbEntity
  8
製品
  6
Continuous
 62
     3
100
AcDbLine
 10
277.7618154058376
 20
263.3912348843165
 30
0.0
 11
276.6418154058377
 21
263.7652348843167
 31
0.0
  0
LINE
  5
6E0D
330
1E
100
AcDbEntity
  8
製品
  6
Continuous
 62
     3
100
AcDbLine
 10
276.2618154058376
 20
264.2652348843167
 30
0.0
 11
275.1418154058377
 21
263.8912348843165
 31
0.0
  0
LINE
  5
6E0E
330
1E
100
AcDbEntity
  8
製品
  6
Continuous
 62
     3
100
AcDbLine
 10
276.2618154058376
 20
263.7652348843167
 30
0.0
 11
275.1418154058377
 21
263.3912348843165
 31
0.0
  0
ARC
  5
6E0F
330
1E
100
AcDbEntity
  8
製品
  6
Continuous
 62
     3
100
AcDbCircle
 10
277.9518154058377
 20
263.9602348843165
 30
0.0
 40
0.6
100
AcDbArc
 50
251.5348510000121
 51
288.4651489999878
  0
ARC
  5
6E10
330
1E
100
AcDbEntity
  8
製品
  6
Continuous
 62
     3
100
AcDbCircle
 10
277.9518154058377
 20
264.4602348843164
 30
0.0
 40
0.6
100
AcDbArc
 50
251.5348510000121
 51
288.4651489999878
  0
ARC
  5
6E11
330
1E
100
AcDbEntity
  8
製品
  6
Continuous
 62
     3
100
AcDbCircle
 10
273.4518154058377
 20
263.6962348843163
 30
0.0
 40
0.6
100
AcDbArc
 50
71.53485100001211
 51
108.4651489999878
  0
ARC
  5
6E12
330
1E
100
AcDbEntity
  8
製品
  6
Continuous
 62
     3
100
AcDbCircle
 10
273.4518154058377
 20
263.1962348843163
 30
0.0
 40
0.6
100
AcDbArc
 50
71.53485100001211
 51
108.4651489999878
  0
ARC
  5
6E13
330
1E
100
AcDbEntity
  8
製品
  6
Continuous
 62
     3
100
AcDbCircle
 10
271.9518154058377
 20
263.9602348843165
 30
0.0
 40
0.6
100
AcDbArc
 50
251.5348510000121
 51
288.4651489999878
  0
ARC
  5
6E14
330
1E
100
AcDbEntity
  8
製品
  6
Continuous
 62
     3
100
AcDbCircle
 10
271.9518154058377
 20
264.4602348843164
 30
0.0
 40
0.6
100
AcDbArc
 50
251.5348510000121
 51
288.4651489999878
  0
LINE
  5
6E15
330
1E
100
AcDbEntity
  8
製品
  6
Continuous
 62
     3
100
AcDbLine
 10
274.7618154058376
 20
263.8912348843165
 30
0.0
 11
273.6418154058377
 21
264.2652348843167
 31
0.0
  0
LINE
  5
6E16
330
1E
100
AcDbEntity
  8
製品
  6
Continuous
 62
     3
100
AcDbLine
 10
274.7618154058376
 20
263.3912348843165
 30
0.0
 11
273.6418154058377
 21
263.7652348843167
 31
0.0
  0
LINE
  5
6E17
330
1E
100
AcDbEntity
  8
製品
  6
Continuous
 62
     3
100
AcDbLine
 10
273.2618154058376
 20
263.7652348843167
 30
0.0
 11
272.1418154058377
 21
263.3912348843165
 31
0.0
  0
LINE
  5
6E18
330
1E
100
AcDbEntity
  8
製品
  6
Continuous
 62
     3
100
AcDbLine
 10
273.2618154058376
 20
264.2652348843167
 30
0.0
 11
272.1418154058377
 21
263.8912348843165
 31
0.0
  0
ARC
  5
6E19
330
1E
100
AcDbEntity
  8
製品
  6
Continuous
 62
     3
100
AcDbCircle
 10
274.9518154058376
 20
264.4602348843164
 30
0.0
 40
0.6
100
AcDbArc
 50
251.5348510000121
 51
288.4651489999878
  0
ARC
  5
6E1A
330
1E
100
AcDbEntity
  8
製品
  6
Continuous
 62
     3
100
AcDbCircle
 10
274.9518154058376
 20
263.9602348843165
 30
0.0
 40
0.6
100
AcDbArc
 50
251.5348510000121
 51
288.4651489999878
  0
ARC
  5
6E1B
330
1E
100
AcDbEntity
  8
製品
  6
Continuous
 62
     3
100
AcDbCircle
 10
270.4978154058375
 20
263.6802348843167
 30
0.0
 40
0.6
100
AcDbArc
 50
71.53485100001211
 51
116.5223539999895
  0
ARC
  5
6E1C
330
1E
100
AcDbEntity
  8
製品
  6
Continuous
 62
     3
100
AcDbCircle
 10
270.4978154058375
 20
263.1802348843167
 30
0.0
 40
0.6
100
AcDbArc
 50
71.53485100001211
 51
116.5223539999895
  0
LINE
  5
6E1D
330
1E
100
AcDbEntity
  8
製品
  6
Continuous
 62
     3
100
AcDbLine
 10
270.2298154058374
 20
264.2172348843165
 30
0.0
 11
269.5778154058374
 21
263.8912348843165
 31
0.0
  0
ARC
  5
6E1E
330
1E
100
AcDbEntity
  8
製品
  6
Continuous
 62
     3
100
AcDbCircle
 10
269.3098154058374
 20
264.4282348843168
 30
0.0
 40
0.6
100
AcDbArc
 50
270.0
 51
296.5223689999841
  0
ARC
  5
6E1F
330
1E
100
AcDbEntity
  8
製品
  6
Continuous
 62
     3
100
AcDbCircle
 10
269.3098154058374
 20
263.9282348843167
 30
0.0
 40
0.6
100
AcDbArc
 50
270.0
 51
296.5223689999841
  0
LINE
  5
6E20
330
1E
100
AcDbEntity
  8
製品
  6
Continuous
 62
     3
100
AcDbLine
 10
270.2298154058374
 20
263.7172348843165
 30
0.0
 11
269.5778154058374
 21
263.3912348843165
 31
0.0
  0
LINE
  5
6E21
330
1E
100
AcDbEntity
  8
製品
  6
Continuous
 62
     3
100
AcDbLine
 10
271.7618154058376
 20
263.8912348843165
 30
0.0
 11
270.6878154058375
 21
264.2492348843167
 31
0.0
  0
LINE
  5
6E22
330
1E
100
AcDbEntity
  8
製品
  6
Continuous
 62
     3
100
AcDbLine
 10
271.7618154058376
 20
263.3912348843165
 30
0.0
 11
270.6878154058375
 21
263.7492348843167
 31
0.0
  0
LINE
  5
6E23
330
1E
100
AcDbEntity
  8
製品
  6
Continuous
 62
     3
100
AcDbLine
 10
279.2618154058376
 20
263.7652348843167
 30
0.0
 11
278.1418154058377
 21
263.3912348843165
 31
0.0
  0
LINE
  5
6E24
330
1E
100
AcDbEntity
  8
製品
  6
Continuous
 62
     3
100
AcDbLine
 10
279.2618154058376
 20
264.2652348843167
 30
0.0
 11
278.1418154058377
 21
263.8912348843165
 31
0.0
  0
ARC
  5
6E25
330
1E
100
AcDbEntity
  8
製品
  6
Continuous
 62
     4
100
AcDbCircle
 10
286.4698154058377
 20
280.9282348843168
 30
0.0
 40
2.0
100
AcDbArc
 50
270.0
 51
0.0
  0
LINE
  5
6E26
330
1E
100
AcDbEntity
  8
製品
  6
Continuous
 62
     4
100
AcDbLine
 10
288.4698154058377
 20
327.1282368843163
 30
0.0
 11
240.4698154058377
 21
327.1282368843163
 31
0.0
  0
TEXT
  5
6E27
330
1E
100
AcDbEntity
  8
図面枠
  6
Continuous
 62
     3
100
AcDbText
 10
246.8096824058378
 20
337.6690768843165
 30
0.0
 40
5.0
  1
ダブルクリップ２５
 41
0.8
  7
ACAD
100
AcDbText
  0
ARC
  5
6E28
330
1E
100
AcDbEntity
  8
製品
  6
Continuous
 62
     3
100
AcDbCircle
 10
268.9698154058377
 20
300.3282348843164
 30
0.0
 40
3.0
100
AcDbArc
 50
0.0
 51
90.0
  0
LINE
  5
6E29
330
1E
100
AcDbEntity
  8
製品
  6
Continuous
 62
     3
100
AcDbLine
 10
280.4698154058377
 20
321.3282348843164
 30
0.0
 11
248.4698154058377
 21
321.3282348843164
 31
0.0
  0
LINE
  5
6E2A
330
1E
100
AcDbEntity
  8
製品
  6
Continuous
 62
     3
100
AcDbLine
 10
248.9698154058377
 20
303.3282348843164
 30
0.0
 11
248.4698154058377
 21
303.3282348843164
 31
0.0
  0
LINE
  5
6E2B
330
1E
100
AcDbEntity
  8
製品
  6
Continuous
 62
     3
100
AcDbLine
 10
246.4698154058377
 20
305.3282348843164
 30
0.0
 11
246.4698154058377
 21
319.3282348843164
 31
0.0
  0
ARC
  5
6E2C
330
1E
100
AcDbEntity
  8
製品
  6
Continuous
 62
     3
100
AcDbCircle
 10
248.4698154058377
 20
305.3282348843164
 30
0.0
 40
2.0
100
AcDbArc
 50
180.0
 51
270.0
  0
ARC
  5
6E2D
330
1E
100
AcDbEntity
  8
製品
  6
Continuous
 62
     3
100
AcDbCircle
 10
248.4698154058377
 20
319.3282348843164
 30
0.0
 40
2.0
100
AcDbArc
 50
90.0
 51
180.0
  0
LINE
  5
6E2E
330
1E
100
AcDbEntity
  8
製品
  6
Continuous
 62
     3
100
AcDbLine
 10
240.9698154058377
 20
287.8282348843164
 30
0.0
 11
241.9698154058377
 21
287.8282348843164
 31
0.0
  0
ARC
  5
6E2F
330
1E
100
AcDbEntity
  8
製品
  6
Continuous
 62
     3
100
AcDbCircle
 10
241.9698154058377
 20
286.8282348843164
 30
0.0
 40
1.0
100
AcDbArc
 50
0.0
 51
90.0
  0
ARC
  5
6E30
330
1E
100
AcDbEntity
  8
製品
  6
Continuous
 62
     3
100
AcDbCircle
 10
241.9698154058377
 20
286.8282348843164
 30
0.0
 40
1.5
100
AcDbArc
 50
0.0
 51
90.0
  0
ARC
  5
6E31
330
1E
100
AcDbEntity
  8
製品
  6
Continuous
 62
     4
100
AcDbCircle
 10
241.4139714058377
 20
287.0282348843167
 30
0.0
 40
0.8
100
AcDbArc
 50
11.30993199999679
 51
90.0
  0
ARC
  5
6E32
330
1E
100
AcDbEntity
  8
製品
  6
Continuous
 62
     3
100
AcDbCircle
 10
240.9698154058377
 20
286.8282348843164
 30
0.0
 40
1.0
100
AcDbArc
 50
90.0
 51
180.0
  0
ARC
  5
6E33
330
1E
100
AcDbEntity
  8
製品
  6
Continuous
 62
     3
100
AcDbCircle
 10
240.9698154058377
 20
286.8282348843164
 30
0.0
 40
1.5
100
AcDbArc
 50
90.0
 51
180.0
  0
LINE
  5
6E34
330
1E
100
AcDbEntity
  8
製品
  6
Continuous
 62
     4
100
AcDbLine
 10
245.4698154058377
 20
296.6301008843166
 30
0.0
 11
245.4698154058377
 21
285.8282348843164
 31
0.0
  0
ARC
  5
6E35
330
1E
100
AcDbEntity
  8
製品
  6
Continuous
 62
     4
100
AcDbCircle
 10
242.4698154058377
 20
303.3282348843164
 30
0.0
 40
2.0
100
AcDbArc
 50
180.0
 51
258.2626990000028
  0
ARC
  5
6E36
330
1E
100
AcDbEntity
  8
製品
  6
Continuous
 62
     3
100
AcDbCircle
 10
248.9698154058377
 20
300.3282348843164
 30
0.0
 40
3.0
100
AcDbArc
 50
0.0
 51
90.0
  0
ARC
  5
6E37
330
1E
100
AcDbEntity
  8
製品
  6
Continuous
 62
     3
100
AcDbCircle
 10
259.9698154058377
 20
300.3282348843164
 30
0.0
 40
3.0
100
AcDbArc
 50
90.0
 51
180.0
  0
ARC
  5
6E38
330
1E
100
AcDbEntity
  8
製品
  6
Continuous
 62
     4
100
AcDbCircle
 10
240.4698154058377
 20
296.6301008843166
 30
0.0
 40
5.0
100
AcDbArc
 50
0.0
 51
71.73258900000337
  0
LINE
  5
6E39
330
1E
100
AcDbEntity
  8
製品
  6
Continuous
 62
     3
100
AcDbLine
 10
259.9698154058377
 20
303.3282348843164
 30
0.0
 11
268.9698154058377
 21
303.3282348843164
 31
0.0
  0
LINE
  5
6E3A
330
1E
100
AcDbEntity
  8
製品
  6
Continuous
 62
     4
100
AcDbLine
 10
240.4698154058377
 20
327.1282368843163
 30
0.0
 11
240.4698154058377
 21
303.3282348843164
 31
0.0
  0
ARC
  5
6E3B
330
1E
100
AcDbEntity
  8
製品
  6
Continuous
 62
     3
100
AcDbCircle
 10
280.4698154058377
 20
319.3282348843164
 30
0.0
 40
2.0
100
AcDbArc
 50
0.0
 51
90.0
  0
LINE
  5
6E3C
330
1E
100
AcDbEntity
  8
製品
  6
Continuous
 62
     3
100
AcDbLine
 10
279.9698154058377
 20
303.3282348843164
 30
0.0
 11
280.4698154058377
 21
303.3282348843164
 31
0.0
  0
ARC
  5
6E3D
330
1E
100
AcDbEntity
  8
製品
  6
Continuous
 62
     3
100
AcDbCircle
 10
280.4698154058377
 20
305.3282348843164
 30
0.0
 40
2.0
100
AcDbArc
 50
270.0
 51
0.0
  0
LINE
  5
6E3E
330
1E
100
AcDbEntity
  8
製品
  6
Continuous
 62
     3
100
AcDbLine
 10
282.4698154058377
 20
319.3282348843164
 30
0.0
 11
282.4698154058377
 21
305.3282348843164
 31
0.0
  0
ARC
  5
6E3F
330
1E
100
AcDbEntity
  8
製品
  6
Continuous
 62
     3
100
AcDbCircle
 10
287.9698154058377
 20
286.8282348843164
 30
0.0
 40
1.0
100
AcDbArc
 50
0.0
 51
90.0
  0
LINE
  5
6E40
330
1E
100
AcDbEntity
  8
製品
  6
Continuous
 62
     3
100
AcDbLine
 10
287.9698154058377
 20
287.8282348843164
 30
0.0
 11
286.9698154058377
 21
287.8282348843164
 31
0.0
  0
ARC
  5
6E41
330
1E
100
AcDbEntity
  8
製品
  6
Continuous
 62
     3
100
AcDbCircle
 10
287.9698154058377
 20
286.8282348843164
 30
0.0
 40
1.5
100
AcDbArc
 50
0.0
 51
90.0
  0
ARC
  5
6E42
330
1E
100
AcDbEntity
  8
製品
  6
Continuous
 62
     4
100
AcDbCircle
 10
287.5256584058378
 20
287.0282348843167
 30
0.0
 40
0.8
100
AcDbArc
 50
90.0
 51
168.6900680000032
  0
ARC
  5
6E43
330
1E
100
AcDbEntity
  8
製品
  6
Continuous
 62
     3
100
AcDbCircle
 10
286.9698154058377
 20
286.8282348843164
 30
0.0
 40
1.0
100
AcDbArc
 50
90.0
 51
180.0
  0
ARC
  5
6E44
330
1E
100
AcDbEntity
  8
製品
  6
Continuous
 62
     3
100
AcDbCircle
 10
286.9698154058377
 20
286.8282348843164
 30
0.0
 40
1.5
100
AcDbArc
 50
90.0
 51
180.0
  0
LINE
  5
6E45
330
1E
100
AcDbEntity
  8
製品
  6
Continuous
 62
     4
100
AcDbLine
 10
283.4698154058377
 20
296.6301008843166
 30
0.0
 11
283.4698154058377
 21
285.8282348843164
 31
0.0
  0
ARC
  5
6E46
330
1E
100
AcDbEntity
  8
製品
  6
Continuous
 62
     3
100
AcDbCircle
 10
279.9698154058377
 20
300.3282348843164
 30
0.0
 40
3.0
100
AcDbArc
 50
90.0
 51
180.0
  0
ARC
  5
6E47
330
1E
100
AcDbEntity
  8
製品
  6
Continuous
 62
     4
100
AcDbCircle
 10
286.4698154058377
 20
303.3282348843164
 30
0.0
 40
2.0
100
AcDbArc
 50
281.7373009999972
 51
0.0
  0
ARC
  5
6E48
330
1E
100
AcDbEntity
  8
製品
  6
Continuous
 62
     4
100
AcDbCircle
 10
288.4698154058377
 20
296.6301008843166
 30
0.0
 40
5.0
100
AcDbArc
 50
108.2674109999966
 51
180.0
  0
LINE
  5
6E49
330
1E
100
AcDbEntity
  8
製品
  6
Continuous
 62
     4
100
AcDbLine
 10
288.4698154058377
 20
327.1282368843163
 30
0.0
 11
288.4698154058377
 21
303.3282348843164
 31
0.0
  0
ARC
  5
6E4A
330
1E
100
AcDbEntity
  8
製品
  6
Continuous
 62
     4
100
AcDbCircle
 10
520.4066854058376
 20
210.8241488843165
 30
0.0
 40
3.5
100
AcDbArc
 50
120.0007250000038
 51
209.9925380000009
  0
ARC
  5
6E4B
330
1E
100
AcDbEntity
  8
製品
  6
Continuous
 62
     4
100
AcDbCircle
 10
520.9456854058374
 20
209.4031488843167
 30
0.0
 40
5.0
100
AcDbArc
 50
120.0007250000038
 51
180.0
  0
ARC
  5
6E4C
330
1E
100
AcDbEntity
  8
製品
  6
Continuous
 62
     4
100
AcDbCircle
 10
520.9456854058374
 20
209.4031488843167
 30
0.0
 40
7.0
100
AcDbArc
 50
120.0007250000038
 51
180.0
  0
ARC
  5
6E4D
330
1E
100
AcDbEntity
  8
製品
  6
Continuous
 62
     4
100
AcDbCircle
 10
499.2456854058376
 20
211.1141488843164
 30
0.0
 40
3.0
100
AcDbArc
 50
343.2989200000037
 51
16.70107499999898
  0
ARC
  5
6E4E
330
1E
100
AcDbEntity
  8
製品
  6
Continuous
 62
     4
100
AcDbCircle
 10
499.2456854058376
 20
211.1141488843164
 30
0.0
 40
5.0
100
AcDbArc
 50
346.2202700000135
 51
16.70253800000558
  0
LINE
  5
6E4F
330
1E
100
AcDbEntity
  8
製品
  6
Continuous
 62
     4
100
AcDbLine
 10
418.2421314058378
 20
267.1141488843165
 30
0.0
 11
418.2421314058378
 21
169.1141488843164
 31
0.0
  0
LINE
  5
6E50
330
1E
100
AcDbEntity
  8
製品
  6
Continuous
 62
     4
100
AcDbLine
 10
395.2421314058377
 20
169.1141488843164
 30
0.0
 11
395.2421314058377
 21
267.1141488843165
 31
0.0
  0
LINE
  5
6E51
330
1E
100
AcDbEntity
  8
製品
  6
PLINE3
 62
     3
100
AcDbLine
 10
406.7421314058377
 20
352.8423388843167
 30
0.0
 11
406.7421314058377
 21
159.1141488843164
 31
0.0
  0
LINE
  5
6E52
330
1E
100
AcDbEntity
  8
製品
  6
Continuous
 62
     3
100
AcDbLine
 10
463.4121504058374
 20
209.1141488843164
 30
0.0
 11
418.2421314058378
 21
209.1141488843164
 31
0.0
  0
LINE
  5
6E53
330
1E
100
AcDbEntity
  8
製品
  6
Continuous
 62
     3
100
AcDbLine
 10
463.4121504058374
 20
171.1141488843164
 30
0.0
 11
418.2421314058378
 21
171.1141488843164
 31
0.0
  0
DIMENSION
  5
6E54
330
1E
100
AcDbEntity
  8
寸法
  6
Continuous
100
AcDbDimension
  2
*D10
 10
326.9024384058378
 20
146.1183888843167
 30
0.0
 11
323.6024384058378
 21
158.6162688843166
 31
0.0
 70
    32
 71
     5
 42
24.99575999999979
  3
AutoCAD
100
AcDbAlignedDimension
 13
326.9024384058378
 23
171.1141488843164
 33
0.0
 14
326.9024384058378
 24
146.1183888843167
 34
0.0
 50
90.0
100
AcDbRotatedDimension
1001
ACAD
1000
DSTYLE
1002
{
1070
   147
1040
0.8
1070
   140
1040
10.0
1002
}
  0
DIMENSION
  5
6E55
330
1E
100
AcDbEntity
  8
寸法
  6
Continuous
100
AcDbDimension
  2
*D11
 10
326.9024384058378
 20
171.1141488843164
 30
0.0
 11
323.6024384058378
 21
190.1141488843165
 31
0.0
 70
    32
 71
     5
 42
38.0
  3
AutoCAD
100
AcDbAlignedDimension
 13
326.9024384058378
 23
209.1141488843164
 33
0.0
 14
326.9024384058378
 24
171.1141488843164
 34
0.0
 50
90.0
100
AcDbRotatedDimension
1001
ACAD
1000
DSTYLE
1002
{
1070
   147
1040
0.8
1070
   140
1040
10.0
1002
}
  0
LINE
  5
6E56
330
1E
100
AcDbEntity
  8
製品
  6
Continuous
 62
     4
100
AcDbLine
 10
418.2421314058378
 20
169.1141488843164
 30
0.0
 11
395.2421314058377
 21
169.1141488843164
 31
0.0
  0
TEXT
  5
6E57
330
1E
100
AcDbEntity
  8
図面枠
  6
Continuous
 62
     3
100
AcDbText
 10
395.3565884058374
 20
146.4653718843166
 30
0.0
 40
5.0
  1
ハンガ２５
 41
0.8
  7
ACAD
100
AcDbText
  0
LINE
  5
6E58
330
1E
100
AcDbEntity
  8
製品
  6
Continuous
 62
     3
100
AcDbLine
 10
505.4656854058374
 20
207.5141488843165
 30
0.0
 11
514.9656854058374
 21
207.5141488843165
 31
0.0
  0
LINE
  5
6E59
330
1E
100
AcDbEntity
  8
製品
  6
Continuous
 62
     3
100
AcDbLine
 10
514.9656854058374
 20
209.1141488843164
 30
0.0
 11
505.4656854058374
 21
209.1141488843164
 31
0.0
  0
LINE
  5
6E5A
330
1E
100
AcDbEntity
  8
製品
  6
Continuous
 62
     3
100
AcDbLine
 10
514.9656854058374
 20
172.7141488843163
 30
0.0
 11
505.4656854058374
 21
172.7141488843163
 31
0.0
  0
LINE
  5
6E5B
330
1E
100
AcDbEntity
  8
製品
  6
Continuous
 62
     4
100
AcDbLine
 10
504.9656854058374
 20
169.1141488843164
 30
0.0
 11
514.4656854058374
 21
169.1141488843164
 31
0.0
  0
LINE
  5
6E5C
330
1E
100
AcDbEntity
  8
製品
  6
Continuous
 62
     4
100
AcDbLine
 10
504.9656854058374
 20
171.1141488843164
 30
0.0
 11
514.4656854058374
 21
171.1141488843164
 31
0.0
  0
LINE
  5
6E5D
330
1E
100
AcDbEntity
  8
製品
  6
Continuous
 62
     3
100
AcDbLine
 10
468.0600794058376
 20
171.1141488843164
 30
0.0
 11
537.5045244058377
 21
171.1141488843164
 31
0.0
  0
TEXT
  5
6E5F
330
1E
100
AcDbEntity
  8
図面枠
  6
Continuous
 62
     3
100
AcDbText
 10
445.2596344058378
 20
188.4267598843167
 30
0.0
 40
5.0
  1
ＣＣ－２５
 41
0.8
  7
ACAD
100
AcDbText
  0
LINE
  5
6E60
330
1E
100
AcDbEntity
  8
製品
  6
Continuous
 62
     4
100
AcDbLine
 10
501.1766854058377
 20
207.1121488843165
 30
0.0
 11
502.1186854058377
 21
210.2521488843164
 31
0.0
  0
LINE
  5
6E61
330
1E
100
AcDbEntity
  8
製品
  6
Continuous
 62
     4
100
AcDbLine
 10
503.3217494058375
 20
207.9141488843166
 30
0.0
 11
504.1015664058376
 21
209.9223328843164
 31
0.0
  0
ARC
  5
6E62
330
1E
100
AcDbEntity
  8
製品
  6
Continuous
 62
     3
100
AcDbCircle
 10
505.4656854058374
 20
206.6141488843164
 30
0.0
 40
0.9
100
AcDbArc
 50
90.0
 51
180.0
  0
ARC
  5
6E63
330
1E
100
AcDbEntity
  8
製品
  6
Continuous
 62
     4
100
AcDbCircle
 10
505.9656854058374
 20
205.6751488843166
 30
0.0
 40
5.0
100
AcDbArc
 50
163.2974700000118
 51
180.0
  0
ARC
  5
6E64
330
1E
100
AcDbEntity
  8
製品
  6
Continuous
 62
     3
100
AcDbCircle
 10
505.4656854058374
 20
206.6141488843164
 30
0.0
 40
2.5
100
AcDbArc
 50
90.0
 51
181.9795800000113
  0
ARC
  5
6E65
330
1E
100
AcDbEntity
  8
製品
  6
Continuous
 62
     3
100
AcDbCircle
 10
505.4656854058374
 20
173.6141488843164
 30
0.0
 40
0.9
100
AcDbArc
 50
180.0
 51
270.0
  0
ARC
  5
6E66
330
1E
100
AcDbEntity
  8
製品
  6
Continuous
 62
     4
100
AcDbCircle
 10
504.9656854058374
 20
173.1141488843164
 30
0.0
 40
2.0
100
AcDbArc
 50
180.0
 51
270.0
  0
ARC
  5
6E67
330
1E
100
AcDbEntity
  8
製品
  6
Continuous
 62
     4
100
AcDbCircle
 10
504.9656854058374
 20
173.1141488843164
 30
0.0
 40
4.0
100
AcDbArc
 50
180.0
 51
270.0
  0
LINE
  5
6E68
330
1E
100
AcDbEntity
  8
製品
  6
Continuous
 62
     3
100
AcDbLine
 10
504.5656854058377
 20
206.6141488843164
 30
0.0
 11
504.5656854058377
 21
173.6141488843164
 31
0.0
  0
LINE
  5
6E69
330
1E
100
AcDbEntity
  8
製品
  6
Continuous
 62
     4
100
AcDbLine
 10
500.9656854058374
 20
205.6751488843166
 30
0.0
 11
500.9656854058374
 21
173.1141488843164
 31
0.0
  0
LINE
  5
6E6A
330
1E
100
AcDbEntity
  8
製品
  6
Continuous
 62
     4
100
AcDbLine
 10
502.9656854058374
 20
206.6182648843165
 30
0.0
 11
502.9656854058374
 21
173.1141488843164
 31
0.0
  0
LINE
  5
6E6B
330
1E
100
AcDbEntity
  8
製品
  6
Continuous
 62
     4
100
AcDbLine
 10
517.3516854058374
 20
209.1141488843164
 30
0.0
 11
517.3746854058375
 21
209.0741488843165
 31
0.0
  0
LINE
  5
6E6C
330
1E
100
AcDbEntity
  8
製品
  6
Continuous
 62
     4
100
AcDbLine
 10
515.9456854058374
 20
209.4031488843167
 30
0.0
 11
515.9456854058374
 21
209.1141488843164
 31
0.0
  0
LINE
  5
6E6D
330
1E
100
AcDbEntity
  8
製品
  6
Continuous
 62
     3
100
AcDbLine
 10
514.9656854058374
 20
209.1141488843164
 30
0.0
 11
514.9656854058374
 21
207.5141488843165
 31
0.0
  0
LINE
  5
6E6E
330
1E
100
AcDbEntity
  8
製品
  6
Continuous
 62
     4
100
AcDbLine
 10
513.9456854058375
 20
209.4031488843167
 30
0.0
 11
513.9456854058375
 21
209.1141488843164
 31
0.0
  0
LINE
  5
6E6F
330
1E
100
AcDbEntity
  8
製品
  6
Continuous
 62
     4
100
AcDbLine
 10
515.9456854058374
 20
209.1141488843164
 30
0.0
 11
513.9456854058375
 21
209.1141488843164
 31
0.0
  0
LINE
  5
6E70
330
1E
100
AcDbEntity
  8
製品
  6
Continuous
 62
     3
100
AcDbLine
 10
514.9656854058374
 20
171.1776578843165
 30
0.0
 11
514.9656854058374
 21
172.7141488843163
 31
0.0
  0
ARC
  5
6E71
330
1E
100
AcDbEntity
  8
製品
  6
Continuous
 62
     4
100
AcDbCircle
 10
514.4656854058374
 20
173.1141488843164
 30
0.0
 40
2.0
100
AcDbArc
 50
270.0
 51
0.0
  0
ARC
  5
6E72
330
1E
100
AcDbEntity
  8
製品
  6
Continuous
 62
     4
100
AcDbCircle
 10
514.4656854058374
 20
173.1141488843164
 30
0.0
 40
4.0
100
AcDbArc
 50
270.0
 51
0.0
  0
LINE
  5
6E73
330
1E
100
AcDbEntity
  8
製品
  6
Continuous
 62
     4
100
AcDbLine
 10
518.4656854058374
 20
173.1141488843164
 30
0.0
 11
521.6656854058377
 21
193.6141488843164
 31
0.0
  0
LINE
  5
6E74
330
1E
100
AcDbEntity
  8
製品
  6
Continuous
 62
     4
100
AcDbLine
 10
516.4656854058375
 20
173.1141488843164
 30
0.0
 11
519.6656854058377
 21
193.6141488843164
 31
0.0
  0
ARC
  5
6E75
330
1E
100
AcDbEntity
  8
製品
  6
Continuous
 62
     4
100
AcDbCircle
 10
491.6656854058377
 20
193.6141488843164
 30
0.0
 40
30.0
100
AcDbArc
 50
0.0
 51
31.10852599999793
  0
ARC
  5
6E76
330
1E
100
AcDbEntity
  8
製品
  6
Continuous
 62
     4
100
AcDbCircle
 10
491.6656854058377
 20
193.6141488843164
 30
0.0
 40
28.0
100
AcDbArc
 50
0.0
 51
33.6128810000003
  0
DIMENSION
  5
6E77
330
1E
100
AcDbEntity
  8
寸法
  6
Continuous
100
AcDbDimension
  2
*D12
 10
326.9024384058378
 20
263.3282348843164
 30
0.0
 11
323.6024384058378
 21
275.8282348843164
 31
0.0
 70
    32
 71
     5
 42
25.0
  3
AutoCAD
100
AcDbAlignedDimension
 13
326.9024384058378
 23
288.3282348843164
 33
0.0
 14
326.9024384058378
 24
263.3282348843164
 34
0.0
 50
90.0
100
AcDbRotatedDimension
1001
ACAD
1000
DSTYLE
1002
{
1070
   147
1040
0.8
1070
   140
1040
10.0
1002
}
  0
DIMENSION
  5
6E78
330
1E
100
AcDbEntity
  8
寸法
  6
Continuous
100
AcDbDimension
  2
*D13
 10
326.9024384058378
 20
288.3282348843164
 30
0.0
 11
323.6024384058378
 21
307.3282348843164
 31
0.0
 70
    32
 71
     5
 42
38.0
  3
AutoCAD
100
AcDbAlignedDimension
 13
326.9024384058378
 23
326.3282348843164
 33
0.0
 14
326.9024384058378
 24
288.3282348843164
 34
0.0
 50
90.0
100
AcDbRotatedDimension
1001
ACAD
1000
DSTYLE
1002
{
1070
   147
1040
0.8
1070
   140
1040
10.0
1002
}
  0
LINE
  5
6E79
330
1E
100
AcDbEntity
  8
製品
  6
Continuous
 62
     4
100
AcDbLine
 10
411.4921314058377
 20
343.1778228843164
 30
0.0
 11
411.4921314058377
 21
275.1141488843164
 31
0.0
  0
LINE
  5
6E7A
330
1E
100
AcDbEntity
  8
製品
  6
Continuous
 62
     4
100
AcDbLine
 10
401.9921314058377
 20
343.1778228843164
 30
0.0
 11
401.9921314058377
 21
275.1141488843164
 31
0.0
  0
ARC
  5
6E7B
330
1E
100
AcDbEntity
  8
製品
  6
Continuous
 62
     3
100
AcDbCircle
 10
406.7421314058377
 20
260.8641488843165
 30
0.0
 40
14.25
100
AcDbArc
 50
70.5287789999879
 51
109.471221000012
  0
LINE
  5
6E7C
330
1E
100
AcDbEntity
  8
製品
  6
Continuous
 62
     3
100
AcDbLine
 10
414.8305604058377
 20
275.1141488843164
 30
0.0
 11
398.6537034058377
 21
275.1141488843164
 31
0.0
  0
ARC
  5
6E7D
330
1E
100
AcDbEntity
  8
製品
  6
Continuous
 62
     3
100
AcDbCircle
 10
406.7421314058377
 20
271.3641488843165
 30
0.0
 40
14.25
100
AcDbArc
 50
250.5287789999879
 51
289.471221000012
  0
LINE
  5
6E7E
330
1E
100
AcDbEntity
  8
製品
  6
Continuous
 62
     3
100
AcDbLine
 10
414.8305604058377
 20
257.1141488843164
 30
0.0
 11
398.6537034058377
 21
257.1141488843164
 31
0.0
  0
LINE
  5
6E7F
330
1E
100
AcDbEntity
  8
製品
  6
Continuous
 62
     4
100
AcDbLine
 10
395.2421314058377
 20
267.1141488843165
 30
0.0
 11
418.2421314058378
 21
267.1141488843165
 31
0.0
  0
LINE
  5
6E80
330
1E
100
AcDbEntity
  8
製品
  6
Continuous
 62
     4
100
AcDbLine
 10
395.2421314058377
 20
265.1141488843165
 30
0.0
 11
418.2421314058378
 21
265.1141488843165
 31
0.0
  0
LINE
  5
6E81
330
1E
100
AcDbEntity
  8
製品
  6
Continuous
 62
     4
100
AcDbLine
 10
411.4921314058377
 20
237.1141488843164
 30
0.0
 11
401.9921314058377
 21
237.1141488843164
 31
0.0
  0
LINE
  5
6E82
330
1E
100
AcDbEntity
  8
製品
  6
Continuous
 62
     3
100
AcDbLine
 10
418.2421314058378
 20
211.9905378843164
 30
0.0
 11
395.2421314058377
 21
211.9905378843164
 31
0.0
  0
LINE
  5
6E83
330
1E
100
AcDbEntity
  8
製品
  6
Continuous
 62
     3
100
AcDbLine
 10
401.9921314058377
 20
274.2991778843166
 30
0.0
 11
401.9921314058377
 21
267.1141488843165
 31
0.0
  0
LINE
  5
6E84
330
1E
100
AcDbEntity
  8
製品
  6
Continuous
 62
     3
100
AcDbLine
 10
398.6537034058377
 20
275.1141488843164
 30
0.0
 11
397.2421314058377
 21
274.2991778843166
 31
0.0
  0
LINE
  5
6E85
330
1E
100
AcDbEntity
  8
製品
  6
Continuous
 62
     3
100
AcDbLine
 10
397.2421314058377
 20
274.2991778843166
 30
0.0
 11
397.2421314058377
 21
267.1141488843165
 31
0.0
  0
ARC
  5
6E86
330
1E
100
AcDbEntity
  8
製品
  6
Continuous
 62
     3
100
AcDbCircle
 10
399.7007664058377
 20
271.4854718843167
 30
0.0
 40
3.628676999999999
100
AcDbArc
 50
50.84205499999478
 51
90.0
  0
LINE
  5
6E87
330
1E
100
AcDbEntity
  8
製品
  6
Continuous
 62
     3
100
AcDbLine
 10
398.6537034058377
 20
257.1141488843164
 30
0.0
 11
397.2421314058377
 21
257.9291198843167
 31
0.0
  0
ARC
  5
6E88
330
1E
100
AcDbEntity
  8
製品
  6
Continuous
 62
     3
100
AcDbCircle
 10
399.7007664058377
 20
260.7428258843166
 30
0.0
 40
3.628676999999999
100
AcDbArc
 50
270.0
 51
309.1579450000052
  0
LINE
  5
6E89
330
1E
100
AcDbEntity
  8
製品
  6
Continuous
 62
     3
100
AcDbLine
 10
401.9921314058377
 20
257.9291198843167
 30
0.0
 11
401.9921314058377
 21
265.1141488843165
 31
0.0
  0
LINE
  5
6E8A
330
1E
100
AcDbEntity
  8
製品
  6
Continuous
 62
     3
100
AcDbLine
 10
397.2421314058377
 20
257.9291198843167
 30
0.0
 11
397.2421314058377
 21
265.1141488843165
 31
0.0
  0
LINE
  5
6E8B
330
1E
100
AcDbEntity
  8
製品
  6
Continuous
 62
     4
100
AcDbLine
 10
401.9921314058377
 20
237.1141488843164
 30
0.0
 11
401.9921314058377
 21
257.1141488843164
 31
0.0
  0
LINE
  5
6E8C
330
1E
100
AcDbEntity
  8
製品
  6
Continuous
 62
     3
100
AcDbLine
 10
416.2421314058377
 20
274.2991778843166
 30
0.0
 11
416.2421314058377
 21
267.1141488843165
 31
0.0
  0
LINE
  5
6E8D
330
1E
100
AcDbEntity
  8
製品
  6
Continuous
 62
     3
100
AcDbLine
 10
416.2421314058377
 20
257.9291198843167
 30
0.0
 11
416.2421314058377
 21
265.1141488843165
 31
0.0
  0
ARC
  5
6E8E
330
1E
100
AcDbEntity
  8
製品
  6
Continuous
 62
     3
100
AcDbCircle
 10
413.7834974058376
 20
271.4854718843167
 30
0.0
 40
3.628676999999999
100
AcDbArc
 50
90.0
 51
129.1579450000052
  0
LINE
  5
6E8F
330
1E
100
AcDbEntity
  8
製品
  6
Continuous
 62
     3
100
AcDbLine
 10
411.4921314058377
 20
267.1141488843165
 30
0.0
 11
411.4921314058377
 21
274.2991778843166
 31
0.0
  0
ARC
  5
6E90
330
1E
100
AcDbEntity
  8
製品
  6
Continuous
 62
     3
100
AcDbCircle
 10
413.7834974058376
 20
260.7428258843166
 30
0.0
 40
3.628676999999999
100
AcDbArc
 50
230.8420549999948
 51
270.0
  0
LINE
  5
6E91
330
1E
100
AcDbEntity
  8
製品
  6
Continuous
 62
     3
100
AcDbLine
 10
411.4921314058377
 20
265.1141488843165
 30
0.0
 11
411.4921314058377
 21
257.9291198843167
 31
0.0
  0
LINE
  5
6E92
330
1E
100
AcDbEntity
  8
製品
  6
Continuous
 62
     3
100
AcDbLine
 10
416.2421314058377
 20
257.9291198843167
 30
0.0
 11
414.8305604058377
 21
257.1141488843164
 31
0.0
  0
LINE
  5
6E93
330
1E
100
AcDbEntity
  8
製品
  6
Continuous
 62
     3
100
AcDbLine
 10
416.2421314058377
 20
274.2991778843166
 30
0.0
 11
414.8305604058377
 21
275.1141488843164
 31
0.0
  0
LINE
  5
6E94
330
1E
100
AcDbEntity
  8
製品
  6
Continuous
 62
     4
100
AcDbLine
 10
411.4921314058377
 20
257.1141488843164
 30
0.0
 11
411.4921314058377
 21
237.1141488843164
 31
0.0
  0
ARC
  5
6E95
330
1E
100
AcDbEntity
  8
製品
  6
Continuous
 62
     4
100
AcDbCircle
 10
404.3621454058378
 20
342.3899528843163
 30
0.0
 40
2.507004
100
AcDbArc
 50
18.31551700000279
 51
161.6844400000025
  0
ARC
  5
6E96
330
1E
100
AcDbEntity
  8
製品
  6
Continuous
 62
     4
100
AcDbCircle
 10
409.1220814058377
 20
343.9656558843168
 30
0.0
 40
2.507081
100
AcDbArc
 50
198.3161259999955
 51
341.6838320000056
  0
ARC
  5
6E97
330
1E
100
AcDbEntity
  8
製品
  6
Continuous
 62
     4
100
AcDbCircle
 10
409.1221454058375
 20
342.3899518843164
 30
0.0
 40
2.507004999999999
100
AcDbArc
 50
18.31556499999003
 51
161.6843510000031
  0
LINE
  5
6E98
330
1E
100
AcDbEntity
  8
製品
  6
Continuous
 62
     4
100
AcDbLine
 10
483.2156854058374
 20
343.1778228843164
 30
0.0
 11
483.2156854058374
 21
275.1141488843164
 31
0.0
  0
LINE
  5
6E99
330
1E
100
AcDbEntity
  8
製品
  6
Continuous
 62
     4
100
AcDbLine
 10
492.7156854058374
 20
343.1481518843166
 30
0.0
 11
492.7156854058374
 21
275.1141488843164
 31
0.0
  0
LINE
  5
6E9A
330
1E
100
AcDbEntity
  8
製品
  6
PLINE3
 62
     3
100
AcDbLine
 10
487.9656854058374
 20
352.8423388843167
 30
0.0
 11
487.9656854058374
 21
232.1141488843164
 31
0.0
  0
LINE
  5
6E9B
330
1E
100
AcDbEntity
  8
製品
  6
Continuous
 62
     3
100
AcDbLine
 10
496.0541144058378
 20
275.1141488843164
 30
0.0
 11
497.4656854058374
 21
274.2991778843166
 31
0.0
  0
ARC
  5
6E9C
330
1E
100
AcDbEntity
  8
製品
  6
Continuous
 62
     3
100
AcDbCircle
 10
495.0070514058373
 20
271.4854718843167
 30
0.0
 40
3.628676999999999
100
AcDbArc
 50
90.0
 51
129.1579450000052
  0
ARC
  5
6E9D
330
1E
100
AcDbEntity
  8
製品
  6
Continuous
 62
     4
100
AcDbCircle
 10
499.4656854058375
 20
263.6141488843164
 30
0.0
 40
1.5
100
AcDbArc
 50
0.0
 51
90.0
  0
ARC
  5
6E9E
330
1E
100
AcDbEntity
  8
製品
  6
Continuous
 62
     4
100
AcDbCircle
 10
499.4656854058375
 20
263.6141488843164
 30
0.0
 40
3.5
100
AcDbArc
 50
0.0
 51
90.0
  0
ARC
  5
6E9F
330
1E
100
AcDbEntity
  8
製品
  6
Continuous
 62
     4
100
AcDbCircle
 10
494.9235524058375
 20
259.0720158843165
 30
0.0
 40
7.269541
100
AcDbArc
 50
33.78217100000908
 51
56.21782899999091
  0
LINE
  5
6EA0
330
1E
100
AcDbEntity
  8
製品
  6
Continuous
 62
     3
100
AcDbLine
 10
492.7156854058374
 20
274.2991778843166
 30
0.0
 11
492.7156854058374
 21
267.1141488843165
 31
0.0
  0
LINE
  5
6EA1
330
1E
100
AcDbEntity
  8
製品
  6
Continuous
 62
     3
100
AcDbLine
 10
497.4656854058374
 20
274.2991778843166
 30
0.0
 11
497.4656854058374
 21
267.1141488843165
 31
0.0
  0
LINE
  5
6EA2
330
1E
100
AcDbEntity
  8
製品
  6
Continuous
 62
     3
100
AcDbLine
 10
478.4656854058375
 20
274.2991778843166
 30
0.0
 11
479.8772574058374
 21
275.1141488843164
 31
0.0
  0
ARC
  5
6EA3
330
1E
100
AcDbEntity
  8
製品
  6
Continuous
 62
     3
100
AcDbCircle
 10
480.9243204058378
 20
271.4854718843167
 30
0.0
 40
3.628676999999999
100
AcDbArc
 50
50.84205499999478
 51
90.0
  0
LINE
  5
6EA4
330
1E
100
AcDbEntity
  8
製品
  6
Continuous
 62
     4
100
AcDbLine
 10
477.9656854058374
 20
267.1141488843165
 30
0.0
 11
477.9656854058374
 21
265.1141488843165
 31
0.0
  0
LINE
  5
6EA5
330
1E
100
AcDbEntity
  8
製品
  6
Continuous
 62
     3
100
AcDbLine
 10
478.4656854058375
 20
274.2991778843166
 30
0.0
 11
478.4656854058375
 21
267.1141488843165
 31
0.0
  0
LINE
  5
6EA6
330
1E
100
AcDbEntity
  8
製品
  6
Continuous
 62
     3
100
AcDbLine
 10
483.2156854058374
 20
267.1141488843165
 30
0.0
 11
483.2156854058374
 21
274.2991778843166
 31
0.0
  0
ARC
  5
6EA7
330
1E
100
AcDbEntity
  8
製品
  6
Continuous
 62
     3
100
AcDbCircle
 10
487.9656854058374
 20
260.8641488843165
 30
0.0
 40
14.25
100
AcDbArc
 50
70.5287789999879
 51
109.471221000012
  0
LINE
  5
6EA8
330
1E
100
AcDbEntity
  8
製品
  6
Continuous
 62
     3
100
AcDbLine
 10
479.8772574058374
 20
275.1141488843164
 30
0.0
 11
496.0541144058378
 21
275.1141488843164
 31
0.0
  0
LINE
  5
6EA9
330
1E
100
AcDbEntity
  8
製品
  6
Continuous
 62
     4
100
AcDbLine
 10
499.4656854058375
 20
265.1141488843165
 30
0.0
 11
477.9656854058374
 21
265.1141488843165
 31
0.0
  0
LINE
  5
6EAA
330
1E
100
AcDbEntity
  8
製品
  6
Continuous
 62
     4
100
AcDbLine
 10
499.4656854058375
 20
267.1141488843165
 30
0.0
 11
477.9656854058374
 21
267.1141488843165
 31
0.0
  0
LINE
  5
6EAB
330
1E
100
AcDbEntity
  8
製品
  6
Continuous
 62
     3
100
AcDbLine
 10
496.0541144058378
 20
257.1141488843164
 30
0.0
 11
497.4656854058374
 21
257.9291198843167
 31
0.0
  0
ARC
  5
6EAC
330
1E
100
AcDbEntity
  8
製品
  6
Continuous
 62
     3
100
AcDbCircle
 10
495.0070514058373
 20
260.7428258843166
 30
0.0
 40
3.628676999999999
100
AcDbArc
 50
230.8420549999948
 51
270.0
  0
LINE
  5
6EAD
330
1E
100
AcDbEntity
  8
製品
  6
Continuous
 62
     4
100
AcDbLine
 10
492.7156854058374
 20
242.1141488843165
 30
0.0
 11
492.7156854058374
 21
257.1141488843164
 31
0.0
  0
ARC
  5
6EAE
330
1E
100
AcDbEntity
  8
製品
  6
Continuous
 62
     3
100
AcDbCircle
 10
480.9243204058378
 20
260.7428258843166
 30
0.0
 40
3.628676999999999
100
AcDbArc
 50
270.0
 51
309.1579450000052
  0
LINE
  5
6EAF
330
1E
100
AcDbEntity
  8
製品
  6
Continuous
 62
     3
100
AcDbLine
 10
478.4656854058375
 20
257.9291198843167
 30
0.0
 11
479.8772574058374
 21
257.1141488843164
 31
0.0
  0
LINE
  5
6EB0
330
1E
100
AcDbEntity
  8
製品
  6
Continuous
 62
     4
100
AcDbLine
 10
483.2156854058374
 20
257.1141488843164
 30
0.0
 11
483.2156854058374
 21
242.1141488843165
 31
0.0
  0
ARC
  5
6EB1
330
1E
100
AcDbEntity
  8
製品
  6
Continuous
 62
     3
100
AcDbCircle
 10
487.9656854058374
 20
271.3641488843165
 30
0.0
 40
14.25
100
AcDbArc
 50
250.5287789999879
 51
289.471221000012
  0
LINE
  5
6EB2
330
1E
100
AcDbEntity
  8
製品
  6
Continuous
 62
     3
100
AcDbLine
 10
479.8772574058374
 20
257.1141488843164
 30
0.0
 11
496.0541144058378
 21
257.1141488843164
 31
0.0
  0
LINE
  5
6EB3
330
1E
100
AcDbEntity
  8
製品
  6
Continuous
 62
     4
100
AcDbLine
 10
483.2156854058374
 20
242.1141488843165
 30
0.0
 11
492.7156854058374
 21
242.1141488843165
 31
0.0
  0
LINE
  5
6EB4
330
1E
100
AcDbEntity
  8
製品
  6
Continuous
 62
     3
100
AcDbLine
 10
478.4656854058375
 20
257.9291198843167
 30
0.0
 11
478.4656854058375
 21
265.1141488843165
 31
0.0
  0
LINE
  5
6EB5
330
1E
100
AcDbEntity
  8
製品
  6
Continuous
 62
     3
100
AcDbLine
 10
492.7156854058374
 20
257.9291198843167
 30
0.0
 11
492.7156854058374
 21
265.1141488843165
 31
0.0
  0
LINE
  5
6EB6
330
1E
100
AcDbEntity
  8
製品
  6
Continuous
 62
     3
100
AcDbLine
 10
483.2156854058374
 20
265.1141488843165
 30
0.0
 11
483.2156854058374
 21
257.9291198843167
 31
0.0
  0
LINE
  5
6EB7
330
1E
100
AcDbEntity
  8
製品
  6
Continuous
 62
     3
100
AcDbLine
 10
497.4656854058374
 20
257.9291198843167
 30
0.0
 11
497.4656854058374
 21
265.1141488843165
 31
0.0
  0
ARC
  5
6EB8
330
1E
100
AcDbEntity
  8
製品
  6
Continuous
 62
     4
100
AcDbCircle
 10
505.9656854058374
 20
216.5531488843167
 30
0.0
 40
5.0
100
AcDbArc
 50
180.0
 51
196.7025299999881
  0
LINE
  5
6EB9
330
1E
100
AcDbEntity
  8
製品
  6
Continuous
 62
     4
100
AcDbLine
 10
502.9656854058374
 20
216.1141488843164
 30
0.0
 11
504.0346854058374
 21
212.5511488843163
 31
0.0
  0
LINE
  5
6EBA
330
1E
100
AcDbEntity
  8
製品
  6
Continuous
 62
     4
100
AcDbLine
 10
501.1766854058377
 20
215.1161488843164
 30
0.0
 11
502.1186854058377
 21
211.9761488843165
 31
0.0
  0
LINE
  5
6EBB
330
1E
100
AcDbEntity
  8
製品
  6
Continuous
 62
     4
100
AcDbLine
 10
500.9656854058374
 20
216.5531488843167
 30
0.0
 11
500.9656854058374
 21
263.6141488843164
 31
0.0
  0
LINE
  5
6EBC
330
1E
100
AcDbEntity
  8
製品
  6
Continuous
 62
     4
100
AcDbLine
 10
502.9656854058374
 20
216.1141488843164
 30
0.0
 11
502.9656854058374
 21
263.6141488843164
 31
0.0
  0
ARC
  5
6EBD
330
1E
100
AcDbEntity
  8
製品
  6
Continuous
 62
     4
100
AcDbCircle
 10
490.3456354058374
 20
343.9656568843166
 30
0.0
 40
2.507081
100
AcDbArc
 50
198.3161259999955
 51
341.6838320000056
  0
ARC
  5
6EBE
330
1E
100
AcDbEntity
  8
製品
  6
Continuous
 62
     4
100
AcDbCircle
 10
490.3456984058379
 20
342.3899538843167
 30
0.0
 40
2.507004999999999
100
AcDbArc
 50
18.31556499999003
 51
161.6843510000031
  0
ARC
  5
6EBF
330
1E
100
AcDbEntity
  8
製品
  6
Continuous
 62
     4
100
AcDbCircle
 10
485.5856994058375
 20
342.3899538843167
 30
0.0
 40
2.507004
100
AcDbArc
 50
18.31551700000279
 51
161.6844400000025
  0
LINE
  5
6EC0
330
1E
100
AcDbEntity
  8
製品
  6
Continuous
 62
     4
100
AcDbLine
 10
523.7656854058376
 20
219.1141488843164
 30
0.0
 11
524.7656854058376
 21
217.3821488843165
 31
0.0
  0
LINE
  5
6EC1
330
1E
100
AcDbEntity
  8
製品
  6
Continuous
 62
     4
100
AcDbLine
 10
523.7656854058376
 20
219.1141488843164
 30
0.0
 11
517.4456854058375
 21
215.4651488843165
 31
0.0
  0
LINE
  5
6EC2
330
1E
100
AcDbEntity
  8
製品
  6
Continuous
 62
     4
100
AcDbLine
 10
524.7656854058376
 20
217.3821488843165
 30
0.0
 11
518.6566854058376
 21
213.8551488843164
 31
0.0
  0
ENDSEC
  0
SECTION
  2
OBJECTS
  0
DICTIONARY
  5
C
330
0
100
AcDbDictionary
281
     1
  3
ACAD_GROUP
350
D
  3
ACAD_LAYOUT
350
19
  3
ACAD_MLINESTYLE
350
16
  3
ACAD_PLOTSETTINGS
350
18
  3
ACAD_PLOTSTYLENAME
350
E
  3
AcDbVariableDictionary
350
169
  0
DICTIONARY
  5
175
330
2
100
AcDbDictionary
280
     1
281
     1
  3
ACAD_LAYERFILTERS
360
185
  3
ACAD_LAYERSTATES
360
176
  0
DICTIONARY
  5
28B
330
1E
100
AcDbDictionary
280
     1
281
     1
  0
DICTIONARY
  5
28D
330
1A
100
AcDbDictionary
280
     1
281
     1
  0
DICTIONARY
  5
D
102
{ACAD_REACTORS
330
C
102
}
330
C
100
AcDbDictionary
281
     1
  0
DICTIONARY
  5
19
102
{ACAD_REACTORS
330
C
102
}
330
C
100
AcDbDictionary
281
     1
  3
Model
350
21
  3
ﾚｲｱｳﾄ1
350
1D
  0
DICTIONARY
  5
16
102
{ACAD_REACTORS
330
C
102
}
330
C
100
AcDbDictionary
281
     1
  3
Standard
350
17
  0
DICTIONARY
  5
18
102
{ACAD_REACTORS
330
C
102
}
330
C
100
AcDbDictionary
281
     1
  0
ACDBDICTIONARYWDFLT
  5
E
102
{ACAD_REACTORS
330
C
102
}
330
C
100
AcDbDictionary
281
     1
  3
Normal
350
F
100
AcDbDictionaryWithDefault
340
F
1001
ACAD
1000
TREAT_AS_HARD
1070
     0
1000
TREAT_AS_HARD
1070
     0
1000
TREAT_AS_HARD
1070
     0
1000
TREAT_AS_HARD
1070
     0
1000
TREAT_AS_HARD
1070
     0
1000
TREAT_AS_HARD
1070
     0
1000
TREAT_AS_HARD
1070
     0
1000
TREAT_AS_HARD
1070
     0
1000
TREAT_AS_HARD
1070
     0
1000
TREAT_AS_HARD
1070
     0
1000
TREAT_AS_HARD
1070
     0
1000
TREAT_AS_HARD
1070
     0
1000
TREAT_AS_HARD
1070
     0
1000
TREAT_AS_HARD
1070
     0
1000
TREAT_AS_HARD
1070
     0
1000
TREAT_AS_HARD
1070
     0
1000
TREAT_AS_HARD
1070
     0
1000
TREAT_AS_HARD
1070
     0
1000
TREAT_AS_HARD
1070
     0
1000
TREAT_AS_HARD
1070
     0
1000
TREAT_AS_HARD
1070
     0
1000
TREAT_AS_HARD
1070
     0
1000
TREAT_AS_HARD
1070
     0
1000
TREAT_AS_HARD
1070
     0
1000
TREAT_AS_HARD
1070
     0
1000
TREAT_AS_HARD
1070
     0
1000
TREAT_AS_HARD
1070
     0
1000
TREAT_AS_HARD
1070
     0
1000
TREAT_AS_HARD
1070
     0
1000
TREAT_AS_HARD
1070
     0
  0
DICTIONARY
  5
169
102
{ACAD_REACTORS
330
C
102
}
330
C
100
AcDbDictionary
281
     1
  3
DIMASSOC
350
16A
  0
DICTIONARY
  5
185
102
{ACAD_REACTORS
330
175
102
}
330
175
100
AcDbDictionary
280
     1
281
     1
  0
DICTIONARY
  5
176
102
{ACAD_REACTORS
330
175
102
}
330
175
100
AcDbDictionary
281
     1
  3
ACAD
350
177
  0
LAYOUT
  5
21
102
{ACAD_REACTORS
330
19
102
}
330
19
100
AcDbPlotSettings
  1

  2
\\MEISEI-1\EPSON Stylus Photo EX3
  4

  6

 40
0.0
 41
0.0
 42
0.0
 43
0.0
 44
0.0
 45
0.0
 46
0.0
 47
0.0
 48
0.0
 49
0.0
140
0.0
141
0.0
142
1.0
143
1.0
 70
  1712
 72
     0
 73
     0
 74
     0
  7

 75
     0
147
1.0
148
0.0
149
0.0
100
AcDbLayout
  1
Model
 70
     1
 71
     0
 10
0.0
 20
0.0
 11
12.0
 21
9.0
 12
0.0
 22
0.0
 32
0.0
 14
0.0
 24
0.0
 34
0.0
 15
0.0
 25
0.0
 35
0.0
146
0.0
 13
0.0
 23
0.0
 33
0.0
 16
1.0
 26
0.0
 36
0.0
 17
0.0
 27
1.0
 37
0.0
 76
     0
330
1E
  0
LAYOUT
  5
1D
102
{ACAD_REACTORS
330
19
102
}
330
19
100
AcDbPlotSettings
  1

  2
\\MEISEI-1\EPSON Stylus Photo EX3
  4

  6

 40
0.0
 41
0.0
 42
0.0
 43
0.0
 44
0.0
 45
0.0
 46
0.0
 47
0.0
 48
0.0
 49
0.0
140
0.0
141
0.0
142
1.0
143
1.0
 70
   688
 72
     0
 73
     0
 74
     5
  7

 75
    16
147
1.0
148
0.0
149
0.0
100
AcDbLayout
  1
ﾚｲｱｳﾄ1
 70
     1
 71
     1
 10
0.0
 20
0.0
 11
12.0
 21
9.0
 12
0.0
 22
0.0
 32
0.0
 14
1.000000000000000E+20
 24
1.000000000000000E+20
 34
1.000000000000000E+20
 15
-1.000000000000000E+20
 25
-1.000000000000000E+20
 35
-1.000000000000000E+20
146
0.0
 13
0.0
 23
0.0
 33
0.0
 16
1.0
 26
0.0
 36
0.0
 17
0.0
 27
1.0
 37
0.0
 76
     0
330
1A
  0
MLINESTYLE
  5
17
102
{ACAD_REACTORS
330
16
102
}
330
16
100
AcDbMlineStyle
  2
STANDARD
 70
     0
  3

 62
   256
 51
90.0
 52
90.0
 71
     2
 49
0.5
 62
   256
  6
BYLAYER
 49
-0.5
 62
   256
  6
BYLAYER
  0
ACDBPLACEHOLDER
  5
F
102
{ACAD_REACTORS
330
E
102
}
330
E
  0
DICTIONARYVAR
  5
16A
102
{ACAD_REACTORS
330
169
102
}
330
169
100
DictionaryVariables
280
     0
  1
1
  0
XRECORD
  5
177
102
{ACAD_REACTORS
330
176
102
}
330
176
100
AcDbXrecord
280
     1
 91
      476
330
179
 90
        8
 62
     7
370
    -3
331
15
  1
Color_7
330
128
 90
        0
 62
     7
370
    -3
331
15
  1
Color_7
330
10
 90
        8
 62
     7
370
    -3
331
15
  1
Color_7
  0
ENDSEC
  0
EOF
