  0
SECTION
  2
HEADER
  9
$ACADVER
  1
AC1015
  9
$ACADMAINTVER
 70
    20
  9
$DWGCODEPAGE
  3
ANSI_932
  9
$INSBASE
 10
0.0
 20
0.0
 30
0.0
  9
$EXTMIN
 10
276.1749672187434
 20
127.2550009984219
 30
-0.0000000000112498
  9
$EXTMAX
 10
647.977479102816
 20
351.7074267902442
 30
0.0000000000002956
  9
$LIMMIN
 10
0.0
 20
0.0
  9
$LIMMAX
 10
420.0
 20
297.0
  9
$ORTHOMODE
 70
     0
  9
$REGENMODE
 70
     1
  9
$FILLMODE
 70
     1
  9
$QTEXTMODE
 70
     0
  9
$MIRRTEXT
 70
     1
  9
$LTSCALE
 40
1.0
  9
$ATTMODE
 70
     1
  9
$TEXTSIZE
 40
5.0
  9
$TRACEWID
 40
0.05
  9
$TEXTSTYLE
  7
ACAD
  9
$CLAYER
  8
0
  9
$CELTYPE
  6
CONTINUOUS
  9
$CECOLOR
 62
   256
  9
$CELTSCALE
 40
1.0
  9
$DISPSILH
 70
     0
  9
$DIMSCALE
 40
1.0
  9
$DIMASZ
 40
1.0
  9
$DIMEXO
 40
0.0
  9
$DIMDLI
 40
0.38
  9
$DIMRND
 40
0.0
  9
$DIMDLE
 40
0.0
  9
$DIMEXE
 40
0.0
  9
$DIMTP
 40
0.0
  9
$DIMTM
 40
0.0
  9
$DIMTXT
 40
5.0
  9
$DIMCEN
 40
0.09
  9
$DIMTSZ
 40
0.0
  9
$DIMTOL
 70
     0
  9
$DIMLIM
 70
     0
  9
$DIMTIH
 70
     0
  9
$DIMTOH
 70
     1
  9
$DIMSE1
 70
     0
  9
$DIMSE2
 70
     0
  9
$DIMTAD
 70
     1
  9
$DIMZIN
 70
     0
  9
$DIMBLK
  1
Dot
  9
$DIMASO
 70
     1
  9
$DIMSHO
 70
     1
  9
$DIMPOST
  1

  9
$DIMAPOST
  1

  9
$DIMALT
 70
     0
  9
$DIMALTD
 70
     2
  9
$DIMALTF
 40
25.4
  9
$DIMLFAC
 40
1.0
  9
$DIMTOFL
 70
     0
  9
$DIMTVP
 40
0.0
  9
$DIMTIX
 70
     1
  9
$DIMSOXD
 70
     0
  9
$DIMSAH
 70
     0
  9
$DIMBLK1
  1

  9
$DIMBLK2
  1

  9
$DIMSTYLE
  2
AutoCAD
  9
$DIMCLRD
 70
     4
  9
$DIMCLRE
 70
     4
  9
$DIMCLRT
 70
     3
  9
$DIMTFAC
 40
1.0
  9
$DIMGAP
 40
1.0
  9
$DIMJUST
 70
     0
  9
$DIMSD1
 70
     0
  9
$DIMSD2
 70
     0
  9
$DIMTOLJ
 70
     1
  9
$DIMTZIN
 70
     0
  9
$DIMALTZ
 70
     0
  9
$DIMALTTZ
 70
     0
  9
$DIMUPT
 70
     0
  9
$DIMDEC
 70
     0
  9
$DIMTDEC
 70
     0
  9
$DIMALTU
 70
     2
  9
$DIMALTTD
 70
     2
  9
$DIMTXSTY
  7
ACAD
  9
$DIMAUNIT
 70
     0
  9
$DIMADEC
 70
     0
  9
$DIMALTRND
 40
0.0
  9
$DIMAZIN
 70
     0
  9
$DIMDSEP
 70
    46
  9
$DIMATFIT
 70
     0
  9
$DIMFRAC
 70
     0
  9
$DIMLDRBLK
  1
None
  9
$DIMLUNIT
 70
     2
  9
$DIMLWD
 70
    -2
  9
$DIMLWE
 70
    -2
  9
$DIMTMOVE
 70
     0
  9
$LUNITS
 70
     2
  9
$LUPREC
 70
     4
  9
$SKETCHINC
 40
0.1
  9
$FILLETRAD
 40
0.0
  9
$AUNITS
 70
     0
  9
$AUPREC
 70
     0
  9
$MENU
  1
.
  9
$ELEVATION
 40
0.0
  9
$PELEVATION
 40
0.0
  9
$THICKNESS
 40
0.0
  9
$LIMCHECK
 70
     0
  9
$CHAMFERA
 40
0.0
  9
$CHAMFERB
 40
0.0
  9
$CHAMFERC
 40
0.0
  9
$CHAMFERD
 40
0.0
  9
$SKPOLY
 70
     0
  9
$TDCREATE
 40
2454316.693457674
  9
$TDUCREATE
 40
2454316.318457674
  9
$TDUPDATE
 40
2454735.626647674
  9
$TDUUPDATE
 40
2454735.251647674
  9
$TDINDWG
 40
0.2410576968
  9
$TDUSRTIMER
 40
0.2410576968
  9
$USRTIMER
 70
     1
  9
$ANGBASE
 50
0.0
  9
$ANGDIR
 70
     0
  9
$PDMODE
 70
     0
  9
$PDSIZE
 40
0.0
  9
$PLINEWID
 40
0.0
  9
$SPLFRAME
 70
     0
  9
$SPLINETYPE
 70
     6
  9
$SPLINESEGS
 70
     8
  9
$HANDSEED
  5
709E
  9
$SURFTAB1
 70
     6
  9
$SURFTAB2
 70
     6
  9
$SURFTYPE
 70
     6
  9
$SURFU
 70
     6
  9
$SURFV
 70
     6
  9
$UCSBASE
  2

  9
$UCSNAME
  2

  9
$UCSORG
 10
0.0
 20
0.0
 30
0.0
  9
$UCSXDIR
 10
1.0
 20
0.0
 30
0.0
  9
$UCSYDIR
 10
0.0
 20
1.0
 30
0.0
  9
$UCSORTHOREF
  2

  9
$UCSORTHOVIEW
 70
     0
  9
$UCSORGTOP
 10
0.0
 20
0.0
 30
0.0
  9
$UCSORGBOTTOM
 10
0.0
 20
0.0
 30
0.0
  9
$UCSORGLEFT
 10
0.0
 20
0.0
 30
0.0
  9
$UCSORGRIGHT
 10
0.0
 20
0.0
 30
0.0
  9
$UCSORGFRONT
 10
0.0
 20
0.0
 30
0.0
  9
$UCSORGBACK
 10
0.0
 20
0.0
 30
0.0
  9
$PUCSBASE
  2

  9
$PUCSNAME
  2

  9
$PUCSORG
 10
0.0
 20
0.0
 30
0.0
  9
$PUCSXDIR
 10
1.0
 20
0.0
 30
0.0
  9
$PUCSYDIR
 10
0.0
 20
1.0
 30
0.0
  9
$PUCSORTHOREF
  2

  9
$PUCSORTHOVIEW
 70
     0
  9
$PUCSORGTOP
 10
0.0
 20
0.0
 30
0.0
  9
$PUCSORGBOTTOM
 10
0.0
 20
0.0
 30
0.0
  9
$PUCSORGLEFT
 10
0.0
 20
0.0
 30
0.0
  9
$PUCSORGRIGHT
 10
0.0
 20
0.0
 30
0.0
  9
$PUCSORGFRONT
 10
0.0
 20
0.0
 30
0.0
  9
$PUCSORGBACK
 10
0.0
 20
0.0
 30
0.0
  9
$USERI1
 70
     0
  9
$USERI2
 70
     0
  9
$USERI3
 70
     0
  9
$USERI4
 70
     0
  9
$USERI5
 70
     0
  9
$USERR1
 40
0.0
  9
$USERR2
 40
0.0
  9
$USERR3
 40
0.0
  9
$USERR4
 40
0.0
  9
$USERR5
 40
0.0
  9
$WORLDVIEW
 70
     1
  9
$SHADEDGE
 70
     3
  9
$SHADEDIF
 70
    70
  9
$TILEMODE
 70
     1
  9
$MAXACTVP
 70
    48
  9
$PINSBASE
 10
0.0
 20
0.0
 30
0.0
  9
$PLIMCHECK
 70
     0
  9
$PEXTMIN
 10
1.000000000000000E+20
 20
1.000000000000000E+20
 30
1.000000000000000E+20
  9
$PEXTMAX
 10
-1.000000000000000E+20
 20
-1.000000000000000E+20
 30
-1.000000000000000E+20
  9
$PLIMMIN
 10
0.0
 20
0.0
  9
$PLIMMAX
 10
12.0
 20
9.0
  9
$UNITMODE
 70
     0
  9
$VISRETAIN
 70
     0
  9
$PLINEGEN
 70
     0
  9
$PSLTSCALE
 70
     1
  9
$TREEDEPTH
 70
  3020
  9
$CMLSTYLE
  2
Standard
  9
$CMLJUST
 70
     0
  9
$CMLSCALE
 40
1.0
  9
$PROXYGRAPHICS
 70
     1
  9
$MEASUREMENT
 70
     0
  9
$CELWEIGHT
370
    -1
  9
$ENDCAPS
280
     0
  9
$JOINSTYLE
280
     0
  9
$LWDISPLAY
290
     0
  9
$INSUNITS
 70
     0
  9
$HYPERLINKBASE
  1

  9
$STYLESHEET
  1

  9
$XEDIT
290
     1
  9
$CEPSNTYPE
380
     0
  9
$PSTYLEMODE
290
     1
  9
$FINGERPRINTGUID
  2
{CC7D6DEE-A9F1-4F3E-AC95-C84B62CCA3FD}
  9
$VERSIONGUID
  2
{DA93AF7C-6393-494F-AB97-F256BC02918F}
  9
$EXTNAMES
290
     1
  9
$PSVPSCALE
 40
0.0
  9
$OLESTARTUP
290
     0
  0
ENDSEC
  0
SECTION
  2
CLASSES
  0
CLASS
  1
ACDBDICTIONARYWDFLT
  2
AcDbDictionaryWithDefault
  3
ObjectDBX Classes
 90
        0
280
     0
281
     0
  0
CLASS
  1
ACDBPLACEHOLDER
  2
AcDbPlaceHolder
  3
ObjectDBX Classes
 90
        0
280
     0
281
     0
  0
CLASS
  1
LAYOUT
  2
AcDbLayout
  3
ObjectDBX Classes
 90
        0
280
     0
281
     0
  0
CLASS
  1
DICTIONARYVAR
  2
AcDbDictionaryVar
  3
ObjectDBX Classes
 90
        0
280
     0
281
     0
  0
CLASS
  1
MATERIAL
  2
AcDbMaterial
  3
ObjectDBX Classes
 90
     1153
280
     0
281
     0
  0
CLASS
  1
VISUALSTYLE
  2
AcDbVisualStyle
  3
ObjectDBX Classes
 90
     4095
280
     0
281
     0
  0
CLASS
  1
TABLESTYLE
  2
AcDbTableStyle
  3
ObjectDBX Classes
 90
     4095
280
     0
281
     0
  0
ENDSEC
  0
SECTION
  2
TABLES
  0
TABLE
  2
VPORT
  5
8
102
{ACAD_XDICTIONARY
360
7070
102
}
330
0
100
AcDbSymbolTable
 70
     1
  0
VPORT
  5
7006
330
8
100
AcDbSymbolTableRecord
100
AcDbViewportTableRecord
  2
*Active
 70
     0
 10
0.0
 20
0.0
 11
1.0
 21
1.0
 12
462.0762231607796
 22
239.4812138943331
 13
0.0
 23
0.0
 14
1.0
 24
1.0
 15
0.0
 25
0.0
 16
0.0
 26
0.0
 36
1.0
 17
0.0
 27
0.0
 37
0.0
 40
237.7480736279947
 41
1.571614583333333
 42
50.0
 43
0.0
 44
0.0
 50
0.0
 51
0.0
 71
     0
 72
   100
 73
     1
 74
     1
 75
     0
 76
     0
 77
     0
 78
     0
281
     0
 65
     1
110
0.0
120
0.0
130
0.0
111
1.0
121
0.0
131
0.0
112
0.0
122
1.0
132
0.0
 79
     0
146
0.0
  0
ENDTAB
  0
TABLE
  2
LTYPE
  5
5
330
0
100
AcDbSymbolTable
 70
    50
  0
LTYPE
  5
13
330
5
100
AcDbSymbolTableRecord
100
AcDbLinetypeTableRecord
  2
ByBlock
 70
     0
  3

 72
    65
 73
     0
 40
0.0
  0
LTYPE
  5
14
330
5
100
AcDbSymbolTableRecord
100
AcDbLinetypeTableRecord
  2
ByLayer
 70
     0
  3

 72
    65
 73
     0
 40
0.0
  0
LTYPE
  5
15
330
5
100
AcDbSymbolTableRecord
100
AcDbLinetypeTableRecord
  2
CONTINUOUS
 70
     0
  3
実線
 72
    65
 73
     0
 40
0.0
  0
LTYPE
  5
22
330
5
100
AcDbSymbolTableRecord
100
AcDbLinetypeTableRecord
  2
DASHED1
 70
     0
  3
--  --  --  --  --  --  --  --  
 72
    65
 73
     2
 40
2.5
 49
1.25
 74
     0
 49
-1.25
 74
     0
  0
LTYPE
  5
23
330
5
100
AcDbSymbolTableRecord
100
AcDbLinetypeTableRecord
  2
DASHED2
 70
     0
  3
----    ----    ----    ----    
 72
    65
 73
     2
 40
5.0
 49
2.5
 74
     0
 49
-2.5
 74
     0
  0
LTYPE
  5
24
330
5
100
AcDbSymbolTableRecord
100
AcDbLinetypeTableRecord
  2
DASHED3
 70
     0
  3
------  ------  ------  ------  
 72
    65
 73
     2
 40
5.0
 49
3.75
 74
     0
 49
-1.25
 74
     0
  0
LTYPE
  5
25
330
5
100
AcDbSymbolTableRecord
100
AcDbLinetypeTableRecord
  2
CENTER1
 70
     0
  3
----- - ----- - ----- - ----- - 
 72
    65
 73
     4
 40
10.0
 49
6.25
 74
     0
 49
-1.25
 74
     0
 49
1.25
 74
     0
 49
-1.25
 74
     0
  0
LTYPE
  5
26
330
5
100
AcDbSymbolTableRecord
100
AcDbLinetypeTableRecord
  2
CENTER2
 70
     0
  3
----------  --  ----------  --  
 72
    65
 73
     4
 40
20.0
 49
12.5
 74
     0
 49
-2.5
 74
     0
 49
2.5
 74
     0
 49
-2.5
 74
     0
  0
LTYPE
  5
27
330
5
100
AcDbSymbolTableRecord
100
AcDbLinetypeTableRecord
  2
PHANTOM1
 70
     0
  3
--- - - --- - - --- - - --- - - 
 72
    65
 73
     6
 40
10.0
 49
3.25
 74
     0
 49
-1.25
 74
     0
 49
1.25
 74
     0
 49
-1.25
 74
     0
 49
1.25
 74
     0
 49
-1.25
 74
     0
  0
LTYPE
  5
28
330
5
100
AcDbSymbolTableRecord
100
AcDbLinetypeTableRecord
  2
PHANTOM2
 70
     0
  3
--------  -  -  --------  -  -  
 72
    65
 73
     6
 40
20.0
 49
10.0
 74
     0
 49
-2.5
 74
     0
 49
1.25
 74
     0
 49
-2.5
 74
     0
 49
1.25
 74
     0
 49
-2.5
 74
     0
  0
LTYPE
  5
29
330
5
100
AcDbSymbolTableRecord
100
AcDbLinetypeTableRecord
  2
DOT
 70
     0
  3
-   -   -   -   -   -   -   -   
 72
    65
 73
     2
 40
2.5
 49
0.625
 74
     0
 49
-1.875
 74
     0
  0
LTYPE
  5
2A
330
5
100
AcDbSymbolTableRecord
100
AcDbLinetypeTableRecord
  2
DUMMY
 70
     0
  3
ダミー
 72
    65
 73
     0
 40
0.0
  0
LTYPE
  5
2B
330
5
100
AcDbSymbolTableRecord
100
AcDbLinetypeTableRecord
  2
RAND1
 70
     0
  3
ランダム線1
 72
    65
 73
     4
 40
10.0
 49
1.0
 74
     0
 49
-2.0
 74
     0
 49
3.0
 74
     0
 49
-4.0
 74
     0
  0
LTYPE
  5
2C
330
5
100
AcDbSymbolTableRecord
100
AcDbLinetypeTableRecord
  2
RAND2
 70
     0
  3
ランダム線2
 72
    65
 73
     4
 40
14.0
 49
2.0
 74
     0
 49
-3.0
 74
     0
 49
4.0
 74
     0
 49
-5.0
 74
     0
  0
LTYPE
  5
2D
330
5
100
AcDbSymbolTableRecord
100
AcDbLinetypeTableRecord
  2
RAND3
 70
     0
  3
ランダム線3
 72
    65
 73
     4
 40
18.0
 49
3.0
 74
     0
 49
-4.0
 74
     0
 49
5.0
 74
     0
 49
-6.0
 74
     0
  0
LTYPE
  5
2E
330
5
100
AcDbSymbolTableRecord
100
AcDbLinetypeTableRecord
  2
RAND4
 70
     0
  3
ランダム線4
 72
    65
 73
     4
 40
22.0
 49
4.0
 74
     0
 49
-5.0
 74
     0
 49
6.0
 74
     0
 49
-7.0
 74
     0
  0
LTYPE
  5
2F
330
5
100
AcDbSymbolTableRecord
100
AcDbLinetypeTableRecord
  2
RAND5
 70
     0
  3
ランダム線5
 72
    65
 73
     4
 40
26.0
 49
5.0
 74
     0
 49
-6.0
 74
     0
 49
7.0
 74
     0
 49
-8.0
 74
     0
  0
LTYPE
  5
30
330
5
100
AcDbSymbolTableRecord
100
AcDbLinetypeTableRecord
  2
LONG1
 70
     0
  3
----------  --  ----------  --  
 72
    65
 73
     4
 40
40.0
 49
32.5
 74
     0
 49
-2.5
 74
     0
 49
2.5
 74
     0
 49
-2.5
 74
     0
  0
LTYPE
  5
31
330
5
100
AcDbSymbolTableRecord
100
AcDbLinetypeTableRecord
  2
LONG2
 70
     0
  3
--------  -  -  --------  -  -  
 72
    65
 73
     6
 40
40.0
 49
30.0
 74
     0
 49
-2.5
 74
     0
 49
1.25
 74
     0
 49
-2.5
 74
     0
 49
1.25
 74
     0
 49
-2.5
 74
     0
  0
LTYPE
  5
32
330
5
100
AcDbSymbolTableRecord
100
AcDbLinetypeTableRecord
  2
LONG3
 70
     0
  3
+++++++++++++++..+++++++++++++++
 72
    65
 73
     2
 40
40.0
 49
37.5
 74
     0
 49
-2.5
 74
     0
  0
LTYPE
  5
33
330
5
100
AcDbSymbolTableRecord
100
AcDbLinetypeTableRecord
  2
LONG4
 70
     0
  3
+++++++++++++++..+++++++++++++++
 72
    65
 73
     2
 40
80.0
 49
75.0
 74
     0
 49
-5.0
 74
     0
  0
LTYPE
  5
34
330
5
100
AcDbSymbolTableRecord
100
AcDbLinetypeTableRecord
  2
LONG5
 70
     0
  3
----------  --  ----------  --  
 72
    65
 73
     4
 40
60.0
 49
37.5
 74
     0
 49
-7.5
 74
     0
 49
7.5
 74
     0
 49
-7.5
 74
     0
  0
LTYPE
  5
35
330
5
100
AcDbSymbolTableRecord
100
AcDbLinetypeTableRecord
  2
DASHED
 70
     0
  3
-------   -------------   ------
 72
    65
 73
     2
 40
7.5
 49
6.0
 74
     0
 49
-1.5
 74
     0
  0
LTYPE
  5
36
330
5
100
AcDbSymbolTableRecord
100
AcDbLinetypeTableRecord
  2
DASHED_SPACED
 70
     0
  3
----        --------        ----
 72
    65
 73
     2
 40
12.0
 49
6.0
 74
     0
 49
-6.0
 74
     0
  0
LTYPE
  5
37
330
5
100
AcDbSymbolTableRecord
100
AcDbLinetypeTableRecord
  2
LONG_DASHED_DOTTED
 70
     0
  3
------------- --- --------------
 72
    65
 73
     4
 40
15.25
 49
12.0
 74
     0
 49
-1.5
 74
     0
 49
0.25
 74
     0
 49
-1.5
 74
     0
  0
LTYPE
  5
38
330
5
100
AcDbSymbolTableRecord
100
AcDbLinetypeTableRecord
  2
LONG_DASHED_DOUBLE-DOTTED
 70
     0
  3
----------- --- --- ------------
 72
    65
 73
     6
 40
17.0
 49
12.0
 74
     0
 49
-1.5
 74
     0
 49
0.25
 74
     0
 49
-1.5
 74
     0
 49
0.25
 74
     0
 49
-1.5
 74
     0
  0
LTYPE
  5
39
330
5
100
AcDbSymbolTableRecord
100
AcDbLinetypeTableRecord
  2
LONG_DASHED_TRIPLICATE-DOTTED
 70
     0
  3
--------- --- --- --- ----------
 72
    65
 73
     8
 40
18.75
 49
12.0
 74
     0
 49
-1.5
 74
     0
 49
0.25
 74
     0
 49
-1.5
 74
     0
 49
0.25
 74
     0
 49
-1.5
 74
     0
 49
0.25
 74
     0
 49
-1.5
 74
     0
  0
LTYPE
  5
3A
330
5
100
AcDbSymbolTableRecord
100
AcDbLinetypeTableRecord
  2
DOTTED
 70
     0
  3
   -       -       -       -    
 72
    65
 73
     2
 40
1.75
 49
0.25
 74
     0
 49
-1.5
 74
     0
  0
LTYPE
  5
3B
330
5
100
AcDbSymbolTableRecord
100
AcDbLinetypeTableRecord
  2
CHAIN
 70
     0
  3
-------------- -- --------------
 72
    65
 73
     4
 40
18.5
 49
12.0
 74
     0
 49
-1.5
 74
     0
 49
3.5
 74
     0
 49
-1.5
 74
     0
  0
LTYPE
  5
3C
330
5
100
AcDbSymbolTableRecord
100
AcDbLinetypeTableRecord
  2
CHAIN_DOUBLE_DASH
 70
     0
  3
------------ -- -- -------------
 72
    65
 73
     6
 40
23.5
 49
12.0
 74
     0
 49
-1.5
 74
     0
 49
3.5
 74
     0
 49
-1.5
 74
     0
 49
3.5
 74
     0
 49
-1.5
 74
     0
  0
LTYPE
  5
3D
330
5
100
AcDbSymbolTableRecord
100
AcDbLinetypeTableRecord
  2
DASHED_DOTTED
 70
     0
  3
-----------     -     ----------
 72
    65
 73
     4
 40
9.25
 49
6.0
 74
     0
 49
-1.5
 74
     0
 49
0.25
 74
     0
 49
-1.5
 74
     0
  0
LTYPE
  5
3E
330
5
100
AcDbSymbolTableRecord
100
AcDbLinetypeTableRecord
  2
DOUBLE-DASHED_DOTTED
 70
     0
  3
------   -----------   -   -----
 72
    65
 73
     6
 40
16.75
 49
6.0
 74
     0
 49
-1.5
 74
     0
 49
6.0
 74
     0
 49
-1.5
 74
     0
 49
0.25
 74
     0
 49
-1.5
 74
     0
  0
LTYPE
  5
3F
330
5
100
AcDbSymbolTableRecord
100
AcDbLinetypeTableRecord
  2
DASHED_DOUBLE-DOTTED
 70
     0
  3
---------    -    -    ---------
 72
    65
 73
     6
 40
11.0
 49
6.0
 74
     0
 49
-1.5
 74
     0
 49
0.25
 74
     0
 49
-1.5
 74
     0
 49
0.25
 74
     0
 49
-1.5
 74
     0
  0
LTYPE
  5
40
330
5
100
AcDbSymbolTableRecord
100
AcDbLinetypeTableRecord
  2
DOUBLE-DASHED_DOUBLE-DOTTED
 70
     0
  3
-----   ---------   -   -   ----
 72
    65
 73
     8
 40
18.5
 49
6.0
 74
     0
 49
-1.5
 74
     0
 49
6.0
 74
     0
 49
-1.5
 74
     0
 49
0.25
 74
     0
 49
-1.5
 74
     0
 49
0.25
 74
     0
 49
-1.5
 74
     0
  0
LTYPE
  5
41
330
5
100
AcDbSymbolTableRecord
100
AcDbLinetypeTableRecord
  2
DASHED_TRIPLICATE-DOTTED
 70
     0
  3
-------    -    -    -    ------
 72
    65
 73
     8
 40
12.75
 49
6.0
 74
     0
 49
-1.5
 74
     0
 49
0.25
 74
     0
 49
-1.5
 74
     0
 49
0.25
 74
     0
 49
-1.5
 74
     0
 49
0.25
 74
     0
 49
-1.5
 74
     0
  0
LTYPE
  5
42
330
5
100
AcDbSymbolTableRecord
100
AcDbLinetypeTableRecord
  2
DOUBLE-DASHED_TRIPLICATE-DOTTED
 70
     0
  3
-----  ---------  -  -  -  -----
 72
    65
 73
    10
 40
20.25
 49
6.0
 74
     0
 49
-1.5
 74
     0
 49
6.0
 74
     0
 49
-1.5
 74
     0
 49
0.25
 74
     0
 49
-1.5
 74
     0
 49
0.25
 74
     0
 49
-1.5
 74
     0
 49
0.25
 74
     0
 49
-1.5
 74
     0
  0
LTYPE
  5
43
330
5
100
AcDbSymbolTableRecord
100
AcDbLinetypeTableRecord
  2
UNDEFINED
 70
     0
  3
--------------------------------
 72
    65
 73
     0
 40
0.0
  0
LTYPE
  5
44
330
5
100
AcDbSymbolTableRecord
100
AcDbLinetypeTableRecord
  2
PLINE2
 70
     0
  3
------     -----------     -----
 72
    65
 73
     2
 40
3.0
 49
2.1
 74
     0
 49
-0.9
 74
     0
  0
LTYPE
  5
45
330
5
100
AcDbSymbolTableRecord
100
AcDbLinetypeTableRecord
  2
PLINE3
 70
     0
  3
------------   ---   -----------
 72
    65
 73
     4
 40
10.0
 49
7.0
 74
     0
 49
-1.0
 74
     0
 49
1.0
 74
     0
 49
-1.0
 74
     0
  0
LTYPE
  5
46
330
5
100
AcDbSymbolTableRecord
100
AcDbLinetypeTableRecord
  2
PLINE4
 70
     0
  3
---------   ---   ---   --------
 72
    65
 73
     6
 40
10.0
 49
5.0
 74
     0
 49
-1.0
 74
     0
 49
1.0
 74
     0
 49
-1.0
 74
     0
 49
1.0
 74
     0
 49
-1.0
 74
     0
  0
LTYPE
  5
47
330
5
100
AcDbSymbolTableRecord
100
AcDbLinetypeTableRecord
  2
PLINE5
 70
     0
  3
------     -----------     -----
 72
    65
 73
     2
 40
5.0
 49
3.5
 74
     0
 49
-1.5
 74
     0
  0
LTYPE
  5
48
330
5
100
AcDbSymbolTableRecord
100
AcDbLinetypeTableRecord
  2
PLINE6
 70
     0
  3
------------   ---   -----------
 72
    65
 73
     4
 40
15.0
 49
10.5
 74
     0
 49
-1.5
 74
     0
 49
1.5
 74
     0
 49
-1.5
 74
     0
  0
LTYPE
  5
49
330
5
100
AcDbSymbolTableRecord
100
AcDbLinetypeTableRecord
  2
PLINE7
 70
     0
  3
---------   ---   ---   --------
 72
    65
 73
     6
 40
15.0
 49
7.5
 74
     0
 49
-1.5
 74
     0
 49
1.5
 74
     0
 49
-1.5
 74
     0
 49
1.5
 74
     0
 49
-1.5
 74
     0
  0
LTYPE
  5
4A
330
5
100
AcDbSymbolTableRecord
100
AcDbLinetypeTableRecord
  2
PLINE8
 70
     0
  3
------     -----------     -----
 72
    65
 73
     2
 40
7.0
 49
4.9
 74
     0
 49
-2.1
 74
     0
  0
LTYPE
  5
4B
330
5
100
AcDbSymbolTableRecord
100
AcDbLinetypeTableRecord
  2
PLINE9
 70
     0
  3
------------   ---   -----------
 72
    65
 73
     4
 40
20.0
 49
14.0
 74
     0
 49
-2.0
 74
     0
 49
2.0
 74
     0
 49
-2.0
 74
     0
  0
LTYPE
  5
4C
330
5
100
AcDbSymbolTableRecord
100
AcDbLinetypeTableRecord
  2
PLINE10
 70
     0
  3
---------   ---   ---   --------
 72
    65
 73
     6
 40
20.0
 49
10.0
 74
     0
 49
-2.0
 74
     0
 49
2.0
 74
     0
 49
-2.0
 74
     0
 49
2.0
 74
     0
 49
-2.0
 74
     0
  0
LTYPE
  5
4D
330
5
100
AcDbSymbolTableRecord
100
AcDbLinetypeTableRecord
  2
PLINE11
 70
     0
  3
------     -----------     -----
 72
    65
 73
     2
 40
9.0
 49
6.299999999999999
 74
     0
 49
-2.7
 74
     0
  0
LTYPE
  5
4E
330
5
100
AcDbSymbolTableRecord
100
AcDbLinetypeTableRecord
  2
PLINE12
 70
     0
  3
------------   ---   -----------
 72
    65
 73
     4
 40
25.0
 49
17.5
 74
     0
 49
-2.5
 74
     0
 49
2.5
 74
     0
 49
-2.5
 74
     0
  0
LTYPE
  5
4F
330
5
100
AcDbSymbolTableRecord
100
AcDbLinetypeTableRecord
  2
PLINE13
 70
     0
  3
---------   ---   ---   --------
 72
    65
 73
     6
 40
25.0
 49
12.5
 74
     0
 49
-2.5
 74
     0
 49
2.5
 74
     0
 49
-2.5
 74
     0
 49
2.5
 74
     0
 49
-2.5
 74
     0
  0
LTYPE
  5
50
330
5
100
AcDbSymbolTableRecord
100
AcDbLinetypeTableRecord
  2
PLINE14
 70
     0
  3
------     -----------     -----
 72
    65
 73
     2
 40
11.0
 49
7.7
 74
     0
 49
-3.299999999999999
 74
     0
  0
LTYPE
  5
51
330
5
100
AcDbSymbolTableRecord
100
AcDbLinetypeTableRecord
  2
PLINE15
 70
     0
  3
------------   ---   -----------
 72
    65
 73
     4
 40
30.0
 49
21.0
 74
     0
 49
-3.0
 74
     0
 49
3.0
 74
     0
 49
-3.0
 74
     0
  0
LTYPE
  5
52
330
5
100
AcDbSymbolTableRecord
100
AcDbLinetypeTableRecord
  2
PLINE16
 70
     0
  3
---------   ---   ---   --------
 72
    65
 73
     6
 40
30.0
 49
15.0
 74
     0
 49
-3.0
 74
     0
 49
3.0
 74
     0
 49
-3.0
 74
     0
 49
3.0
 74
     0
 49
-3.0
 74
     0
  0
ENDTAB
  0
TABLE
  2
LAYER
  5
2
102
{ACAD_XDICTIONARY
360
175
102
}
330
0
100
AcDbSymbolTable
 70
     5
  0
LAYER
  5
10
330
2
100
AcDbSymbolTableRecord
100
AcDbLayerTableRecord
  2
0
 70
     0
 62
     7
  6
CONTINUOUS
370
    -3
390
F
  0
LAYER
  5
128
330
2
100
AcDbSymbolTableRecord
100
AcDbLayerTableRecord
  2
Defpoints
 70
     0
 62
     7
  6
CONTINUOUS
290
     0
370
    -3
390
F
  0
LAYER
  5
179
330
2
100
AcDbSymbolTableRecord
100
AcDbLayerTableRecord
  2
製品
 70
     0
 62
     7
  6
CONTINUOUS
370
    -3
390
F
  0
LAYER
  5
6B8F
330
2
100
AcDbSymbolTableRecord
100
AcDbLayerTableRecord
  2
寸法
 70
     0
 62
     7
  6
CONTINUOUS
370
    -3
390
F
  0
LAYER
  5
6B90
330
2
100
AcDbSymbolTableRecord
100
AcDbLayerTableRecord
  2
図面枠
 70
     0
 62
     7
  6
CONTINUOUS
370
    -3
390
F
  0
ENDTAB
  0
TABLE
  2
STYLE
  5
3
330
0
100
AcDbSymbolTable
 70
     4
  0
STYLE
  5
11
330
3
100
AcDbSymbolTableRecord
100
AcDbTextStyleTableRecord
  2
STANDARD
 70
     0
 40
0.0
 41
1.0
 50
0.0
 71
     0
 42
0.2
  3
txt
  4
bigfont.shx
  0
STYLE
  5
53
330
3
100
AcDbSymbolTableRecord
100
AcDbTextStyleTableRecord
  2
TATEGAKI
 70
     4
 40
0.0
 41
1.0
 50
0.0
 71
     0
 42
1.0
  3
txt
  4
bigfont.shx
  0
STYLE
  5
123
330
3
100
AcDbSymbolTableRecord
100
AcDbTextStyleTableRecord
  2
ACAD
 70
     0
 40
5.0
 41
0.8
 50
0.0
 71
     0
 42
5.0
  3
romans.shx
  4
extfont.shx
  0
STYLE
  5
3A5F
330
3
100
AcDbSymbolTableRecord
100
AcDbTextStyleTableRecord
  2
VERTXT
 70
     4
 40
0.0
 41
0.8582679999999999
 50
0.0
 71
     0
 42
3.5
  3
txt.shx
  4
BIGFONT
  0
ENDTAB
  0
TABLE
  2
VIEW
  5
6
330
0
100
AcDbSymbolTable
 70
     0
  0
ENDTAB
  0
TABLE
  2
UCS
  5
7
330
0
100
AcDbSymbolTable
 70
     0
  0
ENDTAB
  0
TABLE
  2
APPID
  5
9
330
0
100
AcDbSymbolTable
 70
     1
  0
APPID
  5
12
330
9
100
AcDbSymbolTableRecord
100
AcDbRegAppTableRecord
  2
ACAD
 70
     0
  0
ENDTAB
  0
TABLE
  2
DIMSTYLE
  5
A
330
0
100
AcDbSymbolTable
 70
     3
100
AcDbDimStyleTable
 71
     0
  0
DIMSTYLE
105
11C
330
A
100
AcDbSymbolTableRecord
100
AcDbDimStyleTableRecord
  2
Standard
 70
     0
340
11
  0
DIMSTYLE
105
126
102
{ACAD_REACTORS
330
6E43
330
6E44
330
6D22
330
6D23
330
6D2D
330
6D8C
102
}
330
A
100
AcDbSymbolTableRecord
100
AcDbDimStyleTableRecord
  2
AutoCAD
 70
     0
 41
1.0
 42
0.0
 44
0.0
 73
     0
 77
     1
140
5.0
147
1.0
174
     1
176
     4
177
     4
178
     3
271
     0
272
     0
289
     0
340
123
341
15B0
342
11E
  0
DIMSTYLE
105
2CBB
330
A
100
AcDbSymbolTableRecord
100
AcDbDimStyleTableRecord
  2
111
 70
     0
 41
1.0
 42
0.0
 44
0.0
 73
     0
 77
     1
140
5.0
147
1.0
174
     1
176
     4
177
     4
178
     3
271
     0
272
     0
289
     0
340
123
341
15B0
342
2CB5
  0
ENDTAB
  0
TABLE
  2
BLOCK_RECORD
  5
1
330
0
100
AcDbSymbolTable
 70
    10
  0
BLOCK_RECORD
  5
1E
102
{ACAD_XDICTIONARY
360
28B
102
}
330
1
100
AcDbSymbolTableRecord
100
AcDbBlockTableRecord
  2
*Model_Space
340
21
  0
BLOCK_RECORD
  5
1A
102
{ACAD_XDICTIONARY
360
28D
102
}
330
1
100
AcDbSymbolTableRecord
100
AcDbBlockTableRecord
  2
*Paper_Space
340
1D
  0
BLOCK_RECORD
  5
11E
330
1
100
AcDbSymbolTableRecord
100
AcDbBlockTableRecord
  2
_Dot
340
0
102
{BLKREFS
331
6EF4
331
6EF5
331
6EFB
331
6EFC
331
6F04
331
6F05
331
6F0D
331
6F0E
331
6F16
331
6F17
331
6F1F
331
6F20
102
}
  0
BLOCK_RECORD
  5
15B0
330
1
100
AcDbSymbolTableRecord
100
AcDbBlockTableRecord
  2
_None
340
0
  0
BLOCK_RECORD
  5
2CB5
330
1
100
AcDbSymbolTableRecord
100
AcDbBlockTableRecord
  2
_Open30
340
0
  0
BLOCK_RECORD
  5
35E3
330
1
100
AcDbSymbolTableRecord
100
AcDbBlockTableRecord
  2
_DotBlank
340
0
  0
BLOCK_RECORD
  5
6EAF
330
1
100
AcDbSymbolTableRecord
100
AcDbBlockTableRecord
  2
*D4
340
0
  0
BLOCK_RECORD
  5
6EB9
330
1
100
AcDbSymbolTableRecord
100
AcDbBlockTableRecord
  2
*D5
340
0
  0
BLOCK_RECORD
  5
6EC3
330
1
100
AcDbSymbolTableRecord
100
AcDbBlockTableRecord
  2
*D6
340
0
  0
BLOCK_RECORD
  5
6ECF
330
1
100
AcDbSymbolTableRecord
100
AcDbBlockTableRecord
  2
*D7
340
0
  0
BLOCK_RECORD
  5
6EDB
330
1
100
AcDbSymbolTableRecord
100
AcDbBlockTableRecord
  2
*D8
340
0
  0
BLOCK_RECORD
  5
6EE7
330
1
100
AcDbSymbolTableRecord
100
AcDbBlockTableRecord
  2
*D9
340
0
  0
ENDTAB
  0
ENDSEC
  0
SECTION
  2
BLOCKS
  0
BLOCK
  5
1F
330
1E
100
AcDbEntity
  8
0
100
AcDbBlockBegin
  2
*Model_Space
 70
     0
 10
0.0
 20
0.0
 30
0.0
  3
*Model_Space
  1

  0
ENDBLK
  5
20
330
1E
100
AcDbEntity
  8
0
100
AcDbBlockEnd
  0
BLOCK
  5
1B
330
1A
100
AcDbEntity
 67
     1
  8
0
100
AcDbBlockBegin
  2
*Paper_Space
 70
     0
 10
0.0
 20
0.0
 30
0.0
  3
*Paper_Space
  1

  0
ENDBLK
  5
1C
330
1A
100
AcDbEntity
 67
     1
  8
0
100
AcDbBlockEnd
  0
BLOCK
  5
121
330
11E
100
AcDbEntity
  8
0
100
AcDbBlockBegin
  2
_Dot
 70
     0
 10
0.0
 20
0.0
 30
0.0
  3
_Dot
  1

  0
LWPOLYLINE
  5
11F
330
11E
100
AcDbEntity
  8
0
  6
ByBlock
 62
     0
100
AcDbPolyline
 90
        2
 70
     1
 43
0.5
 10
-0.25
 20
0.0
 42
1.0
 10
0.25
 20
0.0
 42
1.0
  0
LINE
  5
120
330
11E
100
AcDbEntity
  8
0
  6
ByBlock
 62
     0
370
    -2
100
AcDbLine
 10
-0.5
 20
0.0
 30
0.0
 11
-1.0
 21
0.0
 31
0.0
  0
ENDBLK
  5
122
330
11E
100
AcDbEntity
  8
0
100
AcDbBlockEnd
  0
BLOCK
  5
15B1
330
15B0
100
AcDbEntity
  8
0
100
AcDbBlockBegin
  2
_None
 70
     0
 10
0.0
 20
0.0
 30
0.0
  3
_None
  1

  0
ENDBLK
  5
15B2
330
15B0
100
AcDbEntity
  8
0
100
AcDbBlockEnd
  0
BLOCK
  5
2CB9
330
2CB5
100
AcDbEntity
  8
0
100
AcDbBlockBegin
  2
_Open30
 70
     0
 10
0.0
 20
0.0
 30
0.0
  3
_Open30
  1

  0
LINE
  5
2CB6
330
2CB5
100
AcDbEntity
  8
0
  6
ByBlock
 62
     0
370
    -2
100
AcDbLine
 10
-1.0
 20
0.26794919
 30
0.0
 11
0.0
 21
0.0
 31
0.0
  0
LINE
  5
2CB7
330
2CB5
100
AcDbEntity
  8
0
  6
ByBlock
 62
     0
370
    -2
100
AcDbLine
 10
0.0
 20
0.0
 30
0.0
 11
-1.0
 21
-0.26794919
 31
0.0
  0
LINE
  5
2CB8
330
2CB5
100
AcDbEntity
  8
0
  6
ByBlock
 62
     0
370
    -2
100
AcDbLine
 10
0.0
 20
0.0
 30
0.0
 11
-1.0
 21
0.0
 31
0.0
  0
ENDBLK
  5
2CBA
330
2CB5
100
AcDbEntity
  8
0
100
AcDbBlockEnd
  0
BLOCK
  5
35E6
330
35E3
100
AcDbEntity
  8
0
100
AcDbBlockBegin
  2
_DotBlank
 70
     0
 10
0.0
 20
0.0
 30
0.0
  3
_DotBlank
  1

  0
CIRCLE
  5
35E4
330
35E3
100
AcDbEntity
  8
0
  6
ByBlock
 62
     0
370
    -2
100
AcDbCircle
 10
0.0
 20
0.0
 30
0.0
 40
0.5
  0
LINE
  5
35E5
330
35E3
100
AcDbEntity
  8
0
  6
ByBlock
 62
     0
370
    -2
100
AcDbLine
 10
-0.5
 20
0.0
 30
0.0
 11
-1.0
 21
0.0
 31
0.0
  0
ENDBLK
  5
35E7
330
35E3
100
AcDbEntity
  8
0
100
AcDbBlockEnd
  0
BLOCK
  5
6EB7
330
6EAF
100
AcDbEntity
  8
0
100
AcDbBlockBegin
  2
*D4
 70
     1
 10
0.0
 20
0.0
 30
0.0
  3
*D4
  1

  0
LINE
  5
6EF3
330
6EAF
100
AcDbEntity
  8
寸法
  6
Continuous
 62
     4
370
    -2
100
AcDbLine
 10
416.9176816185403
 20
168.4911190462754
 30
0.0
 11
416.9176816185403
 21
151.5276110462752
 31
0.0
  0
INSERT
  5
6EF4
330
6EAF
100
AcDbEntity
  8
寸法
  6
Continuous
 62
     4
370
    -2
100
AcDbBlockReference
  2
_Dot
 10
416.9176816185403
 20
169.4911190462754
 30
0.0
 50
90.0
  0
INSERT
  5
6EF5
330
6EAF
100
AcDbEntity
  8
寸法
  6
Continuous
 62
     4
370
    -2
100
AcDbBlockReference
  2
_Dot
 10
416.9176816185403
 20
150.5276110462752
 30
0.0
 50
270.0
  0
MTEXT
  5
6EF6
330
6EAF
100
AcDbEntity
  8
寸法
  6
Continuous
 62
     3
100
AcDbMText
 10
413.6176816185402
 20
160.0093650462754
 30
0.0
 40
5.0
 41
0.0
 71
     5
 72
     5
  1
\A1;19
  7
ACAD
 11
0.0000000000000001
 21
1.0
 31
0.0
 73
     1
 44
1.0
1001
ACAD
1000
MTEXTBEGIN
1070
    73
1070
     1
1070
    44
1040
1.0
1070
    74
1070
     0
1000
MTEXTEND
  0
POINT
  5
6EF7
330
6EAF
100
AcDbEntity
  8
Defpoints
  6
Continuous
 62
     0
100
AcDbPoint
 10
416.9176816185403
 20
169.4911190462754
 30
0.0
  0
POINT
  5
6EF8
330
6EAF
100
AcDbEntity
  8
Defpoints
  6
Continuous
 62
     0
100
AcDbPoint
 10
416.9176816185403
 20
150.5276110462752
 30
0.0
  0
POINT
  5
6EF9
330
6EAF
100
AcDbEntity
  8
Defpoints
  6
Continuous
 62
     0
100
AcDbPoint
 10
416.9176816185403
 20
150.5276110462752
 30
0.0
  0
ENDBLK
  5
6EB8
330
6EAF
100
AcDbEntity
  8
0
100
AcDbBlockEnd
  0
BLOCK
  5
6EC1
330
6EB9
100
AcDbEntity
  8
0
100
AcDbBlockBegin
  2
*D5
 70
     1
 10
0.0
 20
0.0
 30
0.0
  3
*D5
  1

  0
LINE
  5
6EFA
330
6EB9
100
AcDbEntity
  8
寸法
  6
Continuous
 62
     4
370
    -2
100
AcDbLine
 10
416.9176816185403
 20
206.4911190462754
 30
0.0
 11
416.9176816185403
 21
170.4911190462754
 31
0.0
  0
INSERT
  5
6EFB
330
6EB9
100
AcDbEntity
  8
寸法
  6
Continuous
 62
     4
370
    -2
100
AcDbBlockReference
  2
_Dot
 10
416.9176816185403
 20
207.4911190462755
 30
0.0
 50
90.0
  0
INSERT
  5
6EFC
330
6EB9
100
AcDbEntity
  8
寸法
  6
Continuous
 62
     4
370
    -2
100
AcDbBlockReference
  2
_Dot
 10
416.9176816185403
 20
169.4911190462754
 30
0.0
 50
270.0
  0
MTEXT
  5
6EFD
330
6EB9
100
AcDbEntity
  8
寸法
  6
Continuous
 62
     3
100
AcDbMText
 10
413.6176816185402
 20
188.4911190462755
 30
0.0
 40
5.0
 41
0.0
 71
     5
 72
     5
  1
\A1;38
  7
ACAD
 11
0.0000000000000001
 21
1.0
 31
0.0
 73
     1
 44
1.0
1001
ACAD
1000
MTEXTBEGIN
1070
    73
1070
     1
1070
    44
1040
1.0
1070
    74
1070
     0
1000
MTEXTEND
  0
POINT
  5
6EFE
330
6EB9
100
AcDbEntity
  8
Defpoints
  6
Continuous
 62
     0
100
AcDbPoint
 10
416.9176816185403
 20
207.4911190462755
 30
0.0
  0
POINT
  5
6EFF
330
6EB9
100
AcDbEntity
  8
Defpoints
  6
Continuous
 62
     0
100
AcDbPoint
 10
416.9176816185403
 20
169.4911190462754
 30
0.0
  0
POINT
  5
6F00
330
6EB9
100
AcDbEntity
  8
Defpoints
  6
Continuous
 62
     0
100
AcDbPoint
 10
416.9176816185403
 20
169.4911190462754
 30
0.0
  0
ENDBLK
  5
6EC2
330
6EB9
100
AcDbEntity
  8
0
100
AcDbBlockEnd
  0
BLOCK
  5
6ECD
330
6EC3
100
AcDbEntity
  8
0
100
AcDbBlockBegin
  2
*D6
 70
     1
 10
0.0
 20
0.0
 30
0.0
  3
*D6
  1

  0
LINE
  5
6F01
330
6EC3
100
AcDbEntity
  8
寸法
  6
Continuous
 62
     4
370
    -2
100
AcDbLine
 10
378.4850586185402
 20
333.5062520462758
 30
0.0
 11
417.1676816185403
 21
333.5062520462757
 31
0.0
  0
LINE
  5
6F02
330
6EC3
100
AcDbEntity
  8
寸法
  6
Continuous
 62
     4
370
    -2
100
AcDbLine
 10
373.4850586185402
 20
295.5062520462758
 30
0.0
 11
417.1676816185403
 21
295.5062520462757
 31
0.0
  0
LINE
  5
6F03
330
6EC3
100
AcDbEntity
  8
寸法
  6
Continuous
 62
     4
370
    -2
100
AcDbLine
 10
417.1676816185403
 20
332.5062520462757
 30
0.0
 11
417.1676816185403
 21
296.5062520462757
 31
0.0
  0
INSERT
  5
6F04
330
6EC3
100
AcDbEntity
  8
寸法
  6
Continuous
 62
     4
370
    -2
100
AcDbBlockReference
  2
_Dot
 10
417.1676816185403
 20
333.5062520462757
 30
0.0
 50
90.0
  0
INSERT
  5
6F05
330
6EC3
100
AcDbEntity
  8
寸法
  6
Continuous
 62
     4
370
    -2
100
AcDbBlockReference
  2
_Dot
 10
417.1676816185403
 20
295.5062520462757
 30
0.0
 50
270.0
  0
MTEXT
  5
6F06
330
6EC3
100
AcDbEntity
  8
寸法
  6
Continuous
 62
     3
100
AcDbMText
 10
413.8676816185402
 20
314.5062520462758
 30
0.0
 40
5.0
 41
0.0
 71
     5
 72
     5
  1
\A1;38
  7
ACAD
 11
0.0000000000000001
 21
1.0
 31
0.0
 73
     1
 44
1.0
1001
ACAD
1000
MTEXTBEGIN
1070
    73
1070
     1
1070
    44
1040
1.0
1070
    74
1070
     0
1000
MTEXTEND
  0
POINT
  5
6F07
330
6EC3
100
AcDbEntity
  8
Defpoints
  6
Continuous
 62
     0
100
AcDbPoint
 10
378.4850586185402
 20
333.5062520462758
 30
0.0
  0
POINT
  5
6F08
330
6EC3
100
AcDbEntity
  8
Defpoints
  6
Continuous
 62
     0
100
AcDbPoint
 10
373.4850586185402
 20
295.5062520462758
 30
0.0
  0
POINT
  5
6F09
330
6EC3
100
AcDbEntity
  8
Defpoints
  6
Continuous
 62
     0
100
AcDbPoint
 10
417.1676816185403
 20
295.5062520462757
 30
0.0
  0
ENDBLK
  5
6ECE
330
6EC3
100
AcDbEntity
  8
0
100
AcDbBlockEnd
  0
BLOCK
  5
6ED9
330
6ECF
100
AcDbEntity
  8
0
100
AcDbBlockBegin
  2
*D7
 70
     1
 10
0.0
 20
0.0
 30
0.0
  3
*D7
  1

  0
LINE
  5
6F0A
330
6ECF
100
AcDbEntity
  8
寸法
  6
Continuous
 62
     4
370
    -2
100
AcDbLine
 10
377.4850586185402
 20
276.5062520462758
 30
0.0
 11
416.9176816185403
 21
276.5062520462757
 31
0.0
  0
LINE
  5
6F0B
330
6ECF
100
AcDbEntity
  8
寸法
  6
Continuous
 62
     4
370
    -2
100
AcDbLine
 10
373.4850586185402
 20
295.5062520462758
 30
0.0
 11
416.9176816185403
 21
295.5062520462757
 31
0.0
  0
LINE
  5
6F0C
330
6ECF
100
AcDbEntity
  8
寸法
  6
Continuous
 62
     4
370
    -2
100
AcDbLine
 10
416.9176816185403
 20
277.5062520462757
 30
0.0
 11
416.9176816185403
 21
294.5062520462757
 31
0.0
  0
INSERT
  5
6F0D
330
6ECF
100
AcDbEntity
  8
寸法
  6
Continuous
 62
     4
370
    -2
100
AcDbBlockReference
  2
_Dot
 10
416.9176816185403
 20
276.5062520462757
 30
0.0
 50
270.0
  0
INSERT
  5
6F0E
330
6ECF
100
AcDbEntity
  8
寸法
  6
Continuous
 62
     4
370
    -2
100
AcDbBlockReference
  2
_Dot
 10
416.9176816185403
 20
295.5062520462757
 30
0.0
 50
90.0
  0
MTEXT
  5
6F0F
330
6ECF
100
AcDbEntity
  8
寸法
  6
Continuous
 62
     3
100
AcDbMText
 10
413.6176816185402
 20
286.0062520462758
 30
0.0
 40
5.0
 41
0.0
 71
     5
 72
     5
  1
\A1;19
  7
ACAD
 11
0.0000000000000001
 21
1.0
 31
0.0
 73
     1
 44
1.0
1001
ACAD
1000
MTEXTBEGIN
1070
    73
1070
     1
1070
    44
1040
1.0
1070
    74
1070
     0
1000
MTEXTEND
  0
POINT
  5
6F10
330
6ECF
100
AcDbEntity
  8
Defpoints
  6
Continuous
 62
     0
100
AcDbPoint
 10
377.4850586185402
 20
276.5062520462758
 30
0.0
  0
POINT
  5
6F11
330
6ECF
100
AcDbEntity
  8
Defpoints
  6
Continuous
 62
     0
100
AcDbPoint
 10
373.4850586185402
 20
295.5062520462758
 30
0.0
  0
POINT
  5
6F12
330
6ECF
100
AcDbEntity
  8
Defpoints
  6
Continuous
 62
     0
100
AcDbPoint
 10
416.9176816185403
 20
295.5062520462757
 30
0.0
  0
ENDBLK
  5
6EDA
330
6ECF
100
AcDbEntity
  8
0
100
AcDbBlockEnd
  0
BLOCK
  5
6EE5
330
6EDB
100
AcDbEntity
  8
0
100
AcDbBlockBegin
  2
*D8
 70
     1
 10
0.0
 20
0.0
 30
0.0
  3
*D8
  1

  0
LINE
  5
6F13
330
6EDB
100
AcDbEntity
  8
寸法
  6
Continuous
 62
     4
370
    -2
100
AcDbLine
 10
341.9850586185402
 20
152.4911190462754
 30
0.0
 11
341.9850586185402
 21
139.2679570462757
 31
0.0
  0
LINE
  5
6F14
330
6EDB
100
AcDbEntity
  8
寸法
  6
Continuous
 62
     4
370
    -2
100
AcDbLine
 10
366.9850586185402
 20
152.4911190462754
 30
0.0
 11
366.9850586185402
 21
139.2679570462757
 31
0.0
  0
LINE
  5
6F15
330
6EDB
100
AcDbEntity
  8
寸法
  6
Continuous
 62
     4
370
    -2
100
AcDbLine
 10
342.9850586185402
 20
139.2679570462757
 30
0.0
 11
365.9850586185402
 21
139.2679570462757
 31
0.0
  0
INSERT
  5
6F16
330
6EDB
100
AcDbEntity
  8
寸法
  6
Continuous
 62
     4
370
    -2
100
AcDbBlockReference
  2
_Dot
 10
341.9850586185402
 20
139.2679570462757
 30
0.0
 50
180.0
  0
INSERT
  5
6F17
330
6EDB
100
AcDbEntity
  8
寸法
  6
Continuous
 62
     4
370
    -2
100
AcDbBlockReference
  2
_Dot
 10
366.9850586185402
 20
139.2679570462757
 30
0.0
  0
MTEXT
  5
6F18
330
6EDB
100
AcDbEntity
  8
寸法
  6
Continuous
 62
     3
100
AcDbMText
 10
354.4850586185402
 20
142.5679570462757
 30
0.0
 40
5.0
 41
0.0
 71
     5
 72
     5
  1
\A1;25
  7
ACAD
 73
     1
 44
1.0
1001
ACAD
1000
MTEXTBEGIN
1070
    73
1070
     1
1070
    44
1040
1.0
1070
    74
1070
     0
1000
MTEXTEND
  0
POINT
  5
6F19
330
6EDB
100
AcDbEntity
  8
Defpoints
  6
Continuous
 62
     0
100
AcDbPoint
 10
341.9850586185402
 20
152.4911190462754
 30
0.0
  0
POINT
  5
6F1A
330
6EDB
100
AcDbEntity
  8
Defpoints
  6
Continuous
 62
     0
100
AcDbPoint
 10
366.9850586185402
 20
152.4911190462754
 30
0.0
  0
POINT
  5
6F1B
330
6EDB
100
AcDbEntity
  8
Defpoints
  6
Continuous
 62
     0
100
AcDbPoint
 10
366.9850586185402
 20
139.2679570462757
 30
0.0
  0
ENDBLK
  5
6EE6
330
6EDB
100
AcDbEntity
  8
0
100
AcDbBlockEnd
  0
BLOCK
  5
6EF1
330
6EE7
100
AcDbEntity
  8
0
100
AcDbBlockBegin
  2
*D9
 70
     1
 10
0.0
 20
0.0
 30
0.0
  3
*D9
  1

  0
LINE
  5
6F1C
330
6EE7
100
AcDbEntity
  8
寸法
  6
Continuous
 62
     4
370
    -2
100
AcDbLine
 10
329.4850586185402
 20
276.9164270462758
 30
0.0
 11
329.4850586185402
 21
265.8819500462756
 31
0.0
  0
LINE
  5
6F1D
330
6EE7
100
AcDbEntity
  8
寸法
  6
Continuous
 62
     4
370
    -2
100
AcDbLine
 10
379.4850586185402
 20
276.9164270462758
 30
0.0
 11
379.4850586185402
 21
265.8819500462756
 31
0.0
  0
LINE
  5
6F1E
330
6EE7
100
AcDbEntity
  8
寸法
  6
Continuous
 62
     4
370
    -2
100
AcDbLine
 10
330.4850586185402
 20
265.8819500462756
 30
0.0
 11
378.4850586185402
 21
265.8819500462756
 31
0.0
  0
INSERT
  5
6F1F
330
6EE7
100
AcDbEntity
  8
寸法
  6
Continuous
 62
     4
370
    -2
100
AcDbBlockReference
  2
_Dot
 10
329.4850586185402
 20
265.8819500462756
 30
0.0
 50
180.0
  0
INSERT
  5
6F20
330
6EE7
100
AcDbEntity
  8
寸法
  6
Continuous
 62
     4
370
    -2
100
AcDbBlockReference
  2
_Dot
 10
379.4850586185402
 20
265.8819500462756
 30
0.0
  0
MTEXT
  5
6F21
330
6EE7
100
AcDbEntity
  8
寸法
  6
Continuous
 62
     3
100
AcDbMText
 10
354.4850586185402
 20
269.1819500462756
 30
0.0
 40
5.0
 41
0.0
 71
     5
 72
     5
  1
\A1;50
  7
ACAD
 73
     1
 44
1.0
1001
ACAD
1000
MTEXTBEGIN
1070
    73
1070
     1
1070
    44
1040
1.0
1070
    74
1070
     0
1000
MTEXTEND
  0
POINT
  5
6F22
330
6EE7
100
AcDbEntity
  8
Defpoints
  6
Continuous
 62
     0
100
AcDbPoint
 10
329.4850586185402
 20
276.9164270462758
 30
0.0
  0
POINT
  5
6F23
330
6EE7
100
AcDbEntity
  8
Defpoints
  6
Continuous
 62
     0
100
AcDbPoint
 10
379.4850586185402
 20
276.9164270462758
 30
0.0
  0
POINT
  5
6F24
330
6EE7
100
AcDbEntity
  8
Defpoints
  6
Continuous
 62
     0
100
AcDbPoint
 10
379.4850586185402
 20
265.8819500462756
 30
0.0
  0
ENDBLK
  5
6EF2
330
6EE7
100
AcDbEntity
  8
0
100
AcDbBlockEnd
  0
ENDSEC
  0
SECTION
  2
ENTITIES
  0
DIMENSION
  5
6D22
330
1E
100
AcDbEntity
  8
寸法
  6
Continuous
100
AcDbDimension
  2
*D6
 10
417.1676816185403
 20
295.5062520462757
 30
0.0
 11
413.8676816185402
 21
314.5062520462758
 31
0.0
 70
    32
 71
     5
 42
-1.0
  3
AutoCAD
100
AcDbAlignedDimension
 13
378.4850586185402
 23
333.5062520462758
 33
0.0
 14
373.4850586185402
 24
295.5062520462758
 34
0.0
 50
90.0
100
AcDbRotatedDimension
1001
ACAD
1000
DSTYLE
1002
{
1070
   147
1040
0.8
1070
   140
1040
10.0
1002
}
  0
DIMENSION
  5
6D23
330
1E
100
AcDbEntity
  8
寸法
  6
Continuous
100
AcDbDimension
  2
*D7
 10
416.9176816185403
 20
295.5062520462757
 30
0.0
 11
413.6176816185402
 21
286.0062520462758
 31
0.0
 70
    32
 71
     5
 42
-1.0
  3
AutoCAD
100
AcDbAlignedDimension
 13
377.4850586185402
 23
276.5062520462758
 33
0.0
 14
373.4850586185402
 24
295.5062520462758
 34
0.0
 50
90.0
100
AcDbRotatedDimension
1001
ACAD
1000
DSTYLE
1002
{
1070
   147
1040
0.8
1070
   140
1040
10.0
1002
}
  0
LINE
  5
6D24
330
1E
100
AcDbEntity
  8
製品
  6
Continuous
 62
     3
100
AcDbLine
 10
434.0473116185401
 20
333.5062520462758
 30
0.0
 11
378.4850586185402
 21
333.5062520462758
 31
0.0
  0
LINE
  5
6D25
330
1E
100
AcDbEntity
  8
製品
  6
Continuous
 62
     3
100
AcDbLine
 10
434.0473116185401
 20
295.5062520462758
 30
0.0
 11
373.4850586185402
 21
295.5062520462758
 31
0.0
  0
LINE
  5
6D26
330
1E
100
AcDbEntity
  8
製品
  6
Continuous
 62
     3
100
AcDbLine
 10
377.4850586185402
 20
276.5062520462758
 30
0.0
 11
417.9176816185402
 21
276.5062520462758
 31
0.0
  0
LINE
  5
6D27
330
1E
100
AcDbEntity
  8
製品
  6
Continuous
 62
     3
100
AcDbLine
 10
365.4515576185403
 20
150.5276110462756
 30
0.0
 11
417.9176816185402
 21
150.5276110462756
 31
0.0
  0
LINE
  5
6D28
330
1E
100
AcDbEntity
  8
製品
  6
Continuous
 62
     3
100
AcDbLine
 10
501.5734706185402
 20
169.4911190462754
 30
0.0
 11
360.9850586185402
 21
169.4911190462754
 31
0.0
  0
LINE
  5
6D29
330
1E
100
AcDbEntity
  8
製品
  6
Continuous
 62
     3
100
AcDbLine
 10
501.5734706185402
 20
207.4911190462755
 30
0.0
 11
366.9850586185402
 21
207.4911190462755
 31
0.0
  0
LINE
  5
6D2A
330
1E
100
AcDbEntity
  8
製品
  6
PLINE3
 62
     3
100
AcDbLine
 10
354.4850586185402
 20
145.6552010462757
 30
0.0
 11
354.4850586185402
 21
211.6411190462756
 31
0.0
  0
LINE
  5
6D2B
330
1E
100
AcDbEntity
  8
製品
  6
Continuous
 62
     3
100
AcDbLine
 10
276.1769416185406
 20
169.4911190462754
 30
0.0
 11
347.9850586185402
 21
169.4911190462754
 31
0.0
  0
LINE
  5
6D2C
330
1E
100
AcDbEntity
  8
製品
  6
Continuous
 62
     3
100
AcDbLine
 10
276.1769416185406
 20
207.4911190462755
 30
0.0
 11
341.9850586185402
 21
207.4911190462755
 31
0.0
  0
DIMENSION
  5
6D2D
330
1E
100
AcDbEntity
  8
寸法
  6
Continuous
100
AcDbDimension
  2
*D8
 10
366.9850586185402
 20
139.2679570462757
 30
0.0
 11
354.4850586185402
 21
142.5679570462757
 31
0.0
 70
    32
 71
     5
 42
-1.0
  3
AutoCAD
100
AcDbAlignedDimension
 13
341.9850586185402
 23
152.4911190462754
 33
0.0
 14
366.9850586185402
 24
152.4911190462754
 34
0.0
100
AcDbRotatedDimension
1001
ACAD
1000
DSTYLE
1002
{
1070
   147
1040
0.8
1070
   140
1040
10.0
1002
}
  0
TEXT
  5
6D2E
330
1E
100
AcDbEntity
  8
図面枠
  6
Continuous
 62
     3
100
AcDbText
 10
344.4986556185403
 20
126.6007980462756
 30
0.0
 40
5.0
  1
ＣＳ－１９
 41
0.8
  7
ACAD
100
AcDbText
  0
LINE
  5
6D2F
330
1E
100
AcDbEntity
  8
製品
  6
Continuous
 62
     4
100
AcDbLine
 10
366.9850586185402
 20
208.0911190462758
 30
0.0
 11
341.9850586185402
 21
208.0911190462758
 31
0.0
  0
LINE
  5
6D30
330
1E
100
AcDbEntity
  8
製品
  6
Continuous
 62
     3
100
AcDbLine
 10
346.9850586185402
 20
202.4911190462755
 30
0.0
 11
361.9850586185402
 21
202.4911190462755
 31
0.0
  0
ARC
  5
6D31
330
1E
100
AcDbEntity
  8
製品
  6
Continuous
 62
     3
100
AcDbCircle
 10
348.4850586185402
 20
181.4911190462754
 30
0.0
 40
3.0
100
AcDbArc
 50
0.0
 51
90.0
  0
LINE
  5
6D32
330
1E
100
AcDbEntity
  8
製品
  6
Continuous
 62
     3
100
AcDbLine
 10
348.4850586185402
 20
150.4911190462754
 30
0.0
 11
349.9850586185402
 21
150.9911190462754
 31
0.0
  0
LINE
  5
6D33
330
1E
100
AcDbEntity
  8
製品
  6
Continuous
 62
     3
100
AcDbLine
 10
348.4850586185402
 20
150.9911190462754
 30
0.0
 11
349.9850586185402
 21
151.4911190462754
 31
0.0
  0
LINE
  5
6D34
330
1E
100
AcDbEntity
  8
製品
  6
Continuous
 62
     4
100
AcDbLine
 10
344.9850586185402
 20
159.3911190462755
 30
0.0
 11
363.9850586185402
 21
159.3911190462755
 31
0.0
  0
ARC
  5
6D35
330
1E
100
AcDbEntity
  8
製品
  6
Continuous
 62
     3
100
AcDbCircle
 10
346.9850586185402
 20
200.4911190462755
 30
0.0
 40
2.0
100
AcDbArc
 50
90.0
 51
180.0
  0
LINE
  5
6D36
330
1E
100
AcDbEntity
  8
製品
  6
Continuous
 62
     3
100
AcDbLine
 10
344.9850586185402
 20
186.4911190462754
 30
0.0
 11
344.9850586185402
 21
200.4911190462755
 31
0.0
  0
LINE
  5
6D37
330
1E
100
AcDbEntity
  8
製品
  6
Continuous
 62
     3
100
AcDbLine
 10
346.9850586185402
 20
184.4911190462754
 30
0.0
 11
348.7961546185405
 21
184.4911190462754
 31
0.0
  0
ARC
  5
6D38
330
1E
100
AcDbEntity
  8
製品
  6
Continuous
 62
     4
100
AcDbCircle
 10
343.4006476185404
 20
177.9235900462755
 30
0.0
 40
4.604764
100
AcDbArc
 50
354.6109389999889
 51
82.70867800000724
  0
ARC
  5
6D39
330
1E
100
AcDbEntity
  8
製品
  6
Continuous
 62
     4
100
AcDbCircle
 10
343.9850586185402
 20
184.4911190462754
 30
0.0
 40
2.0
100
AcDbArc
 50
180.0
 51
270.0
  0
LINE
  5
6D3A
330
1E
100
AcDbEntity
  8
製品
  6
Continuous
 62
     3
100
AcDbLine
 10
343.4850586185401
 20
168.9911190462754
 30
0.0
 11
344.4850586185402
 21
168.9911190462754
 31
0.0
  0
ARC
  5
6D3B
330
1E
100
AcDbEntity
  8
製品
  6
Continuous
 62
     3
100
AcDbCircle
 10
344.4850586185402
 20
167.9911190462754
 30
0.0
 40
1.0
100
AcDbArc
 50
0.0
 51
90.0
  0
LINE
  5
6D3C
330
1E
100
AcDbEntity
  8
製品
  6
Continuous
 62
     3
100
AcDbLine
 10
345.4850586185401
 20
167.9911190462754
 30
0.0
 11
345.4850586185401
 21
166.4911190462754
 31
0.0
  0
LINE
  5
6D3D
330
1E
100
AcDbEntity
  8
製品
  6
Continuous
 62
     3
100
AcDbLine
 10
345.4850586185401
 20
166.4911190462754
 30
0.0
 11
345.9850586185402
 21
166.4911190462754
 31
0.0
  0
LINE
  5
6D3E
330
1E
100
AcDbEntity
  8
製品
  6
Continuous
 62
     3
100
AcDbLine
 10
345.9850586185402
 20
166.4911190462754
 30
0.0
 11
345.9850586185402
 21
167.9911190462754
 31
0.0
  0
ARC
  5
6D3F
330
1E
100
AcDbEntity
  8
製品
  6
Continuous
 62
     4
100
AcDbCircle
 10
343.9292156185405
 20
168.1911190462757
 30
0.0
 40
0.8
100
AcDbArc
 50
11.30993199999648
 51
90.0
  0
LINE
  5
6D40
330
1E
100
AcDbEntity
  8
製品
  6
Continuous
 62
     4
100
AcDbLine
 10
345.1033276185402
 20
166.3997720462758
 30
0.0
 11
344.7136796185404
 21
168.3480110462757
 31
0.0
  0
ARC
  5
6D41
330
1E
100
AcDbEntity
  8
製品
  6
Continuous
 62
     4
100
AcDbCircle
 10
346.4850586185402
 20
166.9836190462757
 30
0.0
 40
1.500018999999999
100
AcDbArc
 50
202.7960729999847
 51
0.286477000004934
  0
ARC
  5
6D42
330
1E
100
AcDbEntity
  8
製品
  6
Continuous
 62
     3
100
AcDbCircle
 10
344.4850586185402
 20
167.9911190462754
 30
0.0
 40
1.5
100
AcDbArc
 50
0.0
 51
90.0
  0
ARC
  5
6D43
330
1E
100
AcDbEntity
  8
製品
  6
Continuous
 62
     3
100
AcDbCircle
 10
343.4850586185401
 20
167.9911190462754
 30
0.0
 40
1.0
100
AcDbArc
 50
90.0
 51
180.0
  0
ARC
  5
6D44
330
1E
100
AcDbEntity
  8
製品
  6
Continuous
 62
     3
100
AcDbCircle
 10
343.4850586185401
 20
167.9911190462754
 30
0.0
 40
1.5
100
AcDbArc
 50
90.0
 51
180.0
  0
LINE
  5
6D45
330
1E
100
AcDbEntity
  8
製品
  6
Continuous
 62
     4
100
AcDbLine
 10
347.9850586185402
 20
166.9761190462756
 30
0.0
 11
347.9850586185402
 21
177.4911190462754
 31
0.0
  0
ARC
  5
6D46
330
1E
100
AcDbEntity
  8
製品
  6
Continuous
 62
     3
100
AcDbCircle
 10
346.9850586185402
 20
186.4911190462754
 30
0.0
 40
2.0
100
AcDbArc
 50
180.0
 51
270.0
  0
LINE
  5
6D47
330
1E
100
AcDbEntity
  8
製品
  6
Continuous
 62
     4
100
AcDbLine
 10
341.9850586185402
 20
208.0911190462758
 30
0.0
 11
341.9850586185402
 21
184.4911190462754
 31
0.0
  0
ARC
  5
6D48
330
1E
100
AcDbEntity
  8
製品
  6
Continuous
 62
     4
100
AcDbCircle
 10
344.9850586185402
 20
161.3911190462755
 30
0.0
 40
2.0
100
AcDbArc
 50
180.0
 51
270.0
  0
LINE
  5
6D49
330
1E
100
AcDbEntity
  8
製品
  6
Continuous
 62
     3
100
AcDbLine
 10
344.9850586185402
 20
150.9911190462754
 30
0.0
 11
345.9850586185402
 21
150.9911190462754
 31
0.0
  0
LINE
  5
6D4A
330
1E
100
AcDbEntity
  8
製品
  6
Continuous
 62
     3
100
AcDbLine
 10
344.9850586185402
 20
150.4911190462754
 30
0.0
 11
345.9850586185402
 21
150.4911190462754
 31
0.0
  0
LINE
  5
6D4B
330
1E
100
AcDbEntity
  8
製品
  6
Continuous
 62
     3
100
AcDbLine
 10
345.9850586185402
 20
150.4911190462754
 30
0.0
 11
346.9850586185402
 21
150.9911190462754
 31
0.0
  0
LINE
  5
6D4C
330
1E
100
AcDbEntity
  8
製品
  6
Continuous
 62
     3
100
AcDbLine
 10
345.9850586185402
 20
150.9911190462754
 30
0.0
 11
346.9850586185402
 21
151.4911190462754
 31
0.0
  0
LINE
  5
6D4D
330
1E
100
AcDbEntity
  8
製品
  6
Continuous
 62
     3
100
AcDbLine
 10
346.9850586185402
 20
150.9911190462754
 30
0.0
 11
348.4850586185402
 21
150.4911190462754
 31
0.0
  0
LINE
  5
6D4E
330
1E
100
AcDbEntity
  8
製品
  6
Continuous
 62
     3
100
AcDbLine
 10
346.9850586185402
 20
151.4911190462754
 30
0.0
 11
348.4850586185402
 21
150.9911190462754
 31
0.0
  0
ARC
  5
6D4F
330
1E
100
AcDbEntity
  8
製品
  6
Continuous
 62
     3
100
AcDbCircle
 10
344.9850586185402
 20
153.4911190462754
 30
0.0
 40
2.5
100
AcDbArc
 50
180.0
 51
270.0
  0
ARC
  5
6D50
330
1E
100
AcDbEntity
  8
製品
  6
Continuous
 62
     3
100
AcDbCircle
 10
344.9850586185402
 20
153.4911190462754
 30
0.0
 40
3.0
100
AcDbArc
 50
180.0
 51
270.0
  0
LINE
  5
6D51
330
1E
100
AcDbEntity
  8
製品
  6
Continuous
 62
     4
100
AcDbLine
 10
342.9850586185402
 20
168.8571440462757
 30
0.0
 11
342.9850586185402
 21
161.3911190462755
 31
0.0
  0
LINE
  5
6D52
330
1E
100
AcDbEntity
  8
製品
  6
Continuous
 62
     3
100
AcDbLine
 10
342.4850586185402
 20
153.4911190462754
 30
0.0
 11
342.4850586185402
 21
167.9911190462754
 31
0.0
  0
LINE
  5
6D53
330
1E
100
AcDbEntity
  8
製品
  6
Continuous
 62
     3
100
AcDbLine
 10
341.9850586185402
 20
153.4911190462754
 30
0.0
 11
341.9850586185402
 21
167.9911190462754
 31
0.0
  0
ARC
  5
6D54
330
1E
100
AcDbEntity
  8
製品
  6
Continuous
 62
     3
100
AcDbCircle
 10
361.9850586185402
 20
200.4911190462755
 30
0.0
 40
2.0
100
AcDbArc
 50
0.0
 51
90.0
  0
LINE
  5
6D55
330
1E
100
AcDbEntity
  8
製品
  6
Continuous
 62
     3
100
AcDbLine
 10
363.9850586185402
 20
200.4911190462755
 30
0.0
 11
363.9850586185402
 21
186.4911190462754
 31
0.0
  0
LINE
  5
6D56
330
1E
100
AcDbEntity
  8
製品
  6
Continuous
 62
     3
100
AcDbLine
 10
361.9850586185402
 20
184.4911190462754
 30
0.0
 11
360.4850586185402
 21
184.4911190462754
 31
0.0
  0
ARC
  5
6D57
330
1E
100
AcDbEntity
  8
製品
  6
Continuous
 62
     4
100
AcDbCircle
 10
365.5694696185404
 20
177.9235900462755
 30
0.0
 40
4.604764
100
AcDbArc
 50
97.29132199999277
 51
185.3890610000111
  0
LINE
  5
6D58
330
1E
100
AcDbEntity
  8
製品
  6
Continuous
 62
     3
100
AcDbLine
 10
365.4850586185402
 20
168.9911190462754
 30
0.0
 11
364.4850586185402
 21
168.9911190462754
 31
0.0
  0
ARC
  5
6D59
330
1E
100
AcDbEntity
  8
製品
  6
Continuous
 62
     3
100
AcDbCircle
 10
364.4850586185402
 20
167.9911190462754
 30
0.0
 40
1.0
100
AcDbArc
 50
90.0
 51
180.0
  0
LINE
  5
6D5A
330
1E
100
AcDbEntity
  8
製品
  6
Continuous
 62
     3
100
AcDbLine
 10
363.4850586185402
 20
167.9911190462754
 30
0.0
 11
363.4850586185402
 21
166.4911190462754
 31
0.0
  0
LINE
  5
6D5B
330
1E
100
AcDbEntity
  8
製品
  6
Continuous
 62
     3
100
AcDbLine
 10
363.4850586185402
 20
166.4911190462754
 30
0.0
 11
362.9850586185402
 21
166.4911190462754
 31
0.0
  0
LINE
  5
6D5C
330
1E
100
AcDbEntity
  8
製品
  6
Continuous
 62
     3
100
AcDbLine
 10
362.9850586185402
 20
166.4911190462754
 30
0.0
 11
362.9850586185402
 21
167.9911190462754
 31
0.0
  0
ARC
  5
6D5D
330
1E
100
AcDbEntity
  8
製品
  6
Continuous
 62
     4
100
AcDbCircle
 10
365.0409016185403
 20
168.1911190462757
 30
0.0
 40
0.8
100
AcDbArc
 50
90.0
 51
168.6900680000035
  0
LINE
  5
6D5E
330
1E
100
AcDbEntity
  8
製品
  6
Continuous
 62
     4
100
AcDbLine
 10
363.8667896185406
 20
166.3997720462758
 30
0.0
 11
364.2564376185404
 21
168.3480110462757
 31
0.0
  0
ARC
  5
6D5F
330
1E
100
AcDbEntity
  8
製品
  6
Continuous
 62
     4
100
AcDbCircle
 10
362.4850586185402
 20
166.9836190462757
 30
0.0
 40
1.500018999999999
100
AcDbArc
 50
179.713522999995
 51
337.2039270000152
  0
ARC
  5
6D60
330
1E
100
AcDbEntity
  8
製品
  6
Continuous
 62
     3
100
AcDbCircle
 10
364.4850586185402
 20
167.9911190462754
 30
0.0
 40
1.5
100
AcDbArc
 50
90.0
 51
180.0
  0
LINE
  5
6D61
330
1E
100
AcDbEntity
  8
製品
  6
Continuous
 62
     4
100
AcDbLine
 10
360.9850586185402
 20
167.1130520462758
 30
0.0
 11
360.9850586185402
 21
177.4911190462754
 31
0.0
  0
ARC
  5
6D62
330
1E
100
AcDbEntity
  8
製品
  6
Continuous
 62
     3
100
AcDbCircle
 10
361.9850586185402
 20
186.4911190462754
 30
0.0
 40
2.0
100
AcDbArc
 50
270.0
 51
0.0
  0
ARC
  5
6D63
330
1E
100
AcDbEntity
  8
製品
  6
Continuous
 62
     3
100
AcDbCircle
 10
360.4850586185402
 20
181.4911190462754
 30
0.0
 40
3.0
100
AcDbArc
 50
90.0
 51
180.0
  0
ARC
  5
6D64
330
1E
100
AcDbEntity
  8
製品
  6
Continuous
 62
     3
100
AcDbCircle
 10
365.4850586185402
 20
167.9911190462754
 30
0.0
 40
1.0
100
AcDbArc
 50
0.0
 51
90.0
  0
ARC
  5
6D65
330
1E
100
AcDbEntity
  8
製品
  6
Continuous
 62
     3
100
AcDbCircle
 10
365.4850586185402
 20
167.9911190462754
 30
0.0
 40
1.5
100
AcDbArc
 50
0.0
 51
90.0
  0
ARC
  5
6D66
330
1E
100
AcDbEntity
  8
製品
  6
Continuous
 62
     4
100
AcDbCircle
 10
364.9850586185402
 20
184.4911190462754
 30
0.0
 40
2.0
100
AcDbArc
 50
270.0
 51
0.0
  0
LINE
  5
6D67
330
1E
100
AcDbEntity
  8
製品
  6
Continuous
 62
     4
100
AcDbLine
 10
366.9850586185402
 20
208.0911190462758
 30
0.0
 11
366.9850586185402
 21
184.4911190462754
 31
0.0
  0
ARC
  5
6D68
330
1E
100
AcDbEntity
  8
製品
  6
Continuous
 62
     3
100
AcDbCircle
 10
354.4850586185402
 20
163.5970370462756
 30
0.0
 40
3.0
100
AcDbArc
 50
180.0
 51
0.0
  0
LINE
  5
6D69
330
1E
100
AcDbEntity
  8
製品
  6
Continuous
 62
     3
100
AcDbLine
 10
363.9850586185402
 20
150.9911190462754
 30
0.0
 11
362.9850586185402
 21
150.9911190462754
 31
0.0
  0
LINE
  5
6D6A
330
1E
100
AcDbEntity
  8
製品
  6
Continuous
 62
     3
100
AcDbLine
 10
363.9850586185402
 20
150.4911190462754
 30
0.0
 11
362.9850586185402
 21
150.4911190462754
 31
0.0
  0
LINE
  5
6D6B
330
1E
100
AcDbEntity
  8
製品
  6
Continuous
 62
     3
100
AcDbLine
 10
361.9850586185402
 20
150.9911190462754
 30
0.0
 11
360.4850586185402
 21
150.4911190462754
 31
0.0
  0
LINE
  5
6D6C
330
1E
100
AcDbEntity
  8
製品
  6
Continuous
 62
     3
100
AcDbLine
 10
360.4850586185402
 20
150.4911190462754
 30
0.0
 11
358.9850586185402
 21
150.9911190462754
 31
0.0
  0
LINE
  5
6D6D
330
1E
100
AcDbEntity
  8
製品
  6
Continuous
 62
     3
100
AcDbLine
 10
361.9850586185402
 20
151.4911190462754
 30
0.0
 11
360.4850586185402
 21
150.9911190462754
 31
0.0
  0
LINE
  5
6D6E
330
1E
100
AcDbEntity
  8
製品
  6
Continuous
 62
     3
100
AcDbLine
 10
360.4850586185402
 20
150.9911190462754
 30
0.0
 11
358.9850586185402
 21
151.4911190462754
 31
0.0
  0
LINE
  5
6D6F
330
1E
100
AcDbEntity
  8
製品
  6
Continuous
 62
     3
100
AcDbLine
 10
362.9850586185402
 20
150.9911190462754
 30
0.0
 11
361.9850586185402
 21
151.4911190462754
 31
0.0
  0
LINE
  5
6D70
330
1E
100
AcDbEntity
  8
製品
  6
Continuous
 62
     3
100
AcDbLine
 10
362.9850586185402
 20
150.4911190462754
 30
0.0
 11
361.9850586185402
 21
150.9911190462754
 31
0.0
  0
LINE
  5
6D71
330
1E
100
AcDbEntity
  8
製品
  6
Continuous
 62
     3
100
AcDbLine
 10
357.4850586185402
 20
150.4911190462754
 30
0.0
 11
355.9850586185401
 21
150.9911190462754
 31
0.0
  0
LINE
  5
6D72
330
1E
100
AcDbEntity
  8
製品
  6
Continuous
 62
     3
100
AcDbLine
 10
357.4850586185402
 20
150.9911190462754
 30
0.0
 11
355.9850586185401
 21
151.4911190462754
 31
0.0
  0
LINE
  5
6D73
330
1E
100
AcDbEntity
  8
製品
  6
Continuous
 62
     3
100
AcDbLine
 10
351.4850586185402
 20
150.4911190462754
 30
0.0
 11
352.9850586185402
 21
150.9911190462754
 31
0.0
  0
LINE
  5
6D74
330
1E
100
AcDbEntity
  8
製品
  6
Continuous
 62
     3
100
AcDbLine
 10
352.9850586185402
 20
150.9911190462754
 30
0.0
 11
354.4850586185402
 21
150.4911190462754
 31
0.0
  0
LINE
  5
6D75
330
1E
100
AcDbEntity
  8
製品
  6
Continuous
 62
     3
100
AcDbLine
 10
351.4850586185402
 20
150.9911190462754
 30
0.0
 11
352.9850586185402
 21
151.4911190462754
 31
0.0
  0
LINE
  5
6D76
330
1E
100
AcDbEntity
  8
製品
  6
Continuous
 62
     3
100
AcDbLine
 10
352.9850586185402
 20
151.4911190462754
 30
0.0
 11
354.4850586185402
 21
150.9911190462754
 31
0.0
  0
LINE
  5
6D77
330
1E
100
AcDbEntity
  8
製品
  6
Continuous
 62
     3
100
AcDbLine
 10
355.9850586185401
 20
150.9911190462754
 30
0.0
 11
354.4850586185402
 21
150.4911190462754
 31
0.0
  0
LINE
  5
6D78
330
1E
100
AcDbEntity
  8
製品
  6
Continuous
 62
     3
100
AcDbLine
 10
355.9850586185401
 20
151.4911190462754
 30
0.0
 11
354.4850586185402
 21
150.9911190462754
 31
0.0
  0
LINE
  5
6D79
330
1E
100
AcDbEntity
  8
製品
  6
Continuous
 62
     3
100
AcDbLine
 10
358.9850586185402
 20
150.9911190462754
 30
0.0
 11
357.4850586185402
 21
150.4911190462754
 31
0.0
  0
LINE
  5
6D7A
330
1E
100
AcDbEntity
  8
製品
  6
Continuous
 62
     3
100
AcDbLine
 10
358.9850586185402
 20
151.4911190462754
 30
0.0
 11
357.4850586185402
 21
150.9911190462754
 31
0.0
  0
LINE
  5
6D7B
330
1E
100
AcDbEntity
  8
製品
  6
Continuous
 62
     3
100
AcDbLine
 10
349.9850586185402
 20
150.9911190462754
 30
0.0
 11
351.4850586185402
 21
150.4911190462754
 31
0.0
  0
LINE
  5
6D7C
330
1E
100
AcDbEntity
  8
製品
  6
Continuous
 62
     3
100
AcDbLine
 10
349.9850586185402
 20
151.4911190462754
 30
0.0
 11
351.4850586185402
 21
150.9911190462754
 31
0.0
  0
ARC
  5
6D7D
330
1E
100
AcDbEntity
  8
製品
  6
Continuous
 62
     3
100
AcDbCircle
 10
363.9850586185402
 20
153.4911190462754
 30
0.0
 40
2.5
100
AcDbArc
 50
270.0
 51
0.0
  0
ARC
  5
6D7E
330
1E
100
AcDbEntity
  8
製品
  6
Continuous
 62
     3
100
AcDbCircle
 10
363.9850586185402
 20
153.4911190462754
 30
0.0
 40
3.0
100
AcDbArc
 50
270.0
 51
0.0
  0
ARC
  5
6D7F
330
1E
100
AcDbEntity
  8
製品
  6
Continuous
 62
     4
100
AcDbCircle
 10
363.9850586185402
 20
161.3911190462755
 30
0.0
 40
2.0
100
AcDbArc
 50
270.0
 51
0.0
  0
LINE
  5
6D80
330
1E
100
AcDbEntity
  8
製品
  6
Continuous
 62
     4
100
AcDbLine
 10
365.9850586185402
 20
161.3911190462755
 30
0.0
 11
365.9850586185402
 21
168.9593640462755
 31
0.0
  0
LINE
  5
6D81
330
1E
100
AcDbEntity
  8
製品
  6
Continuous
 62
     3
100
AcDbLine
 10
366.4850586185402
 20
153.4911190462754
 30
0.0
 11
366.4850586185402
 21
167.9911190462754
 31
0.0
  0
LINE
  5
6D82
330
1E
100
AcDbEntity
  8
製品
  6
Continuous
 62
     3
100
AcDbLine
 10
366.9850586185402
 20
153.4911190462754
 30
0.0
 11
366.9850586185402
 21
167.9911190462754
 31
0.0
  0
LINE
  5
6D83
330
1E
100
AcDbEntity
  8
製品
  6
Continuous
 62
     3
100
AcDbLine
 10
357.4850586185402
 20
163.5970370462756
 30
0.0
 11
357.4850586185402
 21
181.4911190462754
 31
0.0
  0
LINE
  5
6D84
330
1E
100
AcDbEntity
  8
製品
  6
Continuous
 62
     3
100
AcDbLine
 10
351.4850586185402
 20
163.5970370462756
 30
0.0
 11
351.4850586185402
 21
181.4911190462754
 31
0.0
  0
LINE
  5
6D85
330
1E
100
AcDbEntity
  8
製品
  6
Continuous
 62
     3
100
AcDbLine
 10
276.1769416185406
 20
333.5062520462758
 30
0.0
 11
330.4850586185402
 21
333.5062520462758
 31
0.0
  0
LINE
  5
6D86
330
1E
100
AcDbEntity
  8
製品
  6
Continuous
 62
     3
100
AcDbLine
 10
276.1769416185406
 20
295.5062520462758
 30
0.0
 11
335.4850586185402
 21
295.5062520462758
 31
0.0
  0
LINE
  5
6D87
330
1E
100
AcDbEntity
  8
製品
  6
Continuous
 62
     3
100
AcDbLine
 10
378.9850586185402
 20
279.5062520462758
 30
0.0
 11
378.9850586185402
 21
294.0062520462758
 31
0.0
  0
LINE
  5
6D88
330
1E
100
AcDbEntity
  8
製品
  6
Continuous
 62
     3
100
AcDbLine
 10
379.4850586185402
 20
279.5062520462758
 30
0.0
 11
379.4850586185402
 21
294.0062520462758
 31
0.0
  0
LINE
  5
6D89
330
1E
100
AcDbEntity
  8
製品
  6
PLINE3
 62
     3
100
AcDbLine
 10
354.4850586185402
 20
271.6338700462758
 30
0.0
 11
354.4850586185402
 21
337.6562520462754
 31
0.0
  0
LINE
  5
6D8A
330
1E
100
AcDbEntity
  8
製品
  6
Continuous
 62
     3
100
AcDbLine
 10
329.9850586185402
 20
279.5062520462758
 30
0.0
 11
329.9850586185402
 21
294.0062520462758
 31
0.0
  0
LINE
  5
6D8B
330
1E
100
AcDbEntity
  8
製品
  6
Continuous
 62
     3
100
AcDbLine
 10
329.4850586185402
 20
279.5062520462758
 30
0.0
 11
329.4850586185402
 21
294.0062520462758
 31
0.0
  0
DIMENSION
  5
6D8C
330
1E
100
AcDbEntity
  8
寸法
  6
Continuous
100
AcDbDimension
  2
*D9
 10
379.4850586185402
 20
265.8819500462756
 30
0.0
 11
354.4850586185402
 21
269.1819500462756
 31
0.0
 70
    32
 71
     5
 42
-1.0
  3
AutoCAD
100
AcDbAlignedDimension
 13
329.4850586185402
 23
276.9164270462758
 33
0.0
 14
379.4850586185402
 24
276.9164270462758
 34
0.0
100
AcDbRotatedDimension
1001
ACAD
1000
DSTYLE
1002
{
1070
   147
1040
0.8
1070
   140
1040
10.0
1002
}
  0
LINE
  5
6D8D
330
1E
100
AcDbEntity
  8
製品
  6
Continuous
 62
     3
100
AcDbLine
 10
349.6450586185405
 20
276.5062520462758
 30
0.0
 11
353.3430586185403
 21
276.5062520462758
 31
0.0
  0
LINE
  5
6D8E
330
1E
100
AcDbEntity
  8
製品
  6
Continuous
 62
     3
100
AcDbLine
 10
349.6450586185405
 20
277.0062520462758
 30
0.0
 11
353.3430586185403
 21
277.0062520462758
 31
0.0
  0
TEXT
  5
6D8F
330
1E
100
AcDbEntity
  8
図面枠
  6
Continuous
 62
     3
100
AcDbText
 10
343.9080946185403
 20
250.7928500462755
 30
0.0
 40
5.0
  1
ＣＷ－１９
 41
0.8
  7
ACAD
100
AcDbText
  0
TEXT
  5
6D91
330
1E
100
AcDbEntity
  8
図面枠
  6
Continuous
 62
     3
100
AcDbText
 10
335.8990006185403
 20
219.6470900462756
 30
0.0
 40
5.0
  1
シングルクリップ１９
 41
0.8
  7
ACAD
100
AcDbText
  0
ARC
  5
6D92
330
1E
100
AcDbEntity
  8
製品
  6
Continuous
 62
     3
100
AcDbCircle
 10
348.4570586185404
 20
276.8582520462757
 30
0.0
 40
0.6
100
AcDbArc
 50
63.47764199999557
 51
108.4651489999879
  0
ARC
  5
6D93
330
1E
100
AcDbEntity
  8
製品
  6
Continuous
 62
     3
100
AcDbCircle
 10
348.4570586185404
 20
276.3582520462756
 30
0.0
 40
0.6
100
AcDbArc
 50
63.47764199999557
 51
108.4651489999879
  0
LINE
  5
6D94
330
1E
100
AcDbEntity
  8
製品
  6
Continuous
 62
     3
100
AcDbLine
 10
348.7250586185404
 20
277.3952520462755
 30
0.0
 11
349.3770586185405
 21
277.0692520462759
 31
0.0
  0
ARC
  5
6D95
330
1E
100
AcDbEntity
  8
製品
  6
Continuous
 62
     3
100
AcDbCircle
 10
349.6450586185405
 20
277.6062520462757
 30
0.0
 40
0.6
100
AcDbArc
 50
243.477646000009
 51
270.0
  0
LINE
  5
6D96
330
1E
100
AcDbEntity
  8
製品
  6
Continuous
 62
     3
100
AcDbLine
 10
348.7250586185404
 20
276.8952520462755
 30
0.0
 11
349.3770586185405
 21
276.5692520462759
 31
0.0
  0
ARC
  5
6D97
330
1E
100
AcDbEntity
  8
製品
  6
Continuous
 62
     3
100
AcDbCircle
 10
349.6450586185405
 20
277.1062520462757
 30
0.0
 40
0.6
100
AcDbArc
 50
243.477646000009
 51
270.0
  0
ARC
  5
6D98
330
1E
100
AcDbEntity
  8
製品
  6
Continuous
 62
     3
100
AcDbCircle
 10
344.0030586185402
 20
277.6382520462759
 30
0.0
 40
0.6
100
AcDbArc
 50
251.5348510000121
 51
288.4651489999879
  0
ARC
  5
6D99
330
1E
100
AcDbEntity
  8
製品
  6
Continuous
 62
     3
100
AcDbCircle
 10
344.0030586185402
 20
277.1382520462759
 30
0.0
 40
0.6
100
AcDbArc
 50
251.5348510000121
 51
288.4651489999879
  0
LINE
  5
6D9A
330
1E
100
AcDbEntity
  8
製品
  6
Continuous
 62
     3
100
AcDbLine
 10
344.1930586185403
 20
277.0692520462759
 30
0.0
 11
345.3130586185406
 21
277.4432520462757
 31
0.0
  0
ARC
  5
6D9B
330
1E
100
AcDbEntity
  8
製品
  6
Continuous
 62
     3
100
AcDbCircle
 10
345.5030586185402
 20
276.8742520462757
 30
0.0
 40
0.6
100
AcDbArc
 50
71.53485100001211
 51
108.4651489999879
  0
LINE
  5
6D9C
330
1E
100
AcDbEntity
  8
製品
  6
Continuous
 62
     3
100
AcDbLine
 10
344.1930586185403
 20
276.5692520462759
 30
0.0
 11
345.3130586185406
 21
276.9432520462757
 31
0.0
  0
ARC
  5
6D9D
330
1E
100
AcDbEntity
  8
製品
  6
Continuous
 62
     3
100
AcDbCircle
 10
345.5030586185402
 20
276.3742520462757
 30
0.0
 40
0.6
100
AcDbArc
 50
71.53485100001211
 51
108.4651489999879
  0
ARC
  5
6D9E
330
1E
100
AcDbEntity
  8
製品
  6
Continuous
 62
     3
100
AcDbCircle
 10
347.0030586185402
 20
277.1382520462759
 30
0.0
 40
0.6
100
AcDbArc
 50
251.5348510000121
 51
288.4651489999879
  0
LINE
  5
6D9F
330
1E
100
AcDbEntity
  8
製品
  6
Continuous
 62
     3
100
AcDbLine
 10
345.6930586185403
 20
276.9432520462757
 30
0.0
 11
346.8130586185406
 21
276.5692520462759
 31
0.0
  0
ARC
  5
6DA0
330
1E
100
AcDbEntity
  8
製品
  6
Continuous
 62
     3
100
AcDbCircle
 10
347.0030586185402
 20
277.6382520462759
 30
0.0
 40
0.6
100
AcDbArc
 50
251.5348510000121
 51
288.4651489999879
  0
LINE
  5
6DA1
330
1E
100
AcDbEntity
  8
製品
  6
Continuous
 62
     3
100
AcDbLine
 10
345.6930586185403
 20
277.4432520462757
 30
0.0
 11
346.8130586185406
 21
277.0692520462759
 31
0.0
  0
LINE
  5
6DA2
330
1E
100
AcDbEntity
  8
製品
  6
Continuous
 62
     3
100
AcDbLine
 10
347.1930586185402
 20
277.0692520462759
 30
0.0
 11
348.2670586185403
 21
277.4272520462756
 31
0.0
  0
LINE
  5
6DA3
330
1E
100
AcDbEntity
  8
製品
  6
Continuous
 62
     3
100
AcDbLine
 10
347.1930586185402
 20
276.5692520462759
 30
0.0
 11
348.2670586185403
 21
276.9272520462756
 31
0.0
  0
LINE
  5
6DA4
330
1E
100
AcDbEntity
  8
製品
  6
Continuous
 62
     3
100
AcDbLine
 10
339.6930586185403
 20
276.9432520462757
 30
0.0
 11
340.8130586185406
 21
276.5692520462759
 31
0.0
  0
LINE
  5
6DA5
330
1E
100
AcDbEntity
  8
製品
  6
Continuous
 62
     3
100
AcDbLine
 10
339.6930586185403
 20
277.4432520462757
 30
0.0
 11
340.8130586185406
 21
277.0692520462759
 31
0.0
  0
LINE
  5
6DA6
330
1E
100
AcDbEntity
  8
製品
  6
Continuous
 62
     3
100
AcDbLine
 10
341.1930586185402
 20
277.0692520462759
 30
0.0
 11
342.3130586185406
 21
277.4432520462757
 31
0.0
  0
ARC
  5
6DA7
330
1E
100
AcDbEntity
  8
製品
  6
Continuous
 62
     3
100
AcDbCircle
 10
342.5030586185402
 20
276.8742520462757
 30
0.0
 40
0.6
100
AcDbArc
 50
71.53485100001211
 51
108.4651489999879
  0
LINE
  5
6DA8
330
1E
100
AcDbEntity
  8
製品
  6
Continuous
 62
     3
100
AcDbLine
 10
341.1930586185402
 20
276.5692520462759
 30
0.0
 11
342.3130586185406
 21
276.9432520462757
 31
0.0
  0
ARC
  5
6DA9
330
1E
100
AcDbEntity
  8
製品
  6
Continuous
 62
     3
100
AcDbCircle
 10
342.5030586185402
 20
276.3742520462757
 30
0.0
 40
0.6
100
AcDbArc
 50
71.53485100001211
 51
108.4651489999879
  0
ARC
  5
6DAA
330
1E
100
AcDbEntity
  8
製品
  6
Continuous
 62
     3
100
AcDbCircle
 10
341.0030586185402
 20
277.1382520462759
 30
0.0
 40
0.6
100
AcDbArc
 50
251.5348510000121
 51
288.4651489999879
  0
ARC
  5
6DAB
330
1E
100
AcDbEntity
  8
製品
  6
Continuous
 62
     3
100
AcDbCircle
 10
341.0030586185402
 20
277.6382520462759
 30
0.0
 40
0.6
100
AcDbArc
 50
251.5348510000121
 51
288.4651489999879
  0
ARC
  5
6DAC
330
1E
100
AcDbEntity
  8
製品
  6
Continuous
 62
     3
100
AcDbCircle
 10
336.5490586185405
 20
276.3582520462756
 30
0.0
 40
0.6
100
AcDbArc
 50
71.53485100001211
 51
116.5223539999906
  0
ARC
  5
6DAD
330
1E
100
AcDbEntity
  8
製品
  6
Continuous
 62
     3
100
AcDbCircle
 10
336.5490586185405
 20
276.8582520462757
 30
0.0
 40
0.6
100
AcDbArc
 50
71.56504799999338
 51
116.5223539999906
  0
LINE
  5
6DAE
330
1E
100
AcDbEntity
  8
製品
  6
Continuous
 62
     3
100
AcDbLine
 10
336.7390586185405
 20
276.9272520462756
 30
0.0
 11
337.8140586185403
 21
276.5692520462759
 31
0.0
  0
ARC
  5
6DAF
330
1E
100
AcDbEntity
  8
製品
  6
Continuous
 62
     3
100
AcDbCircle
 10
338.0030586185402
 20
277.1382520462759
 30
0.0
 40
0.6
100
AcDbArc
 50
251.6254879999906
 51
288.4651489999879
  0
LINE
  5
6DB0
330
1E
100
AcDbEntity
  8
製品
  6
Continuous
 62
     3
100
AcDbLine
 10
336.7390586185405
 20
277.4282520462758
 30
0.0
 11
337.8130586185406
 21
277.0692520462759
 31
0.0
  0
ARC
  5
6DB1
330
1E
100
AcDbEntity
  8
製品
  6
Continuous
 62
     3
100
AcDbCircle
 10
338.0030586185402
 20
277.6392520462756
 30
0.0
 40
0.6
100
AcDbArc
 50
251.5650479999934
 51
288.4349370000037
  0
LINE
  5
6DB2
330
1E
100
AcDbEntity
  8
製品
  6
Continuous
 62
     3
100
AcDbLine
 10
338.1930586185402
 20
277.0692520462759
 30
0.0
 11
339.3130586185406
 21
277.4432520462757
 31
0.0
  0
LINE
  5
6DB3
330
1E
100
AcDbEntity
  8
製品
  6
Continuous
 62
     3
100
AcDbLine
 10
338.1930586185402
 20
276.5692520462759
 30
0.0
 11
339.3130586185406
 21
276.9432520462757
 31
0.0
  0
ARC
  5
6DB4
330
1E
100
AcDbEntity
  8
製品
  6
Continuous
 62
     3
100
AcDbCircle
 10
339.5030586185402
 20
276.8742520462757
 30
0.0
 40
0.6
100
AcDbArc
 50
71.53485100001211
 51
108.4651489999879
  0
ARC
  5
6DB5
330
1E
100
AcDbEntity
  8
製品
  6
Continuous
 62
     3
100
AcDbCircle
 10
339.5030586185402
 20
276.3742520462757
 30
0.0
 40
0.6
100
AcDbArc
 50
71.53485100001211
 51
108.4651489999879
  0
LINE
  5
6DB6
330
1E
100
AcDbEntity
  8
製品
  6
Continuous
 62
     3
100
AcDbLine
 10
342.6930586185402
 20
277.4432520462757
 30
0.0
 11
343.8130586185406
 21
277.0692520462759
 31
0.0
  0
LINE
  5
6DB7
330
1E
100
AcDbEntity
  8
製品
  6
Continuous
 62
     3
100
AcDbLine
 10
342.6930586185402
 20
276.9432520462757
 30
0.0
 11
343.8130586185406
 21
276.5692520462759
 31
0.0
  0
LINE
  5
6DB8
330
1E
100
AcDbEntity
  8
製品
  6
Continuous
 62
     3
100
AcDbLine
 10
332.4850586185402
 20
277.0062520462758
 30
0.0
 11
335.3610586185404
 21
277.0062520462758
 31
0.0
  0
ARC
  5
6DB9
330
1E
100
AcDbEntity
  8
製品
  6
Continuous
 62
     3
100
AcDbCircle
 10
335.3610586185404
 20
277.6062520462757
 30
0.0
 40
0.6
100
AcDbArc
 50
270.0
 51
296.5223689999826
  0
ARC
  5
6DBA
330
1E
100
AcDbEntity
  8
製品
  6
Continuous
 62
     3
100
AcDbCircle
 10
335.3610586185404
 20
277.1062520462757
 30
0.0
 40
0.6
100
AcDbArc
 50
270.0
 51
296.5223689999826
  0
LINE
  5
6DBB
330
1E
100
AcDbEntity
  8
製品
  6
Continuous
 62
     3
100
AcDbLine
 10
332.4850586185402
 20
276.5062520462758
 30
0.0
 11
335.4250586185402
 21
276.5062520462758
 31
0.0
  0
ARC
  5
6DBC
330
1E
100
AcDbEntity
  8
製品
  6
Continuous
 62
     3
100
AcDbCircle
 10
332.4850586185402
 20
279.5062520462758
 30
0.0
 40
3.0
100
AcDbArc
 50
180.0
 51
270.0
  0
ARC
  5
6DBD
330
1E
100
AcDbEntity
  8
製品
  6
Continuous
 62
     3
100
AcDbCircle
 10
332.4850586185402
 20
279.5062520462758
 30
0.0
 40
2.5
100
AcDbArc
 50
180.0
 51
270.0
  0
LINE
  5
6DC0
330
1E
100
AcDbEntity
  8
製品
  6
Continuous
 62
     3
100
AcDbLine
 10
335.6290586185404
 20
277.0692520462759
 30
0.0
 11
336.2810586185404
 21
277.3952520462755
 31
0.0
  0
LINE
  5
6DC1
330
1E
100
AcDbEntity
  8
製品
  6
Continuous
 62
     3
100
AcDbLine
 10
335.6290586185404
 20
276.5692520462759
 30
0.0
 11
336.2810586185404
 21
276.8952520462755
 31
0.0
  0
ARC
  5
6DC2
330
1E
100
AcDbEntity
  8
製品
  6
Continuous
 62
     3
100
AcDbCircle
 10
376.4850586185402
 20
279.5062520462758
 30
0.0
 40
3.0
100
AcDbArc
 50
270.0
 51
0.0
  0
ARC
  5
6DC3
330
1E
100
AcDbEntity
  8
製品
  6
Continuous
 62
     3
100
AcDbCircle
 10
376.4850586185402
 20
279.5062520462758
 30
0.0
 40
2.5
100
AcDbArc
 50
270.0
 51
0.0
  0
ARC
  5
6DC4
330
1E
100
AcDbEntity
  8
製品
  6
Continuous
 62
     3
100
AcDbCircle
 10
372.4210586185403
 20
276.3582520462756
 30
0.0
 40
0.6
100
AcDbArc
 50
63.47764199999557
 51
108.4651489999879
  0
ARC
  5
6DC5
330
1E
100
AcDbEntity
  8
製品
  6
Continuous
 62
     3
100
AcDbCircle
 10
372.4210586185403
 20
276.8582520462757
 30
0.0
 40
0.6
100
AcDbArc
 50
63.47764199999557
 51
108.4349520000066
  0
ARC
  5
6DC6
330
1E
100
AcDbEntity
  8
製品
  6
Continuous
 62
     3
100
AcDbCircle
 10
370.9670586185406
 20
277.1382520462759
 30
0.0
 40
0.6
100
AcDbArc
 50
251.5348510000121
 51
288.3745120000094
  0
LINE
  5
6DC7
330
1E
100
AcDbEntity
  8
製品
  6
Continuous
 62
     3
100
AcDbLine
 10
373.3410586185404
 20
277.0692520462759
 30
0.0
 11
372.6890586185403
 21
277.3952520462755
 31
0.0
  0
LINE
  5
6DC8
330
1E
100
AcDbEntity
  8
製品
  6
Continuous
 62
     3
100
AcDbLine
 10
372.2310586185403
 20
276.9272520462756
 30
0.0
 11
371.1560586185405
 21
276.5692520462759
 31
0.0
  0
LINE
  5
6DC9
330
1E
100
AcDbEntity
  8
製品
  6
Continuous
 62
     3
100
AcDbLine
 10
373.3410586185404
 20
276.5692520462759
 30
0.0
 11
372.6890586185403
 21
276.8952520462755
 31
0.0
  0
ARC
  5
6DCA
330
1E
100
AcDbEntity
  8
製品
  6
Continuous
 62
     3
100
AcDbCircle
 10
370.9670586185406
 20
277.6392520462756
 30
0.0
 40
0.6
100
AcDbArc
 50
251.5650479999934
 51
288.4349370000037
  0
LINE
  5
6DCB
330
1E
100
AcDbEntity
  8
製品
  6
Continuous
 62
     3
100
AcDbLine
 10
372.2310586185403
 20
277.4282520462758
 30
0.0
 11
371.1570586185402
 21
277.0692520462759
 31
0.0
  0
ARC
  5
6DCC
330
1E
100
AcDbEntity
  8
製品
  6
Continuous
 62
     3
100
AcDbCircle
 10
373.6090586185404
 20
277.6062520462757
 30
0.0
 40
0.6
100
AcDbArc
 50
243.477646000009
 51
270.0
  0
ARC
  5
6DCD
330
1E
100
AcDbEntity
  8
製品
  6
Continuous
 62
     3
100
AcDbCircle
 10
373.6090586185404
 20
277.1062520462757
 30
0.0
 40
0.6
100
AcDbArc
 50
243.477646000009
 51
270.0
  0
ARC
  5
6DCE
330
1E
100
AcDbEntity
  8
製品
  6
Continuous
 62
     3
100
AcDbCircle
 10
366.4670586185406
 20
276.8742520462757
 30
0.0
 40
0.6
100
AcDbArc
 50
71.53485100001211
 51
108.4651489999879
  0
ARC
  5
6DCF
330
1E
100
AcDbEntity
  8
製品
  6
Continuous
 62
     3
100
AcDbCircle
 10
366.4670586185406
 20
276.3742520462757
 30
0.0
 40
0.6
100
AcDbArc
 50
71.53485100001211
 51
108.4651489999879
  0
LINE
  5
6DD0
330
1E
100
AcDbEntity
  8
製品
  6
Continuous
 62
     3
100
AcDbLine
 10
369.2770586185405
 20
276.9432520462757
 30
0.0
 11
368.1570586185402
 21
276.5692520462759
 31
0.0
  0
LINE
  5
6DD1
330
1E
100
AcDbEntity
  8
製品
  6
Continuous
 62
     3
100
AcDbLine
 10
369.2770586185405
 20
277.4432520462757
 30
0.0
 11
368.1570586185402
 21
277.0692520462759
 31
0.0
  0
LINE
  5
6DD2
330
1E
100
AcDbEntity
  8
製品
  6
Continuous
 62
     3
100
AcDbLine
 10
367.7770586185405
 20
277.0692520462759
 30
0.0
 11
366.6570586185402
 21
277.4432520462757
 31
0.0
  0
LINE
  5
6DD3
330
1E
100
AcDbEntity
  8
製品
  6
Continuous
 62
     3
100
AcDbLine
 10
367.7770586185405
 20
276.5692520462759
 30
0.0
 11
366.6570586185402
 21
276.9432520462757
 31
0.0
  0
ARC
  5
6DD4
330
1E
100
AcDbEntity
  8
製品
  6
Continuous
 62
     3
100
AcDbCircle
 10
369.4670586185406
 20
276.8742520462757
 30
0.0
 40
0.6
100
AcDbArc
 50
71.53485100001211
 51
108.4651489999879
  0
ARC
  5
6DD5
330
1E
100
AcDbEntity
  8
製品
  6
Continuous
 62
     3
100
AcDbCircle
 10
369.4670586185406
 20
276.3742520462757
 30
0.0
 40
0.6
100
AcDbArc
 50
71.53485100001211
 51
108.4651489999879
  0
ARC
  5
6DD6
330
1E
100
AcDbEntity
  8
製品
  6
Continuous
 62
     3
100
AcDbCircle
 10
367.9670586185406
 20
277.1382520462759
 30
0.0
 40
0.6
100
AcDbArc
 50
251.5348510000121
 51
288.4651489999879
  0
ARC
  5
6DD7
330
1E
100
AcDbEntity
  8
製品
  6
Continuous
 62
     3
100
AcDbCircle
 10
367.9670586185406
 20
277.6382520462759
 30
0.0
 40
0.6
100
AcDbArc
 50
251.5348510000121
 51
288.4651489999879
  0
LINE
  5
6DD8
330
1E
100
AcDbEntity
  8
製品
  6
Continuous
 62
     3
100
AcDbLine
 10
370.7770586185406
 20
277.0692520462759
 30
0.0
 11
369.6570586185402
 21
277.4432520462757
 31
0.0
  0
LINE
  5
6DD9
330
1E
100
AcDbEntity
  8
製品
  6
Continuous
 62
     3
100
AcDbLine
 10
370.7770586185406
 20
276.5692520462759
 30
0.0
 11
369.6570586185402
 21
276.9432520462757
 31
0.0
  0
LINE
  5
6DDA
330
1E
100
AcDbEntity
  8
製品
  6
Continuous
 62
     3
100
AcDbLine
 10
376.4850586185402
 20
277.0062520462758
 30
0.0
 11
373.6090586185404
 21
277.0062520462758
 31
0.0
  0
LINE
  5
6DDB
330
1E
100
AcDbEntity
  8
製品
  6
Continuous
 62
     3
100
AcDbLine
 10
376.4850586185402
 20
276.5062520462758
 30
0.0
 11
373.5450586185406
 21
276.5062520462758
 31
0.0
  0
ARC
  5
6DDE
330
1E
100
AcDbEntity
  8
製品
  6
Continuous
 62
     3
100
AcDbCircle
 10
364.9670586185406
 20
277.6382520462759
 30
0.0
 40
0.6
100
AcDbArc
 50
251.5348510000121
 51
288.4651489999879
  0
ARC
  5
6DDF
330
1E
100
AcDbEntity
  8
製品
  6
Continuous
 62
     3
100
AcDbCircle
 10
364.9670586185406
 20
277.1382520462759
 30
0.0
 40
0.6
100
AcDbArc
 50
251.5348510000121
 51
288.4651489999879
  0
ARC
  5
6DE0
330
1E
100
AcDbEntity
  8
製品
  6
Continuous
 62
     3
100
AcDbCircle
 10
363.4670586185406
 20
276.8742520462757
 30
0.0
 40
0.6
100
AcDbArc
 50
71.53485100001211
 51
108.4651489999879
  0
ARC
  5
6DE1
330
1E
100
AcDbEntity
  8
製品
  6
Continuous
 62
     3
100
AcDbCircle
 10
363.4670586185406
 20
276.3742520462757
 30
0.0
 40
0.6
100
AcDbArc
 50
71.53485100001211
 51
108.4651489999879
  0
LINE
  5
6DE2
330
1E
100
AcDbEntity
  8
製品
  6
Continuous
 62
     3
100
AcDbLine
 10
364.7770586185405
 20
277.0692520462759
 30
0.0
 11
363.6570586185402
 21
277.4432520462757
 31
0.0
  0
LINE
  5
6DE3
330
1E
100
AcDbEntity
  8
製品
  6
Continuous
 62
     3
100
AcDbLine
 10
364.7770586185405
 20
276.5692520462759
 30
0.0
 11
363.6570586185402
 21
276.9432520462757
 31
0.0
  0
ARC
  5
6DE4
330
1E
100
AcDbEntity
  8
製品
  6
Continuous
 62
     3
100
AcDbCircle
 10
361.9670586185406
 20
277.1382520462759
 30
0.0
 40
0.6
100
AcDbArc
 50
251.5348510000121
 51
288.4651489999879
  0
ARC
  5
6DE5
330
1E
100
AcDbEntity
  8
製品
  6
Continuous
 62
     3
100
AcDbCircle
 10
361.9670586185406
 20
277.6382520462759
 30
0.0
 40
0.6
100
AcDbArc
 50
251.5348510000121
 51
288.4651489999879
  0
ARC
  5
6DE6
330
1E
100
AcDbEntity
  8
製品
  6
Continuous
 62
     3
100
AcDbCircle
 10
360.5130586185404
 20
276.8582520462757
 30
0.0
 40
0.6
100
AcDbArc
 50
71.53485100001211
 51
116.5223539999906
  0
ARC
  5
6DE7
330
1E
100
AcDbEntity
  8
製品
  6
Continuous
 62
     3
100
AcDbCircle
 10
360.5130586185404
 20
276.3582520462756
 30
0.0
 40
0.6
100
AcDbArc
 50
71.53485100001211
 51
116.5223539999906
  0
LINE
  5
6DE8
330
1E
100
AcDbEntity
  8
製品
  6
Continuous
 62
     3
100
AcDbLine
 10
361.7770586185405
 20
277.0692520462759
 30
0.0
 11
360.7030586185405
 21
277.4272520462756
 31
0.0
  0
LINE
  5
6DE9
330
1E
100
AcDbEntity
  8
製品
  6
Continuous
 62
     3
100
AcDbLine
 10
361.7770586185405
 20
276.5692520462759
 30
0.0
 11
360.7030586185405
 21
276.9272520462756
 31
0.0
  0
LINE
  5
6DEA
330
1E
100
AcDbEntity
  8
製品
  6
Continuous
 62
     3
100
AcDbLine
 10
360.2450586185404
 20
277.3952520462755
 30
0.0
 11
359.5930586185403
 21
277.0692520462759
 31
0.0
  0
ARC
  5
6DEB
330
1E
100
AcDbEntity
  8
製品
  6
Continuous
 62
     3
100
AcDbCircle
 10
359.3250586185403
 20
277.6062520462757
 30
0.0
 40
0.6
100
AcDbArc
 50
270.0
 51
296.5223689999826
  0
ARC
  5
6DEC
330
1E
100
AcDbEntity
  8
製品
  6
Continuous
 62
     3
100
AcDbCircle
 10
359.3250586185403
 20
277.1062520462757
 30
0.0
 40
0.6
100
AcDbArc
 50
270.0
 51
296.5223689999826
  0
LINE
  5
6DED
330
1E
100
AcDbEntity
  8
製品
  6
Continuous
 62
     3
100
AcDbLine
 10
360.2450586185404
 20
276.8952520462755
 30
0.0
 11
359.5930586185403
 21
276.5692520462759
 31
0.0
  0
LINE
  5
6DEE
330
1E
100
AcDbEntity
  8
製品
  6
Continuous
 62
     3
100
AcDbLine
 10
363.2770586185405
 20
276.9432520462757
 30
0.0
 11
362.1570586185402
 21
276.5692520462759
 31
0.0
  0
LINE
  5
6DEF
330
1E
100
AcDbEntity
  8
製品
  6
Continuous
 62
     3
100
AcDbLine
 10
363.2770586185405
 20
277.4432520462757
 30
0.0
 11
362.1570586185402
 21
277.0692520462759
 31
0.0
  0
ARC
  5
6DF0
330
1E
100
AcDbEntity
  8
製品
  6
Continuous
 62
     3
100
AcDbCircle
 10
355.6270586185405
 20
277.6062520462757
 30
0.0
 40
0.6
100
AcDbArc
 50
243.477646000009
 51
270.0
  0
ARC
  5
6DF1
330
1E
100
AcDbEntity
  8
製品
  6
Continuous
 62
     3
100
AcDbCircle
 10
355.6270586185405
 20
277.1062520462757
 30
0.0
 40
0.6
100
AcDbArc
 50
243.477646000009
 51
270.0
  0
LINE
  5
6DF2
330
1E
100
AcDbEntity
  8
製品
  6
Continuous
 62
     3
100
AcDbLine
 10
353.6110586185404
 20
276.5692520462759
 30
0.0
 11
354.2170586185406
 21
276.8722520462758
 31
0.0
  0
ARC
  5
6DF3
330
1E
100
AcDbEntity
  8
製品
  6
Continuous
 62
     3
100
AcDbCircle
 10
354.4850586185402
 20
276.8352520462755
 30
0.0
 40
0.6
100
AcDbArc
 50
63.47764199999557
 51
116.5223539999906
  0
ARC
  5
6DF4
330
1E
100
AcDbEntity
  8
製品
  6
Continuous
 62
     3
100
AcDbCircle
 10
354.4850586185402
 20
276.3352520462755
 30
0.0
 40
0.6
100
AcDbArc
 50
63.47764199999557
 51
116.5223539999906
  0
ARC
  5
6DF5
330
1E
100
AcDbEntity
  8
製品
  6
Continuous
 62
     3
100
AcDbCircle
 10
353.3430586185403
 20
277.1062520462757
 30
0.0
 40
0.6
100
AcDbArc
 50
270.0
 51
296.5223689999826
  0
LINE
  5
6DF6
330
1E
100
AcDbEntity
  8
製品
  6
Continuous
 62
     3
100
AcDbLine
 10
353.6110586185404
 20
277.0692520462759
 30
0.0
 11
354.2170586185406
 21
277.3722520462758
 31
0.0
  0
ARC
  5
6DF7
330
1E
100
AcDbEntity
  8
製品
  6
Continuous
 62
     3
100
AcDbCircle
 10
353.3430586185403
 20
277.6062520462757
 30
0.0
 40
0.6
100
AcDbArc
 50
270.0
 51
296.5223689999826
  0
LINE
  5
6DF8
330
1E
100
AcDbEntity
  8
製品
  6
Continuous
 62
     3
100
AcDbLine
 10
355.3590586185404
 20
277.0692520462759
 30
0.0
 11
354.7530586185402
 21
277.3722520462758
 31
0.0
  0
LINE
  5
6DF9
330
1E
100
AcDbEntity
  8
製品
  6
Continuous
 62
     3
100
AcDbLine
 10
355.3590586185404
 20
276.5692520462759
 30
0.0
 11
354.7530586185402
 21
276.8722520462758
 31
0.0
  0
LINE
  5
6DFA
330
1E
100
AcDbEntity
  8
製品
  6
Continuous
 62
     3
100
AcDbLine
 10
359.3250586185403
 20
277.0062520462758
 30
0.0
 11
355.6270586185405
 21
277.0062520462758
 31
0.0
  0
LINE
  5
6DFB
330
1E
100
AcDbEntity
  8
製品
  6
Continuous
 62
     3
100
AcDbLine
 10
359.3250586185403
 20
276.5062520462758
 30
0.0
 11
355.6270586185405
 21
276.5062520462758
 31
0.0
  0
LINE
  5
6DFD
330
1E
100
AcDbEntity
  8
製品
  6
Continuous
 62
     3
100
AcDbLine
 10
366.2770586185406
 20
277.4432520462757
 30
0.0
 11
365.1570586185402
 21
277.0692520462759
 31
0.0
  0
LINE
  5
6DFE
330
1E
100
AcDbEntity
  8
製品
  6
Continuous
 62
     3
100
AcDbLine
 10
366.2770586185406
 20
276.9432520462757
 30
0.0
 11
365.1570586185402
 21
276.5692520462759
 31
0.0
  0
TEXT
  5
6DFF
330
1E
100
AcDbEntity
  8
図面枠
  6
Continuous
 62
     3
100
AcDbText
 10
336.8249266185402
 20
343.2581820462757
 30
0.0
 40
5.0
  1
ダブルクリップ１９
 41
0.8
  7
ACAD
100
AcDbText
  0
ARC
  5
6E00
330
1E
100
AcDbEntity
  8
製品
  6
Continuous
 62
     3
100
AcDbCircle
 10
349.9850586185402
 20
307.5062520462758
 30
0.0
 40
3.0
100
AcDbArc
 50
90.0
 51
180.0
  0
LINE
  5
6E01
330
1E
100
AcDbEntity
  8
製品
  6
Continuous
 62
     3
100
AcDbLine
 10
370.4850586185401
 20
328.5062520462758
 30
0.0
 11
338.4850586185402
 21
328.5062520462758
 31
0.0
  0
LINE
  5
6E02
330
1E
100
AcDbEntity
  8
製品
  6
Continuous
 62
     4
100
AcDbLine
 10
378.4850586185402
 20
334.1062520462757
 30
0.0
 11
330.4850586185402
 21
334.1062520462757
 31
0.0
  0
LINE
  5
6E03
330
1E
100
AcDbEntity
  8
製品
  6
Continuous
 62
     4
100
AcDbLine
 10
376.4850586185402
 20
286.1062520462757
 30
0.0
 11
332.4850586185402
 21
286.1062520462757
 31
0.0
  0
ARC
  5
6E04
330
1E
100
AcDbEntity
  8
製品
  6
Continuous
 62
     3
100
AcDbCircle
 10
338.4850586185402
 20
326.5062520462758
 30
0.0
 40
2.0
100
AcDbArc
 50
90.0
 51
180.0
  0
LINE
  5
6E05
330
1E
100
AcDbEntity
  8
製品
  6
Continuous
 62
     3
100
AcDbLine
 10
336.4850586185402
 20
312.5062520462758
 30
0.0
 11
336.4850586185402
 21
326.5062520462758
 31
0.0
  0
LINE
  5
6E06
330
1E
100
AcDbEntity
  8
製品
  6
Continuous
 62
     3
100
AcDbLine
 10
338.9850586185402
 20
310.5062520462758
 30
0.0
 11
338.4850586185402
 21
310.5062520462758
 31
0.0
  0
ARC
  5
6E07
330
1E
100
AcDbEntity
  8
製品
  6
Continuous
 62
     3
100
AcDbCircle
 10
338.9850586185402
 20
307.5062520462758
 30
0.0
 40
3.0
100
AcDbArc
 50
0.0
 51
90.0
  0
LINE
  5
6E08
330
1E
100
AcDbEntity
  8
製品
  6
Continuous
 62
     3
100
AcDbLine
 10
341.9850586185402
 20
291.4062520462754
 30
0.0
 11
341.9850586185402
 21
307.5062520462758
 31
0.0
  0
LINE
  5
6E09
330
1E
100
AcDbEntity
  8
製品
  6
Continuous
 62
     3
100
AcDbLine
 10
346.9850586185402
 20
291.4062520462754
 30
0.0
 11
346.9850586185402
 21
307.5062520462758
 31
0.0
  0
ARC
  5
6E0A
330
1E
100
AcDbEntity
  8
製品
  6
Continuous
 62
     3
100
AcDbCircle
 10
338.4850586185402
 20
312.5062520462758
 30
0.0
 40
2.0
100
AcDbArc
 50
180.0
 51
270.0
  0
ARC
  5
6E0B
330
1E
100
AcDbEntity
  8
製品
  6
Continuous
 62
     3
100
AcDbCircle
 10
344.4850586185402
 20
291.4062520462754
 30
0.0
 40
2.5
100
AcDbArc
 50
180.0
 51
0.0
  0
ARC
  5
6E0C
330
1E
100
AcDbEntity
  8
製品
  6
Continuous
 62
     4
100
AcDbCircle
 10
332.4850586185402
 20
310.5062520462758
 30
0.0
 40
2.0
100
AcDbArc
 50
180.0
 51
258.2626990000012
  0
ARC
  5
6E0D
330
1E
100
AcDbEntity
  8
製品
  6
Continuous
 62
     3
100
AcDbCircle
 10
331.9850586185402
 20
294.0062520462758
 30
0.0
 40
1.0
100
AcDbArc
 50
0.0
 51
90.0
  0
LINE
  5
6E0E
330
1E
100
AcDbEntity
  8
製品
  6
Continuous
 62
     3
100
AcDbLine
 10
332.9850586185401
 20
294.0062520462758
 30
0.0
 11
332.9850586185401
 21
292.5062520462758
 31
0.0
  0
LINE
  5
6E0F
330
1E
100
AcDbEntity
  8
製品
  6
Continuous
 62
     3
100
AcDbLine
 10
332.9850586185401
 20
292.5062520462758
 30
0.0
 11
333.4850586185402
 21
292.5062520462758
 31
0.0
  0
LINE
  5
6E10
330
1E
100
AcDbEntity
  8
製品
  6
Continuous
 62
     3
100
AcDbLine
 10
333.4850586185402
 20
292.5062520462758
 30
0.0
 11
333.4850586185402
 21
294.0062520462758
 31
0.0
  0
ARC
  5
6E11
330
1E
100
AcDbEntity
  8
製品
  6
Continuous
 62
     3
100
AcDbCircle
 10
331.9850586185402
 20
294.0062520462758
 30
0.0
 40
1.5
100
AcDbArc
 50
0.0
 51
90.0
  0
LINE
  5
6E12
330
1E
100
AcDbEntity
  8
製品
  6
Continuous
 62
     4
100
AcDbLine
 10
332.6033276185402
 20
292.4149060462756
 30
0.0
 11
332.2136796185404
 21
294.3631450462754
 31
0.0
  0
ARC
  5
6E13
330
1E
100
AcDbEntity
  8
製品
  6
Continuous
 62
     4
100
AcDbCircle
 10
333.9850586185402
 20
292.9987520462756
 30
0.0
 40
1.500018999999999
100
AcDbArc
 50
202.7960729999847
 51
0.286477000004934
  0
ARC
  5
6E14
330
1E
100
AcDbEntity
  8
製品
  6
Continuous
 62
     3
100
AcDbCircle
 10
330.9850586185401
 20
294.0062520462758
 30
0.0
 40
1.0
100
AcDbArc
 50
90.0
 51
180.0
  0
ARC
  5
6E15
330
1E
100
AcDbEntity
  8
製品
  6
Continuous
 62
     3
100
AcDbCircle
 10
330.9850586185401
 20
294.0062520462758
 30
0.0
 40
1.5
100
AcDbArc
 50
90.0
 51
180.0
  0
LINE
  5
6E16
330
1E
100
AcDbEntity
  8
製品
  6
Continuous
 62
     3
100
AcDbLine
 10
330.9850586185401
 20
295.0062520462758
 30
0.0
 11
331.9850586185402
 21
295.0062520462758
 31
0.0
  0
ARC
  5
6E17
330
1E
100
AcDbEntity
  8
製品
  6
Continuous
 62
     4
100
AcDbCircle
 10
331.4292156185405
 20
294.2062520462756
 30
0.0
 40
0.8
100
AcDbArc
 50
11.30993199999648
 51
90.0
  0
LINE
  5
6E18
330
1E
100
AcDbEntity
  8
製品
  6
Continuous
 62
     4
100
AcDbLine
 10
335.4850586185402
 20
303.8081180462756
 30
0.0
 11
335.4850586185402
 21
293.0062520462758
 31
0.0
  0
ARC
  5
6E19
330
1E
100
AcDbEntity
  8
製品
  6
Continuous
 62
     4
100
AcDbCircle
 10
332.4850586185402
 20
288.1062520462757
 30
0.0
 40
2.0
100
AcDbArc
 50
180.0
 51
270.0
  0
LINE
  5
6E1A
330
1E
100
AcDbEntity
  8
製品
  6
Continuous
 62
     4
100
AcDbLine
 10
330.4850586185402
 20
294.8722780462755
 30
0.0
 11
330.4850586185402
 21
288.1062520462757
 31
0.0
  0
LINE
  5
6E1B
330
1E
100
AcDbEntity
  8
製品
  6
Continuous
 62
     4
100
AcDbLine
 10
330.4850586185402
 20
334.1062520462757
 30
0.0
 11
330.4850586185402
 21
310.5062520462758
 31
0.0
  0
ARC
  5
6E1C
330
1E
100
AcDbEntity
  8
製品
  6
Continuous
 62
     4
100
AcDbCircle
 10
330.4850586185402
 20
303.8081180462756
 30
0.0
 40
5.0
100
AcDbArc
 50
0.0
 51
71.73258900000312
  0
ARC
  5
6E1D
330
1E
100
AcDbEntity
  8
製品
  6
Continuous
 62
     3
100
AcDbCircle
 10
370.4850586185401
 20
326.5062520462758
 30
0.0
 40
2.0
100
AcDbArc
 50
0.0
 51
90.0
  0
LINE
  5
6E1E
330
1E
100
AcDbEntity
  8
製品
  6
Continuous
 62
     3
100
AcDbLine
 10
372.4850586185401
 20
326.5062520462758
 30
0.0
 11
372.4850586185401
 21
312.5062520462758
 31
0.0
  0
ARC
  5
6E1F
330
1E
100
AcDbEntity
  8
製品
  6
Continuous
 62
     4
100
AcDbCircle
 10
376.4850586185402
 20
310.5062520462758
 30
0.0
 40
2.0
100
AcDbArc
 50
281.7373009999988
 51
0.0
  0
ARC
  5
6E20
330
1E
100
AcDbEntity
  8
製品
  6
Continuous
 62
     3
100
AcDbCircle
 10
369.9850586185402
 20
307.5062520462758
 30
0.0
 40
3.0
100
AcDbArc
 50
90.0
 51
180.0
  0
LINE
  5
6E21
330
1E
100
AcDbEntity
  8
製品
  6
Continuous
 62
     3
100
AcDbLine
 10
369.9850586185402
 20
310.5062520462758
 30
0.0
 11
370.4850586185401
 21
310.5062520462758
 31
0.0
  0
ARC
  5
6E22
330
1E
100
AcDbEntity
  8
製品
  6
Continuous
 62
     4
100
AcDbCircle
 10
378.4850586185402
 20
303.8081180462756
 30
0.0
 40
5.0
100
AcDbArc
 50
108.2674109999969
 51
180.0
  0
ARC
  5
6E23
330
1E
100
AcDbEntity
  8
製品
  6
Continuous
 62
     3
100
AcDbCircle
 10
377.9850586185402
 20
294.0062520462758
 30
0.0
 40
1.0
100
AcDbArc
 50
0.0
 51
90.0
  0
ARC
  5
6E24
330
1E
100
AcDbEntity
  8
製品
  6
Continuous
 62
     3
100
AcDbCircle
 10
377.9850586185402
 20
294.0062520462758
 30
0.0
 40
1.5
100
AcDbArc
 50
0.0
 51
90.0
  0
ARC
  5
6E25
330
1E
100
AcDbEntity
  8
製品
  6
Continuous
 62
     3
100
AcDbCircle
 10
376.9850586185402
 20
294.0062520462758
 30
0.0
 40
1.0
100
AcDbArc
 50
90.0
 51
180.0
  0
LINE
  5
6E26
330
1E
100
AcDbEntity
  8
製品
  6
Continuous
 62
     3
100
AcDbLine
 10
375.9850586185402
 20
294.0062520462758
 30
0.0
 11
375.9850586185402
 21
292.5062520462758
 31
0.0
  0
LINE
  5
6E27
330
1E
100
AcDbEntity
  8
製品
  6
Continuous
 62
     3
100
AcDbLine
 10
375.9850586185402
 20
292.5062520462758
 30
0.0
 11
375.4850586185402
 21
292.5062520462758
 31
0.0
  0
LINE
  5
6E28
330
1E
100
AcDbEntity
  8
製品
  6
Continuous
 62
     3
100
AcDbLine
 10
375.4850586185402
 20
292.5062520462758
 30
0.0
 11
375.4850586185402
 21
294.0062520462758
 31
0.0
  0
ARC
  5
6E29
330
1E
100
AcDbEntity
  8
製品
  6
Continuous
 62
     3
100
AcDbCircle
 10
376.9850586185402
 20
294.0062520462758
 30
0.0
 40
1.5
100
AcDbArc
 50
90.0
 51
180.0
  0
ARC
  5
6E2A
330
1E
100
AcDbEntity
  8
製品
  6
Continuous
 62
     4
100
AcDbCircle
 10
377.5409016185403
 20
294.2062520462756
 30
0.0
 40
0.8
100
AcDbArc
 50
90.0
 51
168.6900680000035
  0
LINE
  5
6E2B
330
1E
100
AcDbEntity
  8
製品
  6
Continuous
 62
     4
100
AcDbLine
 10
376.3667896185406
 20
292.4149060462756
 30
0.0
 11
376.7564376185404
 21
294.3631450462754
 31
0.0
  0
LINE
  5
6E2C
330
1E
100
AcDbEntity
  8
製品
  6
Continuous
 62
     3
100
AcDbLine
 10
377.9850586185402
 20
295.0062520462758
 30
0.0
 11
376.9850586185402
 21
295.0062520462758
 31
0.0
  0
ARC
  5
6E2D
330
1E
100
AcDbEntity
  8
製品
  6
Continuous
 62
     4
100
AcDbCircle
 10
374.9850586185402
 20
292.9987520462756
 30
0.0
 40
1.500018999999999
100
AcDbArc
 50
179.713522999995
 51
337.2039270000152
  0
LINE
  5
6E2E
330
1E
100
AcDbEntity
  8
製品
  6
Continuous
 62
     3
100
AcDbLine
 10
366.9850586185402
 20
291.4062520462754
 30
0.0
 11
366.9850586185402
 21
307.5062520462758
 31
0.0
  0
LINE
  5
6E2F
330
1E
100
AcDbEntity
  8
製品
  6
Continuous
 62
     4
100
AcDbLine
 10
373.4850586185402
 20
303.8081180462756
 30
0.0
 11
373.4850586185402
 21
293.0062520462758
 31
0.0
  0
ARC
  5
6E30
330
1E
100
AcDbEntity
  8
製品
  6
Continuous
 62
     3
100
AcDbCircle
 10
370.4850586185401
 20
312.5062520462758
 30
0.0
 40
2.0
100
AcDbArc
 50
270.0
 51
0.0
  0
ARC
  5
6E31
330
1E
100
AcDbEntity
  8
製品
  6
Continuous
 62
     3
100
AcDbCircle
 10
358.9850586185402
 20
307.5062520462758
 30
0.0
 40
3.0
100
AcDbArc
 50
0.0
 51
90.0
  0
LINE
  5
6E32
330
1E
100
AcDbEntity
  8
製品
  6
Continuous
 62
     3
100
AcDbLine
 10
361.9850586185402
 20
291.4062520462754
 30
0.0
 11
361.9850586185402
 21
307.5062520462758
 31
0.0
  0
LINE
  5
6E33
330
1E
100
AcDbEntity
  8
製品
  6
Continuous
 62
     3
100
AcDbLine
 10
349.9850586185402
 20
310.5062520462758
 30
0.0
 11
358.9850586185402
 21
310.5062520462758
 31
0.0
  0
ARC
  5
6E34
330
1E
100
AcDbEntity
  8
製品
  6
Continuous
 62
     4
100
AcDbCircle
 10
376.4850586185402
 20
288.1062520462757
 30
0.0
 40
2.0
100
AcDbArc
 50
270.0
 51
0.0
  0
LINE
  5
6E35
330
1E
100
AcDbEntity
  8
製品
  6
Continuous
 62
     4
100
AcDbLine
 10
378.4850586185402
 20
288.1062520462757
 30
0.0
 11
378.4850586185402
 21
294.9744980462757
 31
0.0
  0
ARC
  5
6E36
330
1E
100
AcDbEntity
  8
製品
  6
Continuous
 62
     3
100
AcDbCircle
 10
364.4850586185402
 20
291.4062520462754
 30
0.0
 40
2.5
100
AcDbArc
 50
180.0
 51
0.0
  0
LINE
  5
6E37
330
1E
100
AcDbEntity
  8
製品
  6
Continuous
 62
     4
100
AcDbLine
 10
378.4850586185402
 20
334.1062520462757
 30
0.0
 11
378.4850586185402
 21
310.5062520462758
 31
0.0
  0
ARC
  5
6E38
330
1E
100
AcDbEntity
  8
製品
  6
Continuous
 62
     4
100
AcDbCircle
 10
630.8383626185404
 20
209.2011190462755
 30
0.0
 40
3.5
100
AcDbArc
 50
120.0007250000034
 51
209.9925380000018
  0
ARC
  5
6E39
330
1E
100
AcDbEntity
  8
製品
  6
Continuous
 62
     4
100
AcDbCircle
 10
631.3773626185401
 20
207.7801190462757
 30
0.0
 40
5.0
100
AcDbArc
 50
120.0007250000034
 51
180.0
  0
LINE
  5
6E3A
330
1E
100
AcDbEntity
  8
製品
  6
Continuous
 62
     4
100
AcDbLine
 10
611.6083626185403
 20
213.4931190462759
 30
0.0
 11
612.5503626185404
 21
210.3531190462756
 31
0.0
  0
LINE
  5
6E3B
330
1E
100
AcDbEntity
  8
製品
  6
Continuous
 62
     4
100
AcDbLine
 10
613.3973626185405
 20
214.4911190462754
 30
0.0
 11
614.4663626185405
 21
210.9281190462758
 31
0.0
  0
ARC
  5
6E3C
330
1E
100
AcDbEntity
  8
製品
  6
Continuous
 62
     4
100
AcDbCircle
 10
631.3773626185401
 20
207.7801190462757
 30
0.0
 40
7.0
100
AcDbArc
 50
120.0007250000034
 51
180.0
  0
LINE
  5
6E3D
330
1E
100
AcDbEntity
  8
製品
  6
Continuous
 62
     4
100
AcDbLine
 10
524.5734706185402
 20
265.4911190462755
 30
0.0
 11
524.5734706185402
 21
167.4911190462754
 31
0.0
  0
LINE
  5
6E3E
330
1E
100
AcDbEntity
  8
製品
  6
Continuous
 62
     4
100
AcDbLine
 10
501.5734706185402
 20
167.4911190462754
 30
0.0
 11
501.5734706185402
 21
265.4911190462755
 31
0.0
  0
LINE
  5
6E3F
330
1E
100
AcDbEntity
  8
製品
  6
PLINE3
 62
     3
100
AcDbLine
 10
513.0734706185402
 20
351.6822710462758
 30
0.0
 11
513.0734706185402
 21
157.4911190462754
 31
0.0
  0
LINE
  5
6E40
330
1E
100
AcDbEntity
  8
製品
  6
Continuous
 62
     3
100
AcDbLine
 10
501.5734706185402
 20
209.4537580462758
 30
0.0
 11
524.5734706185402
 21
209.4537580462758
 31
0.0
  0
LINE
  5
6E41
330
1E
100
AcDbEntity
  8
製品
  6
Continuous
 62
     4
100
AcDbLine
 10
524.5734706185402
 20
167.4911190462754
 30
0.0
 11
501.5734706185402
 21
167.4911190462754
 31
0.0
  0
TEXT
  5
6E42
330
1E
100
AcDbEntity
  8
図面枠
  6
Continuous
 62
     3
100
AcDbText
 10
500.7762666185402
 20
139.7532360462756
 30
0.0
 40
5.0
  1
ハンガ１９
 41
0.8
  7
ACAD
100
AcDbText
  0
DIMENSION
  5
6E43
330
1E
100
AcDbEntity
  8
寸法
  6
Continuous
100
AcDbDimension
  2
*D4
 10
416.9176816185403
 20
150.5276110462752
 30
0.0
 11
413.6176816185402
 21
160.0093650462754
 31
0.0
 70
    32
 71
     5
 42
-1.0
  3
AutoCAD
100
AcDbAlignedDimension
 13
416.9176816185403
 23
169.4911190462754
 33
0.0
 14
416.9176816185403
 24
150.5276110462752
 34
0.0
 50
90.0
100
AcDbRotatedDimension
1001
ACAD
1000
DSTYLE
1002
{
1070
   147
1040
0.8
1070
   140
1040
10.0
1002
}
  0
DIMENSION
  5
6E44
330
1E
100
AcDbEntity
  8
寸法
  6
Continuous
100
AcDbDimension
  2
*D5
 10
416.9176816185403
 20
169.4911190462754
 30
0.0
 11
413.6176816185402
 21
188.4911190462755
 31
0.0
 70
    32
 71
     5
 42
-1.0
  3
AutoCAD
100
AcDbAlignedDimension
 13
416.9176816185403
 23
207.4911190462755
 33
0.0
 14
416.9176816185403
 24
169.4911190462754
 34
0.0
 50
90.0
100
AcDbRotatedDimension
1001
ACAD
1000
DSTYLE
1002
{
1070
   147
1040
0.8
1070
   140
1040
10.0
1002
}
  0
LINE
  5
6E45
330
1E
100
AcDbEntity
  8
製品
  6
Continuous
 62
     3
100
AcDbLine
 10
578.4917556185404
 20
169.4911190462754
 30
0.0
 11
647.9362006185405
 21
169.4911190462754
 31
0.0
  0
LINE
  5
6E46
330
1E
100
AcDbEntity
  8
製品
  6
Continuous
 62
     3
100
AcDbLine
 10
578.4917556185404
 20
150.5276110462756
 30
0.0
 11
647.4732376185405
 21
150.5276110462756
 31
0.0
  0
LINE
  5
6E47
330
1E
100
AcDbEntity
  8
製品
  6
Continuous
 62
     3
100
AcDbLine
 10
572.3154356185403
 20
207.4911190462755
 30
0.0
 11
524.5734706185402
 21
207.4911190462755
 31
0.0
  0
LINE
  5
6E48
330
1E
100
AcDbEntity
  8
製品
  6
Continuous
 62
     3
100
AcDbLine
 10
572.3154356185403
 20
169.4911190462754
 30
0.0
 11
524.5734706185402
 21
169.4911190462754
 31
0.0
  0
TEXT
  5
6E49
330
1E
100
AcDbEntity
  8
図面枠
  6
Continuous
 62
     3
100
AcDbText
 10
552.6281186185404
 20
186.5124930462758
 30
0.0
 40
5.0
  1
ＣＣ－１９
 41
0.8
  7
ACAD
100
AcDbText
  0
LINE
  5
6E4A
330
1E
100
AcDbEntity
  8
製品
  6
Continuous
 62
     3
100
AcDbLine
 10
615.4973626185404
 20
206.2911190462756
 30
0.0
 11
625.3973626185405
 21
206.2911190462756
 31
0.0
  0
LINE
  5
6E4B
330
1E
100
AcDbEntity
  8
製品
  6
Continuous
 62
     3
100
AcDbLine
 10
625.3973626185405
 20
207.4911190462755
 30
0.0
 11
615.8973626185406
 21
207.4911190462755
 31
0.0
  0
LINE
  5
6E4C
330
1E
100
AcDbEntity
  8
製品
  6
Continuous
 62
     4
100
AcDbLine
 10
615.3973626185405
 20
167.4911190462754
 30
0.0
 11
624.8973626185406
 21
167.4911190462754
 31
0.0
  0
LINE
  5
6E4D
330
1E
100
AcDbEntity
  8
製品
  6
Continuous
 62
     4
100
AcDbLine
 10
615.3973626185405
 20
169.4911190462754
 30
0.0
 11
624.8973626185406
 21
169.4911190462754
 31
0.0
  0
LINE
  5
6E4E
330
1E
100
AcDbEntity
  8
製品
  6
Continuous
 62
     3
100
AcDbLine
 10
625.3973626185405
 20
170.6911190462757
 30
0.0
 11
615.4973626185404
 21
170.6911190462757
 31
0.0
  0
ARC
  5
6E4F
330
1E
100
AcDbEntity
  8
製品
  6
Continuous
 62
     4
100
AcDbCircle
 10
609.6773626185402
 20
209.4911190462755
 30
0.0
 40
5.0
100
AcDbArc
 50
346.2202700000135
 51
16.70253800000512
  0
ARC
  5
6E50
330
1E
100
AcDbEntity
  8
製品
  6
Continuous
 62
     4
100
AcDbCircle
 10
609.6773626185402
 20
209.4911190462755
 30
0.0
 40
3.0
100
AcDbArc
 50
343.2989200000033
 51
16.70107499999898
  0
LINE
  5
6E51
330
1E
100
AcDbEntity
  8
製品
  6
Continuous
 62
     4
100
AcDbLine
 10
613.7534256185403
 20
206.2911190462756
 30
0.0
 11
614.5332426185404
 21
208.2993020462756
 31
0.0
  0
ARC
  5
6E52
330
1E
100
AcDbEntity
  8
製品
  6
Continuous
 62
     4
100
AcDbCircle
 10
616.3973626185406
 20
204.0521190462756
 30
0.0
 40
5.0
100
AcDbArc
 50
163.2974700000118
 51
180.0
  0
ARC
  5
6E53
330
1E
100
AcDbEntity
  8
製品
  6
Continuous
 62
     3
100
AcDbCircle
 10
615.4973626185404
 20
171.5911190462758
 30
0.0
 40
0.9
100
AcDbArc
 50
180.0
 51
270.0
  0
ARC
  5
6E54
330
1E
100
AcDbEntity
  8
製品
  6
Continuous
 62
     4
100
AcDbCircle
 10
615.3973626185405
 20
171.4911190462754
 30
0.0
 40
4.0
100
AcDbArc
 50
180.0
 51
270.0
  0
ARC
  5
6E55
330
1E
100
AcDbEntity
  8
製品
  6
Continuous
 62
     4
100
AcDbCircle
 10
615.3973626185405
 20
171.4911190462754
 30
0.0
 40
2.0
100
AcDbArc
 50
180.0
 51
270.0
  0
LINE
  5
6E56
330
1E
100
AcDbEntity
  8
製品
  6
Continuous
 62
     3
100
AcDbLine
 10
614.5973626185403
 20
205.3911190462756
 30
0.0
 11
614.5973626185403
 21
171.5911190462758
 31
0.0
  0
LINE
  5
6E57
330
1E
100
AcDbEntity
  8
製品
  6
Continuous
 62
     4
100
AcDbLine
 10
611.3973626185405
 20
204.0521190462756
 30
0.0
 11
611.3973626185405
 21
171.4911190462754
 31
0.0
  0
LINE
  5
6E58
330
1E
100
AcDbEntity
  8
製品
  6
Continuous
 62
     4
100
AcDbLine
 10
613.3973626185405
 20
204.9952340462756
 30
0.0
 11
613.3973626185405
 21
171.4911190462754
 31
0.0
  0
ARC
  5
6E59
330
1E
100
AcDbEntity
  8
製品
  6
Continuous
 62
     3
100
AcDbCircle
 10
615.4973626185404
 20
205.3911190462756
 30
0.0
 40
0.9
100
AcDbArc
 50
90.0
 51
180.0
  0
LINE
  5
6E5A
330
1E
100
AcDbEntity
  8
製品
  6
Continuous
 62
     4
100
AcDbLine
 10
611.6083626185403
 20
205.4891190462755
 30
0.0
 11
612.5503626185404
 21
208.6291190462759
 31
0.0
  0
ARC
  5
6E5B
330
1E
100
AcDbEntity
  8
製品
  6
Continuous
 62
     3
100
AcDbCircle
 10
615.8973626185406
 20
204.9911190462755
 30
0.0
 40
2.5
100
AcDbArc
 50
90.0
 51
181.9795800000113
  0
LINE
  5
6E5C
330
1E
100
AcDbEntity
  8
製品
  6
Continuous
 62
     4
100
AcDbLine
 10
625.3973626185405
 20
207.4911190462755
 30
0.0
 11
625.3973626185405
 21
206.2911190462756
 31
0.0
  0
LINE
  5
6E5D
330
1E
100
AcDbEntity
  8
製品
  6
Continuous
 62
     4
100
AcDbLine
 10
627.7833626185405
 20
207.4911190462755
 30
0.0
 11
627.8063626185402
 21
207.4511190462755
 31
0.0
  0
LINE
  5
6E5E
330
1E
100
AcDbEntity
  8
製品
  6
Continuous
 62
     4
100
AcDbLine
 10
626.3773626185401
 20
207.7801190462757
 30
0.0
 11
626.3773626185401
 21
207.4911190462755
 31
0.0
  0
LINE
  5
6E5F
330
1E
100
AcDbEntity
  8
製品
  6
Continuous
 62
     4
100
AcDbLine
 10
624.3773626185401
 20
207.7801190462757
 30
0.0
 11
624.3773626185401
 21
207.4911190462755
 31
0.0
  0
LINE
  5
6E60
330
1E
100
AcDbEntity
  8
製品
  6
Continuous
 62
     4
100
AcDbLine
 10
626.3773626185401
 20
207.4911190462755
 30
0.0
 11
624.3773626185401
 21
207.4911190462755
 31
0.0
  0
LINE
  5
6E61
330
1E
100
AcDbEntity
  8
製品
  6
Continuous
 62
     3
100
AcDbLine
 10
625.3973626185405
 20
169.5546270462756
 30
0.0
 11
625.3973626185405
 21
170.6911190462757
 31
0.0
  0
ARC
  5
6E62
330
1E
100
AcDbEntity
  8
製品
  6
Continuous
 62
     4
100
AcDbCircle
 10
624.8973626185406
 20
171.4911190462754
 30
0.0
 40
2.0
100
AcDbArc
 50
270.0
 51
0.0
  0
ARC
  5
6E63
330
1E
100
AcDbEntity
  8
製品
  6
Continuous
 62
     4
100
AcDbCircle
 10
624.8973626185406
 20
171.4911190462754
 30
0.0
 40
4.0
100
AcDbArc
 50
270.0
 51
0.0
  0
LINE
  5
6E64
330
1E
100
AcDbEntity
  8
製品
  6
Continuous
 62
     4
100
AcDbLine
 10
628.8973626185406
 20
171.4911190462754
 30
0.0
 11
632.0973626185404
 21
191.9911190462754
 31
0.0
  0
LINE
  5
6E65
330
1E
100
AcDbEntity
  8
製品
  6
Continuous
 62
     4
100
AcDbLine
 10
626.8973626185405
 20
171.4911190462754
 30
0.0
 11
630.0973626185403
 21
191.9911190462754
 31
0.0
  0
ARC
  5
6E66
330
1E
100
AcDbEntity
  8
製品
  6
Continuous
 62
     4
100
AcDbCircle
 10
602.0973626185403
 20
191.9911190462754
 30
0.0
 40
30.0
100
AcDbArc
 50
0.0
 51
31.10852599999879
  0
ARC
  5
6E67
330
1E
100
AcDbEntity
  8
製品
  6
Continuous
 62
     4
100
AcDbCircle
 10
602.0973626185403
 20
191.9911190462754
 30
0.0
 40
28.0
100
AcDbArc
 50
0.0
 51
33.6128809999994
  0
ARC
  5
6E68
330
1E
100
AcDbEntity
  8
製品
  6
Continuous
 62
     4
100
AcDbCircle
 10
515.4534216185405
 20
342.8055880462758
 30
0.0
 40
2.507081
100
AcDbArc
 50
198.3161259999956
 51
341.6838320000057
  0
ARC
  5
6E69
330
1E
100
AcDbEntity
  8
製品
  6
Continuous
 62
     4
100
AcDbCircle
 10
515.4534846185405
 20
341.2298850462754
 30
0.0
 40
2.507004999999999
100
AcDbArc
 50
18.31556499999055
 51
161.6843510000032
  0
ARC
  5
6E6A
330
1E
100
AcDbEntity
  8
製品
  6
Continuous
 62
     3
100
AcDbCircle
 10
513.0734706185402
 20
259.2411190462755
 30
0.0
 40
14.25
100
AcDbArc
 50
70.5287789999879
 51
109.4712210000121
  0
ARC
  5
6E6B
330
1E
100
AcDbEntity
  8
製品
  6
Continuous
 62
     3
100
AcDbCircle
 10
513.0734706185402
 20
269.7411190462755
 30
0.0
 40
14.25
100
AcDbArc
 50
250.5287789999879
 51
289.471221000012
  0
LINE
  5
6E6C
330
1E
100
AcDbEntity
  8
製品
  6
Continuous
 62
     4
100
AcDbLine
 10
501.5734706185402
 20
265.4911190462755
 30
0.0
 11
524.5734706185402
 21
265.4911190462755
 31
0.0
  0
LINE
  5
6E6D
330
1E
100
AcDbEntity
  8
製品
  6
Continuous
 62
     3
100
AcDbLine
 10
521.1618996185405
 20
255.4911190462755
 30
0.0
 11
504.9850426185401
 21
255.4911190462755
 31
0.0
  0
LINE
  5
6E6E
330
1E
100
AcDbEntity
  8
製品
  6
Continuous
 62
     4
100
AcDbLine
 10
501.5734706185402
 20
263.4911190462755
 30
0.0
 11
524.5734706185402
 21
263.4911190462755
 31
0.0
  0
LINE
  5
6E6F
330
1E
100
AcDbEntity
  8
製品
  6
Continuous
 62
     3
100
AcDbLine
 10
521.1618996185405
 20
273.4911190462755
 30
0.0
 11
504.9850426185401
 21
273.4911190462755
 31
0.0
  0
LINE
  5
6E70
330
1E
100
AcDbEntity
  8
製品
  6
Continuous
 62
     4
100
AcDbLine
 10
517.8234706185402
 20
235.4911190462754
 30
0.0
 11
508.3234706185402
 21
235.4911190462754
 31
0.0
  0
LINE
  5
6E71
330
1E
100
AcDbEntity
  8
製品
  6
Continuous
 62
     4
100
AcDbLine
 10
508.3234706185402
 20
342.0177550462755
 30
0.0
 11
508.3234706185402
 21
273.4911190462755
 31
0.0
  0
LINE
  5
6E72
330
1E
100
AcDbEntity
  8
製品
  6
Continuous
 62
     3
100
AcDbLine
 10
504.9850426185401
 20
273.4911190462755
 30
0.0
 11
503.5734706185402
 21
272.6761470462758
 31
0.0
  0
ARC
  5
6E73
330
1E
100
AcDbEntity
  8
製品
  6
Continuous
 62
     3
100
AcDbCircle
 10
506.0321056185402
 20
269.8624410462759
 30
0.0
 40
3.628676999999999
100
AcDbArc
 50
50.84205499999478
 51
90.0
  0
LINE
  5
6E74
330
1E
100
AcDbEntity
  8
製品
  6
Continuous
 62
     3
100
AcDbLine
 10
504.9850426185401
 20
255.4911190462755
 30
0.0
 11
503.5734706185402
 21
256.3060900462757
 31
0.0
  0
ARC
  5
6E75
330
1E
100
AcDbEntity
  8
製品
  6
Continuous
 62
     3
100
AcDbCircle
 10
506.0321056185402
 20
259.1197960462756
 30
0.0
 40
3.628676999999999
100
AcDbArc
 50
270.0
 51
309.1579450000052
  0
LINE
  5
6E76
330
1E
100
AcDbEntity
  8
製品
  6
Continuous
 62
     3
100
AcDbLine
 10
508.3234706185402
 20
256.3060900462757
 30
0.0
 11
508.3234706185402
 21
263.4911190462755
 31
0.0
  0
LINE
  5
6E77
330
1E
100
AcDbEntity
  8
製品
  6
Continuous
 62
     3
100
AcDbLine
 10
503.5734706185402
 20
256.3060900462757
 30
0.0
 11
503.5734706185402
 21
263.4911190462755
 31
0.0
  0
LINE
  5
6E78
330
1E
100
AcDbEntity
  8
製品
  6
Continuous
 62
     3
100
AcDbLine
 10
508.3234706185402
 20
272.6761470462758
 30
0.0
 11
508.3234706185402
 21
265.4911190462755
 31
0.0
  0
LINE
  5
6E79
330
1E
100
AcDbEntity
  8
製品
  6
Continuous
 62
     3
100
AcDbLine
 10
503.5734706185402
 20
272.6761470462758
 30
0.0
 11
503.5734706185402
 21
265.4911190462755
 31
0.0
  0
LINE
  5
6E7A
330
1E
100
AcDbEntity
  8
製品
  6
Continuous
 62
     4
100
AcDbLine
 10
508.3234706185402
 20
235.4911190462754
 30
0.0
 11
508.3234706185402
 21
255.4911190462755
 31
0.0
  0
ARC
  5
6E7B
330
1E
100
AcDbEntity
  8
製品
  6
Continuous
 62
     4
100
AcDbCircle
 10
510.6934856185402
 20
341.2298850462754
 30
0.0
 40
2.507004
100
AcDbArc
 50
18.31551700000279
 51
161.684440000002
  0
LINE
  5
6E7C
330
1E
100
AcDbEntity
  8
製品
  6
Continuous
 62
     4
100
AcDbLine
 10
517.8234706185402
 20
342.0177550462755
 30
0.0
 11
517.8234706185402
 21
273.4911190462755
 31
0.0
  0
LINE
  5
6E7D
330
1E
100
AcDbEntity
  8
製品
  6
Continuous
 62
     3
100
AcDbLine
 10
522.5734706185402
 20
272.6761470462758
 30
0.0
 11
521.1618996185405
 21
273.4911190462755
 31
0.0
  0
LINE
  5
6E7E
330
1E
100
AcDbEntity
  8
製品
  6
Continuous
 62
     3
100
AcDbLine
 10
522.5734706185402
 20
256.3060900462757
 30
0.0
 11
521.1618996185405
 21
255.4911190462755
 31
0.0
  0
LINE
  5
6E7F
330
1E
100
AcDbEntity
  8
製品
  6
Continuous
 62
     3
100
AcDbLine
 10
522.5734706185402
 20
256.3060900462757
 30
0.0
 11
522.5734706185402
 21
263.4911190462755
 31
0.0
  0
LINE
  5
6E80
330
1E
100
AcDbEntity
  8
製品
  6
Continuous
 62
     3
100
AcDbLine
 10
522.5734706185402
 20
272.6761470462758
 30
0.0
 11
522.5734706185402
 21
265.4911190462755
 31
0.0
  0
LINE
  5
6E81
330
1E
100
AcDbEntity
  8
製品
  6
Continuous
 62
     3
100
AcDbLine
 10
517.8234706185402
 20
263.4911190462755
 30
0.0
 11
517.8234706185402
 21
256.3060900462757
 31
0.0
  0
LINE
  5
6E82
330
1E
100
AcDbEntity
  8
製品
  6
Continuous
 62
     3
100
AcDbLine
 10
517.8234706185402
 20
265.4911190462755
 30
0.0
 11
517.8234706185402
 21
272.6761470462758
 31
0.0
  0
ARC
  5
6E83
330
1E
100
AcDbEntity
  8
製品
  6
Continuous
 62
     3
100
AcDbCircle
 10
520.1148366185406
 20
259.1197960462756
 30
0.0
 40
3.628676999999999
100
AcDbArc
 50
230.8420549999948
 51
270.0
  0
ARC
  5
6E84
330
1E
100
AcDbEntity
  8
製品
  6
Continuous
 62
     3
100
AcDbCircle
 10
520.1148366185406
 20
269.8624410462759
 30
0.0
 40
3.628676999999999
100
AcDbArc
 50
90.0
 51
129.1579450000052
  0
LINE
  5
6E85
330
1E
100
AcDbEntity
  8
製品
  6
Continuous
 62
     4
100
AcDbLine
 10
517.8234706185402
 20
255.4911190462755
 30
0.0
 11
517.8234706185402
 21
235.4911190462754
 31
0.0
  0
LINE
  5
6E86
330
1E
100
AcDbEntity
  8
製品
  6
Continuous
 62
     4
100
AcDbLine
 10
593.6473626185406
 20
342.0177550462755
 30
0.0
 11
593.6473626185406
 21
273.4911190462755
 31
0.0
  0
LINE
  5
6E87
330
1E
100
AcDbEntity
  8
製品
  6
Continuous
 62
     4
100
AcDbLine
 10
603.1473626185405
 20
341.9880850462756
 30
0.0
 11
603.1473626185405
 21
273.4911190462755
 31
0.0
  0
LINE
  5
6E88
330
1E
100
AcDbEntity
  8
製品
  6
PLINE3
 62
     3
100
AcDbLine
 10
598.3973626185405
 20
351.6822710462758
 30
0.0
 11
598.3973626185405
 21
230.4911190462755
 31
0.0
  0
LINE
  5
6E89
330
1E
100
AcDbEntity
  8
製品
  6
Continuous
 62
     3
100
AcDbLine
 10
606.4857906185405
 20
273.4911190462755
 30
0.0
 11
607.8973626185406
 21
272.6761470462758
 31
0.0
  0
ARC
  5
6E8A
330
1E
100
AcDbEntity
  8
製品
  6
Continuous
 62
     3
100
AcDbCircle
 10
605.4387276185406
 20
269.8624410462759
 30
0.0
 40
3.628676999999999
100
AcDbArc
 50
90.0
 51
129.1579450000052
  0
ARC
  5
6E8B
330
1E
100
AcDbEntity
  8
製品
  6
Continuous
 62
     3
100
AcDbCircle
 10
591.3559966185402
 20
269.8624410462759
 30
0.0
 40
3.628676999999999
100
AcDbArc
 50
50.84205499999478
 51
90.0
  0
LINE
  5
6E8C
330
1E
100
AcDbEntity
  8
製品
  6
Continuous
 62
     3
100
AcDbLine
 10
588.8973626185405
 20
272.6761470462758
 30
0.0
 11
590.3089336185401
 21
273.4911190462755
 31
0.0
  0
ARC
  5
6E8D
330
1E
100
AcDbEntity
  8
製品
  6
Continuous
 62
     3
100
AcDbCircle
 10
598.3973626185405
 20
259.2411190462755
 30
0.0
 40
14.25
100
AcDbArc
 50
70.5287789999879
 51
109.4712210000121
  0
LINE
  5
6E8E
330
1E
100
AcDbEntity
  8
製品
  6
Continuous
 62
     3
100
AcDbLine
 10
590.3089336185401
 20
273.4911190462755
 30
0.0
 11
606.4857906185405
 21
273.4911190462755
 31
0.0
  0
LINE
  5
6E8F
330
1E
100
AcDbEntity
  8
製品
  6
Continuous
 62
     3
100
AcDbLine
 10
606.4857906185405
 20
255.4911190462755
 30
0.0
 11
607.8973626185406
 21
256.3060900462757
 31
0.0
  0
ARC
  5
6E90
330
1E
100
AcDbEntity
  8
製品
  6
Continuous
 62
     3
100
AcDbCircle
 10
605.4387276185406
 20
259.1197960462756
 30
0.0
 40
3.628676999999999
100
AcDbArc
 50
230.8420549999948
 51
270.0
  0
LINE
  5
6E91
330
1E
100
AcDbEntity
  8
製品
  6
Continuous
 62
     3
100
AcDbLine
 10
603.1473626185405
 20
256.3060900462757
 30
0.0
 11
603.1473626185405
 21
263.4911190462755
 31
0.0
  0
LINE
  5
6E92
330
1E
100
AcDbEntity
  8
製品
  6
Continuous
 62
     3
100
AcDbLine
 10
607.8973626185406
 20
256.3060900462757
 30
0.0
 11
607.8973626185406
 21
263.4911190462755
 31
0.0
  0
LINE
  5
6E93
330
1E
100
AcDbEntity
  8
製品
  6
Continuous
 62
     4
100
AcDbLine
 10
588.3973626185405
 20
265.4911190462755
 30
0.0
 11
588.3973626185405
 21
263.4911190462755
 31
0.0
  0
ARC
  5
6E94
330
1E
100
AcDbEntity
  8
製品
  6
Continuous
 62
     3
100
AcDbCircle
 10
591.3559966185402
 20
259.1197960462756
 30
0.0
 40
3.628676999999999
100
AcDbArc
 50
270.0
 51
309.1579450000052
  0
LINE
  5
6E95
330
1E
100
AcDbEntity
  8
製品
  6
Continuous
 62
     3
100
AcDbLine
 10
588.8973626185405
 20
256.3060900462757
 30
0.0
 11
590.3089336185401
 21
255.4911190462755
 31
0.0
  0
LINE
  5
6E96
330
1E
100
AcDbEntity
  8
製品
  6
Continuous
 62
     3
100
AcDbLine
 10
588.8973626185405
 20
256.3060900462757
 30
0.0
 11
588.8973626185405
 21
263.4911190462755
 31
0.0
  0
LINE
  5
6E97
330
1E
100
AcDbEntity
  8
製品
  6
Continuous
 62
     3
100
AcDbLine
 10
593.6473626185406
 20
263.4911190462755
 30
0.0
 11
593.6473626185406
 21
256.3060900462757
 31
0.0
  0
ARC
  5
6E98
330
1E
100
AcDbEntity
  8
製品
  6
Continuous
 62
     3
100
AcDbCircle
 10
598.3973626185405
 20
269.7411190462755
 30
0.0
 40
14.25
100
AcDbArc
 50
250.5287789999879
 51
289.471221000012
  0
LINE
  5
6E99
330
1E
100
AcDbEntity
  8
製品
  6
Continuous
 62
     3
100
AcDbLine
 10
590.3089336185401
 20
255.4911190462755
 30
0.0
 11
606.4857906185405
 21
255.4911190462755
 31
0.0
  0
LINE
  5
6E9A
330
1E
100
AcDbEntity
  8
製品
  6
Continuous
 62
     4
100
AcDbLine
 10
609.8973626185405
 20
263.4911190462755
 30
0.0
 11
588.3973626185405
 21
263.4911190462755
 31
0.0
  0
LINE
  5
6E9B
330
1E
100
AcDbEntity
  8
製品
  6
Continuous
 62
     4
100
AcDbLine
 10
609.8973626185405
 20
265.4911190462755
 30
0.0
 11
588.3973626185405
 21
265.4911190462755
 31
0.0
  0
LINE
  5
6E9C
330
1E
100
AcDbEntity
  8
製品
  6
Continuous
 62
     3
100
AcDbLine
 10
588.8973626185405
 20
272.6761470462758
 30
0.0
 11
588.8973626185405
 21
265.4911190462755
 31
0.0
  0
LINE
  5
6E9D
330
1E
100
AcDbEntity
  8
製品
  6
Continuous
 62
     3
100
AcDbLine
 10
603.1473626185405
 20
272.6761470462758
 30
0.0
 11
603.1473626185405
 21
265.4911190462755
 31
0.0
  0
LINE
  5
6E9E
330
1E
100
AcDbEntity
  8
製品
  6
Continuous
 62
     3
100
AcDbLine
 10
593.6473626185406
 20
265.4911190462755
 30
0.0
 11
593.6473626185406
 21
272.6761470462758
 31
0.0
  0
LINE
  5
6E9F
330
1E
100
AcDbEntity
  8
製品
  6
Continuous
 62
     3
100
AcDbLine
 10
607.8973626185406
 20
272.6761470462758
 30
0.0
 11
607.8973626185406
 21
265.4911190462755
 31
0.0
  0
ARC
  5
6EA0
330
1E
100
AcDbEntity
  8
製品
  6
Continuous
 62
     4
100
AcDbCircle
 10
609.8973626185405
 20
261.9911190462755
 30
0.0
 40
1.5
100
AcDbArc
 50
0.0
 51
90.0
  0
ARC
  5
6EA1
330
1E
100
AcDbEntity
  8
製品
  6
Continuous
 62
     4
100
AcDbCircle
 10
609.8973626185405
 20
261.9911190462755
 30
0.0
 40
3.5
100
AcDbArc
 50
0.0
 51
90.0
  0
ARC
  5
6EA2
330
1E
100
AcDbEntity
  8
製品
  6
Continuous
 62
     4
100
AcDbCircle
 10
605.3552286185403
 20
257.4489850462756
 30
0.0
 40
7.269541
100
AcDbArc
 50
33.78217100000818
 51
56.21782899999226
  0
ARC
  5
6EA3
330
1E
100
AcDbEntity
  8
製品
  6
Continuous
 62
     4
100
AcDbCircle
 10
616.3973626185406
 20
214.9301190462757
 30
0.0
 40
5.0
100
AcDbArc
 50
180.0
 51
196.7025299999882
  0
LINE
  5
6EA4
330
1E
100
AcDbEntity
  8
製品
  6
Continuous
 62
     4
100
AcDbLine
 10
593.6473626185406
 20
240.4911190462755
 30
0.0
 11
603.1473626185405
 21
240.4911190462755
 31
0.0
  0
LINE
  5
6EA5
330
1E
100
AcDbEntity
  8
製品
  6
Continuous
 62
     4
100
AcDbLine
 10
593.6473626185406
 20
255.4911190462755
 30
0.0
 11
593.6473626185406
 21
240.4911190462755
 31
0.0
  0
LINE
  5
6EA6
330
1E
100
AcDbEntity
  8
製品
  6
Continuous
 62
     4
100
AcDbLine
 10
603.1473626185405
 20
240.4911190462755
 30
0.0
 11
603.1473626185405
 21
255.4911190462755
 31
0.0
  0
LINE
  5
6EA7
330
1E
100
AcDbEntity
  8
製品
  6
Continuous
 62
     4
100
AcDbLine
 10
611.3973626185405
 20
214.9301190462757
 30
0.0
 11
611.3973626185405
 21
261.9911190462755
 31
0.0
  0
LINE
  5
6EA8
330
1E
100
AcDbEntity
  8
製品
  6
Continuous
 62
     4
100
AcDbLine
 10
613.3973626185405
 20
214.4911190462754
 30
0.0
 11
613.3973626185405
 21
261.9911190462755
 31
0.0
  0
LINE
  5
6EA9
330
1E
100
AcDbEntity
  8
製品
  6
Continuous
 62
     4
100
AcDbLine
 10
635.1973626185403
 20
215.7591190462755
 30
0.0
 11
629.0883626185403
 21
212.2321190462754
 31
0.0
  0
LINE
  5
6EAA
330
1E
100
AcDbEntity
  8
製品
  6
Continuous
 62
     4
100
AcDbLine
 10
634.1973626185403
 20
217.4911190462755
 30
0.0
 11
627.8773626185401
 21
213.8421190462756
 31
0.0
  0
LINE
  5
6EAB
330
1E
100
AcDbEntity
  8
製品
  6
Continuous
 62
     4
100
AcDbLine
 10
634.1973626185403
 20
217.4911190462755
 30
0.0
 11
635.1973626185403
 21
215.7591190462755
 31
0.0
  0
ARC
  5
6EAC
330
1E
100
AcDbEntity
  8
製品
  6
Continuous
 62
     4
100
AcDbCircle
 10
600.7773116185402
 20
342.8055900462756
 30
0.0
 40
2.507081
100
AcDbArc
 50
198.3161259999956
 51
341.6838320000057
  0
ARC
  5
6EAD
330
1E
100
AcDbEntity
  8
製品
  6
Continuous
 62
     4
100
AcDbCircle
 10
600.7773746185401
 20
341.2298860462757
 30
0.0
 40
2.507004999999999
100
AcDbArc
 50
18.31556499999055
 51
161.6843510000032
  0
ARC
  5
6EAE
330
1E
100
AcDbEntity
  8
製品
  6
Continuous
 62
     4
100
AcDbCircle
 10
596.0173756185403
 20
341.2298870462756
 30
0.0
 40
2.507004
100
AcDbArc
 50
18.31551700000279
 51
161.684440000002
  0
ENDSEC
  0
SECTION
  2
OBJECTS
  0
DICTIONARY
  5
C
330
0
100
AcDbDictionary
281
     1
  3
ACAD_COLOR
350
7067
  3
ACAD_GROUP
350
D
  3
ACAD_LAYOUT
350
19
  3
ACAD_MATERIAL
350
7052
  3
ACAD_MLINESTYLE
350
16
  3
ACAD_PLOTSETTINGS
350
18
  3
ACAD_PLOTSTYLENAME
350
E
  3
ACAD_TABLESTYLE
350
7068
  3
ACAD_VISUALSTYLE
350
7056
  3
AcDbVariableDictionary
350
169
  3
DWGPROPS
350
7091
  0
DICTIONARY
  5
7070
330
8
100
AcDbDictionary
280
     1
281
     1
  0
DICTIONARY
  5
175
330
2
100
AcDbDictionary
280
     1
281
     1
  3
ACAD_LAYERFILTERS
360
185
  3
ACAD_LAYERSTATES
360
176
  0
DICTIONARY
  5
28B
330
1E
100
AcDbDictionary
280
     1
281
     1
  3
ACAD_LAYOUTSELFREF
360
704B
  0
DICTIONARY
  5
28D
330
1A
100
AcDbDictionary
280
     1
281
     1
  3
ACAD_LAYOUTSELFREF
360
704A
  0
DICTIONARY
  5
7067
102
{ACAD_REACTORS
330
C
102
}
330
C
100
AcDbDictionary
281
     1
  0
DICTIONARY
  5
D
102
{ACAD_REACTORS
330
C
102
}
330
C
100
AcDbDictionary
281
     1
  0
DICTIONARY
  5
19
102
{ACAD_REACTORS
330
C
102
}
330
C
100
AcDbDictionary
281
     1
  3
Model
350
21
  3
ﾚｲｱｳﾄ1
350
1D
  0
DICTIONARY
  5
7052
102
{ACAD_REACTORS
330
C
102
}
330
C
100
AcDbDictionary
281
     1
  3
ByBlock
350
7054
  3
ByLayer
350
7053
  3
Global
350
7055
  0
DICTIONARY
  5
16
102
{ACAD_REACTORS
330
C
102
}
330
C
100
AcDbDictionary
281
     1
  3
Standard
350
17
  0
DICTIONARY
  5
18
102
{ACAD_REACTORS
330
C
102
}
330
C
100
AcDbDictionary
281
     1
  0
ACDBDICTIONARYWDFLT
  5
E
102
{ACAD_REACTORS
330
C
102
}
330
C
100
AcDbDictionary
281
     1
  3
Normal
350
F
100
AcDbDictionaryWithDefault
340
F
1001
ACAD
1000
TREAT_AS_HARD
1070
     0
1000
TREAT_AS_HARD
1070
     0
1000
TREAT_AS_HARD
1070
     0
1000
TREAT_AS_HARD
1070
     0
1000
TREAT_AS_HARD
1070
     0
1000
TREAT_AS_HARD
1070
     0
1000
TREAT_AS_HARD
1070
     0
1000
TREAT_AS_HARD
1070
     0
1000
TREAT_AS_HARD
1070
     0
1000
TREAT_AS_HARD
1070
     0
1000
TREAT_AS_HARD
1070
     0
1000
TREAT_AS_HARD
1070
     0
1000
TREAT_AS_HARD
1070
     0
1000
TREAT_AS_HARD
1070
     0
1000
TREAT_AS_HARD
1070
     0
1000
TREAT_AS_HARD
1070
     0
1000
TREAT_AS_HARD
1070
     0
1000
TREAT_AS_HARD
1070
     0
1000
TREAT_AS_HARD
1070
     0
1000
TREAT_AS_HARD
1070
     0
1000
TREAT_AS_HARD
1070
     0
1000
TREAT_AS_HARD
1070
     0
1000
TREAT_AS_HARD
1070
     0
1000
TREAT_AS_HARD
1070
     0
1000
TREAT_AS_HARD
1070
     0
1000
TREAT_AS_HARD
1070
     0
1000
TREAT_AS_HARD
1070
     0
1000
TREAT_AS_HARD
1070
     0
1000
TREAT_AS_HARD
1070
     0
1000
TREAT_AS_HARD
1070
     0
1000
TREAT_AS_HARD
1070
     0
  0
DICTIONARY
  5
7068
102
{ACAD_REACTORS
330
C
102
}
330
C
100
AcDbDictionary
281
     1
  3
Standard
350
7069
  0
DICTIONARY
  5
7056
102
{ACAD_REACTORS
330
C
102
}
330
C
100
AcDbDictionary
281
     1
  3
2dWireframe
350
705C
  3
3D Hidden
350
705E
  3
3dWireframe
350
705D
  3
Basic
350
705B
  3
Brighten
350
7062
  3
ColorChange
350
7066
  3
Conceptual
350
705F
  3
Dim
350
7061
  3
Facepattern
350
7065
  3
Flat
350
7057
  3
FlatWithEdges
350
7058
  3
Gouraud
350
7059
  3
GouraudWithEdges
350
705A
  3
Linepattern
350
7064
  3
Realistic
350
7060
  3
Thicken
350
7063
  0
DICTIONARY
  5
169
102
{ACAD_REACTORS
330
C
102
}
330
C
100
AcDbDictionary
281
     1
  3
CTABLESTYLE
350
7088
  3
DIMASSOC
350
16A
  3
INDEXCTL
350
708A
  3
SORTENTS
350
7089
  0
XRECORD
  5
7091
102
{ACAD_REACTORS
330
C
102
}
330
C
100
AcDbXrecord
280
     1
  1
DWGPROPS COOKIE
  2

  3

  4

  6

  7

  8
HON1000AV
  9

300
=
301
=
302
=
303
=
304
=
305
=
306
=
307
=
308
=
309
=
 40
0.2410576967592592
 41
2454316.693457674
 42
2454735.626647674
  1

 90
        0
  0
DICTIONARY
  5
185
102
{ACAD_REACTORS
330
175
102
}
330
175
100
AcDbDictionary
280
     1
281
     1
  0
DICTIONARY
  5
176
102
{ACAD_REACTORS
330
175
102
}
330
175
100
AcDbDictionary
281
     1
  3
ACAD
350
177
  0
XRECORD
  5
704B
102
{ACAD_REACTORS
330
28B
102
}
330
28B
100
AcDbXrecord
280
     1
340
1E
  0
XRECORD
  5
704A
102
{ACAD_REACTORS
330
28D
102
}
330
28D
100
AcDbXrecord
280
     1
340
1A
  0
LAYOUT
  5
21
102
{ACAD_XDICTIONARY
360
7094
102
}
102
{ACAD_REACTORS
330
19
102
}
330
19
100
AcDbPlotSettings
  1

  2
\\MEISEI-1\EPSON Stylus Photo EX3
  4

  6

 40
0.0
 41
0.0
 42
0.0
 43
0.0
 44
0.0
 45
0.0
 46
0.0
 47
0.0
 48
0.0
 49
0.0
140
0.0
141
0.0
142
1.0
143
1.0
 70
  1712
 72
     0
 73
     0
 74
     0
  7

 75
     0
147
1.0
148
0.0
149
0.0
100
AcDbLayout
  1
Model
 70
     1
 71
     0
 10
0.0
 20
0.0
 11
12.0
 21
9.0
 12
0.0
 22
0.0
 32
0.0
 14
0.0
 24
0.0
 34
0.0
 15
0.0
 25
0.0
 35
0.0
146
0.0
 13
0.0
 23
0.0
 33
0.0
 16
1.0
 26
0.0
 36
0.0
 17
0.0
 27
1.0
 37
0.0
 76
     0
330
1E
331
7006
  0
LAYOUT
  5
1D
102
{ACAD_XDICTIONARY
360
7092
102
}
102
{ACAD_REACTORS
330
19
102
}
330
19
100
AcDbPlotSettings
  1

  2
\\MEISEI-1\EPSON Stylus Photo EX3
  4

  6

 40
0.0
 41
0.0
 42
0.0
 43
0.0
 44
0.0
 45
0.0
 46
0.0
 47
0.0
 48
0.0
 49
0.0
140
0.0
141
0.0
142
1.0
143
1.0
 70
   688
 72
     0
 73
     0
 74
     5
  7

 75
    16
147
1.0
148
0.0
149
0.0
100
AcDbLayout
  1
ﾚｲｱｳﾄ1
 70
     1
 71
     1
 10
0.0
 20
0.0
 11
12.0
 21
9.0
 12
0.0
 22
0.0
 32
0.0
 14
1.000000000000000E+20
 24
1.000000000000000E+20
 34
1.000000000000000E+20
 15
-1.000000000000000E+20
 25
-1.000000000000000E+20
 35
-1.000000000000000E+20
146
0.0
 13
0.0
 23
0.0
 33
0.0
 16
1.0
 26
0.0
 36
0.0
 17
0.0
 27
1.0
 37
0.0
 76
     0
330
1A
  0
MATERIAL
  5
7054
102
{ACAD_XDICTIONARY
360
7098
102
}
102
{ACAD_REACTORS
330
7052
102
}
330
7052
100
AcDbMaterial
  1
ByBlock
  0
MATERIAL
  5
7053
102
{ACAD_XDICTIONARY
360
7096
102
}
102
{ACAD_REACTORS
330
7052
102
}
330
7052
100
AcDbMaterial
  1
ByLayer
  0
MATERIAL
  5
7055
102
{ACAD_XDICTIONARY
360
709A
102
}
102
{ACAD_REACTORS
330
7052
102
}
330
7052
100
AcDbMaterial
  1
Global
  0
MLINESTYLE
  5
17
102
{ACAD_REACTORS
330
16
102
}
330
16
100
AcDbMlineStyle
  2
STANDARD
 70
     0
  3

 62
   256
 51
90.0
 52
90.0
 71
     2
 49
0.5
 62
   256
  6
BYLAYER
 49
-0.5
 62
   256
  6
BYLAYER
  0
ACDBPLACEHOLDER
  5
F
102
{ACAD_REACTORS
330
E
102
}
330
E
  0
TABLESTYLE
  5
7069
102
{ACAD_XDICTIONARY
360
709C
102
}
102
{ACAD_REACTORS
330
7068
102
}
330
7068
100
AcDbTableStyle
  3
Standard
 70
     0
 71
     0
 40
0.06
 41
0.06
280
     0
281
     0
  7
STANDARD
140
0.18
170
     2
 62
     0
 63
     7
283
     0
274
    -2
284
     1
 64
     0
275
    -2
285
     1
 65
     0
276
    -2
286
     1
 66
     0
277
    -2
287
     1
 67
     0
278
    -2
288
     1
 68
     0
279
    -2
289
     1
 69
     0
  7
STANDARD
140
0.25
170
     5
 62
     0
 63
     7
283
     0
274
    -2
284
     1
 64
     0
275
    -2
285
     1
 65
     0
276
    -2
286
     1
 66
     0
277
    -2
287
     1
 67
     0
278
    -2
288
     1
 68
     0
279
    -2
289
     1
 69
     0
  7
STANDARD
140
0.18
170
     5
 62
     0
 63
     7
283
     0
274
    -2
284
     1
 64
     0
275
    -2
285
     1
 65
     0
276
    -2
286
     1
 66
     0
277
    -2
287
     1
 67
     0
278
    -2
288
     1
 68
     0
279
    -2
289
     1
 69
     0
  0
VISUALSTYLE
  5
705C
102
{ACAD_REACTORS
330
7056
102
}
330
7056
100
AcDbVisualStyle
  2
2dWireframe
 70
     4
 71
     0
 72
     2
 73
     0
 90
        0
 40
-0.6
 41
-30.0
 62
     5
 63
     7
 74
     1
 91
        4
 64
     7
 65
   257
 75
     1
175
     1
 42
1.0
 92
        0
 66
   257
 43
1.0
 76
     1
 77
     6
 78
     2
 67
     7
 79
     5
170
     0
171
     0
290
     0
174
     0
 93
        1
 44
0.0
173
     0
291
     0
 45
0.0
1001
ACAD
1000
AcDbSavedByObjectVersion
1070
     0
  0
VISUALSTYLE
  5
705E
102
{ACAD_REACTORS
330
7056
102
}
330
7056
100
AcDbVisualStyle
  2
3D Hidden
 70
     6
 71
     1
 72
     2
 73
     2
 90
        0
 40
-0.6
 41
-30.0
 62
     5
 63
     7
 74
     2
 91
        2
 64
     7
 65
   257
 75
     2
175
     1
 42
40.0
 92
        0
 66
   257
 43
1.0
 76
     1
 77
     6
 78
     2
 67
     7
 79
     3
170
     0
171
     0
290
     0
174
     0
 93
        1
 44
0.0
173
     0
291
     0
 45
0.0
1001
ACAD
1000
AcDbSavedByObjectVersion
1070
     0
  0
VISUALSTYLE
  5
705D
102
{ACAD_REACTORS
330
7056
102
}
330
7056
100
AcDbVisualStyle
  2
3dWireframe
 70
     5
 71
     0
 72
     2
 73
     0
 90
        0
 40
-0.6
 41
-30.0
 62
     5
 63
     7
 74
     1
 91
        4
 64
     7
 65
   257
 75
     1
175
     1
 42
1.0
 92
        0
 66
   257
 43
1.0
 76
     1
 77
     6
 78
     2
 67
     7
 79
     5
170
     0
171
     0
290
     0
174
     0
 93
        1
 44
0.0
173
     0
291
     0
 45
0.0
1001
ACAD
1000
AcDbSavedByObjectVersion
1070
     0
  0
VISUALSTYLE
  5
705B
102
{ACAD_REACTORS
330
7056
102
}
330
7056
100
AcDbVisualStyle
  2
Basic
 70
     7
 71
     1
 72
     0
 73
     1
 90
        0
 40
-0.6
 41
-30.0
 62
     5
 63
     7
 74
     0
 91
        4
 64
     7
 65
   257
 75
     1
175
     1
 42
1.0
 92
        8
 66
     7
 43
1.0
 76
     1
 77
     6
 78
     2
 67
     7
 79
     5
170
     0
171
     0
290
     0
174
     0
 93
        1
 44
0.0
173
     0
291
     1
 45
0.0
1001
ACAD
1000
AcDbSavedByObjectVersion
1070
     0
  0
VISUALSTYLE
  5
7062
102
{ACAD_REACTORS
330
7056
102
}
330
7056
100
AcDbVisualStyle
  2
Brighten
 70
    12
 71
     2
 72
     2
 73
     0
 90
        0
 40
-0.6
 41
-30.0
 62
     5
 63
     7
 74
     1
 91
        4
 64
     7
 65
   257
 75
     1
175
     1
 42
1.0
 92
        8
 66
     7
 43
1.0
 76
     1
 77
     6
 78
     2
 67
     7
 79
     5
170
     0
171
     0
290
     0
174
     0
 93
        1
 44
50.0
173
     0
291
     1
 45
0.0
1001
ACAD
1000
AcDbSavedByObjectVersion
1070
     0
  0
VISUALSTYLE
  5
7066
102
{ACAD_REACTORS
330
7056
102
}
330
7056
100
AcDbVisualStyle
  2
ColorChange
 70
    16
 71
     2
 72
     2
 73
     3
 90
        0
 40
-0.6
 41
-30.0
 62
     5
 63
     8
 74
     1
 91
        4
 64
     7
 65
   257
 75
     1
175
     1
 42
1.0
 92
        8
 66
     8
 43
1.0
 76
     1
 77
     6
 78
     2
 67
     7
 79
     5
170
     0
171
     0
290
     0
174
     0
 93
        1
 44
0.0
173
     0
291
     1
 45
0.0
1001
ACAD
1000
AcDbSavedByObjectVersion
1070
     0
  0
VISUALSTYLE
  5
705F
102
{ACAD_REACTORS
330
7056
102
}
330
7056
100
AcDbVisualStyle
  2
Conceptual
 70
     9
 71
     3
 72
     2
 73
     0
 90
        0
 40
-0.6
 41
-30.0
 62
     5
 63
     7
 74
     2
 91
        2
 64
     7
 65
   257
 75
     1
175
     1
 42
40.0
 92
        8
 66
     7
 43
1.0
 76
     1
 77
     6
 78
     2
 67
     7
 79
     3
170
     0
171
     0
290
     0
174
     0
 93
        1
 44
0.0
173
     0
291
     0
 45
0.0
1001
ACAD
1000
AcDbSavedByObjectVersion
1070
     0
  0
VISUALSTYLE
  5
7061
102
{ACAD_REACTORS
330
7056
102
}
330
7056
100
AcDbVisualStyle
  2
Dim
 70
    11
 71
     2
 72
     2
 73
     0
 90
        0
 40
-0.6
 41
-30.0
 62
     5
 63
     7
 74
     1
 91
        4
 64
     7
 65
   257
 75
     1
175
     1
 42
1.0
 92
        8
 66
     7
 43
1.0
 76
     1
 77
     6
 78
     2
 67
     7
 79
     5
170
     0
171
     0
290
     0
174
     0
 93
        1
 44
-50.0
173
     0
291
     1
 45
0.0
1001
ACAD
1000
AcDbSavedByObjectVersion
1070
     0
  0
VISUALSTYLE
  5
7065
102
{ACAD_REACTORS
330
7056
102
}
330
7056
100
AcDbVisualStyle
  2
Facepattern
 70
    15
 71
     2
 72
     2
 73
     0
 90
        0
 40
-0.6
 41
-30.0
 62
     5
 63
     7
 74
     1
 91
        4
 64
     7
 65
   257
 75
     1
175
     1
 42
1.0
 92
        8
 66
     7
 43
1.0
 76
     1
 77
     6
 78
     2
 67
     7
 79
     5
170
     0
171
     0
290
     0
174
     0
 93
        1
 44
0.0
173
     0
291
     1
 45
0.0
1001
ACAD
1000
AcDbSavedByObjectVersion
1070
     0
  0
VISUALSTYLE
  5
7057
102
{ACAD_REACTORS
330
7056
102
}
330
7056
100
AcDbVisualStyle
  2
Flat
 70
     0
 71
     2
 72
     1
 73
     1
 90
        2
 40
-0.6
 41
30.0
 62
     5
 63
     7
 74
     0
 91
        4
 64
     7
 65
   257
 75
     1
175
     1
 42
1.0
 92
        8
 66
     7
 43
1.0
 76
     1
 77
     6
 78
     2
 67
     7
 79
     5
170
     0
171
     0
290
     0
174
     0
 93
       13
 44
0.0
173
     0
291
     1
 45
0.0
1001
ACAD
1000
AcDbSavedByObjectVersion
1070
     0
  0
VISUALSTYLE
  5
7058
102
{ACAD_REACTORS
330
7056
102
}
330
7056
100
AcDbVisualStyle
  2
FlatWithEdges
 70
     1
 71
     2
 72
     1
 73
     1
 90
        2
 40
-0.6
 41
30.0
 62
     5
 63
     7
 74
     1
 91
        4
 64
     7
 65
   257
 75
     1
175
     1
 42
1.0
 92
        0
 66
   257
 43
1.0
 76
     1
 77
     6
 78
     2
 67
     7
 79
     5
170
     0
171
     0
290
     0
174
     0
 93
       13
 44
0.0
173
     0
291
     1
 45
0.0
1001
ACAD
1000
AcDbSavedByObjectVersion
1070
     0
  0
VISUALSTYLE
  5
7059
102
{ACAD_REACTORS
330
7056
102
}
330
7056
100
AcDbVisualStyle
  2
Gouraud
 70
     2
 71
     2
 72
     2
 73
     1
 90
        2
 40
-0.6
 41
30.0
 62
     5
 63
     7
 74
     0
 91
        4
 64
     7
 65
   257
 75
     1
175
     1
 42
1.0
 92
        0
 66
     7
 43
1.0
 76
     1
 77
     6
 78
     2
 67
     7
 79
     5
170
     0
171
     0
290
     0
174
     0
 93
       13
 44
0.0
173
     0
291
     1
 45
0.0
1001
ACAD
1000
AcDbSavedByObjectVersion
1070
     0
  0
VISUALSTYLE
  5
705A
102
{ACAD_REACTORS
330
7056
102
}
330
7056
100
AcDbVisualStyle
  2
GouraudWithEdges
 70
     3
 71
     2
 72
     2
 73
     1
 90
        2
 40
-0.6
 41
30.0
 62
     5
 63
     7
 74
     1
 91
        4
 64
     7
 65
   257
 75
     1
175
     1
 42
1.0
 92
        0
 66
   257
 43
1.0
 76
     1
 77
     6
 78
     2
 67
     7
 79
     5
170
     0
171
     0
290
     0
174
     0
 93
       13
 44
0.0
173
     0
291
     1
 45
0.0
1001
ACAD
1000
AcDbSavedByObjectVersion
1070
     0
  0
VISUALSTYLE
  5
7064
102
{ACAD_REACTORS
330
7056
102
}
330
7056
100
AcDbVisualStyle
  2
Linepattern
 70
    14
 71
     2
 72
     2
 73
     0
 90
        0
 40
-0.6
 41
-30.0
 62
     5
 63
     7
 74
     1
 91
        4
 64
     7
 65
   257
 75
     7
175
     7
 42
1.0
 92
        8
 66
     7
 43
1.0
 76
     1
 77
     6
 78
     2
 67
     7
 79
     5
170
     0
171
     0
290
     0
174
     0
 93
        1
 44
0.0
173
     0
291
     1
 45
0.0
1001
ACAD
1000
AcDbSavedByObjectVersion
1070
     0
  0
VISUALSTYLE
  5
7060
102
{ACAD_REACTORS
330
7056
102
}
330
7056
100
AcDbVisualStyle
  2
Realistic
 70
     8
 71
     2
 72
     2
 73
     0
 90
        0
 40
-0.6
 41
-30.0
 62
     5
 63
     7
 74
     1
 91
        0
 64
     7
 65
   257
 75
     1
175
     1
 42
1.0
 92
        8
 66
     8
 43
1.0
 76
     1
 77
     6
 78
     2
 67
     7
 79
     5
170
     0
171
     0
290
     0
174
     0
 93
       13
 44
0.0
173
     0
291
     0
 45
0.0
1001
ACAD
1000
AcDbSavedByObjectVersion
1070
     0
  0
VISUALSTYLE
  5
7063
102
{ACAD_REACTORS
330
7056
102
}
330
7056
100
AcDbVisualStyle
  2
Thicken
 70
    13
 71
     2
 72
     2
 73
     0
 90
        0
 40
-0.6
 41
-30.0
 62
     5
 63
     7
 74
     1
 91
        4
 64
     7
 65
   257
 75
     1
175
     1
 42
1.0
 92
       12
 66
     7
 43
1.0
 76
     1
 77
     6
 78
     2
 67
     7
 79
     5
170
     0
171
     0
290
     0
174
     0
 93
        1
 44
0.0
173
     0
291
     1
 45
0.0
1001
ACAD
1000
AcDbSavedByObjectVersion
1070
     0
  0
DICTIONARYVAR
  5
7088
102
{ACAD_REACTORS
330
169
102
}
330
169
100
DictionaryVariables
280
     0
  1
STANDARD
  0
DICTIONARYVAR
  5
16A
102
{ACAD_REACTORS
330
169
102
}
330
169
100
DictionaryVariables
280
     0
  1
1
  0
DICTIONARYVAR
  5
708A
102
{ACAD_REACTORS
330
169
102
}
330
169
100
DictionaryVariables
280
     0
  1
0
  0
DICTIONARYVAR
  5
7089
102
{ACAD_REACTORS
330
169
102
}
330
169
100
DictionaryVariables
280
     0
  1
127
  0
XRECORD
  5
177
102
{ACAD_REACTORS
330
176
102
}
330
176
100
AcDbXrecord
280
     1
 91
      476
330
179
 90
        8
 62
     7
370
    -3
331
15
  1
Color_7
330
128
 90
        0
 62
     7
370
    -3
331
15
  1
Color_7
330
10
 90
        8
 62
     7
370
    -3
331
15
  1
Color_7
  0
DICTIONARY
  5
7094
330
21
100
AcDbDictionary
280
     1
281
     1
  3
ACAD_XREC_ROUNDTRIP
360
7095
  0
DICTIONARY
  5
7092
330
1D
100
AcDbDictionary
280
     1
281
     1
  3
ACAD_XREC_ROUNDTRIP
360
7093
  0
DICTIONARY
  5
7098
330
7054
100
AcDbDictionary
280
     1
281
     1
  3
ACAD_XREC_ROUNDTRIP
360
7099
  0
DICTIONARY
  5
7096
330
7053
100
AcDbDictionary
280
     1
281
     1
  3
ACAD_XREC_ROUNDTRIP
360
7097
  0
DICTIONARY
  5
709A
330
7055
100
AcDbDictionary
280
     1
281
     1
  3
ACAD_XREC_ROUNDTRIP
360
709B
  0
DICTIONARY
  5
709C
330
7069
100
AcDbDictionary
280
     1
281
     1
  3
ACAD_XREC_ROUNDTRIP
360
709D
  0
XRECORD
  5
7095
102
{ACAD_REACTORS
330
7094
102
}
330
7094
100
AcDbXrecord
280
     1
102
SHADEPLOT
 70
     0
102
SHADEPLOTRESLEVEL
 70
     2
102
SHADEPLOTCUSTOMDPI
 70
   300
  0
XRECORD
  5
7093
102
{ACAD_REACTORS
330
7092
102
}
330
7092
100
AcDbXrecord
280
     1
102
SHADEPLOT
 70
     0
102
SHADEPLOTRESLEVEL
 70
     2
102
SHADEPLOTCUSTOMDPI
 70
   300
  0
XRECORD
  5
7099
102
{ACAD_REACTORS
330
7098
102
}
330
7098
100
AcDbXrecord
280
     1
102
MATERIAL
148
0.0
149
0.0
149
0.0
 93
        0
 94
       63
282
     0
 72
     1
 77
     1
171
     1
175
     1
179
     1
273
     0
  0
XRECORD
  5
7097
102
{ACAD_REACTORS
330
7096
102
}
330
7096
100
AcDbXrecord
280
     1
102
MATERIAL
148
0.0
149
0.0
149
0.0
 93
        0
 94
       63
282
     0
 72
     1
 77
     1
171
     1
175
     1
179
     1
273
     0
  0
XRECORD
  5
709B
102
{ACAD_REACTORS
330
709A
102
}
330
709A
100
AcDbXrecord
280
     1
102
MATERIAL
148
0.0
149
0.0
149
0.0
 93
        0
 94
       63
282
     0
 72
     1
 77
     1
171
     1
175
     1
179
     1
273
     0
  0
XRECORD
  5
709D
102
{ACAD_REACTORS
330
709C
102
}
330
709C
100
AcDbXrecord
280
     1
102
ACAD_ROUNDTRIP_PRE2007_TABLESTYLE
 90
      512
 91
        0
  1

 92
      512
 93
        0
  2

 94
      512
 95
        0
  3

  0
ENDSEC
  0
EOF
