  0
SECTION
  2
HEADER
  9
$ACADVER
  1
AC1015
  9
$ACADMAINTVER
 70
    20
  9
$DWGCODEPAGE
  3
ANSI_932
  9
$INSBASE
 10
0.0
 20
0.0
 30
0.0
  9
$EXTMIN
 10
106.1893328554268
 20
123.8462534802395
 30
0.0
  9
$EXTMAX
 10
257.4231178554269
 20
375.7175094802391
 30
0.0
  9
$LIMMIN
 10
0.0
 20
0.0
  9
$LIMMAX
 10
420.0
 20
297.0
  9
$ORTHOMODE
 70
     0
  9
$REGENMODE
 70
     1
  9
$FILLMODE
 70
     1
  9
$QTEXTMODE
 70
     0
  9
$MIRRTEXT
 70
     1
  9
$LTSCALE
 40
1.0
  9
$ATTMODE
 70
     1
  9
$TEXTSIZE
 40
5.0
  9
$TRACEWID
 40
0.05
  9
$TEXTSTYLE
  7
ACAD
  9
$CLAYER
  8
0
  9
$CELTYPE
  6
CONTINUOUS
  9
$CECOLOR
 62
   256
  9
$CELTSCALE
 40
1.0
  9
$DISPSILH
 70
     0
  9
$DIMSCALE
 40
1.0
  9
$DIMASZ
 40
1.0
  9
$DIMEXO
 40
0.0
  9
$DIMDLI
 40
0.38
  9
$DIMRND
 40
0.0
  9
$DIMDLE
 40
0.0
  9
$DIMEXE
 40
0.0
  9
$DIMTP
 40
0.0
  9
$DIMTM
 40
0.0
  9
$DIMTXT
 40
3.0
  9
$DIMCEN
 40
0.09
  9
$DIMTSZ
 40
0.0
  9
$DIMTOL
 70
     0
  9
$DIMLIM
 70
     0
  9
$DIMTIH
 70
     0
  9
$DIMTOH
 70
     1
  9
$DIMSE1
 70
     0
  9
$DIMSE2
 70
     0
  9
$DIMTAD
 70
     1
  9
$DIMZIN
 70
     0
  9
$DIMBLK
  1
Dot
  9
$DIMASO
 70
     1
  9
$DIMSHO
 70
     1
  9
$DIMPOST
  1

  9
$DIMAPOST
  1

  9
$DIMALT
 70
     0
  9
$DIMALTD
 70
     2
  9
$DIMALTF
 40
25.4
  9
$DIMLFAC
 40
1.0
  9
$DIMTOFL
 70
     0
  9
$DIMTVP
 40
0.0
  9
$DIMTIX
 70
     1
  9
$DIMSOXD
 70
     0
  9
$DIMSAH
 70
     0
  9
$DIMBLK1
  1

  9
$DIMBLK2
  1

  9
$DIMSTYLE
  2
AutoCAD
  9
$DIMCLRD
 70
     4
  9
$DIMCLRE
 70
     4
  9
$DIMCLRT
 70
     3
  9
$DIMTFAC
 40
1.0
  9
$DIMGAP
 40
1.0
  9
$DIMJUST
 70
     0
  9
$DIMSD1
 70
     0
  9
$DIMSD2
 70
     0
  9
$DIMTOLJ
 70
     1
  9
$DIMTZIN
 70
     0
  9
$DIMALTZ
 70
     0
  9
$DIMALTTZ
 70
     0
  9
$DIMUPT
 70
     0
  9
$DIMDEC
 70
     0
  9
$DIMTDEC
 70
     0
  9
$DIMALTU
 70
     2
  9
$DIMALTTD
 70
     2
  9
$DIMTXSTY
  7
ACAD
  9
$DIMAUNIT
 70
     0
  9
$DIMADEC
 70
     0
  9
$DIMALTRND
 40
0.0
  9
$DIMAZIN
 70
     0
  9
$DIMDSEP
 70
    46
  9
$DIMATFIT
 70
     0
  9
$DIMFRAC
 70
     0
  9
$DIMLDRBLK
  1
None
  9
$DIMLUNIT
 70
     2
  9
$DIMLWD
 70
    -2
  9
$DIMLWE
 70
    -2
  9
$DIMTMOVE
 70
     0
  9
$LUNITS
 70
     2
  9
$LUPREC
 70
     4
  9
$SKETCHINC
 40
0.1
  9
$FILLETRAD
 40
0.0
  9
$AUNITS
 70
     0
  9
$AUPREC
 70
     0
  9
$MENU
  1
.
  9
$ELEVATION
 40
0.0
  9
$PELEVATION
 40
0.0
  9
$THICKNESS
 40
0.0
  9
$LIMCHECK
 70
     0
  9
$CHAMFERA
 40
0.0
  9
$CHAMFERB
 40
0.0
  9
$CHAMFERC
 40
0.0
  9
$CHAMFERD
 40
0.0
  9
$SKPOLY
 70
     0
  9
$TDCREATE
 40
2454316.693457674
  9
$TDUCREATE
 40
2454316.318457674
  9
$TDUPDATE
 40
2454735.626287790
  9
$TDUUPDATE
 40
2454735.251287790
  9
$TDINDWG
 40
0.2451024769
  9
$TDUSRTIMER
 40
0.2451024769
  9
$USRTIMER
 70
     1
  9
$ANGBASE
 50
0.0
  9
$ANGDIR
 70
     0
  9
$PDMODE
 70
     0
  9
$PDSIZE
 40
0.0
  9
$PLINEWID
 40
0.0
  9
$SPLFRAME
 70
     0
  9
$SPLINETYPE
 70
     6
  9
$SPLINESEGS
 70
     8
  9
$HANDSEED
  5
770C
  9
$SURFTAB1
 70
     6
  9
$SURFTAB2
 70
     6
  9
$SURFTYPE
 70
     6
  9
$SURFU
 70
     6
  9
$SURFV
 70
     6
  9
$UCSBASE
  2

  9
$UCSNAME
  2

  9
$UCSORG
 10
0.0
 20
0.0
 30
0.0
  9
$UCSXDIR
 10
1.0
 20
0.0
 30
0.0
  9
$UCSYDIR
 10
0.0
 20
1.0
 30
0.0
  9
$UCSORTHOREF
  2

  9
$UCSORTHOVIEW
 70
     0
  9
$UCSORGTOP
 10
0.0
 20
0.0
 30
0.0
  9
$UCSORGBOTTOM
 10
0.0
 20
0.0
 30
0.0
  9
$UCSORGLEFT
 10
0.0
 20
0.0
 30
0.0
  9
$UCSORGRIGHT
 10
0.0
 20
0.0
 30
0.0
  9
$UCSORGFRONT
 10
0.0
 20
0.0
 30
0.0
  9
$UCSORGBACK
 10
0.0
 20
0.0
 30
0.0
  9
$PUCSBASE
  2

  9
$PUCSNAME
  2

  9
$PUCSORG
 10
0.0
 20
0.0
 30
0.0
  9
$PUCSXDIR
 10
1.0
 20
0.0
 30
0.0
  9
$PUCSYDIR
 10
0.0
 20
1.0
 30
0.0
  9
$PUCSORTHOREF
  2

  9
$PUCSORTHOVIEW
 70
     0
  9
$PUCSORGTOP
 10
0.0
 20
0.0
 30
0.0
  9
$PUCSORGBOTTOM
 10
0.0
 20
0.0
 30
0.0
  9
$PUCSORGLEFT
 10
0.0
 20
0.0
 30
0.0
  9
$PUCSORGRIGHT
 10
0.0
 20
0.0
 30
0.0
  9
$PUCSORGFRONT
 10
0.0
 20
0.0
 30
0.0
  9
$PUCSORGBACK
 10
0.0
 20
0.0
 30
0.0
  9
$USERI1
 70
     0
  9
$USERI2
 70
     0
  9
$USERI3
 70
     0
  9
$USERI4
 70
     0
  9
$USERI5
 70
     0
  9
$USERR1
 40
0.0
  9
$USERR2
 40
0.0
  9
$USERR3
 40
0.0
  9
$USERR4
 40
0.0
  9
$USERR5
 40
0.0
  9
$WORLDVIEW
 70
     1
  9
$SHADEDGE
 70
     3
  9
$SHADEDIF
 70
    70
  9
$TILEMODE
 70
     1
  9
$MAXACTVP
 70
    48
  9
$PINSBASE
 10
0.0
 20
0.0
 30
0.0
  9
$PLIMCHECK
 70
     0
  9
$PEXTMIN
 10
1.000000000000000E+20
 20
1.000000000000000E+20
 30
1.000000000000000E+20
  9
$PEXTMAX
 10
-1.000000000000000E+20
 20
-1.000000000000000E+20
 30
-1.000000000000000E+20
  9
$PLIMMIN
 10
0.0
 20
0.0
  9
$PLIMMAX
 10
12.0
 20
9.0
  9
$UNITMODE
 70
     0
  9
$VISRETAIN
 70
     0
  9
$PLINEGEN
 70
     0
  9
$PSLTSCALE
 70
     1
  9
$TREEDEPTH
 70
  3020
  9
$CMLSTYLE
  2
Standard
  9
$CMLJUST
 70
     0
  9
$CMLSCALE
 40
1.0
  9
$PROXYGRAPHICS
 70
     1
  9
$MEASUREMENT
 70
     0
  9
$CELWEIGHT
370
    -1
  9
$ENDCAPS
280
     0
  9
$JOINSTYLE
280
     0
  9
$LWDISPLAY
290
     0
  9
$INSUNITS
 70
     0
  9
$HYPERLINKBASE
  1

  9
$STYLESHEET
  1

  9
$XEDIT
290
     1
  9
$CEPSNTYPE
380
     0
  9
$PSTYLEMODE
290
     1
  9
$FINGERPRINTGUID
  2
{CC7D6DEE-A9F1-4F3E-AC95-C84B62CCA3FD}
  9
$VERSIONGUID
  2
{4390D5BE-D979-4E64-A326-35E83DC4B4A8}
  9
$EXTNAMES
290
     1
  9
$PSVPSCALE
 40
0.0
  9
$OLESTARTUP
290
     0
  0
ENDSEC
  0
SECTION
  2
CLASSES
  0
CLASS
  1
ACDBDICTIONARYWDFLT
  2
AcDbDictionaryWithDefault
  3
ObjectDBX Classes
 90
        0
280
     0
281
     0
  0
CLASS
  1
ACDBPLACEHOLDER
  2
AcDbPlaceHolder
  3
ObjectDBX Classes
 90
        0
280
     0
281
     0
  0
CLASS
  1
LAYOUT
  2
AcDbLayout
  3
ObjectDBX Classes
 90
        0
280
     0
281
     0
  0
CLASS
  1
DICTIONARYVAR
  2
AcDbDictionaryVar
  3
ObjectDBX Classes
 90
        0
280
     0
281
     0
  0
CLASS
  1
MATERIAL
  2
AcDbMaterial
  3
ObjectDBX Classes
 90
     1153
280
     0
281
     0
  0
CLASS
  1
VISUALSTYLE
  2
AcDbVisualStyle
  3
ObjectDBX Classes
 90
     4095
280
     0
281
     0
  0
CLASS
  1
TABLESTYLE
  2
AcDbTableStyle
  3
ObjectDBX Classes
 90
     4095
280
     0
281
     0
  0
ENDSEC
  0
SECTION
  2
TABLES
  0
TABLE
  2
VPORT
  5
8
102
{ACAD_XDICTIONARY
360
76DE
102
}
330
0
100
AcDbSymbolTable
 70
     1
  0
VPORT
  5
7659
330
8
100
AcDbSymbolTableRecord
100
AcDbViewportTableRecord
  2
*Active
 70
     0
 10
0.0
 20
0.0
 11
1.0
 21
1.0
 12
181.8017587575616
 22
249.7817125731933
 13
0.0
 23
0.0
 14
1.0
 24
1.0
 15
0.0
 25
0.0
 16
0.0
 26
0.0
 36
1.0
 17
0.0
 27
0.0
 37
0.0
 40
253.8913711182896
 41
1.571614583333333
 42
50.0
 43
0.0
 44
0.0
 50
0.0
 51
0.0
 71
     0
 72
   100
 73
     1
 74
     1
 75
     0
 76
     0
 77
     0
 78
     0
281
     0
 65
     1
110
0.0
120
0.0
130
0.0
111
1.0
121
0.0
131
0.0
112
0.0
122
1.0
132
0.0
 79
     0
146
0.0
  0
ENDTAB
  0
TABLE
  2
LTYPE
  5
5
330
0
100
AcDbSymbolTable
 70
    50
  0
LTYPE
  5
13
330
5
100
AcDbSymbolTableRecord
100
AcDbLinetypeTableRecord
  2
ByBlock
 70
     0
  3

 72
    65
 73
     0
 40
0.0
  0
LTYPE
  5
14
330
5
100
AcDbSymbolTableRecord
100
AcDbLinetypeTableRecord
  2
ByLayer
 70
     0
  3

 72
    65
 73
     0
 40
0.0
  0
LTYPE
  5
15
330
5
100
AcDbSymbolTableRecord
100
AcDbLinetypeTableRecord
  2
CONTINUOUS
 70
     0
  3
実線
 72
    65
 73
     0
 40
0.0
  0
LTYPE
  5
22
330
5
100
AcDbSymbolTableRecord
100
AcDbLinetypeTableRecord
  2
DASHED1
 70
     0
  3
--  --  --  --  --  --  --  --  
 72
    65
 73
     2
 40
2.5
 49
1.25
 74
     0
 49
-1.25
 74
     0
  0
LTYPE
  5
23
330
5
100
AcDbSymbolTableRecord
100
AcDbLinetypeTableRecord
  2
DASHED2
 70
     0
  3
----    ----    ----    ----    
 72
    65
 73
     2
 40
5.0
 49
2.5
 74
     0
 49
-2.5
 74
     0
  0
LTYPE
  5
24
330
5
100
AcDbSymbolTableRecord
100
AcDbLinetypeTableRecord
  2
DASHED3
 70
     0
  3
------  ------  ------  ------  
 72
    65
 73
     2
 40
5.0
 49
3.75
 74
     0
 49
-1.25
 74
     0
  0
LTYPE
  5
25
330
5
100
AcDbSymbolTableRecord
100
AcDbLinetypeTableRecord
  2
CENTER1
 70
     0
  3
----- - ----- - ----- - ----- - 
 72
    65
 73
     4
 40
10.0
 49
6.25
 74
     0
 49
-1.25
 74
     0
 49
1.25
 74
     0
 49
-1.25
 74
     0
  0
LTYPE
  5
26
330
5
100
AcDbSymbolTableRecord
100
AcDbLinetypeTableRecord
  2
CENTER2
 70
     0
  3
----------  --  ----------  --  
 72
    65
 73
     4
 40
20.0
 49
12.5
 74
     0
 49
-2.5
 74
     0
 49
2.5
 74
     0
 49
-2.5
 74
     0
  0
LTYPE
  5
27
330
5
100
AcDbSymbolTableRecord
100
AcDbLinetypeTableRecord
  2
PHANTOM1
 70
     0
  3
--- - - --- - - --- - - --- - - 
 72
    65
 73
     6
 40
10.0
 49
3.25
 74
     0
 49
-1.25
 74
     0
 49
1.25
 74
     0
 49
-1.25
 74
     0
 49
1.25
 74
     0
 49
-1.25
 74
     0
  0
LTYPE
  5
28
330
5
100
AcDbSymbolTableRecord
100
AcDbLinetypeTableRecord
  2
PHANTOM2
 70
     0
  3
--------  -  -  --------  -  -  
 72
    65
 73
     6
 40
20.0
 49
10.0
 74
     0
 49
-2.5
 74
     0
 49
1.25
 74
     0
 49
-2.5
 74
     0
 49
1.25
 74
     0
 49
-2.5
 74
     0
  0
LTYPE
  5
29
330
5
100
AcDbSymbolTableRecord
100
AcDbLinetypeTableRecord
  2
DOT
 70
     0
  3
-   -   -   -   -   -   -   -   
 72
    65
 73
     2
 40
2.5
 49
0.625
 74
     0
 49
-1.875
 74
     0
  0
LTYPE
  5
2A
330
5
100
AcDbSymbolTableRecord
100
AcDbLinetypeTableRecord
  2
DUMMY
 70
     0
  3
ダミー
 72
    65
 73
     0
 40
0.0
  0
LTYPE
  5
2B
330
5
100
AcDbSymbolTableRecord
100
AcDbLinetypeTableRecord
  2
RAND1
 70
     0
  3
ランダム線1
 72
    65
 73
     4
 40
10.0
 49
1.0
 74
     0
 49
-2.0
 74
     0
 49
3.0
 74
     0
 49
-4.0
 74
     0
  0
LTYPE
  5
2C
330
5
100
AcDbSymbolTableRecord
100
AcDbLinetypeTableRecord
  2
RAND2
 70
     0
  3
ランダム線2
 72
    65
 73
     4
 40
14.0
 49
2.0
 74
     0
 49
-3.0
 74
     0
 49
4.0
 74
     0
 49
-5.0
 74
     0
  0
LTYPE
  5
2D
330
5
100
AcDbSymbolTableRecord
100
AcDbLinetypeTableRecord
  2
RAND3
 70
     0
  3
ランダム線3
 72
    65
 73
     4
 40
18.0
 49
3.0
 74
     0
 49
-4.0
 74
     0
 49
5.0
 74
     0
 49
-6.0
 74
     0
  0
LTYPE
  5
2E
330
5
100
AcDbSymbolTableRecord
100
AcDbLinetypeTableRecord
  2
RAND4
 70
     0
  3
ランダム線4
 72
    65
 73
     4
 40
22.0
 49
4.0
 74
     0
 49
-5.0
 74
     0
 49
6.0
 74
     0
 49
-7.0
 74
     0
  0
LTYPE
  5
2F
330
5
100
AcDbSymbolTableRecord
100
AcDbLinetypeTableRecord
  2
RAND5
 70
     0
  3
ランダム線5
 72
    65
 73
     4
 40
26.0
 49
5.0
 74
     0
 49
-6.0
 74
     0
 49
7.0
 74
     0
 49
-8.0
 74
     0
  0
LTYPE
  5
30
330
5
100
AcDbSymbolTableRecord
100
AcDbLinetypeTableRecord
  2
LONG1
 70
     0
  3
----------  --  ----------  --  
 72
    65
 73
     4
 40
40.0
 49
32.5
 74
     0
 49
-2.5
 74
     0
 49
2.5
 74
     0
 49
-2.5
 74
     0
  0
LTYPE
  5
31
330
5
100
AcDbSymbolTableRecord
100
AcDbLinetypeTableRecord
  2
LONG2
 70
     0
  3
--------  -  -  --------  -  -  
 72
    65
 73
     6
 40
40.0
 49
30.0
 74
     0
 49
-2.5
 74
     0
 49
1.25
 74
     0
 49
-2.5
 74
     0
 49
1.25
 74
     0
 49
-2.5
 74
     0
  0
LTYPE
  5
32
330
5
100
AcDbSymbolTableRecord
100
AcDbLinetypeTableRecord
  2
LONG3
 70
     0
  3
+++++++++++++++..+++++++++++++++
 72
    65
 73
     2
 40
40.0
 49
37.5
 74
     0
 49
-2.5
 74
     0
  0
LTYPE
  5
33
330
5
100
AcDbSymbolTableRecord
100
AcDbLinetypeTableRecord
  2
LONG4
 70
     0
  3
+++++++++++++++..+++++++++++++++
 72
    65
 73
     2
 40
80.0
 49
75.0
 74
     0
 49
-5.0
 74
     0
  0
LTYPE
  5
34
330
5
100
AcDbSymbolTableRecord
100
AcDbLinetypeTableRecord
  2
LONG5
 70
     0
  3
----------  --  ----------  --  
 72
    65
 73
     4
 40
60.0
 49
37.5
 74
     0
 49
-7.5
 74
     0
 49
7.5
 74
     0
 49
-7.5
 74
     0
  0
LTYPE
  5
35
330
5
100
AcDbSymbolTableRecord
100
AcDbLinetypeTableRecord
  2
DASHED
 70
     0
  3
-------   -------------   ------
 72
    65
 73
     2
 40
7.5
 49
6.0
 74
     0
 49
-1.5
 74
     0
  0
LTYPE
  5
36
330
5
100
AcDbSymbolTableRecord
100
AcDbLinetypeTableRecord
  2
DASHED_SPACED
 70
     0
  3
----        --------        ----
 72
    65
 73
     2
 40
12.0
 49
6.0
 74
     0
 49
-6.0
 74
     0
  0
LTYPE
  5
37
330
5
100
AcDbSymbolTableRecord
100
AcDbLinetypeTableRecord
  2
LONG_DASHED_DOTTED
 70
     0
  3
------------- --- --------------
 72
    65
 73
     4
 40
15.25
 49
12.0
 74
     0
 49
-1.5
 74
     0
 49
0.25
 74
     0
 49
-1.5
 74
     0
  0
LTYPE
  5
38
330
5
100
AcDbSymbolTableRecord
100
AcDbLinetypeTableRecord
  2
LONG_DASHED_DOUBLE-DOTTED
 70
     0
  3
----------- --- --- ------------
 72
    65
 73
     6
 40
17.0
 49
12.0
 74
     0
 49
-1.5
 74
     0
 49
0.25
 74
     0
 49
-1.5
 74
     0
 49
0.25
 74
     0
 49
-1.5
 74
     0
  0
LTYPE
  5
39
330
5
100
AcDbSymbolTableRecord
100
AcDbLinetypeTableRecord
  2
LONG_DASHED_TRIPLICATE-DOTTED
 70
     0
  3
--------- --- --- --- ----------
 72
    65
 73
     8
 40
18.75
 49
12.0
 74
     0
 49
-1.5
 74
     0
 49
0.25
 74
     0
 49
-1.5
 74
     0
 49
0.25
 74
     0
 49
-1.5
 74
     0
 49
0.25
 74
     0
 49
-1.5
 74
     0
  0
LTYPE
  5
3A
330
5
100
AcDbSymbolTableRecord
100
AcDbLinetypeTableRecord
  2
DOTTED
 70
     0
  3
   -       -       -       -    
 72
    65
 73
     2
 40
1.75
 49
0.25
 74
     0
 49
-1.5
 74
     0
  0
LTYPE
  5
3B
330
5
100
AcDbSymbolTableRecord
100
AcDbLinetypeTableRecord
  2
CHAIN
 70
     0
  3
-------------- -- --------------
 72
    65
 73
     4
 40
18.5
 49
12.0
 74
     0
 49
-1.5
 74
     0
 49
3.5
 74
     0
 49
-1.5
 74
     0
  0
LTYPE
  5
3C
330
5
100
AcDbSymbolTableRecord
100
AcDbLinetypeTableRecord
  2
CHAIN_DOUBLE_DASH
 70
     0
  3
------------ -- -- -------------
 72
    65
 73
     6
 40
23.5
 49
12.0
 74
     0
 49
-1.5
 74
     0
 49
3.5
 74
     0
 49
-1.5
 74
     0
 49
3.5
 74
     0
 49
-1.5
 74
     0
  0
LTYPE
  5
3D
330
5
100
AcDbSymbolTableRecord
100
AcDbLinetypeTableRecord
  2
DASHED_DOTTED
 70
     0
  3
-----------     -     ----------
 72
    65
 73
     4
 40
9.25
 49
6.0
 74
     0
 49
-1.5
 74
     0
 49
0.25
 74
     0
 49
-1.5
 74
     0
  0
LTYPE
  5
3E
330
5
100
AcDbSymbolTableRecord
100
AcDbLinetypeTableRecord
  2
DOUBLE-DASHED_DOTTED
 70
     0
  3
------   -----------   -   -----
 72
    65
 73
     6
 40
16.75
 49
6.0
 74
     0
 49
-1.5
 74
     0
 49
6.0
 74
     0
 49
-1.5
 74
     0
 49
0.25
 74
     0
 49
-1.5
 74
     0
  0
LTYPE
  5
3F
330
5
100
AcDbSymbolTableRecord
100
AcDbLinetypeTableRecord
  2
DASHED_DOUBLE-DOTTED
 70
     0
  3
---------    -    -    ---------
 72
    65
 73
     6
 40
11.0
 49
6.0
 74
     0
 49
-1.5
 74
     0
 49
0.25
 74
     0
 49
-1.5
 74
     0
 49
0.25
 74
     0
 49
-1.5
 74
     0
  0
LTYPE
  5
40
330
5
100
AcDbSymbolTableRecord
100
AcDbLinetypeTableRecord
  2
DOUBLE-DASHED_DOUBLE-DOTTED
 70
     0
  3
-----   ---------   -   -   ----
 72
    65
 73
     8
 40
18.5
 49
6.0
 74
     0
 49
-1.5
 74
     0
 49
6.0
 74
     0
 49
-1.5
 74
     0
 49
0.25
 74
     0
 49
-1.5
 74
     0
 49
0.25
 74
     0
 49
-1.5
 74
     0
  0
LTYPE
  5
41
330
5
100
AcDbSymbolTableRecord
100
AcDbLinetypeTableRecord
  2
DASHED_TRIPLICATE-DOTTED
 70
     0
  3
-------    -    -    -    ------
 72
    65
 73
     8
 40
12.75
 49
6.0
 74
     0
 49
-1.5
 74
     0
 49
0.25
 74
     0
 49
-1.5
 74
     0
 49
0.25
 74
     0
 49
-1.5
 74
     0
 49
0.25
 74
     0
 49
-1.5
 74
     0
  0
LTYPE
  5
42
330
5
100
AcDbSymbolTableRecord
100
AcDbLinetypeTableRecord
  2
DOUBLE-DASHED_TRIPLICATE-DOTTED
 70
     0
  3
-----  ---------  -  -  -  -----
 72
    65
 73
    10
 40
20.25
 49
6.0
 74
     0
 49
-1.5
 74
     0
 49
6.0
 74
     0
 49
-1.5
 74
     0
 49
0.25
 74
     0
 49
-1.5
 74
     0
 49
0.25
 74
     0
 49
-1.5
 74
     0
 49
0.25
 74
     0
 49
-1.5
 74
     0
  0
LTYPE
  5
43
330
5
100
AcDbSymbolTableRecord
100
AcDbLinetypeTableRecord
  2
UNDEFINED
 70
     0
  3
--------------------------------
 72
    65
 73
     0
 40
0.0
  0
LTYPE
  5
44
330
5
100
AcDbSymbolTableRecord
100
AcDbLinetypeTableRecord
  2
PLINE2
 70
     0
  3
------     -----------     -----
 72
    65
 73
     2
 40
3.0
 49
2.1
 74
     0
 49
-0.9
 74
     0
  0
LTYPE
  5
45
330
5
100
AcDbSymbolTableRecord
100
AcDbLinetypeTableRecord
  2
PLINE3
 70
     0
  3
------------   ---   -----------
 72
    65
 73
     4
 40
10.0
 49
7.0
 74
     0
 49
-1.0
 74
     0
 49
1.0
 74
     0
 49
-1.0
 74
     0
  0
LTYPE
  5
46
330
5
100
AcDbSymbolTableRecord
100
AcDbLinetypeTableRecord
  2
PLINE4
 70
     0
  3
---------   ---   ---   --------
 72
    65
 73
     6
 40
10.0
 49
5.0
 74
     0
 49
-1.0
 74
     0
 49
1.0
 74
     0
 49
-1.0
 74
     0
 49
1.0
 74
     0
 49
-1.0
 74
     0
  0
LTYPE
  5
47
330
5
100
AcDbSymbolTableRecord
100
AcDbLinetypeTableRecord
  2
PLINE5
 70
     0
  3
------     -----------     -----
 72
    65
 73
     2
 40
5.0
 49
3.5
 74
     0
 49
-1.5
 74
     0
  0
LTYPE
  5
48
330
5
100
AcDbSymbolTableRecord
100
AcDbLinetypeTableRecord
  2
PLINE6
 70
     0
  3
------------   ---   -----------
 72
    65
 73
     4
 40
15.0
 49
10.5
 74
     0
 49
-1.5
 74
     0
 49
1.5
 74
     0
 49
-1.5
 74
     0
  0
LTYPE
  5
49
330
5
100
AcDbSymbolTableRecord
100
AcDbLinetypeTableRecord
  2
PLINE7
 70
     0
  3
---------   ---   ---   --------
 72
    65
 73
     6
 40
15.0
 49
7.5
 74
     0
 49
-1.5
 74
     0
 49
1.5
 74
     0
 49
-1.5
 74
     0
 49
1.5
 74
     0
 49
-1.5
 74
     0
  0
LTYPE
  5
4A
330
5
100
AcDbSymbolTableRecord
100
AcDbLinetypeTableRecord
  2
PLINE8
 70
     0
  3
------     -----------     -----
 72
    65
 73
     2
 40
7.0
 49
4.9
 74
     0
 49
-2.1
 74
     0
  0
LTYPE
  5
4B
330
5
100
AcDbSymbolTableRecord
100
AcDbLinetypeTableRecord
  2
PLINE9
 70
     0
  3
------------   ---   -----------
 72
    65
 73
     4
 40
20.0
 49
14.0
 74
     0
 49
-2.0
 74
     0
 49
2.0
 74
     0
 49
-2.0
 74
     0
  0
LTYPE
  5
4C
330
5
100
AcDbSymbolTableRecord
100
AcDbLinetypeTableRecord
  2
PLINE10
 70
     0
  3
---------   ---   ---   --------
 72
    65
 73
     6
 40
20.0
 49
10.0
 74
     0
 49
-2.0
 74
     0
 49
2.0
 74
     0
 49
-2.0
 74
     0
 49
2.0
 74
     0
 49
-2.0
 74
     0
  0
LTYPE
  5
4D
330
5
100
AcDbSymbolTableRecord
100
AcDbLinetypeTableRecord
  2
PLINE11
 70
     0
  3
------     -----------     -----
 72
    65
 73
     2
 40
9.0
 49
6.299999999999999
 74
     0
 49
-2.7
 74
     0
  0
LTYPE
  5
4E
330
5
100
AcDbSymbolTableRecord
100
AcDbLinetypeTableRecord
  2
PLINE12
 70
     0
  3
------------   ---   -----------
 72
    65
 73
     4
 40
25.0
 49
17.5
 74
     0
 49
-2.5
 74
     0
 49
2.5
 74
     0
 49
-2.5
 74
     0
  0
LTYPE
  5
4F
330
5
100
AcDbSymbolTableRecord
100
AcDbLinetypeTableRecord
  2
PLINE13
 70
     0
  3
---------   ---   ---   --------
 72
    65
 73
     6
 40
25.0
 49
12.5
 74
     0
 49
-2.5
 74
     0
 49
2.5
 74
     0
 49
-2.5
 74
     0
 49
2.5
 74
     0
 49
-2.5
 74
     0
  0
LTYPE
  5
50
330
5
100
AcDbSymbolTableRecord
100
AcDbLinetypeTableRecord
  2
PLINE14
 70
     0
  3
------     -----------     -----
 72
    65
 73
     2
 40
11.0
 49
7.7
 74
     0
 49
-3.299999999999999
 74
     0
  0
LTYPE
  5
51
330
5
100
AcDbSymbolTableRecord
100
AcDbLinetypeTableRecord
  2
PLINE15
 70
     0
  3
------------   ---   -----------
 72
    65
 73
     4
 40
30.0
 49
21.0
 74
     0
 49
-3.0
 74
     0
 49
3.0
 74
     0
 49
-3.0
 74
     0
  0
LTYPE
  5
52
330
5
100
AcDbSymbolTableRecord
100
AcDbLinetypeTableRecord
  2
PLINE16
 70
     0
  3
---------   ---   ---   --------
 72
    65
 73
     6
 40
30.0
 49
15.0
 74
     0
 49
-3.0
 74
     0
 49
3.0
 74
     0
 49
-3.0
 74
     0
 49
3.0
 74
     0
 49
-3.0
 74
     0
  0
ENDTAB
  0
TABLE
  2
LAYER
  5
2
102
{ACAD_XDICTIONARY
360
175
102
}
330
0
100
AcDbSymbolTable
 70
     5
  0
LAYER
  5
10
330
2
100
AcDbSymbolTableRecord
100
AcDbLayerTableRecord
  2
0
 70
     0
 62
     7
  6
CONTINUOUS
370
    -3
390
F
  0
LAYER
  5
128
330
2
100
AcDbSymbolTableRecord
100
AcDbLayerTableRecord
  2
Defpoints
 70
     0
 62
     7
  6
CONTINUOUS
290
     0
370
    -3
390
F
  0
LAYER
  5
179
330
2
100
AcDbSymbolTableRecord
100
AcDbLayerTableRecord
  2
製品
 70
     0
 62
     7
  6
CONTINUOUS
370
    -3
390
F
  0
LAYER
  5
6B4B
330
2
100
AcDbSymbolTableRecord
100
AcDbLayerTableRecord
  2
図面枠
 70
     0
 62
     7
  6
CONTINUOUS
370
    -3
390
F
  0
LAYER
  5
75CB
330
2
100
AcDbSymbolTableRecord
100
AcDbLayerTableRecord
  2
寸法
 70
     0
 62
     7
  6
CONTINUOUS
370
    -3
390
F
  0
ENDTAB
  0
TABLE
  2
STYLE
  5
3
330
0
100
AcDbSymbolTable
 70
     4
  0
STYLE
  5
11
330
3
100
AcDbSymbolTableRecord
100
AcDbTextStyleTableRecord
  2
STANDARD
 70
     0
 40
0.0
 41
1.0
 50
0.0
 71
     0
 42
0.2
  3
txt
  4
bigfont.shx
  0
STYLE
  5
53
330
3
100
AcDbSymbolTableRecord
100
AcDbTextStyleTableRecord
  2
TATEGAKI
 70
     4
 40
0.0
 41
1.0
 50
0.0
 71
     0
 42
1.0
  3
txt
  4
bigfont.shx
  0
STYLE
  5
123
330
3
100
AcDbSymbolTableRecord
100
AcDbTextStyleTableRecord
  2
ACAD
 70
     0
 40
3.0
 41
0.8
 50
0.0
 71
     0
 42
5.0
  3
romans.shx
  4
extfont.shx
  0
STYLE
  5
3A5F
330
3
100
AcDbSymbolTableRecord
100
AcDbTextStyleTableRecord
  2
VERTXT
 70
     4
 40
0.0
 41
0.8582679999999999
 50
0.0
 71
     0
 42
3.5
  3
txt.shx
  4
BIGFONT
  0
ENDTAB
  0
TABLE
  2
VIEW
  5
6
330
0
100
AcDbSymbolTable
 70
     0
  0
ENDTAB
  0
TABLE
  2
UCS
  5
7
330
0
100
AcDbSymbolTable
 70
     0
  0
ENDTAB
  0
TABLE
  2
APPID
  5
9
330
0
100
AcDbSymbolTable
 70
     1
  0
APPID
  5
12
330
9
100
AcDbSymbolTableRecord
100
AcDbRegAppTableRecord
  2
ACAD
 70
     0
  0
ENDTAB
  0
TABLE
  2
DIMSTYLE
  5
A
330
0
100
AcDbSymbolTable
 70
     3
100
AcDbDimStyleTable
 71
     1
340
126
  0
DIMSTYLE
105
11C
330
A
100
AcDbSymbolTableRecord
100
AcDbDimStyleTableRecord
  2
Standard
 70
     0
340
11
  0
DIMSTYLE
105
126
102
{ACAD_REACTORS
330
75CC
330
75D9
330
75F8
102
}
330
A
100
AcDbSymbolTableRecord
100
AcDbDimStyleTableRecord
  2
AutoCAD
 70
     0
 41
1.0
 42
0.0
 44
0.0
 73
     0
 77
     1
140
3.0
147
1.0
174
     1
176
     4
177
     4
178
     3
271
     0
272
     0
289
     0
340
123
341
15B0
342
11E
  0
DIMSTYLE
105
2CBB
330
A
100
AcDbSymbolTableRecord
100
AcDbDimStyleTableRecord
  2
111
 70
     0
 41
1.0
 42
0.0
 44
0.0
 73
     0
 77
     1
140
5.0
147
1.0
174
     1
176
     4
177
     4
178
     3
271
     0
272
     0
289
     0
340
123
341
15B0
342
2CB5
  0
ENDTAB
  0
TABLE
  2
BLOCK_RECORD
  5
1
330
0
100
AcDbSymbolTable
 70
     7
  0
BLOCK_RECORD
  5
1E
102
{ACAD_XDICTIONARY
360
28B
102
}
330
1
100
AcDbSymbolTableRecord
100
AcDbBlockTableRecord
  2
*Model_Space
340
21
  0
BLOCK_RECORD
  5
1A
102
{ACAD_XDICTIONARY
360
28D
102
}
330
1
100
AcDbSymbolTableRecord
100
AcDbBlockTableRecord
  2
*Paper_Space
340
1D
  0
BLOCK_RECORD
  5
11E
330
1
100
AcDbSymbolTableRecord
100
AcDbBlockTableRecord
  2
_Dot
340
0
102
{BLKREFS
331
76C5
331
76C6
331
76CE
331
76CF
331
76D7
331
76D8
102
}
  0
BLOCK_RECORD
  5
15B0
330
1
100
AcDbSymbolTableRecord
100
AcDbBlockTableRecord
  2
_None
340
0
  0
BLOCK_RECORD
  5
2CB5
330
1
100
AcDbSymbolTableRecord
100
AcDbBlockTableRecord
  2
_Open30
340
0
  0
BLOCK_RECORD
  5
35E3
330
1
100
AcDbSymbolTableRecord
100
AcDbBlockTableRecord
  2
_DotBlank
340
0
  0
BLOCK_RECORD
  5
75CD
330
1
100
AcDbSymbolTableRecord
100
AcDbBlockTableRecord
  2
*D4
340
0
  0
BLOCK_RECORD
  5
75DA
330
1
100
AcDbSymbolTableRecord
100
AcDbBlockTableRecord
  2
*D5
340
0
  0
BLOCK_RECORD
  5
75F9
330
1
100
AcDbSymbolTableRecord
100
AcDbBlockTableRecord
  2
*D6
340
0
  0
ENDTAB
  0
ENDSEC
  0
SECTION
  2
BLOCKS
  0
BLOCK
  5
1F
330
1E
100
AcDbEntity
  8
0
100
AcDbBlockBegin
  2
*Model_Space
 70
     0
 10
0.0
 20
0.0
 30
0.0
  3
*Model_Space
  1

  0
ENDBLK
  5
20
330
1E
100
AcDbEntity
  8
0
100
AcDbBlockEnd
  0
BLOCK
  5
1B
330
1A
100
AcDbEntity
 67
     1
  8
0
100
AcDbBlockBegin
  2
*Paper_Space
 70
     0
 10
0.0
 20
0.0
 30
0.0
  3
*Paper_Space
  1

  0
ENDBLK
  5
1C
330
1A
100
AcDbEntity
 67
     1
  8
0
100
AcDbBlockEnd
  0
BLOCK
  5
121
330
11E
100
AcDbEntity
  8
0
100
AcDbBlockBegin
  2
_Dot
 70
     0
 10
0.0
 20
0.0
 30
0.0
  3
_Dot
  1

  0
LWPOLYLINE
  5
11F
330
11E
100
AcDbEntity
  8
0
  6
ByBlock
 62
     0
100
AcDbPolyline
 90
        2
 70
     1
 43
0.5
 10
-0.25
 20
0.0
 42
1.0
 10
0.25
 20
0.0
 42
1.0
  0
LINE
  5
120
330
11E
100
AcDbEntity
  8
0
  6
ByBlock
 62
     0
370
    -2
100
AcDbLine
 10
-0.5
 20
0.0
 30
0.0
 11
-1.0
 21
0.0
 31
0.0
  0
ENDBLK
  5
122
330
11E
100
AcDbEntity
  8
0
100
AcDbBlockEnd
  0
BLOCK
  5
15B1
330
15B0
100
AcDbEntity
  8
0
100
AcDbBlockBegin
  2
_None
 70
     0
 10
0.0
 20
0.0
 30
0.0
  3
_None
  1

  0
ENDBLK
  5
15B2
330
15B0
100
AcDbEntity
  8
0
100
AcDbBlockEnd
  0
BLOCK
  5
2CB9
330
2CB5
100
AcDbEntity
  8
0
100
AcDbBlockBegin
  2
_Open30
 70
     0
 10
0.0
 20
0.0
 30
0.0
  3
_Open30
  1

  0
LINE
  5
2CB6
330
2CB5
100
AcDbEntity
  8
0
  6
ByBlock
 62
     0
370
    -2
100
AcDbLine
 10
-1.0
 20
0.26794919
 30
0.0
 11
0.0
 21
0.0
 31
0.0
  0
LINE
  5
2CB7
330
2CB5
100
AcDbEntity
  8
0
  6
ByBlock
 62
     0
370
    -2
100
AcDbLine
 10
0.0
 20
0.0
 30
0.0
 11
-1.0
 21
-0.26794919
 31
0.0
  0
LINE
  5
2CB8
330
2CB5
100
AcDbEntity
  8
0
  6
ByBlock
 62
     0
370
    -2
100
AcDbLine
 10
0.0
 20
0.0
 30
0.0
 11
-1.0
 21
0.0
 31
0.0
  0
ENDBLK
  5
2CBA
330
2CB5
100
AcDbEntity
  8
0
100
AcDbBlockEnd
  0
BLOCK
  5
35E6
330
35E3
100
AcDbEntity
  8
0
100
AcDbBlockBegin
  2
_DotBlank
 70
     0
 10
0.0
 20
0.0
 30
0.0
  3
_DotBlank
  1

  0
CIRCLE
  5
35E4
330
35E3
100
AcDbEntity
  8
0
  6
ByBlock
 62
     0
370
    -2
100
AcDbCircle
 10
0.0
 20
0.0
 30
0.0
 40
0.5
  0
LINE
  5
35E5
330
35E3
100
AcDbEntity
  8
0
  6
ByBlock
 62
     0
370
    -2
100
AcDbLine
 10
-0.5
 20
0.0
 30
0.0
 11
-1.0
 21
0.0
 31
0.0
  0
ENDBLK
  5
35E7
330
35E3
100
AcDbEntity
  8
0
100
AcDbBlockEnd
  0
BLOCK
  5
75D7
330
75CD
100
AcDbEntity
  8
0
100
AcDbBlockBegin
  2
*D4
 70
     1
 10
0.0
 20
0.0
 30
0.0
  3
*D4
  1

  0
LINE
  5
76C2
330
75CD
100
AcDbEntity
  8
寸法
  6
Continuous
 62
     4
370
    -2
100
AcDbLine
 10
154.5926408554269
 20
184.6469964802393
 30
0.0
 11
154.5926408554269
 21
175.3469964802393
 31
0.0
  0
LINE
  5
76C3
330
75CD
100
AcDbEntity
  8
寸法
  6
Continuous
 62
     4
370
    -2
100
AcDbLine
 10
201.1926408554268
 20
184.6469964802393
 30
0.0
 11
201.1926408554268
 21
175.3469964802393
 31
0.0
  0
LINE
  5
76C4
330
75CD
100
AcDbEntity
  8
寸法
  6
Continuous
 62
     4
370
    -2
100
AcDbLine
 10
155.5926408554269
 20
175.3469964802393
 30
0.0
 11
200.1926408554268
 21
175.3469964802393
 31
0.0
  0
INSERT
  5
76C5
330
75CD
100
AcDbEntity
  8
寸法
  6
Continuous
 62
     4
370
    -2
100
AcDbBlockReference
  2
_Dot
 10
154.5926408554269
 20
175.3469964802393
 30
0.0
 50
180.0
  0
INSERT
  5
76C6
330
75CD
100
AcDbEntity
  8
寸法
  6
Continuous
 62
     4
370
    -2
100
AcDbBlockReference
  2
_Dot
 10
201.1926408554268
 20
175.3469964802393
 30
0.0
  0
MTEXT
  5
76C7
330
75CD
100
AcDbEntity
  8
寸法
  6
Continuous
 62
     3
100
AcDbMText
 10
177.8926408554268
 20
177.8469964802393
 30
0.0
 40
3.0
 41
0.0
 71
     5
 72
     1
  1
\A1;L
  7
ACAD
 73
     1
 44
1.0
1001
ACAD
1000
MTEXTBEGIN
1070
    73
1070
     1
1070
    44
1040
1.0
1070
    74
1070
     0
1000
MTEXTEND
  0
POINT
  5
76C8
330
75CD
100
AcDbEntity
  8
Defpoints
  6
Continuous
 62
     0
100
AcDbPoint
 10
154.5926408554269
 20
184.6469964802393
 30
0.0
  0
POINT
  5
76C9
330
75CD
100
AcDbEntity
  8
Defpoints
  6
Continuous
 62
     0
100
AcDbPoint
 10
201.1926408554268
 20
184.6469964802393
 30
0.0
  0
POINT
  5
76CA
330
75CD
100
AcDbEntity
  8
Defpoints
  6
Continuous
 62
     0
100
AcDbPoint
 10
201.1926408554268
 20
175.3469964802393
 30
0.0
  0
ENDBLK
  5
75D8
330
75CD
100
AcDbEntity
  8
0
100
AcDbBlockEnd
  0
BLOCK
  5
75E4
330
75DA
100
AcDbEntity
  8
0
100
AcDbBlockBegin
  2
*D5
 70
     1
 10
0.0
 20
0.0
 30
0.0
  3
*D5
  1

  0
LINE
  5
76CB
330
75DA
100
AcDbEntity
  8
寸法
  6
Continuous
 62
     4
370
    -2
100
AcDbLine
 10
154.5926408554269
 20
139.2197964802392
 30
0.0
 11
154.5926408554269
 21
128.2197964802392
 31
0.0
  0
LINE
  5
76CC
330
75DA
100
AcDbEntity
  8
寸法
  6
Continuous
 62
     4
370
    -2
100
AcDbLine
 10
201.1926408554268
 20
139.2197964802392
 30
0.0
 11
201.1926408554268
 21
128.2197964802392
 31
0.0
  0
LINE
  5
76CD
330
75DA
100
AcDbEntity
  8
寸法
  6
Continuous
 62
     4
370
    -2
100
AcDbLine
 10
155.5926408554269
 20
128.2197964802392
 30
0.0
 11
200.1926408554268
 21
128.2197964802392
 31
0.0
  0
INSERT
  5
76CE
330
75DA
100
AcDbEntity
  8
寸法
  6
Continuous
 62
     4
370
    -2
100
AcDbBlockReference
  2
_Dot
 10
154.5926408554269
 20
128.2197964802392
 30
0.0
 50
180.0
  0
INSERT
  5
76CF
330
75DA
100
AcDbEntity
  8
寸法
  6
Continuous
 62
     4
370
    -2
100
AcDbBlockReference
  2
_Dot
 10
201.1926408554268
 20
128.2197964802392
 30
0.0
  0
MTEXT
  5
76D0
330
75DA
100
AcDbEntity
  8
寸法
  6
Continuous
 62
     3
100
AcDbMText
 10
177.8926408554268
 20
130.7197964802392
 30
0.0
 40
3.0
 41
0.0
 71
     5
 72
     1
  1
\A1;W
  7
ACAD
 73
     1
 44
1.0
1001
ACAD
1000
MTEXTBEGIN
1070
    73
1070
     1
1070
    44
1040
1.0
1070
    74
1070
     0
1000
MTEXTEND
  0
POINT
  5
76D1
330
75DA
100
AcDbEntity
  8
Defpoints
  6
Continuous
 62
     0
100
AcDbPoint
 10
154.5926408554269
 20
139.2197964802392
 30
0.0
  0
POINT
  5
76D2
330
75DA
100
AcDbEntity
  8
Defpoints
  6
Continuous
 62
     0
100
AcDbPoint
 10
201.1926408554268
 20
139.2197964802392
 30
0.0
  0
POINT
  5
76D3
330
75DA
100
AcDbEntity
  8
Defpoints
  6
Continuous
 62
     0
100
AcDbPoint
 10
201.1926408554268
 20
128.2197964802392
 30
0.0
  0
ENDBLK
  5
75E5
330
75DA
100
AcDbEntity
  8
0
100
AcDbBlockEnd
  0
BLOCK
  5
7603
330
75F9
100
AcDbEntity
  8
0
100
AcDbBlockBegin
  2
*D6
 70
     1
 10
0.0
 20
0.0
 30
0.0
  3
*D6
  1

  0
LINE
  5
76D4
330
75F9
100
AcDbEntity
  8
寸法
  6
Continuous
 62
     4
370
    -2
100
AcDbLine
 10
154.3926408554268
 20
291.7175294802394
 30
0.0
 11
154.3926408554268
 21
289.4777715036721
 31
0.0
  0
LINE
  5
76D5
330
75F9
100
AcDbEntity
  8
寸法
  6
Continuous
 62
     4
370
    -2
100
AcDbLine
 10
201.3926408554269
 20
291.7175294802394
 30
0.0
 11
201.3926408554269
 21
289.4777715036721
 31
0.0
  0
LINE
  5
76D6
330
75F9
100
AcDbEntity
  8
寸法
  6
Continuous
 62
     4
370
    -2
100
AcDbLine
 10
155.3926408554268
 20
289.4777715036721
 30
0.0
 11
200.3926408554268
 21
289.4777715036721
 31
0.0
  0
INSERT
  5
76D7
330
75F9
100
AcDbEntity
  8
寸法
  6
Continuous
 62
     4
370
    -2
100
AcDbBlockReference
  2
_Dot
 10
154.3926408554268
 20
289.4777715036721
 30
0.0
 50
180.0
  0
INSERT
  5
76D8
330
75F9
100
AcDbEntity
  8
寸法
  6
Continuous
 62
     4
370
    -2
100
AcDbBlockReference
  2
_Dot
 10
201.3926408554269
 20
289.4777715036721
 30
0.0
  0
MTEXT
  5
76D9
330
75F9
100
AcDbEntity
  8
寸法
  6
Continuous
 62
     3
100
AcDbMText
 10
177.8926408554268
 20
291.9777715036721
 30
0.0
 40
3.0
 41
0.0
 71
     5
 72
     1
  1
\A1;L
  7
ACAD
 73
     1
 44
1.0
1001
ACAD
1000
MTEXTBEGIN
1070
    73
1070
     1
1070
    44
1040
1.0
1070
    74
1070
     0
1000
MTEXTEND
  0
POINT
  5
76DA
330
75F9
100
AcDbEntity
  8
Defpoints
  6
Continuous
 62
     0
100
AcDbPoint
 10
154.3926408554268
 20
291.7175294802394
 30
0.0
  0
POINT
  5
76DB
330
75F9
100
AcDbEntity
  8
Defpoints
  6
Continuous
 62
     0
100
AcDbPoint
 10
201.3926408554269
 20
291.7175294802394
 30
0.0
  0
POINT
  5
76DC
330
75F9
100
AcDbEntity
  8
Defpoints
  6
Continuous
 62
     0
100
AcDbPoint
 10
201.3926408554269
 20
289.4777715036721
 30
0.0
  0
ENDBLK
  5
7604
330
75F9
100
AcDbEntity
  8
0
100
AcDbBlockEnd
  0
ENDSEC
  0
SECTION
  2
ENTITIES
  0
LINE
  5
7068
330
1E
100
AcDbEntity
  8
図面枠
  6
Continuous
 62
     2
100
AcDbLine
 10
177.8926408554268
 20
356.7175294802394
 30
0.0
 11
167.8926408554268
 21
361.7175294802394
 31
0.0
  0
LINE
  5
7069
330
1E
100
AcDbEntity
  8
図面枠
  6
Continuous
 62
     2
100
AcDbLine
 10
167.8926408554268
 20
361.7175294802394
 30
0.0
 11
177.8926408554268
 21
361.7175294802394
 31
0.0
  0
TEXT
  5
706A
330
1E
100
AcDbEntity
  8
図面枠
  6
Continuous
 62
     2
100
AcDbText
 10
171.756463855427
 20
363.6379504802392
 30
0.0
 40
3.0
  1
Ｂ
 41
0.8
  7
ACAD
100
AcDbText
  0
LINE
  5
706B
330
1E
100
AcDbEntity
  8
製品
  6
Continuous
 62
     2
100
AcDbLine
 10
172.409884855427
 20
332.7175294802394
 30
0.0
 11
174.909884855427
 21
330.2175294802394
 31
0.0
  0
LINE
  5
706C
330
1E
100
AcDbEntity
  8
製品
  6
Continuous
 62
     2
100
AcDbLine
 10
173.8240988554269
 20
332.7175294802394
 30
0.0
 11
176.3240988554269
 21
330.2175294802394
 31
0.0
  0
LINE
  5
706D
330
1E
100
AcDbEntity
  8
製品
  6
Continuous
 62
     2
100
AcDbLine
 10
172.409884855427
 20
273.2175294802394
 30
0.0
 11
174.909884855427
 21
270.7175294802393
 31
0.0
  0
LINE
  5
706E
330
1E
100
AcDbEntity
  8
製品
  6
Continuous
 62
     2
100
AcDbLine
 10
173.8240988554269
 20
273.2175294802394
 30
0.0
 11
176.3240988554269
 21
270.7175294802393
 31
0.0
  0
LINE
  5
706F
330
1E
100
AcDbEntity
  8
図面枠
  6
Continuous
 62
     2
100
AcDbLine
 10
177.8926408554268
 20
246.7175294802394
 30
0.0
 11
167.8926408554268
 21
241.7175294802394
 31
0.0
  0
LINE
  5
7070
330
1E
100
AcDbEntity
  8
図面枠
  6
Continuous
 62
     2
100
AcDbLine
 10
167.8926408554268
 20
241.7175294802394
 30
0.0
 11
177.8926408554268
 21
241.7175294802394
 31
0.0
  0
TEXT
  5
7071
330
1E
100
AcDbEntity
  8
図面枠
  6
Continuous
 62
     2
100
AcDbText
 10
172.3294008554269
 20
236.3542214802394
 30
0.0
 40
3.0
  1
Ｂ
 41
0.8
  7
ACAD
100
AcDbText
  0
LINE
  5
7073
330
1E
100
AcDbEntity
  8
製品
  6
Continuous
 62
     4
100
AcDbLine
 10
199.492640855427
 20
143.669796480239
 30
0.0
 11
156.2926408554269
 21
143.669796480239
 31
0.0
  0
LINE
  5
7074
330
1E
100
AcDbEntity
  8
製品
  6
Continuous
 62
     4
100
AcDbLine
 10
149.6426408554268
 20
147.1197964802388
 30
0.0
 11
206.1426408554269
 21
147.1197964802388
 31
0.0
  0
TEXT
  5
7075
330
1E
100
AcDbEntity
  8
図面枠
  6
Continuous
 62
     2
100
AcDbText
 10
157.908532855427
 20
158.1197924802393
 30
0.0
 40
3.0
  1
補強野縁
 50
0.0000029999846689
 41
0.8
  7
ACAD
100
AcDbText
  0
LINE
  5
7076
330
1E
100
AcDbEntity
  8
製品
  6
Continuous
 62
     4
100
AcDbLine
 10
156.6526408554268
 20
186.8469964802391
 30
0.0
 11
199.1326408554268
 21
186.8469964802391
 31
0.0
  0
LINE
  5
7077
330
1E
100
AcDbEntity
  8
製品
  6
Continuous
 62
     4
100
AcDbLine
 10
156.6526408554268
 20
185.6469964802393
 30
0.0
 11
199.1326408554268
 21
185.6469964802393
 31
0.0
  0
LINE
  5
7078
330
1E
100
AcDbEntity
  8
製品
  6
Continuous
 62
     4
100
AcDbLine
 10
156.2926408554269
 20
189.0969964802391
 30
0.0
 11
199.492640855427
 21
189.0969964802391
 31
0.0
  0
LINE
  5
7079
330
1E
100
AcDbEntity
  8
製品
  6
Continuous
 62
     4
100
AcDbLine
 10
199.1326408554268
 20
141.419796480239
 30
0.0
 11
156.6526408554268
 21
141.419796480239
 31
0.0
  0
LINE
  5
707A
330
1E
100
AcDbEntity
  8
製品
  6
Continuous
 62
     4
100
AcDbLine
 10
156.6526408554268
 20
140.2197964802392
 30
0.0
 11
199.1326408554268
 21
140.2197964802392
 31
0.0
  0
LINE
  5
707D
330
1E
100
AcDbEntity
  8
製品
  6
Continuous
 62
     4
100
AcDbLine
 10
117.8926408554268
 20
254.7675294802395
 30
0.0
 11
237.8926408554268
 21
254.7675294802395
 31
0.0
  0
LINE
  5
707E
330
1E
100
AcDbEntity
  8
製品
  6
Continuous
 62
     4
100
AcDbLine
 10
117.8926408554268
 20
257.2675294802396
 30
0.0
 11
237.8926408554268
 21
257.2675294802396
 31
0.0
  0
LINE
  5
707F
330
1E
100
AcDbEntity
  8
製品
  6
Continuous
 62
     4
100
AcDbLine
 10
232.8926408554269
 20
270.7175294802393
 30
0.0
 11
122.8926408554268
 21
270.7175294802393
 31
0.0
  0
LINE
  5
7080
330
1E
100
AcDbEntity
  8
製品
  6
Continuous
 62
     4
100
AcDbLine
 10
122.8926408554268
 20
273.2175294802394
 30
0.0
 11
232.8926408554269
 21
273.2175294802394
 31
0.0
  0
LINE
  5
7081
330
1E
100
AcDbEntity
  8
製品
  6
Continuous
 62
     2
100
AcDbLine
 10
155.992640855427
 20
279.8175294802397
 30
0.0
 11
199.7926408554269
 21
279.8175294802397
 31
0.0
  0
LINE
  5
7082
330
1E
100
AcDbEntity
  8
製品
  6
Continuous
 62
     4
100
AcDbLine
 10
157.0546408554269
 20
280.8795294802396
 30
0.0
 11
198.7306408554268
 21
280.8795294802396
 31
0.0
  0
LINE
  5
7083
330
1E
100
AcDbEntity
  8
図面枠
  6
PLINE3
 62
     2
100
AcDbLine
 10
112.8926408554268
 20
301.7175294802393
 30
0.0
 11
242.8926408554269
 21
301.7175294802393
 31
0.0
  0
LINE
  5
7084
330
1E
100
AcDbEntity
  8
製品
  6
Continuous
 62
     4
100
AcDbLine
 10
154.3926408554268
 20
278.2175294802394
 30
0.0
 11
201.3926408554269
 21
278.2175294802394
 31
0.0
  0
LINE
  5
7085
330
1E
100
AcDbEntity
  8
製品
  6
Continuous
 62
     2
100
AcDbLine
 10
154.3926408554268
 20
278.2175294802394
 30
0.0
 11
201.3926408554269
 21
325.2175294802394
 31
0.0
  0
LINE
  5
7086
330
1E
100
AcDbEntity
  8
製品
  6
Continuous
 62
     2
100
AcDbLine
 10
154.3926408554268
 20
325.2175294802394
 30
0.0
 11
201.3926408554269
 21
278.2175294802394
 31
0.0
  0
LINE
  5
7087
330
1E
100
AcDbEntity
  8
製品
  6
Continuous
 62
     2
100
AcDbLine
 10
155.454640855427
 20
279.2795294802393
 30
0.0
 11
200.330640855427
 21
279.2795294802393
 31
0.0
  0
LINE
  5
7088
330
1E
100
AcDbEntity
  8
製品
  6
Continuous
 62
     2
100
AcDbLine
 10
200.330640855427
 20
324.1555294802395
 30
0.0
 11
155.454640855427
 21
324.1555294802395
 31
0.0
  0
LINE
  5
7089
330
1E
100
AcDbEntity
  8
図面枠
  6
Continuous
 62
     2
100
AcDbLine
 10
160.0254348554269
 20
218.5845604802391
 30
0.0
 11
178.0854348554269
 21
218.5845604802391
 31
0.0
  0
TEXT
  5
708A
330
1E
100
AcDbEntity
  8
図面枠
  6
Continuous
 62
     2
100
AcDbText
 10
160.0253848554268
 20
219.5845374802395
 30
0.0
 40
3.0
  1
補強野縁受け
 41
0.8
  7
ACAD
100
AcDbText
  0
LINE
  5
708B
330
1E
100
AcDbEntity
  8
製品
  6
Continuous
 62
     4
100
AcDbLine
 10
201.3926408554269
 20
325.2175294802394
 30
0.0
 11
154.3926408554268
 21
325.2175294802394
 31
0.0
  0
LINE
  5
708C
330
1E
100
AcDbEntity
  8
製品
  6
Continuous
 62
     2
100
AcDbLine
 10
199.7926408554269
 20
323.617529480239
 30
0.0
 11
155.992640855427
 21
323.617529480239
 31
0.0
  0
LINE
  5
708D
330
1E
100
AcDbEntity
  8
製品
  6
Continuous
 62
     4
100
AcDbLine
 10
198.7306408554268
 20
322.5555294802391
 30
0.0
 11
157.0546408554269
 21
322.5555294802391
 31
0.0
  0
LINE
  5
708E
330
1E
100
AcDbEntity
  8
製品
  6
Continuous
 62
     4
100
AcDbLine
 10
232.8926408554269
 20
330.2175294802394
 30
0.0
 11
122.8926408554268
 21
330.2175294802394
 31
0.0
  0
LINE
  5
708F
330
1E
100
AcDbEntity
  8
製品
  6
Continuous
 62
     4
100
AcDbLine
 10
122.8926408554268
 20
332.7175294802394
 30
0.0
 11
232.8926408554269
 21
332.7175294802394
 31
0.0
  0
LINE
  5
7090
330
1E
100
AcDbEntity
  8
製品
  6
Continuous
 62
     4
100
AcDbLine
 10
117.8926408554268
 20
348.6675294802392
 30
0.0
 11
237.8926408554268
 21
348.6675294802392
 31
0.0
  0
LINE
  5
7091
330
1E
100
AcDbEntity
  8
製品
  6
Continuous
 62
     4
100
AcDbLine
 10
117.8926408554268
 20
346.1675294802392
 30
0.0
 11
237.8926408554268
 21
346.1675294802392
 31
0.0
  0
LINE
  5
7092
330
1E
100
AcDbEntity
  8
製品
  6
Continuous
 62
     2
100
AcDbLine
 10
143.7926408554269
 20
301.6597264802397
 30
0.0
 11
144.992640855427
 21
302.8597264802395
 31
0.0
  0
LINE
  5
7093
330
1E
100
AcDbEntity
  8
製品
  6
Continuous
 62
     2
100
AcDbLine
 10
155.454640855427
 20
314.2175294802393
 30
0.0
 11
155.454640855427
 21
289.2175294802393
 31
0.0
  0
LINE
  5
7094
330
1E
100
AcDbEntity
  8
製品
  6
Continuous
 62
     4
100
AcDbLine
 10
153.8926408554268
 20
273.2175294802394
 30
0.0
 11
153.8926408554268
 21
330.2175294802394
 31
0.0
  0
LINE
  5
7095
330
1E
100
AcDbEntity
  8
製品
  6
Continuous
 62
     4
100
AcDbLine
 10
149.992640855427
 20
287.7675294802395
 30
0.0
 11
149.992640855427
 21
315.6675294802392
 31
0.0
  0
LINE
  5
7096
330
1E
100
AcDbEntity
  8
製品
  6
Continuous
 62
     2
100
AcDbLine
 10
155.992640855427
 20
323.617529480239
 30
0.0
 11
155.992640855427
 21
279.8175294802397
 31
0.0
  0
LINE
  5
7097
330
1E
100
AcDbEntity
  8
製品
  6
Continuous
 62
     4
100
AcDbLine
 10
157.0546408554269
 20
322.5555294802391
 30
0.0
 11
157.0546408554269
 21
280.8795294802396
 31
0.0
  0
LINE
  5
7098
330
1E
100
AcDbEntity
  8
製品
  6
Continuous
 62
     4
100
AcDbLine
 10
132.8926408554268
 20
287.7675294802395
 30
0.0
 11
132.8926408554268
 21
315.6675294802392
 31
0.0
  0
LINE
  5
7099
330
1E
100
AcDbEntity
  8
製品
  6
Continuous
 62
     4
100
AcDbLine
 10
134.0926408554269
 20
315.6675294802392
 30
0.0
 11
134.0926408554269
 21
287.7675294802395
 31
0.0
  0
LINE
  5
709A
330
1E
100
AcDbEntity
  8
製品
  6
Continuous
 62
     4
100
AcDbLine
 10
154.3926408554268
 20
325.2175294802394
 30
0.0
 11
154.3926408554268
 21
278.2175294802394
 31
0.0
  0
LINE
  5
709B
330
1E
100
AcDbEntity
  8
製品
  6
Continuous
 62
     4
100
AcDbLine
 10
143.7926408554269
 20
287.7675294802395
 30
0.0
 11
143.7926408554269
 21
315.6675294802392
 31
0.0
  0
LINE
  5
709C
330
1E
100
AcDbEntity
  8
製品
  6
Continuous
 62
     4
100
AcDbLine
 10
144.992640855427
 20
315.6675294802392
 30
0.0
 11
144.992640855427
 21
287.7675294802395
 31
0.0
  0
LINE
  5
709D
330
1E
100
AcDbEntity
  8
製品
  6
Continuous
 62
     2
100
AcDbLine
 10
129.9834778554268
 20
273.2175294802394
 30
0.0
 11
132.4834778554268
 21
270.7175294802393
 31
0.0
  0
LINE
  5
709E
330
1E
100
AcDbEntity
  8
製品
  6
Continuous
 62
     2
100
AcDbLine
 10
128.5692648554268
 20
273.2175294802394
 30
0.0
 11
131.0692648554268
 21
270.7175294802393
 31
0.0
  0
LINE
  5
709F
330
1E
100
AcDbEntity
  8
製品
  6
Continuous
 62
     4
100
AcDbLine
 10
150.992640855427
 20
285.2675294802395
 30
0.0
 11
117.8926408554268
 21
285.2675294802395
 31
0.0
  0
LINE
  5
70A0
330
1E
100
AcDbEntity
  8
製品
  6
Continuous
 62
     4
100
AcDbLine
 10
117.8926408554268
 20
287.7675294802395
 30
0.0
 11
150.992640855427
 21
287.7675294802395
 31
0.0
  0
LINE
  5
70A1
330
1E
100
AcDbEntity
  8
製品
  6
Continuous
 62
     2
100
AcDbLine
 10
129.6926408554268
 20
198.1469964802393
 30
0.0
 11
132.5426408554269
 21
198.1469964802393
 31
0.0
  0
LINE
  5
70A2
330
1E
100
AcDbEntity
  8
製品
  6
Continuous
 62
     2
100
AcDbLine
 10
129.6926408554268
 20
198.3469964802391
 30
0.0
 11
132.5426408554269
 21
198.3469964802391
 31
0.0
  0
ARC
  5
70A3
330
1E
100
AcDbEntity
  8
製品
  6
Continuous
 62
     2
100
AcDbCircle
 10
131.117640855427
 20
198.7719964802393
 30
0.0
 40
1.425
100
AcDbArc
 50
250.5287790000088
 51
289.4712209999912
  0
LINE
  5
70A4
330
1E
100
AcDbEntity
  8
製品
  6
Continuous
 62
     2
100
AcDbLine
 10
130.3087978554269
 20
197.3469964802391
 30
0.0
 11
131.9264838554268
 21
197.3469964802391
 31
0.0
  0
ARC
  5
70A5
330
1E
100
AcDbEntity
  8
製品
  6
Continuous
 62
     2
100
AcDbCircle
 10
131.117640855427
 20
197.7219964802391
 30
0.0
 40
1.425
100
AcDbArc
 50
70.52877900000878
 51
109.4712209999912
  0
LINE
  5
70A6
330
1E
100
AcDbEntity
  8
製品
  6
Continuous
 62
     2
100
AcDbLine
 10
130.3087978554269
 20
199.1469964802393
 30
0.0
 11
131.9264838554268
 21
199.1469964802393
 31
0.0
  0
LINE
  5
70A7
330
1E
100
AcDbEntity
  8
製品
  6
Continuous
 62
     2
100
AcDbLine
 10
130.6426408554268
 20
195.8469964802391
 30
0.0
 11
131.5926408554269
 21
195.8469964802391
 31
0.0
  0
LINE
  5
70A8
330
1E
100
AcDbEntity
  8
製品
  6
Continuous
 62
     4
100
AcDbLine
 10
117.8926408554268
 20
185.6469964802393
 30
0.0
 11
153.8926408554268
 21
185.6469964802393
 31
0.0
  0
LINE
  5
70A9
330
1E
100
AcDbEntity
  8
製品
  6
Continuous
 62
     4
100
AcDbLine
 10
154.2926408554269
 20
186.8469964802391
 30
0.0
 11
117.8926408554268
 21
186.8469964802391
 31
0.0
  0
LINE
  5
70AA
330
1E
100
AcDbEntity
  8
製品
  6
Continuous
 62
     4
100
AcDbLine
 10
117.8926408554268
 20
188.7469964802397
 30
0.0
 11
154.2926408554269
 21
188.7469964802397
 31
0.0
  0
LINE
  5
70AB
330
1E
100
AcDbEntity
  8
製品
  6
Continuous
 62
     2
100
AcDbLine
 10
130.6926408554268
 20
144.5997964802393
 30
0.0
 11
131.5676408554268
 21
144.2813224802396
 31
0.0
  0
LINE
  5
70AC
330
1E
100
AcDbEntity
  8
製品
  6
Continuous
 62
     2
100
AcDbLine
 10
130.6926408554268
 20
147.1797964802392
 30
0.0
 11
133.6926408554268
 21
147.1797964802392
 31
0.0
  0
ARC
  5
70AD
330
1E
100
AcDbEntity
  8
製品
  6
Continuous
 62
     2
100
AcDbCircle
 10
131.242640855427
 20
141.7197964802392
 30
0.0
 40
0.3
100
AcDbArc
 50
180.0
 51
270.0
  0
LINE
  5
70AE
330
1E
100
AcDbEntity
  8
製品
  6
Continuous
 62
     4
100
AcDbLine
 10
117.8926408554268
 20
143.3197964802396
 30
0.0
 11
131.5676408554268
 21
143.3197964802396
 31
0.0
  0
LINE
  5
70AF
330
1E
100
AcDbEntity
  8
製品
  6
Continuous
 62
     4
100
AcDbLine
 10
117.8926408554268
 20
141.419796480239
 30
0.0
 11
154.5926408554269
 21
141.419796480239
 31
0.0
  0
LINE
  5
70B0
330
1E
100
AcDbEntity
  8
製品
  6
Continuous
 62
     4
100
AcDbLine
 10
154.2926408554269
 20
140.2197964802392
 30
0.0
 11
117.8926408554268
 21
140.2197964802392
 31
0.0
  0
LINE
  5
70B1
330
1E
100
AcDbEntity
  8
製品
  6
Continuous
 62
     2
100
AcDbLine
 10
130.6926408554268
 20
147.1197964802388
 30
0.0
 11
130.6926408554268
 21
144.5997964802393
 31
0.0
  0
LINE
  5
70B2
330
1E
100
AcDbEntity
  8
製品
  6
Continuous
 62
     2
100
AcDbLine
 10
130.6926408554268
 20
147.1197964802388
 30
0.0
 11
130.6926408554268
 21
147.1797964802392
 31
0.0
  0
LINE
  5
70B3
330
1E
100
AcDbEntity
  8
製品
  6
Continuous
 62
     4
100
AcDbLine
 10
130.6926408554268
 20
147.1197964802388
 30
0.0
 11
117.8926408554268
 21
147.1197964802388
 31
0.0
  0
TEXT
  5
70B4
330
1E
100
AcDbEntity
  8
図面枠
  6
Continuous
 62
     2
100
AcDbText
 10
105.8693328554268
 20
295.7058824802391
 30
0.0
 40
3.0
  1
Ａ
 41
0.8
  7
ACAD
100
AcDbText
  0
LINE
  5
70B5
330
1E
100
AcDbEntity
  8
図面枠
  6
Continuous
 62
     2
100
AcDbLine
 10
112.8926408554268
 20
301.7175294802393
 30
0.0
 11
112.8926408554268
 21
291.7175294802394
 31
0.0
  0
LINE
  5
70B6
330
1E
100
AcDbEntity
  8
図面枠
  6
Continuous
 62
     2
100
AcDbLine
 10
117.8926408554268
 20
301.7175294802393
 30
0.0
 11
112.8926408554268
 21
291.7175294802394
 31
0.0
  0
LINE
  5
70B7
330
1E
100
AcDbEntity
  8
製品
  6
Continuous
 62
     2
100
AcDbLine
 10
122.9124098554268
 20
273.2175294802394
 30
0.0
 11
125.4124098554268
 21
270.7175294802393
 31
0.0
  0
LINE
  5
70B8
330
1E
100
AcDbEntity
  8
製品
  6
Continuous
 62
     2
100
AcDbLine
 10
122.8926408554268
 20
271.8230854802389
 30
0.0
 11
123.9981968554268
 21
270.7175294802393
 31
0.0
  0
LINE
  5
70B9
330
1E
100
AcDbEntity
  8
製品
  6
Continuous
 62
     4
100
AcDbLine
 10
122.8926408554268
 20
273.2175294802394
 30
0.0
 11
122.8926408554268
 21
270.7175294802393
 31
0.0
  0
LINE
  5
70BA
330
1E
100
AcDbEntity
  8
製品
  6
Continuous
 62
     2
100
AcDbLine
 10
125.7408378554269
 20
273.2175294802394
 30
0.0
 11
128.2408378554269
 21
270.7175294802393
 31
0.0
  0
LINE
  5
70BB
330
1E
100
AcDbEntity
  8
製品
  6
Continuous
 62
     2
100
AcDbLine
 10
124.326623855427
 20
273.2175294802394
 30
0.0
 11
126.826623855427
 21
270.7175294802393
 31
0.0
  0
LINE
  5
70BC
330
1E
100
AcDbEntity
  8
製品
  6
Continuous
 62
     2
100
AcDbLine
 10
127.1550508554269
 20
273.2175294802394
 30
0.0
 11
129.6550508554269
 21
270.7175294802393
 31
0.0
  0
LINE
  5
70BD
330
1E
100
AcDbEntity
  8
製品
  6
Continuous
 62
     2
100
AcDbLine
 10
129.6926408554268
 20
198.3469964802391
 30
0.0
 11
129.6926408554268
 21
198.1469964802393
 31
0.0
  0
ARC
  5
70BE
330
1E
100
AcDbEntity
  8
製品
  6
Continuous
 62
     2
100
AcDbCircle
 10
130.4135048554269
 20
197.7098644802392
 30
0.0
 40
0.362868
100
AcDbArc
 50
270.0
 51
309.157945000022
  0
LINE
  5
70BF
330
1E
100
AcDbEntity
  8
製品
  6
Continuous
 62
     2
100
AcDbLine
 10
130.1676408554269
 20
197.4284944802396
 30
0.0
 11
130.1676408554269
 21
198.1469964802393
 31
0.0
  0
LINE
  5
70C0
330
1E
100
AcDbEntity
  8
製品
  6
Continuous
 62
     2
100
AcDbLine
 10
130.1676408554269
 20
197.4284944802396
 30
0.0
 11
130.3087978554269
 21
197.3469964802391
 31
0.0
  0
LINE
  5
70C1
330
1E
100
AcDbEntity
  8
製品
  6
Continuous
 62
     2
100
AcDbLine
 10
130.6426408554268
 20
198.1469964802393
 30
0.0
 11
130.6426408554268
 21
197.4284944802396
 31
0.0
  0
ARC
  5
70C2
330
1E
100
AcDbEntity
  8
製品
  6
Continuous
 62
     2
100
AcDbCircle
 10
130.4135048554269
 20
198.7841294802394
 30
0.0
 40
0.362868
100
AcDbArc
 50
50.84205499997799
 51
90.0
  0
LINE
  5
70C3
330
1E
100
AcDbEntity
  8
製品
  6
Continuous
 62
     2
100
AcDbLine
 10
130.1676408554269
 20
199.0654994802391
 30
0.0
 11
130.1676408554269
 21
198.3469964802391
 31
0.0
  0
LINE
  5
70C4
330
1E
100
AcDbEntity
  8
製品
  6
Continuous
 62
     2
100
AcDbLine
 10
130.1676408554269
 20
199.0654994802391
 30
0.0
 11
130.3087978554269
 21
199.1469964802393
 31
0.0
  0
LINE
  5
70C5
330
1E
100
AcDbEntity
  8
製品
  6
Continuous
 62
     2
100
AcDbLine
 10
130.6426408554268
 20
198.3469964802391
 30
0.0
 11
130.6426408554268
 21
199.0654994802391
 31
0.0
  0
LINE
  5
70C6
330
1E
100
AcDbEntity
  8
製品
  6
Continuous
 62
     2
100
AcDbLine
 10
130.6426408554268
 20
197.3469964802391
 30
0.0
 11
130.6426408554268
 21
195.8469964802391
 31
0.0
  0
LINE
  5
70C7
330
1E
100
AcDbEntity
  8
製品
  6
Continuous
 62
     2
100
AcDbLine
 10
130.6426408554268
 20
199.1469964802393
 30
0.0
 11
130.6426408554268
 21
208.7469964802397
 31
0.0
  0
LINE
  5
70C9
330
1E
100
AcDbEntity
  8
製品
  6
Continuous
 62
     4
100
AcDbLine
 10
154.5926408554269
 20
143.3197964802396
 30
0.0
 11
148.7676408554268
 21
143.3197964802396
 31
0.0
  0
LINE
  5
70CA
330
1E
100
AcDbEntity
  8
図面枠
  6
Continuous
 62
     2
100
AcDbLine
 10
149.3926408554268
 20
142.3697964802388
 30
0.0
 11
157.9085578554268
 21
157.1197964802388
 31
0.0
  0
LINE
  5
70CB
330
1E
100
AcDbEntity
  8
製品
  6
Continuous
 62
     2
100
AcDbLine
 10
149.6426408554268
 20
147.1197964802388
 30
0.0
 11
149.6426408554268
 21
144.5997964802393
 31
0.0
  0
LINE
  5
70CC
330
1E
100
AcDbEntity
  8
製品
  6
Continuous
 62
     2
100
AcDbLine
 10
149.6426408554268
 20
144.5997964802393
 30
0.0
 11
148.7676408554268
 21
144.2813224802396
 31
0.0
  0
LINE
  5
70CD
330
1E
100
AcDbEntity
  8
製品
  6
Continuous
 62
     2
100
AcDbLine
 10
149.6426408554268
 20
147.1197964802388
 30
0.0
 11
149.6426408554268
 21
147.1797964802392
 31
0.0
  0
LINE
  5
70CE
330
1E
100
AcDbEntity
  8
製品
  6
Continuous
 62
     2
100
AcDbLine
 10
146.6426408554268
 20
147.1197964802388
 30
0.0
 11
146.6426408554268
 21
144.5997964802393
 31
0.0
  0
LINE
  5
70CF
330
1E
100
AcDbEntity
  8
製品
  6
Continuous
 62
     2
100
AcDbLine
 10
146.6426408554268
 20
144.5997964802393
 30
0.0
 11
147.5176408554268
 21
144.2813224802396
 31
0.0
  0
LINE
  5
70D0
330
1E
100
AcDbEntity
  8
製品
  6
Continuous
 62
     2
100
AcDbLine
 10
146.6426408554268
 20
147.1797964802392
 30
0.0
 11
146.6426408554268
 21
147.1197964802388
 31
0.0
  0
LINE
  5
70D1
330
1E
100
AcDbEntity
  8
製品
  6
Continuous
 62
     2
100
AcDbLine
 10
149.6426408554268
 20
147.1797964802392
 30
0.0
 11
146.6426408554268
 21
147.1797964802392
 31
0.0
  0
LINE
  5
70D2
330
1E
100
AcDbEntity
  8
製品
  6
Continuous
 62
     4
100
AcDbLine
 10
139.0176408554268
 20
152.919796480239
 30
0.0
 11
141.3176408554268
 21
152.919796480239
 31
0.0
  0
LINE
  5
70D3
330
1E
100
AcDbEntity
  8
製品
  6
Continuous
 62
     4
100
AcDbLine
 10
141.3176408554268
 20
147.1197964802388
 30
0.0
 11
146.6426408554268
 21
147.1197964802388
 31
0.0
  0
CIRCLE
  5
70D4
330
1E
100
AcDbEntity
  8
図面枠
  6
Continuous
 62
     2
100
AcDbCircle
 10
149.3926408554268
 20
142.3697964802388
 30
0.0
 40
0.3
  0
ARC
  5
70D5
330
1E
100
AcDbEntity
  8
製品
  6
Continuous
 62
     2
100
AcDbCircle
 10
149.0676408554268
 20
142.6497964802395
 30
0.0
 40
0.2
100
AcDbArc
 50
270.0
 51
0.0
  0
ARC
  5
70D6
330
1E
100
AcDbEntity
  8
製品
  6
Continuous
 62
     2
100
AcDbCircle
 10
148.9176408554269
 20
143.0497964802391
 30
0.0
 40
0.15
100
AcDbArc
 50
180.0
 51
344.3217239999948
  0
ARC
  5
70D7
330
1E
100
AcDbEntity
  8
製品
  6
Continuous
 62
     2
100
AcDbCircle
 10
149.242640855427
 20
143.169796480239
 30
0.0
 40
0.1
100
AcDbArc
 50
0.0
 51
90.0
  0
LINE
  5
70D8
330
1E
100
AcDbEntity
  8
製品
  6
Continuous
 62
     2
100
AcDbLine
 10
149.242640855427
 20
143.2697964802394
 30
0.0
 11
149.1426408554268
 21
143.2697964802394
 31
0.0
  0
ARC
  5
70D9
330
1E
100
AcDbEntity
  8
製品
  6
Continuous
 62
     2
100
AcDbCircle
 10
149.1426408554268
 20
143.169796480239
 30
0.0
 40
0.1
100
AcDbArc
 50
90.0
 51
180.0
  0
LINE
  5
70DA
330
1E
100
AcDbEntity
  8
製品
  6
Continuous
 62
     2
100
AcDbLine
 10
149.0426408554269
 20
143.169796480239
 30
0.0
 11
149.0426408554269
 21
143.0197964802394
 31
0.0
  0
LINE
  5
70DB
330
1E
100
AcDbEntity
  8
製品
  6
Continuous
 62
     2
100
AcDbLine
 10
149.0426408554269
 20
143.0197964802394
 30
0.0
 11
148.992640855427
 21
143.0197964802394
 31
0.0
  0
LINE
  5
70DC
330
1E
100
AcDbEntity
  8
製品
  6
Continuous
 62
     2
100
AcDbLine
 10
148.992640855427
 20
143.0197964802394
 30
0.0
 11
148.992640855427
 21
143.169796480239
 31
0.0
  0
ARC
  5
70DD
330
1E
100
AcDbEntity
  8
製品
  6
Continuous
 62
     2
100
AcDbCircle
 10
149.1426408554268
 20
143.169796480239
 30
0.0
 40
0.15
100
AcDbArc
 50
90.0
 51
180.0
  0
ARC
  5
70DE
330
1E
100
AcDbEntity
  8
製品
  6
Continuous
 62
     2
100
AcDbCircle
 10
149.242640855427
 20
143.169796480239
 30
0.0
 40
0.15
100
AcDbArc
 50
0.0
 51
90.0
  0
LINE
  5
70DF
330
1E
100
AcDbEntity
  8
製品
  6
Continuous
 62
     2
100
AcDbLine
 10
148.992640855427
 20
141.4697964802392
 30
0.0
 11
148.8926408554268
 21
141.5197964802394
 31
0.0
  0
LINE
  5
70E0
330
1E
100
AcDbEntity
  8
製品
  6
Continuous
 62
     2
100
AcDbLine
 10
148.8926408554268
 20
141.5197964802394
 30
0.0
 11
148.742640855427
 21
141.4697964802392
 31
0.0
  0
LINE
  5
70E1
330
1E
100
AcDbEntity
  8
製品
  6
Continuous
 62
     2
100
AcDbLine
 10
148.992640855427
 20
141.419796480239
 30
0.0
 11
148.8926408554268
 21
141.4697964802392
 31
0.0
  0
LINE
  5
70E2
330
1E
100
AcDbEntity
  8
製品
  6
Continuous
 62
     2
100
AcDbLine
 10
148.8926408554268
 20
141.4697964802392
 30
0.0
 11
148.742640855427
 21
141.419796480239
 31
0.0
  0
LINE
  5
70E3
330
1E
100
AcDbEntity
  8
製品
  6
Continuous
 62
     2
100
AcDbLine
 10
149.3926408554268
 20
141.7197964802392
 30
0.0
 11
149.3926408554268
 21
143.169796480239
 31
0.0
  0
ARC
  5
70E4
330
1E
100
AcDbEntity
  8
製品
  6
Continuous
 62
     2
100
AcDbCircle
 10
149.0926408554269
 20
141.7197964802392
 30
0.0
 40
0.3
100
AcDbArc
 50
270.0
 51
0.0
  0
LINE
  5
70E5
330
1E
100
AcDbEntity
  8
製品
  6
Continuous
 62
     2
100
AcDbLine
 10
149.0926408554269
 20
141.419796480239
 30
0.0
 11
148.992640855427
 21
141.419796480239
 31
0.0
  0
LINE
  5
70E6
330
1E
100
AcDbEntity
  8
製品
  6
Continuous
 62
     2
100
AcDbLine
 10
149.3426408554269
 20
141.7197964802392
 30
0.0
 11
149.3426408554269
 21
143.169796480239
 31
0.0
  0
ARC
  5
70E7
330
1E
100
AcDbEntity
  8
製品
  6
Continuous
 62
     2
100
AcDbCircle
 10
149.0926408554269
 20
141.7197964802392
 30
0.0
 40
0.25
100
AcDbArc
 50
270.0
 51
0.0
  0
LINE
  5
70E8
330
1E
100
AcDbEntity
  8
製品
  6
Continuous
 62
     2
100
AcDbLine
 10
149.0926408554269
 20
141.4697964802392
 30
0.0
 11
148.992640855427
 21
141.4697964802392
 31
0.0
  0
LINE
  5
70E9
330
1E
100
AcDbEntity
  8
製品
  6
Continuous
 62
     2
100
AcDbLine
 10
149.0620598554269
 20
143.009261480239
 30
0.0
 11
149.1351868554268
 21
143.2697964802394
 31
0.0
  0
LINE
  5
70EA
330
1E
100
AcDbEntity
  8
製品
  6
Continuous
 62
     2
100
AcDbLine
 10
149.2676408554268
 20
142.6497964802395
 30
0.0
 11
149.2676408554268
 21
143.2666214802395
 31
0.0
  0
LINE
  5
70EB
330
1E
100
AcDbEntity
  8
製品
  6
Continuous
 62
     2
100
AcDbLine
 10
148.5926408554269
 20
141.5197964802394
 30
0.0
 11
148.4426408554268
 21
141.4697964802392
 31
0.0
  0
LINE
  5
70EC
330
1E
100
AcDbEntity
  8
製品
  6
Continuous
 62
     2
100
AcDbLine
 10
148.4426408554268
 20
141.4697964802392
 30
0.0
 11
148.2926408554269
 21
141.5197964802394
 31
0.0
  0
LINE
  5
70ED
330
1E
100
AcDbEntity
  8
製品
  6
Continuous
 62
     2
100
AcDbLine
 10
148.2926408554269
 20
141.5197964802394
 30
0.0
 11
148.1426408554268
 21
141.4697964802392
 31
0.0
  0
LINE
  5
70EE
330
1E
100
AcDbEntity
  8
製品
  6
Continuous
 62
     2
100
AcDbLine
 10
148.5926408554269
 20
141.4697964802392
 30
0.0
 11
148.4426408554268
 21
141.419796480239
 31
0.0
  0
LINE
  5
70EF
330
1E
100
AcDbEntity
  8
製品
  6
Continuous
 62
     2
100
AcDbLine
 10
148.4426408554268
 20
141.419796480239
 30
0.0
 11
148.2926408554269
 21
141.4697964802392
 31
0.0
  0
LINE
  5
70F0
330
1E
100
AcDbEntity
  8
製品
  6
Continuous
 62
     2
100
AcDbLine
 10
148.2926408554269
 20
141.4697964802392
 30
0.0
 11
148.1426408554268
 21
141.419796480239
 31
0.0
  0
LINE
  5
70F1
330
1E
100
AcDbEntity
  8
製品
  6
Continuous
 62
     2
100
AcDbLine
 10
147.3926408554268
 20
141.5197964802394
 30
0.0
 11
147.5426408554269
 21
141.4697964802392
 31
0.0
  0
LINE
  5
70F2
330
1E
100
AcDbEntity
  8
製品
  6
Continuous
 62
     2
100
AcDbLine
 10
147.5426408554269
 20
141.4697964802392
 30
0.0
 11
147.6926408554268
 21
141.5197964802394
 31
0.0
  0
LINE
  5
70F3
330
1E
100
AcDbEntity
  8
製品
  6
Continuous
 62
     2
100
AcDbLine
 10
147.6926408554268
 20
141.5197964802394
 30
0.0
 11
147.8426408554269
 21
141.4697964802392
 31
0.0
  0
LINE
  5
70F4
330
1E
100
AcDbEntity
  8
製品
  6
Continuous
 62
     2
100
AcDbLine
 10
147.8426408554269
 20
141.4697964802392
 30
0.0
 11
147.992640855427
 21
141.5197964802394
 31
0.0
  0
LINE
  5
70F5
330
1E
100
AcDbEntity
  8
製品
  6
Continuous
 62
     2
100
AcDbLine
 10
147.992640855427
 20
141.5197964802394
 30
0.0
 11
148.1426408554268
 21
141.4697964802392
 31
0.0
  0
LINE
  5
70F6
330
1E
100
AcDbEntity
  8
製品
  6
Continuous
 62
     2
100
AcDbLine
 10
147.2926408554269
 20
141.419796480239
 30
0.0
 11
147.3926408554268
 21
141.4697964802392
 31
0.0
  0
LINE
  5
70F7
330
1E
100
AcDbEntity
  8
製品
  6
Continuous
 62
     2
100
AcDbLine
 10
147.3926408554268
 20
141.4697964802392
 30
0.0
 11
147.5426408554269
 21
141.419796480239
 31
0.0
  0
LINE
  5
70F8
330
1E
100
AcDbEntity
  8
製品
  6
Continuous
 62
     2
100
AcDbLine
 10
147.5426408554269
 20
141.419796480239
 30
0.0
 11
147.6926408554268
 21
141.4697964802392
 31
0.0
  0
LINE
  5
70F9
330
1E
100
AcDbEntity
  8
製品
  6
Continuous
 62
     2
100
AcDbLine
 10
147.6926408554268
 20
141.4697964802392
 30
0.0
 11
147.8426408554269
 21
141.419796480239
 31
0.0
  0
LINE
  5
70FA
330
1E
100
AcDbEntity
  8
製品
  6
Continuous
 62
     2
100
AcDbLine
 10
147.8426408554269
 20
141.419796480239
 30
0.0
 11
147.992640855427
 21
141.4697964802392
 31
0.0
  0
LINE
  5
70FB
330
1E
100
AcDbEntity
  8
製品
  6
Continuous
 62
     2
100
AcDbLine
 10
147.992640855427
 20
141.4697964802392
 30
0.0
 11
148.1426408554268
 21
141.419796480239
 31
0.0
  0
ARC
  5
70FC
330
1E
100
AcDbEntity
  8
製品
  6
Continuous
 62
     2
100
AcDbCircle
 10
147.2176408554269
 20
142.6497964802395
 30
0.0
 40
0.2
100
AcDbArc
 50
180.0
 51
270.0
  0
ARC
  5
70FD
330
1E
100
AcDbEntity
  8
製品
  6
Continuous
 62
     2
100
AcDbCircle
 10
147.367640855427
 20
143.0497964802391
 30
0.0
 40
0.15
100
AcDbArc
 50
195.6782760000051
 51
0.0
  0
ARC
  5
70FE
330
1E
100
AcDbEntity
  8
製品
  6
Continuous
 62
     2
100
AcDbCircle
 10
147.0426408554269
 20
143.169796480239
 30
0.0
 40
0.1
100
AcDbArc
 50
90.0
 51
180.0
  0
LINE
  5
70FF
330
1E
100
AcDbEntity
  8
製品
  6
Continuous
 62
     2
100
AcDbLine
 10
147.0426408554269
 20
143.2697964802394
 30
0.0
 11
147.1426408554268
 21
143.2697964802394
 31
0.0
  0
ARC
  5
7100
330
1E
100
AcDbEntity
  8
製品
  6
Continuous
 62
     2
100
AcDbCircle
 10
147.1426408554268
 20
143.169796480239
 30
0.0
 40
0.1
100
AcDbArc
 50
0.0
 51
90.0
  0
LINE
  5
7101
330
1E
100
AcDbEntity
  8
製品
  6
Continuous
 62
     2
100
AcDbLine
 10
147.242640855427
 20
143.169796480239
 30
0.0
 11
147.242640855427
 21
143.0197964802394
 31
0.0
  0
LINE
  5
7102
330
1E
100
AcDbEntity
  8
製品
  6
Continuous
 62
     2
100
AcDbLine
 10
147.242640855427
 20
143.0197964802394
 30
0.0
 11
147.2926408554269
 21
143.0197964802394
 31
0.0
  0
LINE
  5
7103
330
1E
100
AcDbEntity
  8
製品
  6
Continuous
 62
     2
100
AcDbLine
 10
147.2926408554269
 20
143.0197964802394
 30
0.0
 11
147.2926408554269
 21
143.169796480239
 31
0.0
  0
ARC
  5
7104
330
1E
100
AcDbEntity
  8
製品
  6
Continuous
 62
     2
100
AcDbCircle
 10
147.1426408554268
 20
143.169796480239
 30
0.0
 40
0.15
100
AcDbArc
 50
0.0
 51
90.0
  0
ARC
  5
7105
330
1E
100
AcDbEntity
  8
製品
  6
Continuous
 62
     2
100
AcDbCircle
 10
147.0426408554269
 20
143.169796480239
 30
0.0
 40
0.15
100
AcDbArc
 50
90.0
 51
180.0
  0
ARC
  5
7106
330
1E
100
AcDbEntity
  8
製品
  6
Continuous
 62
     2
100
AcDbCircle
 10
147.1926408554268
 20
141.7197964802392
 30
0.0
 40
0.3
100
AcDbArc
 50
180.0
 51
270.0
  0
ARC
  5
7107
330
1E
100
AcDbEntity
  8
製品
  6
Continuous
 62
     2
100
AcDbCircle
 10
147.1926408554268
 20
141.7197964802392
 30
0.0
 40
0.25
100
AcDbArc
 50
180.0
 51
270.0
  0
LINE
  5
7108
330
1E
100
AcDbEntity
  8
製品
  6
Continuous
 62
     2
100
AcDbLine
 10
146.8926408554268
 20
141.7197964802392
 30
0.0
 11
146.8926408554268
 21
143.169796480239
 31
0.0
  0
LINE
  5
7109
330
1E
100
AcDbEntity
  8
製品
  6
Continuous
 62
     2
100
AcDbLine
 10
146.9426408554268
 20
141.7197964802392
 30
0.0
 11
146.9426408554268
 21
143.169796480239
 31
0.0
  0
LINE
  5
710A
330
1E
100
AcDbEntity
  8
製品
  6
Continuous
 62
     2
100
AcDbLine
 10
147.2926408554269
 20
141.4697964802392
 30
0.0
 11
147.3926408554268
 21
141.5197964802394
 31
0.0
  0
LINE
  5
710B
330
1E
100
AcDbEntity
  8
製品
  6
Continuous
 62
     2
100
AcDbLine
 10
147.1926408554268
 20
141.419796480239
 30
0.0
 11
147.2926408554269
 21
141.419796480239
 31
0.0
  0
LINE
  5
710C
330
1E
100
AcDbEntity
  8
製品
  6
Continuous
 62
     2
100
AcDbLine
 10
147.1926408554268
 20
141.4697964802392
 30
0.0
 11
147.2926408554269
 21
141.4697964802392
 31
0.0
  0
LINE
  5
710D
330
1E
100
AcDbEntity
  8
製品
  6
Continuous
 62
     2
100
AcDbLine
 10
147.2232218554268
 20
143.009261480239
 30
0.0
 11
147.1500948554269
 21
143.2697964802394
 31
0.0
  0
LINE
  5
710E
330
1E
100
AcDbEntity
  8
製品
  6
Continuous
 62
     2
100
AcDbLine
 10
147.0176408554268
 20
142.6497964802395
 30
0.0
 11
147.0176408554268
 21
143.2666214802395
 31
0.0
  0
LINE
  5
710F
330
1E
100
AcDbEntity
  8
製品
  6
Continuous
 62
     2
100
AcDbLine
 10
148.742640855427
 20
141.4697964802392
 30
0.0
 11
148.5926408554269
 21
141.5197964802394
 31
0.0
  0
LINE
  5
7110
330
1E
100
AcDbEntity
  8
製品
  6
Continuous
 62
     2
100
AcDbLine
 10
148.742640855427
 20
141.419796480239
 30
0.0
 11
148.5926408554269
 21
141.4697964802392
 31
0.0
  0
LINE
  5
7111
330
1E
100
AcDbEntity
  8
製品
  6
Continuous
 62
     2
100
AcDbLine
 10
147.2176408554269
 20
142.4497964802396
 30
0.0
 11
149.0676408554268
 21
142.4497964802396
 31
0.0
  0
LINE
  5
7112
330
1E
100
AcDbEntity
  8
製品
  6
Continuous
 62
     4
100
AcDbLine
 10
141.3176408554268
 20
143.1197964802388
 30
0.0
 11
139.0176408554268
 21
143.1197964802388
 31
0.0
  0
LINE
  5
7113
330
1E
100
AcDbEntity
  8
製品
  6
Continuous
 62
     4
100
AcDbLine
 10
147.5176408554268
 20
143.3197964802396
 30
0.0
 11
141.3176408554268
 21
143.3197964802396
 31
0.0
  0
LINE
  5
7114
330
1E
100
AcDbEntity
  8
製品
  6
Continuous
 62
     2
100
AcDbLine
 10
148.7676408554268
 20
143.0497964802391
 30
0.0
 11
148.7676408554268
 21
144.2813224802396
 31
0.0
  0
LINE
  5
7115
330
1E
100
AcDbEntity
  8
製品
  6
Continuous
 62
     2
100
AcDbLine
 10
147.5176408554268
 20
143.0497964802391
 30
0.0
 11
147.5176408554268
 21
144.2813224802396
 31
0.0
  0
LINE
  5
7116
330
1E
100
AcDbEntity
  8
製品
  6
Continuous
 62
     4
100
AcDbLine
 10
139.0176408554268
 20
143.1197964802388
 30
0.0
 11
139.0176408554268
 21
152.919796480239
 31
0.0
  0
LINE
  5
7117
330
1E
100
AcDbEntity
  8
製品
  6
Continuous
 62
     4
100
AcDbLine
 10
141.3176408554268
 20
152.919796480239
 30
0.0
 11
141.3176408554268
 21
143.1197964802388
 31
0.0
  0
LINE
  5
7118
330
1E
100
AcDbEntity
  8
製品
  6
Continuous
 62
     2
100
AcDbLine
 10
133.6926408554268
 20
147.1197964802388
 30
0.0
 11
133.6926408554268
 21
144.5997964802393
 31
0.0
  0
LINE
  5
7119
330
1E
100
AcDbEntity
  8
製品
  6
Continuous
 62
     2
100
AcDbLine
 10
133.6926408554268
 20
147.1797964802392
 30
0.0
 11
133.6926408554268
 21
147.1197964802388
 31
0.0
  0
LINE
  5
711A
330
1E
100
AcDbEntity
  8
製品
  6
Continuous
 62
     2
100
AcDbLine
 10
133.6926408554268
 20
144.5997964802393
 30
0.0
 11
132.8176408554268
 21
144.2813224802396
 31
0.0
  0
ARC
  5
711B
330
1E
100
AcDbEntity
  8
製品
  6
Continuous
 62
     2
100
AcDbCircle
 10
131.2676408554268
 20
142.6497964802395
 30
0.0
 40
0.2
100
AcDbArc
 50
180.0
 51
270.0
  0
ARC
  5
711C
330
1E
100
AcDbEntity
  8
製品
  6
Continuous
 62
     2
100
AcDbCircle
 10
131.4176408554269
 20
143.0497964802391
 30
0.0
 40
0.15
100
AcDbArc
 50
195.6782760000051
 51
0.0
  0
ARC
  5
711D
330
1E
100
AcDbEntity
  8
製品
  6
Continuous
 62
     2
100
AcDbCircle
 10
131.0926408554269
 20
143.169796480239
 30
0.0
 40
0.1
100
AcDbArc
 50
90.0
 51
180.0
  0
LINE
  5
711E
330
1E
100
AcDbEntity
  8
製品
  6
Continuous
 62
     2
100
AcDbLine
 10
131.0926408554269
 20
143.2697964802394
 30
0.0
 11
131.1926408554268
 21
143.2697964802394
 31
0.0
  0
ARC
  5
711F
330
1E
100
AcDbEntity
  8
製品
  6
Continuous
 62
     2
100
AcDbCircle
 10
131.1926408554268
 20
143.169796480239
 30
0.0
 40
0.1
100
AcDbArc
 50
0.0
 51
90.0
  0
LINE
  5
7120
330
1E
100
AcDbEntity
  8
製品
  6
Continuous
 62
     2
100
AcDbLine
 10
131.2926408554269
 20
143.169796480239
 30
0.0
 11
131.2926408554269
 21
143.0197964802394
 31
0.0
  0
LINE
  5
7121
330
1E
100
AcDbEntity
  8
製品
  6
Continuous
 62
     2
100
AcDbLine
 10
131.2926408554269
 20
143.0197964802394
 30
0.0
 11
131.3426408554269
 21
143.0197964802394
 31
0.0
  0
LINE
  5
7122
330
1E
100
AcDbEntity
  8
製品
  6
Continuous
 62
     2
100
AcDbLine
 10
131.3426408554269
 20
143.0197964802394
 30
0.0
 11
131.3426408554269
 21
143.169796480239
 31
0.0
  0
ARC
  5
7123
330
1E
100
AcDbEntity
  8
製品
  6
Continuous
 62
     2
100
AcDbCircle
 10
131.1926408554268
 20
143.169796480239
 30
0.0
 40
0.15
100
AcDbArc
 50
0.0
 51
90.0
  0
ARC
  5
7124
330
1E
100
AcDbEntity
  8
製品
  6
Continuous
 62
     2
100
AcDbCircle
 10
131.0926408554269
 20
143.169796480239
 30
0.0
 40
0.15
100
AcDbArc
 50
90.0
 51
180.0
  0
LINE
  5
7125
330
1E
100
AcDbEntity
  8
製品
  6
Continuous
 62
     2
100
AcDbLine
 10
131.3426408554269
 20
141.4697964802392
 30
0.0
 11
131.4426408554268
 21
141.5197964802394
 31
0.0
  0
LINE
  5
7126
330
1E
100
AcDbEntity
  8
製品
  6
Continuous
 62
     2
100
AcDbLine
 10
131.4426408554268
 20
141.5197964802394
 30
0.0
 11
131.5926408554269
 21
141.4697964802392
 31
0.0
  0
LINE
  5
7127
330
1E
100
AcDbEntity
  8
製品
  6
Continuous
 62
     2
100
AcDbLine
 10
131.5926408554269
 20
141.4697964802392
 30
0.0
 11
131.742640855427
 21
141.5197964802394
 31
0.0
  0
LINE
  5
7128
330
1E
100
AcDbEntity
  8
製品
  6
Continuous
 62
     2
100
AcDbLine
 10
131.742640855427
 20
141.5197964802394
 30
0.0
 11
131.8926408554268
 21
141.4697964802392
 31
0.0
  0
LINE
  5
7129
330
1E
100
AcDbEntity
  8
製品
  6
Continuous
 62
     2
100
AcDbLine
 10
131.8926408554268
 20
141.4697964802392
 30
0.0
 11
132.0426408554269
 21
141.5197964802394
 31
0.0
  0
LINE
  5
712A
330
1E
100
AcDbEntity
  8
製品
  6
Continuous
 62
     2
100
AcDbLine
 10
132.0426408554269
 20
141.5197964802394
 30
0.0
 11
132.1926408554268
 21
141.4697964802392
 31
0.0
  0
LINE
  5
712B
330
1E
100
AcDbEntity
  8
製品
  6
Continuous
 62
     2
100
AcDbLine
 10
131.3426408554269
 20
141.419796480239
 30
0.0
 11
131.4426408554268
 21
141.4697964802392
 31
0.0
  0
LINE
  5
712C
330
1E
100
AcDbEntity
  8
製品
  6
Continuous
 62
     2
100
AcDbLine
 10
131.4426408554268
 20
141.4697964802392
 30
0.0
 11
131.5926408554269
 21
141.419796480239
 31
0.0
  0
LINE
  5
712D
330
1E
100
AcDbEntity
  8
製品
  6
Continuous
 62
     2
100
AcDbLine
 10
131.5926408554269
 20
141.419796480239
 30
0.0
 11
131.742640855427
 21
141.4697964802392
 31
0.0
  0
LINE
  5
712E
330
1E
100
AcDbEntity
  8
製品
  6
Continuous
 62
     2
100
AcDbLine
 10
131.742640855427
 20
141.4697964802392
 30
0.0
 11
131.8926408554268
 21
141.419796480239
 31
0.0
  0
LINE
  5
712F
330
1E
100
AcDbEntity
  8
製品
  6
Continuous
 62
     2
100
AcDbLine
 10
131.8926408554268
 20
141.419796480239
 30
0.0
 11
132.0426408554269
 21
141.4697964802392
 31
0.0
  0
LINE
  5
7130
330
1E
100
AcDbEntity
  8
製品
  6
Continuous
 62
     2
100
AcDbLine
 10
132.0426408554269
 20
141.4697964802392
 30
0.0
 11
132.1926408554268
 21
141.419796480239
 31
0.0
  0
LINE
  5
7131
330
1E
100
AcDbEntity
  8
製品
  6
Continuous
 62
     2
100
AcDbLine
 10
130.9426408554268
 20
141.7197964802392
 30
0.0
 11
130.9426408554268
 21
143.169796480239
 31
0.0
  0
LINE
  5
7132
330
1E
100
AcDbEntity
  8
製品
  6
Continuous
 62
     2
100
AcDbLine
 10
131.242640855427
 20
141.419796480239
 30
0.0
 11
131.3426408554269
 21
141.419796480239
 31
0.0
  0
LINE
  5
7133
330
1E
100
AcDbEntity
  8
製品
  6
Continuous
 62
     2
100
AcDbLine
 10
130.992640855427
 20
141.7197964802392
 30
0.0
 11
130.992640855427
 21
143.169796480239
 31
0.0
  0
ARC
  5
7134
330
1E
100
AcDbEntity
  8
製品
  6
Continuous
 62
     2
100
AcDbCircle
 10
131.242640855427
 20
141.7197964802392
 30
0.0
 40
0.25
100
AcDbArc
 50
180.0
 51
270.0
  0
LINE
  5
7135
330
1E
100
AcDbEntity
  8
製品
  6
Continuous
 62
     2
100
AcDbLine
 10
131.242640855427
 20
141.4697964802392
 30
0.0
 11
131.3426408554269
 21
141.4697964802392
 31
0.0
  0
LINE
  5
7136
330
1E
100
AcDbEntity
  8
製品
  6
Continuous
 62
     2
100
AcDbLine
 10
131.273221855427
 20
143.009261480239
 30
0.0
 11
131.2000948554268
 21
143.2697964802394
 31
0.0
  0
LINE
  5
7137
330
1E
100
AcDbEntity
  8
製品
  6
Continuous
 62
     2
100
AcDbLine
 10
131.0676408554268
 20
142.6497964802395
 30
0.0
 11
131.0676408554268
 21
143.2666214802395
 31
0.0
  0
LINE
  5
7138
330
1E
100
AcDbEntity
  8
製品
  6
Continuous
 62
     2
100
AcDbLine
 10
132.9426408554268
 20
141.5197964802394
 30
0.0
 11
132.7926408554269
 21
141.4697964802392
 31
0.0
  0
LINE
  5
7139
330
1E
100
AcDbEntity
  8
製品
  6
Continuous
 62
     2
100
AcDbLine
 10
132.7926408554269
 20
141.4697964802392
 30
0.0
 11
132.6426408554268
 21
141.5197964802394
 31
0.0
  0
LINE
  5
713A
330
1E
100
AcDbEntity
  8
製品
  6
Continuous
 62
     2
100
AcDbLine
 10
132.6426408554268
 20
141.5197964802394
 30
0.0
 11
132.492640855427
 21
141.4697964802392
 31
0.0
  0
LINE
  5
713B
330
1E
100
AcDbEntity
  8
製品
  6
Continuous
 62
     2
100
AcDbLine
 10
132.492640855427
 20
141.4697964802392
 30
0.0
 11
132.3426408554269
 21
141.5197964802394
 31
0.0
  0
LINE
  5
713C
330
1E
100
AcDbEntity
  8
製品
  6
Continuous
 62
     2
100
AcDbLine
 10
132.3426408554269
 20
141.5197964802394
 30
0.0
 11
132.1926408554268
 21
141.4697964802392
 31
0.0
  0
LINE
  5
713D
330
1E
100
AcDbEntity
  8
製品
  6
Continuous
 62
     2
100
AcDbLine
 10
133.0426408554269
 20
141.419796480239
 30
0.0
 11
132.9426408554268
 21
141.4697964802392
 31
0.0
  0
LINE
  5
713E
330
1E
100
AcDbEntity
  8
製品
  6
Continuous
 62
     2
100
AcDbLine
 10
132.9426408554268
 20
141.4697964802392
 30
0.0
 11
132.7926408554269
 21
141.419796480239
 31
0.0
  0
LINE
  5
713F
330
1E
100
AcDbEntity
  8
製品
  6
Continuous
 62
     2
100
AcDbLine
 10
132.7926408554269
 20
141.419796480239
 30
0.0
 11
132.6426408554268
 21
141.4697964802392
 31
0.0
  0
LINE
  5
7140
330
1E
100
AcDbEntity
  8
製品
  6
Continuous
 62
     2
100
AcDbLine
 10
132.6426408554268
 20
141.4697964802392
 30
0.0
 11
132.492640855427
 21
141.419796480239
 31
0.0
  0
LINE
  5
7141
330
1E
100
AcDbEntity
  8
製品
  6
Continuous
 62
     2
100
AcDbLine
 10
132.492640855427
 20
141.419796480239
 30
0.0
 11
132.3426408554269
 21
141.4697964802392
 31
0.0
  0
LINE
  5
7142
330
1E
100
AcDbEntity
  8
製品
  6
Continuous
 62
     2
100
AcDbLine
 10
132.3426408554269
 20
141.4697964802392
 30
0.0
 11
132.1926408554268
 21
141.419796480239
 31
0.0
  0
LINE
  5
7143
330
1E
100
AcDbEntity
  8
製品
  6
Continuous
 62
     2
100
AcDbLine
 10
133.117640855427
 20
142.4497964802396
 30
0.0
 11
131.2676408554268
 21
142.4497964802396
 31
0.0
  0
ARC
  5
7144
330
1E
100
AcDbEntity
  8
製品
  6
Continuous
 62
     2
100
AcDbCircle
 10
133.117640855427
 20
142.6497964802395
 30
0.0
 40
0.2
100
AcDbArc
 50
270.0
 51
0.0
  0
ARC
  5
7145
330
1E
100
AcDbEntity
  8
製品
  6
Continuous
 62
     2
100
AcDbCircle
 10
132.9676408554269
 20
143.0497964802391
 30
0.0
 40
0.15
100
AcDbArc
 50
180.0
 51
344.3217239999948
  0
ARC
  5
7146
330
1E
100
AcDbEntity
  8
製品
  6
Continuous
 62
     2
100
AcDbCircle
 10
133.2926408554269
 20
143.169796480239
 30
0.0
 40
0.1
100
AcDbArc
 50
0.0
 51
90.0
  0
LINE
  5
7147
330
1E
100
AcDbEntity
  8
製品
  6
Continuous
 62
     2
100
AcDbLine
 10
133.2926408554269
 20
143.2697964802394
 30
0.0
 11
133.1926408554268
 21
143.2697964802394
 31
0.0
  0
ARC
  5
7148
330
1E
100
AcDbEntity
  8
製品
  6
Continuous
 62
     2
100
AcDbCircle
 10
133.1926408554268
 20
143.169796480239
 30
0.0
 40
0.1
100
AcDbArc
 50
90.0
 51
180.0
  0
LINE
  5
7149
330
1E
100
AcDbEntity
  8
製品
  6
Continuous
 62
     2
100
AcDbLine
 10
133.0926408554269
 20
143.169796480239
 30
0.0
 11
133.0926408554269
 21
143.0197964802394
 31
0.0
  0
LINE
  5
714A
330
1E
100
AcDbEntity
  8
製品
  6
Continuous
 62
     2
100
AcDbLine
 10
133.0926408554269
 20
143.0197964802394
 30
0.0
 11
133.0426408554269
 21
143.0197964802394
 31
0.0
  0
LINE
  5
714B
330
1E
100
AcDbEntity
  8
製品
  6
Continuous
 62
     2
100
AcDbLine
 10
133.0426408554269
 20
143.0197964802394
 30
0.0
 11
133.0426408554269
 21
143.169796480239
 31
0.0
  0
ARC
  5
714C
330
1E
100
AcDbEntity
  8
製品
  6
Continuous
 62
     2
100
AcDbCircle
 10
133.1926408554268
 20
143.169796480239
 30
0.0
 40
0.15
100
AcDbArc
 50
90.0
 51
180.0
  0
ARC
  5
714D
330
1E
100
AcDbEntity
  8
製品
  6
Continuous
 62
     2
100
AcDbCircle
 10
133.1426408554268
 20
141.7197964802392
 30
0.0
 40
0.25
100
AcDbArc
 50
270.0
 51
0.0
  0
LINE
  5
714E
330
1E
100
AcDbEntity
  8
製品
  6
Continuous
 62
     2
100
AcDbLine
 10
133.4426408554268
 20
141.7197964802392
 30
0.0
 11
133.4426408554268
 21
143.169796480239
 31
0.0
  0
LINE
  5
714F
330
1E
100
AcDbEntity
  8
製品
  6
Continuous
 62
     2
100
AcDbLine
 10
133.3926408554268
 20
141.7197964802392
 30
0.0
 11
133.3926408554268
 21
143.169796480239
 31
0.0
  0
LINE
  5
7150
330
1E
100
AcDbEntity
  8
製品
  6
Continuous
 62
     2
100
AcDbLine
 10
133.0426408554269
 20
141.4697964802392
 30
0.0
 11
132.9426408554268
 21
141.5197964802394
 31
0.0
  0
LINE
  5
7151
330
1E
100
AcDbEntity
  8
製品
  6
Continuous
 62
     2
100
AcDbLine
 10
133.1426408554268
 20
141.419796480239
 30
0.0
 11
133.0426408554269
 21
141.419796480239
 31
0.0
  0
LINE
  5
7152
330
1E
100
AcDbEntity
  8
製品
  6
Continuous
 62
     2
100
AcDbLine
 10
133.1426408554268
 20
141.4697964802392
 30
0.0
 11
133.0426408554269
 21
141.4697964802392
 31
0.0
  0
LINE
  5
7153
330
1E
100
AcDbEntity
  8
製品
  6
Continuous
 62
     2
100
AcDbLine
 10
133.1120598554269
 20
143.009261480239
 30
0.0
 11
133.185186855427
 21
143.2697964802394
 31
0.0
  0
LINE
  5
7154
330
1E
100
AcDbEntity
  8
製品
  6
Continuous
 62
     2
100
AcDbLine
 10
133.3176408554268
 20
142.6497964802395
 30
0.0
 11
133.3176408554268
 21
143.2666214802395
 31
0.0
  0
ARC
  5
7155
330
1E
100
AcDbEntity
  8
製品
  6
Continuous
 62
     2
100
AcDbCircle
 10
133.2926408554269
 20
143.169796480239
 30
0.0
 40
0.15
100
AcDbArc
 50
0.0
 51
90.0
  0
ARC
  5
7156
330
1E
100
AcDbEntity
  8
製品
  6
Continuous
 62
     2
100
AcDbCircle
 10
133.1426408554268
 20
141.7197964802392
 30
0.0
 40
0.3
100
AcDbArc
 50
270.0
 51
0.0
  0
LINE
  5
7157
330
1E
100
AcDbEntity
  8
製品
  6
Continuous
 62
     2
100
AcDbLine
 10
131.5676408554268
 20
143.0497964802391
 30
0.0
 11
131.5676408554268
 21
144.2813224802396
 31
0.0
  0
LINE
  5
7158
330
1E
100
AcDbEntity
  8
製品
  6
Continuous
 62
     2
100
AcDbLine
 10
132.8176408554268
 20
143.0497964802391
 30
0.0
 11
132.8176408554268
 21
144.2813224802396
 31
0.0
  0
LINE
  5
7159
330
1E
100
AcDbEntity
  8
製品
  6
Continuous
 62
     4
100
AcDbLine
 10
139.0176408554268
 20
143.3197964802396
 30
0.0
 11
132.8176408554268
 21
143.3197964802396
 31
0.0
  0
LINE
  5
715A
330
1E
100
AcDbEntity
  8
製品
  6
Continuous
 62
     4
100
AcDbLine
 10
133.6926408554268
 20
147.1197964802388
 30
0.0
 11
139.0176408554268
 21
147.1197964802388
 31
0.0
  0
LINE
  5
715B
330
1E
100
AcDbEntity
  8
製品
  6
Continuous
 62
     4
100
AcDbLine
 10
140.6426408554268
 20
152.919796480239
 30
0.0
 11
140.6426408554268
 21
167.1197964802388
 31
0.0
  0
LINE
  5
715C
330
1E
100
AcDbEntity
  8
製品
  6
Continuous
 62
     4
100
AcDbLine
 10
139.6926408554268
 20
167.1197964802388
 30
0.0
 11
139.6926408554268
 21
152.919796480239
 31
0.0
  0
LINE
  5
715D
330
1E
100
AcDbEntity
  8
製品
  6
PLINE3
 62
     2
100
AcDbLine
 10
140.1676408554269
 20
152.919796480239
 30
0.0
 11
140.1676408554269
 21
167.1197964802388
 31
0.0
  0
LINE
  5
715F
330
1E
100
AcDbEntity
  8
製品
  6
Continuous
 62
     2
100
AcDbLine
 10
156.4866038554269
 20
143.4656984802388
 30
0.0
 11
156.5926408554269
 21
142.791857480239
 31
0.0
  0
LINE
  5
7160
330
1E
100
AcDbEntity
  8
製品
  6
Continuous
 62
     2
100
AcDbLine
 10
156.5420928554269
 20
142.7270994802395
 30
0.0
 11
156.4285568554269
 21
143.4485954802396
 31
0.0
  0
LINE
  5
7161
330
1E
100
AcDbEntity
  8
製品
  6
Continuous
 62
     2
100
AcDbLine
 10
156.4285568554269
 20
143.4485954802396
 30
0.0
 11
156.4866038554269
 21
143.4656984802388
 31
0.0
  0
LINE
  5
7162
330
1E
100
AcDbEntity
  8
製品
  6
Continuous
 62
     2
100
AcDbLine
 10
156.5926408554269
 20
142.791857480239
 30
0.0
 11
159.3305278554269
 21
143.0365804802388
 31
0.0
  0
LINE
  5
7163
330
1E
100
AcDbEntity
  8
製品
  6
Continuous
 62
     2
100
AcDbLine
 10
156.5420928554269
 20
142.7270994802395
 30
0.0
 11
159.3358688554269
 21
142.976818480239
 31
0.0
  0
LINE
  5
7164
330
1E
100
AcDbEntity
  8
製品
  6
Continuous
 62
     2
100
AcDbLine
 10
156.6526408554268
 20
140.9797964802394
 30
0.0
 11
156.5926408554269
 21
140.9797964802394
 31
0.0
  0
LINE
  5
7165
330
1E
100
AcDbEntity
  8
製品
  6
Continuous
 62
     2
100
AcDbLine
 10
156.5926408554269
 20
140.9797964802394
 30
0.0
 11
156.5926408554269
 21
141.4797964802394
 31
0.0
  0
LINE
  5
7166
330
1E
100
AcDbEntity
  8
製品
  6
Continuous
 62
     2
100
AcDbLine
 10
156.5926408554269
 20
141.4797964802394
 30
0.0
 11
159.4026408554268
 21
141.4797964802394
 31
0.0
  0
LINE
  5
7167
330
1E
100
AcDbEntity
  8
製品
  6
Continuous
 62
     2
100
AcDbLine
 10
156.3926408554268
 20
143.669796480239
 30
0.0
 11
156.3926408554268
 21
143.5697964802395
 31
0.0
  0
LINE
  5
7168
330
1E
100
AcDbEntity
  8
製品
  6
Continuous
 62
     2
100
AcDbLine
 10
156.3926408554268
 20
143.5697964802395
 30
0.0
 11
156.6526408554268
 21
143.5697964802395
 31
0.0
  0
LINE
  5
7169
330
1E
100
AcDbEntity
  8
製品
  6
Continuous
 62
     2
100
AcDbLine
 10
156.6526408554268
 20
143.5697964802395
 30
0.0
 11
156.6526408554268
 21
143.2197964802392
 31
0.0
  0
LINE
  5
716A
330
1E
100
AcDbEntity
  8
製品
  6
Continuous
 62
     2
100
AcDbLine
 10
156.6526408554268
 20
143.2197964802392
 30
0.0
 11
156.5526408554269
 21
143.2197964802392
 31
0.0
  0
LINE
  5
716B
330
1E
100
AcDbEntity
  8
製品
  6
Continuous
 62
     2
100
AcDbLine
 10
156.5526408554269
 20
143.2197964802392
 30
0.0
 11
156.5526408554269
 21
143.4697964802392
 31
0.0
  0
LINE
  5
716C
330
1E
100
AcDbEntity
  8
製品
  6
Continuous
 62
     2
100
AcDbLine
 10
156.5526408554269
 20
143.4697964802392
 30
0.0
 11
156.3926408554268
 21
143.4697964802392
 31
0.0
  0
LINE
  5
716D
330
1E
100
AcDbEntity
  8
製品
  6
Continuous
 62
     2
100
AcDbLine
 10
156.3926408554268
 20
143.4697964802392
 30
0.0
 11
156.3926408554268
 21
140.2697964802394
 31
0.0
  0
LINE
  5
716E
330
1E
100
AcDbEntity
  8
製品
  6
Continuous
 62
     2
100
AcDbLine
 10
156.3926408554268
 20
140.2697964802394
 30
0.0
 11
156.5526408554269
 21
140.2697964802394
 31
0.0
  0
LINE
  5
716F
330
1E
100
AcDbEntity
  8
製品
  6
Continuous
 62
     2
100
AcDbLine
 10
156.5526408554269
 20
140.2697964802394
 30
0.0
 11
156.5526408554269
 21
140.5197964802394
 31
0.0
  0
LINE
  5
7170
330
1E
100
AcDbEntity
  8
製品
  6
Continuous
 62
     2
100
AcDbLine
 10
156.5526408554269
 20
140.5197964802394
 30
0.0
 11
156.6526408554268
 21
140.5197964802394
 31
0.0
  0
LINE
  5
7171
330
1E
100
AcDbEntity
  8
製品
  6
Continuous
 62
     2
100
AcDbLine
 10
156.6526408554268
 20
140.5197964802394
 30
0.0
 11
156.6526408554268
 21
140.2197964802392
 31
0.0
  0
LINE
  5
7172
330
1E
100
AcDbEntity
  8
製品
  6
Continuous
 62
     2
100
AcDbLine
 10
157.1926408554268
 20
140.2197964802392
 30
0.0
 11
157.1926408554268
 21
140.0697964802396
 31
0.0
  0
LINE
  5
7173
330
1E
100
AcDbEntity
  8
製品
  6
Continuous
 62
     2
100
AcDbLine
 10
157.1926408554268
 20
140.0697964802396
 30
0.0
 11
157.0926408554269
 21
140.0697964802396
 31
0.0
  0
LINE
  5
7174
330
1E
100
AcDbEntity
  8
製品
  6
Continuous
 62
     2
100
AcDbLine
 10
157.0926408554269
 20
140.0697964802396
 30
0.0
 11
157.0926408554269
 21
140.1197964802388
 31
0.0
  0
LINE
  5
7175
330
1E
100
AcDbEntity
  8
製品
  6
Continuous
 62
     4
100
AcDbLine
 10
156.6526408554268
 20
141.419796480239
 30
0.0
 11
156.6526408554268
 21
140.2197964802392
 31
0.0
  0
LINE
  5
7176
330
1E
100
AcDbEntity
  8
製品
  6
Continuous
 62
     2
100
AcDbLine
 10
154.8526408554269
 20
140.5197964802394
 30
0.0
 11
154.952640855427
 21
140.5197964802394
 31
0.0
  0
LINE
  5
7177
330
1E
100
AcDbEntity
  8
製品
  6
Continuous
 62
     2
100
AcDbLine
 10
154.952640855427
 20
140.5197964802394
 30
0.0
 11
154.952640855427
 21
140.2197964802392
 31
0.0
  0
LINE
  5
7178
330
1E
100
AcDbEntity
  8
製品
  6
Continuous
 62
     2
100
AcDbLine
 10
154.9826408554268
 20
142.5871404802394
 30
0.0
 11
154.9826408554268
 21
141.1260704802391
 31
0.0
  0
LINE
  5
7179
330
1E
100
AcDbEntity
  8
製品
  6
Continuous
 62
     2
100
AcDbLine
 10
154.9826408554268
 20
141.1260704802391
 30
0.0
 11
154.6926408554268
 21
140.8360704802392
 31
0.0
  0
LINE
  5
717A
330
1E
100
AcDbEntity
  8
製品
  6
Continuous
 62
     2
100
AcDbLine
 10
155.1426408554268
 20
141.0597964802393
 30
0.0
 11
154.8526408554269
 21
140.7697964802394
 31
0.0
  0
LINE
  5
717B
330
1E
100
AcDbEntity
  8
製品
  6
Continuous
 62
     2
100
AcDbLine
 10
154.8526408554269
 20
143.2197964802392
 30
0.0
 11
154.8526408554269
 21
142.9697964802392
 31
0.0
  0
LINE
  5
717C
330
1E
100
AcDbEntity
  8
製品
  6
Continuous
 62
     2
100
AcDbLine
 10
154.8526408554269
 20
142.9697964802392
 30
0.0
 11
154.9826408554268
 21
142.8397964802391
 31
0.0
  0
LINE
  5
717D
330
1E
100
AcDbEntity
  8
製品
  6
Continuous
 62
     2
100
AcDbLine
 10
154.8526408554269
 20
140.7697964802394
 30
0.0
 11
154.8526408554269
 21
140.5197964802394
 31
0.0
  0
LINE
  5
717E
330
1E
100
AcDbEntity
  8
製品
  6
Continuous
 62
     2
100
AcDbLine
 10
155.5926408554269
 20
140.2197964802392
 30
0.0
 11
156.2926408554269
 21
140.2197964802392
 31
0.0
  0
LINE
  5
717F
330
1E
100
AcDbEntity
  8
製品
  6
Continuous
 62
     2
100
AcDbLine
 10
153.8926408554268
 20
140.0697964802396
 30
0.0
 11
153.8926408554268
 21
140.2197964802392
 31
0.0
  0
LINE
  5
7180
330
1E
100
AcDbEntity
  8
製品
  6
Continuous
 62
     2
100
AcDbLine
 10
153.8926408554268
 20
140.2197964802392
 30
0.0
 11
154.5926408554269
 21
140.2197964802392
 31
0.0
  0
LINE
  5
7181
330
1E
100
AcDbEntity
  8
製品
  6
Continuous
 62
     2
100
AcDbLine
 10
154.5926408554269
 20
140.2197964802392
 30
0.0
 11
154.5926408554269
 21
143.669796480239
 31
0.0
  0
LINE
  5
7182
330
1E
100
AcDbEntity
  8
製品
  6
Continuous
 62
     2
100
AcDbLine
 10
154.5926408554269
 20
143.669796480239
 30
0.0
 11
154.6926408554268
 21
143.669796480239
 31
0.0
  0
LINE
  5
7183
330
1E
100
AcDbEntity
  8
製品
  6
Continuous
 62
     2
100
AcDbLine
 10
154.6926408554268
 20
143.669796480239
 30
0.0
 11
154.6926408554268
 21
143.5697964802395
 31
0.0
  0
LINE
  5
7184
330
1E
100
AcDbEntity
  8
製品
  6
Continuous
 62
     2
100
AcDbLine
 10
154.6926408554268
 20
143.5697964802395
 30
0.0
 11
154.952640855427
 21
143.5697964802395
 31
0.0
  0
LINE
  5
7185
330
1E
100
AcDbEntity
  8
製品
  6
Continuous
 62
     2
100
AcDbLine
 10
155.5926408554269
 20
140.0697964802396
 30
0.0
 11
155.5926408554269
 21
140.2197964802392
 31
0.0
  0
LINE
  5
7186
330
1E
100
AcDbEntity
  8
製品
  6
Continuous
 62
     2
100
AcDbLine
 10
154.952640855427
 20
143.5697964802395
 30
0.0
 11
154.952640855427
 21
143.2197964802392
 31
0.0
  0
LINE
  5
7187
330
1E
100
AcDbEntity
  8
製品
  6
Continuous
 62
     2
100
AcDbLine
 10
154.952640855427
 20
143.2197964802392
 30
0.0
 11
154.8526408554269
 21
143.2197964802392
 31
0.0
  0
LINE
  5
7188
330
1E
100
AcDbEntity
  8
製品
  6
Continuous
 62
     2
100
AcDbLine
 10
154.8526408554269
 20
143.2197964802392
 30
0.0
 11
154.8526408554269
 21
143.4697964802392
 31
0.0
  0
LINE
  5
7189
330
1E
100
AcDbEntity
  8
製品
  6
Continuous
 62
     2
100
AcDbLine
 10
154.8526408554269
 20
143.4697964802392
 30
0.0
 11
154.6926408554268
 21
143.4697964802392
 31
0.0
  0
LINE
  5
718A
330
1E
100
AcDbEntity
  8
製品
  6
Continuous
 62
     2
100
AcDbLine
 10
154.6926408554268
 20
143.4697964802392
 30
0.0
 11
154.6926408554268
 21
140.2697964802394
 31
0.0
  0
LINE
  5
718B
330
1E
100
AcDbEntity
  8
製品
  6
Continuous
 62
     2
100
AcDbLine
 10
154.6926408554268
 20
140.2697964802394
 30
0.0
 11
154.8526408554269
 21
140.2697964802394
 31
0.0
  0
LINE
  5
718C
330
1E
100
AcDbEntity
  8
製品
  6
Continuous
 62
     2
100
AcDbLine
 10
154.8526408554269
 20
140.2697964802394
 30
0.0
 11
154.8526408554269
 21
140.5197964802394
 31
0.0
  0
LINE
  5
718D
330
1E
100
AcDbEntity
  8
製品
  6
Continuous
 62
     2
100
AcDbLine
 10
154.952640855427
 20
140.2197964802392
 30
0.0
 11
155.492640855427
 21
140.2197964802392
 31
0.0
  0
LINE
  5
718E
330
1E
100
AcDbEntity
  8
製品
  6
Continuous
 62
     2
100
AcDbLine
 10
155.492640855427
 20
140.2197964802392
 30
0.0
 11
155.492640855427
 21
140.0697964802396
 31
0.0
  0
LINE
  5
718F
330
1E
100
AcDbEntity
  8
製品
  6
Continuous
 62
     2
100
AcDbLine
 10
155.492640855427
 20
140.0697964802396
 30
0.0
 11
155.3926408554268
 21
140.0697964802396
 31
0.0
  0
LINE
  5
7190
330
1E
100
AcDbEntity
  8
製品
  6
Continuous
 62
     2
100
AcDbLine
 10
155.3926408554268
 20
140.0697964802396
 30
0.0
 11
155.3926408554268
 21
140.1197964802388
 31
0.0
  0
LINE
  5
7191
330
1E
100
AcDbEntity
  8
製品
  6
Continuous
 62
     2
100
AcDbLine
 10
155.3926408554268
 20
140.1197964802388
 30
0.0
 11
153.992640855427
 21
140.1197964802388
 31
0.0
  0
LINE
  5
7192
330
1E
100
AcDbEntity
  8
製品
  6
Continuous
 62
     2
100
AcDbLine
 10
153.992640855427
 20
140.1197964802388
 30
0.0
 11
153.992640855427
 21
140.0697964802396
 31
0.0
  0
LINE
  5
7193
330
1E
100
AcDbEntity
  8
製品
  6
Continuous
 62
     2
100
AcDbLine
 10
153.992640855427
 20
140.0697964802396
 30
0.0
 11
153.8926408554268
 21
140.0697964802396
 31
0.0
  0
LINE
  5
7194
330
1E
100
AcDbEntity
  8
製品
  6
Continuous
 62
     2
100
AcDbLine
 10
155.6926408554268
 20
140.1197964802388
 30
0.0
 11
155.6926408554268
 21
140.0697964802396
 31
0.0
  0
LINE
  5
7195
330
1E
100
AcDbEntity
  8
製品
  6
Continuous
 62
     2
100
AcDbLine
 10
155.6926408554268
 20
140.0697964802396
 30
0.0
 11
155.5926408554269
 21
140.0697964802396
 31
0.0
  0
LINE
  5
7196
330
1E
100
AcDbEntity
  8
製品
  6
Continuous
 62
     2
100
AcDbLine
 10
154.6926408554268
 20
142.9035224802394
 30
0.0
 11
154.9826408554268
 21
142.6135224802394
 31
0.0
  0
LINE
  5
7197
330
1E
100
AcDbEntity
  8
製品
  6
Continuous
 62
     2
100
AcDbLine
 10
156.2926408554269
 20
143.669796480239
 30
0.0
 11
156.2926408554269
 21
140.2197964802392
 31
0.0
  0
LINE
  5
7198
330
1E
100
AcDbEntity
  8
製品
  6
Continuous
 62
     2
100
AcDbLine
 10
157.0926408554269
 20
140.1197964802388
 30
0.0
 11
155.6926408554268
 21
140.1197964802388
 31
0.0
  0
ARC
  5
7199
330
1E
100
AcDbEntity
  8
製品
  6
Continuous
 62
     2
100
AcDbCircle
 10
159.4026408554268
 20
142.2297964802394
 30
0.0
 40
0.8100000000000001
100
AcDbArc
 50
270.0
 51
95.10775200000406
  0
ARC
  5
719A
330
1E
100
AcDbEntity
  8
製品
  6
Continuous
 62
     2
100
AcDbCircle
 10
159.4026408554268
 20
142.2297964802394
 30
0.0
 40
0.75
100
AcDbArc
 50
270.0
 51
95.10775400000282
  0
LINE
  5
719D
330
1E
100
AcDbEntity
  8
図面枠
  6
Continuous
 62
     2
100
AcDbLine
 10
157.9085578554268
 20
157.1197964802388
 30
0.0
 11
169.948557855427
 21
157.1197964802388
 31
0.0
  0
LINE
  5
719E
330
1E
100
AcDbEntity
  8
製品
  6
Continuous
 62
     2
100
AcDbLine
 10
151.1966818554269
 20
273.2175294802394
 30
0.0
 11
153.6966818554269
 21
270.7175294802393
 31
0.0
  0
LINE
  5
719F
330
1E
100
AcDbEntity
  8
製品
  6
Continuous
 62
     2
100
AcDbLine
 10
152.1146408554268
 20
289.2175294802393
 30
0.0
 11
155.6146408554268
 21
289.2175294802393
 31
0.0
  0
LINE
  5
71A0
330
1E
100
AcDbEntity
  8
製品
  6
Continuous
 62
     2
100
AcDbLine
 10
155.6146408554268
 20
287.2175294802394
 30
0.0
 11
152.1146408554268
 21
287.2175294802394
 31
0.0
  0
LINE
  5
71A1
330
1E
100
AcDbEntity
  8
製品
  6
PLINE3
 62
     2
100
AcDbLine
 10
151.736526855427
 20
288.2175294802394
 30
0.0
 11
156.1602148554268
 21
288.2175294802394
 31
0.0
  0
LINE
  5
71A2
330
1E
100
AcDbEntity
  8
製品
  6
Continuous
 62
     4
100
AcDbLine
 10
149.992640855427
 20
262.7175294802394
 30
0.0
 11
153.8926408554268
 21
262.7175294802394
 31
0.0
  0
LINE
  5
71A3
330
1E
100
AcDbEntity
  8
製品
  6
Continuous
 62
     2
100
AcDbLine
 10
153.5726408554269
 20
188.9069964802395
 30
0.0
 11
151.8926408554268
 21
188.9069964802395
 31
0.0
  0
LINE
  5
71A4
330
1E
100
AcDbEntity
  8
製品
  6
Continuous
 62
     2
100
AcDbLine
 10
153.1026408554269
 20
192.3869964802391
 30
0.0
 11
152.1826408554268
 21
192.3869964802391
 31
0.0
  0
ARC
  5
71A5
330
1E
100
AcDbEntity
  8
製品
  6
Continuous
 62
     2
100
AcDbCircle
 10
152.6426408554268
 20
194.0944964802395
 30
0.0
 40
0.8125
100
AcDbArc
 50
30.67742400002348
 51
149.3225759999765
  0
ARC
  5
71A6
330
1E
100
AcDbEntity
  8
製品
  6
Continuous
 62
     2
100
AcDbCircle
 10
152.6426408554268
 20
194.7194964802395
 30
0.0
 40
0.8125
100
AcDbArc
 50
210.6774500000127
 51
329.3225450000134
  0
LINE
  5
71A7
330
1E
100
AcDbEntity
  8
製品
  6
Continuous
 62
     2
100
AcDbLine
 10
152.9426408554268
 20
193.9069964802395
 30
0.0
 11
152.3426408554269
 21
193.9069964802395
 31
0.0
  0
LINE
  5
71A8
330
1E
100
AcDbEntity
  8
製品
  6
Continuous
 62
     2
100
AcDbLine
 10
154.8326408554269
 20
192.5869964802389
 30
0.0
 11
151.6426408554268
 21
192.5869964802389
 31
0.0
  0
LINE
  5
71A9
330
1E
100
AcDbEntity
  8
製品
  6
Continuous
 62
     2
100
AcDbLine
 10
154.8326408554269
 20
192.7469964802396
 30
0.0
 11
151.6426408554268
 21
192.7469964802396
 31
0.0
  0
LINE
  5
71AA
330
1E
100
AcDbEntity
  8
図面枠
  6
Continuous
 62
     2
100
AcDbLine
 10
144.992640855427
 20
192.5469964802389
 30
0.0
 11
160.0254348554269
 21
218.5845604802391
 31
0.0
  0
LINE
  5
71AB
330
1E
100
AcDbEntity
  8
製品
  6
Continuous
 62
     2
100
AcDbLine
 10
143.7926408554269
 20
292.7501804802389
 30
0.0
 11
144.992640855427
 21
293.9501804802396
 31
0.0
  0
LINE
  5
71AC
330
1E
100
AcDbEntity
  8
製品
  6
Continuous
 62
     2
100
AcDbLine
 10
143.7926408554269
 20
294.2351054802395
 30
0.0
 11
144.992640855427
 21
295.4351054802394
 31
0.0
  0
LINE
  5
71AD
330
1E
100
AcDbEntity
  8
製品
  6
Continuous
 62
     2
100
AcDbLine
 10
143.7926408554269
 20
295.720029480239
 30
0.0
 11
144.992640855427
 21
296.9200294802397
 31
0.0
  0
LINE
  5
71AE
330
1E
100
AcDbEntity
  8
製品
  6
Continuous
 62
     2
100
AcDbLine
 10
143.7926408554269
 20
297.2049534802393
 30
0.0
 11
144.992640855427
 21
298.4049534802391
 31
0.0
  0
LINE
  5
71AF
330
1E
100
AcDbEntity
  8
製品
  6
Continuous
 62
     2
100
AcDbLine
 10
143.7926408554269
 20
298.6898774802396
 30
0.0
 11
144.992640855427
 21
299.8898774802394
 31
0.0
  0
LINE
  5
71B0
330
1E
100
AcDbEntity
  8
製品
  6
Continuous
 62
     2
100
AcDbLine
 10
143.7926408554269
 20
300.1748024802393
 30
0.0
 11
144.992640855427
 21
301.3748024802392
 31
0.0
  0
LINE
  5
71B1
330
1E
100
AcDbEntity
  8
製品
  6
Continuous
 62
     2
100
AcDbLine
 10
152.1146408554268
 20
287.2175294802394
 30
0.0
 11
152.1146408554268
 21
289.2175294802393
 31
0.0
  0
LINE
  5
71B2
330
1E
100
AcDbEntity
  8
製品
  6
Continuous
 62
     4
100
AcDbLine
 10
150.992640855427
 20
287.7675294802395
 30
0.0
 11
150.992640855427
 21
285.2675294802395
 31
0.0
  0
LINE
  5
71B3
330
1E
100
AcDbEntity
  8
製品
  6
Continuous
 62
     2
100
AcDbLine
 10
143.7926408554269
 20
282.355711480239
 30
0.0
 11
144.992640855427
 21
283.5557114802389
 31
0.0
  0
LINE
  5
71B4
330
1E
100
AcDbEntity
  8
製品
  6
Continuous
 62
     2
100
AcDbLine
 10
143.7926408554269
 20
283.8406354802394
 30
0.0
 11
144.992640855427
 21
285.0406354802392
 31
0.0
  0
LINE
  5
71B5
330
1E
100
AcDbEntity
  8
製品
  6
Continuous
 62
     2
100
AcDbLine
 10
143.7926408554269
 20
288.2954084802398
 30
0.0
 11
144.992640855427
 21
289.4954084802396
 31
0.0
  0
LINE
  5
71B6
330
1E
100
AcDbEntity
  8
製品
  6
Continuous
 62
     2
100
AcDbLine
 10
143.7926408554269
 20
289.7803324802392
 30
0.0
 11
144.992640855427
 21
290.980332480239
 31
0.0
  0
LINE
  5
71B7
330
1E
100
AcDbEntity
  8
製品
  6
Continuous
 62
     2
100
AcDbLine
 10
149.7824678554268
 20
273.2175294802394
 30
0.0
 11
152.2824678554268
 21
270.7175294802393
 31
0.0
  0
LINE
  5
71B8
330
1E
100
AcDbEntity
  8
製品
  6
Continuous
 62
     2
100
AcDbLine
 10
145.5398268554268
 20
273.2175294802394
 30
0.0
 11
148.0398268554267
 21
270.7175294802393
 31
0.0
  0
LINE
  5
71B9
330
1E
100
AcDbEntity
  8
製品
  6
Continuous
 62
     2
100
AcDbLine
 10
148.3682548554268
 20
273.2175294802394
 30
0.0
 11
150.8682548554268
 21
270.7175294802393
 31
0.0
  0
LINE
  5
71BA
330
1E
100
AcDbEntity
  8
製品
  6
Continuous
 62
     2
100
AcDbLine
 10
146.9540408554269
 20
273.2175294802394
 30
0.0
 11
149.4540408554269
 21
270.7175294802393
 31
0.0
  0
LINE
  5
71BB
330
1E
100
AcDbEntity
  8
製品
  6
Continuous
 62
     2
100
AcDbLine
 10
141.2971868554268
 20
273.2175294802394
 30
0.0
 11
143.7971868554268
 21
270.7175294802393
 31
0.0
  0
LINE
  5
71BC
330
1E
100
AcDbEntity
  8
製品
  6
Continuous
 62
     2
100
AcDbLine
 10
138.4687598554269
 20
273.2175294802394
 30
0.0
 11
140.9687598554269
 21
270.7175294802393
 31
0.0
  0
LINE
  5
71BD
330
1E
100
AcDbEntity
  8
製品
  6
Continuous
 62
     2
100
AcDbLine
 10
139.8829728554269
 20
273.2175294802394
 30
0.0
 11
142.3829728554269
 21
270.7175294802393
 31
0.0
  0
LINE
  5
71BE
330
1E
100
AcDbEntity
  8
製品
  6
Continuous
 62
     2
100
AcDbLine
 10
144.125613855427
 20
273.2175294802394
 30
0.0
 11
146.625613855427
 21
270.7175294802393
 31
0.0
  0
LINE
  5
71BF
330
1E
100
AcDbEntity
  8
製品
  6
Continuous
 62
     2
100
AcDbLine
 10
142.7113998554268
 20
273.2175294802394
 30
0.0
 11
145.2113998554268
 21
270.7175294802393
 31
0.0
  0
LINE
  5
71C0
330
1E
100
AcDbEntity
  8
製品
  6
Continuous
 62
     2
100
AcDbLine
 10
143.7926408554269
 20
273.4461654802392
 30
0.0
 11
144.992640855427
 21
274.646165480239
 31
0.0
  0
LINE
  5
71C1
330
1E
100
AcDbEntity
  8
製品
  6
Continuous
 62
     2
100
AcDbLine
 10
143.7926408554269
 20
274.9310894802395
 30
0.0
 11
144.992640855427
 21
276.1310894802393
 31
0.0
  0
LINE
  5
71C2
330
1E
100
AcDbEntity
  8
製品
  6
Continuous
 62
     2
100
AcDbLine
 10
143.7926408554269
 20
276.4160144802393
 30
0.0
 11
144.992640855427
 21
277.6160144802391
 31
0.0
  0
LINE
  5
71C3
330
1E
100
AcDbEntity
  8
製品
  6
Continuous
 62
     2
100
AcDbLine
 10
143.7926408554269
 20
277.9009384802396
 30
0.0
 11
144.992640855427
 21
279.1009384802394
 31
0.0
  0
LINE
  5
71C4
330
1E
100
AcDbEntity
  8
製品
  6
Continuous
 62
     2
100
AcDbLine
 10
143.7926408554269
 20
279.385862480239
 30
0.0
 11
144.992640855427
 21
280.5858624802397
 31
0.0
  0
LINE
  5
71C5
330
1E
100
AcDbEntity
  8
製品
  6
Continuous
 62
     4
100
AcDbLine
 10
149.992640855427
 20
273.2175294802394
 30
0.0
 11
149.992640855427
 21
285.2675294802395
 31
0.0
  0
LINE
  5
71C6
330
1E
100
AcDbEntity
  8
製品
  6
Continuous
 62
     2
100
AcDbLine
 10
143.7926408554269
 20
280.8707864802393
 30
0.0
 11
144.992640855427
 21
282.0707864802391
 31
0.0
  0
LINE
  5
71C7
330
1E
100
AcDbEntity
  8
製品
  6
Continuous
 62
     4
100
AcDbLine
 10
143.7926408554269
 20
273.4461654802392
 30
0.0
 11
143.7926408554269
 21
285.2675294802395
 31
0.0
  0
LINE
  5
71C8
330
1E
100
AcDbEntity
  8
製品
  6
Continuous
 62
     4
100
AcDbLine
 10
144.992640855427
 20
285.2675294802395
 30
0.0
 11
144.992640855427
 21
273.2175294802394
 31
0.0
  0
LINE
  5
71C9
330
1E
100
AcDbEntity
  8
製品
  6
Continuous
 62
     2
100
AcDbLine
 10
143.7926408554269
 20
260.0818474802393
 30
0.0
 11
144.992640855427
 21
261.2818474802391
 31
0.0
  0
LINE
  5
71CA
330
1E
100
AcDbEntity
  8
製品
  6
Continuous
 62
     2
100
AcDbLine
 10
143.7926408554269
 20
261.5667714802396
 30
0.0
 11
144.992640855427
 21
262.7667714802394
 31
0.0
  0
LINE
  5
71CB
330
1E
100
AcDbEntity
  8
製品
  6
Continuous
 62
     2
100
AcDbLine
 10
143.7926408554269
 20
263.0516964802394
 30
0.0
 11
144.992640855427
 21
264.2516964802392
 31
0.0
  0
LINE
  5
71CC
330
1E
100
AcDbEntity
  8
製品
  6
Continuous
 62
     2
100
AcDbLine
 10
143.7926408554269
 20
264.5366204802396
 30
0.0
 11
144.992640855427
 21
265.7366204802395
 31
0.0
  0
LINE
  5
71CD
330
1E
100
AcDbEntity
  8
製品
  6
Continuous
 62
     2
100
AcDbLine
 10
143.7926408554269
 20
266.0215444802391
 30
0.0
 11
144.992640855427
 21
267.2215444802389
 31
0.0
  0
LINE
  5
71CE
330
1E
100
AcDbEntity
  8
製品
  6
Continuous
 62
     2
100
AcDbLine
 10
143.7926408554269
 20
267.5064684802394
 30
0.0
 11
144.992640855427
 21
268.7064684802392
 31
0.0
  0
LINE
  5
71CF
330
1E
100
AcDbEntity
  8
製品
  6
Continuous
 62
     2
100
AcDbLine
 10
143.7926408554269
 20
268.9913924802397
 30
0.0
 11
144.992640855427
 21
270.1913924802395
 31
0.0
  0
LINE
  5
71D0
330
1E
100
AcDbEntity
  8
製品
  6
Continuous
 62
     2
100
AcDbLine
 10
143.7926408554269
 20
249.6873774802391
 30
0.0
 11
144.992640855427
 21
250.8873774802389
 31
0.0
  0
LINE
  5
71D1
330
1E
100
AcDbEntity
  8
製品
  6
Continuous
 62
     2
100
AcDbLine
 10
143.9481708554269
 20
257.2675294802396
 30
0.0
 11
144.992640855427
 21
258.3119994802394
 31
0.0
  0
LINE
  5
71D2
330
1E
100
AcDbEntity
  8
製品
  6
Continuous
 62
     2
100
AcDbLine
 10
143.7926408554269
 20
251.1723024802388
 30
0.0
 11
144.992640855427
 21
252.3723024802396
 31
0.0
  0
LINE
  5
71D3
330
1E
100
AcDbEntity
  8
製品
  6
Continuous
 62
     2
100
AcDbLine
 10
143.7926408554269
 20
252.6572264802392
 30
0.0
 11
144.992640855427
 21
253.857226480239
 31
0.0
  0
LINE
  5
71D4
330
1E
100
AcDbEntity
  8
製品
  6
Continuous
 62
     2
100
AcDbLine
 10
143.7926408554269
 20
258.5969234802389
 30
0.0
 11
144.992640855427
 21
259.7969234802397
 31
0.0
  0
LINE
  5
71D5
330
1E
100
AcDbEntity
  8
製品
  6
Continuous
 62
     4
100
AcDbLine
 10
149.992640855427
 20
262.7175294802394
 30
0.0
 11
149.992640855427
 21
270.7175294802393
 31
0.0
  0
LINE
  5
71D6
330
1E
100
AcDbEntity
  8
製品
  6
Continuous
 62
     4
100
AcDbLine
 10
144.992640855427
 20
270.7175294802393
 30
0.0
 11
144.992640855427
 21
257.2675294802396
 31
0.0
  0
LINE
  5
71D7
330
1E
100
AcDbEntity
  8
製品
  6
Continuous
 62
     4
100
AcDbLine
 10
143.7926408554269
 20
257.2675294802396
 30
0.0
 11
143.7926408554269
 21
270.4763174802395
 31
0.0
  0
LINE
  5
71D8
330
1E
100
AcDbEntity
  8
製品
  6
Continuous
 62
     2
100
AcDbLine
 10
134.2261188554269
 20
273.2175294802394
 30
0.0
 11
136.7261188554268
 21
270.7175294802393
 31
0.0
  0
LINE
  5
71D9
330
1E
100
AcDbEntity
  8
製品
  6
Continuous
 62
     2
100
AcDbLine
 10
132.8119048554269
 20
273.2175294802394
 30
0.0
 11
135.3119048554269
 21
270.7175294802393
 31
0.0
  0
LINE
  5
71DA
330
1E
100
AcDbEntity
  8
製品
  6
Continuous
 62
     2
100
AcDbLine
 10
131.3976918554269
 20
273.2175294802394
 30
0.0
 11
133.8976918554269
 21
270.7175294802393
 31
0.0
  0
LINE
  5
71DB
330
1E
100
AcDbEntity
  8
製品
  6
Continuous
 62
     4
100
AcDbLine
 10
132.8926408554268
 20
273.2175294802394
 30
0.0
 11
132.8926408554268
 21
285.2675294802395
 31
0.0
  0
LINE
  5
71DC
330
1E
100
AcDbEntity
  8
製品
  6
Continuous
 62
     4
100
AcDbLine
 10
134.0926408554269
 20
285.2675294802395
 30
0.0
 11
134.0926408554269
 21
273.2175294802394
 31
0.0
  0
LINE
  5
71DD
330
1E
100
AcDbEntity
  8
製品
  6
Continuous
 62
     2
100
AcDbLine
 10
132.7855338554268
 20
264.6996364802392
 30
0.0
 11
134.1997478554269
 21
263.2854224802397
 31
0.0
  0
LINE
  5
71DE
330
1E
100
AcDbEntity
  8
製品
  6
Continuous
 62
     2
100
AcDbLine
 10
134.1997478554269
 20
264.6996364802392
 30
0.0
 11
132.7855338554268
 21
263.2854224802397
 31
0.0
  0
CIRCLE
  5
71DF
330
1E
100
AcDbEntity
  8
製品
  6
Continuous
 62
     4
100
AcDbCircle
 10
133.492640855427
 20
263.992529480239
 30
0.0
 40
1.0
  0
LINE
  5
71E0
330
1E
100
AcDbEntity
  8
製品
  6
Continuous
 62
     4
100
AcDbLine
 10
132.8926408554268
 20
257.2675294802396
 30
0.0
 11
132.8926408554268
 21
270.7175294802393
 31
0.0
  0
LINE
  5
71E1
330
1E
100
AcDbEntity
  8
製品
  6
Continuous
 62
     4
100
AcDbLine
 10
134.0926408554269
 20
270.7175294802393
 30
0.0
 11
134.0926408554269
 21
257.2675294802396
 31
0.0
  0
LINE
  5
71E2
330
1E
100
AcDbEntity
  8
製品
  6
Continuous
 62
     2
100
AcDbLine
 10
137.054545855427
 20
273.2175294802394
 30
0.0
 11
139.554545855427
 21
270.7175294802393
 31
0.0
  0
LINE
  5
71E3
330
1E
100
AcDbEntity
  8
製品
  6
Continuous
 62
     2
100
AcDbLine
 10
135.640332855427
 20
273.2175294802394
 30
0.0
 11
138.140332855427
 21
270.7175294802393
 31
0.0
  0
LINE
  5
71E4
330
1E
100
AcDbEntity
  8
製品
  6
Continuous
 62
     2
100
AcDbLine
 10
143.7926408554269
 20
291.2652564802395
 30
0.0
 11
144.992640855427
 21
292.4652564802393
 31
0.0
  0
LINE
  5
71E5
330
1E
100
AcDbEntity
  8
製品
  6
Continuous
 62
     2
100
AcDbLine
 10
143.7926408554269
 20
246.7175294802394
 30
0.0
 11
144.992640855427
 21
247.9175294802392
 31
0.0
  0
LINE
  5
71E6
330
1E
100
AcDbEntity
  8
製品
  6
Continuous
 62
     4
100
AcDbLine
 10
143.7926408554269
 20
246.7175294802394
 30
0.0
 11
144.992640855427
 21
246.7175294802394
 31
0.0
  0
LINE
  5
71E7
330
1E
100
AcDbEntity
  8
製品
  6
Continuous
 62
     2
100
AcDbLine
 10
152.1826408554268
 20
192.3869964802391
 30
0.0
 11
152.1826408554268
 21
192.5869964802389
 31
0.0
  0
LINE
  5
71E8
330
1E
100
AcDbEntity
  8
製品
  6
Continuous
 62
     2
100
AcDbLine
 10
151.6426408554268
 20
192.7469964802396
 30
0.0
 11
151.6426408554268
 21
192.5869964802389
 31
0.0
  0
LINE
  5
71E9
330
1E
100
AcDbEntity
  8
製品
  6
Continuous
 62
     2
100
AcDbLine
 10
152.3426408554269
 20
193.9069964802395
 30
0.0
 11
152.3426408554269
 21
192.7469964802396
 31
0.0
  0
LINE
  5
71EA
330
1E
100
AcDbEntity
  8
製品
  6
Continuous
 62
     2
100
AcDbLine
 10
152.3426408554269
 20
193.9644104802394
 30
0.0
 11
152.3426408554269
 21
193.9069964802395
 31
0.0
  0
ARC
  5
71EB
330
1E
100
AcDbEntity
  8
製品
  6
Continuous
 62
     2
100
AcDbCircle
 10
152.1158578554268
 20
194.4069964802395
 30
0.0
 40
0.2
100
AcDbArc
 50
149.3225759999765
 51
210.6775300000278
  0
LINE
  5
71EC
330
1E
100
AcDbEntity
  8
製品
  6
Continuous
 62
     2
100
AcDbLine
 10
144.992640855427
 20
192.5469964802389
 30
0.0
 11
144.992640855427
 21
192.3869964802391
 31
0.0
  0
LINE
  5
71ED
330
1E
100
AcDbEntity
  8
製品
  6
Continuous
 62
     2
100
AcDbLine
 10
149.992640855427
 20
189.9469964802394
 30
0.0
 11
149.992640855427
 21
188.9069964802395
 31
0.0
  0
ARC
  5
71EE
330
1E
100
AcDbEntity
  8
製品
  6
Continuous
 62
     2
100
AcDbCircle
 10
150.1526408554268
 20
188.9069964802395
 30
0.0
 40
0.16
100
AcDbArc
 50
180.0
 51
270.0
  0
LINE
  5
71EF
330
1E
100
AcDbEntity
  8
製品
  6
Continuous
 62
     2
100
AcDbLine
 10
150.1526408554268
 20
189.9469964802394
 30
0.0
 11
149.992640855427
 21
189.9469964802394
 31
0.0
  0
LINE
  5
71F0
330
1E
100
AcDbEntity
  8
製品
  6
Continuous
 62
     2
100
AcDbLine
 10
150.1526408554268
 20
188.966996480239
 30
0.0
 11
150.1526408554268
 21
189.9469964802394
 31
0.0
  0
ARC
  5
71F1
330
1E
100
AcDbEntity
  8
製品
  6
Continuous
 62
     2
100
AcDbCircle
 10
150.2126408554268
 20
188.966996480239
 30
0.0
 40
0.06
100
AcDbArc
 50
180.0
 51
270.0
  0
LINE
  5
71F2
330
1E
100
AcDbEntity
  8
製品
  6
Continuous
 62
     2
100
AcDbLine
 10
150.2126408554268
 20
188.9069964802395
 30
0.0
 11
151.8926408554268
 21
188.9069964802395
 31
0.0
  0
LINE
  5
71F3
330
1E
100
AcDbEntity
  8
製品
  6
Continuous
 62
     2
100
AcDbLine
 10
144.992640855427
 20
188.9069964802395
 30
0.0
 11
144.992640855427
 21
188.7469964802397
 31
0.0
  0
LINE
  5
71F4
330
1E
100
AcDbEntity
  8
製品
  6
Continuous
 62
     2
100
AcDbLine
 10
152.3426408554269
 20
192.3869964802391
 30
0.0
 11
152.3426408554269
 21
188.9069964802395
 31
0.0
  0
LINE
  5
71F5
330
1E
100
AcDbEntity
  8
製品
  6
Continuous
 62
     2
100
AcDbLine
 10
143.952640855427
 20
192.3869964802391
 30
0.0
 11
143.952640855427
 21
188.9069964802395
 31
0.0
  0
LINE
  5
71F6
330
1E
100
AcDbEntity
  8
製品
  6
Continuous
 62
     2
100
AcDbLine
 10
143.7926408554269
 20
192.5469964802389
 30
0.0
 11
143.7926408554269
 21
188.7469964802397
 31
0.0
  0
CIRCLE
  5
71F7
330
1E
100
AcDbEntity
  8
図面枠
  6
Continuous
 62
     2
100
AcDbCircle
 10
144.992640855427
 20
192.5469964802389
 30
0.0
 40
0.3
  0
LINE
  5
71F8
330
1E
100
AcDbEntity
  8
製品
  6
Continuous
 62
     2
100
AcDbLine
 10
143.952640855427
 20
188.9069964802395
 30
0.0
 11
144.992640855427
 21
188.9069964802395
 31
0.0
  0
LINE
  5
71F9
330
1E
100
AcDbEntity
  8
製品
  6
Continuous
 62
     2
100
AcDbLine
 10
144.992640855427
 20
192.3869964802391
 30
0.0
 11
143.952640855427
 21
192.3869964802391
 31
0.0
  0
LINE
  5
71FA
330
1E
100
AcDbEntity
  8
製品
  6
Continuous
 62
     2
100
AcDbLine
 10
144.992640855427
 20
192.5469964802389
 30
0.0
 11
143.7926408554269
 21
192.5469964802389
 31
0.0
  0
LINE
  5
71FB
330
1E
100
AcDbEntity
  8
製品
  6
Continuous
 62
     2
100
AcDbLine
 10
131.9264838554268
 20
197.3469964802391
 30
0.0
 11
132.0676408554268
 21
197.4284944802396
 31
0.0
  0
LINE
  5
71FC
330
1E
100
AcDbEntity
  8
製品
  6
Continuous
 62
     2
100
AcDbLine
 10
131.5926408554269
 20
197.4284944802396
 30
0.0
 11
131.5926408554269
 21
198.1469964802393
 31
0.0
  0
ARC
  5
71FD
330
1E
100
AcDbEntity
  8
製品
  6
Continuous
 62
     2
100
AcDbCircle
 10
131.8217778554269
 20
197.7098644802392
 30
0.0
 40
0.362868
100
AcDbArc
 50
230.842054999978
 51
270.0
  0
LINE
  5
71FE
330
1E
100
AcDbEntity
  8
製品
  6
Continuous
 62
     2
100
AcDbLine
 10
132.0676408554268
 20
197.4284944802396
 30
0.0
 11
132.0676408554268
 21
198.1469964802393
 31
0.0
  0
LINE
  5
71FF
330
1E
100
AcDbEntity
  8
製品
  6
Continuous
 62
     2
100
AcDbLine
 10
131.9264838554268
 20
199.1469964802393
 30
0.0
 11
132.0676408554268
 21
199.0654994802391
 31
0.0
  0
LINE
  5
7200
330
1E
100
AcDbEntity
  8
製品
  6
Continuous
 62
     2
100
AcDbLine
 10
131.5926408554269
 20
199.0654994802391
 30
0.0
 11
131.5926408554269
 21
198.3469964802391
 31
0.0
  0
ARC
  5
7201
330
1E
100
AcDbEntity
  8
製品
  6
Continuous
 62
     2
100
AcDbCircle
 10
131.8217778554269
 20
198.7841294802394
 30
0.0
 40
0.362868
100
AcDbArc
 50
90.0
 51
129.157945000022
  0
LINE
  5
7202
330
1E
100
AcDbEntity
  8
製品
  6
Continuous
 62
     2
100
AcDbLine
 10
132.0676408554268
 20
199.0654994802391
 30
0.0
 11
132.0676408554268
 21
198.3469964802391
 31
0.0
  0
ARC
  5
7203
330
1E
100
AcDbEntity
  8
製品
  6
Continuous
 62
     2
100
AcDbCircle
 10
132.5426408554269
 20
197.9969964802396
 30
0.0
 40
0.15
100
AcDbArc
 50
0.0
 51
90.0
  0
ARC
  5
7204
330
1E
100
AcDbEntity
  8
製品
  6
Continuous
 62
     2
100
AcDbCircle
 10
132.5426408554269
 20
197.9969964802396
 30
0.0
 40
0.35
100
AcDbArc
 50
0.0
 51
90.0
  0
ARC
  5
7205
330
1E
100
AcDbEntity
  8
製品
  6
Continuous
 62
     2
100
AcDbCircle
 10
132.088427855427
 20
197.5427834802396
 30
0.0
 40
0.7269540000000001
100
AcDbArc
 50
33.78217100001609
 51
56.21782899997692
  0
ARC
  5
7206
330
1E
100
AcDbEntity
  8
製品
  6
Continuous
 62
     2
100
AcDbCircle
 10
134.3926408554268
 20
192.5469964802389
 30
0.0
 40
0.7
100
AcDbArc
 50
123.0017439999728
 51
180.0
  0
ARC
  5
7207
330
1E
100
AcDbEntity
  8
製品
  6
Continuous
 62
     2
100
AcDbCircle
 10
134.3926408554268
 20
192.5469964802389
 30
0.0
 40
0.5
100
AcDbArc
 50
123.0017450000245
 51
180.0
  0
ARC
  5
7208
330
1E
100
AcDbEntity
  8
製品
  6
Continuous
 62
     2
100
AcDbCircle
 10
134.3560168554268
 20
192.7020694802397
 30
0.0
 40
0.35
100
AcDbArc
 50
123.0533649999812
 51
206.2958899999746
  0
LINE
  5
7209
330
1E
100
AcDbEntity
  8
製品
  6
Continuous
 62
     2
100
AcDbLine
 10
134.6496408554269
 20
193.548576480239
 30
0.0
 11
134.7942198554269
 21
193.4039964802389
 31
0.0
  0
LINE
  5
720A
330
1E
100
AcDbEntity
  8
製品
  6
Continuous
 62
     2
100
AcDbLine
 10
134.7942198554269
 20
193.4039964802389
 30
0.0
 11
134.1203088554268
 21
192.9663234802394
 31
0.0
  0
LINE
  5
720B
330
1E
100
AcDbEntity
  8
製品
  6
Continuous
 62
     2
100
AcDbLine
 10
134.6496408554269
 20
193.548576480239
 30
0.0
 11
134.0113758554269
 21
193.134054480239
 31
0.0
  0
ARC
  5
720C
330
1E
100
AcDbEntity
  8
製品
  6
Continuous
 62
     2
100
AcDbCircle
 10
134.3287038554269
 20
191.8795764802391
 30
0.0
 40
1.650447
100
AcDbArc
 50
158.5434730000258
 51
172.4301669999833
  0
ARC
  5
720D
330
1E
100
AcDbEntity
  8
製品
  6
Continuous
 62
     2
100
AcDbCircle
 10
134.3287038554269
 20
193.6144174802396
 30
0.0
 40
1.650447
100
AcDbArc
 50
187.5698330000167
 51
201.4565269999741
  0
ARC
  5
720E
330
1E
100
AcDbEntity
  8
製品
  6
Continuous
 62
     2
100
AcDbCircle
 10
132.1222888554268
 20
192.7469964802396
 30
0.0
 40
0.7203520000000001
100
AcDbArc
 50
338.5268949999781
 51
21.47310500002159
  0
ARC
  5
720F
330
1E
100
AcDbEntity
  8
製品
  6
Continuous
 62
     2
100
AcDbCircle
 10
134.528703855427
 20
191.8795764802391
 30
0.0
 40
1.650447
100
AcDbArc
 50
158.5434730000258
 51
172.4301669999833
  0
ARC
  5
7210
330
1E
100
AcDbEntity
  8
製品
  6
Continuous
 62
     2
100
AcDbCircle
 10
134.528703855427
 20
193.6144174802396
 30
0.0
 40
1.650447
100
AcDbArc
 50
187.5698330000167
 51
201.4565269999741
  0
ARC
  5
7211
330
1E
100
AcDbEntity
  8
製品
  6
Continuous
 62
     2
100
AcDbCircle
 10
132.3222888554269
 20
192.7469964802396
 30
0.0
 40
0.7203520000000001
100
AcDbArc
 50
338.5268949999781
 51
21.47310500002159
  0
LINE
  5
7212
330
1E
100
AcDbEntity
  8
製品
  6
Continuous
 62
     2
100
AcDbLine
 10
133.9011928554268
 20
192.3869964802391
 30
0.0
 11
133.0526408554269
 21
192.3869964802391
 31
0.0
  0
LINE
  5
7213
330
1E
100
AcDbEntity
  8
製品
  6
Continuous
 62
     2
100
AcDbLine
 10
133.8926408554268
 20
192.5469964802389
 30
0.0
 11
133.0143198554269
 21
192.5469964802389
 31
0.0
  0
LINE
  5
7214
330
1E
100
AcDbEntity
  8
製品
  6
Continuous
 62
     2
100
AcDbLine
 10
134.0926408554269
 20
188.9069964802395
 30
0.0
 11
134.0926408554269
 21
188.7533474802396
 31
0.0
  0
ARC
  5
7215
330
1E
100
AcDbEntity
  8
製品
  6
Continuous
 62
     2
100
AcDbCircle
 10
134.0426408554269
 20
188.9469964802394
 30
0.0
 40
0.4
100
AcDbArc
 50
270.0
 51
0.0
  0
LINE
  5
7216
330
1E
100
AcDbEntity
  8
製品
  6
Continuous
 62
     2
100
AcDbLine
 10
134.4426408554268
 20
188.9469964802394
 30
0.0
 11
134.4426408554268
 21
190.9969964802396
 31
0.0
  0
LINE
  5
7217
330
1E
100
AcDbEntity
  8
製品
  6
Continuous
 62
     2
100
AcDbLine
 10
134.242640855427
 20
188.9469964802394
 30
0.0
 11
134.242640855427
 21
190.9969964802396
 31
0.0
  0
ARC
  5
7218
330
1E
100
AcDbEntity
  8
製品
  6
Continuous
 62
     2
100
AcDbCircle
 10
134.0426408554269
 20
188.9469964802394
 30
0.0
 40
0.2
100
AcDbArc
 50
270.0
 51
0.0
  0
ARC
  5
7219
330
1E
100
AcDbEntity
  8
製品
  6
Continuous
 62
     2
100
AcDbCircle
 10
133.0926408554269
 20
188.9469964802394
 30
0.0
 40
0.4
100
AcDbArc
 50
180.0
 51
270.0
  0
ARC
  5
721A
330
1E
100
AcDbEntity
  8
製品
  6
Continuous
 62
     2
100
AcDbCircle
 10
133.0926408554269
 20
188.9469964802394
 30
0.0
 40
0.2
100
AcDbArc
 50
180.0
 51
270.0
  0
LINE
  5
721B
330
1E
100
AcDbEntity
  8
製品
  6
Continuous
 62
     2
100
AcDbLine
 10
133.0526408554269
 20
188.9069964802395
 30
0.0
 11
134.0926408554269
 21
188.9069964802395
 31
0.0
  0
LINE
  5
721C
330
1E
100
AcDbEntity
  8
製品
  6
Continuous
 62
     2
100
AcDbLine
 10
133.0926408554269
 20
188.5469964802389
 30
0.0
 11
134.0426408554269
 21
188.5469964802389
 31
0.0
  0
LINE
  5
721D
330
1E
100
AcDbEntity
  8
製品
  6
Continuous
 62
     2
100
AcDbLine
 10
134.0426408554269
 20
188.7469964802397
 30
0.0
 11
133.0926408554269
 21
188.7469964802397
 31
0.0
  0
LINE
  5
721E
330
1E
100
AcDbEntity
  8
製品
  6
Continuous
 62
     2
100
AcDbLine
 10
133.0526408554269
 20
192.3869964802391
 30
0.0
 11
133.0526408554269
 21
188.9069964802395
 31
0.0
  0
ARC
  5
721F
330
1E
100
AcDbEntity
  8
製品
  6
Continuous
 62
     2
100
AcDbCircle
 10
131.242640855427
 20
190.9969964802396
 30
0.0
 40
3.2
100
AcDbArc
 50
0.0
 51
28.97153199999261
  0
ARC
  5
7220
330
1E
100
AcDbEntity
  8
製品
  6
Continuous
 62
     2
100
AcDbCircle
 10
131.242640855427
 20
190.9969964802396
 30
0.0
 40
3.0
100
AcDbArc
 50
0.0
 51
31.10892299997646
  0
LINE
  5
7221
330
1E
100
AcDbEntity
  8
製品
  6
Continuous
 62
     2
100
AcDbLine
 10
132.6926408554268
 20
192.0969964802391
 30
0.0
 11
132.6926408554268
 21
188.9469964802394
 31
0.0
  0
LINE
  5
7222
330
1E
100
AcDbEntity
  8
製品
  6
Continuous
 62
     2
100
AcDbLine
 10
132.8926408554268
 20
192.0969964802391
 30
0.0
 11
132.8926408554268
 21
188.9469964802394
 31
0.0
  0
LINE
  5
7223
330
1E
100
AcDbEntity
  8
製品
  6
Continuous
 62
     2
100
AcDbLine
 10
131.5926408554269
 20
195.8469964802391
 30
0.0
 11
131.5926408554269
 21
197.3469964802391
 31
0.0
  0
LINE
  5
7224
330
1E
100
AcDbEntity
  8
製品
  6
Continuous
 62
     2
100
AcDbLine
 10
132.6926408554268
 20
197.9969964802396
 30
0.0
 11
132.6926408554268
 21
193.3969964802393
 31
0.0
  0
LINE
  5
7225
330
1E
100
AcDbEntity
  8
製品
  6
Continuous
 62
     2
100
AcDbLine
 10
132.8926408554268
 20
197.9969964802396
 30
0.0
 11
132.8926408554268
 21
193.3969964802393
 31
0.0
  0
LINE
  5
7226
330
1E
100
AcDbEntity
  8
製品
  6
PLINE3
 62
     2
100
AcDbLine
 10
131.117640855427
 20
195.8469964802391
 30
0.0
 11
131.117640855427
 21
208.7469964802397
 31
0.0
  0
LINE
  5
7227
330
1E
100
AcDbEntity
  8
製品
  6
Continuous
 62
     2
100
AcDbLine
 10
131.5926408554269
 20
208.7469964802397
 30
0.0
 11
131.5926408554269
 21
199.1469964802393
 31
0.0
  0
LINE
  5
7228
330
1E
100
AcDbEntity
  8
製品
  6
Continuous
 62
     2
100
AcDbLine
 10
143.7926408554269
 20
248.2024534802397
 30
0.0
 11
144.992640855427
 21
249.4024534802395
 31
0.0
  0
LINE
  5
7229
330
1E
100
AcDbEntity
  8
製品
  6
Continuous
 62
     4
100
AcDbLine
 10
132.8926408554268
 20
241.7175294802394
 30
0.0
 11
132.8926408554268
 21
254.7675294802395
 31
0.0
  0
LINE
  5
722A
330
1E
100
AcDbEntity
  8
製品
  6
Continuous
 62
     4
100
AcDbLine
 10
134.0926408554269
 20
254.7675294802395
 30
0.0
 11
134.0926408554269
 21
241.7175294802394
 31
0.0
  0
LINE
  5
722B
330
1E
100
AcDbEntity
  8
製品
  6
Continuous
 62
     4
100
AcDbLine
 10
143.7926408554269
 20
246.7175294802394
 30
0.0
 11
143.7926408554269
 21
254.7675294802395
 31
0.0
  0
LINE
  5
722C
330
1E
100
AcDbEntity
  8
製品
  6
Continuous
 62
     4
100
AcDbLine
 10
144.992640855427
 20
254.7675294802395
 30
0.0
 11
144.992640855427
 21
246.7175294802394
 31
0.0
  0
LINE
  5
722D
330
1E
100
AcDbEntity
  8
製品
  6
Continuous
 62
     2
100
AcDbLine
 10
167.8046408554269
 20
284.3795294802396
 30
0.0
 11
167.8046408554269
 21
280.8795294802396
 31
0.0
  0
LINE
  5
722E
330
1E
100
AcDbEntity
  8
製品
  6
Continuous
 62
     2
100
AcDbLine
 10
168.1672438554269
 20
273.2175294802394
 30
0.0
 11
170.6672438554269
 21
270.7175294802393
 31
0.0
  0
LINE
  5
722F
330
1E
100
AcDbEntity
  8
製品
  6
Continuous
 62
     2
100
AcDbLine
 10
170.9956718554269
 20
273.2175294802394
 30
0.0
 11
173.4956718554269
 21
270.7175294802393
 31
0.0
  0
LINE
  5
7230
330
1E
100
AcDbEntity
  8
製品
  6
Continuous
 62
     2
100
AcDbLine
 10
169.5814578554268
 20
273.2175294802394
 30
0.0
 11
172.0814578554268
 21
270.7175294802393
 31
0.0
  0
LINE
  5
7231
330
1E
100
AcDbEntity
  8
製品
  6
Continuous
 62
     2
100
AcDbLine
 10
166.3046408554269
 20
280.8795294802396
 30
0.0
 11
166.3046408554269
 21
284.3795294802396
 31
0.0
  0
LINE
  5
7232
330
1E
100
AcDbEntity
  8
製品
  6
PLINE3
 62
     2
100
AcDbLine
 10
153.1146408554268
 20
289.4260954802396
 30
0.0
 11
153.1146408554268
 21
286.9724194802395
 31
0.0
  0
LINE
  5
7233
330
1E
100
AcDbEntity
  8
製品
  6
Continuous
 62
     2
100
AcDbLine
 10
155.6146408554268
 20
289.2175294802393
 30
0.0
 11
155.6146408554268
 21
287.2175294802394
 31
0.0
  0
CIRCLE
  5
7234
330
1E
100
AcDbEntity
  8
製品
  6
Continuous
 62
     2
100
AcDbCircle
 10
153.1146408554268
 20
288.2175294802394
 30
0.0
 40
0.25
  0
LINE
  5
7235
330
1E
100
AcDbEntity
  8
製品
  6
Continuous
 62
     2
100
AcDbLine
 10
163.924603855427
 20
273.2175294802394
 30
0.0
 11
166.424603855427
 21
270.7175294802393
 31
0.0
  0
LINE
  5
7236
330
1E
100
AcDbEntity
  8
製品
  6
Continuous
 62
     2
100
AcDbLine
 10
161.0961768554268
 20
273.2175294802394
 30
0.0
 11
163.5961768554268
 21
270.7175294802393
 31
0.0
  0
LINE
  5
7237
330
1E
100
AcDbEntity
  8
製品
  6
Continuous
 62
     2
100
AcDbLine
 10
162.5103898554268
 20
273.2175294802394
 30
0.0
 11
165.0103898554268
 21
270.7175294802393
 31
0.0
  0
LINE
  5
7238
330
1E
100
AcDbEntity
  8
製品
  6
Continuous
 62
     2
100
AcDbLine
 10
156.8535358554268
 20
273.2175294802394
 30
0.0
 11
159.3535358554268
 21
270.7175294802393
 31
0.0
  0
LINE
  5
7239
330
1E
100
AcDbEntity
  8
製品
  6
Continuous
 62
     2
100
AcDbLine
 10
152.610894855427
 20
273.2175294802394
 30
0.0
 11
155.1108948554269
 21
270.7175294802393
 31
0.0
  0
LINE
  5
723A
330
1E
100
AcDbEntity
  8
製品
  6
Continuous
 62
     2
100
AcDbLine
 10
155.4393218554269
 20
273.2175294802394
 30
0.0
 11
157.9393218554269
 21
270.7175294802393
 31
0.0
  0
LINE
  5
723B
330
1E
100
AcDbEntity
  8
製品
  6
Continuous
 62
     2
100
AcDbLine
 10
154.0251088554269
 20
273.2175294802394
 30
0.0
 11
156.5251088554268
 21
270.7175294802393
 31
0.0
  0
LINE
  5
723C
330
1E
100
AcDbEntity
  8
製品
  6
Continuous
 62
     2
100
AcDbLine
 10
159.6819628554269
 20
273.2175294802394
 30
0.0
 11
162.1819628554269
 21
270.7175294802393
 31
0.0
  0
LINE
  5
723D
330
1E
100
AcDbEntity
  8
製品
  6
Continuous
 62
     2
100
AcDbLine
 10
158.2677498554269
 20
273.2175294802394
 30
0.0
 11
160.7677498554269
 21
270.7175294802393
 31
0.0
  0
LINE
  5
723E
330
1E
100
AcDbEntity
  8
製品
  6
Continuous
 62
     2
100
AcDbLine
 10
155.454640855427
 20
287.2175294802394
 30
0.0
 11
155.454640855427
 21
279.2795294802393
 31
0.0
  0
LINE
  5
723F
330
1E
100
AcDbEntity
  8
製品
  6
Continuous
 62
     4
100
AcDbLine
 10
153.8926408554268
 20
270.7175294802393
 30
0.0
 11
153.8926408554268
 21
262.7175294802394
 31
0.0
  0
LINE
  5
7241
330
1E
100
AcDbEntity
  8
製品
  6
Continuous
 62
     2
100
AcDbLine
 10
153.1026408554269
 20
192.5869964802389
 30
0.0
 11
153.1026408554269
 21
192.3869964802391
 31
0.0
  0
ARC
  5
7242
330
1E
100
AcDbEntity
  8
製品
  6
Continuous
 62
     2
100
AcDbCircle
 10
154.8326408554269
 20
192.4369964802392
 30
0.0
 40
0.15
100
AcDbArc
 50
0.0
 51
90.0
  0
ARC
  5
7243
330
1E
100
AcDbEntity
  8
製品
  6
Continuous
 62
     2
100
AcDbCircle
 10
154.8326408554269
 20
192.4369964802392
 30
0.0
 40
0.31
100
AcDbArc
 50
0.0
 51
90.0
  0
ARC
  5
7244
330
1E
100
AcDbEntity
  8
製品
  6
Continuous
 62
     2
100
AcDbCircle
 10
154.8326408554269
 20
192.4369964802392
 30
0.0
 40
0.51
100
AcDbArc
 50
0.0
 51
90.0
  0
ARC
  5
7245
330
1E
100
AcDbEntity
  8
製品
  6
Continuous
 62
     2
100
AcDbCircle
 10
154.4278598554269
 20
192.6441684802396
 30
0.0
 40
0.303189
100
AcDbArc
 50
87.20559900000392
 51
160.1745370000196
  0
LINE
  5
7246
330
1E
100
AcDbEntity
  8
製品
  6
Continuous
 62
     2
100
AcDbLine
 10
152.9426408554268
 20
193.9069964802395
 30
0.0
 11
152.9426408554268
 21
192.7469964802396
 31
0.0
  0
LINE
  5
7247
330
1E
100
AcDbEntity
  8
製品
  6
Continuous
 62
     2
100
AcDbLine
 10
152.9426408554268
 20
193.9644104802394
 30
0.0
 11
152.9426408554268
 21
193.9069964802395
 31
0.0
  0
ARC
  5
7248
330
1E
100
AcDbEntity
  8
製品
  6
Continuous
 62
     2
100
AcDbCircle
 10
153.1694238554269
 20
194.4069964802395
 30
0.0
 40
0.2
100
AcDbArc
 50
329.3224520000198
 51
30.67742400002348
  0
LINE
  5
7249
330
1E
100
AcDbEntity
  8
製品
  6
Continuous
 62
     2
100
AcDbLine
 10
154.8326408554269
 20
192.9469964802395
 30
0.0
 11
154.4426408554268
 21
192.9469964802395
 31
0.0
  0
LINE
  5
724A
330
1E
100
AcDbEntity
  8
製品
  6
Continuous
 62
     2
100
AcDbLine
 10
156.3926408554268
 20
189.0969964802391
 30
0.0
 11
156.3926408554268
 21
188.9969964802396
 31
0.0
  0
LINE
  5
724B
330
1E
100
AcDbEntity
  8
製品
  6
Continuous
 62
     2
100
AcDbLine
 10
156.3926408554268
 20
188.9969964802396
 30
0.0
 11
156.6526408554268
 21
188.9969964802396
 31
0.0
  0
LINE
  5
724C
330
1E
100
AcDbEntity
  8
製品
  6
Continuous
 62
     2
100
AcDbLine
 10
156.6526408554268
 20
188.9969964802396
 30
0.0
 11
156.6526408554268
 21
188.6469964802393
 31
0.0
  0
LINE
  5
724D
330
1E
100
AcDbEntity
  8
製品
  6
Continuous
 62
     2
100
AcDbLine
 10
156.6526408554268
 20
188.6469964802393
 30
0.0
 11
156.5526408554269
 21
188.6469964802393
 31
0.0
  0
LINE
  5
724E
330
1E
100
AcDbEntity
  8
製品
  6
Continuous
 62
     2
100
AcDbLine
 10
156.5526408554269
 20
188.6469964802393
 30
0.0
 11
156.5526408554269
 21
188.8969964802393
 31
0.0
  0
LINE
  5
724F
330
1E
100
AcDbEntity
  8
製品
  6
Continuous
 62
     2
100
AcDbLine
 10
156.5526408554269
 20
188.8969964802393
 30
0.0
 11
156.3926408554268
 21
188.8969964802393
 31
0.0
  0
LINE
  5
7250
330
1E
100
AcDbEntity
  8
製品
  6
Continuous
 62
     2
100
AcDbLine
 10
154.9826408554268
 20
188.0143404802395
 30
0.0
 11
154.9826408554268
 21
186.5532714802395
 31
0.0
  0
LINE
  5
7251
330
1E
100
AcDbEntity
  8
製品
  6
Continuous
 62
     2
100
AcDbLine
 10
154.9826408554268
 20
186.5532714802395
 30
0.0
 11
154.6926408554268
 21
186.2632714802396
 31
0.0
  0
LINE
  5
7252
330
1E
100
AcDbEntity
  8
製品
  6
Continuous
 62
     2
100
AcDbLine
 10
155.1426408554268
 20
186.4869964802394
 30
0.0
 11
154.8526408554269
 21
186.1969964802394
 31
0.0
  0
LINE
  5
7253
330
1E
100
AcDbEntity
  8
製品
  6
Continuous
 62
     2
100
AcDbLine
 10
153.6326408554268
 20
188.966996480239
 30
0.0
 11
153.6326408554268
 21
189.9469964802394
 31
0.0
  0
ARC
  5
7254
330
1E
100
AcDbEntity
  8
製品
  6
Continuous
 62
     2
100
AcDbCircle
 10
153.5726408554269
 20
188.966996480239
 30
0.0
 40
0.06
100
AcDbArc
 50
270.0
 51
0.0
  0
LINE
  5
7255
330
1E
100
AcDbEntity
  8
製品
  6
Continuous
 62
     2
100
AcDbLine
 10
154.8526408554269
 20
188.6469964802393
 30
0.0
 11
154.8526408554269
 21
188.3969964802393
 31
0.0
  0
LINE
  5
7256
330
1E
100
AcDbEntity
  8
製品
  6
Continuous
 62
     2
100
AcDbLine
 10
154.8526408554269
 20
188.3969964802393
 30
0.0
 11
154.9826408554268
 21
188.2669964802392
 31
0.0
  0
ARC
  5
7257
330
1E
100
AcDbEntity
  8
製品
  6
Continuous
 62
     2
100
AcDbCircle
 10
155.108409855427
 20
189.9864844802389
 30
0.0
 40
0.241921
100
AcDbArc
 50
278.134437999994
 51
14.48542699998232
  0
LINE
  5
7258
330
1E
100
AcDbEntity
  8
製品
  6
Continuous
 62
     2
100
AcDbLine
 10
154.5926408554269
 20
189.0969964802391
 30
0.0
 11
154.6926408554268
 21
189.0969964802391
 31
0.0
  0
LINE
  5
7259
330
1E
100
AcDbEntity
  8
製品
  6
Continuous
 62
     2
100
AcDbLine
 10
154.6926408554268
 20
189.0969964802391
 30
0.0
 11
154.6926408554268
 21
188.9969964802396
 31
0.0
  0
LINE
  5
725A
330
1E
100
AcDbEntity
  8
製品
  6
Continuous
 62
     2
100
AcDbLine
 10
154.6926408554268
 20
188.9969964802396
 30
0.0
 11
154.952640855427
 21
188.9969964802396
 31
0.0
  0
LINE
  5
725B
330
1E
100
AcDbEntity
  8
製品
  6
Continuous
 62
     2
100
AcDbLine
 10
153.7926408554269
 20
189.9469964802394
 30
0.0
 11
153.7926408554269
 21
188.9069964802395
 31
0.0
  0
ARC
  5
725C
330
1E
100
AcDbEntity
  8
製品
  6
Continuous
 62
     2
100
AcDbCircle
 10
153.6326408554268
 20
188.9069964802395
 30
0.0
 40
0.16
100
AcDbArc
 50
270.0
 51
0.0
  0
LINE
  5
725D
330
1E
100
AcDbEntity
  8
製品
  6
Continuous
 62
     2
100
AcDbLine
 10
153.6326408554268
 20
189.9469964802394
 30
0.0
 11
153.7926408554269
 21
189.9469964802394
 31
0.0
  0
LINE
  5
725E
330
1E
100
AcDbEntity
  8
製品
  6
Continuous
 62
     2
100
AcDbLine
 10
154.952640855427
 20
188.9969964802396
 30
0.0
 11
154.952640855427
 21
188.6469964802393
 31
0.0
  0
LINE
  5
725F
330
1E
100
AcDbEntity
  8
製品
  6
Continuous
 62
     2
100
AcDbLine
 10
154.952640855427
 20
188.6469964802393
 30
0.0
 11
154.8526408554269
 21
188.6469964802393
 31
0.0
  0
LINE
  5
7260
330
1E
100
AcDbEntity
  8
製品
  6
Continuous
 62
     2
100
AcDbLine
 10
154.8526408554269
 20
188.6469964802393
 30
0.0
 11
154.8526408554269
 21
188.8969964802393
 31
0.0
  0
LINE
  5
7261
330
1E
100
AcDbEntity
  8
製品
  6
Continuous
 62
     2
100
AcDbLine
 10
154.8526408554269
 20
188.8969964802393
 30
0.0
 11
154.6926408554268
 21
188.8969964802393
 31
0.0
  0
LINE
  5
7262
330
1E
100
AcDbEntity
  8
製品
  6
Continuous
 62
     2
100
AcDbLine
 10
154.6926408554268
 20
188.3307224802395
 30
0.0
 11
154.9826408554268
 21
188.0407224802395
 31
0.0
  0
LINE
  5
7263
330
1E
100
AcDbEntity
  8
製品
  6
Continuous
 62
     2
100
AcDbLine
 10
155.1426408554268
 20
192.4369964802392
 30
0.0
 11
155.1426408554268
 21
186.4869964802394
 31
0.0
  0
LINE
  5
7264
330
1E
100
AcDbEntity
  8
製品
  6
Continuous
 62
     2
100
AcDbLine
 10
152.9426408554268
 20
192.3869964802391
 30
0.0
 11
152.9426408554268
 21
188.9069964802395
 31
0.0
  0
LINE
  5
7265
330
1E
100
AcDbEntity
  8
製品
  6
Continuous
 62
     2
100
AcDbLine
 10
154.9826408554268
 20
192.4369964802392
 30
0.0
 11
154.9826408554268
 21
188.2655584802389
 31
0.0
  0
LINE
  5
7266
330
1E
100
AcDbEntity
  8
製品
  6
Continuous
 62
     2
100
AcDbLine
 10
155.3426408554269
 20
192.4369964802392
 30
0.0
 11
155.3426408554269
 21
190.0469964802389
 31
0.0
  0
LINE
  5
7267
330
1E
100
AcDbEntity
  8
製品
  6
Continuous
 62
     2
100
AcDbLine
 10
156.3926408554268
 20
185.6969964802394
 30
0.0
 11
156.5526408554269
 21
185.6969964802394
 31
0.0
  0
LINE
  5
7268
330
1E
100
AcDbEntity
  8
製品
  6
Continuous
 62
     2
100
AcDbLine
 10
156.5526408554269
 20
185.6969964802394
 30
0.0
 11
156.5526408554269
 21
185.9469964802395
 31
0.0
  0
LINE
  5
7269
330
1E
100
AcDbEntity
  8
製品
  6
Continuous
 62
     2
100
AcDbLine
 10
156.5526408554269
 20
185.9469964802395
 30
0.0
 11
156.6526408554268
 21
185.9469964802395
 31
0.0
  0
LINE
  5
726A
330
1E
100
AcDbEntity
  8
製品
  6
Continuous
 62
     2
100
AcDbLine
 10
156.6526408554268
 20
185.9469964802395
 30
0.0
 11
156.6526408554268
 21
185.6469964802393
 31
0.0
  0
LINE
  5
726B
330
1E
100
AcDbEntity
  8
製品
  6
Continuous
 62
     2
100
AcDbLine
 10
157.1926408554268
 20
185.6469964802393
 30
0.0
 11
157.1926408554268
 21
185.4969964802396
 31
0.0
  0
LINE
  5
726C
330
1E
100
AcDbEntity
  8
製品
  6
Continuous
 62
     2
100
AcDbLine
 10
157.1926408554268
 20
185.4969964802396
 30
0.0
 11
157.0926408554269
 21
185.4969964802396
 31
0.0
  0
LINE
  5
726D
330
1E
100
AcDbEntity
  8
製品
  6
Continuous
 62
     2
100
AcDbLine
 10
157.0926408554269
 20
185.4969964802396
 30
0.0
 11
157.0926408554269
 21
185.5469964802389
 31
0.0
  0
LINE
  5
726E
330
1E
100
AcDbEntity
  8
製品
  6
Continuous
 62
     2
100
AcDbLine
 10
155.5926408554269
 20
185.6469964802393
 30
0.0
 11
156.2926408554269
 21
185.6469964802393
 31
0.0
  0
LINE
  5
726F
330
1E
100
AcDbEntity
  8
製品
  6
Continuous
 62
     2
100
AcDbLine
 10
155.5926408554269
 20
185.4969964802396
 30
0.0
 11
155.5926408554269
 21
185.6469964802393
 31
0.0
  0
LINE
  5
7270
330
1E
100
AcDbEntity
  8
製品
  6
Continuous
 62
     2
100
AcDbLine
 10
155.6926408554268
 20
185.5469964802389
 30
0.0
 11
155.6926408554268
 21
185.4969964802396
 31
0.0
  0
LINE
  5
7271
330
1E
100
AcDbEntity
  8
製品
  6
Continuous
 62
     2
100
AcDbLine
 10
155.6926408554268
 20
185.4969964802396
 30
0.0
 11
155.5926408554269
 21
185.4969964802396
 31
0.0
  0
LINE
  5
7272
330
1E
100
AcDbEntity
  8
製品
  6
Continuous
 62
     2
100
AcDbLine
 10
154.8526408554269
 20
185.9469964802395
 30
0.0
 11
154.952640855427
 21
185.9469964802395
 31
0.0
  0
LINE
  5
7273
330
1E
100
AcDbEntity
  8
製品
  6
Continuous
 62
     2
100
AcDbLine
 10
154.952640855427
 20
185.9469964802395
 30
0.0
 11
154.952640855427
 21
185.6469964802393
 31
0.0
  0
LINE
  5
7274
330
1E
100
AcDbEntity
  8
製品
  6
Continuous
 62
     2
100
AcDbLine
 10
153.8926408554268
 20
185.4969964802396
 30
0.0
 11
153.8926408554268
 21
185.6469964802393
 31
0.0
  0
LINE
  5
7275
330
1E
100
AcDbEntity
  8
製品
  6
Continuous
 62
     2
100
AcDbLine
 10
153.8926408554268
 20
185.6469964802393
 30
0.0
 11
154.5926408554269
 21
185.6469964802393
 31
0.0
  0
LINE
  5
7276
330
1E
100
AcDbEntity
  8
製品
  6
Continuous
 62
     2
100
AcDbLine
 10
154.6926408554268
 20
185.6969964802394
 30
0.0
 11
154.8526408554269
 21
185.6969964802394
 31
0.0
  0
LINE
  5
7277
330
1E
100
AcDbEntity
  8
製品
  6
Continuous
 62
     2
100
AcDbLine
 10
154.8526408554269
 20
185.6969964802394
 30
0.0
 11
154.8526408554269
 21
185.9469964802395
 31
0.0
  0
LINE
  5
7278
330
1E
100
AcDbEntity
  8
製品
  6
Continuous
 62
     2
100
AcDbLine
 10
154.952640855427
 20
185.6469964802393
 30
0.0
 11
155.492640855427
 21
185.6469964802393
 31
0.0
  0
LINE
  5
7279
330
1E
100
AcDbEntity
  8
製品
  6
Continuous
 62
     2
100
AcDbLine
 10
155.492640855427
 20
185.6469964802393
 30
0.0
 11
155.492640855427
 21
185.4969964802396
 31
0.0
  0
LINE
  5
727A
330
1E
100
AcDbEntity
  8
製品
  6
Continuous
 62
     2
100
AcDbLine
 10
155.492640855427
 20
185.4969964802396
 30
0.0
 11
155.3926408554268
 21
185.4969964802396
 31
0.0
  0
LINE
  5
727B
330
1E
100
AcDbEntity
  8
製品
  6
Continuous
 62
     2
100
AcDbLine
 10
155.3926408554268
 20
185.4969964802396
 30
0.0
 11
155.3926408554268
 21
185.5469964802389
 31
0.0
  0
LINE
  5
727C
330
1E
100
AcDbEntity
  8
製品
  6
Continuous
 62
     2
100
AcDbLine
 10
155.3926408554268
 20
185.5469964802389
 30
0.0
 11
153.992640855427
 21
185.5469964802389
 31
0.0
  0
LINE
  5
727D
330
1E
100
AcDbEntity
  8
製品
  6
Continuous
 62
     2
100
AcDbLine
 10
153.992640855427
 20
185.5469964802389
 30
0.0
 11
153.992640855427
 21
185.4969964802396
 31
0.0
  0
LINE
  5
727E
330
1E
100
AcDbEntity
  8
製品
  6
Continuous
 62
     2
100
AcDbLine
 10
153.992640855427
 20
185.4969964802396
 30
0.0
 11
153.8926408554268
 21
185.4969964802396
 31
0.0
  0
LINE
  5
727F
330
1E
100
AcDbEntity
  8
製品
  6
Continuous
 62
     2
100
AcDbLine
 10
157.0926408554269
 20
185.5469964802389
 30
0.0
 11
155.6926408554268
 21
185.5469964802389
 31
0.0
  0
LINE
  5
7280
330
1E
100
AcDbEntity
  8
製品
  6
Continuous
 62
     2
100
AcDbLine
 10
156.2926408554269
 20
189.0969964802391
 30
0.0
 11
156.2926408554269
 21
185.6469964802393
 31
0.0
  0
LINE
  5
7281
330
1E
100
AcDbEntity
  8
製品
  6
Continuous
 62
     2
100
AcDbLine
 10
156.3926408554268
 20
188.8969964802393
 30
0.0
 11
156.3926408554268
 21
185.6969964802394
 31
0.0
  0
LINE
  5
7282
330
1E
100
AcDbEntity
  8
製品
  6
Continuous
 62
     2
100
AcDbLine
 10
154.8526408554269
 20
186.1969964802394
 30
0.0
 11
154.8526408554269
 21
185.9469964802395
 31
0.0
  0
LINE
  5
7283
330
1E
100
AcDbEntity
  8
製品
  6
Continuous
 62
     2
100
AcDbLine
 10
154.5926408554269
 20
185.6469964802393
 30
0.0
 11
154.5926408554269
 21
189.0969964802391
 31
0.0
  0
LINE
  5
7284
330
1E
100
AcDbEntity
  8
製品
  6
Continuous
 62
     2
100
AcDbLine
 10
154.6926408554268
 20
188.8969964802393
 30
0.0
 11
154.6926408554268
 21
185.6969964802394
 31
0.0
  0
LINE
  5
7285
330
1E
100
AcDbEntity
  8
製品
  6
Continuous
 62
     4
100
AcDbLine
 10
154.2926408554269
 20
188.7469964802397
 30
0.0
 11
154.2926408554269
 21
185.6469964802393
 31
0.0
  0
LINE
  5
7286
330
1E
100
AcDbEntity
  8
製品
  6
Continuous
 62
     4
100
AcDbLine
 10
156.6526408554268
 20
185.6469964802393
 30
0.0
 11
156.6526408554268
 21
186.8469964802391
 31
0.0
  0
LINE
  5
7287
330
1E
100
AcDbEntity
  8
製品
  6
Continuous
 62
     2
100
AcDbLine
 10
166.7530308554269
 20
273.2175294802394
 30
0.0
 11
169.2530308554269
 21
270.7175294802393
 31
0.0
  0
LINE
  5
7288
330
1E
100
AcDbEntity
  8
製品
  6
Continuous
 62
     2
100
AcDbLine
 10
165.338816855427
 20
273.2175294802394
 30
0.0
 11
167.838816855427
 21
270.7175294802393
 31
0.0
  0
LINE
  5
7289
330
1E
100
AcDbEntity
  8
製品
  6
Continuous
 62
     2
100
AcDbLine
 10
166.3046408554269
 20
284.3795294802396
 30
0.0
 11
167.8046408554269
 21
284.3795294802396
 31
0.0
  0
LINE
  5
728A
330
1E
100
AcDbEntity
  8
製品
  6
Continuous
 62
     2
100
AcDbLine
 10
129.9834778554268
 20
332.7175294802394
 30
0.0
 11
132.4834778554268
 21
330.2175294802394
 31
0.0
  0
LINE
  5
728B
330
1E
100
AcDbEntity
  8
製品
  6
Continuous
 62
     2
100
AcDbLine
 10
128.5692648554268
 20
332.7175294802394
 30
0.0
 11
131.0692648554268
 21
330.2175294802394
 31
0.0
  0
LINE
  5
728C
330
1E
100
AcDbEntity
  8
製品
  6
Continuous
 62
     4
100
AcDbLine
 10
150.992640855427
 20
318.1675294802392
 30
0.0
 11
117.8926408554268
 21
318.1675294802392
 31
0.0
  0
LINE
  5
728D
330
1E
100
AcDbEntity
  8
製品
  6
Continuous
 62
     4
100
AcDbLine
 10
117.8926408554268
 20
315.6675294802392
 30
0.0
 11
150.992640855427
 21
315.6675294802392
 31
0.0
  0
LINE
  5
728E
330
1E
100
AcDbEntity
  8
製品
  6
Continuous
 62
     4
100
AcDbLine
 10
122.8926408554268
 20
332.7175294802394
 30
0.0
 11
122.8926408554268
 21
330.2175294802394
 31
0.0
  0
LINE
  5
728F
330
1E
100
AcDbEntity
  8
製品
  6
Continuous
 62
     2
100
AcDbLine
 10
122.9124098554268
 20
332.7175294802394
 30
0.0
 11
125.4124098554268
 21
330.2175294802394
 31
0.0
  0
LINE
  5
7290
330
1E
100
AcDbEntity
  8
製品
  6
Continuous
 62
     2
100
AcDbLine
 10
122.8926408554268
 20
331.3230854802389
 30
0.0
 11
123.9981968554268
 21
330.2175294802394
 31
0.0
  0
LINE
  5
7291
330
1E
100
AcDbEntity
  8
製品
  6
Continuous
 62
     2
100
AcDbLine
 10
125.7408378554269
 20
332.7175294802394
 30
0.0
 11
128.2408378554269
 21
330.2175294802394
 31
0.0
  0
LINE
  5
7292
330
1E
100
AcDbEntity
  8
製品
  6
Continuous
 62
     2
100
AcDbLine
 10
124.326623855427
 20
332.7175294802394
 30
0.0
 11
126.826623855427
 21
330.2175294802394
 31
0.0
  0
LINE
  5
7293
330
1E
100
AcDbEntity
  8
製品
  6
Continuous
 62
     2
100
AcDbLine
 10
127.1550508554269
 20
332.7175294802394
 30
0.0
 11
129.6550508554269
 21
330.2175294802394
 31
0.0
  0
TEXT
  5
7294
330
1E
100
AcDbEntity
  8
図面枠
  6
Continuous
 62
     2
100
AcDbText
 10
144.6270688554268
 20
362.717509480239
 30
0.0
 40
3.0
  1
野縁
 41
0.8
  7
ACAD
100
AcDbText
  0
LINE
  5
7295
330
1E
100
AcDbEntity
  8
図面枠
  6
Continuous
 62
     2
100
AcDbLine
 10
141.6270618554269
 20
371.7175294802394
 30
0.0
 11
153.6670618554269
 21
371.7175294802394
 31
0.0
  0
LINE
  5
7296
330
1E
100
AcDbEntity
  8
製品
  6
Continuous
 62
     4
100
AcDbLine
 10
149.992640855427
 20
340.7175294802394
 30
0.0
 11
153.8926408554268
 21
340.7175294802394
 31
0.0
  0
TEXT
  5
7297
330
1E
100
AcDbEntity
  8
図面枠
  6
Continuous
 62
     2
100
AcDbText
 10
141.6271298554268
 20
372.717509480239
 30
0.0
 40
3.0
  1
野縁受け
 41
0.8
  7
ACAD
100
AcDbText
  0
LINE
  5
7298
330
1E
100
AcDbEntity
  8
製品
  6
Continuous
 62
     2
100
AcDbLine
 10
152.1146408554268
 20
316.2175294802394
 30
0.0
 11
155.6146408554268
 21
316.2175294802394
 31
0.0
  0
LINE
  5
7299
330
1E
100
AcDbEntity
  8
製品
  6
PLINE3
 62
     2
100
AcDbLine
 10
151.6456328554268
 20
315.2175294802394
 30
0.0
 11
156.2531578554269
 21
315.2175294802394
 31
0.0
  0
LINE
  5
729A
330
1E
100
AcDbEntity
  8
製品
  6
Continuous
 62
     2
100
AcDbLine
 10
155.6146408554268
 20
314.2175294802393
 30
0.0
 11
152.1146408554268
 21
314.2175294802393
 31
0.0
  0
LINE
  5
729B
330
1E
100
AcDbEntity
  8
製品
  6
Continuous
 62
     2
100
AcDbLine
 10
151.1966818554269
 20
332.7175294802394
 30
0.0
 11
153.6966818554269
 21
330.2175294802394
 31
0.0
  0
LINE
  5
729C
330
1E
100
AcDbEntity
  8
製品
  6
Continuous
 62
     2
100
AcDbLine
 10
143.7926408554269
 20
356.6019234802391
 30
0.0
 11
143.908246855427
 21
356.7175294802394
 31
0.0
  0
LINE
  5
729D
330
1E
100
AcDbEntity
  8
図面枠
  6
Continuous
 62
     2
100
AcDbLine
 10
144.627061855427
 20
361.7175294802394
 30
0.0
 11
150.6470618554269
 21
361.7175294802394
 31
0.0
  0
LINE
  5
729E
330
1E
100
AcDbEntity
  8
製品
  6
Continuous
 62
     4
100
AcDbLine
 10
143.7926408554269
 20
356.7175294802394
 30
0.0
 11
144.992640855427
 21
356.7175294802394
 31
0.0
  0
LINE
  5
729F
330
1E
100
AcDbEntity
  8
製品
  6
Continuous
 62
     2
100
AcDbLine
 10
143.7926408554269
 20
355.1169984802393
 30
0.0
 11
144.992640855427
 21
356.3169984802391
 31
0.0
  0
LINE
  5
72A0
330
1E
100
AcDbEntity
  8
製品
  6
Continuous
 62
     2
100
AcDbLine
 10
143.7926408554269
 20
344.7225294802395
 30
0.0
 11
144.992640855427
 21
345.9225294802393
 31
0.0
  0
LINE
  5
72A1
330
1E
100
AcDbEntity
  8
製品
  6
Continuous
 62
     2
100
AcDbLine
 10
143.7926408554269
 20
349.1773014802395
 30
0.0
 11
144.992640855427
 21
350.3773014802393
 31
0.0
  0
LINE
  5
72A2
330
1E
100
AcDbEntity
  8
製品
  6
Continuous
 62
     2
100
AcDbLine
 10
143.7926408554269
 20
350.6622264802393
 30
0.0
 11
144.992640855427
 21
351.8622264802391
 31
0.0
  0
LINE
  5
72A3
330
1E
100
AcDbEntity
  8
製品
  6
Continuous
 62
     2
100
AcDbLine
 10
143.7926408554269
 20
352.1471504802396
 30
0.0
 11
144.992640855427
 21
353.3471504802394
 31
0.0
  0
LINE
  5
72A4
330
1E
100
AcDbEntity
  8
製品
  6
Continuous
 62
     2
100
AcDbLine
 10
143.7926408554269
 20
334.3280594802393
 30
0.0
 11
144.992640855427
 21
335.5280594802391
 31
0.0
  0
LINE
  5
72A5
330
1E
100
AcDbEntity
  8
製品
  6
Continuous
 62
     2
100
AcDbLine
 10
143.7926408554269
 20
335.8129834802396
 30
0.0
 11
144.992640855427
 21
337.0129834802394
 31
0.0
  0
LINE
  5
72A6
330
1E
100
AcDbEntity
  8
製品
  6
Continuous
 62
     2
100
AcDbLine
 10
143.7926408554269
 20
337.2979084802393
 30
0.0
 11
144.992640855427
 21
338.4979084802392
 31
0.0
  0
LINE
  5
72A7
330
1E
100
AcDbEntity
  8
製品
  6
Continuous
 62
     2
100
AcDbLine
 10
143.7926408554269
 20
338.7828324802397
 30
0.0
 11
144.992640855427
 21
339.9828324802395
 31
0.0
  0
LINE
  5
72A8
330
1E
100
AcDbEntity
  8
製品
  6
Continuous
 62
     2
100
AcDbLine
 10
143.7926408554269
 20
340.2677564802391
 30
0.0
 11
144.992640855427
 21
341.4677564802389
 31
0.0
  0
LINE
  5
72A9
330
1E
100
AcDbEntity
  8
製品
  6
Continuous
 62
     2
100
AcDbLine
 10
143.7926408554269
 20
341.7526804802394
 30
0.0
 11
144.992640855427
 21
342.9526804802392
 31
0.0
  0
LINE
  5
72AA
330
1E
100
AcDbEntity
  8
製品
  6
Continuous
 62
     2
100
AcDbLine
 10
143.7926408554269
 20
343.2376044802397
 30
0.0
 11
144.992640855427
 21
344.4376044802396
 31
0.0
  0
LINE
  5
72AB
330
1E
100
AcDbEntity
  8
製品
  6
Continuous
 62
     4
100
AcDbLine
 10
143.7926408554269
 20
348.6675294802392
 30
0.0
 11
143.7926408554269
 21
356.7175294802394
 31
0.0
  0
LINE
  5
72AC
330
1E
100
AcDbEntity
  8
製品
  6
Continuous
 62
     4
100
AcDbLine
 10
144.992640855427
 20
356.7175294802394
 30
0.0
 11
144.992640855427
 21
348.6675294802392
 31
0.0
  0
LINE
  5
72AD
330
1E
100
AcDbEntity
  8
製品
  6
Continuous
 62
     2
100
AcDbLine
 10
143.7926408554269
 20
353.632074480239
 30
0.0
 11
144.992640855427
 21
354.8320744802397
 31
0.0
  0
CIRCLE
  5
72AE
330
1E
100
AcDbEntity
  8
図面枠
  6
Continuous
 62
     2
100
AcDbCircle
 10
134.0926408554269
 20
358.6675294802392
 30
0.0
 40
0.3
  0
LINE
  5
72AF
330
1E
100
AcDbEntity
  8
製品
  6
Continuous
 62
     2
100
AcDbLine
 10
132.7855338554268
 20
338.7354224802396
 30
0.0
 11
134.1997478554269
 21
340.149636480239
 31
0.0
  0
LINE
  5
72B0
330
1E
100
AcDbEntity
  8
製品
  6
Continuous
 62
     2
100
AcDbLine
 10
134.1997478554269
 20
338.7354224802396
 30
0.0
 11
132.7855338554268
 21
340.149636480239
 31
0.0
  0
CIRCLE
  5
72B1
330
1E
100
AcDbEntity
  8
製品
  6
Continuous
 62
     4
100
AcDbCircle
 10
133.492640855427
 20
339.4425294802397
 30
0.0
 40
1.0
  0
LINE
  5
72B2
330
1E
100
AcDbEntity
  8
製品
  6
Continuous
 62
     4
100
AcDbLine
 10
132.8926408554268
 20
348.6675294802392
 30
0.0
 11
132.8926408554268
 21
361.7175294802394
 31
0.0
  0
LINE
  5
72B3
330
1E
100
AcDbEntity
  8
製品
  6
Continuous
 62
     4
100
AcDbLine
 10
134.0926408554269
 20
361.7175294802394
 30
0.0
 11
134.0926408554269
 21
348.6675294802392
 31
0.0
  0
LINE
  5
72B4
330
1E
100
AcDbEntity
  8
図面枠
  6
Continuous
 62
     2
100
AcDbLine
 10
134.0926408554269
 20
358.6675294802392
 30
0.0
 11
141.6270618554269
 21
371.7175294802394
 31
0.0
  0
LINE
  5
72B5
330
1E
100
AcDbEntity
  8
図面枠
  6
Continuous
 62
     2
100
AcDbLine
 10
137.0926408554269
 20
348.6675294802392
 30
0.0
 11
144.627061855427
 21
361.7175294802394
 31
0.0
  0
CIRCLE
  5
72B6
330
1E
100
AcDbEntity
  8
図面枠
  6
Continuous
 62
     2
100
AcDbCircle
 10
137.0926408554269
 20
348.6675294802392
 30
0.0
 40
0.3
  0
LINE
  5
72B7
330
1E
100
AcDbEntity
  8
製品
  6
Continuous
 62
     2
100
AcDbLine
 10
149.7824678554268
 20
332.7175294802394
 30
0.0
 11
152.2824678554268
 21
330.2175294802394
 31
0.0
  0
LINE
  5
72B8
330
1E
100
AcDbEntity
  8
製品
  6
Continuous
 62
     2
100
AcDbLine
 10
145.5398268554268
 20
332.7175294802394
 30
0.0
 11
148.0398268554267
 21
330.2175294802394
 31
0.0
  0
LINE
  5
72B9
330
1E
100
AcDbEntity
  8
製品
  6
Continuous
 62
     2
100
AcDbLine
 10
148.3682548554268
 20
332.7175294802394
 30
0.0
 11
150.8682548554268
 21
330.2175294802394
 31
0.0
  0
LINE
  5
72BA
330
1E
100
AcDbEntity
  8
製品
  6
Continuous
 62
     2
100
AcDbLine
 10
146.9540408554269
 20
332.7175294802394
 30
0.0
 11
149.4540408554269
 21
330.2175294802394
 31
0.0
  0
LINE
  5
72BB
330
1E
100
AcDbEntity
  8
製品
  6
Continuous
 62
     2
100
AcDbLine
 10
141.2971868554268
 20
332.7175294802394
 30
0.0
 11
143.7971868554268
 21
330.2175294802394
 31
0.0
  0
LINE
  5
72BC
330
1E
100
AcDbEntity
  8
製品
  6
Continuous
 62
     2
100
AcDbLine
 10
138.4687598554269
 20
332.7175294802394
 30
0.0
 11
140.9687598554269
 21
330.2175294802394
 31
0.0
  0
LINE
  5
72BD
330
1E
100
AcDbEntity
  8
製品
  6
Continuous
 62
     2
100
AcDbLine
 10
139.8829728554269
 20
332.7175294802394
 30
0.0
 11
142.3829728554269
 21
330.2175294802394
 31
0.0
  0
LINE
  5
72BE
330
1E
100
AcDbEntity
  8
製品
  6
Continuous
 62
     2
100
AcDbLine
 10
143.7926408554269
 20
323.9335894802391
 30
0.0
 11
144.992640855427
 21
325.1335894802389
 31
0.0
  0
LINE
  5
72BF
330
1E
100
AcDbEntity
  8
製品
  6
Continuous
 62
     2
100
AcDbLine
 10
143.7926408554269
 20
325.4185144802388
 30
0.0
 11
144.992640855427
 21
326.6185144802396
 31
0.0
  0
LINE
  5
72C0
330
1E
100
AcDbEntity
  8
製品
  6
Continuous
 62
     2
100
AcDbLine
 10
143.7926408554269
 20
326.9034384802392
 30
0.0
 11
144.992640855427
 21
328.103438480239
 31
0.0
  0
LINE
  5
72C1
330
1E
100
AcDbEntity
  8
製品
  6
Continuous
 62
     2
100
AcDbLine
 10
143.7926408554269
 20
328.3883624802395
 30
0.0
 11
144.992640855427
 21
329.5883624802393
 31
0.0
  0
LINE
  5
72C2
330
1E
100
AcDbEntity
  8
製品
  6
Continuous
 62
     2
100
AcDbLine
 10
144.125613855427
 20
332.7175294802394
 30
0.0
 11
146.625613855427
 21
330.2175294802394
 31
0.0
  0
LINE
  5
72C3
330
1E
100
AcDbEntity
  8
製品
  6
Continuous
 62
     2
100
AcDbLine
 10
142.7113998554268
 20
332.7175294802394
 30
0.0
 11
145.2113998554268
 21
330.2175294802394
 31
0.0
  0
LINE
  5
72C4
330
1E
100
AcDbEntity
  8
製品
  6
Continuous
 62
     2
100
AcDbLine
 10
152.1146408554268
 20
314.2175294802393
 30
0.0
 11
152.1146408554268
 21
316.2175294802394
 31
0.0
  0
LINE
  5
72C5
330
1E
100
AcDbEntity
  8
製品
  6
Continuous
 62
     4
100
AcDbLine
 10
150.992640855427
 20
318.1675294802392
 30
0.0
 11
150.992640855427
 21
315.6675294802392
 31
0.0
  0
LINE
  5
72C6
330
1E
100
AcDbEntity
  8
製品
  6
Continuous
 62
     2
100
AcDbLine
 10
143.7926408554269
 20
315.0240444802396
 30
0.0
 11
144.4361258554268
 21
315.6675294802392
 31
0.0
  0
LINE
  5
72C7
330
1E
100
AcDbEntity
  8
製品
  6
Continuous
 62
     2
100
AcDbLine
 10
143.9662778554268
 20
318.1675294802392
 30
0.0
 11
144.992640855427
 21
319.1938924802391
 31
0.0
  0
LINE
  5
72C8
330
1E
100
AcDbEntity
  8
製品
  6
Continuous
 62
     2
100
AcDbLine
 10
143.7926408554269
 20
313.5391204802393
 30
0.0
 11
144.992640855427
 21
314.7391204802391
 31
0.0
  0
LINE
  5
72C9
330
1E
100
AcDbEntity
  8
製品
  6
Continuous
 62
     2
100
AcDbLine
 10
143.7926408554269
 20
319.4788174802391
 30
0.0
 11
144.992640855427
 21
320.6788174802389
 31
0.0
  0
LINE
  5
72CA
330
1E
100
AcDbEntity
  8
製品
  6
Continuous
 62
     2
100
AcDbLine
 10
143.7926408554269
 20
320.9637414802394
 30
0.0
 11
144.992640855427
 21
322.1637414802392
 31
0.0
  0
LINE
  5
72CB
330
1E
100
AcDbEntity
  8
製品
  6
Continuous
 62
     4
100
AcDbLine
 10
143.7926408554269
 20
318.1675294802392
 30
0.0
 11
143.7926408554269
 21
330.2175294802394
 31
0.0
  0
LINE
  5
72CC
330
1E
100
AcDbEntity
  8
製品
  6
Continuous
 62
     4
100
AcDbLine
 10
144.992640855427
 20
330.2175294802394
 30
0.0
 11
144.992640855427
 21
318.1675294802392
 31
0.0
  0
LINE
  5
72CD
330
1E
100
AcDbEntity
  8
製品
  6
Continuous
 62
     4
100
AcDbLine
 10
149.992640855427
 20
318.1675294802392
 30
0.0
 11
149.992640855427
 21
330.2175294802394
 31
0.0
  0
LINE
  5
72CE
330
1E
100
AcDbEntity
  8
製品
  6
Continuous
 62
     2
100
AcDbLine
 10
143.7926408554269
 20
322.4486654802397
 30
0.0
 11
144.992640855427
 21
323.6486654802395
 31
0.0
  0
LINE
  5
72CF
330
1E
100
AcDbEntity
  8
製品
  6
Continuous
 62
     2
100
AcDbLine
 10
143.7926408554269
 20
303.1446504802391
 30
0.0
 11
144.992640855427
 21
304.3446504802389
 31
0.0
  0
LINE
  5
72D0
330
1E
100
AcDbEntity
  8
製品
  6
Continuous
 62
     2
100
AcDbLine
 10
143.7926408554269
 20
304.6295744802394
 30
0.0
 11
144.992640855427
 21
305.8295744802392
 31
0.0
  0
LINE
  5
72D1
330
1E
100
AcDbEntity
  8
製品
  6
Continuous
 62
     2
100
AcDbLine
 10
143.7926408554269
 20
306.1144984802397
 30
0.0
 11
144.992640855427
 21
307.3144984802395
 31
0.0
  0
LINE
  5
72D2
330
1E
100
AcDbEntity
  8
製品
  6
Continuous
 62
     2
100
AcDbLine
 10
143.7926408554269
 20
307.5994234802394
 30
0.0
 11
144.992640855427
 21
308.7994234802393
 31
0.0
  0
LINE
  5
72D3
330
1E
100
AcDbEntity
  8
製品
  6
Continuous
 62
     2
100
AcDbLine
 10
143.7926408554269
 20
309.0843474802389
 30
0.0
 11
144.992640855427
 21
310.2843474802396
 31
0.0
  0
LINE
  5
72D4
330
1E
100
AcDbEntity
  8
製品
  6
Continuous
 62
     2
100
AcDbLine
 10
143.7926408554269
 20
310.5692714802392
 30
0.0
 11
144.992640855427
 21
311.769271480239
 31
0.0
  0
LINE
  5
72D5
330
1E
100
AcDbEntity
  8
製品
  6
Continuous
 62
     2
100
AcDbLine
 10
143.7926408554269
 20
312.0541954802395
 30
0.0
 11
144.992640855427
 21
313.2541954802393
 31
0.0
  0
LINE
  5
72D6
330
1E
100
AcDbEntity
  8
製品
  6
Continuous
 62
     2
100
AcDbLine
 10
134.2261188554269
 20
332.7175294802394
 30
0.0
 11
136.7261188554268
 21
330.2175294802394
 31
0.0
  0
LINE
  5
72D7
330
1E
100
AcDbEntity
  8
製品
  6
Continuous
 62
     2
100
AcDbLine
 10
132.8119048554269
 20
332.7175294802394
 30
0.0
 11
135.3119048554269
 21
330.2175294802394
 31
0.0
  0
LINE
  5
72D8
330
1E
100
AcDbEntity
  8
製品
  6
Continuous
 62
     2
100
AcDbLine
 10
131.3976918554269
 20
332.7175294802394
 30
0.0
 11
133.8976918554269
 21
330.2175294802394
 31
0.0
  0
LINE
  5
72D9
330
1E
100
AcDbEntity
  8
製品
  6
Continuous
 62
     4
100
AcDbLine
 10
132.8926408554268
 20
318.1675294802392
 30
0.0
 11
132.8926408554268
 21
330.2175294802394
 31
0.0
  0
LINE
  5
72DA
330
1E
100
AcDbEntity
  8
製品
  6
Continuous
 62
     4
100
AcDbLine
 10
134.0926408554269
 20
330.2175294802394
 30
0.0
 11
134.0926408554269
 21
318.1675294802392
 31
0.0
  0
LINE
  5
72DB
330
1E
100
AcDbEntity
  8
製品
  6
Continuous
 62
     2
100
AcDbLine
 10
137.054545855427
 20
332.7175294802394
 30
0.0
 11
139.554545855427
 21
330.2175294802394
 31
0.0
  0
LINE
  5
72DC
330
1E
100
AcDbEntity
  8
製品
  6
Continuous
 62
     2
100
AcDbLine
 10
135.640332855427
 20
332.7175294802394
 30
0.0
 11
138.140332855427
 21
330.2175294802394
 31
0.0
  0
LINE
  5
72DD
330
1E
100
AcDbEntity
  8
製品
  6
Continuous
 62
     4
100
AcDbLine
 10
132.8926408554268
 20
332.7175294802394
 30
0.0
 11
132.8926408554268
 21
346.1675294802392
 31
0.0
  0
LINE
  5
72DE
330
1E
100
AcDbEntity
  8
製品
  6
Continuous
 62
     4
100
AcDbLine
 10
134.0926408554269
 20
346.1675294802392
 30
0.0
 11
134.0926408554269
 21
332.7175294802394
 31
0.0
  0
LINE
  5
72DF
330
1E
100
AcDbEntity
  8
製品
  6
Continuous
 62
     4
100
AcDbLine
 10
144.992640855427
 20
346.1675294802392
 30
0.0
 11
144.992640855427
 21
332.7175294802394
 31
0.0
  0
LINE
  5
72E0
330
1E
100
AcDbEntity
  8
製品
  6
Continuous
 62
     4
100
AcDbLine
 10
143.7926408554269
 20
332.7175294802394
 30
0.0
 11
143.7926408554269
 21
346.1675294802392
 31
0.0
  0
LINE
  5
72E1
330
1E
100
AcDbEntity
  8
製品
  6
Continuous
 62
     4
100
AcDbLine
 10
149.992640855427
 20
332.7175294802394
 30
0.0
 11
149.992640855427
 21
340.7175294802394
 31
0.0
  0
LINE
  5
72E2
330
1E
100
AcDbEntity
  8
製品
  6
Continuous
 62
     2
100
AcDbLine
 10
143.7926408554269
 20
332.843135480239
 30
0.0
 11
144.992640855427
 21
334.0431354802397
 31
0.0
  0
LINE
  5
72E3
330
1E
100
AcDbEntity
  8
製品
  6
Continuous
 62
     2
100
AcDbLine
 10
168.1672438554269
 20
332.7175294802394
 30
0.0
 11
170.6672438554269
 21
330.2175294802394
 31
0.0
  0
LINE
  5
72E4
330
1E
100
AcDbEntity
  8
製品
  6
Continuous
 62
     2
100
AcDbLine
 10
170.9956718554269
 20
332.7175294802394
 30
0.0
 11
173.4956718554269
 21
330.2175294802394
 31
0.0
  0
LINE
  5
72E5
330
1E
100
AcDbEntity
  8
製品
  6
Continuous
 62
     2
100
AcDbLine
 10
169.5814578554268
 20
332.7175294802394
 30
0.0
 11
172.0814578554268
 21
330.2175294802394
 31
0.0
  0
LINE
  5
72E6
330
1E
100
AcDbEntity
  8
製品
  6
Continuous
 62
     2
100
AcDbLine
 10
167.8046408554269
 20
319.0555294802391
 30
0.0
 11
167.8046408554269
 21
322.5555294802391
 31
0.0
  0
LINE
  5
72E7
330
1E
100
AcDbEntity
  8
製品
  6
Continuous
 62
     2
100
AcDbLine
 10
163.924603855427
 20
332.7175294802394
 30
0.0
 11
166.424603855427
 21
330.2175294802394
 31
0.0
  0
LINE
  5
72E8
330
1E
100
AcDbEntity
  8
製品
  6
Continuous
 62
     2
100
AcDbLine
 10
161.0961768554268
 20
332.7175294802394
 30
0.0
 11
163.5961768554268
 21
330.2175294802394
 31
0.0
  0
LINE
  5
72E9
330
1E
100
AcDbEntity
  8
製品
  6
Continuous
 62
     2
100
AcDbLine
 10
162.5103898554268
 20
332.7175294802394
 30
0.0
 11
165.0103898554268
 21
330.2175294802394
 31
0.0
  0
LINE
  5
72EA
330
1E
100
AcDbEntity
  8
製品
  6
Continuous
 62
     2
100
AcDbLine
 10
156.8535358554268
 20
332.7175294802394
 30
0.0
 11
159.3535358554268
 21
330.2175294802394
 31
0.0
  0
LINE
  5
72EB
330
1E
100
AcDbEntity
  8
製品
  6
Continuous
 62
     2
100
AcDbLine
 10
152.610894855427
 20
332.7175294802394
 30
0.0
 11
155.1108948554269
 21
330.2175294802394
 31
0.0
  0
LINE
  5
72EC
330
1E
100
AcDbEntity
  8
製品
  6
Continuous
 62
     2
100
AcDbLine
 10
155.4393218554269
 20
332.7175294802394
 30
0.0
 11
157.9393218554269
 21
330.2175294802394
 31
0.0
  0
LINE
  5
72ED
330
1E
100
AcDbEntity
  8
製品
  6
Continuous
 62
     2
100
AcDbLine
 10
154.0251088554269
 20
332.7175294802394
 30
0.0
 11
156.5251088554268
 21
330.2175294802394
 31
0.0
  0
LINE
  5
72EE
330
1E
100
AcDbEntity
  8
製品
  6
Continuous
 62
     2
100
AcDbLine
 10
159.6819628554269
 20
332.7175294802394
 30
0.0
 11
162.1819628554269
 21
330.2175294802394
 31
0.0
  0
LINE
  5
72EF
330
1E
100
AcDbEntity
  8
製品
  6
Continuous
 62
     2
100
AcDbLine
 10
158.2677498554269
 20
332.7175294802394
 30
0.0
 11
160.7677498554269
 21
330.2175294802394
 31
0.0
  0
LINE
  5
72F0
330
1E
100
AcDbEntity
  8
製品
  6
Continuous
 62
     2
100
AcDbLine
 10
166.3046408554269
 20
322.5555294802391
 30
0.0
 11
166.3046408554269
 21
319.0555294802391
 31
0.0
  0
CIRCLE
  5
72F1
330
1E
100
AcDbEntity
  8
製品
  6
Continuous
 62
     2
100
AcDbCircle
 10
153.1146408554268
 20
315.2175294802394
 30
0.0
 40
0.25
  0
LINE
  5
72F2
330
1E
100
AcDbEntity
  8
製品
  6
PLINE3
 62
     2
100
AcDbLine
 10
153.1146408554268
 20
316.4168624802389
 30
0.0
 11
153.1146408554268
 21
313.8705204802393
 31
0.0
  0
LINE
  5
72F3
330
1E
100
AcDbEntity
  8
製品
  6
Continuous
 62
     2
100
AcDbLine
 10
155.6146408554268
 20
316.2175294802394
 30
0.0
 11
155.6146408554268
 21
314.2175294802393
 31
0.0
  0
LINE
  5
72F4
330
1E
100
AcDbEntity
  8
製品
  6
Continuous
 62
     2
100
AcDbLine
 10
155.454640855427
 20
324.1555294802395
 30
0.0
 11
155.454640855427
 21
316.1856084802396
 31
0.0
  0
LINE
  5
72F5
330
1E
100
AcDbEntity
  8
製品
  6
Continuous
 62
     4
100
AcDbLine
 10
153.8926408554268
 20
332.7175294802394
 30
0.0
 11
153.8926408554268
 21
340.7175294802394
 31
0.0
  0
LINE
  5
72F6
330
1E
100
AcDbEntity
  8
製品
  6
Continuous
 62
     2
100
AcDbLine
 10
166.3046408554269
 20
319.0555294802391
 30
0.0
 11
167.8046408554269
 21
319.0555294802391
 31
0.0
  0
LINE
  5
72F7
330
1E
100
AcDbEntity
  8
製品
  6
Continuous
 62
     2
100
AcDbLine
 10
166.7530308554269
 20
332.7175294802394
 30
0.0
 11
169.2530308554269
 21
330.2175294802394
 31
0.0
  0
LINE
  5
72F8
330
1E
100
AcDbEntity
  8
製品
  6
Continuous
 62
     2
100
AcDbLine
 10
165.338816855427
 20
332.7175294802394
 30
0.0
 11
167.838816855427
 21
330.2175294802394
 31
0.0
  0
LINE
  5
72F9
330
1E
100
AcDbEntity
  8
製品
  6
Continuous
 62
     2
100
AcDbLine
 10
210.7926408554269
 20
301.6597264802397
 30
0.0
 11
211.992640855427
 21
302.8597264802395
 31
0.0
  0
TEXT
  5
72FA
330
1E
100
AcDbEntity
  8
製品
  6
Continuous
 62
     2
100
AcDbText
 10
184.3926329095331
 20
300.6841864802395
 30
0.0
 40
3.0
  1
Ｗ
 50
90.00000299999769
 41
0.73811
 72
     1
 11
184.3926328554269
 21
301.7175404802395
 31
0.0
100
AcDbText
  0
LINE
  5
72FB
330
1E
100
AcDbEntity
  8
製品
  6
Continuous
 62
     2
100
AcDbLine
 10
200.330640855427
 20
289.2175294802393
 30
0.0
 11
200.330640855427
 21
314.2175294802393
 31
0.0
  0
LINE
  5
72FC
330
1E
100
AcDbEntity
  8
製品
  6
Continuous
 62
     2
100
AcDbLine
 10
199.7926408554269
 20
279.8175294802397
 30
0.0
 11
199.7926408554269
 21
323.617529480239
 31
0.0
  0
LINE
  5
72FD
330
1E
100
AcDbEntity
  8
製品
  6
Continuous
 62
     4
100
AcDbLine
 10
198.7306408554268
 20
280.8795294802396
 30
0.0
 11
198.7306408554268
 21
322.5555294802391
 31
0.0
  0
LINE
  5
72FE
330
1E
100
AcDbEntity
  8
製品
  6
Continuous
 62
     4
100
AcDbLine
 10
205.792640855427
 20
287.7675294802395
 30
0.0
 11
205.792640855427
 21
315.6675294802392
 31
0.0
  0
LINE
  5
72FF
330
1E
100
AcDbEntity
  8
製品
  6
Continuous
 62
     4
100
AcDbLine
 10
222.8926408554269
 20
287.7675294802395
 30
0.0
 11
222.8926408554269
 21
315.6675294802392
 31
0.0
  0
LINE
  5
7300
330
1E
100
AcDbEntity
  8
製品
  6
Continuous
 62
     4
100
AcDbLine
 10
224.0926408554269
 20
315.6675294802392
 30
0.0
 11
224.0926408554269
 21
287.7675294802395
 31
0.0
  0
LINE
  5
7301
330
1E
100
AcDbEntity
  8
製品
  6
Continuous
 62
     4
100
AcDbLine
 10
211.992640855427
 20
315.6675294802392
 30
0.0
 11
211.992640855427
 21
287.7675294802395
 31
0.0
  0
LINE
  5
7302
330
1E
100
AcDbEntity
  8
製品
  6
Continuous
 62
     4
100
AcDbLine
 10
210.7926408554269
 20
287.7675294802395
 30
0.0
 11
210.7926408554269
 21
315.6675294802392
 31
0.0
  0
LINE
  5
7303
330
1E
100
AcDbEntity
  8
製品
  6
Continuous
 62
     4
100
AcDbLine
 10
201.3926408554269
 20
278.2175294802394
 30
0.0
 11
201.3926408554269
 21
325.2175294802394
 31
0.0
  0
LINE
  5
7304
330
1E
100
AcDbEntity
  8
製品
  6
Continuous
 62
     4
100
AcDbLine
 10
201.8926408554269
 20
318.1675294802392
 30
0.0
 11
201.8926408554269
 21
273.2175294802394
 31
0.0
  0
LINE
  5
7305
330
1E
100
AcDbEntity
  8
製品
  6
Continuous
 62
     2
100
AcDbLine
 10
185.3926408554268
 20
278.2175294802394
 30
0.0
 11
185.3926408554268
 21
325.2175294802394
 31
0.0
  0
LINE
  5
7306
330
1E
100
AcDbEntity
  8
図面枠
  6
PLINE3
 62
     2
100
AcDbLine
 10
177.8926408554268
 20
241.7175294802394
 30
0.0
 11
177.8926408554268
 21
361.7175294802394
 31
0.0
  0
LINE
  5
7307
330
1E
100
AcDbEntity
  8
製品
  6
Continuous
 62
     2
100
AcDbLine
 10
217.6647188554268
 20
273.2175294802394
 30
0.0
 11
220.1647188554268
 21
270.7175294802393
 31
0.0
  0
LINE
  5
7308
330
1E
100
AcDbEntity
  8
製品
  6
Continuous
 62
     2
100
AcDbLine
 10
216.2505058554268
 20
273.2175294802394
 30
0.0
 11
218.7505058554268
 21
270.7175294802393
 31
0.0
  0
LINE
  5
7309
330
1E
100
AcDbEntity
  8
製品
  6
Continuous
 62
     4
100
AcDbLine
 10
204.7926408554269
 20
287.7675294802395
 30
0.0
 11
237.8926408554268
 21
287.7675294802395
 31
0.0
  0
LINE
  5
730A
330
1E
100
AcDbEntity
  8
製品
  6
Continuous
 62
     4
100
AcDbLine
 10
204.7926408554269
 20
285.2675294802395
 30
0.0
 11
237.8926408554268
 21
285.2675294802395
 31
0.0
  0
LINE
  5
730B
330
1E
100
AcDbEntity
  8
図面枠
  6
Continuous
 62
     2
100
AcDbLine
 10
205.792640855427
 20
189.9469964802394
 30
0.0
 11
222.326545855427
 21
218.5845604802391
 31
0.0
  0
LINE
  5
730C
330
1E
100
AcDbEntity
  8
製品
  6
Continuous
 62
     4
100
AcDbLine
 10
237.8926408554268
 20
185.6469964802393
 30
0.0
 11
201.8926408554269
 21
185.6469964802393
 31
0.0
  0
LINE
  5
730D
330
1E
100
AcDbEntity
  8
製品
  6
Continuous
 62
     4
100
AcDbLine
 10
201.492640855427
 20
186.8469964802391
 30
0.0
 11
237.8926408554268
 21
186.8469964802391
 31
0.0
  0
LINE
  5
730E
330
1E
100
AcDbEntity
  8
製品
  6
Continuous
 62
     4
100
AcDbLine
 10
237.8926408554268
 20
188.7469964802397
 30
0.0
 11
201.492640855427
 21
188.7469964802397
 31
0.0
  0
LINE
  5
730F
330
1E
100
AcDbEntity
  8
製品
  6
Continuous
 62
     4
100
AcDbLine
 10
222.0926408554269
 20
147.1197964802388
 30
0.0
 11
216.7676408554269
 21
147.1197964802388
 31
0.0
  0
LINE
  5
7310
330
1E
100
AcDbEntity
  8
製品
  6
Continuous
 62
     4
100
AcDbLine
 10
216.7676408554269
 20
143.3197964802396
 30
0.0
 11
222.9676408554269
 21
143.3197964802396
 31
0.0
  0
LINE
  5
7311
330
1E
100
AcDbEntity
  8
製品
  6
Continuous
 62
     4
100
AcDbLine
 10
237.8926408554268
 20
141.419796480239
 30
0.0
 11
201.1926408554268
 21
141.419796480239
 31
0.0
  0
LINE
  5
7312
330
1E
100
AcDbEntity
  8
製品
  6
Continuous
 62
     4
100
AcDbLine
 10
201.492640855427
 20
140.2197964802392
 30
0.0
 11
237.8926408554268
 21
140.2197964802392
 31
0.0
  0
LINE
  5
7314
330
1E
100
AcDbEntity
  8
製品
  6
PLINE3
 62
     2
100
AcDbLine
 10
177.8926408554268
 20
198.7469964802396
 30
0.0
 11
177.8926408554268
 21
180.6469964802393
 31
0.0
  0
ARC
  5
7315
330
1E
100
AcDbEntity
  8
製品
  6
Continuous
 62
     2
100
AcDbCircle
 10
196.3826408554268
 20
142.2297964802394
 30
0.0
 40
0.8100000000000001
100
AcDbArc
 50
84.89224799999595
 51
270.0
  0
ARC
  5
7316
330
1E
100
AcDbEntity
  8
製品
  6
Continuous
 62
     2
100
AcDbCircle
 10
196.3826408554268
 20
142.2297964802394
 30
0.0
 40
0.75
100
AcDbArc
 50
84.89224599999717
 51
270.0
  0
LINE
  5
7319
330
1E
100
AcDbEntity
  8
製品
  6
PLINE3
 62
     2
100
AcDbLine
 10
177.8926408554268
 20
155.2197964802392
 30
0.0
 11
177.8926408554268
 21
135.2197964802392
 31
0.0
  0
LINE
  5
731B
330
1E
100
AcDbEntity
  8
製品
  6
Continuous
 62
     4
100
AcDbLine
 10
216.7676408554269
 20
152.919796480239
 30
0.0
 11
214.4676408554269
 21
152.919796480239
 31
0.0
  0
LINE
  5
731C
330
1E
100
AcDbEntity
  8
製品
  6
Continuous
 62
     2
100
AcDbLine
 10
206.1426408554269
 20
147.1197964802388
 30
0.0
 11
206.1426408554269
 21
144.5997964802393
 31
0.0
  0
LINE
  5
731D
330
1E
100
AcDbEntity
  8
製品
  6
Continuous
 62
     2
100
AcDbLine
 10
206.1426408554269
 20
144.5997964802393
 30
0.0
 11
207.0176408554269
 21
144.2813224802396
 31
0.0
  0
LINE
  5
731E
330
1E
100
AcDbEntity
  8
製品
  6
Continuous
 62
     2
100
AcDbLine
 10
206.1426408554269
 20
147.1197964802388
 30
0.0
 11
206.1426408554269
 21
147.1797964802392
 31
0.0
  0
LINE
  5
731F
330
1E
100
AcDbEntity
  8
製品
  6
Continuous
 62
     2
100
AcDbLine
 10
206.1426408554269
 20
147.1797964802392
 30
0.0
 11
209.1426408554269
 21
147.1797964802392
 31
0.0
  0
LINE
  5
7320
330
1E
100
AcDbEntity
  8
製品
  6
Continuous
 62
     2
100
AcDbLine
 10
209.1426408554269
 20
147.1197964802388
 30
0.0
 11
209.1426408554269
 21
144.5997964802393
 31
0.0
  0
LINE
  5
7321
330
1E
100
AcDbEntity
  8
製品
  6
Continuous
 62
     2
100
AcDbLine
 10
209.1426408554269
 20
144.5997964802393
 30
0.0
 11
208.2676408554269
 21
144.2813224802396
 31
0.0
  0
LINE
  5
7322
330
1E
100
AcDbEntity
  8
製品
  6
Continuous
 62
     2
100
AcDbLine
 10
209.1426408554269
 20
147.1797964802392
 30
0.0
 11
209.1426408554269
 21
147.1197964802388
 31
0.0
  0
LINE
  5
7323
330
1E
100
AcDbEntity
  8
製品
  6
Continuous
 62
     4
100
AcDbLine
 10
214.4676408554269
 20
147.1197964802388
 30
0.0
 11
209.1426408554269
 21
147.1197964802388
 31
0.0
  0
LINE
  5
7324
330
1E
100
AcDbEntity
  8
製品
  6
Continuous
 62
     4
100
AcDbLine
 10
214.4676408554269
 20
143.1197964802388
 30
0.0
 11
216.7676408554269
 21
143.1197964802388
 31
0.0
  0
ARC
  5
7325
330
1E
100
AcDbEntity
  8
製品
  6
Continuous
 62
     2
100
AcDbCircle
 10
206.7176408554269
 20
142.6497964802395
 30
0.0
 40
0.2
100
AcDbArc
 50
180.0
 51
270.0
  0
ARC
  5
7326
330
1E
100
AcDbEntity
  8
製品
  6
Continuous
 62
     2
100
AcDbCircle
 10
206.867640855427
 20
143.0497964802391
 30
0.0
 40
0.15
100
AcDbArc
 50
195.6782760000051
 51
0.0
  0
ARC
  5
7327
330
1E
100
AcDbEntity
  8
製品
  6
Continuous
 62
     2
100
AcDbCircle
 10
206.5426408554269
 20
143.169796480239
 30
0.0
 40
0.1
100
AcDbArc
 50
90.0
 51
180.0
  0
LINE
  5
7328
330
1E
100
AcDbEntity
  8
製品
  6
Continuous
 62
     2
100
AcDbLine
 10
206.5426408554269
 20
143.2697964802394
 30
0.0
 11
206.6426408554268
 21
143.2697964802394
 31
0.0
  0
ARC
  5
7329
330
1E
100
AcDbEntity
  8
製品
  6
Continuous
 62
     2
100
AcDbCircle
 10
206.6426408554268
 20
143.169796480239
 30
0.0
 40
0.1
100
AcDbArc
 50
0.0
 51
90.0
  0
LINE
  5
732A
330
1E
100
AcDbEntity
  8
製品
  6
Continuous
 62
     2
100
AcDbLine
 10
206.742640855427
 20
143.169796480239
 30
0.0
 11
206.742640855427
 21
143.0197964802394
 31
0.0
  0
LINE
  5
732B
330
1E
100
AcDbEntity
  8
製品
  6
Continuous
 62
     2
100
AcDbLine
 10
206.742640855427
 20
143.0197964802394
 30
0.0
 11
206.7926408554269
 21
143.0197964802394
 31
0.0
  0
LINE
  5
732C
330
1E
100
AcDbEntity
  8
製品
  6
Continuous
 62
     2
100
AcDbLine
 10
206.7926408554269
 20
143.0197964802394
 30
0.0
 11
206.7926408554269
 21
143.169796480239
 31
0.0
  0
ARC
  5
732D
330
1E
100
AcDbEntity
  8
製品
  6
Continuous
 62
     2
100
AcDbCircle
 10
206.6426408554268
 20
143.169796480239
 30
0.0
 40
0.15
100
AcDbArc
 50
0.0
 51
90.0
  0
ARC
  5
732E
330
1E
100
AcDbEntity
  8
製品
  6
Continuous
 62
     2
100
AcDbCircle
 10
206.5426408554269
 20
143.169796480239
 30
0.0
 40
0.15
100
AcDbArc
 50
90.0
 51
180.0
  0
LINE
  5
732F
330
1E
100
AcDbEntity
  8
製品
  6
Continuous
 62
     2
100
AcDbLine
 10
206.7926408554269
 20
141.4697964802392
 30
0.0
 11
206.8926408554268
 21
141.5197964802394
 31
0.0
  0
LINE
  5
7330
330
1E
100
AcDbEntity
  8
製品
  6
Continuous
 62
     2
100
AcDbLine
 10
206.8926408554268
 20
141.5197964802394
 30
0.0
 11
207.0426408554269
 21
141.4697964802392
 31
0.0
  0
LINE
  5
7331
330
1E
100
AcDbEntity
  8
製品
  6
Continuous
 62
     2
100
AcDbLine
 10
207.0426408554269
 20
141.4697964802392
 30
0.0
 11
207.1926408554268
 21
141.5197964802394
 31
0.0
  0
LINE
  5
7332
330
1E
100
AcDbEntity
  8
製品
  6
Continuous
 62
     2
100
AcDbLine
 10
207.1926408554268
 20
141.5197964802394
 30
0.0
 11
207.3426408554269
 21
141.4697964802392
 31
0.0
  0
LINE
  5
7333
330
1E
100
AcDbEntity
  8
製品
  6
Continuous
 62
     2
100
AcDbLine
 10
207.3426408554269
 20
141.4697964802392
 30
0.0
 11
207.492640855427
 21
141.5197964802394
 31
0.0
  0
LINE
  5
7334
330
1E
100
AcDbEntity
  8
製品
  6
Continuous
 62
     2
100
AcDbLine
 10
207.492640855427
 20
141.5197964802394
 30
0.0
 11
207.6426408554269
 21
141.4697964802392
 31
0.0
  0
LINE
  5
7335
330
1E
100
AcDbEntity
  8
製品
  6
Continuous
 62
     2
100
AcDbLine
 10
206.7926408554269
 20
141.419796480239
 30
0.0
 11
206.8926408554268
 21
141.4697964802392
 31
0.0
  0
LINE
  5
7336
330
1E
100
AcDbEntity
  8
製品
  6
Continuous
 62
     2
100
AcDbLine
 10
206.8926408554268
 20
141.4697964802392
 30
0.0
 11
207.0426408554269
 21
141.419796480239
 31
0.0
  0
LINE
  5
7337
330
1E
100
AcDbEntity
  8
製品
  6
Continuous
 62
     2
100
AcDbLine
 10
207.0426408554269
 20
141.419796480239
 30
0.0
 11
207.1926408554268
 21
141.4697964802392
 31
0.0
  0
LINE
  5
7338
330
1E
100
AcDbEntity
  8
製品
  6
Continuous
 62
     2
100
AcDbLine
 10
207.1926408554268
 20
141.4697964802392
 30
0.0
 11
207.3426408554269
 21
141.419796480239
 31
0.0
  0
LINE
  5
7339
330
1E
100
AcDbEntity
  8
製品
  6
Continuous
 62
     2
100
AcDbLine
 10
207.3426408554269
 20
141.419796480239
 30
0.0
 11
207.492640855427
 21
141.4697964802392
 31
0.0
  0
LINE
  5
733A
330
1E
100
AcDbEntity
  8
製品
  6
Continuous
 62
     2
100
AcDbLine
 10
207.492640855427
 20
141.4697964802392
 30
0.0
 11
207.6426408554269
 21
141.419796480239
 31
0.0
  0
LINE
  5
733B
330
1E
100
AcDbEntity
  8
製品
  6
Continuous
 62
     2
100
AcDbLine
 10
206.3926408554269
 20
141.7197964802392
 30
0.0
 11
206.3926408554269
 21
143.169796480239
 31
0.0
  0
ARC
  5
733C
330
1E
100
AcDbEntity
  8
製品
  6
Continuous
 62
     2
100
AcDbCircle
 10
206.6926408554268
 20
141.7197964802392
 30
0.0
 40
0.3
100
AcDbArc
 50
180.0
 51
270.0
  0
LINE
  5
733D
330
1E
100
AcDbEntity
  8
製品
  6
Continuous
 62
     2
100
AcDbLine
 10
206.6926408554268
 20
141.419796480239
 30
0.0
 11
206.7926408554269
 21
141.419796480239
 31
0.0
  0
LINE
  5
733E
330
1E
100
AcDbEntity
  8
製品
  6
Continuous
 62
     2
100
AcDbLine
 10
206.4426408554268
 20
141.7197964802392
 30
0.0
 11
206.4426408554268
 21
143.169796480239
 31
0.0
  0
ARC
  5
733F
330
1E
100
AcDbEntity
  8
製品
  6
Continuous
 62
     2
100
AcDbCircle
 10
206.6926408554268
 20
141.7197964802392
 30
0.0
 40
0.25
100
AcDbArc
 50
180.0
 51
270.0
  0
LINE
  5
7340
330
1E
100
AcDbEntity
  8
製品
  6
Continuous
 62
     2
100
AcDbLine
 10
206.6926408554268
 20
141.4697964802392
 30
0.0
 11
206.7926408554269
 21
141.4697964802392
 31
0.0
  0
LINE
  5
7341
330
1E
100
AcDbEntity
  8
製品
  6
Continuous
 62
     2
100
AcDbLine
 10
206.7232218554268
 20
143.009261480239
 30
0.0
 11
206.6500948554269
 21
143.2697964802394
 31
0.0
  0
LINE
  5
7342
330
1E
100
AcDbEntity
  8
製品
  6
Continuous
 62
     2
100
AcDbLine
 10
206.5176408554269
 20
142.6497964802395
 30
0.0
 11
206.5176408554269
 21
143.2666214802395
 31
0.0
  0
LINE
  5
7343
330
1E
100
AcDbEntity
  8
製品
  6
Continuous
 62
     2
100
AcDbLine
 10
208.3926408554269
 20
141.5197964802394
 30
0.0
 11
208.242640855427
 21
141.4697964802392
 31
0.0
  0
LINE
  5
7344
330
1E
100
AcDbEntity
  8
製品
  6
Continuous
 62
     2
100
AcDbLine
 10
208.242640855427
 20
141.4697964802392
 30
0.0
 11
208.0926408554269
 21
141.5197964802394
 31
0.0
  0
LINE
  5
7345
330
1E
100
AcDbEntity
  8
製品
  6
Continuous
 62
     2
100
AcDbLine
 10
208.0926408554269
 20
141.5197964802394
 30
0.0
 11
207.9426408554268
 21
141.4697964802392
 31
0.0
  0
LINE
  5
7346
330
1E
100
AcDbEntity
  8
製品
  6
Continuous
 62
     2
100
AcDbLine
 10
207.9426408554268
 20
141.4697964802392
 30
0.0
 11
207.792640855427
 21
141.5197964802394
 31
0.0
  0
LINE
  5
7347
330
1E
100
AcDbEntity
  8
製品
  6
Continuous
 62
     2
100
AcDbLine
 10
207.792640855427
 20
141.5197964802394
 30
0.0
 11
207.6426408554269
 21
141.4697964802392
 31
0.0
  0
LINE
  5
7348
330
1E
100
AcDbEntity
  8
製品
  6
Continuous
 62
     2
100
AcDbLine
 10
208.492640855427
 20
141.419796480239
 30
0.0
 11
208.3926408554269
 21
141.4697964802392
 31
0.0
  0
LINE
  5
7349
330
1E
100
AcDbEntity
  8
製品
  6
Continuous
 62
     2
100
AcDbLine
 10
208.3926408554269
 20
141.4697964802392
 30
0.0
 11
208.242640855427
 21
141.419796480239
 31
0.0
  0
LINE
  5
734A
330
1E
100
AcDbEntity
  8
製品
  6
Continuous
 62
     2
100
AcDbLine
 10
208.242640855427
 20
141.419796480239
 30
0.0
 11
208.0926408554269
 21
141.4697964802392
 31
0.0
  0
LINE
  5
734B
330
1E
100
AcDbEntity
  8
製品
  6
Continuous
 62
     2
100
AcDbLine
 10
208.0926408554269
 20
141.4697964802392
 30
0.0
 11
207.9426408554268
 21
141.419796480239
 31
0.0
  0
LINE
  5
734C
330
1E
100
AcDbEntity
  8
製品
  6
Continuous
 62
     2
100
AcDbLine
 10
207.9426408554268
 20
141.419796480239
 30
0.0
 11
207.792640855427
 21
141.4697964802392
 31
0.0
  0
LINE
  5
734D
330
1E
100
AcDbEntity
  8
製品
  6
Continuous
 62
     2
100
AcDbLine
 10
207.792640855427
 20
141.4697964802392
 30
0.0
 11
207.6426408554269
 21
141.419796480239
 31
0.0
  0
LINE
  5
734E
330
1E
100
AcDbEntity
  8
製品
  6
Continuous
 62
     2
100
AcDbLine
 10
208.5676408554268
 20
142.4497964802396
 30
0.0
 11
206.7176408554269
 21
142.4497964802396
 31
0.0
  0
ARC
  5
734F
330
1E
100
AcDbEntity
  8
製品
  6
Continuous
 62
     2
100
AcDbCircle
 10
208.5676408554268
 20
142.6497964802395
 30
0.0
 40
0.2
100
AcDbArc
 50
270.0
 51
0.0
  0
ARC
  5
7350
330
1E
100
AcDbEntity
  8
製品
  6
Continuous
 62
     2
100
AcDbCircle
 10
208.417640855427
 20
143.0497964802391
 30
0.0
 40
0.15
100
AcDbArc
 50
180.0
 51
344.3217239999948
  0
ARC
  5
7351
330
1E
100
AcDbEntity
  8
製品
  6
Continuous
 62
     2
100
AcDbCircle
 10
208.742640855427
 20
143.169796480239
 30
0.0
 40
0.1
100
AcDbArc
 50
0.0
 51
90.0
  0
LINE
  5
7352
330
1E
100
AcDbEntity
  8
製品
  6
Continuous
 62
     2
100
AcDbLine
 10
208.742640855427
 20
143.2697964802394
 30
0.0
 11
208.6426408554268
 21
143.2697964802394
 31
0.0
  0
ARC
  5
7353
330
1E
100
AcDbEntity
  8
製品
  6
Continuous
 62
     2
100
AcDbCircle
 10
208.6426408554268
 20
143.169796480239
 30
0.0
 40
0.1
100
AcDbArc
 50
90.0
 51
180.0
  0
LINE
  5
7354
330
1E
100
AcDbEntity
  8
製品
  6
Continuous
 62
     2
100
AcDbLine
 10
208.5426408554269
 20
143.169796480239
 30
0.0
 11
208.5426408554269
 21
143.0197964802394
 31
0.0
  0
LINE
  5
7355
330
1E
100
AcDbEntity
  8
製品
  6
Continuous
 62
     2
100
AcDbLine
 10
208.5426408554269
 20
143.0197964802394
 30
0.0
 11
208.492640855427
 21
143.0197964802394
 31
0.0
  0
LINE
  5
7356
330
1E
100
AcDbEntity
  8
製品
  6
Continuous
 62
     2
100
AcDbLine
 10
208.492640855427
 20
143.0197964802394
 30
0.0
 11
208.492640855427
 21
143.169796480239
 31
0.0
  0
ARC
  5
7357
330
1E
100
AcDbEntity
  8
製品
  6
Continuous
 62
     2
100
AcDbCircle
 10
208.6426408554268
 20
143.169796480239
 30
0.0
 40
0.15
100
AcDbArc
 50
90.0
 51
180.0
  0
ARC
  5
7358
330
1E
100
AcDbEntity
  8
製品
  6
Continuous
 62
     2
100
AcDbCircle
 10
208.742640855427
 20
143.169796480239
 30
0.0
 40
0.15
100
AcDbArc
 50
0.0
 51
90.0
  0
ARC
  5
7359
330
1E
100
AcDbEntity
  8
製品
  6
Continuous
 62
     2
100
AcDbCircle
 10
208.5926408554269
 20
141.7197964802392
 30
0.0
 40
0.3
100
AcDbArc
 50
270.0
 51
0.0
  0
ARC
  5
735A
330
1E
100
AcDbEntity
  8
製品
  6
Continuous
 62
     2
100
AcDbCircle
 10
208.5926408554269
 20
141.7197964802392
 30
0.0
 40
0.25
100
AcDbArc
 50
270.0
 51
0.0
  0
LINE
  5
735B
330
1E
100
AcDbEntity
  8
製品
  6
Continuous
 62
     2
100
AcDbLine
 10
208.8926408554268
 20
141.7197964802392
 30
0.0
 11
208.8926408554268
 21
143.169796480239
 31
0.0
  0
LINE
  5
735C
330
1E
100
AcDbEntity
  8
製品
  6
Continuous
 62
     2
100
AcDbLine
 10
208.8426408554269
 20
141.7197964802392
 30
0.0
 11
208.8426408554269
 21
143.169796480239
 31
0.0
  0
LINE
  5
735D
330
1E
100
AcDbEntity
  8
製品
  6
Continuous
 62
     2
100
AcDbLine
 10
208.492640855427
 20
141.4697964802392
 30
0.0
 11
208.3926408554269
 21
141.5197964802394
 31
0.0
  0
LINE
  5
735E
330
1E
100
AcDbEntity
  8
製品
  6
Continuous
 62
     2
100
AcDbLine
 10
208.5926408554269
 20
141.419796480239
 30
0.0
 11
208.492640855427
 21
141.419796480239
 31
0.0
  0
LINE
  5
735F
330
1E
100
AcDbEntity
  8
製品
  6
Continuous
 62
     2
100
AcDbLine
 10
208.5926408554269
 20
141.4697964802392
 30
0.0
 11
208.492640855427
 21
141.4697964802392
 31
0.0
  0
LINE
  5
7360
330
1E
100
AcDbEntity
  8
製品
  6
Continuous
 62
     2
100
AcDbLine
 10
208.5620598554269
 20
143.009261480239
 30
0.0
 11
208.6351868554268
 21
143.2697964802394
 31
0.0
  0
LINE
  5
7361
330
1E
100
AcDbEntity
  8
製品
  6
Continuous
 62
     2
100
AcDbLine
 10
208.7676408554269
 20
142.6497964802395
 30
0.0
 11
208.7676408554269
 21
143.2666214802395
 31
0.0
  0
LINE
  5
7362
330
1E
100
AcDbEntity
  8
製品
  6
Continuous
 62
     2
100
AcDbLine
 10
200.9326408554268
 20
140.5197964802394
 30
0.0
 11
200.8326408554269
 21
140.5197964802394
 31
0.0
  0
LINE
  5
7363
330
1E
100
AcDbEntity
  8
製品
  6
Continuous
 62
     2
100
AcDbLine
 10
200.8326408554269
 20
140.5197964802394
 30
0.0
 11
200.8326408554269
 21
140.2197964802392
 31
0.0
  0
LINE
  5
7364
330
1E
100
AcDbEntity
  8
製品
  6
Continuous
 62
     2
100
AcDbLine
 10
200.802640855427
 20
142.5871404802394
 30
0.0
 11
200.802640855427
 21
141.1260704802391
 31
0.0
  0
LINE
  5
7365
330
1E
100
AcDbEntity
  8
製品
  6
Continuous
 62
     2
100
AcDbLine
 10
200.802640855427
 20
141.1260704802391
 30
0.0
 11
201.0926408554269
 21
140.8360704802392
 31
0.0
  0
LINE
  5
7366
330
1E
100
AcDbEntity
  8
製品
  6
Continuous
 62
     2
100
AcDbLine
 10
200.6426408554268
 20
141.0597964802393
 30
0.0
 11
200.9326408554268
 21
140.7697964802394
 31
0.0
  0
LINE
  5
7367
330
1E
100
AcDbEntity
  8
製品
  6
Continuous
 62
     2
100
AcDbLine
 10
199.2986778554268
 20
143.4656984802388
 30
0.0
 11
199.1926408554268
 21
142.791857480239
 31
0.0
  0
LINE
  5
7368
330
1E
100
AcDbEntity
  8
製品
  6
Continuous
 62
     2
100
AcDbLine
 10
199.243188855427
 20
142.7270994802395
 30
0.0
 11
199.3567248554268
 21
143.4485954802396
 31
0.0
  0
LINE
  5
7369
330
1E
100
AcDbEntity
  8
製品
  6
Continuous
 62
     2
100
AcDbLine
 10
199.3567248554268
 20
143.4485954802396
 30
0.0
 11
199.2986778554268
 21
143.4656984802388
 31
0.0
  0
LINE
  5
736A
330
1E
100
AcDbEntity
  8
製品
  6
Continuous
 62
     2
100
AcDbLine
 10
199.1326408554268
 20
140.9797964802394
 30
0.0
 11
199.1926408554268
 21
140.9797964802394
 31
0.0
  0
LINE
  5
736B
330
1E
100
AcDbEntity
  8
製品
  6
Continuous
 62
     2
100
AcDbLine
 10
199.1926408554268
 20
140.9797964802394
 30
0.0
 11
199.1926408554268
 21
141.4797964802394
 31
0.0
  0
LINE
  5
736C
330
1E
100
AcDbEntity
  8
製品
  6
Continuous
 62
     2
100
AcDbLine
 10
200.9326408554268
 20
143.2197964802392
 30
0.0
 11
200.9326408554268
 21
142.9697964802392
 31
0.0
  0
LINE
  5
736D
330
1E
100
AcDbEntity
  8
製品
  6
Continuous
 62
     2
100
AcDbLine
 10
200.9326408554268
 20
142.9697964802392
 30
0.0
 11
200.802640855427
 21
142.8397964802391
 31
0.0
  0
LINE
  5
736E
330
1E
100
AcDbEntity
  8
製品
  6
Continuous
 62
     2
100
AcDbLine
 10
200.9326408554268
 20
140.7697964802394
 30
0.0
 11
200.9326408554268
 21
140.5197964802394
 31
0.0
  0
LINE
  5
736F
330
1E
100
AcDbEntity
  8
製品
  6
Continuous
 62
     2
100
AcDbLine
 10
200.1926408554268
 20
140.2197964802392
 30
0.0
 11
199.492640855427
 21
140.2197964802392
 31
0.0
  0
LINE
  5
7370
330
1E
100
AcDbEntity
  8
製品
  6
Continuous
 62
     2
100
AcDbLine
 10
201.8926408554269
 20
140.0697964802396
 30
0.0
 11
201.8926408554269
 21
140.2197964802392
 31
0.0
  0
LINE
  5
7371
330
1E
100
AcDbEntity
  8
製品
  6
Continuous
 62
     2
100
AcDbLine
 10
201.8926408554269
 20
140.2197964802392
 30
0.0
 11
201.1926408554268
 21
140.2197964802392
 31
0.0
  0
LINE
  5
7372
330
1E
100
AcDbEntity
  8
製品
  6
Continuous
 62
     2
100
AcDbLine
 10
201.1926408554268
 20
140.2197964802392
 30
0.0
 11
201.1926408554268
 21
143.669796480239
 31
0.0
  0
LINE
  5
7373
330
1E
100
AcDbEntity
  8
製品
  6
Continuous
 62
     2
100
AcDbLine
 10
201.1926408554268
 20
143.669796480239
 30
0.0
 11
201.0926408554269
 21
143.669796480239
 31
0.0
  0
LINE
  5
7374
330
1E
100
AcDbEntity
  8
製品
  6
Continuous
 62
     2
100
AcDbLine
 10
201.0926408554269
 20
143.669796480239
 30
0.0
 11
201.0926408554269
 21
143.5697964802395
 31
0.0
  0
LINE
  5
7375
330
1E
100
AcDbEntity
  8
製品
  6
Continuous
 62
     2
100
AcDbLine
 10
201.0926408554269
 20
143.5697964802395
 30
0.0
 11
200.8326408554269
 21
143.5697964802395
 31
0.0
  0
LINE
  5
7376
330
1E
100
AcDbEntity
  8
製品
  6
Continuous
 62
     2
100
AcDbLine
 10
200.1926408554268
 20
140.0697964802396
 30
0.0
 11
200.1926408554268
 21
140.2197964802392
 31
0.0
  0
LINE
  5
7377
330
1E
100
AcDbEntity
  8
製品
  6
Continuous
 62
     2
100
AcDbLine
 10
199.3926408554268
 20
143.669796480239
 30
0.0
 11
199.3926408554268
 21
143.5697964802395
 31
0.0
  0
LINE
  5
7378
330
1E
100
AcDbEntity
  8
製品
  6
Continuous
 62
     2
100
AcDbLine
 10
199.3926408554268
 20
143.5697964802395
 30
0.0
 11
199.1326408554268
 21
143.5697964802395
 31
0.0
  0
LINE
  5
7379
330
1E
100
AcDbEntity
  8
製品
  6
Continuous
 62
     2
100
AcDbLine
 10
200.8326408554269
 20
143.5697964802395
 30
0.0
 11
200.8326408554269
 21
143.2197964802392
 31
0.0
  0
LINE
  5
737A
330
1E
100
AcDbEntity
  8
製品
  6
Continuous
 62
     2
100
AcDbLine
 10
200.8326408554269
 20
143.2197964802392
 30
0.0
 11
200.9326408554268
 21
143.2197964802392
 31
0.0
  0
LINE
  5
737B
330
1E
100
AcDbEntity
  8
製品
  6
Continuous
 62
     2
100
AcDbLine
 10
200.9326408554268
 20
143.2197964802392
 30
0.0
 11
200.9326408554268
 21
143.4697964802392
 31
0.0
  0
LINE
  5
737C
330
1E
100
AcDbEntity
  8
製品
  6
Continuous
 62
     2
100
AcDbLine
 10
200.9326408554268
 20
143.4697964802392
 30
0.0
 11
201.0926408554269
 21
143.4697964802392
 31
0.0
  0
LINE
  5
737D
330
1E
100
AcDbEntity
  8
製品
  6
Continuous
 62
     2
100
AcDbLine
 10
201.0926408554269
 20
143.4697964802392
 30
0.0
 11
201.0926408554269
 21
140.2697964802394
 31
0.0
  0
LINE
  5
737E
330
1E
100
AcDbEntity
  8
製品
  6
Continuous
 62
     2
100
AcDbLine
 10
201.0926408554269
 20
140.2697964802394
 30
0.0
 11
200.9326408554268
 21
140.2697964802394
 31
0.0
  0
LINE
  5
737F
330
1E
100
AcDbEntity
  8
製品
  6
Continuous
 62
     2
100
AcDbLine
 10
200.9326408554268
 20
140.2697964802394
 30
0.0
 11
200.9326408554268
 21
140.5197964802394
 31
0.0
  0
LINE
  5
7380
330
1E
100
AcDbEntity
  8
製品
  6
Continuous
 62
     2
100
AcDbLine
 10
200.8326408554269
 20
140.2197964802392
 30
0.0
 11
200.2926408554269
 21
140.2197964802392
 31
0.0
  0
LINE
  5
7381
330
1E
100
AcDbEntity
  8
製品
  6
Continuous
 62
     2
100
AcDbLine
 10
200.2926408554269
 20
140.2197964802392
 30
0.0
 11
200.2926408554269
 21
140.0697964802396
 31
0.0
  0
LINE
  5
7382
330
1E
100
AcDbEntity
  8
製品
  6
Continuous
 62
     2
100
AcDbLine
 10
200.2926408554269
 20
140.0697964802396
 30
0.0
 11
200.3926408554268
 21
140.0697964802396
 31
0.0
  0
LINE
  5
7383
330
1E
100
AcDbEntity
  8
製品
  6
Continuous
 62
     2
100
AcDbLine
 10
200.3926408554268
 20
140.0697964802396
 30
0.0
 11
200.3926408554268
 21
140.1197964802388
 31
0.0
  0
LINE
  5
7384
330
1E
100
AcDbEntity
  8
製品
  6
Continuous
 62
     2
100
AcDbLine
 10
200.3926408554268
 20
140.1197964802388
 30
0.0
 11
201.792640855427
 21
140.1197964802388
 31
0.0
  0
LINE
  5
7385
330
1E
100
AcDbEntity
  8
製品
  6
Continuous
 62
     2
100
AcDbLine
 10
201.792640855427
 20
140.1197964802388
 30
0.0
 11
201.792640855427
 21
140.0697964802396
 31
0.0
  0
LINE
  5
7386
330
1E
100
AcDbEntity
  8
製品
  6
Continuous
 62
     2
100
AcDbLine
 10
201.792640855427
 20
140.0697964802396
 30
0.0
 11
201.8926408554269
 21
140.0697964802396
 31
0.0
  0
LINE
  5
7387
330
1E
100
AcDbEntity
  8
製品
  6
Continuous
 62
     2
100
AcDbLine
 10
199.1326408554268
 20
143.5697964802395
 30
0.0
 11
199.1326408554268
 21
143.2197964802392
 31
0.0
  0
LINE
  5
7388
330
1E
100
AcDbEntity
  8
製品
  6
Continuous
 62
     2
100
AcDbLine
 10
199.1326408554268
 20
143.2197964802392
 30
0.0
 11
199.2326408554268
 21
143.2197964802392
 31
0.0
  0
LINE
  5
7389
330
1E
100
AcDbEntity
  8
製品
  6
Continuous
 62
     2
100
AcDbLine
 10
199.2326408554268
 20
143.2197964802392
 30
0.0
 11
199.2326408554268
 21
143.4697964802392
 31
0.0
  0
LINE
  5
738A
330
1E
100
AcDbEntity
  8
製品
  6
Continuous
 62
     2
100
AcDbLine
 10
199.2326408554268
 20
143.4697964802392
 30
0.0
 11
199.3926408554268
 21
143.4697964802392
 31
0.0
  0
LINE
  5
738B
330
1E
100
AcDbEntity
  8
製品
  6
Continuous
 62
     2
100
AcDbLine
 10
199.3926408554268
 20
143.4697964802392
 30
0.0
 11
199.3926408554268
 21
140.2697964802394
 31
0.0
  0
LINE
  5
738C
330
1E
100
AcDbEntity
  8
製品
  6
Continuous
 62
     2
100
AcDbLine
 10
199.3926408554268
 20
140.2697964802394
 30
0.0
 11
199.2326408554268
 21
140.2697964802394
 31
0.0
  0
LINE
  5
738D
330
1E
100
AcDbEntity
  8
製品
  6
Continuous
 62
     2
100
AcDbLine
 10
199.2326408554268
 20
140.2697964802394
 30
0.0
 11
199.2326408554268
 21
140.5197964802394
 31
0.0
  0
LINE
  5
738E
330
1E
100
AcDbEntity
  8
製品
  6
Continuous
 62
     2
100
AcDbLine
 10
199.2326408554268
 20
140.5197964802394
 30
0.0
 11
199.1326408554268
 21
140.5197964802394
 31
0.0
  0
LINE
  5
738F
330
1E
100
AcDbEntity
  8
製品
  6
Continuous
 62
     2
100
AcDbLine
 10
199.1326408554268
 20
140.5197964802394
 30
0.0
 11
199.1326408554268
 21
140.2197964802392
 31
0.0
  0
LINE
  5
7390
330
1E
100
AcDbEntity
  8
製品
  6
Continuous
 62
     2
100
AcDbLine
 10
198.5926408554269
 20
140.2197964802392
 30
0.0
 11
198.5926408554269
 21
140.0697964802396
 31
0.0
  0
LINE
  5
7391
330
1E
100
AcDbEntity
  8
製品
  6
Continuous
 62
     2
100
AcDbLine
 10
198.5926408554269
 20
140.0697964802396
 30
0.0
 11
198.6926408554268
 21
140.0697964802396
 31
0.0
  0
LINE
  5
7392
330
1E
100
AcDbEntity
  8
製品
  6
Continuous
 62
     2
100
AcDbLine
 10
198.6926408554268
 20
140.0697964802396
 30
0.0
 11
198.6926408554268
 21
140.1197964802388
 31
0.0
  0
LINE
  5
7393
330
1E
100
AcDbEntity
  8
製品
  6
Continuous
 62
     2
100
AcDbLine
 10
198.6926408554268
 20
140.1197964802388
 30
0.0
 11
200.0926408554269
 21
140.1197964802388
 31
0.0
  0
LINE
  5
7394
330
1E
100
AcDbEntity
  8
製品
  6
Continuous
 62
     2
100
AcDbLine
 10
200.0926408554269
 20
140.1197964802388
 30
0.0
 11
200.0926408554269
 21
140.0697964802396
 31
0.0
  0
LINE
  5
7395
330
1E
100
AcDbEntity
  8
製品
  6
Continuous
 62
     2
100
AcDbLine
 10
200.0926408554269
 20
140.0697964802396
 30
0.0
 11
200.1926408554268
 21
140.0697964802396
 31
0.0
  0
LINE
  5
7396
330
1E
100
AcDbEntity
  8
製品
  6
Continuous
 62
     2
100
AcDbLine
 10
201.0926408554269
 20
142.9035224802394
 30
0.0
 11
200.802640855427
 21
142.6135224802394
 31
0.0
  0
LINE
  5
7397
330
1E
100
AcDbEntity
  8
製品
  6
Continuous
 62
     4
100
AcDbLine
 10
199.1326408554268
 20
141.419796480239
 30
0.0
 11
199.1326408554268
 21
140.2197964802392
 31
0.0
  0
LINE
  5
7398
330
1E
100
AcDbEntity
  8
製品
  6
Continuous
 62
     2
100
AcDbLine
 10
199.492640855427
 20
143.669796480239
 30
0.0
 11
199.492640855427
 21
140.2197964802392
 31
0.0
  0
LINE
  5
7399
330
1E
100
AcDbEntity
  8
製品
  6
Continuous
 62
     4
100
AcDbLine
 10
201.1926408554268
 20
143.3197964802396
 30
0.0
 11
207.0176408554269
 21
143.3197964802396
 31
0.0
  0
LINE
  5
739C
330
1E
100
AcDbEntity
  8
製品
  6
Continuous
 62
     4
100
AcDbLine
 10
208.2676408554269
 20
143.3197964802396
 30
0.0
 11
214.4676408554269
 21
143.3197964802396
 31
0.0
  0
LINE
  5
739D
330
1E
100
AcDbEntity
  8
製品
  6
Continuous
 62
     2
100
AcDbLine
 10
207.0176408554269
 20
143.0497964802391
 30
0.0
 11
207.0176408554269
 21
144.2813224802396
 31
0.0
  0
LINE
  5
739E
330
1E
100
AcDbEntity
  8
製品
  6
Continuous
 62
     2
100
AcDbLine
 10
208.2676408554269
 20
143.0497964802391
 30
0.0
 11
208.2676408554269
 21
144.2813224802396
 31
0.0
  0
LINE
  5
739F
330
1E
100
AcDbEntity
  8
製品
  6
Continuous
 62
     4
100
AcDbLine
 10
216.7676408554269
 20
143.1197964802388
 30
0.0
 11
216.7676408554269
 21
152.919796480239
 31
0.0
  0
LINE
  5
73A0
330
1E
100
AcDbEntity
  8
製品
  6
Continuous
 62
     4
100
AcDbLine
 10
214.4676408554269
 20
152.919796480239
 30
0.0
 11
214.4676408554269
 21
143.1197964802388
 31
0.0
  0
LINE
  5
73A1
330
1E
100
AcDbEntity
  8
製品
  6
Continuous
 62
     2
100
AcDbLine
 10
199.1926408554268
 20
142.791857480239
 30
0.0
 11
196.4547548554269
 21
143.0365804802388
 31
0.0
  0
LINE
  5
73A2
330
1E
100
AcDbEntity
  8
製品
  6
Continuous
 62
     2
100
AcDbLine
 10
199.243188855427
 20
142.7270994802395
 30
0.0
 11
196.449412855427
 21
142.976818480239
 31
0.0
  0
LINE
  5
73A3
330
1E
100
AcDbEntity
  8
製品
  6
Continuous
 62
     2
100
AcDbLine
 10
199.1926408554268
 20
141.4797964802394
 30
0.0
 11
196.3826408554268
 21
141.4797964802394
 31
0.0
  0
LINE
  5
73A4
330
1E
100
AcDbEntity
  8
製品
  6
Continuous
 62
     4
100
AcDbLine
 10
215.1426408554268
 20
152.919796480239
 30
0.0
 11
215.1426408554268
 21
167.1197964802388
 31
0.0
  0
LINE
  5
73A5
330
1E
100
AcDbEntity
  8
製品
  6
Continuous
 62
     4
100
AcDbLine
 10
216.0926408554269
 20
167.1197964802388
 30
0.0
 11
216.0926408554269
 21
152.919796480239
 31
0.0
  0
LINE
  5
73A6
330
1E
100
AcDbEntity
  8
製品
  6
PLINE3
 62
     2
100
AcDbLine
 10
215.617640855427
 20
152.919796480239
 30
0.0
 11
215.617640855427
 21
167.1197964802388
 31
0.0
  0
LINE
  5
73A7
330
1E
100
AcDbEntity
  8
製品
  6
Continuous
 62
     2
100
AcDbLine
 10
195.0373018554269
 20
273.2175294802394
 30
0.0
 11
197.5373018554269
 21
270.7175294802393
 31
0.0
  0
LINE
  5
73A8
330
1E
100
AcDbEntity
  8
製品
  6
Continuous
 62
     2
100
AcDbLine
 10
193.6230888554269
 20
273.2175294802394
 30
0.0
 11
196.1230888554269
 21
270.7175294802393
 31
0.0
  0
LINE
  5
73AA
330
1E
100
AcDbEntity
  8
製品
  6
Continuous
 62
     2
100
AcDbLine
 10
189.4806408554268
 20
280.8795294802396
 30
0.0
 11
189.4806408554268
 21
284.3795294802396
 31
0.0
  0
LINE
  5
73AB
330
1E
100
AcDbEntity
  8
製品
  6
Continuous
 62
     2
100
AcDbLine
 10
189.4806408554268
 20
284.3795294802396
 30
0.0
 11
187.9806408554268
 21
284.3795294802396
 31
0.0
  0
LINE
  5
73AC
330
1E
100
AcDbEntity
  8
製品
  6
Continuous
 62
     2
100
AcDbLine
 10
187.9806408554268
 20
284.3795294802396
 30
0.0
 11
187.9806408554268
 21
280.8795294802396
 31
0.0
  0
LINE
  5
73AD
330
1E
100
AcDbEntity
  8
製品
  6
Continuous
 62
     2
100
AcDbLine
 10
190.7946608554268
 20
273.2175294802394
 30
0.0
 11
193.2946608554268
 21
270.7175294802393
 31
0.0
  0
LINE
  5
73AE
330
1E
100
AcDbEntity
  8
製品
  6
Continuous
 62
     2
100
AcDbLine
 10
192.208874855427
 20
273.2175294802394
 30
0.0
 11
194.708874855427
 21
270.7175294802393
 31
0.0
  0
CIRCLE
  5
73AF
330
1E
100
AcDbEntity
  8
製品
  6
Continuous
 62
     2
100
AcDbCircle
 10
185.3926408554268
 20
278.2175294802394
 30
0.0
 40
0.3
  0
LINE
  5
73B0
330
1E
100
AcDbEntity
  8
製品
  6
Continuous
 62
     2
100
AcDbLine
 10
187.9662338554269
 20
273.2175294802394
 30
0.0
 11
190.4662338554269
 21
270.7175294802393
 31
0.0
  0
LINE
  5
73B1
330
1E
100
AcDbEntity
  8
製品
  6
Continuous
 62
     2
100
AcDbLine
 10
183.7235938554267
 20
273.2175294802394
 30
0.0
 11
186.2235938554267
 21
270.7175294802393
 31
0.0
  0
LINE
  5
73B2
330
1E
100
AcDbEntity
  8
製品
  6
Continuous
 62
     2
100
AcDbLine
 10
186.5520208554269
 20
273.2175294802394
 30
0.0
 11
189.0520208554269
 21
270.7175294802393
 31
0.0
  0
LINE
  5
73B3
330
1E
100
AcDbEntity
  8
製品
  6
Continuous
 62
     2
100
AcDbLine
 10
185.137806855427
 20
273.2175294802394
 30
0.0
 11
187.637806855427
 21
270.7175294802393
 31
0.0
  0
LINE
  5
73B4
330
1E
100
AcDbEntity
  8
製品
  6
Continuous
 62
     2
100
AcDbLine
 10
189.3804478554268
 20
273.2175294802394
 30
0.0
 11
191.8804478554268
 21
270.7175294802393
 31
0.0
  0
LINE
  5
73B5
330
1E
100
AcDbEntity
  8
製品
  6
Continuous
 62
     2
100
AcDbLine
 10
179.4809528554269
 20
273.2175294802394
 30
0.0
 11
181.9809528554269
 21
270.7175294802393
 31
0.0
  0
LINE
  5
73B6
330
1E
100
AcDbEntity
  8
製品
  6
Continuous
 62
     2
100
AcDbLine
 10
176.6525258554268
 20
273.2175294802394
 30
0.0
 11
179.1525258554268
 21
270.7175294802393
 31
0.0
  0
LINE
  5
73B7
330
1E
100
AcDbEntity
  8
製品
  6
Continuous
 62
     2
100
AcDbLine
 10
178.0667388554268
 20
273.2175294802394
 30
0.0
 11
180.5667388554268
 21
270.7175294802393
 31
0.0
  0
LINE
  5
73B8
330
1E
100
AcDbEntity
  8
製品
  6
Continuous
 62
     2
100
AcDbLine
 10
175.2383118554269
 20
273.2175294802394
 30
0.0
 11
177.7383118554269
 21
270.7175294802393
 31
0.0
  0
LINE
  5
73B9
330
1E
100
AcDbEntity
  8
製品
  6
Continuous
 62
     2
100
AcDbLine
 10
182.3093798554269
 20
273.2175294802394
 30
0.0
 11
184.8093798554268
 21
270.7175294802393
 31
0.0
  0
LINE
  5
73BA
330
1E
100
AcDbEntity
  8
製品
  6
Continuous
 62
     2
100
AcDbLine
 10
180.895165855427
 20
273.2175294802394
 30
0.0
 11
183.3951658554269
 21
270.7175294802393
 31
0.0
  0
LINE
  5
73BB
330
1E
100
AcDbEntity
  8
製品
  6
Continuous
 62
     2
100
AcDbLine
 10
210.7926408554269
 20
297.2049534802393
 30
0.0
 11
211.992640855427
 21
298.4049534802391
 31
0.0
  0
LINE
  5
73BC
330
1E
100
AcDbEntity
  8
製品
  6
Continuous
 62
     2
100
AcDbLine
 10
210.7926408554269
 20
298.6898774802396
 30
0.0
 11
211.992640855427
 21
299.8898774802394
 31
0.0
  0
LINE
  5
73BD
330
1E
100
AcDbEntity
  8
製品
  6
Continuous
 62
     2
100
AcDbLine
 10
210.7926408554269
 20
300.1748024802393
 30
0.0
 11
211.992640855427
 21
301.3748024802392
 31
0.0
  0
LINE
  5
73BE
330
1E
100
AcDbEntity
  8
製品
  6
Continuous
 62
     2
100
AcDbLine
 10
210.7926408554269
 20
292.7501804802389
 30
0.0
 11
211.992640855427
 21
293.9501804802396
 31
0.0
  0
LINE
  5
73BF
330
1E
100
AcDbEntity
  8
製品
  6
Continuous
 62
     2
100
AcDbLine
 10
210.7926408554269
 20
294.2351054802395
 30
0.0
 11
211.992640855427
 21
295.4351054802394
 31
0.0
  0
LINE
  5
73C0
330
1E
100
AcDbEntity
  8
製品
  6
Continuous
 62
     2
100
AcDbLine
 10
210.7926408554269
 20
295.720029480239
 30
0.0
 11
211.992640855427
 21
296.9200294802397
 31
0.0
  0
LINE
  5
73C1
330
1E
100
AcDbEntity
  8
製品
  6
Continuous
 62
     2
100
AcDbLine
 10
214.8362918554269
 20
273.2175294802394
 30
0.0
 11
217.3362918554269
 21
270.7175294802393
 31
0.0
  0
LINE
  5
73C2
330
1E
100
AcDbEntity
  8
製品
  6
Continuous
 62
     2
100
AcDbLine
 10
210.7926408554269
 20
288.2954084802398
 30
0.0
 11
211.992640855427
 21
289.4954084802396
 31
0.0
  0
LINE
  5
73C3
330
1E
100
AcDbEntity
  8
製品
  6
Continuous
 62
     2
100
AcDbLine
 10
210.7926408554269
 20
289.7803324802392
 30
0.0
 11
211.992640855427
 21
290.980332480239
 31
0.0
  0
LINE
  5
73C4
330
1E
100
AcDbEntity
  8
製品
  6
Continuous
 62
     2
100
AcDbLine
 10
210.7926408554269
 20
283.8406354802394
 30
0.0
 11
211.992640855427
 21
285.0406354802392
 31
0.0
  0
LINE
  5
73C5
330
1E
100
AcDbEntity
  8
製品
  6
Continuous
 62
     2
100
AcDbLine
 10
210.7926408554269
 20
282.355711480239
 30
0.0
 11
211.992640855427
 21
283.5557114802389
 31
0.0
  0
LINE
  5
73C6
330
1E
100
AcDbEntity
  8
製品
  6
PLINE3
 62
     2
100
AcDbLine
 10
202.6706408554269
 20
289.4260954802396
 30
0.0
 11
202.6706408554269
 21
286.9724194802395
 31
0.0
  0
LINE
  5
73C7
330
1E
100
AcDbEntity
  8
製品
  6
Continuous
 62
     2
100
AcDbLine
 10
203.6706408554269
 20
287.2175294802394
 30
0.0
 11
203.6706408554269
 21
289.2175294802393
 31
0.0
  0
CIRCLE
  5
73C8
330
1E
100
AcDbEntity
  8
製品
  6
Continuous
 62
     2
100
AcDbCircle
 10
202.6706408554269
 20
288.2175294802394
 30
0.0
 40
0.25
  0
LINE
  5
73C9
330
1E
100
AcDbEntity
  8
製品
  6
Continuous
 62
     2
100
AcDbLine
 10
200.1706408554269
 20
289.2175294802393
 30
0.0
 11
200.1706408554269
 21
287.2175294802394
 31
0.0
  0
LINE
  5
73CA
330
1E
100
AcDbEntity
  8
製品
  6
Continuous
 62
     2
100
AcDbLine
 10
203.6706408554269
 20
289.2175294802393
 30
0.0
 11
200.1706408554269
 21
289.2175294802393
 31
0.0
  0
LINE
  5
73CB
330
1E
100
AcDbEntity
  8
製品
  6
Continuous
 62
     2
100
AcDbLine
 10
200.1706408554269
 20
287.2175294802394
 30
0.0
 11
203.6706408554269
 21
287.2175294802394
 31
0.0
  0
LINE
  5
73CC
330
1E
100
AcDbEntity
  8
製品
  6
PLINE3
 62
     2
100
AcDbLine
 10
204.0487558554269
 20
288.2175294802394
 30
0.0
 11
199.625067855427
 21
288.2175294802394
 31
0.0
  0
LINE
  5
73CD
330
1E
100
AcDbEntity
  8
製品
  6
Continuous
 62
     4
100
AcDbLine
 10
204.7926408554269
 20
287.7675294802395
 30
0.0
 11
204.7926408554269
 21
285.2675294802395
 31
0.0
  0
LINE
  5
73CE
330
1E
100
AcDbEntity
  8
製品
  6
Continuous
 62
     2
100
AcDbLine
 10
210.7926408554269
 20
276.4160144802393
 30
0.0
 11
211.992640855427
 21
277.6160144802391
 31
0.0
  0
LINE
  5
73CF
330
1E
100
AcDbEntity
  8
製品
  6
Continuous
 62
     2
100
AcDbLine
 10
210.7926408554269
 20
277.9009384802396
 30
0.0
 11
211.992640855427
 21
279.1009384802394
 31
0.0
  0
LINE
  5
73D0
330
1E
100
AcDbEntity
  8
製品
  6
Continuous
 62
     2
100
AcDbLine
 10
210.7926408554269
 20
279.385862480239
 30
0.0
 11
211.992640855427
 21
280.5858624802397
 31
0.0
  0
LINE
  5
73D1
330
1E
100
AcDbEntity
  8
製品
  6
Continuous
 62
     2
100
AcDbLine
 10
210.5936508554269
 20
273.2175294802394
 30
0.0
 11
213.0936508554269
 21
270.7175294802393
 31
0.0
  0
LINE
  5
73D2
330
1E
100
AcDbEntity
  8
製品
  6
Continuous
 62
     2
100
AcDbLine
 10
210.7926408554269
 20
273.4461654802392
 30
0.0
 11
211.992640855427
 21
274.646165480239
 31
0.0
  0
LINE
  5
73D3
330
1E
100
AcDbEntity
  8
製品
  6
Continuous
 62
     2
100
AcDbLine
 10
206.3510108554269
 20
273.2175294802394
 30
0.0
 11
208.8510108554269
 21
270.7175294802393
 31
0.0
  0
LINE
  5
73D4
330
1E
100
AcDbEntity
  8
製品
  6
Continuous
 62
     2
100
AcDbLine
 10
209.1794378554268
 20
273.2175294802394
 30
0.0
 11
211.6794378554268
 21
270.7175294802393
 31
0.0
  0
LINE
  5
73D5
330
1E
100
AcDbEntity
  8
製品
  6
Continuous
 62
     2
100
AcDbLine
 10
207.7652238554269
 20
273.2175294802394
 30
0.0
 11
210.265223855427
 21
270.7175294802393
 31
0.0
  0
LINE
  5
73D6
330
1E
100
AcDbEntity
  8
製品
  6
Continuous
 62
     2
100
AcDbLine
 10
210.7926408554269
 20
274.9310894802395
 30
0.0
 11
211.992640855427
 21
276.1310894802393
 31
0.0
  0
LINE
  5
73D7
330
1E
100
AcDbEntity
  8
製品
  6
Continuous
 62
     2
100
AcDbLine
 10
202.1083698554269
 20
273.2175294802394
 30
0.0
 11
204.6083698554269
 21
270.7175294802393
 31
0.0
  0
LINE
  5
73D8
330
1E
100
AcDbEntity
  8
製品
  6
Continuous
 62
     2
100
AcDbLine
 10
199.2799428554269
 20
273.2175294802394
 30
0.0
 11
201.7799428554269
 21
270.7175294802393
 31
0.0
  0
LINE
  5
73D9
330
1E
100
AcDbEntity
  8
製品
  6
Continuous
 62
     2
100
AcDbLine
 10
200.694155855427
 20
273.2175294802394
 30
0.0
 11
203.194155855427
 21
270.7175294802393
 31
0.0
  0
LINE
  5
73DA
330
1E
100
AcDbEntity
  8
製品
  6
Continuous
 62
     2
100
AcDbLine
 10
204.936796855427
 20
273.2175294802394
 30
0.0
 11
207.436796855427
 21
270.7175294802393
 31
0.0
  0
LINE
  5
73DB
330
1E
100
AcDbEntity
  8
製品
  6
Continuous
 62
     2
100
AcDbLine
 10
203.5225828554269
 20
273.2175294802394
 30
0.0
 11
206.0225828554269
 21
270.7175294802393
 31
0.0
  0
LINE
  5
73DC
330
1E
100
AcDbEntity
  8
製品
  6
Continuous
 62
     4
100
AcDbLine
 10
211.992640855427
 20
285.2675294802395
 30
0.0
 11
211.992640855427
 21
273.2175294802394
 31
0.0
  0
LINE
  5
73DD
330
1E
100
AcDbEntity
  8
製品
  6
Continuous
 62
     2
100
AcDbLine
 10
200.330640855427
 20
279.2795294802393
 30
0.0
 11
200.330640855427
 21
287.2175294802394
 31
0.0
  0
LINE
  5
73DE
330
1E
100
AcDbEntity
  8
製品
  6
Continuous
 62
     4
100
AcDbLine
 10
205.792640855427
 20
273.2175294802394
 30
0.0
 11
205.792640855427
 21
285.2675294802395
 31
0.0
  0
LINE
  5
73DF
330
1E
100
AcDbEntity
  8
製品
  6
Continuous
 62
     2
100
AcDbLine
 10
210.7926408554269
 20
280.8707864802393
 30
0.0
 11
211.992640855427
 21
282.0707864802391
 31
0.0
  0
LINE
  5
73E0
330
1E
100
AcDbEntity
  8
製品
  6
Continuous
 62
     4
100
AcDbLine
 10
210.7926408554269
 20
273.4461654802392
 30
0.0
 11
210.7926408554269
 21
285.2675294802395
 31
0.0
  0
LINE
  5
73E1
330
1E
100
AcDbEntity
  8
製品
  6
Continuous
 62
     2
100
AcDbLine
 10
213.422077855427
 20
273.2175294802394
 30
0.0
 11
215.922077855427
 21
270.7175294802393
 31
0.0
  0
LINE
  5
73E2
330
1E
100
AcDbEntity
  8
製品
  6
Continuous
 62
     2
100
AcDbLine
 10
212.0078648554267
 20
273.2175294802394
 30
0.0
 11
214.5078648554267
 21
270.7175294802393
 31
0.0
  0
LINE
  5
73E3
330
1E
100
AcDbEntity
  8
製品
  6
Continuous
 62
     2
100
AcDbLine
 10
210.7926408554269
 20
266.0215444802391
 30
0.0
 11
211.992640855427
 21
267.2215444802389
 31
0.0
  0
LINE
  5
73E4
330
1E
100
AcDbEntity
  8
製品
  6
Continuous
 62
     2
100
AcDbLine
 10
210.7926408554269
 20
267.5064684802394
 30
0.0
 11
211.992640855427
 21
268.7064684802392
 31
0.0
  0
LINE
  5
73E5
330
1E
100
AcDbEntity
  8
製品
  6
Continuous
 62
     2
100
AcDbLine
 10
210.7926408554269
 20
268.9913924802397
 30
0.0
 11
211.992640855427
 21
270.1913924802395
 31
0.0
  0
LINE
  5
73E6
330
1E
100
AcDbEntity
  8
製品
  6
Continuous
 62
     2
100
AcDbLine
 10
210.7926408554269
 20
260.0818474802393
 30
0.0
 11
211.992640855427
 21
261.2818474802391
 31
0.0
  0
LINE
  5
73E7
330
1E
100
AcDbEntity
  8
製品
  6
Continuous
 62
     2
100
AcDbLine
 10
210.7926408554269
 20
261.5667714802396
 30
0.0
 11
211.992640855427
 21
262.7667714802394
 31
0.0
  0
LINE
  5
73E8
330
1E
100
AcDbEntity
  8
製品
  6
Continuous
 62
     2
100
AcDbLine
 10
210.7926408554269
 20
263.0516964802394
 30
0.0
 11
211.992640855427
 21
264.2516964802392
 31
0.0
  0
LINE
  5
73E9
330
1E
100
AcDbEntity
  8
製品
  6
Continuous
 62
     2
100
AcDbLine
 10
210.7926408554269
 20
264.5366204802396
 30
0.0
 11
211.992640855427
 21
265.7366204802395
 31
0.0
  0
LINE
  5
73EA
330
1E
100
AcDbEntity
  8
製品
  6
Continuous
 62
     4
100
AcDbLine
 10
201.8926408554269
 20
262.7175294802394
 30
0.0
 11
205.792640855427
 21
262.7175294802394
 31
0.0
  0
LINE
  5
73EB
330
1E
100
AcDbEntity
  8
製品
  6
Continuous
 62
     2
100
AcDbLine
 10
210.948170855427
 20
257.2675294802396
 30
0.0
 11
211.992640855427
 21
258.3119994802394
 31
0.0
  0
LINE
  5
73EC
330
1E
100
AcDbEntity
  8
製品
  6
Continuous
 62
     2
100
AcDbLine
 10
210.7926408554269
 20
252.6572264802392
 30
0.0
 11
211.992640855427
 21
253.857226480239
 31
0.0
  0
LINE
  5
73ED
330
1E
100
AcDbEntity
  8
製品
  6
Continuous
 62
     2
100
AcDbLine
 10
210.7926408554269
 20
249.6873774802391
 30
0.0
 11
211.992640855427
 21
250.8873774802389
 31
0.0
  0
LINE
  5
73EE
330
1E
100
AcDbEntity
  8
製品
  6
Continuous
 62
     2
100
AcDbLine
 10
210.7926408554269
 20
251.1723024802388
 30
0.0
 11
211.992640855427
 21
252.3723024802396
 31
0.0
  0
LINE
  5
73EF
330
1E
100
AcDbEntity
  8
製品
  6
Continuous
 62
     2
100
AcDbLine
 10
210.7926408554269
 20
258.5969234802389
 30
0.0
 11
211.992640855427
 21
259.7969234802397
 31
0.0
  0
LINE
  5
73F0
330
1E
100
AcDbEntity
  8
製品
  6
Continuous
 62
     4
100
AcDbLine
 10
211.992640855427
 20
270.1913924802395
 30
0.0
 11
211.992640855427
 21
257.2675294802396
 31
0.0
  0
LINE
  5
73F1
330
1E
100
AcDbEntity
  8
製品
  6
Continuous
 62
     4
100
AcDbLine
 10
201.8926408554269
 20
270.7175294802393
 30
0.0
 11
201.8926408554269
 21
262.7175294802394
 31
0.0
  0
LINE
  5
73F2
330
1E
100
AcDbEntity
  8
製品
  6
Continuous
 62
     4
100
AcDbLine
 10
210.7926408554269
 20
257.2675294802396
 30
0.0
 11
210.7926408554269
 21
270.7175294802393
 31
0.0
  0
LINE
  5
73F3
330
1E
100
AcDbEntity
  8
製品
  6
Continuous
 62
     4
100
AcDbLine
 10
205.792640855427
 20
262.7175294802394
 30
0.0
 11
205.792640855427
 21
270.7175294802393
 31
0.0
  0
LINE
  5
73F4
330
1E
100
AcDbEntity
  8
製品
  6
Continuous
 62
     2
100
AcDbLine
 10
197.8657288554268
 20
273.2175294802394
 30
0.0
 11
200.3657288554268
 21
270.7175294802393
 31
0.0
  0
LINE
  5
73F5
330
1E
100
AcDbEntity
  8
製品
  6
Continuous
 62
     2
100
AcDbLine
 10
196.4515158554268
 20
273.2175294802394
 30
0.0
 11
198.9515158554268
 21
270.7175294802393
 31
0.0
  0
LINE
  5
73F7
330
1E
100
AcDbEntity
  8
製品
  6
Continuous
 62
     2
100
AcDbLine
 10
210.7926408554269
 20
291.2652564802395
 30
0.0
 11
211.992640855427
 21
292.4652564802393
 31
0.0
  0
LINE
  5
73F8
330
1E
100
AcDbEntity
  8
製品
  6
Continuous
 62
     4
100
AcDbLine
 10
210.7926408554269
 20
246.7175294802394
 30
0.0
 11
211.992640855427
 21
246.7175294802394
 31
0.0
  0
LINE
  5
73F9
330
1E
100
AcDbEntity
  8
製品
  6
Continuous
 62
     2
100
AcDbLine
 10
210.7926408554269
 20
246.7175294802394
 30
0.0
 11
211.992640855427
 21
247.9175294802392
 31
0.0
  0
LINE
  5
73FA
330
1E
100
AcDbEntity
  8
製品
  6
Continuous
 62
     2
100
AcDbLine
 10
211.992640855427
 20
192.5469964802389
 30
0.0
 11
211.992640855427
 21
192.3869964802391
 31
0.0
  0
LINE
  5
73FB
330
1E
100
AcDbEntity
  8
製品
  6
Continuous
 62
     2
100
AcDbLine
 10
211.992640855427
 20
192.3869964802391
 30
0.0
 11
210.952640855427
 21
192.3869964802391
 31
0.0
  0
LINE
  5
73FC
330
1E
100
AcDbEntity
  8
製品
  6
Continuous
 62
     2
100
AcDbLine
 10
211.992640855427
 20
192.5469964802389
 30
0.0
 11
210.7926408554269
 21
192.5469964802389
 31
0.0
  0
LINE
  5
73FD
330
1E
100
AcDbEntity
  8
製品
  6
Continuous
 62
     2
100
AcDbLine
 10
211.992640855427
 20
188.9069964802395
 30
0.0
 11
211.992640855427
 21
188.7469964802397
 31
0.0
  0
LINE
  5
73FE
330
1E
100
AcDbEntity
  8
製品
  6
Continuous
 62
     2
100
AcDbLine
 10
210.952640855427
 20
188.9069964802395
 30
0.0
 11
211.992640855427
 21
188.9069964802395
 31
0.0
  0
LINE
  5
73FF
330
1E
100
AcDbEntity
  8
製品
  6
Continuous
 62
     2
100
AcDbLine
 10
210.952640855427
 20
192.3869964802391
 30
0.0
 11
210.952640855427
 21
188.9069964802395
 31
0.0
  0
LINE
  5
7400
330
1E
100
AcDbEntity
  8
製品
  6
Continuous
 62
     2
100
AcDbLine
 10
210.7926408554269
 20
192.5469964802389
 30
0.0
 11
210.7926408554269
 21
188.7469964802397
 31
0.0
  0
LINE
  5
7401
330
1E
100
AcDbEntity
  8
製品
  6
Continuous
 62
     2
100
AcDbLine
 10
202.6826408554268
 20
192.3869964802391
 30
0.0
 11
203.6026408554269
 21
192.3869964802391
 31
0.0
  0
LINE
  5
7402
330
1E
100
AcDbEntity
  8
製品
  6
Continuous
 62
     2
100
AcDbLine
 10
202.6826408554268
 20
192.5869964802389
 30
0.0
 11
202.6826408554268
 21
192.3869964802391
 31
0.0
  0
LINE
  5
7403
330
1E
100
AcDbEntity
  8
製品
  6
Continuous
 62
     2
100
AcDbLine
 10
203.6026408554269
 20
192.3869964802391
 30
0.0
 11
203.6026408554269
 21
192.5869964802389
 31
0.0
  0
LINE
  5
7404
330
1E
100
AcDbEntity
  8
製品
  6
Continuous
 62
     2
100
AcDbLine
 10
204.1426408554269
 20
192.7469964802396
 30
0.0
 11
204.1426408554269
 21
192.5869964802389
 31
0.0
  0
LINE
  5
7405
330
1E
100
AcDbEntity
  8
製品
  6
Continuous
 62
     2
100
AcDbLine
 10
202.8426408554269
 20
193.9069964802395
 30
0.0
 11
202.8426408554269
 21
192.7469964802396
 31
0.0
  0
LINE
  5
7406
330
1E
100
AcDbEntity
  8
製品
  6
Continuous
 62
     2
100
AcDbLine
 10
203.4426408554268
 20
193.9069964802395
 30
0.0
 11
203.4426408554268
 21
192.7469964802396
 31
0.0
  0
ARC
  5
7407
330
1E
100
AcDbEntity
  8
製品
  6
Continuous
 62
     2
100
AcDbCircle
 10
203.1426408554269
 20
194.0944964802395
 30
0.0
 40
0.8125
100
AcDbArc
 50
30.67742400002348
 51
149.3225759999765
  0
ARC
  5
7408
330
1E
100
AcDbEntity
  8
製品
  6
Continuous
 62
     2
100
AcDbCircle
 10
203.1426408554269
 20
194.7194964802395
 30
0.0
 40
0.8125
100
AcDbArc
 50
210.6774549999866
 51
329.3225499999874
  0
LINE
  5
7409
330
1E
100
AcDbEntity
  8
製品
  6
Continuous
 62
     2
100
AcDbLine
 10
202.8426408554269
 20
193.9644104802394
 30
0.0
 11
202.8426408554269
 21
193.9069964802395
 31
0.0
  0
LINE
  5
740A
330
1E
100
AcDbEntity
  8
製品
  6
Continuous
 62
     2
100
AcDbLine
 10
203.4426408554268
 20
193.9644104802394
 30
0.0
 11
203.4426408554268
 21
193.9069964802395
 31
0.0
  0
LINE
  5
740B
330
1E
100
AcDbEntity
  8
製品
  6
Continuous
 62
     2
100
AcDbLine
 10
202.8426408554269
 20
193.9069964802395
 30
0.0
 11
203.4426408554268
 21
193.9069964802395
 31
0.0
  0
ARC
  5
740C
330
1E
100
AcDbEntity
  8
製品
  6
Continuous
 62
     2
100
AcDbCircle
 10
203.6694238554269
 20
194.4069964802395
 30
0.0
 40
0.2
100
AcDbArc
 50
329.3224699999722
 51
30.67742400002348
  0
ARC
  5
740D
330
1E
100
AcDbEntity
  8
製品
  6
Continuous
 62
     2
100
AcDbCircle
 10
202.6158578554269
 20
194.4069964802395
 30
0.0
 40
0.2
100
AcDbArc
 50
149.3225759999765
 51
210.6775479999801
  0
ARC
  5
740E
330
1E
100
AcDbEntity
  8
製品
  6
Continuous
 62
     2
100
AcDbCircle
 10
200.9526408554271
 20
192.4369964802392
 30
0.0
 40
0.15
100
AcDbArc
 50
90.0
 51
180.0
  0
ARC
  5
740F
330
1E
100
AcDbEntity
  8
製品
  6
Continuous
 62
     2
100
AcDbCircle
 10
200.9526408554271
 20
192.4369964802392
 30
0.0
 40
0.31
100
AcDbArc
 50
90.0
 51
180.0
  0
ARC
  5
7410
330
1E
100
AcDbEntity
  8
製品
  6
Continuous
 62
     2
100
AcDbCircle
 10
200.9526408554271
 20
192.4369964802392
 30
0.0
 40
0.51
100
AcDbArc
 50
90.0
 51
180.0
  0
ARC
  5
7411
330
1E
100
AcDbEntity
  8
製品
  6
Continuous
 62
     2
100
AcDbCircle
 10
201.357421855427
 20
192.6441684802396
 30
0.0
 40
0.303189
100
AcDbArc
 50
19.8254629999804
 51
92.79440099999609
  0
LINE
  5
7412
330
1E
100
AcDbEntity
  8
製品
  6
Continuous
 62
     2
100
AcDbLine
 10
200.9526408554271
 20
192.9469964802395
 30
0.0
 11
201.3426408554269
 21
192.9469964802395
 31
0.0
  0
LINE
  5
7413
330
1E
100
AcDbEntity
  8
製品
  6
Continuous
 62
     2
100
AcDbLine
 10
200.9526408554271
 20
192.5869964802389
 30
0.0
 11
204.1426408554269
 21
192.5869964802389
 31
0.0
  0
LINE
  5
7414
330
1E
100
AcDbEntity
  8
製品
  6
Continuous
 62
     2
100
AcDbLine
 10
200.9526408554271
 20
192.7469964802396
 30
0.0
 11
204.1426408554269
 21
192.7469964802396
 31
0.0
  0
LINE
  5
7415
330
1E
100
AcDbEntity
  8
製品
  6
Continuous
 62
     2
100
AcDbLine
 10
205.792640855427
 20
189.9469964802394
 30
0.0
 11
205.792640855427
 21
188.9069964802395
 31
0.0
  0
LINE
  5
7416
330
1E
100
AcDbEntity
  8
製品
  6
Continuous
 62
     2
100
AcDbLine
 10
205.6326408554269
 20
189.9469964802394
 30
0.0
 11
205.792640855427
 21
189.9469964802394
 31
0.0
  0
LINE
  5
7417
330
1E
100
AcDbEntity
  8
製品
  6
Continuous
 62
     2
100
AcDbLine
 10
205.6326408554269
 20
188.966996480239
 30
0.0
 11
205.6326408554269
 21
189.9469964802394
 31
0.0
  0
ARC
  5
7418
330
1E
100
AcDbEntity
  8
製品
  6
Continuous
 62
     2
100
AcDbCircle
 10
205.5726408554269
 20
188.966996480239
 30
0.0
 40
0.06
100
AcDbArc
 50
270.0
 51
0.0
  0
LINE
  5
7419
330
1E
100
AcDbEntity
  8
製品
  6
Continuous
 62
     2
100
AcDbLine
 10
205.5726408554269
 20
188.9069964802395
 30
0.0
 11
203.8926408554269
 21
188.9069964802395
 31
0.0
  0
LINE
  5
741A
330
1E
100
AcDbEntity
  8
製品
  6
Continuous
 62
     2
100
AcDbLine
 10
202.1526408554268
 20
188.966996480239
 30
0.0
 11
202.1526408554268
 21
189.9469964802394
 31
0.0
  0
ARC
  5
741B
330
1E
100
AcDbEntity
  8
製品
  6
Continuous
 62
     2
100
AcDbCircle
 10
202.2126408554268
 20
188.966996480239
 30
0.0
 40
0.06
100
AcDbArc
 50
180.0
 51
270.0
  0
LINE
  5
741C
330
1E
100
AcDbEntity
  8
製品
  6
Continuous
 62
     2
100
AcDbLine
 10
202.2126408554268
 20
188.9069964802395
 30
0.0
 11
203.8926408554269
 21
188.9069964802395
 31
0.0
  0
LINE
  5
741D
330
1E
100
AcDbEntity
  8
製品
  6
Continuous
 62
     2
100
AcDbLine
 10
199.3926408554268
 20
189.0969964802391
 30
0.0
 11
199.3926408554268
 21
188.9969964802396
 31
0.0
  0
LINE
  5
741E
330
1E
100
AcDbEntity
  8
製品
  6
Continuous
 62
     2
100
AcDbLine
 10
199.3926408554268
 20
188.9969964802396
 30
0.0
 11
199.1326408554268
 21
188.9969964802396
 31
0.0
  0
LINE
  5
741F
330
1E
100
AcDbEntity
  8
製品
  6
Continuous
 62
     2
100
AcDbLine
 10
199.1326408554268
 20
188.9969964802396
 30
0.0
 11
199.1326408554268
 21
188.6469964802393
 31
0.0
  0
LINE
  5
7420
330
1E
100
AcDbEntity
  8
製品
  6
Continuous
 62
     2
100
AcDbLine
 10
199.1326408554268
 20
188.6469964802393
 30
0.0
 11
199.2326408554268
 21
188.6469964802393
 31
0.0
  0
LINE
  5
7421
330
1E
100
AcDbEntity
  8
製品
  6
Continuous
 62
     2
100
AcDbLine
 10
199.2326408554268
 20
188.6469964802393
 30
0.0
 11
199.2326408554268
 21
188.8969964802393
 31
0.0
  0
LINE
  5
7422
330
1E
100
AcDbEntity
  8
製品
  6
Continuous
 62
     2
100
AcDbLine
 10
199.2326408554268
 20
188.8969964802393
 30
0.0
 11
199.3926408554268
 21
188.8969964802393
 31
0.0
  0
LINE
  5
7423
330
1E
100
AcDbEntity
  8
製品
  6
Continuous
 62
     2
100
AcDbLine
 10
200.802640855427
 20
188.0143404802395
 30
0.0
 11
200.802640855427
 21
186.5532714802395
 31
0.0
  0
LINE
  5
7424
330
1E
100
AcDbEntity
  8
製品
  6
Continuous
 62
     2
100
AcDbLine
 10
200.802640855427
 20
186.5532714802395
 30
0.0
 11
201.0926408554269
 21
186.2632714802396
 31
0.0
  0
LINE
  5
7425
330
1E
100
AcDbEntity
  8
製品
  6
Continuous
 62
     2
100
AcDbLine
 10
200.6426408554268
 20
186.4869964802394
 30
0.0
 11
200.9326408554268
 21
186.1969964802394
 31
0.0
  0
LINE
  5
7426
330
1E
100
AcDbEntity
  8
製品
  6
Continuous
 62
     2
100
AcDbLine
 10
200.9326408554268
 20
188.6469964802393
 30
0.0
 11
200.9326408554268
 21
188.3969964802393
 31
0.0
  0
LINE
  5
7427
330
1E
100
AcDbEntity
  8
製品
  6
Continuous
 62
     2
100
AcDbLine
 10
200.9326408554268
 20
188.3969964802393
 30
0.0
 11
200.802640855427
 21
188.2669964802392
 31
0.0
  0
ARC
  5
7428
330
1E
100
AcDbEntity
  8
製品
  6
Continuous
 62
     2
100
AcDbCircle
 10
200.6768718554269
 20
189.9864844802389
 30
0.0
 40
0.241921
100
AcDbArc
 50
165.5145730000177
 51
261.8655620000061
  0
LINE
  5
7429
330
1E
100
AcDbEntity
  8
製品
  6
Continuous
 62
     2
100
AcDbLine
 10
201.1926408554268
 20
189.0969964802391
 30
0.0
 11
201.0926408554269
 21
189.0969964802391
 31
0.0
  0
LINE
  5
742A
330
1E
100
AcDbEntity
  8
製品
  6
Continuous
 62
     2
100
AcDbLine
 10
201.0926408554269
 20
189.0969964802391
 30
0.0
 11
201.0926408554269
 21
188.9969964802396
 31
0.0
  0
LINE
  5
742B
330
1E
100
AcDbEntity
  8
製品
  6
Continuous
 62
     2
100
AcDbLine
 10
201.0926408554269
 20
188.9969964802396
 30
0.0
 11
200.8326408554269
 21
188.9969964802396
 31
0.0
  0
LINE
  5
742C
330
1E
100
AcDbEntity
  8
製品
  6
Continuous
 62
     2
100
AcDbLine
 10
201.992640855427
 20
189.9469964802394
 30
0.0
 11
201.992640855427
 21
188.9069964802395
 31
0.0
  0
LINE
  5
742D
330
1E
100
AcDbEntity
  8
製品
  6
Continuous
 62
     2
100
AcDbLine
 10
200.8326408554269
 20
188.9969964802396
 30
0.0
 11
200.8326408554269
 21
188.6469964802393
 31
0.0
  0
LINE
  5
742E
330
1E
100
AcDbEntity
  8
製品
  6
Continuous
 62
     2
100
AcDbLine
 10
200.8326408554269
 20
188.6469964802393
 30
0.0
 11
200.9326408554268
 21
188.6469964802393
 31
0.0
  0
LINE
  5
742F
330
1E
100
AcDbEntity
  8
製品
  6
Continuous
 62
     2
100
AcDbLine
 10
200.9326408554268
 20
188.6469964802393
 30
0.0
 11
200.9326408554268
 21
188.8969964802393
 31
0.0
  0
LINE
  5
7430
330
1E
100
AcDbEntity
  8
製品
  6
Continuous
 62
     2
100
AcDbLine
 10
200.9326408554268
 20
188.8969964802393
 30
0.0
 11
201.0926408554269
 21
188.8969964802393
 31
0.0
  0
LINE
  5
7431
330
1E
100
AcDbEntity
  8
製品
  6
Continuous
 62
     2
100
AcDbLine
 10
201.0926408554269
 20
188.3307224802395
 30
0.0
 11
200.802640855427
 21
188.0407224802395
 31
0.0
  0
ARC
  5
7432
330
1E
100
AcDbEntity
  8
製品
  6
Continuous
 62
     2
100
AcDbCircle
 10
202.1526408554268
 20
188.9069964802395
 30
0.0
 40
0.16
100
AcDbArc
 50
180.0
 51
270.0
  0
LINE
  5
7433
330
1E
100
AcDbEntity
  8
製品
  6
Continuous
 62
     2
100
AcDbLine
 10
202.1526408554268
 20
189.9469964802394
 30
0.0
 11
201.992640855427
 21
189.9469964802394
 31
0.0
  0
LINE
  5
7434
330
1E
100
AcDbEntity
  8
製品
  6
Continuous
 62
     2
100
AcDbLine
 10
200.6426408554268
 20
192.4369964802392
 30
0.0
 11
200.6426408554268
 21
186.4869964802394
 31
0.0
  0
LINE
  5
7435
330
1E
100
AcDbEntity
  8
製品
  6
Continuous
 62
     2
100
AcDbLine
 10
202.8426408554269
 20
192.3869964802391
 30
0.0
 11
202.8426408554269
 21
188.9069964802395
 31
0.0
  0
LINE
  5
7436
330
1E
100
AcDbEntity
  8
製品
  6
Continuous
 62
     2
100
AcDbLine
 10
203.4426408554268
 20
192.3869964802391
 30
0.0
 11
203.4426408554268
 21
188.9069964802395
 31
0.0
  0
LINE
  5
7437
330
1E
100
AcDbEntity
  8
製品
  6
Continuous
 62
     2
100
AcDbLine
 10
200.802640855427
 20
192.4369964802392
 30
0.0
 11
200.802640855427
 21
188.2655584802389
 31
0.0
  0
LINE
  5
7438
330
1E
100
AcDbEntity
  8
製品
  6
Continuous
 62
     2
100
AcDbLine
 10
200.4426408554268
 20
192.4369964802392
 30
0.0
 11
200.4426408554268
 21
190.0469964802389
 31
0.0
  0
ARC
  5
7439
330
1E
100
AcDbEntity
  8
製品
  6
Continuous
 62
     2
100
AcDbCircle
 10
205.6326408554269
 20
188.9069964802395
 30
0.0
 40
0.16
100
AcDbArc
 50
270.0
 51
0.0
  0
LINE
  5
743A
330
1E
100
AcDbEntity
  8
図面枠
  6
Continuous
 62
     2
100
AcDbLine
 10
205.792640855427
 20
189.9469964802394
 30
0.0
 11
206.3596278554269
 21
191.9290474802394
 31
0.0
  0
LINE
  5
743B
330
1E
100
AcDbEntity
  8
図面枠
  6
Continuous
 62
     2
100
AcDbLine
 10
205.792640855427
 20
189.9469964802394
 30
0.0
 11
207.2256538554268
 21
191.4290474802394
 31
0.0
  0
LINE
  5
743C
330
1E
100
AcDbEntity
  8
製品
  6
Continuous
 62
     2
100
AcDbLine
 10
200.1926408554268
 20
185.6469964802393
 30
0.0
 11
199.492640855427
 21
185.6469964802393
 31
0.0
  0
LINE
  5
743D
330
1E
100
AcDbEntity
  8
製品
  6
Continuous
 62
     2
100
AcDbLine
 10
200.1926408554268
 20
185.4969964802396
 30
0.0
 11
200.1926408554268
 21
185.6469964802393
 31
0.0
  0
LINE
  5
743E
330
1E
100
AcDbEntity
  8
製品
  6
Continuous
 62
     2
100
AcDbLine
 10
199.3926408554268
 20
185.6969964802394
 30
0.0
 11
199.2326408554268
 21
185.6969964802394
 31
0.0
  0
LINE
  5
743F
330
1E
100
AcDbEntity
  8
製品
  6
Continuous
 62
     2
100
AcDbLine
 10
199.2326408554268
 20
185.6969964802394
 30
0.0
 11
199.2326408554268
 21
185.9469964802395
 31
0.0
  0
LINE
  5
7440
330
1E
100
AcDbEntity
  8
製品
  6
Continuous
 62
     2
100
AcDbLine
 10
199.2326408554268
 20
185.9469964802395
 30
0.0
 11
199.1326408554268
 21
185.9469964802395
 31
0.0
  0
LINE
  5
7441
330
1E
100
AcDbEntity
  8
製品
  6
Continuous
 62
     2
100
AcDbLine
 10
199.1326408554268
 20
185.9469964802395
 30
0.0
 11
199.1326408554268
 21
185.6469964802393
 31
0.0
  0
LINE
  5
7442
330
1E
100
AcDbEntity
  8
製品
  6
Continuous
 62
     2
100
AcDbLine
 10
198.5926408554269
 20
185.6469964802393
 30
0.0
 11
198.5926408554269
 21
185.4969964802396
 31
0.0
  0
LINE
  5
7443
330
1E
100
AcDbEntity
  8
製品
  6
Continuous
 62
     2
100
AcDbLine
 10
198.5926408554269
 20
185.4969964802396
 30
0.0
 11
198.6926408554268
 21
185.4969964802396
 31
0.0
  0
LINE
  5
7444
330
1E
100
AcDbEntity
  8
製品
  6
Continuous
 62
     2
100
AcDbLine
 10
198.6926408554268
 20
185.4969964802396
 30
0.0
 11
198.6926408554268
 21
185.5469964802389
 31
0.0
  0
LINE
  5
7445
330
1E
100
AcDbEntity
  8
製品
  6
Continuous
 62
     2
100
AcDbLine
 10
198.6926408554268
 20
185.5469964802389
 30
0.0
 11
200.0926408554269
 21
185.5469964802389
 31
0.0
  0
LINE
  5
7446
330
1E
100
AcDbEntity
  8
製品
  6
Continuous
 62
     2
100
AcDbLine
 10
200.0926408554269
 20
185.5469964802389
 30
0.0
 11
200.0926408554269
 21
185.4969964802396
 31
0.0
  0
LINE
  5
7447
330
1E
100
AcDbEntity
  8
製品
  6
Continuous
 62
     2
100
AcDbLine
 10
200.0926408554269
 20
185.4969964802396
 30
0.0
 11
200.1926408554268
 21
185.4969964802396
 31
0.0
  0
LINE
  5
7448
330
1E
100
AcDbEntity
  8
製品
  6
Continuous
 62
     2
100
AcDbLine
 10
200.9326408554268
 20
185.9469964802395
 30
0.0
 11
200.8326408554269
 21
185.9469964802395
 31
0.0
  0
LINE
  5
7449
330
1E
100
AcDbEntity
  8
製品
  6
Continuous
 62
     2
100
AcDbLine
 10
200.8326408554269
 20
185.9469964802395
 30
0.0
 11
200.8326408554269
 21
185.6469964802393
 31
0.0
  0
LINE
  5
744A
330
1E
100
AcDbEntity
  8
製品
  6
Continuous
 62
     2
100
AcDbLine
 10
201.8926408554269
 20
185.4969964802396
 30
0.0
 11
201.8926408554269
 21
185.6469964802393
 31
0.0
  0
LINE
  5
744B
330
1E
100
AcDbEntity
  8
製品
  6
Continuous
 62
     2
100
AcDbLine
 10
201.8926408554269
 20
185.6469964802393
 30
0.0
 11
201.1926408554268
 21
185.6469964802393
 31
0.0
  0
LINE
  5
744C
330
1E
100
AcDbEntity
  8
製品
  6
Continuous
 62
     2
100
AcDbLine
 10
201.0926408554269
 20
185.6969964802394
 30
0.0
 11
200.9326408554268
 21
185.6969964802394
 31
0.0
  0
LINE
  5
744D
330
1E
100
AcDbEntity
  8
製品
  6
Continuous
 62
     2
100
AcDbLine
 10
200.9326408554268
 20
185.6969964802394
 30
0.0
 11
200.9326408554268
 21
185.9469964802395
 31
0.0
  0
LINE
  5
744E
330
1E
100
AcDbEntity
  8
製品
  6
Continuous
 62
     2
100
AcDbLine
 10
200.8326408554269
 20
185.6469964802393
 30
0.0
 11
200.2926408554269
 21
185.6469964802393
 31
0.0
  0
LINE
  5
744F
330
1E
100
AcDbEntity
  8
製品
  6
Continuous
 62
     2
100
AcDbLine
 10
200.2926408554269
 20
185.6469964802393
 30
0.0
 11
200.2926408554269
 21
185.4969964802396
 31
0.0
  0
LINE
  5
7450
330
1E
100
AcDbEntity
  8
製品
  6
Continuous
 62
     2
100
AcDbLine
 10
200.2926408554269
 20
185.4969964802396
 30
0.0
 11
200.3926408554268
 21
185.4969964802396
 31
0.0
  0
LINE
  5
7451
330
1E
100
AcDbEntity
  8
製品
  6
Continuous
 62
     2
100
AcDbLine
 10
200.3926408554268
 20
185.4969964802396
 30
0.0
 11
200.3926408554268
 21
185.5469964802389
 31
0.0
  0
LINE
  5
7452
330
1E
100
AcDbEntity
  8
製品
  6
Continuous
 62
     2
100
AcDbLine
 10
200.3926408554268
 20
185.5469964802389
 30
0.0
 11
201.792640855427
 21
185.5469964802389
 31
0.0
  0
LINE
  5
7453
330
1E
100
AcDbEntity
  8
製品
  6
Continuous
 62
     2
100
AcDbLine
 10
201.792640855427
 20
185.5469964802389
 30
0.0
 11
201.792640855427
 21
185.4969964802396
 31
0.0
  0
LINE
  5
7454
330
1E
100
AcDbEntity
  8
製品
  6
Continuous
 62
     2
100
AcDbLine
 10
201.792640855427
 20
185.4969964802396
 30
0.0
 11
201.8926408554269
 21
185.4969964802396
 31
0.0
  0
LINE
  5
7455
330
1E
100
AcDbEntity
  8
製品
  6
Continuous
 62
     2
100
AcDbLine
 10
199.492640855427
 20
189.0969964802391
 30
0.0
 11
199.492640855427
 21
185.6469964802393
 31
0.0
  0
LINE
  5
7456
330
1E
100
AcDbEntity
  8
製品
  6
Continuous
 62
     2
100
AcDbLine
 10
199.3926408554268
 20
188.8969964802393
 30
0.0
 11
199.3926408554268
 21
185.6969964802394
 31
0.0
  0
LINE
  5
7457
330
1E
100
AcDbEntity
  8
製品
  6
Continuous
 62
     2
100
AcDbLine
 10
200.9326408554268
 20
186.1969964802394
 30
0.0
 11
200.9326408554268
 21
185.9469964802395
 31
0.0
  0
LINE
  5
7458
330
1E
100
AcDbEntity
  8
製品
  6
Continuous
 62
     2
100
AcDbLine
 10
201.1926408554268
 20
185.6469964802393
 30
0.0
 11
201.1926408554268
 21
189.0969964802391
 31
0.0
  0
LINE
  5
7459
330
1E
100
AcDbEntity
  8
製品
  6
Continuous
 62
     2
100
AcDbLine
 10
201.0926408554269
 20
188.8969964802393
 30
0.0
 11
201.0926408554269
 21
185.6969964802394
 31
0.0
  0
LINE
  5
745A
330
1E
100
AcDbEntity
  8
製品
  6
Continuous
 62
     4
100
AcDbLine
 10
201.492640855427
 20
188.7469964802397
 30
0.0
 11
201.492640855427
 21
185.6469964802393
 31
0.0
  0
LINE
  5
745B
330
1E
100
AcDbEntity
  8
製品
  6
Continuous
 62
     4
100
AcDbLine
 10
199.1326408554268
 20
185.6469964802393
 30
0.0
 11
199.1326408554268
 21
186.8469964802391
 31
0.0
  0
LINE
  5
745C
330
1E
100
AcDbEntity
  8
製品
  6
Continuous
 62
     4
100
AcDbLine
 10
211.992640855427
 20
254.7675294802395
 30
0.0
 11
211.992640855427
 21
246.7175294802394
 31
0.0
  0
LINE
  5
745D
330
1E
100
AcDbEntity
  8
製品
  6
Continuous
 62
     4
100
AcDbLine
 10
210.7926408554269
 20
246.7175294802394
 30
0.0
 11
210.7926408554269
 21
254.7675294802395
 31
0.0
  0
LINE
  5
745E
330
1E
100
AcDbEntity
  8
製品
  6
Continuous
 62
     2
100
AcDbLine
 10
210.7926408554269
 20
248.2024534802397
 30
0.0
 11
211.992640855427
 21
249.4024534802395
 31
0.0
  0
TEXT
  5
745F
330
1E
100
AcDbEntity
  8
図面枠
  6
Continuous
 62
     2
100
AcDbText
 10
228.5631348554268
 20
172.1792214802392
 30
0.0
 40
3.0
  1
Ａ断面
 41
0.8
  7
ACAD
100
AcDbText
  0
TEXT
  5
7460
330
1E
100
AcDbEntity
  8
図面枠
  6
Continuous
 62
     2
100
AcDbText
 10
226.6053408554269
 20
123.8462534802395
 30
0.0
 40
3.0
  1
Ｂ断面
 41
0.8
  7
ACAD
100
AcDbText
  0
LINE
  5
7461
330
1E
100
AcDbEntity
  8
製品
  6
Continuous
 62
     2
100
AcDbLine
 10
225.0926408554269
 20
147.1197964802388
 30
0.0
 11
225.0926408554269
 21
144.5997964802393
 31
0.0
  0
LINE
  5
7462
330
1E
100
AcDbEntity
  8
製品
  6
Continuous
 62
     2
100
AcDbLine
 10
225.0926408554269
 20
147.1197964802388
 30
0.0
 11
225.0926408554269
 21
147.1797964802392
 31
0.0
  0
LINE
  5
7463
330
1E
100
AcDbEntity
  8
製品
  6
Continuous
 62
     2
100
AcDbLine
 10
222.0926408554269
 20
147.1197964802388
 30
0.0
 11
222.0926408554269
 21
144.5997964802393
 31
0.0
  0
LINE
  5
7464
330
1E
100
AcDbEntity
  8
製品
  6
Continuous
 62
     2
100
AcDbLine
 10
222.0926408554269
 20
144.5997964802393
 30
0.0
 11
222.9676408554269
 21
144.2813224802396
 31
0.0
  0
LINE
  5
7465
330
1E
100
AcDbEntity
  8
製品
  6
Continuous
 62
     2
100
AcDbLine
 10
222.0926408554269
 20
147.1797964802392
 30
0.0
 11
222.0926408554269
 21
147.1197964802388
 31
0.0
  0
LINE
  5
7466
330
1E
100
AcDbEntity
  8
製品
  6
Continuous
 62
     2
100
AcDbLine
 10
225.0926408554269
 20
144.5997964802393
 30
0.0
 11
224.2176408554269
 21
144.2813224802396
 31
0.0
  0
LINE
  5
7467
330
1E
100
AcDbEntity
  8
製品
  6
Continuous
 62
     2
100
AcDbLine
 10
225.0926408554269
 20
147.1797964802392
 30
0.0
 11
222.0926408554269
 21
147.1797964802392
 31
0.0
  0
ARC
  5
7468
330
1E
100
AcDbEntity
  8
製品
  6
Continuous
 62
     2
100
AcDbCircle
 10
224.5176408554268
 20
142.6497964802395
 30
0.0
 40
0.2
100
AcDbArc
 50
270.0
 51
0.0
  0
ARC
  5
7469
330
1E
100
AcDbEntity
  8
製品
  6
Continuous
 62
     2
100
AcDbCircle
 10
224.367640855427
 20
143.0497964802391
 30
0.0
 40
0.15
100
AcDbArc
 50
180.0
 51
344.3217239999948
  0
ARC
  5
746A
330
1E
100
AcDbEntity
  8
製品
  6
Continuous
 62
     2
100
AcDbCircle
 10
224.6926408554268
 20
143.169796480239
 30
0.0
 40
0.1
100
AcDbArc
 50
0.0
 51
90.0
  0
LINE
  5
746B
330
1E
100
AcDbEntity
  8
製品
  6
Continuous
 62
     2
100
AcDbLine
 10
224.6926408554268
 20
143.2697964802394
 30
0.0
 11
224.5926408554269
 21
143.2697964802394
 31
0.0
  0
ARC
  5
746C
330
1E
100
AcDbEntity
  8
製品
  6
Continuous
 62
     2
100
AcDbCircle
 10
224.5926408554269
 20
143.169796480239
 30
0.0
 40
0.1
100
AcDbArc
 50
90.0
 51
180.0
  0
LINE
  5
746D
330
1E
100
AcDbEntity
  8
製品
  6
Continuous
 62
     2
100
AcDbLine
 10
224.492640855427
 20
143.169796480239
 30
0.0
 11
224.492640855427
 21
143.0197964802394
 31
0.0
  0
LINE
  5
746E
330
1E
100
AcDbEntity
  8
製品
  6
Continuous
 62
     2
100
AcDbLine
 10
224.492640855427
 20
143.0197964802394
 30
0.0
 11
224.4426408554268
 21
143.0197964802394
 31
0.0
  0
LINE
  5
746F
330
1E
100
AcDbEntity
  8
製品
  6
Continuous
 62
     2
100
AcDbLine
 10
224.4426408554268
 20
143.0197964802394
 30
0.0
 11
224.4426408554268
 21
143.169796480239
 31
0.0
  0
ARC
  5
7470
330
1E
100
AcDbEntity
  8
製品
  6
Continuous
 62
     2
100
AcDbCircle
 10
224.5926408554269
 20
143.169796480239
 30
0.0
 40
0.15
100
AcDbArc
 50
90.0
 51
180.0
  0
LINE
  5
7471
330
1E
100
AcDbEntity
  8
製品
  6
Continuous
 62
     2
100
AcDbLine
 10
224.4426408554268
 20
141.4697964802392
 30
0.0
 11
224.3426408554269
 21
141.5197964802394
 31
0.0
  0
LINE
  5
7472
330
1E
100
AcDbEntity
  8
製品
  6
Continuous
 62
     2
100
AcDbLine
 10
224.3426408554269
 20
141.5197964802394
 30
0.0
 11
224.1926408554268
 21
141.4697964802392
 31
0.0
  0
LINE
  5
7473
330
1E
100
AcDbEntity
  8
製品
  6
Continuous
 62
     2
100
AcDbLine
 10
224.1926408554268
 20
141.4697964802392
 30
0.0
 11
224.042640855427
 21
141.5197964802394
 31
0.0
  0
LINE
  5
7474
330
1E
100
AcDbEntity
  8
製品
  6
Continuous
 62
     2
100
AcDbLine
 10
224.042640855427
 20
141.5197964802394
 30
0.0
 11
223.8926408554269
 21
141.4697964802392
 31
0.0
  0
LINE
  5
7475
330
1E
100
AcDbEntity
  8
製品
  6
Continuous
 62
     2
100
AcDbLine
 10
223.8926408554269
 20
141.4697964802392
 30
0.0
 11
223.742640855427
 21
141.5197964802394
 31
0.0
  0
LINE
  5
7476
330
1E
100
AcDbEntity
  8
製品
  6
Continuous
 62
     2
100
AcDbLine
 10
223.742640855427
 20
141.5197964802394
 30
0.0
 11
223.5926408554269
 21
141.4697964802392
 31
0.0
  0
LINE
  5
7477
330
1E
100
AcDbEntity
  8
製品
  6
Continuous
 62
     2
100
AcDbLine
 10
224.4426408554268
 20
141.419796480239
 30
0.0
 11
224.3426408554269
 21
141.4697964802392
 31
0.0
  0
LINE
  5
7478
330
1E
100
AcDbEntity
  8
製品
  6
Continuous
 62
     2
100
AcDbLine
 10
224.3426408554269
 20
141.4697964802392
 30
0.0
 11
224.1926408554268
 21
141.419796480239
 31
0.0
  0
LINE
  5
7479
330
1E
100
AcDbEntity
  8
製品
  6
Continuous
 62
     2
100
AcDbLine
 10
224.1926408554268
 20
141.419796480239
 30
0.0
 11
224.042640855427
 21
141.4697964802392
 31
0.0
  0
LINE
  5
747A
330
1E
100
AcDbEntity
  8
製品
  6
Continuous
 62
     2
100
AcDbLine
 10
224.042640855427
 20
141.4697964802392
 30
0.0
 11
223.8926408554269
 21
141.419796480239
 31
0.0
  0
LINE
  5
747B
330
1E
100
AcDbEntity
  8
製品
  6
Continuous
 62
     2
100
AcDbLine
 10
223.8926408554269
 20
141.419796480239
 30
0.0
 11
223.742640855427
 21
141.4697964802392
 31
0.0
  0
LINE
  5
747C
330
1E
100
AcDbEntity
  8
製品
  6
Continuous
 62
     2
100
AcDbLine
 10
223.742640855427
 20
141.4697964802392
 30
0.0
 11
223.5926408554269
 21
141.419796480239
 31
0.0
  0
LINE
  5
747D
330
1E
100
AcDbEntity
  8
製品
  6
Continuous
 62
     2
100
AcDbLine
 10
224.8426408554269
 20
141.7197964802392
 30
0.0
 11
224.8426408554269
 21
143.169796480239
 31
0.0
  0
LINE
  5
747E
330
1E
100
AcDbEntity
  8
製品
  6
Continuous
 62
     2
100
AcDbLine
 10
224.542640855427
 20
141.419796480239
 30
0.0
 11
224.4426408554268
 21
141.419796480239
 31
0.0
  0
LINE
  5
747F
330
1E
100
AcDbEntity
  8
製品
  6
Continuous
 62
     2
100
AcDbLine
 10
224.792640855427
 20
141.7197964802392
 30
0.0
 11
224.792640855427
 21
143.169796480239
 31
0.0
  0
ARC
  5
7480
330
1E
100
AcDbEntity
  8
製品
  6
Continuous
 62
     2
100
AcDbCircle
 10
224.542640855427
 20
141.7197964802392
 30
0.0
 40
0.25
100
AcDbArc
 50
270.0
 51
0.0
  0
LINE
  5
7481
330
1E
100
AcDbEntity
  8
製品
  6
Continuous
 62
     2
100
AcDbLine
 10
224.542640855427
 20
141.4697964802392
 30
0.0
 11
224.4426408554268
 21
141.4697964802392
 31
0.0
  0
LINE
  5
7482
330
1E
100
AcDbEntity
  8
製品
  6
Continuous
 62
     2
100
AcDbLine
 10
224.512059855427
 20
143.009261480239
 30
0.0
 11
224.5851868554268
 21
143.2697964802394
 31
0.0
  0
LINE
  5
7483
330
1E
100
AcDbEntity
  8
製品
  6
Continuous
 62
     2
100
AcDbLine
 10
224.7176408554269
 20
142.6497964802395
 30
0.0
 11
224.7176408554269
 21
143.2666214802395
 31
0.0
  0
LINE
  5
7484
330
1E
100
AcDbEntity
  8
製品
  6
Continuous
 62
     2
100
AcDbLine
 10
222.8426408554269
 20
141.5197964802394
 30
0.0
 11
222.992640855427
 21
141.4697964802392
 31
0.0
  0
LINE
  5
7485
330
1E
100
AcDbEntity
  8
製品
  6
Continuous
 62
     2
100
AcDbLine
 10
222.992640855427
 20
141.4697964802392
 30
0.0
 11
223.1426408554268
 21
141.5197964802394
 31
0.0
  0
LINE
  5
7486
330
1E
100
AcDbEntity
  8
製品
  6
Continuous
 62
     2
100
AcDbLine
 10
223.1426408554268
 20
141.5197964802394
 30
0.0
 11
223.2926408554269
 21
141.4697964802392
 31
0.0
  0
LINE
  5
7487
330
1E
100
AcDbEntity
  8
製品
  6
Continuous
 62
     2
100
AcDbLine
 10
223.2926408554269
 20
141.4697964802392
 30
0.0
 11
223.4426408554268
 21
141.5197964802394
 31
0.0
  0
LINE
  5
7488
330
1E
100
AcDbEntity
  8
製品
  6
Continuous
 62
     2
100
AcDbLine
 10
223.4426408554268
 20
141.5197964802394
 30
0.0
 11
223.5926408554269
 21
141.4697964802392
 31
0.0
  0
LINE
  5
7489
330
1E
100
AcDbEntity
  8
製品
  6
Continuous
 62
     2
100
AcDbLine
 10
222.742640855427
 20
141.419796480239
 30
0.0
 11
222.8426408554269
 21
141.4697964802392
 31
0.0
  0
LINE
  5
748A
330
1E
100
AcDbEntity
  8
製品
  6
Continuous
 62
     2
100
AcDbLine
 10
222.8426408554269
 20
141.4697964802392
 30
0.0
 11
222.992640855427
 21
141.419796480239
 31
0.0
  0
LINE
  5
748B
330
1E
100
AcDbEntity
  8
製品
  6
Continuous
 62
     2
100
AcDbLine
 10
222.992640855427
 20
141.419796480239
 30
0.0
 11
223.1426408554268
 21
141.4697964802392
 31
0.0
  0
LINE
  5
748C
330
1E
100
AcDbEntity
  8
製品
  6
Continuous
 62
     2
100
AcDbLine
 10
223.1426408554268
 20
141.4697964802392
 30
0.0
 11
223.2926408554269
 21
141.419796480239
 31
0.0
  0
LINE
  5
748D
330
1E
100
AcDbEntity
  8
製品
  6
Continuous
 62
     2
100
AcDbLine
 10
223.2926408554269
 20
141.419796480239
 30
0.0
 11
223.4426408554268
 21
141.4697964802392
 31
0.0
  0
LINE
  5
748E
330
1E
100
AcDbEntity
  8
製品
  6
Continuous
 62
     2
100
AcDbLine
 10
223.4426408554268
 20
141.4697964802392
 30
0.0
 11
223.5926408554269
 21
141.419796480239
 31
0.0
  0
LINE
  5
748F
330
1E
100
AcDbEntity
  8
製品
  6
Continuous
 62
     2
100
AcDbLine
 10
222.6676408554269
 20
142.4497964802396
 30
0.0
 11
224.5176408554268
 21
142.4497964802396
 31
0.0
  0
ARC
  5
7490
330
1E
100
AcDbEntity
  8
製品
  6
Continuous
 62
     2
100
AcDbCircle
 10
222.6676408554269
 20
142.6497964802395
 30
0.0
 40
0.2
100
AcDbArc
 50
180.0
 51
270.0
  0
ARC
  5
7491
330
1E
100
AcDbEntity
  8
製品
  6
Continuous
 62
     2
100
AcDbCircle
 10
222.8176408554268
 20
143.0497964802391
 30
0.0
 40
0.15
100
AcDbArc
 50
195.6782760000051
 51
0.0
  0
ARC
  5
7492
330
1E
100
AcDbEntity
  8
製品
  6
Continuous
 62
     2
100
AcDbCircle
 10
222.492640855427
 20
143.169796480239
 30
0.0
 40
0.1
100
AcDbArc
 50
90.0
 51
180.0
  0
LINE
  5
7493
330
1E
100
AcDbEntity
  8
製品
  6
Continuous
 62
     2
100
AcDbLine
 10
222.492640855427
 20
143.2697964802394
 30
0.0
 11
222.5926408554269
 21
143.2697964802394
 31
0.0
  0
ARC
  5
7494
330
1E
100
AcDbEntity
  8
製品
  6
Continuous
 62
     2
100
AcDbCircle
 10
222.5926408554269
 20
143.169796480239
 30
0.0
 40
0.1
100
AcDbArc
 50
0.0
 51
90.0
  0
LINE
  5
7495
330
1E
100
AcDbEntity
  8
製品
  6
Continuous
 62
     2
100
AcDbLine
 10
222.6926408554268
 20
143.169796480239
 30
0.0
 11
222.6926408554268
 21
143.0197964802394
 31
0.0
  0
LINE
  5
7496
330
1E
100
AcDbEntity
  8
製品
  6
Continuous
 62
     2
100
AcDbLine
 10
222.6926408554268
 20
143.0197964802394
 30
0.0
 11
222.742640855427
 21
143.0197964802394
 31
0.0
  0
LINE
  5
7497
330
1E
100
AcDbEntity
  8
製品
  6
Continuous
 62
     2
100
AcDbLine
 10
222.742640855427
 20
143.0197964802394
 30
0.0
 11
222.742640855427
 21
143.169796480239
 31
0.0
  0
ARC
  5
7498
330
1E
100
AcDbEntity
  8
製品
  6
Continuous
 62
     2
100
AcDbCircle
 10
222.5926408554269
 20
143.169796480239
 30
0.0
 40
0.15
100
AcDbArc
 50
0.0
 51
90.0
  0
ARC
  5
7499
330
1E
100
AcDbEntity
  8
製品
  6
Continuous
 62
     2
100
AcDbCircle
 10
222.492640855427
 20
143.169796480239
 30
0.0
 40
0.15
100
AcDbArc
 50
90.0
 51
180.0
  0
ARC
  5
749A
330
1E
100
AcDbEntity
  8
製品
  6
Continuous
 62
     2
100
AcDbCircle
 10
222.6426408554269
 20
141.7197964802392
 30
0.0
 40
0.3
100
AcDbArc
 50
180.0
 51
270.0
  0
ARC
  5
749B
330
1E
100
AcDbEntity
  8
製品
  6
Continuous
 62
     2
100
AcDbCircle
 10
222.6426408554269
 20
141.7197964802392
 30
0.0
 40
0.25
100
AcDbArc
 50
180.0
 51
270.0
  0
LINE
  5
749C
330
1E
100
AcDbEntity
  8
製品
  6
Continuous
 62
     2
100
AcDbLine
 10
222.3426408554269
 20
141.7197964802392
 30
0.0
 11
222.3426408554269
 21
143.169796480239
 31
0.0
  0
LINE
  5
749D
330
1E
100
AcDbEntity
  8
製品
  6
Continuous
 62
     2
100
AcDbLine
 10
222.3926408554269
 20
141.7197964802392
 30
0.0
 11
222.3926408554269
 21
143.169796480239
 31
0.0
  0
LINE
  5
749E
330
1E
100
AcDbEntity
  8
製品
  6
Continuous
 62
     2
100
AcDbLine
 10
222.742640855427
 20
141.4697964802392
 30
0.0
 11
222.8426408554269
 21
141.5197964802394
 31
0.0
  0
LINE
  5
749F
330
1E
100
AcDbEntity
  8
製品
  6
Continuous
 62
     2
100
AcDbLine
 10
222.6426408554269
 20
141.419796480239
 30
0.0
 11
222.742640855427
 21
141.419796480239
 31
0.0
  0
LINE
  5
74A0
330
1E
100
AcDbEntity
  8
製品
  6
Continuous
 62
     2
100
AcDbLine
 10
222.6426408554269
 20
141.4697964802392
 30
0.0
 11
222.742640855427
 21
141.4697964802392
 31
0.0
  0
LINE
  5
74A1
330
1E
100
AcDbEntity
  8
製品
  6
Continuous
 62
     2
100
AcDbLine
 10
222.6732218554269
 20
143.009261480239
 30
0.0
 11
222.600094855427
 21
143.2697964802394
 31
0.0
  0
LINE
  5
74A2
330
1E
100
AcDbEntity
  8
製品
  6
Continuous
 62
     2
100
AcDbLine
 10
222.4676408554269
 20
142.6497964802395
 30
0.0
 11
222.4676408554269
 21
143.2666214802395
 31
0.0
  0
ARC
  5
74A3
330
1E
100
AcDbEntity
  8
製品
  6
Continuous
 62
     2
100
AcDbCircle
 10
224.6926408554268
 20
143.169796480239
 30
0.0
 40
0.15
100
AcDbArc
 50
0.0
 51
90.0
  0
ARC
  5
74A4
330
1E
100
AcDbEntity
  8
製品
  6
Continuous
 62
     2
100
AcDbCircle
 10
224.542640855427
 20
141.7197964802392
 30
0.0
 40
0.3
100
AcDbArc
 50
270.0
 51
0.0
  0
LINE
  5
74A5
330
1E
100
AcDbEntity
  8
製品
  6
Continuous
 62
     2
100
AcDbLine
 10
224.2176408554269
 20
143.0497964802391
 30
0.0
 11
224.2176408554269
 21
144.2813224802396
 31
0.0
  0
LINE
  5
74A6
330
1E
100
AcDbEntity
  8
製品
  6
Continuous
 62
     2
100
AcDbLine
 10
222.9676408554269
 20
143.0497964802391
 30
0.0
 11
222.9676408554269
 21
144.2813224802396
 31
0.0
  0
LINE
  5
74A7
330
1E
100
AcDbEntity
  8
製品
  6
Continuous
 62
     4
100
AcDbLine
 10
237.8926408554268
 20
143.3197964802396
 30
0.0
 11
224.2176408554269
 21
143.3197964802396
 31
0.0
  0
LINE
  5
74A8
330
1E
100
AcDbEntity
  8
製品
  6
Continuous
 62
     4
100
AcDbLine
 10
225.0926408554269
 20
147.1197964802388
 30
0.0
 11
237.8926408554268
 21
147.1197964802388
 31
0.0
  0
LINE
  5
74A9
330
1E
100
AcDbEntity
  8
図面枠
  6
Continuous
 62
     2
100
AcDbLine
 10
237.8926408554268
 20
301.7175294802393
 30
0.0
 11
242.8926408554269
 21
291.7175294802394
 31
0.0
  0
LINE
  5
74AA
330
1E
100
AcDbEntity
  8
図面枠
  6
Continuous
 62
     2
100
AcDbLine
 10
233.5026808554269
 20
208.7469964802397
 30
0.0
 11
245.5426808554268
 21
208.7469964802397
 31
0.0
  0
TEXT
  5
74AB
330
1E
100
AcDbEntity
  8
図面枠
  6
Continuous
 62
     2
100
AcDbText
 10
233.502724855427
 20
209.7469974802391
 30
0.0
 40
3.0
  1
野縁受け
 50
0.0000029999846689
 41
0.8
  7
ACAD
100
AcDbText
  0
TEXT
  5
74AC
330
1E
100
AcDbEntity
  8
図面枠
  6
Continuous
 62
     2
100
AcDbText
 10
227.9513178554268
 20
234.9509004802396
 30
0.0
 40
3.0
  1
伏　図
 41
0.8
  7
ACAD
100
AcDbText
  0
LINE
  5
74AD
330
1E
100
AcDbEntity
  8
図面枠
  6
Continuous
 62
     2
100
AcDbLine
 10
222.326545855427
 20
218.5845604802391
 30
0.0
 11
246.4065458554269
 21
218.5845604802391
 31
0.0
  0
TEXT
  5
74AE
330
1E
100
AcDbEntity
  8
図面枠
  6
Continuous
 62
     2
100
AcDbText
 10
222.326531855427
 20
219.5845604802391
 30
0.0
 40
3.0
  1
取付け用野縁受け
 41
0.8
  7
ACAD
100
AcDbText
  0
LINE
  5
74AF
330
1E
100
AcDbEntity
  8
製品
  6
Continuous
 62
     4
100
AcDbLine
 10
232.8926408554269
 20
273.2175294802394
 30
0.0
 11
232.8926408554269
 21
270.7175294802393
 31
0.0
  0
LINE
  5
74B0
330
1E
100
AcDbEntity
  8
製品
  6
Continuous
 62
     2
100
AcDbLine
 10
228.9784278554269
 20
273.2175294802394
 30
0.0
 11
231.4784278554268
 21
270.7175294802393
 31
0.0
  0
LINE
  5
74B1
330
1E
100
AcDbEntity
  8
製品
  6
Continuous
 62
     2
100
AcDbLine
 10
230.3869838554269
 20
273.2175294802394
 30
0.0
 11
232.8869838554269
 21
270.7175294802393
 31
0.0
  0
LINE
  5
74B2
330
1E
100
AcDbEntity
  8
製品
  6
Continuous
 62
     2
100
AcDbLine
 10
231.806854855427
 20
273.2175294802394
 30
0.0
 11
232.8926408554269
 21
272.1317424802394
 31
0.0
  0
LINE
  5
74B3
330
1E
100
AcDbEntity
  8
製品
  6
Continuous
 62
     2
100
AcDbLine
 10
226.1499998554268
 20
273.2175294802394
 30
0.0
 11
228.6499998554268
 21
270.7175294802393
 31
0.0
  0
LINE
  5
74B4
330
1E
100
AcDbEntity
  8
製品
  6
Continuous
 62
     2
100
AcDbLine
 10
221.9073598554269
 20
273.2175294802394
 30
0.0
 11
224.4073598554269
 21
270.7175294802393
 31
0.0
  0
LINE
  5
74B5
330
1E
100
AcDbEntity
  8
製品
  6
Continuous
 62
     2
100
AcDbLine
 10
224.7357868554268
 20
273.2175294802394
 30
0.0
 11
227.2357868554268
 21
270.7175294802393
 31
0.0
  0
LINE
  5
74B6
330
1E
100
AcDbEntity
  8
製品
  6
Continuous
 62
     2
100
AcDbLine
 10
223.3215728554269
 20
273.2175294802394
 30
0.0
 11
225.8215728554269
 21
270.7175294802393
 31
0.0
  0
LINE
  5
74B7
330
1E
100
AcDbEntity
  8
製品
  6
Continuous
 62
     2
100
AcDbLine
 10
220.493145855427
 20
273.2175294802394
 30
0.0
 11
222.993145855427
 21
270.7175294802393
 31
0.0
  0
LINE
  5
74B8
330
1E
100
AcDbEntity
  8
製品
  6
Continuous
 62
     2
100
AcDbLine
 10
219.078932855427
 20
273.2175294802394
 30
0.0
 11
221.578932855427
 21
270.7175294802393
 31
0.0
  0
LINE
  5
74B9
330
1E
100
AcDbEntity
  8
製品
  6
Continuous
 62
     4
100
AcDbLine
 10
222.8926408554269
 20
273.2175294802394
 30
0.0
 11
222.8926408554269
 21
285.2675294802395
 31
0.0
  0
LINE
  5
74BA
330
1E
100
AcDbEntity
  8
製品
  6
Continuous
 62
     4
100
AcDbLine
 10
224.0926408554269
 20
285.2675294802395
 30
0.0
 11
224.0926408554269
 21
273.2175294802394
 31
0.0
  0
LINE
  5
74BB
330
1E
100
AcDbEntity
  8
製品
  6
Continuous
 62
     2
100
AcDbLine
 10
222.7855338554268
 20
264.6996364802392
 30
0.0
 11
224.199747855427
 21
263.2854224802397
 31
0.0
  0
LINE
  5
74BC
330
1E
100
AcDbEntity
  8
製品
  6
Continuous
 62
     2
100
AcDbLine
 10
224.199747855427
 20
264.6996364802392
 30
0.0
 11
222.7855338554268
 21
263.2854224802397
 31
0.0
  0
CIRCLE
  5
74BD
330
1E
100
AcDbEntity
  8
製品
  6
Continuous
 62
     4
100
AcDbCircle
 10
223.492640855427
 20
263.992529480239
 30
0.0
 40
1.0
  0
LINE
  5
74BE
330
1E
100
AcDbEntity
  8
製品
  6
Continuous
 62
     4
100
AcDbLine
 10
222.8926408554269
 20
257.2675294802396
 30
0.0
 11
222.8926408554269
 21
270.7175294802393
 31
0.0
  0
LINE
  5
74BF
330
1E
100
AcDbEntity
  8
製品
  6
Continuous
 62
     4
100
AcDbLine
 10
224.0926408554269
 20
270.7175294802393
 30
0.0
 11
224.0926408554269
 21
257.2675294802396
 31
0.0
  0
LINE
  5
74C0
330
1E
100
AcDbEntity
  8
製品
  6
Continuous
 62
     2
100
AcDbLine
 10
227.5642138554269
 20
273.2175294802394
 30
0.0
 11
230.064213855427
 21
270.7175294802393
 31
0.0
  0
LINE
  5
74C1
330
1E
100
AcDbEntity
  8
製品
  6
Continuous
 62
     2
100
AcDbLine
 10
221.926483855427
 20
197.3469964802391
 30
0.0
 11
222.0676408554268
 21
197.4284944802396
 31
0.0
  0
LINE
  5
74C2
330
1E
100
AcDbEntity
  8
製品
  6
Continuous
 62
     2
100
AcDbLine
 10
221.5926408554269
 20
197.4284944802396
 30
0.0
 11
221.5926408554269
 21
198.1469964802393
 31
0.0
  0
ARC
  5
74C3
330
1E
100
AcDbEntity
  8
製品
  6
Continuous
 62
     2
100
AcDbCircle
 10
221.821777855427
 20
197.7098644802392
 30
0.0
 40
0.362868
100
AcDbArc
 50
230.842054999978
 51
270.0
  0
LINE
  5
74C4
330
1E
100
AcDbEntity
  8
製品
  6
Continuous
 62
     2
100
AcDbLine
 10
222.0676408554268
 20
197.4284944802396
 30
0.0
 11
222.0676408554268
 21
198.1469964802393
 31
0.0
  0
LINE
  5
74C5
330
1E
100
AcDbEntity
  8
製品
  6
Continuous
 62
     2
100
AcDbLine
 10
221.926483855427
 20
199.1469964802393
 30
0.0
 11
222.0676408554268
 21
199.0654994802391
 31
0.0
  0
LINE
  5
74C6
330
1E
100
AcDbEntity
  8
製品
  6
Continuous
 62
     2
100
AcDbLine
 10
221.5926408554269
 20
199.0654994802391
 30
0.0
 11
221.5926408554269
 21
198.3469964802391
 31
0.0
  0
ARC
  5
74C7
330
1E
100
AcDbEntity
  8
製品
  6
Continuous
 62
     2
100
AcDbCircle
 10
221.821777855427
 20
198.7841294802394
 30
0.0
 40
0.362868
100
AcDbArc
 50
90.0
 51
129.157945000022
  0
LINE
  5
74C8
330
1E
100
AcDbEntity
  8
製品
  6
Continuous
 62
     2
100
AcDbLine
 10
222.0676408554268
 20
199.0654994802391
 30
0.0
 11
222.0676408554268
 21
198.3469964802391
 31
0.0
  0
ARC
  5
74C9
330
1E
100
AcDbEntity
  8
製品
  6
Continuous
 62
     2
100
AcDbCircle
 10
222.542640855427
 20
197.9969964802396
 30
0.0
 40
0.15
100
AcDbArc
 50
0.0
 51
90.0
  0
ARC
  5
74CA
330
1E
100
AcDbEntity
  8
製品
  6
Continuous
 62
     2
100
AcDbCircle
 10
222.542640855427
 20
197.9969964802396
 30
0.0
 40
0.35
100
AcDbArc
 50
0.0
 51
90.0
  0
ARC
  5
74CB
330
1E
100
AcDbEntity
  8
製品
  6
Continuous
 62
     2
100
AcDbCircle
 10
222.088427855427
 20
197.5427834802396
 30
0.0
 40
0.7269540000000001
100
AcDbArc
 50
33.78217100001609
 51
56.21782899997692
  0
LINE
  5
74CC
330
1E
100
AcDbEntity
  8
製品
  6
Continuous
 62
     2
100
AcDbLine
 10
219.6926408554268
 20
198.3469964802391
 30
0.0
 11
219.6926408554268
 21
198.1469964802393
 31
0.0
  0
ARC
  5
74CD
330
1E
100
AcDbEntity
  8
製品
  6
Continuous
 62
     2
100
AcDbCircle
 10
220.4135048554269
 20
197.7098644802392
 30
0.0
 40
0.362868
100
AcDbArc
 50
270.0
 51
309.157945000022
  0
LINE
  5
74CE
330
1E
100
AcDbEntity
  8
製品
  6
Continuous
 62
     2
100
AcDbLine
 10
220.1676408554269
 20
197.4284944802396
 30
0.0
 11
220.1676408554269
 21
198.1469964802393
 31
0.0
  0
LINE
  5
74CF
330
1E
100
AcDbEntity
  8
製品
  6
Continuous
 62
     2
100
AcDbLine
 10
220.1676408554269
 20
197.4284944802396
 30
0.0
 11
220.308797855427
 21
197.3469964802391
 31
0.0
  0
LINE
  5
74D0
330
1E
100
AcDbEntity
  8
製品
  6
Continuous
 62
     2
100
AcDbLine
 10
220.6426408554269
 20
198.1469964802393
 30
0.0
 11
220.6426408554269
 21
197.4284944802396
 31
0.0
  0
ARC
  5
74D1
330
1E
100
AcDbEntity
  8
製品
  6
Continuous
 62
     2
100
AcDbCircle
 10
220.4135048554269
 20
198.7841294802394
 30
0.0
 40
0.362868
100
AcDbArc
 50
50.84205499997799
 51
90.0
  0
LINE
  5
74D2
330
1E
100
AcDbEntity
  8
製品
  6
Continuous
 62
     2
100
AcDbLine
 10
220.1676408554269
 20
199.0654994802391
 30
0.0
 11
220.1676408554269
 21
198.3469964802391
 31
0.0
  0
LINE
  5
74D3
330
1E
100
AcDbEntity
  8
製品
  6
Continuous
 62
     2
100
AcDbLine
 10
220.1676408554269
 20
199.0654994802391
 30
0.0
 11
220.308797855427
 21
199.1469964802393
 31
0.0
  0
LINE
  5
74D4
330
1E
100
AcDbEntity
  8
製品
  6
Continuous
 62
     2
100
AcDbLine
 10
220.6426408554269
 20
198.3469964802391
 30
0.0
 11
220.6426408554269
 21
199.0654994802391
 31
0.0
  0
LINE
  5
74D5
330
1E
100
AcDbEntity
  8
製品
  6
Continuous
 62
     2
100
AcDbLine
 10
219.6926408554268
 20
198.1469964802393
 30
0.0
 11
222.542640855427
 21
198.1469964802393
 31
0.0
  0
LINE
  5
74D6
330
1E
100
AcDbEntity
  8
製品
  6
Continuous
 62
     2
100
AcDbLine
 10
219.6926408554268
 20
198.3469964802391
 30
0.0
 11
222.542640855427
 21
198.3469964802391
 31
0.0
  0
ARC
  5
74D7
330
1E
100
AcDbEntity
  8
製品
  6
Continuous
 62
     2
100
AcDbCircle
 10
221.117640855427
 20
198.7719964802393
 30
0.0
 40
1.425
100
AcDbArc
 50
250.5287790000088
 51
289.4712209999912
  0
LINE
  5
74D8
330
1E
100
AcDbEntity
  8
製品
  6
Continuous
 62
     2
100
AcDbLine
 10
220.308797855427
 20
197.3469964802391
 30
0.0
 11
221.926483855427
 21
197.3469964802391
 31
0.0
  0
ARC
  5
74D9
330
1E
100
AcDbEntity
  8
製品
  6
Continuous
 62
     2
100
AcDbCircle
 10
221.117640855427
 20
197.7219964802391
 30
0.0
 40
1.425
100
AcDbArc
 50
70.52877900000878
 51
109.4712209999912
  0
LINE
  5
74DA
330
1E
100
AcDbEntity
  8
製品
  6
Continuous
 62
     2
100
AcDbLine
 10
220.308797855427
 20
199.1469964802393
 30
0.0
 11
221.926483855427
 21
199.1469964802393
 31
0.0
  0
LINE
  5
74DB
330
1E
100
AcDbEntity
  8
製品
  6
Continuous
 62
     2
100
AcDbLine
 10
223.9011928554269
 20
192.3869964802391
 30
0.0
 11
223.0526408554269
 21
192.3869964802391
 31
0.0
  0
ARC
  5
74DC
330
1E
100
AcDbEntity
  8
製品
  6
Continuous
 62
     2
100
AcDbCircle
 10
224.3926408554269
 20
192.5469964802389
 30
0.0
 40
0.7
100
AcDbArc
 50
123.0017439999728
 51
180.0
  0
ARC
  5
74DD
330
1E
100
AcDbEntity
  8
製品
  6
Continuous
 62
     2
100
AcDbCircle
 10
224.3926408554269
 20
192.5469964802389
 30
0.0
 40
0.5
100
AcDbArc
 50
123.0017450000245
 51
180.0
  0
ARC
  5
74DE
330
1E
100
AcDbEntity
  8
製品
  6
Continuous
 62
     2
100
AcDbCircle
 10
224.3560168554268
 20
192.7020694802397
 30
0.0
 40
0.35
100
AcDbArc
 50
123.0533649999812
 51
206.2958899999746
  0
LINE
  5
74DF
330
1E
100
AcDbEntity
  8
製品
  6
Continuous
 62
     2
100
AcDbLine
 10
224.6496408554269
 20
193.548576480239
 30
0.0
 11
224.794219855427
 21
193.4039964802389
 31
0.0
  0
LINE
  5
74E0
330
1E
100
AcDbEntity
  8
製品
  6
Continuous
 62
     2
100
AcDbLine
 10
224.794219855427
 20
193.4039964802389
 30
0.0
 11
224.1203088554268
 21
192.9663234802394
 31
0.0
  0
LINE
  5
74E1
330
1E
100
AcDbEntity
  8
製品
  6
Continuous
 62
     2
100
AcDbLine
 10
224.6496408554269
 20
193.548576480239
 30
0.0
 11
224.0113758554269
 21
193.134054480239
 31
0.0
  0
ARC
  5
74E2
330
1E
100
AcDbEntity
  8
製品
  6
Continuous
 62
     2
100
AcDbCircle
 10
224.328703855427
 20
191.8795764802391
 30
0.0
 40
1.650447
100
AcDbArc
 50
158.5434730000258
 51
172.4301669999833
  0
ARC
  5
74E3
330
1E
100
AcDbEntity
  8
製品
  6
Continuous
 62
     2
100
AcDbCircle
 10
224.328703855427
 20
193.6144174802396
 30
0.0
 40
1.650447
100
AcDbArc
 50
187.5698330000167
 51
201.4565269999741
  0
ARC
  5
74E4
330
1E
100
AcDbEntity
  8
製品
  6
Continuous
 62
     2
100
AcDbCircle
 10
222.1222888554269
 20
192.7469964802396
 30
0.0
 40
0.7203520000000001
100
AcDbArc
 50
338.5268949999781
 51
21.47310500002159
  0
ARC
  5
74E5
330
1E
100
AcDbEntity
  8
製品
  6
Continuous
 62
     2
100
AcDbCircle
 10
224.528703855427
 20
191.8795764802391
 30
0.0
 40
1.650447
100
AcDbArc
 50
158.5434730000258
 51
172.4301669999833
  0
ARC
  5
74E6
330
1E
100
AcDbEntity
  8
製品
  6
Continuous
 62
     2
100
AcDbCircle
 10
224.528703855427
 20
193.6144174802396
 30
0.0
 40
1.650447
100
AcDbArc
 50
187.5698330000167
 51
201.4565269999741
  0
ARC
  5
74E7
330
1E
100
AcDbEntity
  8
製品
  6
Continuous
 62
     2
100
AcDbCircle
 10
222.3222888554269
 20
192.7469964802396
 30
0.0
 40
0.7203520000000001
100
AcDbArc
 50
338.5268949999781
 51
21.47310500002159
  0
LINE
  5
74E8
330
1E
100
AcDbEntity
  8
製品
  6
Continuous
 62
     2
100
AcDbLine
 10
223.8926408554269
 20
192.5469964802389
 30
0.0
 11
223.0143198554269
 21
192.5469964802389
 31
0.0
  0
LINE
  5
74E9
330
1E
100
AcDbEntity
  8
製品
  6
Continuous
 62
     2
100
AcDbLine
 10
223.0526408554269
 20
188.9069964802395
 30
0.0
 11
224.0926408554269
 21
188.9069964802395
 31
0.0
  0
LINE
  5
74EA
330
1E
100
AcDbEntity
  8
製品
  6
Continuous
 62
     2
100
AcDbLine
 10
224.0926408554269
 20
188.9069964802395
 30
0.0
 11
224.0926408554269
 21
188.7533474802396
 31
0.0
  0
LINE
  5
74EB
330
1E
100
AcDbEntity
  8
製品
  6
Continuous
 62
     2
100
AcDbLine
 10
223.0926408554269
 20
188.5469964802389
 30
0.0
 11
224.042640855427
 21
188.5469964802389
 31
0.0
  0
ARC
  5
74EC
330
1E
100
AcDbEntity
  8
製品
  6
Continuous
 62
     2
100
AcDbCircle
 10
223.0926408554269
 20
188.9469964802394
 30
0.0
 40
0.4
100
AcDbArc
 50
180.0
 51
270.0
  0
ARC
  5
74ED
330
1E
100
AcDbEntity
  8
製品
  6
Continuous
 62
     2
100
AcDbCircle
 10
224.042640855427
 20
188.9469964802394
 30
0.0
 40
0.4
100
AcDbArc
 50
270.0
 51
0.0
  0
LINE
  5
74EE
330
1E
100
AcDbEntity
  8
製品
  6
Continuous
 62
     2
100
AcDbLine
 10
224.042640855427
 20
188.7469964802397
 30
0.0
 11
223.0926408554269
 21
188.7469964802397
 31
0.0
  0
LINE
  5
74EF
330
1E
100
AcDbEntity
  8
製品
  6
Continuous
 62
     2
100
AcDbLine
 10
224.4426408554268
 20
188.9469964802394
 30
0.0
 11
224.4426408554268
 21
190.9969964802396
 31
0.0
  0
LINE
  5
74F0
330
1E
100
AcDbEntity
  8
製品
  6
Continuous
 62
     2
100
AcDbLine
 10
224.242640855427
 20
188.9469964802394
 30
0.0
 11
224.242640855427
 21
190.9969964802396
 31
0.0
  0
ARC
  5
74F1
330
1E
100
AcDbEntity
  8
製品
  6
Continuous
 62
     2
100
AcDbCircle
 10
224.042640855427
 20
188.9469964802394
 30
0.0
 40
0.2
100
AcDbArc
 50
270.0
 51
0.0
  0
ARC
  5
74F2
330
1E
100
AcDbEntity
  8
製品
  6
Continuous
 62
     2
100
AcDbCircle
 10
223.0926408554269
 20
188.9469964802394
 30
0.0
 40
0.2
100
AcDbArc
 50
180.0
 51
270.0
  0
CIRCLE
  5
74F3
330
1E
100
AcDbEntity
  8
図面枠
  6
Continuous
 62
     2
100
AcDbCircle
 10
223.0526408554269
 20
190.6469964802393
 30
0.0
 40
0.3
  0
LINE
  5
74F4
330
1E
100
AcDbEntity
  8
製品
  6
Continuous
 62
     2
100
AcDbLine
 10
223.0526408554269
 20
192.3869964802391
 30
0.0
 11
223.0526408554269
 21
188.9069964802395
 31
0.0
  0
ARC
  5
74F5
330
1E
100
AcDbEntity
  8
製品
  6
Continuous
 62
     2
100
AcDbCircle
 10
221.242640855427
 20
190.9969964802396
 30
0.0
 40
3.2
100
AcDbArc
 50
0.0
 51
28.97153199999261
  0
ARC
  5
74F6
330
1E
100
AcDbEntity
  8
製品
  6
Continuous
 62
     2
100
AcDbCircle
 10
221.242640855427
 20
190.9969964802396
 30
0.0
 40
3.0
100
AcDbArc
 50
0.0
 51
31.10892299997646
  0
LINE
  5
74F7
330
1E
100
AcDbEntity
  8
製品
  6
Continuous
 62
     2
100
AcDbLine
 10
222.6926408554268
 20
192.0969964802391
 30
0.0
 11
222.6926408554268
 21
188.9469964802394
 31
0.0
  0
LINE
  5
74F8
330
1E
100
AcDbEntity
  8
製品
  6
Continuous
 62
     2
100
AcDbLine
 10
222.8926408554269
 20
192.0969964802391
 30
0.0
 11
222.8926408554269
 21
188.9469964802394
 31
0.0
  0
LINE
  5
74F9
330
1E
100
AcDbEntity
  8
製品
  6
Continuous
 62
     2
100
AcDbLine
 10
220.6426408554269
 20
195.8469964802391
 30
0.0
 11
221.5926408554269
 21
195.8469964802391
 31
0.0
  0
LINE
  5
74FA
330
1E
100
AcDbEntity
  8
製品
  6
Continuous
 62
     2
100
AcDbLine
 10
220.6426408554269
 20
197.3469964802391
 30
0.0
 11
220.6426408554269
 21
195.8469964802391
 31
0.0
  0
LINE
  5
74FB
330
1E
100
AcDbEntity
  8
製品
  6
Continuous
 62
     2
100
AcDbLine
 10
221.5926408554269
 20
195.8469964802391
 30
0.0
 11
221.5926408554269
 21
197.3469964802391
 31
0.0
  0
LINE
  5
74FC
330
1E
100
AcDbEntity
  8
製品
  6
Continuous
 62
     2
100
AcDbLine
 10
222.6926408554268
 20
197.9969964802396
 30
0.0
 11
222.6926408554268
 21
193.3969964802393
 31
0.0
  0
LINE
  5
74FD
330
1E
100
AcDbEntity
  8
製品
  6
Continuous
 62
     2
100
AcDbLine
 10
222.8926408554269
 20
197.9969964802396
 30
0.0
 11
222.8926408554269
 21
193.3969964802393
 31
0.0
  0
LINE
  5
74FE
330
1E
100
AcDbEntity
  8
製品
  6
PLINE3
 62
     2
100
AcDbLine
 10
221.117640855427
 20
195.8469964802391
 30
0.0
 11
221.117640855427
 21
208.7469964802397
 31
0.0
  0
LINE
  5
74FF
330
1E
100
AcDbEntity
  8
製品
  6
Continuous
 62
     2
100
AcDbLine
 10
220.6426408554269
 20
199.1469964802393
 30
0.0
 11
220.6426408554269
 21
208.7469964802397
 31
0.0
  0
LINE
  5
7500
330
1E
100
AcDbEntity
  8
製品
  6
Continuous
 62
     2
100
AcDbLine
 10
221.5926408554269
 20
208.7469964802397
 30
0.0
 11
221.5926408554269
 21
199.1469964802393
 31
0.0
  0
LINE
  5
7501
330
1E
100
AcDbEntity
  8
図面枠
  6
Continuous
 62
     2
100
AcDbLine
 10
223.0526408554269
 20
190.6469964802393
 30
0.0
 11
233.5026808554269
 21
208.7469964802397
 31
0.0
  0
LINE
  5
7502
330
1E
100
AcDbEntity
  8
製品
  6
Continuous
 62
     4
100
AcDbLine
 10
222.8926408554269
 20
241.7175294802394
 30
0.0
 11
222.8926408554269
 21
254.7675294802395
 31
0.0
  0
LINE
  5
7503
330
1E
100
AcDbEntity
  8
製品
  6
Continuous
 62
     4
100
AcDbLine
 10
224.0926408554269
 20
254.7675294802395
 30
0.0
 11
224.0926408554269
 21
241.7175294802394
 31
0.0
  0
TEXT
  5
7504
330
1E
100
AcDbEntity
  8
図面枠
  6
Continuous
 62
     2
100
AcDbText
 10
246.6023348554267
 20
295.8151204802391
 30
0.0
 40
3.0
  1
Ａ
 41
0.8
  7
ACAD
100
AcDbText
  0
LINE
  5
7505
330
1E
100
AcDbEntity
  8
図面枠
  6
Continuous
 62
     2
100
AcDbLine
 10
242.8926408554269
 20
301.7175294802393
 30
0.0
 11
242.8926408554269
 21
291.7175294802394
 31
0.0
  0
TEXT
  5
7506
330
1E
100
AcDbEntity
  8
図面枠
  6
Continuous
 62
     2
100
AcDbText
 10
236.3531278554269
 20
362.717509480239
 30
0.0
 40
3.0
  1
吊りボルト位置
 41
0.8
  7
ACAD
100
AcDbText
  0
LINE
  5
7507
330
1E
100
AcDbEntity
  8
図面枠
  6
Continuous
 62
     2
100
AcDbLine
 10
211.992640855427
 20
356.7175294802394
 30
0.0
 11
220.6528948554269
 21
371.7175294802394
 31
0.0
  0
LINE
  5
7508
330
1E
100
AcDbEntity
  8
製品
  6
Continuous
 62
     2
100
AcDbLine
 10
217.6647188554268
 20
332.7175294802394
 30
0.0
 11
220.1647188554268
 21
330.2175294802394
 31
0.0
  0
LINE
  5
7509
330
1E
100
AcDbEntity
  8
製品
  6
Continuous
 62
     2
100
AcDbLine
 10
216.2505058554268
 20
332.7175294802394
 30
0.0
 11
218.7505058554268
 21
330.2175294802394
 31
0.0
  0
LINE
  5
750A
330
1E
100
AcDbEntity
  8
製品
  6
Continuous
 62
     4
100
AcDbLine
 10
204.7926408554269
 20
315.6675294802392
 30
0.0
 11
237.8926408554268
 21
315.6675294802392
 31
0.0
  0
LINE
  5
750B
330
1E
100
AcDbEntity
  8
製品
  6
Continuous
 62
     4
100
AcDbLine
 10
237.8926408554268
 20
318.1675294802392
 30
0.0
 11
204.7926408554269
 21
318.1675294802392
 31
0.0
  0
LINE
  5
750C
330
1E
100
AcDbEntity
  8
製品
  6
Continuous
 62
     2
100
AcDbLine
 10
195.0373018554269
 20
332.7175294802394
 30
0.0
 11
197.5373018554269
 21
330.2175294802394
 31
0.0
  0
LINE
  5
750D
330
1E
100
AcDbEntity
  8
製品
  6
Continuous
 62
     2
100
AcDbLine
 10
193.6230888554269
 20
332.7175294802394
 30
0.0
 11
196.1230888554269
 21
330.2175294802394
 31
0.0
  0
LINE
  5
750E
330
1E
100
AcDbEntity
  8
製品
  6
Continuous
 62
     2
100
AcDbLine
 10
190.7946608554268
 20
332.7175294802394
 30
0.0
 11
193.2946608554268
 21
330.2175294802394
 31
0.0
  0
LINE
  5
750F
330
1E
100
AcDbEntity
  8
製品
  6
Continuous
 62
     2
100
AcDbLine
 10
192.208874855427
 20
332.7175294802394
 30
0.0
 11
194.708874855427
 21
330.2175294802394
 31
0.0
  0
LINE
  5
7510
330
1E
100
AcDbEntity
  8
製品
  6
Continuous
 62
     2
100
AcDbLine
 10
187.9662338554269
 20
332.7175294802394
 30
0.0
 11
190.4662338554269
 21
330.2175294802394
 31
0.0
  0
LINE
  5
7511
330
1E
100
AcDbEntity
  8
製品
  6
Continuous
 62
     2
100
AcDbLine
 10
183.7235938554267
 20
332.7175294802394
 30
0.0
 11
186.2235938554267
 21
330.2175294802394
 31
0.0
  0
LINE
  5
7512
330
1E
100
AcDbEntity
  8
製品
  6
Continuous
 62
     2
100
AcDbLine
 10
186.5520208554269
 20
332.7175294802394
 30
0.0
 11
189.0520208554269
 21
330.2175294802394
 31
0.0
  0
LINE
  5
7513
330
1E
100
AcDbEntity
  8
製品
  6
Continuous
 62
     2
100
AcDbLine
 10
185.137806855427
 20
332.7175294802394
 30
0.0
 11
187.637806855427
 21
330.2175294802394
 31
0.0
  0
CIRCLE
  5
7514
330
1E
100
AcDbEntity
  8
製品
  6
Continuous
 62
     2
100
AcDbCircle
 10
185.3926408554268
 20
325.2175294802394
 30
0.0
 40
0.3
  0
LINE
  5
7515
330
1E
100
AcDbEntity
  8
製品
  6
Continuous
 62
     2
100
AcDbLine
 10
189.3804478554268
 20
332.7175294802394
 30
0.0
 11
191.8804478554268
 21
330.2175294802394
 31
0.0
  0
LINE
  5
7516
330
1E
100
AcDbEntity
  8
製品
  6
Continuous
 62
     2
100
AcDbLine
 10
189.4806408554268
 20
322.5555294802391
 30
0.0
 11
189.4806408554268
 21
319.0555294802391
 31
0.0
  0
LINE
  5
7517
330
1E
100
AcDbEntity
  8
製品
  6
Continuous
 62
     2
100
AcDbLine
 10
187.9806408554268
 20
319.0555294802391
 30
0.0
 11
187.9806408554268
 21
322.5555294802391
 31
0.0
  0
LINE
  5
7518
330
1E
100
AcDbEntity
  8
製品
  6
Continuous
 62
     2
100
AcDbLine
 10
189.4806408554268
 20
319.0555294802391
 30
0.0
 11
187.9806408554268
 21
319.0555294802391
 31
0.0
  0
LINE
  5
7519
330
1E
100
AcDbEntity
  8
製品
  6
Continuous
 62
     2
100
AcDbLine
 10
179.4809528554269
 20
332.7175294802394
 30
0.0
 11
181.9809528554269
 21
330.2175294802394
 31
0.0
  0
LINE
  5
751A
330
1E
100
AcDbEntity
  8
製品
  6
Continuous
 62
     2
100
AcDbLine
 10
176.6525258554268
 20
332.7175294802394
 30
0.0
 11
179.1525258554268
 21
330.2175294802394
 31
0.0
  0
LINE
  5
751B
330
1E
100
AcDbEntity
  8
製品
  6
Continuous
 62
     2
100
AcDbLine
 10
178.0667388554268
 20
332.7175294802394
 30
0.0
 11
180.5667388554268
 21
330.2175294802394
 31
0.0
  0
LINE
  5
751C
330
1E
100
AcDbEntity
  8
製品
  6
Continuous
 62
     2
100
AcDbLine
 10
175.2383118554269
 20
332.7175294802394
 30
0.0
 11
177.7383118554269
 21
330.2175294802394
 31
0.0
  0
LINE
  5
751D
330
1E
100
AcDbEntity
  8
製品
  6
Continuous
 62
     2
100
AcDbLine
 10
182.3093798554269
 20
332.7175294802394
 30
0.0
 11
184.8093798554268
 21
330.2175294802394
 31
0.0
  0
LINE
  5
751E
330
1E
100
AcDbEntity
  8
製品
  6
Continuous
 62
     2
100
AcDbLine
 10
180.895165855427
 20
332.7175294802394
 30
0.0
 11
183.3951658554269
 21
330.2175294802394
 31
0.0
  0
CIRCLE
  5
751F
330
1E
100
AcDbEntity
  8
図面枠
  6
Continuous
 62
     2
100
AcDbCircle
 10
211.992640855427
 20
356.7175294802394
 30
0.0
 40
0.3
  0
LINE
  5
7520
330
1E
100
AcDbEntity
  8
製品
  6
Continuous
 62
     4
100
AcDbLine
 10
210.7926408554269
 20
356.7175294802394
 30
0.0
 11
211.992640855427
 21
356.7175294802394
 31
0.0
  0
LINE
  5
7521
330
1E
100
AcDbEntity
  8
製品
  6
Continuous
 62
     2
100
AcDbLine
 10
210.7926408554269
 20
355.1169984802393
 30
0.0
 11
211.992640855427
 21
356.3169984802391
 31
0.0
  0
LINE
  5
7522
330
1E
100
AcDbEntity
  8
製品
  6
Continuous
 62
     2
100
AcDbLine
 10
210.7926408554269
 20
356.6019234802391
 30
0.0
 11
210.908246855427
 21
356.7175294802394
 31
0.0
  0
LINE
  5
7523
330
1E
100
AcDbEntity
  8
製品
  6
Continuous
 62
     2
100
AcDbLine
 10
210.7926408554269
 20
350.6622264802393
 30
0.0
 11
211.992640855427
 21
351.8622264802391
 31
0.0
  0
LINE
  5
7524
330
1E
100
AcDbEntity
  8
製品
  6
Continuous
 62
     2
100
AcDbLine
 10
210.7926408554269
 20
352.1471504802396
 30
0.0
 11
211.992640855427
 21
353.3471504802394
 31
0.0
  0
LINE
  5
7525
330
1E
100
AcDbEntity
  8
製品
  6
Continuous
 62
     2
100
AcDbLine
 10
210.7926408554269
 20
344.7225294802395
 30
0.0
 11
211.992640855427
 21
345.9225294802393
 31
0.0
  0
LINE
  5
7526
330
1E
100
AcDbEntity
  8
製品
  6
Continuous
 62
     2
100
AcDbLine
 10
210.7926408554269
 20
349.1773014802395
 30
0.0
 11
211.992640855427
 21
350.3773014802393
 31
0.0
  0
LINE
  5
7527
330
1E
100
AcDbEntity
  8
製品
  6
Continuous
 62
     2
100
AcDbLine
 10
210.7926408554269
 20
340.2677564802391
 30
0.0
 11
211.992640855427
 21
341.4677564802389
 31
0.0
  0
LINE
  5
7528
330
1E
100
AcDbEntity
  8
製品
  6
Continuous
 62
     2
100
AcDbLine
 10
210.7926408554269
 20
341.7526804802394
 30
0.0
 11
211.992640855427
 21
342.9526804802392
 31
0.0
  0
LINE
  5
7529
330
1E
100
AcDbEntity
  8
製品
  6
Continuous
 62
     2
100
AcDbLine
 10
210.7926408554269
 20
334.3280594802393
 30
0.0
 11
211.992640855427
 21
335.5280594802391
 31
0.0
  0
LINE
  5
752A
330
1E
100
AcDbEntity
  8
製品
  6
Continuous
 62
     2
100
AcDbLine
 10
210.7926408554269
 20
335.8129834802396
 30
0.0
 11
211.992640855427
 21
337.0129834802394
 31
0.0
  0
LINE
  5
752B
330
1E
100
AcDbEntity
  8
製品
  6
Continuous
 62
     2
100
AcDbLine
 10
210.7926408554269
 20
337.2979084802393
 30
0.0
 11
211.992640855427
 21
338.4979084802392
 31
0.0
  0
LINE
  5
752C
330
1E
100
AcDbEntity
  8
製品
  6
Continuous
 62
     2
100
AcDbLine
 10
210.7926408554269
 20
338.7828324802397
 30
0.0
 11
211.992640855427
 21
339.9828324802395
 31
0.0
  0
LINE
  5
752D
330
1E
100
AcDbEntity
  8
製品
  6
Continuous
 62
     4
100
AcDbLine
 10
205.792640855427
 20
340.7175294802394
 30
0.0
 11
201.8926408554269
 21
340.7175294802394
 31
0.0
  0
LINE
  5
752E
330
1E
100
AcDbEntity
  8
製品
  6
Continuous
 62
     2
100
AcDbLine
 10
210.7926408554269
 20
343.2376044802397
 30
0.0
 11
211.992640855427
 21
344.4376044802396
 31
0.0
  0
LINE
  5
752F
330
1E
100
AcDbEntity
  8
製品
  6
Continuous
 62
     4
100
AcDbLine
 10
210.7926408554269
 20
348.6675294802392
 30
0.0
 11
210.7926408554269
 21
356.7175294802394
 31
0.0
  0
LINE
  5
7530
330
1E
100
AcDbEntity
  8
製品
  6
Continuous
 62
     4
100
AcDbLine
 10
211.992640855427
 20
356.7175294802394
 30
0.0
 11
211.992640855427
 21
348.6675294802392
 31
0.0
  0
LINE
  5
7531
330
1E
100
AcDbEntity
  8
製品
  6
Continuous
 62
     2
100
AcDbLine
 10
210.7926408554269
 20
353.632074480239
 30
0.0
 11
211.992640855427
 21
354.8320744802397
 31
0.0
  0
LINE
  5
7532
330
1E
100
AcDbEntity
  8
製品
  6
Continuous
 62
     2
100
AcDbLine
 10
214.8362918554269
 20
332.7175294802394
 30
0.0
 11
217.3362918554269
 21
330.2175294802394
 31
0.0
  0
LINE
  5
7533
330
1E
100
AcDbEntity
  8
製品
  6
Continuous
 62
     2
100
AcDbLine
 10
210.7926408554269
 20
328.3883624802395
 30
0.0
 11
211.992640855427
 21
329.5883624802393
 31
0.0
  0
LINE
  5
7534
330
1E
100
AcDbEntity
  8
製品
  6
Continuous
 62
     2
100
AcDbLine
 10
210.5936508554269
 20
332.7175294802394
 30
0.0
 11
213.0936508554269
 21
330.2175294802394
 31
0.0
  0
LINE
  5
7535
330
1E
100
AcDbEntity
  8
製品
  6
Continuous
 62
     2
100
AcDbLine
 10
206.3510108554269
 20
332.7175294802394
 30
0.0
 11
208.8510108554269
 21
330.2175294802394
 31
0.0
  0
LINE
  5
7536
330
1E
100
AcDbEntity
  8
製品
  6
Continuous
 62
     2
100
AcDbLine
 10
209.1794378554268
 20
332.7175294802394
 30
0.0
 11
211.6794378554268
 21
330.2175294802394
 31
0.0
  0
LINE
  5
7537
330
1E
100
AcDbEntity
  8
製品
  6
Continuous
 62
     2
100
AcDbLine
 10
207.7652238554269
 20
332.7175294802394
 30
0.0
 11
210.265223855427
 21
330.2175294802394
 31
0.0
  0
LINE
  5
7538
330
1E
100
AcDbEntity
  8
製品
  6
Continuous
 62
     2
100
AcDbLine
 10
210.7926408554269
 20
323.9335894802391
 30
0.0
 11
211.992640855427
 21
325.1335894802389
 31
0.0
  0
LINE
  5
7539
330
1E
100
AcDbEntity
  8
製品
  6
Continuous
 62
     2
100
AcDbLine
 10
210.7926408554269
 20
325.4185144802388
 30
0.0
 11
211.992640855427
 21
326.6185144802396
 31
0.0
  0
LINE
  5
753A
330
1E
100
AcDbEntity
  8
製品
  6
Continuous
 62
     2
100
AcDbLine
 10
210.7926408554269
 20
326.9034384802392
 30
0.0
 11
211.992640855427
 21
328.103438480239
 31
0.0
  0
LINE
  5
753B
330
1E
100
AcDbEntity
  8
製品
  6
Continuous
 62
     2
100
AcDbLine
 10
202.1083698554269
 20
332.7175294802394
 30
0.0
 11
204.6083698554269
 21
330.2175294802394
 31
0.0
  0
LINE
  5
753C
330
1E
100
AcDbEntity
  8
製品
  6
Continuous
 62
     2
100
AcDbLine
 10
199.2799428554269
 20
332.7175294802394
 30
0.0
 11
201.7799428554269
 21
330.2175294802394
 31
0.0
  0
LINE
  5
753D
330
1E
100
AcDbEntity
  8
製品
  6
Continuous
 62
     2
100
AcDbLine
 10
200.694155855427
 20
332.7175294802394
 30
0.0
 11
203.194155855427
 21
330.2175294802394
 31
0.0
  0
LINE
  5
753E
330
1E
100
AcDbEntity
  8
製品
  6
Continuous
 62
     2
100
AcDbLine
 10
204.936796855427
 20
332.7175294802394
 30
0.0
 11
207.436796855427
 21
330.2175294802394
 31
0.0
  0
LINE
  5
753F
330
1E
100
AcDbEntity
  8
製品
  6
Continuous
 62
     2
100
AcDbLine
 10
203.5225828554269
 20
332.7175294802394
 30
0.0
 11
206.0225828554269
 21
330.2175294802394
 31
0.0
  0
LINE
  5
7540
330
1E
100
AcDbEntity
  8
製品
  6
Continuous
 62
     2
100
AcDbLine
 10
210.9662778554268
 20
318.1675294802392
 30
0.0
 11
211.992640855427
 21
319.1938924802391
 31
0.0
  0
LINE
  5
7541
330
1E
100
AcDbEntity
  8
製品
  6
Continuous
 62
     2
100
AcDbLine
 10
210.7926408554269
 20
319.4788174802391
 30
0.0
 11
211.992640855427
 21
320.6788174802389
 31
0.0
  0
LINE
  5
7542
330
1E
100
AcDbEntity
  8
製品
  6
Continuous
 62
     2
100
AcDbLine
 10
210.7926408554269
 20
320.9637414802394
 30
0.0
 11
211.992640855427
 21
322.1637414802392
 31
0.0
  0
LINE
  5
7543
330
1E
100
AcDbEntity
  8
製品
  6
Continuous
 62
     2
100
AcDbLine
 10
210.7926408554269
 20
315.0240444802396
 30
0.0
 11
211.436125855427
 21
315.6675294802392
 31
0.0
  0
LINE
  5
7544
330
1E
100
AcDbEntity
  8
製品
  6
Continuous
 62
     2
100
AcDbLine
 10
210.7926408554269
 20
313.5391204802393
 30
0.0
 11
211.992640855427
 21
314.7391204802391
 31
0.0
  0
CIRCLE
  5
7545
330
1E
100
AcDbEntity
  8
製品
  6
Continuous
 62
     2
100
AcDbCircle
 10
202.6706408554269
 20
315.2175294802394
 30
0.0
 40
0.25
  0
LINE
  5
7546
330
1E
100
AcDbEntity
  8
製品
  6
PLINE3
 62
     2
100
AcDbLine
 10
202.6706408554269
 20
316.4168624802389
 30
0.0
 11
202.6706408554269
 21
313.8705204802393
 31
0.0
  0
LINE
  5
7547
330
1E
100
AcDbEntity
  8
製品
  6
Continuous
 62
     2
100
AcDbLine
 10
203.6706408554269
 20
314.2175294802393
 30
0.0
 11
203.6706408554269
 21
316.2175294802394
 31
0.0
  0
LINE
  5
7548
330
1E
100
AcDbEntity
  8
製品
  6
Continuous
 62
     2
100
AcDbLine
 10
200.1706408554269
 20
316.2175294802394
 30
0.0
 11
200.1706408554269
 21
314.2175294802393
 31
0.0
  0
LINE
  5
7549
330
1E
100
AcDbEntity
  8
製品
  6
Continuous
 62
     2
100
AcDbLine
 10
200.1706408554269
 20
314.2175294802393
 30
0.0
 11
203.6706408554269
 21
314.2175294802393
 31
0.0
  0
LINE
  5
754A
330
1E
100
AcDbEntity
  8
製品
  6
Continuous
 62
     2
100
AcDbLine
 10
203.6706408554269
 20
316.2175294802394
 30
0.0
 11
200.1706408554269
 21
316.2175294802394
 31
0.0
  0
LINE
  5
754B
330
1E
100
AcDbEntity
  8
製品
  6
PLINE3
 62
     2
100
AcDbLine
 10
204.1396498554268
 20
315.2175294802394
 30
0.0
 11
199.532123855427
 21
315.2175294802394
 31
0.0
  0
LINE
  5
754C
330
1E
100
AcDbEntity
  8
製品
  6
Continuous
 62
     4
100
AcDbLine
 10
204.7926408554269
 20
318.1675294802392
 30
0.0
 11
204.7926408554269
 21
315.6675294802392
 31
0.0
  0
LINE
  5
754D
330
1E
100
AcDbEntity
  8
製品
  6
Continuous
 62
     2
100
AcDbLine
 10
200.330640855427
 20
316.2175294802394
 30
0.0
 11
200.330640855427
 21
324.1555294802395
 31
0.0
  0
LINE
  5
754E
330
1E
100
AcDbEntity
  8
製品
  6
Continuous
 62
     4
100
AcDbLine
 10
201.8926408554269
 20
330.2175294802394
 30
0.0
 11
201.8926408554269
 21
318.1675294802392
 31
0.0
  0
LINE
  5
754F
330
1E
100
AcDbEntity
  8
製品
  6
Continuous
 62
     4
100
AcDbLine
 10
205.792640855427
 20
318.1675294802392
 30
0.0
 11
205.792640855427
 21
330.2175294802394
 31
0.0
  0
LINE
  5
7550
330
1E
100
AcDbEntity
  8
製品
  6
Continuous
 62
     4
100
AcDbLine
 10
211.992640855427
 20
330.2175294802394
 30
0.0
 11
211.992640855427
 21
318.1675294802392
 31
0.0
  0
LINE
  5
7551
330
1E
100
AcDbEntity
  8
製品
  6
Continuous
 62
     2
100
AcDbLine
 10
210.7926408554269
 20
322.4486654802397
 30
0.0
 11
211.992640855427
 21
323.6486654802395
 31
0.0
  0
LINE
  5
7552
330
1E
100
AcDbEntity
  8
製品
  6
Continuous
 62
     4
100
AcDbLine
 10
210.7926408554269
 20
318.1675294802392
 30
0.0
 11
210.7926408554269
 21
330.2175294802394
 31
0.0
  0
LINE
  5
7553
330
1E
100
AcDbEntity
  8
製品
  6
Continuous
 62
     2
100
AcDbLine
 10
213.422077855427
 20
332.7175294802394
 30
0.0
 11
215.922077855427
 21
330.2175294802394
 31
0.0
  0
LINE
  5
7554
330
1E
100
AcDbEntity
  8
製品
  6
Continuous
 62
     2
100
AcDbLine
 10
212.0078648554267
 20
332.7175294802394
 30
0.0
 11
214.5078648554267
 21
330.2175294802394
 31
0.0
  0
LINE
  5
7555
330
1E
100
AcDbEntity
  8
製品
  6
Continuous
 62
     2
100
AcDbLine
 10
210.7926408554269
 20
307.5994234802394
 30
0.0
 11
211.992640855427
 21
308.7994234802393
 31
0.0
  0
LINE
  5
7556
330
1E
100
AcDbEntity
  8
製品
  6
Continuous
 62
     2
100
AcDbLine
 10
210.7926408554269
 20
309.0843474802389
 30
0.0
 11
211.992640855427
 21
310.2843474802396
 31
0.0
  0
LINE
  5
7557
330
1E
100
AcDbEntity
  8
製品
  6
Continuous
 62
     2
100
AcDbLine
 10
210.7926408554269
 20
310.5692714802392
 30
0.0
 11
211.992640855427
 21
311.769271480239
 31
0.0
  0
LINE
  5
7558
330
1E
100
AcDbEntity
  8
製品
  6
Continuous
 62
     2
100
AcDbLine
 10
210.7926408554269
 20
303.1446504802391
 30
0.0
 11
211.992640855427
 21
304.3446504802389
 31
0.0
  0
LINE
  5
7559
330
1E
100
AcDbEntity
  8
製品
  6
Continuous
 62
     2
100
AcDbLine
 10
210.7926408554269
 20
304.6295744802394
 30
0.0
 11
211.992640855427
 21
305.8295744802392
 31
0.0
  0
LINE
  5
755A
330
1E
100
AcDbEntity
  8
製品
  6
Continuous
 62
     2
100
AcDbLine
 10
210.7926408554269
 20
306.1144984802397
 30
0.0
 11
211.992640855427
 21
307.3144984802395
 31
0.0
  0
LINE
  5
755B
330
1E
100
AcDbEntity
  8
製品
  6
Continuous
 62
     2
100
AcDbLine
 10
210.7926408554269
 20
312.0541954802395
 30
0.0
 11
211.992640855427
 21
313.2541954802393
 31
0.0
  0
LINE
  5
755C
330
1E
100
AcDbEntity
  8
製品
  6
Continuous
 62
     2
100
AcDbLine
 10
197.8657288554268
 20
332.7175294802394
 30
0.0
 11
200.3657288554268
 21
330.2175294802394
 31
0.0
  0
LINE
  5
755D
330
1E
100
AcDbEntity
  8
製品
  6
Continuous
 62
     2
100
AcDbLine
 10
196.4515158554268
 20
332.7175294802394
 30
0.0
 11
198.9515158554268
 21
330.2175294802394
 31
0.0
  0
LINE
  5
755E
330
1E
100
AcDbEntity
  8
製品
  6
Continuous
 62
     4
100
AcDbLine
 10
201.8926408554269
 20
340.7175294802394
 30
0.0
 11
201.8926408554269
 21
332.7175294802394
 31
0.0
  0
LINE
  5
755F
330
1E
100
AcDbEntity
  8
製品
  6
Continuous
 62
     4
100
AcDbLine
 10
210.7926408554269
 20
332.7175294802394
 30
0.0
 11
210.7926408554269
 21
346.1675294802392
 31
0.0
  0
LINE
  5
7560
330
1E
100
AcDbEntity
  8
製品
  6
Continuous
 62
     4
100
AcDbLine
 10
211.992640855427
 20
346.1675294802392
 30
0.0
 11
211.992640855427
 21
332.7175294802394
 31
0.0
  0
LINE
  5
7561
330
1E
100
AcDbEntity
  8
製品
  6
Continuous
 62
     4
100
AcDbLine
 10
205.792640855427
 20
332.7175294802394
 30
0.0
 11
205.792640855427
 21
340.7175294802394
 31
0.0
  0
LINE
  5
7562
330
1E
100
AcDbEntity
  8
製品
  6
Continuous
 62
     2
100
AcDbLine
 10
210.7926408554269
 20
332.843135480239
 30
0.0
 11
211.992640855427
 21
334.0431354802397
 31
0.0
  0
LINE
  5
7563
330
1E
100
AcDbEntity
  8
図面枠
  6
Continuous
 62
     2
100
AcDbLine
 10
236.353117855427
 20
361.7175294802394
 30
0.0
 11
257.4231178554269
 21
361.7175294802394
 31
0.0
  0
LINE
  5
7564
330
1E
100
AcDbEntity
  8
図面枠
  6
Continuous
 62
     2
100
AcDbLine
 10
238.088793855427
 20
341.7175294802394
 30
0.0
 11
250.1287938554269
 21
341.7175294802394
 31
0.0
  0
TEXT
  5
7565
330
1E
100
AcDbEntity
  8
図面枠
  6
Continuous
 62
     2
100
AcDbText
 10
238.0887538554268
 20
342.7175254802389
 30
0.0
 40
3.0
  1
補強野縁
 41
0.8
  7
ACAD
100
AcDbText
  0
TEXT
  5
7566
330
1E
100
AcDbEntity
  8
図面枠
  6
Continuous
 62
     2
100
AcDbText
 10
220.6528718554269
 20
372.717509480239
 30
0.0
 40
3.0
  1
補強野縁受け
 41
0.8
  7
ACAD
100
AcDbText
  0
CIRCLE
  5
7567
330
1E
100
AcDbEntity
  8
図面枠
  6
Continuous
 62
     2
100
AcDbCircle
 10
223.492640855427
 20
339.4425294802397
 30
0.0
 40
0.3
  0
LINE
  5
7568
330
1E
100
AcDbEntity
  8
製品
  6
Continuous
 62
     2
100
AcDbLine
 10
222.7855338554268
 20
338.7354224802396
 30
0.0
 11
224.199747855427
 21
340.149636480239
 31
0.0
  0
LINE
  5
7569
330
1E
100
AcDbEntity
  8
製品
  6
Continuous
 62
     2
100
AcDbLine
 10
224.199747855427
 20
338.7354224802396
 30
0.0
 11
222.7855338554268
 21
340.149636480239
 31
0.0
  0
CIRCLE
  5
756A
330
1E
100
AcDbEntity
  8
製品
  6
Continuous
 62
     4
100
AcDbCircle
 10
223.492640855427
 20
339.4425294802397
 30
0.0
 40
1.0
  0
LINE
  5
756B
330
1E
100
AcDbEntity
  8
製品
  6
Continuous
 62
     4
100
AcDbLine
 10
222.8926408554269
 20
348.6675294802392
 30
0.0
 11
222.8926408554269
 21
361.7175294802394
 31
0.0
  0
LINE
  5
756C
330
1E
100
AcDbEntity
  8
製品
  6
Continuous
 62
     4
100
AcDbLine
 10
224.0926408554269
 20
361.7175294802394
 30
0.0
 11
224.0926408554269
 21
348.6675294802392
 31
0.0
  0
LINE
  5
756D
330
1E
100
AcDbEntity
  8
図面枠
  6
Continuous
 62
     2
100
AcDbLine
 10
223.492640855427
 20
339.4425294802397
 30
0.0
 11
236.353117855427
 21
361.7175294802394
 31
0.0
  0
LINE
  5
756E
330
1E
100
AcDbEntity
  8
図面枠
  6
Continuous
 62
     2
100
AcDbLine
 10
220.6528948554269
 20
371.7175294802394
 30
0.0
 11
238.7128948554269
 21
371.7175294802394
 31
0.0
  0
CIRCLE
  5
756F
330
1E
100
AcDbEntity
  8
図面枠
  6
Continuous
 62
     2
100
AcDbCircle
 10
232.8926408554269
 20
332.7175294802394
 30
0.0
 40
0.3
  0
LINE
  5
7570
330
1E
100
AcDbEntity
  8
製品
  6
Continuous
 62
     4
100
AcDbLine
 10
232.8926408554269
 20
332.7175294802394
 30
0.0
 11
232.8926408554269
 21
330.2175294802394
 31
0.0
  0
LINE
  5
7571
330
1E
100
AcDbEntity
  8
製品
  6
Continuous
 62
     2
100
AcDbLine
 10
228.9784278554269
 20
332.7175294802394
 30
0.0
 11
231.4784278554268
 21
330.2175294802394
 31
0.0
  0
LINE
  5
7572
330
1E
100
AcDbEntity
  8
製品
  6
Continuous
 62
     2
100
AcDbLine
 10
230.3869838554269
 20
332.7175294802394
 30
0.0
 11
232.8869838554269
 21
330.2175294802394
 31
0.0
  0
LINE
  5
7573
330
1E
100
AcDbEntity
  8
製品
  6
Continuous
 62
     2
100
AcDbLine
 10
231.806854855427
 20
332.7175294802394
 30
0.0
 11
232.8926408554269
 21
331.6317424802394
 31
0.0
  0
LINE
  5
7574
330
1E
100
AcDbEntity
  8
製品
  6
Continuous
 62
     2
100
AcDbLine
 10
226.1499998554268
 20
332.7175294802394
 30
0.0
 11
228.6499998554268
 21
330.2175294802394
 31
0.0
  0
LINE
  5
7575
330
1E
100
AcDbEntity
  8
製品
  6
Continuous
 62
     2
100
AcDbLine
 10
221.9073598554269
 20
332.7175294802394
 30
0.0
 11
224.4073598554269
 21
330.2175294802394
 31
0.0
  0
LINE
  5
7576
330
1E
100
AcDbEntity
  8
製品
  6
Continuous
 62
     2
100
AcDbLine
 10
224.7357868554268
 20
332.7175294802394
 30
0.0
 11
227.2357868554268
 21
330.2175294802394
 31
0.0
  0
LINE
  5
7577
330
1E
100
AcDbEntity
  8
製品
  6
Continuous
 62
     2
100
AcDbLine
 10
223.3215728554269
 20
332.7175294802394
 30
0.0
 11
225.8215728554269
 21
330.2175294802394
 31
0.0
  0
LINE
  5
7578
330
1E
100
AcDbEntity
  8
製品
  6
Continuous
 62
     2
100
AcDbLine
 10
220.493145855427
 20
332.7175294802394
 30
0.0
 11
222.993145855427
 21
330.2175294802394
 31
0.0
  0
LINE
  5
7579
330
1E
100
AcDbEntity
  8
製品
  6
Continuous
 62
     2
100
AcDbLine
 10
219.078932855427
 20
332.7175294802394
 30
0.0
 11
221.578932855427
 21
330.2175294802394
 31
0.0
  0
LINE
  5
757A
330
1E
100
AcDbEntity
  8
製品
  6
Continuous
 62
     4
100
AcDbLine
 10
222.8926408554269
 20
318.1675294802392
 30
0.0
 11
222.8926408554269
 21
330.2175294802394
 31
0.0
  0
LINE
  5
757B
330
1E
100
AcDbEntity
  8
製品
  6
Continuous
 62
     4
100
AcDbLine
 10
224.0926408554269
 20
330.2175294802394
 30
0.0
 11
224.0926408554269
 21
318.1675294802392
 31
0.0
  0
LINE
  5
757C
330
1E
100
AcDbEntity
  8
製品
  6
Continuous
 62
     2
100
AcDbLine
 10
227.5642138554269
 20
332.7175294802394
 30
0.0
 11
230.064213855427
 21
330.2175294802394
 31
0.0
  0
LINE
  5
757D
330
1E
100
AcDbEntity
  8
図面枠
  6
Continuous
 62
     2
100
AcDbLine
 10
232.8926408554269
 20
332.7175294802394
 30
0.0
 11
238.088793855427
 21
341.7175294802394
 31
0.0
  0
LINE
  5
757E
330
1E
100
AcDbEntity
  8
製品
  6
Continuous
 62
     4
100
AcDbLine
 10
222.8926408554269
 20
332.7175294802394
 30
0.0
 11
222.8926408554269
 21
346.1675294802392
 31
0.0
  0
LINE
  5
757F
330
1E
100
AcDbEntity
  8
製品
  6
Continuous
 62
     4
100
AcDbLine
 10
224.0926408554269
 20
346.1675294802392
 30
0.0
 11
224.0926408554269
 21
332.7175294802394
 31
0.0
  0
DIMENSION
  5
75CC
330
1E
100
AcDbEntity
  8
寸法
  6
Continuous
100
AcDbDimension
  2
*D4
 10
201.1926408554268
 20
175.3469964802393
 30
0.0
 11
177.8926408554268
 21
177.8469964802393
 31
0.0
 70
    32
  1
L
 71
     5
 42
46.59999999999991
  3
AutoCAD
100
AcDbAlignedDimension
 13
154.5926408554269
 23
184.6469964802393
 33
0.0
 14
201.1926408554268
 24
184.6469964802393
 34
0.0
100
AcDbRotatedDimension
  0
DIMENSION
  5
75D9
330
1E
100
AcDbEntity
  8
寸法
  6
Continuous
100
AcDbDimension
  2
*D5
 10
201.1926408554268
 20
128.2197964802392
 30
0.0
 11
177.8926408554268
 21
130.7197964802392
 31
0.0
 70
    32
  1
W
 71
     5
 42
46.59999999999991
  3
AutoCAD
100
AcDbAlignedDimension
 13
154.5926408554269
 23
139.2197964802392
 33
0.0
 14
201.1926408554268
 24
139.2197964802392
 34
0.0
100
AcDbRotatedDimension
  0
DIMENSION
  5
75F8
330
1E
100
AcDbEntity
  8
寸法
  6
Continuous
100
AcDbDimension
  2
*D6
 10
201.3926408554269
 20
289.4777715036721
 30
0.0
 11
177.8926408554268
 21
291.9777715036721
 31
0.0
 70
    32
  1
L
 71
     5
 42
47.0
  3
AutoCAD
100
AcDbAlignedDimension
 13
154.3926408554268
 23
291.7175294802394
 33
0.0
 14
201.3926408554269
 24
291.7175294802394
 34
0.0
100
AcDbRotatedDimension
  0
ENDSEC
  0
SECTION
  2
OBJECTS
  0
DICTIONARY
  5
C
330
0
100
AcDbDictionary
281
     1
  3
ACAD_COLOR
350
76BA
  3
ACAD_GROUP
350
D
  3
ACAD_LAYOUT
350
19
  3
ACAD_MATERIAL
350
76A5
  3
ACAD_MLINESTYLE
350
16
  3
ACAD_PLOTSETTINGS
350
18
  3
ACAD_PLOTSTYLENAME
350
E
  3
ACAD_TABLESTYLE
350
76BB
  3
ACAD_VISUALSTYLE
350
76A9
  3
AcDbVariableDictionary
350
169
  3
DWGPROPS
350
76FF
  0
DICTIONARY
  5
76DE
330
8
100
AcDbDictionary
280
     1
281
     1
  0
DICTIONARY
  5
175
330
2
100
AcDbDictionary
280
     1
281
     1
  3
ACAD_LAYERFILTERS
360
185
  3
ACAD_LAYERSTATES
360
176
  0
DICTIONARY
  5
28B
330
1E
100
AcDbDictionary
280
     1
281
     1
  3
ACAD_LAYOUTSELFREF
360
769E
  0
DICTIONARY
  5
28D
330
1A
100
AcDbDictionary
280
     1
281
     1
  3
ACAD_LAYOUTSELFREF
360
769D
  0
DICTIONARY
  5
76BA
102
{ACAD_REACTORS
330
C
102
}
330
C
100
AcDbDictionary
281
     1
  0
DICTIONARY
  5
D
102
{ACAD_REACTORS
330
C
102
}
330
C
100
AcDbDictionary
281
     1
  0
DICTIONARY
  5
19
102
{ACAD_REACTORS
330
C
102
}
330
C
100
AcDbDictionary
281
     1
  3
Model
350
21
  3
ﾚｲｱｳﾄ1
350
1D
  0
DICTIONARY
  5
76A5
102
{ACAD_REACTORS
330
C
102
}
330
C
100
AcDbDictionary
281
     1
  3
ByBlock
350
76A7
  3
ByLayer
350
76A6
  3
Global
350
76A8
  0
DICTIONARY
  5
16
102
{ACAD_REACTORS
330
C
102
}
330
C
100
AcDbDictionary
281
     1
  3
Standard
350
17
  0
DICTIONARY
  5
18
102
{ACAD_REACTORS
330
C
102
}
330
C
100
AcDbDictionary
281
     1
  0
ACDBDICTIONARYWDFLT
  5
E
102
{ACAD_REACTORS
330
C
102
}
330
C
100
AcDbDictionary
281
     1
  3
Normal
350
F
100
AcDbDictionaryWithDefault
340
F
1001
ACAD
1000
TREAT_AS_HARD
1070
     0
1000
TREAT_AS_HARD
1070
     0
1000
TREAT_AS_HARD
1070
     0
1000
TREAT_AS_HARD
1070
     0
1000
TREAT_AS_HARD
1070
     0
1000
TREAT_AS_HARD
1070
     0
1000
TREAT_AS_HARD
1070
     0
1000
TREAT_AS_HARD
1070
     0
1000
TREAT_AS_HARD
1070
     0
1000
TREAT_AS_HARD
1070
     0
1000
TREAT_AS_HARD
1070
     0
1000
TREAT_AS_HARD
1070
     0
1000
TREAT_AS_HARD
1070
     0
1000
TREAT_AS_HARD
1070
     0
1000
TREAT_AS_HARD
1070
     0
1000
TREAT_AS_HARD
1070
     0
1000
TREAT_AS_HARD
1070
     0
1000
TREAT_AS_HARD
1070
     0
1000
TREAT_AS_HARD
1070
     0
1000
TREAT_AS_HARD
1070
     0
1000
TREAT_AS_HARD
1070
     0
1000
TREAT_AS_HARD
1070
     0
1000
TREAT_AS_HARD
1070
     0
1000
TREAT_AS_HARD
1070
     0
1000
TREAT_AS_HARD
1070
     0
1000
TREAT_AS_HARD
1070
     0
1000
TREAT_AS_HARD
1070
     0
1000
TREAT_AS_HARD
1070
     0
1000
TREAT_AS_HARD
1070
     0
1000
TREAT_AS_HARD
1070
     0
1000
TREAT_AS_HARD
1070
     0
  0
DICTIONARY
  5
76BB
102
{ACAD_REACTORS
330
C
102
}
330
C
100
AcDbDictionary
281
     1
  3
Standard
350
76BC
  0
DICTIONARY
  5
76A9
102
{ACAD_REACTORS
330
C
102
}
330
C
100
AcDbDictionary
281
     1
  3
2dWireframe
350
76AF
  3
3D Hidden
350
76B1
  3
3dWireframe
350
76B0
  3
Basic
350
76AE
  3
Brighten
350
76B5
  3
ColorChange
350
76B9
  3
Conceptual
350
76B2
  3
Dim
350
76B4
  3
Facepattern
350
76B8
  3
Flat
350
76AA
  3
FlatWithEdges
350
76AB
  3
Gouraud
350
76AC
  3
GouraudWithEdges
350
76AD
  3
Linepattern
350
76B7
  3
Realistic
350
76B3
  3
Thicken
350
76B6
  0
DICTIONARY
  5
169
102
{ACAD_REACTORS
330
C
102
}
330
C
100
AcDbDictionary
281
     1
  3
CTABLESTYLE
350
76F6
  3
DIMASSOC
350
16A
  3
INDEXCTL
350
76F8
  3
SORTENTS
350
76F7
  0
XRECORD
  5
76FF
102
{ACAD_REACTORS
330
C
102
}
330
C
100
AcDbXrecord
280
     1
  1
DWGPROPS COOKIE
  2

  3

  4

  6

  7

  8
HON1000AV
  9

300
=
301
=
302
=
303
=
304
=
305
=
306
=
307
=
308
=
309
=
 40
0.2451024768518518
 41
2454316.693457674
 42
2454735.62628779
  1

 90
        0
  0
DICTIONARY
  5
185
102
{ACAD_REACTORS
330
175
102
}
330
175
100
AcDbDictionary
280
     1
281
     1
  0
DICTIONARY
  5
176
102
{ACAD_REACTORS
330
175
102
}
330
175
100
AcDbDictionary
281
     1
  3
ACAD
350
177
  0
XRECORD
  5
769E
102
{ACAD_REACTORS
330
28B
102
}
330
28B
100
AcDbXrecord
280
     1
340
1E
  0
XRECORD
  5
769D
102
{ACAD_REACTORS
330
28D
102
}
330
28D
100
AcDbXrecord
280
     1
340
1A
  0
LAYOUT
  5
21
102
{ACAD_XDICTIONARY
360
7702
102
}
102
{ACAD_REACTORS
330
19
102
}
330
19
100
AcDbPlotSettings
  1

  2
\\MEISEI-1\EPSON Stylus Photo EX3
  4

  6

 40
0.0
 41
0.0
 42
0.0
 43
0.0
 44
0.0
 45
0.0
 46
0.0
 47
0.0
 48
0.0
 49
0.0
140
0.0
141
0.0
142
1.0
143
1.0
 70
  1712
 72
     0
 73
     0
 74
     0
  7

 75
     0
147
1.0
148
0.0
149
0.0
100
AcDbLayout
  1
Model
 70
     1
 71
     0
 10
0.0
 20
0.0
 11
12.0
 21
9.0
 12
0.0
 22
0.0
 32
0.0
 14
0.0
 24
0.0
 34
0.0
 15
0.0
 25
0.0
 35
0.0
146
0.0
 13
0.0
 23
0.0
 33
0.0
 16
1.0
 26
0.0
 36
0.0
 17
0.0
 27
1.0
 37
0.0
 76
     0
330
1E
331
7659
  0
LAYOUT
  5
1D
102
{ACAD_XDICTIONARY
360
7700
102
}
102
{ACAD_REACTORS
330
19
102
}
330
19
100
AcDbPlotSettings
  1

  2
\\MEISEI-1\EPSON Stylus Photo EX3
  4

  6

 40
0.0
 41
0.0
 42
0.0
 43
0.0
 44
0.0
 45
0.0
 46
0.0
 47
0.0
 48
0.0
 49
0.0
140
0.0
141
0.0
142
1.0
143
1.0
 70
   688
 72
     0
 73
     0
 74
     5
  7

 75
    16
147
1.0
148
0.0
149
0.0
100
AcDbLayout
  1
ﾚｲｱｳﾄ1
 70
     1
 71
     1
 10
0.0
 20
0.0
 11
12.0
 21
9.0
 12
0.0
 22
0.0
 32
0.0
 14
1.000000000000000E+20
 24
1.000000000000000E+20
 34
1.000000000000000E+20
 15
-1.000000000000000E+20
 25
-1.000000000000000E+20
 35
-1.000000000000000E+20
146
0.0
 13
0.0
 23
0.0
 33
0.0
 16
1.0
 26
0.0
 36
0.0
 17
0.0
 27
1.0
 37
0.0
 76
     0
330
1A
  0
MATERIAL
  5
76A7
102
{ACAD_XDICTIONARY
360
7706
102
}
102
{ACAD_REACTORS
330
76A5
102
}
330
76A5
100
AcDbMaterial
  1
ByBlock
  0
MATERIAL
  5
76A6
102
{ACAD_XDICTIONARY
360
7704
102
}
102
{ACAD_REACTORS
330
76A5
102
}
330
76A5
100
AcDbMaterial
  1
ByLayer
  0
MATERIAL
  5
76A8
102
{ACAD_XDICTIONARY
360
7708
102
}
102
{ACAD_REACTORS
330
76A5
102
}
330
76A5
100
AcDbMaterial
  1
Global
  0
MLINESTYLE
  5
17
102
{ACAD_REACTORS
330
16
102
}
330
16
100
AcDbMlineStyle
  2
STANDARD
 70
     0
  3

 62
   256
 51
90.0
 52
90.0
 71
     2
 49
0.5
 62
   256
  6
BYLAYER
 49
-0.5
 62
   256
  6
BYLAYER
  0
ACDBPLACEHOLDER
  5
F
102
{ACAD_REACTORS
330
E
102
}
330
E
  0
TABLESTYLE
  5
76BC
102
{ACAD_XDICTIONARY
360
770A
102
}
102
{ACAD_REACTORS
330
76BB
102
}
330
76BB
100
AcDbTableStyle
  3
Standard
 70
     0
 71
     0
 40
0.06
 41
0.06
280
     0
281
     0
  7
STANDARD
140
0.18
170
     2
 62
     0
 63
     7
283
     0
274
    -2
284
     1
 64
     0
275
    -2
285
     1
 65
     0
276
    -2
286
     1
 66
     0
277
    -2
287
     1
 67
     0
278
    -2
288
     1
 68
     0
279
    -2
289
     1
 69
     0
  7
STANDARD
140
0.25
170
     5
 62
     0
 63
     7
283
     0
274
    -2
284
     1
 64
     0
275
    -2
285
     1
 65
     0
276
    -2
286
     1
 66
     0
277
    -2
287
     1
 67
     0
278
    -2
288
     1
 68
     0
279
    -2
289
     1
 69
     0
  7
STANDARD
140
0.18
170
     5
 62
     0
 63
     7
283
     0
274
    -2
284
     1
 64
     0
275
    -2
285
     1
 65
     0
276
    -2
286
     1
 66
     0
277
    -2
287
     1
 67
     0
278
    -2
288
     1
 68
     0
279
    -2
289
     1
 69
     0
  0
VISUALSTYLE
  5
76AF
102
{ACAD_REACTORS
330
76A9
102
}
330
76A9
100
AcDbVisualStyle
  2
2dWireframe
 70
     4
 71
     0
 72
     2
 73
     0
 90
        0
 40
-0.6
 41
-30.0
 62
     5
 63
     7
 74
     1
 91
        4
 64
     7
 65
   257
 75
     1
175
     1
 42
1.0
 92
        0
 66
   257
 43
1.0
 76
     1
 77
     6
 78
     2
 67
     7
 79
     5
170
     0
171
     0
290
     0
174
     0
 93
        1
 44
0.0
173
     0
291
     0
 45
0.0
1001
ACAD
1000
AcDbSavedByObjectVersion
1070
     0
  0
VISUALSTYLE
  5
76B1
102
{ACAD_REACTORS
330
76A9
102
}
330
76A9
100
AcDbVisualStyle
  2
3D Hidden
 70
     6
 71
     1
 72
     2
 73
     2
 90
        0
 40
-0.6
 41
-30.0
 62
     5
 63
     7
 74
     2
 91
        2
 64
     7
 65
   257
 75
     2
175
     1
 42
40.0
 92
        0
 66
   257
 43
1.0
 76
     1
 77
     6
 78
     2
 67
     7
 79
     3
170
     0
171
     0
290
     0
174
     0
 93
        1
 44
0.0
173
     0
291
     0
 45
0.0
1001
ACAD
1000
AcDbSavedByObjectVersion
1070
     0
  0
VISUALSTYLE
  5
76B0
102
{ACAD_REACTORS
330
76A9
102
}
330
76A9
100
AcDbVisualStyle
  2
3dWireframe
 70
     5
 71
     0
 72
     2
 73
     0
 90
        0
 40
-0.6
 41
-30.0
 62
     5
 63
     7
 74
     1
 91
        4
 64
     7
 65
   257
 75
     1
175
     1
 42
1.0
 92
        0
 66
   257
 43
1.0
 76
     1
 77
     6
 78
     2
 67
     7
 79
     5
170
     0
171
     0
290
     0
174
     0
 93
        1
 44
0.0
173
     0
291
     0
 45
0.0
1001
ACAD
1000
AcDbSavedByObjectVersion
1070
     0
  0
VISUALSTYLE
  5
76AE
102
{ACAD_REACTORS
330
76A9
102
}
330
76A9
100
AcDbVisualStyle
  2
Basic
 70
     7
 71
     1
 72
     0
 73
     1
 90
        0
 40
-0.6
 41
-30.0
 62
     5
 63
     7
 74
     0
 91
        4
 64
     7
 65
   257
 75
     1
175
     1
 42
1.0
 92
        8
 66
     7
 43
1.0
 76
     1
 77
     6
 78
     2
 67
     7
 79
     5
170
     0
171
     0
290
     0
174
     0
 93
        1
 44
0.0
173
     0
291
     1
 45
0.0
1001
ACAD
1000
AcDbSavedByObjectVersion
1070
     0
  0
VISUALSTYLE
  5
76B5
102
{ACAD_REACTORS
330
76A9
102
}
330
76A9
100
AcDbVisualStyle
  2
Brighten
 70
    12
 71
     2
 72
     2
 73
     0
 90
        0
 40
-0.6
 41
-30.0
 62
     5
 63
     7
 74
     1
 91
        4
 64
     7
 65
   257
 75
     1
175
     1
 42
1.0
 92
        8
 66
     7
 43
1.0
 76
     1
 77
     6
 78
     2
 67
     7
 79
     5
170
     0
171
     0
290
     0
174
     0
 93
        1
 44
50.0
173
     0
291
     1
 45
0.0
1001
ACAD
1000
AcDbSavedByObjectVersion
1070
     0
  0
VISUALSTYLE
  5
76B9
102
{ACAD_REACTORS
330
76A9
102
}
330
76A9
100
AcDbVisualStyle
  2
ColorChange
 70
    16
 71
     2
 72
     2
 73
     3
 90
        0
 40
-0.6
 41
-30.0
 62
     5
 63
     8
 74
     1
 91
        4
 64
     7
 65
   257
 75
     1
175
     1
 42
1.0
 92
        8
 66
     8
 43
1.0
 76
     1
 77
     6
 78
     2
 67
     7
 79
     5
170
     0
171
     0
290
     0
174
     0
 93
        1
 44
0.0
173
     0
291
     1
 45
0.0
1001
ACAD
1000
AcDbSavedByObjectVersion
1070
     0
  0
VISUALSTYLE
  5
76B2
102
{ACAD_REACTORS
330
76A9
102
}
330
76A9
100
AcDbVisualStyle
  2
Conceptual
 70
     9
 71
     3
 72
     2
 73
     0
 90
        0
 40
-0.6
 41
-30.0
 62
     5
 63
     7
 74
     2
 91
        2
 64
     7
 65
   257
 75
     1
175
     1
 42
40.0
 92
        8
 66
     7
 43
1.0
 76
     1
 77
     6
 78
     2
 67
     7
 79
     3
170
     0
171
     0
290
     0
174
     0
 93
        1
 44
0.0
173
     0
291
     0
 45
0.0
1001
ACAD
1000
AcDbSavedByObjectVersion
1070
     0
  0
VISUALSTYLE
  5
76B4
102
{ACAD_REACTORS
330
76A9
102
}
330
76A9
100
AcDbVisualStyle
  2
Dim
 70
    11
 71
     2
 72
     2
 73
     0
 90
        0
 40
-0.6
 41
-30.0
 62
     5
 63
     7
 74
     1
 91
        4
 64
     7
 65
   257
 75
     1
175
     1
 42
1.0
 92
        8
 66
     7
 43
1.0
 76
     1
 77
     6
 78
     2
 67
     7
 79
     5
170
     0
171
     0
290
     0
174
     0
 93
        1
 44
-50.0
173
     0
291
     1
 45
0.0
1001
ACAD
1000
AcDbSavedByObjectVersion
1070
     0
  0
VISUALSTYLE
  5
76B8
102
{ACAD_REACTORS
330
76A9
102
}
330
76A9
100
AcDbVisualStyle
  2
Facepattern
 70
    15
 71
     2
 72
     2
 73
     0
 90
        0
 40
-0.6
 41
-30.0
 62
     5
 63
     7
 74
     1
 91
        4
 64
     7
 65
   257
 75
     1
175
     1
 42
1.0
 92
        8
 66
     7
 43
1.0
 76
     1
 77
     6
 78
     2
 67
     7
 79
     5
170
     0
171
     0
290
     0
174
     0
 93
        1
 44
0.0
173
     0
291
     1
 45
0.0
1001
ACAD
1000
AcDbSavedByObjectVersion
1070
     0
  0
VISUALSTYLE
  5
76AA
102
{ACAD_REACTORS
330
76A9
102
}
330
76A9
100
AcDbVisualStyle
  2
Flat
 70
     0
 71
     2
 72
     1
 73
     1
 90
        2
 40
-0.6
 41
30.0
 62
     5
 63
     7
 74
     0
 91
        4
 64
     7
 65
   257
 75
     1
175
     1
 42
1.0
 92
        8
 66
     7
 43
1.0
 76
     1
 77
     6
 78
     2
 67
     7
 79
     5
170
     0
171
     0
290
     0
174
     0
 93
       13
 44
0.0
173
     0
291
     1
 45
0.0
1001
ACAD
1000
AcDbSavedByObjectVersion
1070
     0
  0
VISUALSTYLE
  5
76AB
102
{ACAD_REACTORS
330
76A9
102
}
330
76A9
100
AcDbVisualStyle
  2
FlatWithEdges
 70
     1
 71
     2
 72
     1
 73
     1
 90
        2
 40
-0.6
 41
30.0
 62
     5
 63
     7
 74
     1
 91
        4
 64
     7
 65
   257
 75
     1
175
     1
 42
1.0
 92
        0
 66
   257
 43
1.0
 76
     1
 77
     6
 78
     2
 67
     7
 79
     5
170
     0
171
     0
290
     0
174
     0
 93
       13
 44
0.0
173
     0
291
     1
 45
0.0
1001
ACAD
1000
AcDbSavedByObjectVersion
1070
     0
  0
VISUALSTYLE
  5
76AC
102
{ACAD_REACTORS
330
76A9
102
}
330
76A9
100
AcDbVisualStyle
  2
Gouraud
 70
     2
 71
     2
 72
     2
 73
     1
 90
        2
 40
-0.6
 41
30.0
 62
     5
 63
     7
 74
     0
 91
        4
 64
     7
 65
   257
 75
     1
175
     1
 42
1.0
 92
        0
 66
     7
 43
1.0
 76
     1
 77
     6
 78
     2
 67
     7
 79
     5
170
     0
171
     0
290
     0
174
     0
 93
       13
 44
0.0
173
     0
291
     1
 45
0.0
1001
ACAD
1000
AcDbSavedByObjectVersion
1070
     0
  0
VISUALSTYLE
  5
76AD
102
{ACAD_REACTORS
330
76A9
102
}
330
76A9
100
AcDbVisualStyle
  2
GouraudWithEdges
 70
     3
 71
     2
 72
     2
 73
     1
 90
        2
 40
-0.6
 41
30.0
 62
     5
 63
     7
 74
     1
 91
        4
 64
     7
 65
   257
 75
     1
175
     1
 42
1.0
 92
        0
 66
   257
 43
1.0
 76
     1
 77
     6
 78
     2
 67
     7
 79
     5
170
     0
171
     0
290
     0
174
     0
 93
       13
 44
0.0
173
     0
291
     1
 45
0.0
1001
ACAD
1000
AcDbSavedByObjectVersion
1070
     0
  0
VISUALSTYLE
  5
76B7
102
{ACAD_REACTORS
330
76A9
102
}
330
76A9
100
AcDbVisualStyle
  2
Linepattern
 70
    14
 71
     2
 72
     2
 73
     0
 90
        0
 40
-0.6
 41
-30.0
 62
     5
 63
     7
 74
     1
 91
        4
 64
     7
 65
   257
 75
     7
175
     7
 42
1.0
 92
        8
 66
     7
 43
1.0
 76
     1
 77
     6
 78
     2
 67
     7
 79
     5
170
     0
171
     0
290
     0
174
     0
 93
        1
 44
0.0
173
     0
291
     1
 45
0.0
1001
ACAD
1000
AcDbSavedByObjectVersion
1070
     0
  0
VISUALSTYLE
  5
76B3
102
{ACAD_REACTORS
330
76A9
102
}
330
76A9
100
AcDbVisualStyle
  2
Realistic
 70
     8
 71
     2
 72
     2
 73
     0
 90
        0
 40
-0.6
 41
-30.0
 62
     5
 63
     7
 74
     1
 91
        0
 64
     7
 65
   257
 75
     1
175
     1
 42
1.0
 92
        8
 66
     8
 43
1.0
 76
     1
 77
     6
 78
     2
 67
     7
 79
     5
170
     0
171
     0
290
     0
174
     0
 93
       13
 44
0.0
173
     0
291
     0
 45
0.0
1001
ACAD
1000
AcDbSavedByObjectVersion
1070
     0
  0
VISUALSTYLE
  5
76B6
102
{ACAD_REACTORS
330
76A9
102
}
330
76A9
100
AcDbVisualStyle
  2
Thicken
 70
    13
 71
     2
 72
     2
 73
     0
 90
        0
 40
-0.6
 41
-30.0
 62
     5
 63
     7
 74
     1
 91
        4
 64
     7
 65
   257
 75
     1
175
     1
 42
1.0
 92
       12
 66
     7
 43
1.0
 76
     1
 77
     6
 78
     2
 67
     7
 79
     5
170
     0
171
     0
290
     0
174
     0
 93
        1
 44
0.0
173
     0
291
     1
 45
0.0
1001
ACAD
1000
AcDbSavedByObjectVersion
1070
     0
  0
DICTIONARYVAR
  5
76F6
102
{ACAD_REACTORS
330
169
102
}
330
169
100
DictionaryVariables
280
     0
  1
STANDARD
  0
DICTIONARYVAR
  5
16A
102
{ACAD_REACTORS
330
169
102
}
330
169
100
DictionaryVariables
280
     0
  1
1
  0
DICTIONARYVAR
  5
76F8
102
{ACAD_REACTORS
330
169
102
}
330
169
100
DictionaryVariables
280
     0
  1
0
  0
DICTIONARYVAR
  5
76F7
102
{ACAD_REACTORS
330
169
102
}
330
169
100
DictionaryVariables
280
     0
  1
127
  0
XRECORD
  5
177
102
{ACAD_REACTORS
330
176
102
}
330
176
100
AcDbXrecord
280
     1
 91
      476
330
179
 90
        8
 62
     7
370
    -3
331
15
  1
Color_7
330
128
 90
        0
 62
     7
370
    -3
331
15
  1
Color_7
330
10
 90
        8
 62
     7
370
    -3
331
15
  1
Color_7
  0
DICTIONARY
  5
7702
330
21
100
AcDbDictionary
280
     1
281
     1
  3
ACAD_XREC_ROUNDTRIP
360
7703
  0
DICTIONARY
  5
7700
330
1D
100
AcDbDictionary
280
     1
281
     1
  3
ACAD_XREC_ROUNDTRIP
360
7701
  0
DICTIONARY
  5
7706
330
76A7
100
AcDbDictionary
280
     1
281
     1
  3
ACAD_XREC_ROUNDTRIP
360
7707
  0
DICTIONARY
  5
7704
330
76A6
100
AcDbDictionary
280
     1
281
     1
  3
ACAD_XREC_ROUNDTRIP
360
7705
  0
DICTIONARY
  5
7708
330
76A8
100
AcDbDictionary
280
     1
281
     1
  3
ACAD_XREC_ROUNDTRIP
360
7709
  0
DICTIONARY
  5
770A
330
76BC
100
AcDbDictionary
280
     1
281
     1
  3
ACAD_XREC_ROUNDTRIP
360
770B
  0
XRECORD
  5
7703
102
{ACAD_REACTORS
330
7702
102
}
330
7702
100
AcDbXrecord
280
     1
102
SHADEPLOT
 70
     0
102
SHADEPLOTRESLEVEL
 70
     2
102
SHADEPLOTCUSTOMDPI
 70
   300
  0
XRECORD
  5
7701
102
{ACAD_REACTORS
330
7700
102
}
330
7700
100
AcDbXrecord
280
     1
102
SHADEPLOT
 70
     0
102
SHADEPLOTRESLEVEL
 70
     2
102
SHADEPLOTCUSTOMDPI
 70
   300
  0
XRECORD
  5
7707
102
{ACAD_REACTORS
330
7706
102
}
330
7706
100
AcDbXrecord
280
     1
102
MATERIAL
148
0.0
149
0.0
149
0.0
 93
        0
 94
       63
282
     0
 72
     1
 77
     1
171
     1
175
     1
179
     1
273
     0
  0
XRECORD
  5
7705
102
{ACAD_REACTORS
330
7704
102
}
330
7704
100
AcDbXrecord
280
     1
102
MATERIAL
148
0.0
149
0.0
149
0.0
 93
        0
 94
       63
282
     0
 72
     1
 77
     1
171
     1
175
     1
179
     1
273
     0
  0
XRECORD
  5
7709
102
{ACAD_REACTORS
330
7708
102
}
330
7708
100
AcDbXrecord
280
     1
102
MATERIAL
148
0.0
149
0.0
149
0.0
 93
        0
 94
       63
282
     0
 72
     1
 77
     1
171
     1
175
     1
179
     1
273
     0
  0
XRECORD
  5
770B
102
{ACAD_REACTORS
330
770A
102
}
330
770A
100
AcDbXrecord
280
     1
102
ACAD_ROUNDTRIP_PRE2007_TABLESTYLE
 90
      512
 91
        0
  1

 92
      512
 93
        0
  2

 94
      512
 95
        0
  3

  0
ENDSEC
  0
EOF
