  0
SECTION
  2
HEADER
  9
$ACADVER
  1
AC1015
  9
$ACADMAINTVER
 70
    20
  9
$DWGCODEPAGE
  3
ANSI_932
  9
$INSBASE
 10
0.0
 20
0.0
 30
0.0
  9
$EXTMIN
 10
265.7557898717759
 20
146.0963171853823
 30
0.0
  9
$EXTMAX
 10
519.7025089036991
 20
206.0963011853823
 30
0.0
  9
$LIMMIN
 10
0.0
 20
0.0
  9
$LIMMAX
 10
420.0
 20
297.0
  9
$ORTHOMODE
 70
     0
  9
$REGENMODE
 70
     1
  9
$FILLMODE
 70
     1
  9
$QTEXTMODE
 70
     0
  9
$MIRRTEXT
 70
     1
  9
$LTSCALE
 40
1.0
  9
$ATTMODE
 70
     1
  9
$TEXTSIZE
 40
5.0
  9
$TRACEWID
 40
0.05
  9
$TEXTSTYLE
  7
ACAD
  9
$CLAYER
  8
0
  9
$CELTYPE
  6
CONTINUOUS
  9
$CECOLOR
 62
   256
  9
$CELTSCALE
 40
1.0
  9
$DISPSILH
 70
     0
  9
$DIMSCALE
 40
1.0
  9
$DIMASZ
 40
1.0
  9
$DIMEXO
 40
0.0
  9
$DIMDLI
 40
0.38
  9
$DIMRND
 40
0.0
  9
$DIMDLE
 40
0.0
  9
$DIMEXE
 40
0.0
  9
$DIMTP
 40
0.0
  9
$DIMTM
 40
0.0
  9
$DIMTXT
 40
3.0
  9
$DIMCEN
 40
0.09
  9
$DIMTSZ
 40
0.0
  9
$DIMTOL
 70
     0
  9
$DIMLIM
 70
     0
  9
$DIMTIH
 70
     0
  9
$DIMTOH
 70
     1
  9
$DIMSE1
 70
     0
  9
$DIMSE2
 70
     0
  9
$DIMTAD
 70
     1
  9
$DIMZIN
 70
     0
  9
$DIMBLK
  1
Dot
  9
$DIMASO
 70
     1
  9
$DIMSHO
 70
     1
  9
$DIMPOST
  1

  9
$DIMAPOST
  1

  9
$DIMALT
 70
     0
  9
$DIMALTD
 70
     2
  9
$DIMALTF
 40
25.4
  9
$DIMLFAC
 40
1.0
  9
$DIMTOFL
 70
     0
  9
$DIMTVP
 40
0.0
  9
$DIMTIX
 70
     1
  9
$DIMSOXD
 70
     0
  9
$DIMSAH
 70
     0
  9
$DIMBLK1
  1

  9
$DIMBLK2
  1

  9
$DIMSTYLE
  2
AutoCAD
  9
$DIMCLRD
 70
     4
  9
$DIMCLRE
 70
     4
  9
$DIMCLRT
 70
     3
  9
$DIMTFAC
 40
1.0
  9
$DIMGAP
 40
1.0
  9
$DIMJUST
 70
     0
  9
$DIMSD1
 70
     0
  9
$DIMSD2
 70
     0
  9
$DIMTOLJ
 70
     1
  9
$DIMTZIN
 70
     0
  9
$DIMALTZ
 70
     0
  9
$DIMALTTZ
 70
     0
  9
$DIMUPT
 70
     0
  9
$DIMDEC
 70
     0
  9
$DIMTDEC
 70
     0
  9
$DIMALTU
 70
     2
  9
$DIMALTTD
 70
     2
  9
$DIMTXSTY
  7
ACAD
  9
$DIMAUNIT
 70
     0
  9
$DIMADEC
 70
     0
  9
$DIMALTRND
 40
0.0
  9
$DIMAZIN
 70
     0
  9
$DIMDSEP
 70
    46
  9
$DIMATFIT
 70
     0
  9
$DIMFRAC
 70
     0
  9
$DIMLDRBLK
  1
None
  9
$DIMLUNIT
 70
     2
  9
$DIMLWD
 70
    -2
  9
$DIMLWE
 70
    -2
  9
$DIMTMOVE
 70
     0
  9
$LUNITS
 70
     2
  9
$LUPREC
 70
     4
  9
$SKETCHINC
 40
0.1
  9
$FILLETRAD
 40
0.0
  9
$AUNITS
 70
     0
  9
$AUPREC
 70
     0
  9
$MENU
  1
.
  9
$ELEVATION
 40
0.0
  9
$PELEVATION
 40
0.0
  9
$THICKNESS
 40
0.0
  9
$LIMCHECK
 70
     0
  9
$CHAMFERA
 40
0.0
  9
$CHAMFERB
 40
0.0
  9
$CHAMFERC
 40
0.0
  9
$CHAMFERD
 40
0.0
  9
$SKPOLY
 70
     0
  9
$TDCREATE
 40
2454316.693457674
  9
$TDUCREATE
 40
2454316.318457674
  9
$TDUPDATE
 40
2454735.625484121
  9
$TDUUPDATE
 40
2454735.250484120
  9
$TDINDWG
 40
0.2440504977
  9
$TDUSRTIMER
 40
0.2440504977
  9
$USRTIMER
 70
     1
  9
$ANGBASE
 50
0.0
  9
$ANGDIR
 70
     0
  9
$PDMODE
 70
     0
  9
$PDSIZE
 40
0.0
  9
$PLINEWID
 40
0.0
  9
$SPLFRAME
 70
     0
  9
$SPLINETYPE
 70
     6
  9
$SPLINESEGS
 70
     8
  9
$HANDSEED
  5
735E
  9
$SURFTAB1
 70
     6
  9
$SURFTAB2
 70
     6
  9
$SURFTYPE
 70
     6
  9
$SURFU
 70
     6
  9
$SURFV
 70
     6
  9
$UCSBASE
  2

  9
$UCSNAME
  2

  9
$UCSORG
 10
0.0
 20
0.0
 30
0.0
  9
$UCSXDIR
 10
1.0
 20
0.0
 30
0.0
  9
$UCSYDIR
 10
0.0
 20
1.0
 30
0.0
  9
$UCSORTHOREF
  2

  9
$UCSORTHOVIEW
 70
     0
  9
$UCSORGTOP
 10
0.0
 20
0.0
 30
0.0
  9
$UCSORGBOTTOM
 10
0.0
 20
0.0
 30
0.0
  9
$UCSORGLEFT
 10
0.0
 20
0.0
 30
0.0
  9
$UCSORGRIGHT
 10
0.0
 20
0.0
 30
0.0
  9
$UCSORGFRONT
 10
0.0
 20
0.0
 30
0.0
  9
$UCSORGBACK
 10
0.0
 20
0.0
 30
0.0
  9
$PUCSBASE
  2

  9
$PUCSNAME
  2

  9
$PUCSORG
 10
0.0
 20
0.0
 30
0.0
  9
$PUCSXDIR
 10
1.0
 20
0.0
 30
0.0
  9
$PUCSYDIR
 10
0.0
 20
1.0
 30
0.0
  9
$PUCSORTHOREF
  2

  9
$PUCSORTHOVIEW
 70
     0
  9
$PUCSORGTOP
 10
0.0
 20
0.0
 30
0.0
  9
$PUCSORGBOTTOM
 10
0.0
 20
0.0
 30
0.0
  9
$PUCSORGLEFT
 10
0.0
 20
0.0
 30
0.0
  9
$PUCSORGRIGHT
 10
0.0
 20
0.0
 30
0.0
  9
$PUCSORGFRONT
 10
0.0
 20
0.0
 30
0.0
  9
$PUCSORGBACK
 10
0.0
 20
0.0
 30
0.0
  9
$USERI1
 70
     0
  9
$USERI2
 70
     0
  9
$USERI3
 70
     0
  9
$USERI4
 70
     0
  9
$USERI5
 70
     0
  9
$USERR1
 40
0.0
  9
$USERR2
 40
0.0
  9
$USERR3
 40
0.0
  9
$USERR4
 40
0.0
  9
$USERR5
 40
0.0
  9
$WORLDVIEW
 70
     1
  9
$SHADEDGE
 70
     3
  9
$SHADEDIF
 70
    70
  9
$TILEMODE
 70
     1
  9
$MAXACTVP
 70
    48
  9
$PINSBASE
 10
0.0
 20
0.0
 30
0.0
  9
$PLIMCHECK
 70
     0
  9
$PEXTMIN
 10
1.000000000000000E+20
 20
1.000000000000000E+20
 30
1.000000000000000E+20
  9
$PEXTMAX
 10
-1.000000000000000E+20
 20
-1.000000000000000E+20
 30
-1.000000000000000E+20
  9
$PLIMMIN
 10
0.0
 20
0.0
  9
$PLIMMAX
 10
12.0
 20
9.0
  9
$UNITMODE
 70
     0
  9
$VISRETAIN
 70
     0
  9
$PLINEGEN
 70
     0
  9
$PSLTSCALE
 70
     1
  9
$TREEDEPTH
 70
  3020
  9
$CMLSTYLE
  2
Standard
  9
$CMLJUST
 70
     0
  9
$CMLSCALE
 40
1.0
  9
$PROXYGRAPHICS
 70
     1
  9
$MEASUREMENT
 70
     0
  9
$CELWEIGHT
370
    -1
  9
$ENDCAPS
280
     0
  9
$JOINSTYLE
280
     0
  9
$LWDISPLAY
290
     0
  9
$INSUNITS
 70
     0
  9
$HYPERLINKBASE
  1

  9
$STYLESHEET
  1

  9
$XEDIT
290
     1
  9
$CEPSNTYPE
380
     0
  9
$PSTYLEMODE
290
     1
  9
$FINGERPRINTGUID
  2
{CC7D6DEE-A9F1-4F3E-AC95-C84B62CCA3FD}
  9
$VERSIONGUID
  2
{8CD23537-7C36-4503-81F6-8494CEB3534F}
  9
$EXTNAMES
290
     1
  9
$PSVPSCALE
 40
0.0
  9
$OLESTARTUP
290
     0
  0
ENDSEC
  0
SECTION
  2
CLASSES
  0
CLASS
  1
ACDBDICTIONARYWDFLT
  2
AcDbDictionaryWithDefault
  3
ObjectDBX Classes
 90
        0
280
     0
281
     0
  0
CLASS
  1
ACDBPLACEHOLDER
  2
AcDbPlaceHolder
  3
ObjectDBX Classes
 90
        0
280
     0
281
     0
  0
CLASS
  1
LAYOUT
  2
AcDbLayout
  3
ObjectDBX Classes
 90
        0
280
     0
281
     0
  0
CLASS
  1
DICTIONARYVAR
  2
AcDbDictionaryVar
  3
ObjectDBX Classes
 90
        0
280
     0
281
     0
  0
CLASS
  1
MATERIAL
  2
AcDbMaterial
  3
ObjectDBX Classes
 90
     1153
280
     0
281
     0
  0
CLASS
  1
VISUALSTYLE
  2
AcDbVisualStyle
  3
ObjectDBX Classes
 90
     4095
280
     0
281
     0
  0
CLASS
  1
TABLESTYLE
  2
AcDbTableStyle
  3
ObjectDBX Classes
 90
     4095
280
     0
281
     0
  0
ENDSEC
  0
SECTION
  2
TABLES
  0
TABLE
  2
VPORT
  5
8
102
{ACAD_XDICTIONARY
360
7330
102
}
330
0
100
AcDbSymbolTable
 70
     1
  0
VPORT
  5
7264
330
8
100
AcDbSymbolTableRecord
100
AcDbViewportTableRecord
  2
*Active
 70
     0
 10
0.0
 20
0.0
 11
1.0
 21
1.0
 12
392.7214264851093
 22
176.08770061376
 13
0.0
 23
0.0
 14
1.0
 24
1.0
 15
0.0
 25
0.0
 16
0.0
 26
0.0
 36
1.0
 17
0.0
 27
0.0
 37
0.0
 40
162.4027575394423
 41
1.571614583333333
 42
50.0
 43
0.0
 44
0.0
 50
0.0
 51
0.0
 71
     0
 72
   100
 73
     1
 74
     1
 75
     0
 76
     0
 77
     0
 78
     0
281
     0
 65
     1
110
0.0
120
0.0
130
0.0
111
1.0
121
0.0
131
0.0
112
0.0
122
1.0
132
0.0
 79
     0
146
0.0
  0
ENDTAB
  0
TABLE
  2
LTYPE
  5
5
330
0
100
AcDbSymbolTable
 70
    50
  0
LTYPE
  5
13
330
5
100
AcDbSymbolTableRecord
100
AcDbLinetypeTableRecord
  2
ByBlock
 70
     0
  3

 72
    65
 73
     0
 40
0.0
  0
LTYPE
  5
14
330
5
100
AcDbSymbolTableRecord
100
AcDbLinetypeTableRecord
  2
ByLayer
 70
     0
  3

 72
    65
 73
     0
 40
0.0
  0
LTYPE
  5
15
330
5
100
AcDbSymbolTableRecord
100
AcDbLinetypeTableRecord
  2
CONTINUOUS
 70
     0
  3
実線
 72
    65
 73
     0
 40
0.0
  0
LTYPE
  5
22
330
5
100
AcDbSymbolTableRecord
100
AcDbLinetypeTableRecord
  2
DASHED1
 70
     0
  3
--  --  --  --  --  --  --  --  
 72
    65
 73
     2
 40
2.5
 49
1.25
 74
     0
 49
-1.25
 74
     0
  0
LTYPE
  5
23
330
5
100
AcDbSymbolTableRecord
100
AcDbLinetypeTableRecord
  2
DASHED2
 70
     0
  3
----    ----    ----    ----    
 72
    65
 73
     2
 40
5.0
 49
2.5
 74
     0
 49
-2.5
 74
     0
  0
LTYPE
  5
24
330
5
100
AcDbSymbolTableRecord
100
AcDbLinetypeTableRecord
  2
DASHED3
 70
     0
  3
------  ------  ------  ------  
 72
    65
 73
     2
 40
5.0
 49
3.75
 74
     0
 49
-1.25
 74
     0
  0
LTYPE
  5
25
330
5
100
AcDbSymbolTableRecord
100
AcDbLinetypeTableRecord
  2
CENTER1
 70
     0
  3
----- - ----- - ----- - ----- - 
 72
    65
 73
     4
 40
10.0
 49
6.25
 74
     0
 49
-1.25
 74
     0
 49
1.25
 74
     0
 49
-1.25
 74
     0
  0
LTYPE
  5
26
330
5
100
AcDbSymbolTableRecord
100
AcDbLinetypeTableRecord
  2
CENTER2
 70
     0
  3
----------  --  ----------  --  
 72
    65
 73
     4
 40
20.0
 49
12.5
 74
     0
 49
-2.5
 74
     0
 49
2.5
 74
     0
 49
-2.5
 74
     0
  0
LTYPE
  5
27
330
5
100
AcDbSymbolTableRecord
100
AcDbLinetypeTableRecord
  2
PHANTOM1
 70
     0
  3
--- - - --- - - --- - - --- - - 
 72
    65
 73
     6
 40
10.0
 49
3.25
 74
     0
 49
-1.25
 74
     0
 49
1.25
 74
     0
 49
-1.25
 74
     0
 49
1.25
 74
     0
 49
-1.25
 74
     0
  0
LTYPE
  5
28
330
5
100
AcDbSymbolTableRecord
100
AcDbLinetypeTableRecord
  2
PHANTOM2
 70
     0
  3
--------  -  -  --------  -  -  
 72
    65
 73
     6
 40
20.0
 49
10.0
 74
     0
 49
-2.5
 74
     0
 49
1.25
 74
     0
 49
-2.5
 74
     0
 49
1.25
 74
     0
 49
-2.5
 74
     0
  0
LTYPE
  5
29
330
5
100
AcDbSymbolTableRecord
100
AcDbLinetypeTableRecord
  2
DOT
 70
     0
  3
-   -   -   -   -   -   -   -   
 72
    65
 73
     2
 40
2.5
 49
0.625
 74
     0
 49
-1.875
 74
     0
  0
LTYPE
  5
2A
330
5
100
AcDbSymbolTableRecord
100
AcDbLinetypeTableRecord
  2
DUMMY
 70
     0
  3
ダミー
 72
    65
 73
     0
 40
0.0
  0
LTYPE
  5
2B
330
5
100
AcDbSymbolTableRecord
100
AcDbLinetypeTableRecord
  2
RAND1
 70
     0
  3
ランダム線1
 72
    65
 73
     4
 40
10.0
 49
1.0
 74
     0
 49
-2.0
 74
     0
 49
3.0
 74
     0
 49
-4.0
 74
     0
  0
LTYPE
  5
2C
330
5
100
AcDbSymbolTableRecord
100
AcDbLinetypeTableRecord
  2
RAND2
 70
     0
  3
ランダム線2
 72
    65
 73
     4
 40
14.0
 49
2.0
 74
     0
 49
-3.0
 74
     0
 49
4.0
 74
     0
 49
-5.0
 74
     0
  0
LTYPE
  5
2D
330
5
100
AcDbSymbolTableRecord
100
AcDbLinetypeTableRecord
  2
RAND3
 70
     0
  3
ランダム線3
 72
    65
 73
     4
 40
18.0
 49
3.0
 74
     0
 49
-4.0
 74
     0
 49
5.0
 74
     0
 49
-6.0
 74
     0
  0
LTYPE
  5
2E
330
5
100
AcDbSymbolTableRecord
100
AcDbLinetypeTableRecord
  2
RAND4
 70
     0
  3
ランダム線4
 72
    65
 73
     4
 40
22.0
 49
4.0
 74
     0
 49
-5.0
 74
     0
 49
6.0
 74
     0
 49
-7.0
 74
     0
  0
LTYPE
  5
2F
330
5
100
AcDbSymbolTableRecord
100
AcDbLinetypeTableRecord
  2
RAND5
 70
     0
  3
ランダム線5
 72
    65
 73
     4
 40
26.0
 49
5.0
 74
     0
 49
-6.0
 74
     0
 49
7.0
 74
     0
 49
-8.0
 74
     0
  0
LTYPE
  5
30
330
5
100
AcDbSymbolTableRecord
100
AcDbLinetypeTableRecord
  2
LONG1
 70
     0
  3
----------  --  ----------  --  
 72
    65
 73
     4
 40
40.0
 49
32.5
 74
     0
 49
-2.5
 74
     0
 49
2.5
 74
     0
 49
-2.5
 74
     0
  0
LTYPE
  5
31
330
5
100
AcDbSymbolTableRecord
100
AcDbLinetypeTableRecord
  2
LONG2
 70
     0
  3
--------  -  -  --------  -  -  
 72
    65
 73
     6
 40
40.0
 49
30.0
 74
     0
 49
-2.5
 74
     0
 49
1.25
 74
     0
 49
-2.5
 74
     0
 49
1.25
 74
     0
 49
-2.5
 74
     0
  0
LTYPE
  5
32
330
5
100
AcDbSymbolTableRecord
100
AcDbLinetypeTableRecord
  2
LONG3
 70
     0
  3
+++++++++++++++..+++++++++++++++
 72
    65
 73
     2
 40
40.0
 49
37.5
 74
     0
 49
-2.5
 74
     0
  0
LTYPE
  5
33
330
5
100
AcDbSymbolTableRecord
100
AcDbLinetypeTableRecord
  2
LONG4
 70
     0
  3
+++++++++++++++..+++++++++++++++
 72
    65
 73
     2
 40
80.0
 49
75.0
 74
     0
 49
-5.0
 74
     0
  0
LTYPE
  5
34
330
5
100
AcDbSymbolTableRecord
100
AcDbLinetypeTableRecord
  2
LONG5
 70
     0
  3
----------  --  ----------  --  
 72
    65
 73
     4
 40
60.0
 49
37.5
 74
     0
 49
-7.5
 74
     0
 49
7.5
 74
     0
 49
-7.5
 74
     0
  0
LTYPE
  5
35
330
5
100
AcDbSymbolTableRecord
100
AcDbLinetypeTableRecord
  2
DASHED
 70
     0
  3
-------   -------------   ------
 72
    65
 73
     2
 40
7.5
 49
6.0
 74
     0
 49
-1.5
 74
     0
  0
LTYPE
  5
36
330
5
100
AcDbSymbolTableRecord
100
AcDbLinetypeTableRecord
  2
DASHED_SPACED
 70
     0
  3
----        --------        ----
 72
    65
 73
     2
 40
12.0
 49
6.0
 74
     0
 49
-6.0
 74
     0
  0
LTYPE
  5
37
330
5
100
AcDbSymbolTableRecord
100
AcDbLinetypeTableRecord
  2
LONG_DASHED_DOTTED
 70
     0
  3
------------- --- --------------
 72
    65
 73
     4
 40
15.25
 49
12.0
 74
     0
 49
-1.5
 74
     0
 49
0.25
 74
     0
 49
-1.5
 74
     0
  0
LTYPE
  5
38
330
5
100
AcDbSymbolTableRecord
100
AcDbLinetypeTableRecord
  2
LONG_DASHED_DOUBLE-DOTTED
 70
     0
  3
----------- --- --- ------------
 72
    65
 73
     6
 40
17.0
 49
12.0
 74
     0
 49
-1.5
 74
     0
 49
0.25
 74
     0
 49
-1.5
 74
     0
 49
0.25
 74
     0
 49
-1.5
 74
     0
  0
LTYPE
  5
39
330
5
100
AcDbSymbolTableRecord
100
AcDbLinetypeTableRecord
  2
LONG_DASHED_TRIPLICATE-DOTTED
 70
     0
  3
--------- --- --- --- ----------
 72
    65
 73
     8
 40
18.75
 49
12.0
 74
     0
 49
-1.5
 74
     0
 49
0.25
 74
     0
 49
-1.5
 74
     0
 49
0.25
 74
     0
 49
-1.5
 74
     0
 49
0.25
 74
     0
 49
-1.5
 74
     0
  0
LTYPE
  5
3A
330
5
100
AcDbSymbolTableRecord
100
AcDbLinetypeTableRecord
  2
DOTTED
 70
     0
  3
   -       -       -       -    
 72
    65
 73
     2
 40
1.75
 49
0.25
 74
     0
 49
-1.5
 74
     0
  0
LTYPE
  5
3B
330
5
100
AcDbSymbolTableRecord
100
AcDbLinetypeTableRecord
  2
CHAIN
 70
     0
  3
-------------- -- --------------
 72
    65
 73
     4
 40
18.5
 49
12.0
 74
     0
 49
-1.5
 74
     0
 49
3.5
 74
     0
 49
-1.5
 74
     0
  0
LTYPE
  5
3C
330
5
100
AcDbSymbolTableRecord
100
AcDbLinetypeTableRecord
  2
CHAIN_DOUBLE_DASH
 70
     0
  3
------------ -- -- -------------
 72
    65
 73
     6
 40
23.5
 49
12.0
 74
     0
 49
-1.5
 74
     0
 49
3.5
 74
     0
 49
-1.5
 74
     0
 49
3.5
 74
     0
 49
-1.5
 74
     0
  0
LTYPE
  5
3D
330
5
100
AcDbSymbolTableRecord
100
AcDbLinetypeTableRecord
  2
DASHED_DOTTED
 70
     0
  3
-----------     -     ----------
 72
    65
 73
     4
 40
9.25
 49
6.0
 74
     0
 49
-1.5
 74
     0
 49
0.25
 74
     0
 49
-1.5
 74
     0
  0
LTYPE
  5
3E
330
5
100
AcDbSymbolTableRecord
100
AcDbLinetypeTableRecord
  2
DOUBLE-DASHED_DOTTED
 70
     0
  3
------   -----------   -   -----
 72
    65
 73
     6
 40
16.75
 49
6.0
 74
     0
 49
-1.5
 74
     0
 49
6.0
 74
     0
 49
-1.5
 74
     0
 49
0.25
 74
     0
 49
-1.5
 74
     0
  0
LTYPE
  5
3F
330
5
100
AcDbSymbolTableRecord
100
AcDbLinetypeTableRecord
  2
DASHED_DOUBLE-DOTTED
 70
     0
  3
---------    -    -    ---------
 72
    65
 73
     6
 40
11.0
 49
6.0
 74
     0
 49
-1.5
 74
     0
 49
0.25
 74
     0
 49
-1.5
 74
     0
 49
0.25
 74
     0
 49
-1.5
 74
     0
  0
LTYPE
  5
40
330
5
100
AcDbSymbolTableRecord
100
AcDbLinetypeTableRecord
  2
DOUBLE-DASHED_DOUBLE-DOTTED
 70
     0
  3
-----   ---------   -   -   ----
 72
    65
 73
     8
 40
18.5
 49
6.0
 74
     0
 49
-1.5
 74
     0
 49
6.0
 74
     0
 49
-1.5
 74
     0
 49
0.25
 74
     0
 49
-1.5
 74
     0
 49
0.25
 74
     0
 49
-1.5
 74
     0
  0
LTYPE
  5
41
330
5
100
AcDbSymbolTableRecord
100
AcDbLinetypeTableRecord
  2
DASHED_TRIPLICATE-DOTTED
 70
     0
  3
-------    -    -    -    ------
 72
    65
 73
     8
 40
12.75
 49
6.0
 74
     0
 49
-1.5
 74
     0
 49
0.25
 74
     0
 49
-1.5
 74
     0
 49
0.25
 74
     0
 49
-1.5
 74
     0
 49
0.25
 74
     0
 49
-1.5
 74
     0
  0
LTYPE
  5
42
330
5
100
AcDbSymbolTableRecord
100
AcDbLinetypeTableRecord
  2
DOUBLE-DASHED_TRIPLICATE-DOTTED
 70
     0
  3
-----  ---------  -  -  -  -----
 72
    65
 73
    10
 40
20.25
 49
6.0
 74
     0
 49
-1.5
 74
     0
 49
6.0
 74
     0
 49
-1.5
 74
     0
 49
0.25
 74
     0
 49
-1.5
 74
     0
 49
0.25
 74
     0
 49
-1.5
 74
     0
 49
0.25
 74
     0
 49
-1.5
 74
     0
  0
LTYPE
  5
43
330
5
100
AcDbSymbolTableRecord
100
AcDbLinetypeTableRecord
  2
UNDEFINED
 70
     0
  3
--------------------------------
 72
    65
 73
     0
 40
0.0
  0
LTYPE
  5
44
330
5
100
AcDbSymbolTableRecord
100
AcDbLinetypeTableRecord
  2
PLINE2
 70
     0
  3
------     -----------     -----
 72
    65
 73
     2
 40
3.0
 49
2.1
 74
     0
 49
-0.9
 74
     0
  0
LTYPE
  5
45
330
5
100
AcDbSymbolTableRecord
100
AcDbLinetypeTableRecord
  2
PLINE3
 70
     0
  3
------------   ---   -----------
 72
    65
 73
     4
 40
10.0
 49
7.0
 74
     0
 49
-1.0
 74
     0
 49
1.0
 74
     0
 49
-1.0
 74
     0
  0
LTYPE
  5
46
330
5
100
AcDbSymbolTableRecord
100
AcDbLinetypeTableRecord
  2
PLINE4
 70
     0
  3
---------   ---   ---   --------
 72
    65
 73
     6
 40
10.0
 49
5.0
 74
     0
 49
-1.0
 74
     0
 49
1.0
 74
     0
 49
-1.0
 74
     0
 49
1.0
 74
     0
 49
-1.0
 74
     0
  0
LTYPE
  5
47
330
5
100
AcDbSymbolTableRecord
100
AcDbLinetypeTableRecord
  2
PLINE5
 70
     0
  3
------     -----------     -----
 72
    65
 73
     2
 40
5.0
 49
3.5
 74
     0
 49
-1.5
 74
     0
  0
LTYPE
  5
48
330
5
100
AcDbSymbolTableRecord
100
AcDbLinetypeTableRecord
  2
PLINE6
 70
     0
  3
------------   ---   -----------
 72
    65
 73
     4
 40
15.0
 49
10.5
 74
     0
 49
-1.5
 74
     0
 49
1.5
 74
     0
 49
-1.5
 74
     0
  0
LTYPE
  5
49
330
5
100
AcDbSymbolTableRecord
100
AcDbLinetypeTableRecord
  2
PLINE7
 70
     0
  3
---------   ---   ---   --------
 72
    65
 73
     6
 40
15.0
 49
7.5
 74
     0
 49
-1.5
 74
     0
 49
1.5
 74
     0
 49
-1.5
 74
     0
 49
1.5
 74
     0
 49
-1.5
 74
     0
  0
LTYPE
  5
4A
330
5
100
AcDbSymbolTableRecord
100
AcDbLinetypeTableRecord
  2
PLINE8
 70
     0
  3
------     -----------     -----
 72
    65
 73
     2
 40
7.0
 49
4.9
 74
     0
 49
-2.1
 74
     0
  0
LTYPE
  5
4B
330
5
100
AcDbSymbolTableRecord
100
AcDbLinetypeTableRecord
  2
PLINE9
 70
     0
  3
------------   ---   -----------
 72
    65
 73
     4
 40
20.0
 49
14.0
 74
     0
 49
-2.0
 74
     0
 49
2.0
 74
     0
 49
-2.0
 74
     0
  0
LTYPE
  5
4C
330
5
100
AcDbSymbolTableRecord
100
AcDbLinetypeTableRecord
  2
PLINE10
 70
     0
  3
---------   ---   ---   --------
 72
    65
 73
     6
 40
20.0
 49
10.0
 74
     0
 49
-2.0
 74
     0
 49
2.0
 74
     0
 49
-2.0
 74
     0
 49
2.0
 74
     0
 49
-2.0
 74
     0
  0
LTYPE
  5
4D
330
5
100
AcDbSymbolTableRecord
100
AcDbLinetypeTableRecord
  2
PLINE11
 70
     0
  3
------     -----------     -----
 72
    65
 73
     2
 40
9.0
 49
6.299999999999999
 74
     0
 49
-2.7
 74
     0
  0
LTYPE
  5
4E
330
5
100
AcDbSymbolTableRecord
100
AcDbLinetypeTableRecord
  2
PLINE12
 70
     0
  3
------------   ---   -----------
 72
    65
 73
     4
 40
25.0
 49
17.5
 74
     0
 49
-2.5
 74
     0
 49
2.5
 74
     0
 49
-2.5
 74
     0
  0
LTYPE
  5
4F
330
5
100
AcDbSymbolTableRecord
100
AcDbLinetypeTableRecord
  2
PLINE13
 70
     0
  3
---------   ---   ---   --------
 72
    65
 73
     6
 40
25.0
 49
12.5
 74
     0
 49
-2.5
 74
     0
 49
2.5
 74
     0
 49
-2.5
 74
     0
 49
2.5
 74
     0
 49
-2.5
 74
     0
  0
LTYPE
  5
50
330
5
100
AcDbSymbolTableRecord
100
AcDbLinetypeTableRecord
  2
PLINE14
 70
     0
  3
------     -----------     -----
 72
    65
 73
     2
 40
11.0
 49
7.7
 74
     0
 49
-3.299999999999999
 74
     0
  0
LTYPE
  5
51
330
5
100
AcDbSymbolTableRecord
100
AcDbLinetypeTableRecord
  2
PLINE15
 70
     0
  3
------------   ---   -----------
 72
    65
 73
     4
 40
30.0
 49
21.0
 74
     0
 49
-3.0
 74
     0
 49
3.0
 74
     0
 49
-3.0
 74
     0
  0
LTYPE
  5
52
330
5
100
AcDbSymbolTableRecord
100
AcDbLinetypeTableRecord
  2
PLINE16
 70
     0
  3
---------   ---   ---   --------
 72
    65
 73
     6
 40
30.0
 49
15.0
 74
     0
 49
-3.0
 74
     0
 49
3.0
 74
     0
 49
-3.0
 74
     0
 49
3.0
 74
     0
 49
-3.0
 74
     0
  0
ENDTAB
  0
TABLE
  2
LAYER
  5
2
102
{ACAD_XDICTIONARY
360
175
102
}
330
0
100
AcDbSymbolTable
 70
     5
  0
LAYER
  5
10
330
2
100
AcDbSymbolTableRecord
100
AcDbLayerTableRecord
  2
0
 70
     0
 62
     7
  6
CONTINUOUS
370
    -3
390
F
  0
LAYER
  5
128
330
2
100
AcDbSymbolTableRecord
100
AcDbLayerTableRecord
  2
Defpoints
 70
     0
 62
     7
  6
CONTINUOUS
290
     0
370
    -3
390
F
  0
LAYER
  5
179
330
2
100
AcDbSymbolTableRecord
100
AcDbLayerTableRecord
  2
製品
 70
     0
 62
     7
  6
CONTINUOUS
370
    -3
390
F
  0
LAYER
  5
6B63
330
2
100
AcDbSymbolTableRecord
100
AcDbLayerTableRecord
  2
寸法
 70
     0
 62
     7
  6
CONTINUOUS
370
    -3
390
F
  0
LAYER
  5
6B64
330
2
100
AcDbSymbolTableRecord
100
AcDbLayerTableRecord
  2
図面枠
 70
     0
 62
     7
  6
CONTINUOUS
370
    -3
390
F
  0
ENDTAB
  0
TABLE
  2
STYLE
  5
3
330
0
100
AcDbSymbolTable
 70
     4
  0
STYLE
  5
11
330
3
100
AcDbSymbolTableRecord
100
AcDbTextStyleTableRecord
  2
STANDARD
 70
     0
 40
0.0
 41
1.0
 50
0.0
 71
     0
 42
0.2
  3
txt
  4
bigfont.shx
  0
STYLE
  5
53
330
3
100
AcDbSymbolTableRecord
100
AcDbTextStyleTableRecord
  2
TATEGAKI
 70
     4
 40
0.0
 41
1.0
 50
0.0
 71
     0
 42
1.0
  3
txt
  4
bigfont.shx
  0
STYLE
  5
123
330
3
100
AcDbSymbolTableRecord
100
AcDbTextStyleTableRecord
  2
ACAD
 70
     0
 40
3.0
 41
0.8
 50
0.0
 71
     0
 42
5.0
  3
romans.shx
  4
extfont.shx
  0
STYLE
  5
3A5F
330
3
100
AcDbSymbolTableRecord
100
AcDbTextStyleTableRecord
  2
VERTXT
 70
     4
 40
0.0
 41
0.8582679999999999
 50
0.0
 71
     0
 42
3.5
  3
txt.shx
  4
BIGFONT
  0
ENDTAB
  0
TABLE
  2
VIEW
  5
6
330
0
100
AcDbSymbolTable
 70
     0
  0
ENDTAB
  0
TABLE
  2
UCS
  5
7
330
0
100
AcDbSymbolTable
 70
     0
  0
ENDTAB
  0
TABLE
  2
APPID
  5
9
330
0
100
AcDbSymbolTable
 70
     1
  0
APPID
  5
12
330
9
100
AcDbSymbolTableRecord
100
AcDbRegAppTableRecord
  2
ACAD
 70
     0
  0
ENDTAB
  0
TABLE
  2
DIMSTYLE
  5
A
330
0
100
AcDbSymbolTable
 70
     3
100
AcDbDimStyleTable
 71
     1
340
126
  0
DIMSTYLE
105
11C
330
A
100
AcDbSymbolTableRecord
100
AcDbDimStyleTableRecord
  2
Standard
 70
     0
340
11
  0
DIMSTYLE
105
126
102
{ACAD_REACTORS
330
6EDF
330
700B
102
}
330
A
100
AcDbSymbolTableRecord
100
AcDbDimStyleTableRecord
  2
AutoCAD
 70
     0
 41
1.0
 42
0.0
 44
0.0
 73
     0
 77
     1
140
3.0
147
1.0
174
     1
176
     4
177
     4
178
     3
271
     0
272
     0
289
     0
340
123
341
15B0
342
11E
  0
DIMSTYLE
105
2CBB
330
A
100
AcDbSymbolTableRecord
100
AcDbDimStyleTableRecord
  2
111
 70
     0
 41
1.0
 42
0.0
 44
0.0
 73
     0
 77
     1
140
5.0
147
1.0
174
     1
176
     4
177
     4
178
     3
271
     0
272
     0
289
     0
340
123
341
15B0
342
2CB5
  0
ENDTAB
  0
TABLE
  2
BLOCK_RECORD
  5
1
330
0
100
AcDbSymbolTable
 70
     6
  0
BLOCK_RECORD
  5
1E
102
{ACAD_XDICTIONARY
360
28B
102
}
330
1
100
AcDbSymbolTableRecord
100
AcDbBlockTableRecord
  2
*Model_Space
340
21
  0
BLOCK_RECORD
  5
1A
102
{ACAD_XDICTIONARY
360
28D
102
}
330
1
100
AcDbSymbolTableRecord
100
AcDbBlockTableRecord
  2
*Paper_Space
340
1D
  0
BLOCK_RECORD
  5
11E
330
1
100
AcDbSymbolTableRecord
100
AcDbBlockTableRecord
  2
_Dot
340
0
102
{BLKREFS
331
7315
331
7316
331
7329
331
732A
102
}
  0
BLOCK_RECORD
  5
15B0
330
1
100
AcDbSymbolTableRecord
100
AcDbBlockTableRecord
  2
_None
340
0
  0
BLOCK_RECORD
  5
2CB5
330
1
100
AcDbSymbolTableRecord
100
AcDbBlockTableRecord
  2
_Open30
340
0
  0
BLOCK_RECORD
  5
35E3
330
1
100
AcDbSymbolTableRecord
100
AcDbBlockTableRecord
  2
_DotBlank
340
0
  0
BLOCK_RECORD
  5
723A
330
1
100
AcDbSymbolTableRecord
100
AcDbBlockTableRecord
  2
*D4
340
0
  0
BLOCK_RECORD
  5
7246
330
1
100
AcDbSymbolTableRecord
100
AcDbBlockTableRecord
  2
*D5
340
0
  0
ENDTAB
  0
ENDSEC
  0
SECTION
  2
BLOCKS
  0
BLOCK
  5
1F
330
1E
100
AcDbEntity
  8
0
100
AcDbBlockBegin
  2
*Model_Space
 70
     0
 10
0.0
 20
0.0
 30
0.0
  3
*Model_Space
  1

  0
ENDBLK
  5
20
330
1E
100
AcDbEntity
  8
0
100
AcDbBlockEnd
  0
BLOCK
  5
1B
330
1A
100
AcDbEntity
 67
     1
  8
0
100
AcDbBlockBegin
  2
*Paper_Space
 70
     0
 10
0.0
 20
0.0
 30
0.0
  3
*Paper_Space
  1

  0
ENDBLK
  5
1C
330
1A
100
AcDbEntity
 67
     1
  8
0
100
AcDbBlockEnd
  0
BLOCK
  5
121
330
11E
100
AcDbEntity
  8
0
100
AcDbBlockBegin
  2
_Dot
 70
     0
 10
0.0
 20
0.0
 30
0.0
  3
_Dot
  1

  0
LWPOLYLINE
  5
11F
330
11E
100
AcDbEntity
  8
0
  6
ByBlock
 62
     0
100
AcDbPolyline
 90
        2
 70
     1
 43
0.5
 10
-0.25
 20
0.0
 42
1.0
 10
0.25
 20
0.0
 42
1.0
  0
LINE
  5
120
330
11E
100
AcDbEntity
  8
0
  6
ByBlock
 62
     0
370
    -2
100
AcDbLine
 10
-0.5
 20
0.0
 30
0.0
 11
-1.0
 21
0.0
 31
0.0
  0
ENDBLK
  5
122
330
11E
100
AcDbEntity
  8
0
100
AcDbBlockEnd
  0
BLOCK
  5
15B1
330
15B0
100
AcDbEntity
  8
0
100
AcDbBlockBegin
  2
_None
 70
     0
 10
0.0
 20
0.0
 30
0.0
  3
_None
  1

  0
ENDBLK
  5
15B2
330
15B0
100
AcDbEntity
  8
0
100
AcDbBlockEnd
  0
BLOCK
  5
2CB9
330
2CB5
100
AcDbEntity
  8
0
100
AcDbBlockBegin
  2
_Open30
 70
     0
 10
0.0
 20
0.0
 30
0.0
  3
_Open30
  1

  0
LINE
  5
2CB6
330
2CB5
100
AcDbEntity
  8
0
  6
ByBlock
 62
     0
370
    -2
100
AcDbLine
 10
-1.0
 20
0.26794919
 30
0.0
 11
0.0
 21
0.0
 31
0.0
  0
LINE
  5
2CB7
330
2CB5
100
AcDbEntity
  8
0
  6
ByBlock
 62
     0
370
    -2
100
AcDbLine
 10
0.0
 20
0.0
 30
0.0
 11
-1.0
 21
-0.26794919
 31
0.0
  0
LINE
  5
2CB8
330
2CB5
100
AcDbEntity
  8
0
  6
ByBlock
 62
     0
370
    -2
100
AcDbLine
 10
0.0
 20
0.0
 30
0.0
 11
-1.0
 21
0.0
 31
0.0
  0
ENDBLK
  5
2CBA
330
2CB5
100
AcDbEntity
  8
0
100
AcDbBlockEnd
  0
BLOCK
  5
35E6
330
35E3
100
AcDbEntity
  8
0
100
AcDbBlockBegin
  2
_DotBlank
 70
     0
 10
0.0
 20
0.0
 30
0.0
  3
_DotBlank
  1

  0
CIRCLE
  5
35E4
330
35E3
100
AcDbEntity
  8
0
  6
ByBlock
 62
     0
370
    -2
100
AcDbCircle
 10
0.0
 20
0.0
 30
0.0
 40
0.5
  0
LINE
  5
35E5
330
35E3
100
AcDbEntity
  8
0
  6
ByBlock
 62
     0
370
    -2
100
AcDbLine
 10
-0.5
 20
0.0
 30
0.0
 11
-1.0
 21
0.0
 31
0.0
  0
ENDBLK
  5
35E7
330
35E3
100
AcDbEntity
  8
0
100
AcDbBlockEnd
  0
BLOCK
  5
7244
330
723A
100
AcDbEntity
  8
0
100
AcDbBlockBegin
  2
*D4
 70
     1
 10
0.0
 20
0.0
 30
0.0
  3
*D4
  1

  0
LINE
  5
7311
330
723A
100
AcDbEntity
  8
寸法
  6
Continuous
 62
     4
370
    -2
100
AcDbLine
 10
294.0938618717758
 20
166.3963171853823
 30
0.0
 11
294.0938618717758
 21
156.4792694793033
 31
0.0
  0
LINE
  5
7312
330
723A
100
AcDbEntity
  8
寸法
  6
Continuous
 62
     4
370
    -2
100
AcDbLine
 10
296.0938618717758
 20
157.8963171853822
 30
0.0
 11
296.0938618717758
 21
156.4792694793033
 31
0.0
  0
LINE
  5
7313
330
723A
100
AcDbEntity
  8
寸法
  6
Continuous
 62
     4
370
    -2
100
AcDbLine
 10
297.0938618717759
 20
156.4792694793033
 30
0.0
 11
298.0938618717758
 21
156.4792694793033
 31
0.0
  0
LINE
  5
7314
330
723A
100
AcDbEntity
  8
寸法
  6
Continuous
 62
     4
370
    -2
100
AcDbLine
 10
293.0938618717759
 20
156.4792694793033
 30
0.0
 11
283.636719014633
 21
156.4792694793033
 31
0.0
  0
INSERT
  5
7315
330
723A
100
AcDbEntity
  8
寸法
  6
Continuous
 62
     4
370
    -2
100
AcDbBlockReference
  2
_Dot
 10
296.0938618717758
 20
156.4792694793033
 30
0.0
 50
180.0
  0
INSERT
  5
7316
330
723A
100
AcDbEntity
  8
寸法
  6
Continuous
 62
     4
370
    -2
100
AcDbBlockReference
  2
_Dot
 10
294.0938618717758
 20
156.4792694793033
 30
0.0
  0
MTEXT
  5
7317
330
723A
100
AcDbEntity
  8
寸法
  6
Continuous
 62
     3
100
AcDbMText
 10
287.8652904432044
 20
159.5649837650176
 30
0.0
 40
3.0
 41
0.0
 71
     5
 72
     1
  1
\A1;(10)
  7
ACAD
 73
     1
 44
1.0
1001
ACAD
1000
MTEXTBEGIN
1070
    73
1070
     1
1070
    44
1040
1.0
1070
    74
1070
     0
1000
MTEXTEND
  0
POINT
  5
7318
330
723A
100
AcDbEntity
  8
Defpoints
  6
Continuous
 62
     0
100
AcDbPoint
 10
294.0938618717758
 20
166.3963171853823
 30
0.0
  0
POINT
  5
7319
330
723A
100
AcDbEntity
  8
Defpoints
  6
Continuous
 62
     0
100
AcDbPoint
 10
296.0938618717758
 20
157.8963171853822
 30
0.0
  0
POINT
  5
731A
330
723A
100
AcDbEntity
  8
Defpoints
  6
Continuous
 62
     0
100
AcDbPoint
 10
296.0938618717758
 20
156.4792694793033
 30
0.0
  0
ENDBLK
  5
7245
330
723A
100
AcDbEntity
  8
0
100
AcDbBlockEnd
  0
BLOCK
  5
7250
330
7246
100
AcDbEntity
  8
0
100
AcDbBlockBegin
  2
*D5
 70
     1
 10
0.0
 20
0.0
 30
0.0
  3
*D5
  1

  0
LINE
  5
7325
330
7246
100
AcDbEntity
  8
寸法
  6
Continuous
 62
     4
370
    -2
100
AcDbLine
 10
388.153654903699
 20
166.6813588644536
 30
0.0
 11
388.153654903699
 21
156.4792694793033
 31
0.0
  0
LINE
  5
7326
330
7246
100
AcDbEntity
  8
寸法
  6
Continuous
 62
     4
370
    -2
100
AcDbLine
 10
390.153654903699
 20
158.1813588644536
 30
0.0
 11
390.153654903699
 21
156.4792694793033
 31
0.0
  0
LINE
  5
7327
330
7246
100
AcDbEntity
  8
寸法
  6
Continuous
 62
     4
370
    -2
100
AcDbLine
 10
391.153654903699
 20
156.4792694793033
 30
0.0
 11
392.153654903699
 21
156.4792694793033
 31
0.0
  0
LINE
  5
7328
330
7246
100
AcDbEntity
  8
寸法
  6
Continuous
 62
     4
370
    -2
100
AcDbLine
 10
387.153654903699
 20
156.4792694793033
 30
0.0
 11
377.6965120465562
 21
156.4792694793033
 31
0.0
  0
INSERT
  5
7329
330
7246
100
AcDbEntity
  8
寸法
  6
Continuous
 62
     4
370
    -2
100
AcDbBlockReference
  2
_Dot
 10
390.153654903699
 20
156.4792694793033
 30
0.0
 50
180.0
  0
INSERT
  5
732A
330
7246
100
AcDbEntity
  8
寸法
  6
Continuous
 62
     4
370
    -2
100
AcDbBlockReference
  2
_Dot
 10
388.153654903699
 20
156.4792694793033
 30
0.0
  0
MTEXT
  5
732B
330
7246
100
AcDbEntity
  8
寸法
  6
Continuous
 62
     3
100
AcDbMText
 10
381.9250834751276
 20
159.5649837650176
 30
0.0
 40
3.0
 41
0.0
 71
     5
 72
     1
  1
\A1;(10)
  7
ACAD
 73
     1
 44
1.0
1001
ACAD
1000
MTEXTBEGIN
1070
    73
1070
     1
1070
    44
1040
1.0
1070
    74
1070
     0
1000
MTEXTEND
  0
POINT
  5
732C
330
7246
100
AcDbEntity
  8
Defpoints
  6
Continuous
 62
     0
100
AcDbPoint
 10
388.153654903699
 20
166.6813588644536
 30
0.0
  0
POINT
  5
732D
330
7246
100
AcDbEntity
  8
Defpoints
  6
Continuous
 62
     0
100
AcDbPoint
 10
390.153654903699
 20
158.1813588644536
 30
0.0
  0
POINT
  5
732E
330
7246
100
AcDbEntity
  8
Defpoints
  6
Continuous
 62
     0
100
AcDbPoint
 10
390.153654903699
 20
156.4792694793033
 30
0.0
  0
ENDBLK
  5
7251
330
7246
100
AcDbEntity
  8
0
100
AcDbBlockEnd
  0
ENDSEC
  0
SECTION
  2
ENTITIES
  0
LINE
  5
6ED2
330
1E
100
AcDbEntity
  8
製品
  6
Continuous
 62
     4
100
AcDbLine
 10
295.8618618717759
 20
182.0963171853822
 30
0.0
 11
315.3938618717759
 21
182.0963171853822
 31
0.0
  0
LINE
  5
6ED3
330
1E
100
AcDbEntity
  8
製品
  6
Continuous
 62
     4
100
AcDbLine
 10
294.8618618717759
 20
174.4963171853822
 30
0.0
 11
315.3938618717759
 21
174.4963171853822
 31
0.0
  0
LINE
  5
6ED4
330
1E
100
AcDbEntity
  8
図面枠
  6
Continuous
 62
     2
100
AcDbLine
 10
305.5938618717759
 20
174.4963171853822
 30
0.0
 11
317.1408678717759
 21
202.0963171853823
 31
0.0
  0
LINE
  5
6ED5
330
1E
100
AcDbEntity
  8
図面枠
  6
Continuous
 62
     2
100
AcDbLine
 10
305.5938618717759
 20
182.0963171853822
 30
0.0
 11
317.1408678717759
 21
202.0963171853823
 31
0.0
  0
LINE
  5
6ED6
330
1E
100
AcDbEntity
  8
製品
  6
Continuous
 62
     4
100
AcDbLine
 10
309.3938618717759
 20
186.0963171853823
 30
0.0
 11
309.3938618717759
 21
182.0963171853822
 31
0.0
  0
LINE
  5
6ED7
330
1E
100
AcDbEntity
  8
製品
  6
Continuous
 62
     4
100
AcDbLine
 10
301.7938618717759
 20
186.0963171853823
 30
0.0
 11
301.7938618717759
 21
182.0963171853822
 31
0.0
  0
LINE
  5
6ED8
330
1E
100
AcDbEntity
  8
製品
  6
Continuous
 62
     4
100
AcDbLine
 10
287.2618618717758
 20
174.4963171853822
 30
0.0
 11
275.3938618717759
 21
174.4963171853822
 31
0.0
  0
LINE
  5
6ED9
330
1E
100
AcDbEntity
  8
製品
  6
Continuous
 62
     4
100
AcDbLine
 10
286.2618618717759
 20
182.0963171853822
 30
0.0
 11
275.3938618717759
 21
182.0963171853822
 31
0.0
  0
LINE
  5
6EDA
330
1E
100
AcDbEntity
  8
製品
  6
Continuous
 62
     4
100
AcDbLine
 10
275.3938618717759
 20
167.8963171853823
 30
0.0
 11
293.8938618717759
 21
167.8963171853823
 31
0.0
  0
LINE
  5
6EDB
330
1E
100
AcDbEntity
  8
製品
  6
Continuous
 62
     4
100
AcDbLine
 10
275.3938618717759
 20
170.4963171853823
 30
0.0
 11
293.8938618717759
 21
170.4963171853823
 31
0.0
  0
LINE
  5
6EDC
330
1E
100
AcDbEntity
  8
図面枠
  6
Continuous
 62
     2
100
AcDbLine
 10
291.0938618717759
 20
167.3963171853823
 30
0.0
 11
274.7857898717759
 21
157.8963171853822
 31
0.0
  0
TEXT
  5
6EDD
330
1E
100
AcDbEntity
  8
図面枠
  6
Continuous
 62
     2
100
AcDbText
 10
266.785791871776
 20
158.8963067891187
 30
0.0
 40
3.0
  1
見切縁
 50
0.0000100000010064
 41
0.8
  7
ACAD
 72
     2
 11
274.7857918717759
 21
158.8963081853823
 31
0.0
100
AcDbText
  0
LINE
  5
6EDE
330
1E
100
AcDbEntity
  8
図面枠
  6
Continuous
 62
     2
100
AcDbLine
 10
274.7857898717759
 20
157.8963171853822
 30
0.0
 11
265.7557898717759
 21
157.8963171853822
 31
0.0
  0
DIMENSION
  5
6EDF
330
1E
100
AcDbEntity
  8
寸法
  6
Continuous
100
AcDbDimension
  2
*D4
 10
296.0938618717758
 20
156.4792694793033
 30
0.0
 11
287.8652904432044
 21
156.4792694793033
 31
0.0
 70
   160
  1
(10)
 71
     5
 42
2.0
  3
AutoCAD
100
AcDbAlignedDimension
 13
294.0938618717758
 23
166.3963171853823
 33
0.0
 14
296.0938618717758
 24
157.8963171853822
 34
0.0
100
AcDbRotatedDimension
1001
ACAD
1000
DSTYLE
1002
{
1070
   147
1040
0.8
1070
   140
1040
10.0
1002
}
  0
LINE
  5
6EE0
330
1E
100
AcDbEntity
  8
製品
  6
Continuous
 62
     4
100
AcDbLine
 10
301.7938618717759
 20
166.6463171853823
 30
0.0
 11
301.7938618717759
 21
146.0963171853823
 31
0.0
  0
LINE
  5
6EE1
330
1E
100
AcDbEntity
  8
製品
  6
Continuous
 62
     4
100
AcDbLine
 10
309.3938618717759
 20
164.8963171853823
 30
0.0
 11
309.3938618717759
 21
146.0963171853823
 31
0.0
  0
LINE
  5
6EE2
330
1E
100
AcDbEntity
  8
製品
  6
Continuous
 62
     4
100
AcDbLine
 10
297.9938618717759
 20
172.4963171853822
 30
0.0
 11
297.9938618717759
 21
146.0963171853823
 31
0.0
  0
LINE
  5
6EE3
330
1E
100
AcDbEntity
  8
製品
  6
Continuous
 62
     4
100
AcDbLine
 10
296.0938618717758
 20
172.4963171853822
 30
0.0
 11
296.0938618717758
 21
146.0963171853823
 31
0.0
  0
ARC
  5
6EE4
330
1E
100
AcDbEntity
  8
製品
  6
Continuous
 62
     2
100
AcDbCircle
 10
293.0618618717759
 20
173.6763171853823
 30
0.0
 40
0.5
100
AcDbArc
 50
180.0
 51
0.0
  0
LINE
  5
6EE5
330
1E
100
AcDbEntity
  8
製品
  6
Continuous
 62
     2
100
AcDbLine
 10
295.8618618717759
 20
182.2163171853823
 30
0.0
 11
286.2618618717759
 21
182.2163171853823
 31
0.0
  0
LINE
  5
6EE6
330
1E
100
AcDbEntity
  8
製品
  6
Continuous
 62
     2
100
AcDbLine
 10
295.4618618717759
 20
172.6163171853823
 30
0.0
 11
286.6618618717758
 21
172.6163171853823
 31
0.0
  0
LINE
  5
6EE7
330
1E
100
AcDbEntity
  8
製品
  6
Continuous
 62
     2
100
AcDbLine
 10
294.2618618717759
 20
181.0963171853823
 30
0.0
 11
287.8618618717759
 21
181.0963171853823
 31
0.0
  0
LINE
  5
6EE8
330
1E
100
AcDbEntity
  8
製品
  6
Continuous
 62
     2
100
AcDbLine
 10
293.4202618717759
 20
170.8837171853823
 30
0.0
 11
293.1962618717758
 21
170.8089171853823
 31
0.0
  0
LINE
  5
6EE9
330
1E
100
AcDbEntity
  8
製品
  6
Continuous
 62
     2
100
AcDbLine
 10
293.4202618717759
 20
170.7837171853823
 30
0.0
 11
293.1962618717758
 21
170.7089171853823
 31
0.0
  0
LINE
  5
6EEA
330
1E
100
AcDbEntity
  8
製品
  6
Continuous
 62
     4
100
AcDbLine
 10
293.8938618717759
 20
167.5963171853823
 30
0.0
 11
291.2938618717759
 21
167.5963171853823
 31
0.0
  0
LINE
  5
6EEB
330
1E
100
AcDbEntity
  8
製品
  6
Continuous
 62
     4
100
AcDbLine
 10
294.0938618717758
 20
167.3963171853823
 30
0.0
 11
291.0938618717759
 21
167.3963171853823
 31
0.0
  0
LINE
  5
6EEC
330
1E
100
AcDbEntity
  8
製品
  6
Continuous
 62
     4
100
AcDbLine
 10
290.0618618717759
 20
170.6963171853822
 30
0.0
 11
297.9618618717759
 21
170.6963171853822
 31
0.0
  0
LINE
  5
6EED
330
1E
100
AcDbEntity
  8
製品
  6
Continuous
 62
     2
100
AcDbLine
 10
286.1618618717758
 20
171.2963171853823
 30
0.0
 11
286.1618618717758
 21
174.1963171853822
 31
0.0
  0
LINE
  5
6EEE
330
1E
100
AcDbEntity
  8
製品
  6
Continuous
 62
     2
100
AcDbLine
 10
286.0618618717759
 20
171.2963171853823
 30
0.0
 11
286.0618618717759
 21
174.1963171853822
 31
0.0
  0
ARC
  5
6EEF
330
1E
100
AcDbEntity
  8
製品
  6
Continuous
 62
     2
100
AcDbCircle
 10
286.6618618717758
 20
173.0163171853822
 30
0.0
 40
0.4
100
AcDbArc
 50
180.0
 51
270.0
  0
ARC
  5
6EF0
330
1E
100
AcDbEntity
  8
製品
  6
Continuous
 62
     2
100
AcDbCircle
 10
289.2654618717759
 20
170.7699171853823
 30
0.0
 40
0.12
100
AcDbArc
 50
71.53485100000181
 51
108.4651489999981
  0
ARC
  5
6EF1
330
1E
100
AcDbEntity
  8
製品
  6
Continuous
 62
     2
100
AcDbCircle
 10
289.2654618717759
 20
170.6699171853822
 30
0.0
 40
0.12
100
AcDbArc
 50
71.53485100000181
 51
108.4651489999981
  0
ARC
  5
6EF2
330
1E
100
AcDbEntity
  8
製品
  6
Continuous
 62
     2
100
AcDbCircle
 10
287.4746618717759
 20
170.6667171853823
 30
0.0
 40
0.12
100
AcDbArc
 50
71.53485100000181
 51
116.5223539999986
  0
LINE
  5
6EF3
330
1E
100
AcDbEntity
  8
製品
  6
Continuous
 62
     2
100
AcDbLine
 10
287.2906618717759
 20
170.8089171853823
 30
0.0
 11
287.4210618717759
 21
170.8741171853823
 31
0.0
  0
ARC
  5
6EF4
330
1E
100
AcDbEntity
  8
製品
  6
Continuous
 62
     2
100
AcDbCircle
 10
287.4746618717759
 20
170.7667171853822
 30
0.0
 40
0.12
100
AcDbArc
 50
71.56504800000009
 51
116.5223539999986
  0
LINE
  5
6EF5
330
1E
100
AcDbEntity
  8
製品
  6
Continuous
 62
     2
100
AcDbLine
 10
287.5126618717759
 20
170.7805171853823
 30
0.0
 11
287.7276618717758
 21
170.7089171853823
 31
0.0
  0
ARC
  5
6EF6
330
1E
100
AcDbEntity
  8
製品
  6
Continuous
 62
     2
100
AcDbCircle
 10
287.7654618717759
 20
170.8227171853823
 30
0.0
 40
0.12
100
AcDbArc
 50
251.6254880000007
 51
288.4651489999982
  0
LINE
  5
6EF7
330
1E
100
AcDbEntity
  8
製品
  6
Continuous
 62
     2
100
AcDbLine
 10
287.2906618717759
 20
170.7089171853823
 30
0.0
 11
287.4210618717759
 21
170.7741171853823
 31
0.0
  0
LINE
  5
6EF8
330
1E
100
AcDbEntity
  8
製品
  6
Continuous
 62
     2
100
AcDbLine
 10
288.1034618717759
 20
170.7837171853823
 30
0.0
 11
288.3274618717759
 21
170.7089171853823
 31
0.0
  0
LINE
  5
6EF9
330
1E
100
AcDbEntity
  8
製品
  6
Continuous
 62
     2
100
AcDbLine
 10
288.1034618717759
 20
170.8837171853823
 30
0.0
 11
288.3274618717759
 21
170.8089171853823
 31
0.0
  0
LINE
  5
6EFA
330
1E
100
AcDbEntity
  8
製品
  6
Continuous
 62
     2
100
AcDbLine
 10
288.4034618717759
 20
170.8089171853823
 30
0.0
 11
288.6274618717759
 21
170.8837171853823
 31
0.0
  0
ARC
  5
6EFB
330
1E
100
AcDbEntity
  8
製品
  6
Continuous
 62
     2
100
AcDbCircle
 10
288.6654618717758
 20
170.7699171853823
 30
0.0
 40
0.12
100
AcDbArc
 50
71.53485100000181
 51
108.4651489999981
  0
LINE
  5
6EFC
330
1E
100
AcDbEntity
  8
製品
  6
Continuous
 62
     2
100
AcDbLine
 10
288.4034618717759
 20
170.7089171853823
 30
0.0
 11
288.6274618717759
 21
170.7837171853823
 31
0.0
  0
ARC
  5
6EFD
330
1E
100
AcDbEntity
  8
製品
  6
Continuous
 62
     2
100
AcDbCircle
 10
288.6654618717758
 20
170.6699171853822
 30
0.0
 40
0.12
100
AcDbArc
 50
71.53485100000181
 51
108.4651489999981
  0
LINE
  5
6EFE
330
1E
100
AcDbEntity
  8
製品
  6
Continuous
 62
     2
100
AcDbLine
 10
288.7034618717759
 20
170.8837171853823
 30
0.0
 11
288.9274618717759
 21
170.8089171853823
 31
0.0
  0
LINE
  5
6EFF
330
1E
100
AcDbEntity
  8
製品
  6
Continuous
 62
     2
100
AcDbLine
 10
288.7034618717759
 20
170.7837171853823
 30
0.0
 11
288.9274618717759
 21
170.7089171853823
 31
0.0
  0
ARC
  5
6F00
330
1E
100
AcDbEntity
  8
製品
  6
Continuous
 62
     2
100
AcDbCircle
 10
288.9654618717759
 20
170.9227171853823
 30
0.0
 40
0.12
100
AcDbArc
 50
251.5348510000018
 51
288.4651489999982
  0
ARC
  5
6F01
330
1E
100
AcDbEntity
  8
製品
  6
Continuous
 62
     2
100
AcDbCircle
 10
288.9654618717759
 20
170.8227171853823
 30
0.0
 40
0.12
100
AcDbArc
 50
251.5348510000018
 51
288.4651489999982
  0
LINE
  5
6F02
330
1E
100
AcDbEntity
  8
製品
  6
Continuous
 62
     2
100
AcDbLine
 10
289.0034618717759
 20
170.8089171853823
 30
0.0
 11
289.2274618717759
 21
170.8837171853823
 31
0.0
  0
LINE
  5
6F03
330
1E
100
AcDbEntity
  8
製品
  6
Continuous
 62
     2
100
AcDbLine
 10
289.0034618717759
 20
170.7089171853823
 30
0.0
 11
289.2274618717759
 21
170.7837171853823
 31
0.0
  0
LINE
  5
6F04
330
1E
100
AcDbEntity
  8
製品
  6
Continuous
 62
     2
100
AcDbLine
 10
287.5126618717759
 20
170.8807171853823
 30
0.0
 11
287.7274618717759
 21
170.8089171853823
 31
0.0
  0
ARC
  5
6F05
330
1E
100
AcDbEntity
  8
製品
  6
Continuous
 62
     2
100
AcDbCircle
 10
287.7654618717759
 20
170.9229171853823
 30
0.0
 40
0.12
100
AcDbArc
 50
251.5650480000001
 51
288.4349370000003
  0
LINE
  5
6F06
330
1E
100
AcDbEntity
  8
製品
  6
Continuous
 62
     2
100
AcDbLine
 10
287.8034618717759
 20
170.8089171853823
 30
0.0
 11
288.0274618717759
 21
170.8837171853823
 31
0.0
  0
ARC
  5
6F07
330
1E
100
AcDbEntity
  8
製品
  6
Continuous
 62
     2
100
AcDbCircle
 10
288.0654618717759
 20
170.7699171853823
 30
0.0
 40
0.12
100
AcDbArc
 50
71.53485100000181
 51
108.4651489999981
  0
LINE
  5
6F08
330
1E
100
AcDbEntity
  8
製品
  6
Continuous
 62
     2
100
AcDbLine
 10
287.8034618717759
 20
170.7089171853823
 30
0.0
 11
288.0274618717759
 21
170.7837171853823
 31
0.0
  0
ARC
  5
6F09
330
1E
100
AcDbEntity
  8
製品
  6
Continuous
 62
     2
100
AcDbCircle
 10
288.0654618717759
 20
170.6699171853822
 30
0.0
 40
0.12
100
AcDbArc
 50
71.53485100000181
 51
108.4651489999981
  0
ARC
  5
6F0A
330
1E
100
AcDbEntity
  8
製品
  6
Continuous
 62
     2
100
AcDbCircle
 10
288.3654618717759
 20
170.8227171853823
 30
0.0
 40
0.12
100
AcDbArc
 50
251.5348510000018
 51
288.4651489999982
  0
ARC
  5
6F0B
330
1E
100
AcDbEntity
  8
製品
  6
Continuous
 62
     2
100
AcDbCircle
 10
288.3654618717759
 20
170.9227171853823
 30
0.0
 40
0.12
100
AcDbArc
 50
251.5348510000018
 51
288.4651489999982
  0
ARC
  5
6F0C
330
1E
100
AcDbEntity
  8
製品
  6
Continuous
 62
     2
100
AcDbCircle
 10
287.2370618717759
 20
170.9163171853823
 30
0.0
 40
0.12
100
AcDbArc
 50
270.0
 51
296.5223690000001
  0
ARC
  5
6F0D
330
1E
100
AcDbEntity
  8
製品
  6
Continuous
 62
     2
100
AcDbCircle
 10
287.2370618717759
 20
170.8163171853823
 30
0.0
 40
0.12
100
AcDbArc
 50
270.0
 51
296.5223690000001
  0
LINE
  5
6F0E
330
1E
100
AcDbEntity
  8
製品
  6
Continuous
 62
     2
100
AcDbLine
 10
286.6618618717758
 20
170.7963171853823
 30
0.0
 11
287.2370618717759
 21
170.7963171853823
 31
0.0
  0
LINE
  5
6F0F
330
1E
100
AcDbEntity
  8
製品
  6
Continuous
 62
     2
100
AcDbLine
 10
286.6618618717758
 20
170.6963171853822
 30
0.0
 11
287.2498618717759
 21
170.6963171853822
 31
0.0
  0
ARC
  5
6F10
330
1E
100
AcDbEntity
  8
製品
  6
Continuous
 62
     2
100
AcDbCircle
 10
286.6618618717758
 20
171.2963171853823
 30
0.0
 40
0.6
100
AcDbArc
 50
180.0
 51
270.0
  0
ARC
  5
6F11
330
1E
100
AcDbEntity
  8
製品
  6
Continuous
 62
     2
100
AcDbCircle
 10
286.6618618717758
 20
171.2963171853823
 30
0.0
 40
0.5
100
AcDbArc
 50
180.0
 51
270.0
  0
ARC
  5
6F12
330
1E
100
AcDbEntity
  8
製品
  6
Continuous
 62
     2
100
AcDbCircle
 10
293.1582618717759
 20
170.9227171853823
 30
0.0
 40
0.12
100
AcDbArc
 50
251.5348510000018
 51
288.4651489999982
  0
ARC
  5
6F13
330
1E
100
AcDbEntity
  8
製品
  6
Continuous
 62
     2
100
AcDbCircle
 10
293.1582618717759
 20
170.8227171853823
 30
0.0
 40
0.12
100
AcDbArc
 50
251.5348510000018
 51
288.4651489999982
  0
ARC
  5
6F14
330
1E
100
AcDbEntity
  8
製品
  6
Continuous
 62
     2
100
AcDbCircle
 10
292.8582618717759
 20
170.7699171853823
 30
0.0
 40
0.12
100
AcDbArc
 50
71.53485100000181
 51
108.4651489999981
  0
ARC
  5
6F15
330
1E
100
AcDbEntity
  8
製品
  6
Continuous
 62
     2
100
AcDbCircle
 10
292.8582618717759
 20
170.6699171853822
 30
0.0
 40
0.12
100
AcDbArc
 50
71.53485100000181
 51
108.4651489999981
  0
ARC
  5
6F16
330
1E
100
AcDbEntity
  8
製品
  6
Continuous
 62
     2
100
AcDbCircle
 10
292.5582618717759
 20
170.8227171853823
 30
0.0
 40
0.12
100
AcDbArc
 50
251.5348510000018
 51
288.4651489999982
  0
ARC
  5
6F17
330
1E
100
AcDbEntity
  8
製品
  6
Continuous
 62
     2
100
AcDbCircle
 10
292.5582618717759
 20
170.9227171853823
 30
0.0
 40
0.12
100
AcDbArc
 50
251.5348510000018
 51
288.4651489999982
  0
ARC
  5
6F18
330
1E
100
AcDbEntity
  8
製品
  6
Continuous
 62
     2
100
AcDbCircle
 10
292.2674618717759
 20
170.7667171853822
 30
0.0
 40
0.12
100
AcDbArc
 50
71.53485100000181
 51
116.5223539999986
  0
ARC
  5
6F19
330
1E
100
AcDbEntity
  8
製品
  6
Continuous
 62
     2
100
AcDbCircle
 10
292.2674618717759
 20
170.6667171853823
 30
0.0
 40
0.12
100
AcDbArc
 50
71.53485100000181
 51
116.5223539999986
  0
LINE
  5
6F1A
330
1E
100
AcDbEntity
  8
製品
  6
Continuous
 62
     2
100
AcDbLine
 10
293.1202618717759
 20
170.8089171853823
 30
0.0
 11
292.8962618717759
 21
170.8837171853823
 31
0.0
  0
LINE
  5
6F1B
330
1E
100
AcDbEntity
  8
製品
  6
Continuous
 62
     2
100
AcDbLine
 10
293.1202618717759
 20
170.7089171853823
 30
0.0
 11
292.8962618717759
 21
170.7837171853823
 31
0.0
  0
LINE
  5
6F1C
330
1E
100
AcDbEntity
  8
製品
  6
Continuous
 62
     2
100
AcDbLine
 10
292.8202618717758
 20
170.7837171853823
 30
0.0
 11
292.5962618717759
 21
170.7089171853823
 31
0.0
  0
LINE
  5
6F1D
330
1E
100
AcDbEntity
  8
製品
  6
Continuous
 62
     2
100
AcDbLine
 10
292.8202618717758
 20
170.8837171853823
 30
0.0
 11
292.5962618717759
 21
170.8089171853823
 31
0.0
  0
LINE
  5
6F1E
330
1E
100
AcDbEntity
  8
製品
  6
Continuous
 62
     2
100
AcDbLine
 10
292.5202618717759
 20
170.8089171853823
 30
0.0
 11
292.3054618717759
 21
170.8805171853823
 31
0.0
  0
LINE
  5
6F1F
330
1E
100
AcDbEntity
  8
製品
  6
Continuous
 62
     2
100
AcDbLine
 10
292.5202618717759
 20
170.7089171853823
 30
0.0
 11
292.3054618717759
 21
170.7805171853823
 31
0.0
  0
LINE
  5
6F20
330
1E
100
AcDbEntity
  8
製品
  6
Continuous
 62
     4
100
AcDbLine
 10
290.0938618717759
 20
170.6963171853822
 30
0.0
 11
290.0938618717759
 21
170.4963171853823
 31
0.0
  0
LINE
  5
6F21
330
1E
100
AcDbEntity
  8
製品
  6
Continuous
 62
     4
100
AcDbLine
 10
291.0938618717759
 20
167.3963171853823
 30
0.0
 11
291.0938618717759
 21
167.8963171853823
 31
0.0
  0
LINE
  5
6F22
330
1E
100
AcDbEntity
  8
製品
  6
Continuous
 62
     4
100
AcDbLine
 10
291.2938618717759
 20
167.8963171853823
 30
0.0
 11
291.2938618717759
 21
167.5963171853823
 31
0.0
  0
LINE
  5
6F23
330
1E
100
AcDbEntity
  8
製品
  6
Continuous
 62
     2
100
AcDbLine
 10
292.0298618717759
 20
170.7963171853823
 30
0.0
 11
291.2902618717759
 21
170.7963171853823
 31
0.0
  0
LINE
  5
6F24
330
1E
100
AcDbEntity
  8
製品
  6
Continuous
 62
     2
100
AcDbLine
 10
292.0298618717759
 20
170.6963171853822
 30
0.0
 11
291.2902618717759
 21
170.6963171853822
 31
0.0
  0
LINE
  5
6F25
330
1E
100
AcDbEntity
  8
製品
  6
Continuous
 62
     2
100
AcDbLine
 10
290.0938618717759
 20
170.6963171853822
 30
0.0
 11
290.8334618717759
 21
170.6963171853822
 31
0.0
  0
ARC
  5
6F26
330
1E
100
AcDbEntity
  8
製品
  6
Continuous
 62
     2
100
AcDbCircle
 10
292.0298618717759
 20
170.9163171853823
 30
0.0
 40
0.12
100
AcDbArc
 50
270.0
 51
296.5223690000001
  0
ARC
  5
6F27
330
1E
100
AcDbEntity
  8
製品
  6
Continuous
 62
     2
100
AcDbCircle
 10
292.0298618717759
 20
170.8163171853823
 30
0.0
 40
0.12
100
AcDbArc
 50
270.0
 51
296.5223690000001
  0
LINE
  5
6F28
330
1E
100
AcDbEntity
  8
製品
  6
Continuous
 62
     2
100
AcDbLine
 10
291.2366618717759
 20
170.8089171853823
 30
0.0
 11
291.1154618717759
 21
170.8695171853823
 31
0.0
  0
LINE
  5
6F29
330
1E
100
AcDbEntity
  8
製品
  6
Continuous
 62
     2
100
AcDbLine
 10
291.2366618717759
 20
170.7089171853823
 30
0.0
 11
291.1154618717759
 21
170.7695171853823
 31
0.0
  0
LINE
  5
6F2A
330
1E
100
AcDbEntity
  8
製品
  6
Continuous
 62
     2
100
AcDbLine
 10
290.0938618717759
 20
170.7963171853823
 30
0.0
 11
290.8334618717759
 21
170.7963171853823
 31
0.0
  0
LINE
  5
6F2B
330
1E
100
AcDbEntity
  8
製品
  6
Continuous
 62
     2
100
AcDbLine
 10
289.6034618717759
 20
170.8089171853823
 30
0.0
 11
289.8182618717759
 21
170.8805171853823
 31
0.0
  0
ARC
  5
6F2C
330
1E
100
AcDbEntity
  8
製品
  6
Continuous
 62
     2
100
AcDbCircle
 10
289.8562618717759
 20
170.7667171853822
 30
0.0
 40
0.12
100
AcDbArc
 50
63.47764199999922
 51
108.4651489999981
  0
LINE
  5
6F2D
330
1E
100
AcDbEntity
  8
製品
  6
Continuous
 62
     2
100
AcDbLine
 10
289.6034618717759
 20
170.7089171853823
 30
0.0
 11
289.8182618717759
 21
170.7805171853823
 31
0.0
  0
ARC
  5
6F2E
330
1E
100
AcDbEntity
  8
製品
  6
Continuous
 62
     2
100
AcDbCircle
 10
289.8562618717759
 20
170.6667171853823
 30
0.0
 40
0.12
100
AcDbArc
 50
63.47764199999922
 51
108.4651489999981
  0
LINE
  5
6F2F
330
1E
100
AcDbEntity
  8
製品
  6
Continuous
 62
     2
100
AcDbLine
 10
289.9098618717759
 20
170.8741171853823
 30
0.0
 11
290.0402618717759
 21
170.8089171853823
 31
0.0
  0
ARC
  5
6F30
330
1E
100
AcDbEntity
  8
製品
  6
Continuous
 62
     2
100
AcDbCircle
 10
290.0938618717759
 20
170.9163171853823
 30
0.0
 40
0.12
100
AcDbArc
 50
243.4776460000013
 51
270.0
  0
LINE
  5
6F31
330
1E
100
AcDbEntity
  8
製品
  6
Continuous
 62
     2
100
AcDbLine
 10
289.9098618717759
 20
170.7741171853823
 30
0.0
 11
290.0402618717759
 21
170.7089171853823
 31
0.0
  0
ARC
  5
6F32
330
1E
100
AcDbEntity
  8
製品
  6
Continuous
 62
     2
100
AcDbCircle
 10
290.0938618717759
 20
170.8163171853823
 30
0.0
 40
0.12
100
AcDbArc
 50
243.4776460000013
 51
270.0
  0
LINE
  5
6F33
330
1E
100
AcDbEntity
  8
製品
  6
Continuous
 62
     2
100
AcDbLine
 10
290.8870618717759
 20
170.7089171853823
 30
0.0
 11
291.0082618717758
 21
170.7695171853823
 31
0.0
  0
ARC
  5
6F34
330
1E
100
AcDbEntity
  8
製品
  6
Continuous
 62
     2
100
AcDbCircle
 10
291.0618618717759
 20
170.7621171853823
 30
0.0
 40
0.12
100
AcDbArc
 50
63.47764199999922
 51
116.5223539999986
  0
ARC
  5
6F35
330
1E
100
AcDbEntity
  8
製品
  6
Continuous
 62
     2
100
AcDbCircle
 10
291.0618618717759
 20
170.6621171853822
 30
0.0
 40
0.12
100
AcDbArc
 50
63.47764199999922
 51
116.5223539999986
  0
ARC
  5
6F36
330
1E
100
AcDbEntity
  8
製品
  6
Continuous
 62
     2
100
AcDbCircle
 10
291.2902618717759
 20
170.9163171853823
 30
0.0
 40
0.12
100
AcDbArc
 50
243.4776460000013
 51
270.0
  0
ARC
  5
6F37
330
1E
100
AcDbEntity
  8
製品
  6
Continuous
 62
     2
100
AcDbCircle
 10
291.2902618717759
 20
170.8163171853823
 30
0.0
 40
0.12
100
AcDbArc
 50
243.4776460000013
 51
270.0
  0
ARC
  5
6F38
330
1E
100
AcDbEntity
  8
製品
  6
Continuous
 62
     2
100
AcDbCircle
 10
290.8334618717759
 20
170.8163171853823
 30
0.0
 40
0.12
100
AcDbArc
 50
270.0
 51
296.5223690000001
  0
LINE
  5
6F39
330
1E
100
AcDbEntity
  8
製品
  6
Continuous
 62
     2
100
AcDbLine
 10
290.8870618717759
 20
170.8089171853823
 30
0.0
 11
291.0082618717758
 21
170.8695171853823
 31
0.0
  0
ARC
  5
6F3A
330
1E
100
AcDbEntity
  8
製品
  6
Continuous
 62
     2
100
AcDbCircle
 10
290.8334618717759
 20
170.9163171853823
 30
0.0
 40
0.12
100
AcDbArc
 50
270.0
 51
296.5223690000001
  0
LINE
  5
6F3B
330
1E
100
AcDbEntity
  8
製品
  6
Continuous
 62
     2
100
AcDbLine
 10
292.2138618717759
 20
170.8741171853823
 30
0.0
 11
292.0834618717758
 21
170.8089171853823
 31
0.0
  0
LINE
  5
6F3C
330
1E
100
AcDbEntity
  8
製品
  6
Continuous
 62
     2
100
AcDbLine
 10
292.2138618717759
 20
170.7741171853823
 30
0.0
 11
292.0834618717758
 21
170.7089171853823
 31
0.0
  0
CIRCLE
  5
6F3D
330
1E
100
AcDbEntity
  8
図面枠
  6
Continuous
 62
     2
100
AcDbCircle
 10
291.0938618717759
 20
167.3963171853823
 30
0.0
 40
0.3
  0
LINE
  5
6F3E
330
1E
100
AcDbEntity
  8
製品
  6
Continuous
 62
     2
100
AcDbLine
 10
289.3034618717759
 20
170.7837171853823
 30
0.0
 11
289.5274618717759
 21
170.7089171853823
 31
0.0
  0
LINE
  5
6F3F
330
1E
100
AcDbEntity
  8
製品
  6
Continuous
 62
     2
100
AcDbLine
 10
289.3034618717759
 20
170.8837171853823
 30
0.0
 11
289.5274618717759
 21
170.8089171853823
 31
0.0
  0
ARC
  5
6F40
330
1E
100
AcDbEntity
  8
製品
  6
Continuous
 62
     2
100
AcDbCircle
 10
289.5654618717759
 20
170.8227171853823
 30
0.0
 40
0.12
100
AcDbArc
 50
251.5348510000018
 51
288.4651489999982
  0
ARC
  5
6F41
330
1E
100
AcDbEntity
  8
製品
  6
Continuous
 62
     2
100
AcDbCircle
 10
289.5654618717759
 20
170.9227171853823
 30
0.0
 40
0.12
100
AcDbArc
 50
251.5348510000018
 51
288.4651489999982
  0
LINE
  5
6F42
330
1E
100
AcDbEntity
  8
製品
  6
Continuous
 62
     2
100
AcDbLine
 10
286.2618618717759
 20
182.2163171853823
 30
0.0
 11
286.2618618717759
 21
177.4963171853823
 31
0.0
  0
LINE
  5
6F43
330
1E
100
AcDbEntity
  8
製品
  6
Continuous
 62
     2
100
AcDbLine
 10
287.4618618717759
 20
177.8963171853822
 30
0.0
 11
287.4618618717759
 21
180.6963171853823
 31
0.0
  0
ARC
  5
6F44
330
1E
100
AcDbEntity
  8
製品
  6
Continuous
 62
     2
100
AcDbCircle
 10
289.0618618717759
 20
173.6763171853823
 30
0.0
 40
0.5
100
AcDbArc
 50
180.0
 51
0.0
  0
ARC
  5
6F45
330
1E
100
AcDbEntity
  8
製品
  6
Continuous
 62
     2
100
AcDbCircle
 10
287.8618618717759
 20
177.8963171853822
 30
0.0
 40
0.4
100
AcDbArc
 50
180.0
 51
270.0
  0
LINE
  5
6F46
330
1E
100
AcDbEntity
  8
製品
  6
Continuous
 62
     2
100
AcDbLine
 10
287.9618618717759
 20
177.4963171853823
 30
0.0
 11
287.8618618717759
 21
177.4963171853823
 31
0.0
  0
ARC
  5
6F47
330
1E
100
AcDbEntity
  8
製品
  6
Continuous
 62
     2
100
AcDbCircle
 10
287.9618618717759
 20
176.8963171853823
 30
0.0
 40
0.6
100
AcDbArc
 50
0.0
 51
90.0
  0
ARC
  5
6F48
330
1E
100
AcDbEntity
  8
製品
  6
Continuous
 62
     2
100
AcDbCircle
 10
286.6618618717758
 20
177.4963171853823
 30
0.0
 40
0.4
100
AcDbArc
 50
180.0
 51
258.2626989999978
  0
ARC
  5
6F49
330
1E
100
AcDbEntity
  8
製品
  6
Continuous
 62
     2
100
AcDbCircle
 10
286.2618618717759
 20
176.1566901853822
 30
0.0
 40
1.0
100
AcDbArc
 50
0.0
 51
71.73258900000002
  0
LINE
  5
6F4A
330
1E
100
AcDbEntity
  8
製品
  6
Continuous
 62
     2
100
AcDbLine
 10
286.2618618717759
 20
174.3695221853822
 30
0.0
 11
286.2618618717759
 21
173.0163171853822
 31
0.0
  0
ARC
  5
6F4B
330
1E
100
AcDbEntity
  8
製品
  6
Continuous
 62
     2
100
AcDbCircle
 10
286.3618618717759
 20
174.1963171853822
 30
0.0
 40
0.2
100
AcDbArc
 50
90.0
 51
180.0
  0
ARC
  5
6F4C
330
1E
100
AcDbEntity
  8
製品
  6
Continuous
 62
     2
100
AcDbCircle
 10
286.5618618717759
 20
174.1963171853822
 30
0.0
 40
0.2
100
AcDbArc
 50
0.0
 51
90.0
  0
LINE
  5
6F4D
330
1E
100
AcDbEntity
  8
製品
  6
Continuous
 62
     2
100
AcDbLine
 10
286.7618618717759
 20
174.1963171853822
 30
0.0
 11
286.7618618717759
 21
173.8963171853823
 31
0.0
  0
LINE
  5
6F4E
330
1E
100
AcDbEntity
  8
製品
  6
Continuous
 62
     2
100
AcDbLine
 10
286.7618618717759
 20
173.8963171853823
 30
0.0
 11
286.8618618717759
 21
173.8963171853823
 31
0.0
  0
LINE
  5
6F4F
330
1E
100
AcDbEntity
  8
製品
  6
Continuous
 62
     2
100
AcDbLine
 10
286.8618618717759
 20
173.8963171853823
 30
0.0
 11
286.8618618717759
 21
174.1963171853822
 31
0.0
  0
LINE
  5
6F50
330
1E
100
AcDbEntity
  8
製品
  6
Continuous
 62
     2
100
AcDbLine
 10
286.3618618717759
 20
174.3963171853823
 30
0.0
 11
286.5618618717759
 21
174.3963171853823
 31
0.0
  0
ARC
  5
6F51
330
1E
100
AcDbEntity
  8
製品
  6
Continuous
 62
     3
100
AcDbCircle
 10
286.4506938717759
 20
174.2363171853823
 30
0.0
 40
0.16
100
AcDbArc
 50
11.30993199999951
 51
90.0
  0
LINE
  5
6F52
330
1E
100
AcDbEntity
  8
製品
  6
Continuous
 62
     2
100
AcDbLine
 10
286.6855158717759
 20
173.8780481853823
 30
0.0
 11
286.6075868717759
 21
174.2676961853822
 31
0.0
  0
ARC
  5
6F53
330
1E
100
AcDbEntity
  8
製品
  6
Continuous
 62
     2
100
AcDbCircle
 10
286.9618618717759
 20
173.9948171853822
 30
0.0
 40
0.300004
100
AcDbArc
 50
202.796073
 51
0.2864770000000487
  0
ARC
  5
6F54
330
1E
100
AcDbEntity
  8
製品
  6
Continuous
 62
     2
100
AcDbCircle
 10
286.5618618717759
 20
174.1963171853822
 30
0.0
 40
0.3
100
AcDbArc
 50
0.0
 51
90.0
  0
ARC
  5
6F55
330
1E
100
AcDbEntity
  8
製品
  6
Continuous
 62
     2
100
AcDbCircle
 10
286.3618618717759
 20
174.1963171853822
 30
0.0
 40
0.3
100
AcDbArc
 50
90.0
 51
180.0
  0
LINE
  5
6F56
330
1E
100
AcDbEntity
  8
製品
  6
Continuous
 62
     2
100
AcDbLine
 10
287.2618618717758
 20
176.1566901853822
 30
0.0
 11
287.2618618717758
 21
173.9963171853823
 31
0.0
  0
LINE
  5
6F57
330
1E
100
AcDbEntity
  8
製品
  6
Continuous
 62
     2
100
AcDbLine
 10
288.5618618717759
 20
173.6763171853823
 30
0.0
 11
288.5618618717759
 21
176.8963171853823
 31
0.0
  0
LINE
  5
6F58
330
1E
100
AcDbEntity
  8
製品
  6
Continuous
 62
     2
100
AcDbLine
 10
290.1618618717758
 20
177.4963171853823
 30
0.0
 11
291.9618618717759
 21
177.4963171853823
 31
0.0
  0
ARC
  5
6F59
330
1E
100
AcDbEntity
  8
製品
  6
Continuous
 62
     2
100
AcDbCircle
 10
291.9618618717759
 20
176.8963171853823
 30
0.0
 40
0.6
100
AcDbArc
 50
0.0
 51
90.0
  0
LINE
  5
6F5A
330
1E
100
AcDbEntity
  8
製品
  6
Continuous
 62
     2
100
AcDbLine
 10
289.5618618717758
 20
173.6763171853823
 30
0.0
 11
289.5618618717758
 21
176.8963171853823
 31
0.0
  0
LINE
  5
6F5B
330
1E
100
AcDbEntity
  8
製品
  6
Continuous
 62
     2
100
AcDbLine
 10
292.5618618717759
 20
173.6763171853823
 30
0.0
 11
292.5618618717759
 21
176.8963171853823
 31
0.0
  0
ARC
  5
6F5C
330
1E
100
AcDbEntity
  8
製品
  6
Continuous
 62
     2
100
AcDbCircle
 10
290.1618618717758
 20
176.8963171853823
 30
0.0
 40
0.6
100
AcDbArc
 50
90.0
 51
180.0
  0
ARC
  5
6F5D
330
1E
100
AcDbEntity
  8
製品
  6
Continuous
 62
     2
100
AcDbCircle
 10
287.8618618717759
 20
180.6963171853823
 30
0.0
 40
0.4
100
AcDbArc
 50
90.0
 51
180.0
  0
LINE
  5
6F5E
330
1E
100
AcDbEntity
  8
製品
  6
Continuous
 62
     2
100
AcDbLine
 10
295.9618618717759
 20
171.2963171853823
 30
0.0
 11
295.9618618717759
 21
174.1963171853822
 31
0.0
  0
LINE
  5
6F5F
330
1E
100
AcDbEntity
  8
製品
  6
Continuous
 62
     2
100
AcDbLine
 10
296.0618618717759
 20
171.2963171853823
 30
0.0
 11
296.0618618717759
 21
174.1963171853822
 31
0.0
  0
ARC
  5
6F60
330
1E
100
AcDbEntity
  8
製品
  6
Continuous
 62
     2
100
AcDbCircle
 10
295.4618618717759
 20
173.0163171853822
 30
0.0
 40
0.4
100
AcDbArc
 50
270.0
 51
0.0
  0
LINE
  5
6F61
330
1E
100
AcDbEntity
  8
製品
  6
Continuous
 62
     4
100
AcDbLine
 10
309.3938618717759
 20
170.8963171853823
 30
0.0
 11
309.3938618717759
 21
174.4963171853822
 31
0.0
  0
LINE
  5
6F62
330
1E
100
AcDbEntity
  8
製品
  6
Continuous
 62
     4
100
AcDbLine
 10
301.7938618717759
 20
174.4963171853822
 30
0.0
 11
301.7938618717759
 21
169.1463171853823
 31
0.0
  0
LINE
  5
6F63
330
1E
100
AcDbEntity
  8
製品
  6
Continuous
 62
     2
100
AcDbLine
 10
300.4538618717759
 20
170.1463171853823
 30
0.0
 11
301.6875108717759
 21
170.1463171853823
 31
0.0
  0
LINE
  5
6F64
330
1E
100
AcDbEntity
  8
製品
  6
Continuous
 62
     2
100
AcDbLine
 10
301.1727918717759
 20
169.7351551853822
 30
0.0
 11
301.6938618717759
 21
169.8814081853822
 31
0.0
  0
ARC
  5
6F65
330
1E
100
AcDbEntity
  8
製品
  6
Continuous
 62
     2
100
AcDbCircle
 10
301.4938618717759
 20
170.0963171853822
 30
0.0
 40
0.2
100
AcDbArc
 50
0.0
 51
90.0
  0
ARC
  5
6F66
330
1E
100
AcDbEntity
  8
製品
  6
Continuous
 62
     2
100
AcDbCircle
 10
301.4938618717759
 20
169.8963171853823
 30
0.0
 40
0.2
100
AcDbArc
 50
270.0
 51
0.0
  0
ARC
  5
6F67
330
1E
100
AcDbEntity
  8
製品
  6
Continuous
 62
     2
100
AcDbCircle
 10
301.4938618717759
 20
169.8963171853823
 30
0.0
 40
0.3
100
AcDbArc
 50
270.0
 51
0.0
  0
ARC
  5
6F68
330
1E
100
AcDbEntity
  8
製品
  6
Continuous
 62
     2
100
AcDbCircle
 10
301.4938618717759
 20
170.0963171853822
 30
0.0
 40
0.3
100
AcDbArc
 50
0.0
 51
90.0
  0
LINE
  5
6F69
330
1E
100
AcDbEntity
  8
製品
  6
Continuous
 62
     2
100
AcDbLine
 10
301.2538618717759
 20
168.5963171853823
 30
0.0
 11
304.4538618717759
 21
168.5963171853823
 31
0.0
  0
LINE
  5
6F6A
330
1E
100
AcDbEntity
  8
製品
  6
Continuous
 62
     2
100
AcDbLine
 10
301.2538618717759
 20
169.1463171853823
 30
0.0
 11
303.7169138717759
 21
169.1463171853823
 31
0.0
  0
LINE
  5
6F6B
330
1E
100
AcDbEntity
  8
製品
  6
Continuous
 62
     2
100
AcDbLine
 10
300.4538618717759
 20
165.6463171853823
 30
0.0
 11
301.6875108717759
 21
165.6463171853823
 31
0.0
  0
LINE
  5
6F6C
330
1E
100
AcDbEntity
  8
製品
  6
Continuous
 62
     2
100
AcDbLine
 10
301.1727918717759
 20
166.0574791853822
 30
0.0
 11
301.6938618717759
 21
165.9112251853823
 31
0.0
  0
ARC
  5
6F6D
330
1E
100
AcDbEntity
  8
製品
  6
Continuous
 62
     2
100
AcDbCircle
 10
301.4938618717759
 20
165.6963171853822
 30
0.0
 40
0.2
100
AcDbArc
 50
270.0
 51
0.0
  0
ARC
  5
6F6E
330
1E
100
AcDbEntity
  8
製品
  6
Continuous
 62
     2
100
AcDbCircle
 10
301.4938618717759
 20
165.8963171853823
 30
0.0
 40
0.2
100
AcDbArc
 50
0.0
 51
90.0
  0
ARC
  5
6F6F
330
1E
100
AcDbEntity
  8
製品
  6
Continuous
 62
     2
100
AcDbCircle
 10
301.4938618717759
 20
165.8963171853823
 30
0.0
 40
0.3
100
AcDbArc
 50
0.0
 51
90.0
  0
ARC
  5
6F70
330
1E
100
AcDbEntity
  8
製品
  6
Continuous
 62
     2
100
AcDbCircle
 10
301.4938618717759
 20
165.6963171853822
 30
0.0
 40
0.3
100
AcDbArc
 50
270.0
 51
0.0
  0
LINE
  5
6F71
330
1E
100
AcDbEntity
  8
製品
  6
Continuous
 62
     2
100
AcDbLine
 10
301.2538618717759
 20
167.1963171853823
 30
0.0
 11
304.4538618717759
 21
167.1963171853823
 31
0.0
  0
LINE
  5
6F72
330
1E
100
AcDbEntity
  8
製品
  6
Continuous
 62
     2
100
AcDbLine
 10
301.2538618717759
 20
166.6463171853823
 30
0.0
 11
303.7169138717759
 21
166.6463171853823
 31
0.0
  0
LINE
  5
6F73
330
1E
100
AcDbEntity
  8
製品
  6
Continuous
 62
     2
100
AcDbLine
 10
298.0938618717758
 20
166.9963171853822
 30
0.0
 11
297.9938618717759
 21
167.2963171853823
 31
0.0
  0
LINE
  5
6F74
330
1E
100
AcDbEntity
  8
製品
  6
Continuous
 62
     2
100
AcDbLine
 10
298.1938618717759
 20
166.9963171853822
 30
0.0
 11
298.0938618717758
 21
167.2963171853823
 31
0.0
  0
LINE
  5
6F75
330
1E
100
AcDbEntity
  8
製品
  6
Continuous
 62
     2
100
AcDbLine
 10
300.0538618717759
 20
169.7463171853823
 30
0.0
 11
300.0538618717759
 21
166.0463171853823
 31
0.0
  0
LINE
  5
6F76
330
1E
100
AcDbEntity
  8
製品
  6
Continuous
 62
     2
100
AcDbLine
 10
301.4938618717759
 20
166.0963171853822
 30
0.0
 11
301.1938618717759
 21
166.0963171853822
 31
0.0
  0
LINE
  5
6F77
330
1E
100
AcDbEntity
  8
製品
  6
Continuous
 62
     2
100
AcDbLine
 10
301.1938618717759
 20
166.0963171853822
 30
0.0
 11
301.1938618717759
 21
166.1963171853822
 31
0.0
  0
LINE
  5
6F78
330
1E
100
AcDbEntity
  8
製品
  6
Continuous
 62
     2
100
AcDbLine
 10
301.1938618717759
 20
166.1963171853822
 30
0.0
 11
301.4938618717759
 21
166.1963171853822
 31
0.0
  0
ARC
  5
6F79
330
1E
100
AcDbEntity
  8
製品
  6
Continuous
 62
     2
100
AcDbCircle
 10
301.2538618717759
 20
166.3463171853823
 30
0.0
 40
0.3
100
AcDbArc
 50
90.0
 51
254.3217239999982
  0
LINE
  5
6F7A
330
1E
100
AcDbEntity
  8
製品
  6
Continuous
 62
     2
100
AcDbLine
 10
298.0938618717758
 20
165.9963171853823
 30
0.0
 11
298.0938618717758
 21
166.1963171853822
 31
0.0
  0
ARC
  5
6F7B
330
1E
100
AcDbEntity
  8
製品
  6
Continuous
 62
     2
100
AcDbCircle
 10
298.5938618717759
 20
165.9963171853823
 30
0.0
 40
0.5
100
AcDbArc
 50
180.0
 51
270.0
  0
ARC
  5
6F7C
330
1E
100
AcDbEntity
  8
製品
  6
Continuous
 62
     2
100
AcDbCircle
 10
298.5938618717759
 20
165.9963171853823
 30
0.0
 40
0.6
100
AcDbArc
 50
180.0
 51
270.0
  0
LINE
  5
6F7D
330
1E
100
AcDbEntity
  8
製品
  6
Continuous
 62
     2
100
AcDbLine
 10
297.9938618717759
 20
166.1963171853822
 30
0.0
 11
298.0938618717758
 21
166.3963171853823
 31
0.0
  0
LINE
  5
6F7E
330
1E
100
AcDbEntity
  8
製品
  6
Continuous
 62
     2
100
AcDbLine
 10
298.0938618717758
 20
166.3963171853823
 30
0.0
 11
297.9938618717759
 21
166.6963171853822
 31
0.0
  0
LINE
  5
6F7F
330
1E
100
AcDbEntity
  8
製品
  6
Continuous
 62
     2
100
AcDbLine
 10
297.9938618717759
 20
166.6963171853822
 30
0.0
 11
298.0938618717758
 21
166.9963171853822
 31
0.0
  0
LINE
  5
6F80
330
1E
100
AcDbEntity
  8
製品
  6
Continuous
 62
     2
100
AcDbLine
 10
298.1938618717759
 20
166.3963171853823
 30
0.0
 11
298.0938618717758
 21
166.6963171853822
 31
0.0
  0
LINE
  5
6F81
330
1E
100
AcDbEntity
  8
製品
  6
Continuous
 62
     2
100
AcDbLine
 10
298.0938618717758
 20
166.6963171853822
 30
0.0
 11
298.1938618717759
 21
166.9963171853822
 31
0.0
  0
LINE
  5
6F82
330
1E
100
AcDbEntity
  8
製品
  6
Continuous
 62
     2
100
AcDbLine
 10
298.0938618717758
 20
166.1963171853822
 30
0.0
 11
298.1938618717759
 21
166.3963171853823
 31
0.0
  0
LINE
  5
6F83
330
1E
100
AcDbEntity
  8
製品
  6
Continuous
 62
     2
100
AcDbLine
 10
298.5938618717759
 20
165.4963171853823
 30
0.0
 11
301.4938618717759
 21
165.4963171853823
 31
0.0
  0
LINE
  5
6F84
330
1E
100
AcDbEntity
  8
製品
  6
Continuous
 62
     2
100
AcDbLine
 10
298.5938618717759
 20
165.3963171853822
 30
0.0
 11
301.4938618717759
 21
165.3963171853822
 31
0.0
  0
ARC
  5
6F85
330
1E
100
AcDbEntity
  8
製品
  6
Continuous
 62
     2
100
AcDbCircle
 10
300.4538618717759
 20
166.0463171853823
 30
0.0
 40
0.4
100
AcDbArc
 50
180.0
 51
270.0
  0
LINE
  5
6F86
330
1E
100
AcDbEntity
  8
製品
  6
Continuous
 62
     4
100
AcDbLine
 10
296.0938618717758
 20
172.4963171853822
 30
0.0
 11
297.9938618717759
 21
172.4963171853822
 31
0.0
  0
LINE
  5
6F87
330
1E
100
AcDbEntity
  8
製品
  6
Continuous
 62
     2
100
AcDbLine
 10
295.4618618717759
 20
170.7963171853823
 30
0.0
 11
294.8866618717759
 21
170.7963171853823
 31
0.0
  0
LINE
  5
6F88
330
1E
100
AcDbEntity
  8
製品
  6
Continuous
 62
     2
100
AcDbLine
 10
295.4618618717759
 20
170.6963171853822
 30
0.0
 11
294.8738618717759
 21
170.6963171853822
 31
0.0
  0
LINE
  5
6F89
330
1E
100
AcDbEntity
  8
製品
  6
Continuous
 62
     4
100
AcDbLine
 10
293.8938618717759
 20
170.4963171853823
 30
0.0
 11
293.8938618717759
 21
167.5963171853823
 31
0.0
  0
LINE
  5
6F8A
330
1E
100
AcDbEntity
  8
製品
  6
Continuous
 62
     4
100
AcDbLine
 10
294.0938618717758
 20
170.4963171853823
 30
0.0
 11
294.0938618717758
 21
167.3963171853823
 31
0.0
  0
ARC
  5
6F8B
330
1E
100
AcDbEntity
  8
製品
  6
Continuous
 62
     2
100
AcDbCircle
 10
294.6490618717758
 20
170.6667171853823
 30
0.0
 40
0.12
100
AcDbArc
 50
63.47764199999922
 51
108.4651489999981
  0
ARC
  5
6F8C
330
1E
100
AcDbEntity
  8
製品
  6
Continuous
 62
     2
100
AcDbCircle
 10
294.6490618717758
 20
170.7667171853822
 30
0.0
 40
0.12
100
AcDbArc
 50
63.47764199999922
 51
108.4349519999999
  0
ARC
  5
6F8D
330
1E
100
AcDbEntity
  8
製品
  6
Continuous
 62
     2
100
AcDbCircle
 10
294.3582618717759
 20
170.8227171853823
 30
0.0
 40
0.12
100
AcDbArc
 50
251.5348510000018
 51
288.3745119999994
  0
LINE
  5
6F8E
330
1E
100
AcDbEntity
  8
製品
  6
Continuous
 62
     2
100
AcDbLine
 10
294.8330618717759
 20
170.8089171853823
 30
0.0
 11
294.7026618717759
 21
170.8741171853823
 31
0.0
  0
LINE
  5
6F8F
330
1E
100
AcDbEntity
  8
製品
  6
Continuous
 62
     2
100
AcDbLine
 10
294.6110618717759
 20
170.7805171853823
 30
0.0
 11
294.3960618717759
 21
170.7089171853823
 31
0.0
  0
ARC
  5
6F90
330
1E
100
AcDbEntity
  8
製品
  6
Continuous
 62
     2
100
AcDbCircle
 10
293.4582618717759
 20
170.7699171853823
 30
0.0
 40
0.12
100
AcDbArc
 50
71.53485100000181
 51
108.4651489999981
  0
ARC
  5
6F91
330
1E
100
AcDbEntity
  8
製品
  6
Continuous
 62
     2
100
AcDbCircle
 10
293.4582618717759
 20
170.6699171853822
 30
0.0
 40
0.12
100
AcDbArc
 50
71.53485100000181
 51
108.4651489999981
  0
LINE
  5
6F92
330
1E
100
AcDbEntity
  8
製品
  6
Continuous
 62
     2
100
AcDbLine
 10
294.8330618717759
 20
170.7089171853823
 30
0.0
 11
294.7026618717759
 21
170.7741171853823
 31
0.0
  0
LINE
  5
6F93
330
1E
100
AcDbEntity
  8
製品
  6
Continuous
 62
     2
100
AcDbLine
 10
294.0202618717759
 20
170.7837171853823
 30
0.0
 11
293.7962618717758
 21
170.7089171853823
 31
0.0
  0
LINE
  5
6F94
330
1E
100
AcDbEntity
  8
製品
  6
Continuous
 62
     2
100
AcDbLine
 10
294.0202618717759
 20
170.8837171853823
 30
0.0
 11
293.7962618717758
 21
170.8089171853823
 31
0.0
  0
LINE
  5
6F95
330
1E
100
AcDbEntity
  8
製品
  6
Continuous
 62
     2
100
AcDbLine
 10
293.7202618717758
 20
170.8089171853823
 30
0.0
 11
293.4962618717759
 21
170.8837171853823
 31
0.0
  0
LINE
  5
6F96
330
1E
100
AcDbEntity
  8
製品
  6
Continuous
 62
     2
100
AcDbLine
 10
293.7202618717758
 20
170.7089171853823
 30
0.0
 11
293.4962618717759
 21
170.7837171853823
 31
0.0
  0
ARC
  5
6F97
330
1E
100
AcDbEntity
  8
製品
  6
Continuous
 62
     2
100
AcDbCircle
 10
294.3582618717759
 20
170.9229171853823
 30
0.0
 40
0.12
100
AcDbArc
 50
251.5650480000001
 51
288.4349370000003
  0
ARC
  5
6F98
330
1E
100
AcDbEntity
  8
製品
  6
Continuous
 62
     2
100
AcDbCircle
 10
294.0582618717759
 20
170.7699171853823
 30
0.0
 40
0.12
100
AcDbArc
 50
71.53485100000181
 51
108.4651489999981
  0
ARC
  5
6F99
330
1E
100
AcDbEntity
  8
製品
  6
Continuous
 62
     2
100
AcDbCircle
 10
294.0582618717759
 20
170.6699171853822
 30
0.0
 40
0.12
100
AcDbArc
 50
71.53485100000181
 51
108.4651489999981
  0
ARC
  5
6F9A
330
1E
100
AcDbEntity
  8
製品
  6
Continuous
 62
     2
100
AcDbCircle
 10
293.7582618717759
 20
170.8227171853823
 30
0.0
 40
0.12
100
AcDbArc
 50
251.5348510000018
 51
288.4651489999982
  0
ARC
  5
6F9B
330
1E
100
AcDbEntity
  8
製品
  6
Continuous
 62
     2
100
AcDbCircle
 10
293.7582618717759
 20
170.9227171853823
 30
0.0
 40
0.12
100
AcDbArc
 50
251.5348510000018
 51
288.4651489999982
  0
LINE
  5
6F9C
330
1E
100
AcDbEntity
  8
製品
  6
Continuous
 62
     2
100
AcDbLine
 10
294.6110618717759
 20
170.8807171853823
 30
0.0
 11
294.3962618717759
 21
170.8089171853823
 31
0.0
  0
LINE
  5
6F9D
330
1E
100
AcDbEntity
  8
製品
  6
Continuous
 62
     2
100
AcDbLine
 10
294.3202618717759
 20
170.8089171853823
 30
0.0
 11
294.0962618717759
 21
170.8837171853823
 31
0.0
  0
LINE
  5
6F9E
330
1E
100
AcDbEntity
  8
製品
  6
Continuous
 62
     2
100
AcDbLine
 10
294.3202618717759
 20
170.7089171853823
 30
0.0
 11
294.0962618717759
 21
170.7837171853823
 31
0.0
  0
LINE
  5
6F9F
330
1E
100
AcDbEntity
  8
製品
  6
Continuous
 62
     4
100
AcDbLine
 10
294.0938618717758
 20
170.4963171853823
 30
0.0
 11
296.0938618717758
 21
170.4963171853823
 31
0.0
  0
ARC
  5
6FA0
330
1E
100
AcDbEntity
  8
製品
  6
Continuous
 62
     2
100
AcDbCircle
 10
294.8866618717759
 20
170.9163171853823
 30
0.0
 40
0.12
100
AcDbArc
 50
243.4776460000013
 51
270.0
  0
ARC
  5
6FA1
330
1E
100
AcDbEntity
  8
製品
  6
Continuous
 62
     2
100
AcDbCircle
 10
294.8866618717759
 20
170.8163171853823
 30
0.0
 40
0.12
100
AcDbArc
 50
243.4776460000013
 51
270.0
  0
ARC
  5
6FA2
330
1E
100
AcDbEntity
  8
製品
  6
Continuous
 62
     2
100
AcDbCircle
 10
295.4618618717759
 20
171.2963171853823
 30
0.0
 40
0.6
100
AcDbArc
 50
270.0
 51
0.0
  0
ARC
  5
6FA3
330
1E
100
AcDbEntity
  8
製品
  6
Continuous
 62
     2
100
AcDbCircle
 10
295.4618618717759
 20
171.2963171853823
 30
0.0
 40
0.5
100
AcDbArc
 50
270.0
 51
0.0
  0
LINE
  5
6FA4
330
1E
100
AcDbEntity
  8
製品
  6
Continuous
 62
     2
100
AcDbLine
 10
301.4938618717759
 20
169.6963171853822
 30
0.0
 11
301.1938618717759
 21
169.6963171853822
 31
0.0
  0
LINE
  5
6FA5
330
1E
100
AcDbEntity
  8
製品
  6
Continuous
 62
     2
100
AcDbLine
 10
301.1938618717759
 20
169.6963171853822
 30
0.0
 11
301.1938618717759
 21
169.5963171853823
 31
0.0
  0
LINE
  5
6FA6
330
1E
100
AcDbEntity
  8
製品
  6
Continuous
 62
     2
100
AcDbLine
 10
301.1938618717759
 20
169.5963171853823
 30
0.0
 11
301.4938618717759
 21
169.5963171853823
 31
0.0
  0
LINE
  5
6FA7
330
1E
100
AcDbEntity
  8
製品
  6
Continuous
 62
     2
100
AcDbLine
 10
300.6538618717759
 20
167.9963171853823
 30
0.0
 11
300.6538618717759
 21
167.7963171853823
 31
0.0
  0
ARC
  5
6FA8
330
1E
100
AcDbEntity
  8
製品
  6
Continuous
 62
     2
100
AcDbCircle
 10
301.2538618717759
 20
167.9963171853823
 30
0.0
 40
0.6
100
AcDbArc
 50
90.0
 51
180.0
  0
ARC
  5
6FA9
330
1E
100
AcDbEntity
  8
製品
  6
Continuous
 62
     2
100
AcDbCircle
 10
301.2538618717759
 20
169.4463171853823
 30
0.0
 40
0.3
100
AcDbArc
 50
105.6782760000018
 51
270.0
  0
ARC
  5
6FAA
330
1E
100
AcDbEntity
  8
製品
  6
Continuous
 62
     2
100
AcDbCircle
 10
301.2538618717759
 20
167.7963171853823
 30
0.0
 40
0.6
100
AcDbArc
 50
180.0
 51
270.0
  0
LINE
  5
6FAB
330
1E
100
AcDbEntity
  8
製品
  6
Continuous
 62
     2
100
AcDbLine
 10
298.0938618717758
 20
169.7963171853823
 30
0.0
 11
298.0938618717758
 21
169.5963171853823
 31
0.0
  0
LINE
  5
6FAC
330
1E
100
AcDbEntity
  8
製品
  6
Continuous
 62
     2
100
AcDbLine
 10
297.9938618717759
 20
169.5963171853823
 30
0.0
 11
298.0938618717758
 21
169.3963171853823
 31
0.0
  0
LINE
  5
6FAD
330
1E
100
AcDbEntity
  8
製品
  6
Continuous
 62
     2
100
AcDbLine
 10
298.0938618717758
 20
169.3963171853823
 30
0.0
 11
297.9938618717759
 21
169.0963171853822
 31
0.0
  0
LINE
  5
6FAE
330
1E
100
AcDbEntity
  8
製品
  6
Continuous
 62
     2
100
AcDbLine
 10
297.9938618717759
 20
169.0963171853822
 30
0.0
 11
298.0938618717758
 21
168.7963171853823
 31
0.0
  0
LINE
  5
6FAF
330
1E
100
AcDbEntity
  8
製品
  6
Continuous
 62
     2
100
AcDbLine
 10
298.0938618717758
 20
168.7963171853823
 30
0.0
 11
297.9938618717759
 21
168.4963171853823
 31
0.0
  0
LINE
  5
6FB0
330
1E
100
AcDbEntity
  8
製品
  6
Continuous
 62
     2
100
AcDbLine
 10
297.9938618717759
 20
168.4963171853823
 30
0.0
 11
298.0938618717758
 21
168.1963171853823
 31
0.0
  0
LINE
  5
6FB1
330
1E
100
AcDbEntity
  8
製品
  6
Continuous
 62
     2
100
AcDbLine
 10
298.0938618717758
 20
168.1963171853823
 30
0.0
 11
297.9938618717759
 21
167.8963171853823
 31
0.0
  0
LINE
  5
6FB2
330
1E
100
AcDbEntity
  8
製品
  6
Continuous
 62
     2
100
AcDbLine
 10
298.1938618717759
 20
169.3963171853823
 30
0.0
 11
298.0938618717758
 21
169.0963171853822
 31
0.0
  0
LINE
  5
6FB3
330
1E
100
AcDbEntity
  8
製品
  6
Continuous
 62
     2
100
AcDbLine
 10
298.0938618717758
 20
169.0963171853822
 30
0.0
 11
298.1938618717759
 21
168.7963171853823
 31
0.0
  0
LINE
  5
6FB4
330
1E
100
AcDbEntity
  8
製品
  6
Continuous
 62
     2
100
AcDbLine
 10
298.1938618717759
 20
168.7963171853823
 30
0.0
 11
298.0938618717758
 21
168.4963171853823
 31
0.0
  0
LINE
  5
6FB5
330
1E
100
AcDbEntity
  8
製品
  6
Continuous
 62
     2
100
AcDbLine
 10
298.0938618717758
 20
168.4963171853823
 30
0.0
 11
298.1938618717759
 21
168.1963171853823
 31
0.0
  0
LINE
  5
6FB6
330
1E
100
AcDbEntity
  8
製品
  6
Continuous
 62
     2
100
AcDbLine
 10
298.1938618717759
 20
168.1963171853823
 30
0.0
 11
298.0938618717758
 21
167.8963171853823
 31
0.0
  0
LINE
  5
6FB7
330
1E
100
AcDbEntity
  8
製品
  6
Continuous
 62
     2
100
AcDbLine
 10
298.0938618717758
 20
169.5963171853823
 30
0.0
 11
298.1938618717759
 21
169.3963171853823
 31
0.0
  0
LINE
  5
6FB8
330
1E
100
AcDbEntity
  8
製品
  6
Continuous
 62
     2
100
AcDbLine
 10
298.0938618717758
 20
167.5963171853823
 30
0.0
 11
297.9938618717759
 21
167.8963171853823
 31
0.0
  0
LINE
  5
6FB9
330
1E
100
AcDbEntity
  8
製品
  6
Continuous
 62
     2
100
AcDbLine
 10
298.1938618717759
 20
167.5963171853823
 30
0.0
 11
298.0938618717758
 21
167.8963171853823
 31
0.0
  0
ARC
  5
6FBA
330
1E
100
AcDbEntity
  8
製品
  6
Continuous
 62
     2
100
AcDbCircle
 10
298.5938618717759
 20
169.7963171853823
 30
0.0
 40
0.5
100
AcDbArc
 50
90.0
 51
180.0
  0
ARC
  5
6FBB
330
1E
100
AcDbEntity
  8
製品
  6
Continuous
 62
     2
100
AcDbCircle
 10
298.5938618717759
 20
169.7963171853823
 30
0.0
 40
0.6
100
AcDbArc
 50
90.0
 51
180.0
  0
LINE
  5
6FBC
330
1E
100
AcDbEntity
  8
製品
  6
Continuous
 62
     2
100
AcDbLine
 10
297.9938618717759
 20
167.2963171853823
 30
0.0
 11
298.0938618717758
 21
167.5963171853823
 31
0.0
  0
LINE
  5
6FBD
330
1E
100
AcDbEntity
  8
製品
  6
Continuous
 62
     2
100
AcDbLine
 10
298.0938618717758
 20
167.2963171853823
 30
0.0
 11
298.1938618717759
 21
167.5963171853823
 31
0.0
  0
LINE
  5
6FBE
330
1E
100
AcDbEntity
  8
製品
  6
Continuous
 62
     2
100
AcDbLine
 10
298.5938618717759
 20
170.2963171853823
 30
0.0
 11
301.4938618717759
 21
170.2963171853823
 31
0.0
  0
LINE
  5
6FBF
330
1E
100
AcDbEntity
  8
製品
  6
Continuous
 62
     2
100
AcDbLine
 10
298.5938618717759
 20
170.3963171853823
 30
0.0
 11
301.4938618717759
 21
170.3963171853823
 31
0.0
  0
ARC
  5
6FC0
330
1E
100
AcDbEntity
  8
製品
  6
Continuous
 62
     2
100
AcDbCircle
 10
300.4538618717759
 20
169.7463171853823
 30
0.0
 40
0.4
100
AcDbArc
 50
90.0
 51
180.0
  0
LINE
  5
6FC1
330
1E
100
AcDbEntity
  8
製品
  6
Continuous
 62
     2
100
AcDbLine
 10
308.4538618717759
 20
169.0963171853822
 30
0.0
 11
308.4538618717759
 21
166.6963171853822
 31
0.0
  0
LINE
  5
6FC2
330
1E
100
AcDbEntity
  8
製品
  6
Continuous
 62
     2
100
AcDbLine
 10
306.8538618717759
 20
169.0963171853822
 30
0.0
 11
306.8538618717759
 21
166.6963171853822
 31
0.0
  0
LINE
  5
6FC3
330
1E
100
AcDbEntity
  8
製品
  6
Continuous
 62
     2
100
AcDbLine
 10
309.5138618717759
 20
164.8963171853823
 30
0.0
 11
309.5138618717759
 21
170.8963171853823
 31
0.0
  0
LINE
  5
6FC4
330
1E
100
AcDbEntity
  8
製品
  6
Continuous
 62
     2
100
AcDbLine
 10
304.4538618717759
 20
165.7963171853823
 30
0.0
 11
304.4538618717759
 21
167.1963171853823
 31
0.0
  0
LINE
  5
6FC5
330
1E
100
AcDbEntity
  8
製品
  6
Continuous
 62
     2
100
AcDbLine
 10
304.8538618717758
 20
165.3963171853822
 30
0.0
 11
309.5138618717759
 21
165.3963171853822
 31
0.0
  0
LINE
  5
6FC6
330
1E
100
AcDbEntity
  8
製品
  6
Continuous
 62
     2
100
AcDbLine
 10
309.3938618717759
 20
164.8963171853823
 30
0.0
 11
304.3538618717759
 21
164.8963171853823
 31
0.0
  0
ARC
  5
6FC7
330
1E
100
AcDbEntity
  8
製品
  6
Continuous
 62
     2
100
AcDbCircle
 10
304.8538618717758
 20
165.7963171853823
 30
0.0
 40
0.4
100
AcDbArc
 50
180.0
 51
270.0
  0
LINE
  5
6FC8
330
1E
100
AcDbEntity
  8
製品
  6
Continuous
 62
     2
100
AcDbLine
 10
304.3538618717759
 20
164.8963171853823
 30
0.0
 11
303.7169138717759
 21
166.6463171853823
 31
0.0
  0
LINE
  5
6FC9
330
1E
100
AcDbEntity
  8
製品
  6
Continuous
 62
     2
100
AcDbLine
 10
301.6938618717759
 20
165.6963171853822
 30
0.0
 11
301.6938618717759
 21
165.8963171853823
 31
0.0
  0
LINE
  5
6FCA
330
1E
100
AcDbEntity
  8
製品
  6
Continuous
 62
     2
100
AcDbLine
 10
309.3938618717759
 20
164.8963171853823
 30
0.0
 11
309.5138618717759
 21
164.8963171853823
 31
0.0
  0
ARC
  5
6FCB
330
1E
100
AcDbEntity
  8
製品
  6
Continuous
 62
     2
100
AcDbCircle
 10
307.5538618717759
 20
166.6963171853822
 30
0.0
 40
0.7
100
AcDbArc
 50
180.0
 51
270.0
  0
LINE
  5
6FCC
330
1E
100
AcDbEntity
  8
製品
  6
Continuous
 62
     2
100
AcDbLine
 10
307.5538618717759
 20
165.9963171853823
 30
0.0
 11
307.7538618717759
 21
165.9963171853823
 31
0.0
  0
ARC
  5
6FCD
330
1E
100
AcDbEntity
  8
製品
  6
Continuous
 62
     2
100
AcDbCircle
 10
307.7538618717759
 20
166.6963171853822
 30
0.0
 40
0.7
100
AcDbArc
 50
270.0
 51
0.0
  0
LINE
  5
6FCE
330
1E
100
AcDbEntity
  8
製品
  6
Continuous
 62
     2
100
AcDbLine
 10
304.8538618717758
 20
170.3963171853823
 30
0.0
 11
309.5138618717759
 21
170.3963171853823
 31
0.0
  0
LINE
  5
6FCF
330
1E
100
AcDbEntity
  8
製品
  6
Continuous
 62
     2
100
AcDbLine
 10
309.3938618717759
 20
170.8963171853823
 30
0.0
 11
304.3538618717759
 21
170.8963171853823
 31
0.0
  0
LINE
  5
6FD0
330
1E
100
AcDbEntity
  8
製品
  6
Continuous
 62
     2
100
AcDbLine
 10
304.4538618717759
 20
169.9963171853823
 30
0.0
 11
304.4538618717759
 21
168.5963171853823
 31
0.0
  0
ARC
  5
6FD1
330
1E
100
AcDbEntity
  8
製品
  6
Continuous
 62
     2
100
AcDbCircle
 10
304.8538618717758
 20
169.9963171853823
 30
0.0
 40
0.4
100
AcDbArc
 50
90.0
 51
180.0
  0
LINE
  5
6FD2
330
1E
100
AcDbEntity
  8
製品
  6
Continuous
 62
     2
100
AcDbLine
 10
304.3538618717759
 20
170.8963171853823
 30
0.0
 11
303.7169138717759
 21
169.1463171853823
 31
0.0
  0
LINE
  5
6FD3
330
1E
100
AcDbEntity
  8
製品
  6
Continuous
 62
     2
100
AcDbLine
 10
301.6938618717759
 20
170.0963171853822
 30
0.0
 11
301.6938618717759
 21
169.8963171853823
 31
0.0
  0
LINE
  5
6FD4
330
1E
100
AcDbEntity
  8
製品
  6
Continuous
 62
     2
100
AcDbLine
 10
309.5138618717759
 20
170.8963171853823
 30
0.0
 11
309.3938618717759
 21
170.8963171853823
 31
0.0
  0
ARC
  5
6FD5
330
1E
100
AcDbEntity
  8
製品
  6
Continuous
 62
     2
100
AcDbCircle
 10
307.5538618717759
 20
169.0963171853822
 30
0.0
 40
0.7
100
AcDbArc
 50
90.0
 51
180.0
  0
LINE
  5
6FD6
330
1E
100
AcDbEntity
  8
製品
  6
Continuous
 62
     2
100
AcDbLine
 10
307.5538618717759
 20
169.7963171853823
 30
0.0
 11
307.7538618717759
 21
169.7963171853823
 31
0.0
  0
ARC
  5
6FD7
330
1E
100
AcDbEntity
  8
製品
  6
Continuous
 62
     2
100
AcDbCircle
 10
307.7538618717759
 20
169.0963171853822
 30
0.0
 40
0.7
100
AcDbArc
 50
0.0
 51
90.0
  0
LINE
  5
6FD8
330
1E
100
AcDbEntity
  8
製品
  6
Continuous
 62
     2
100
AcDbLine
 10
295.8618618717759
 20
182.2163171853823
 30
0.0
 11
295.8618618717759
 21
177.4963171853823
 31
0.0
  0
LINE
  5
6FD9
330
1E
100
AcDbEntity
  8
製品
  6
Continuous
 62
     2
100
AcDbLine
 10
294.6618618717758
 20
180.6963171853823
 30
0.0
 11
294.6618618717758
 21
177.8963171853822
 31
0.0
  0
ARC
  5
6FDA
330
1E
100
AcDbEntity
  8
製品
  6
Continuous
 62
     2
100
AcDbCircle
 10
295.4618618717759
 20
177.4963171853823
 30
0.0
 40
0.4
100
AcDbArc
 50
281.7373010000022
 51
0.0
  0
LINE
  5
6FDB
330
1E
100
AcDbEntity
  8
製品
  6
Continuous
 62
     2
100
AcDbLine
 10
295.8618618717759
 20
173.0163171853822
 30
0.0
 11
295.8618618717759
 21
174.3899661853822
 31
0.0
  0
ARC
  5
6FDC
330
1E
100
AcDbEntity
  8
製品
  6
Continuous
 62
     2
100
AcDbCircle
 10
295.7618618717759
 20
174.1963171853822
 30
0.0
 40
0.2
100
AcDbArc
 50
0.0
 51
90.0
  0
LINE
  5
6FDD
330
1E
100
AcDbEntity
  8
製品
  6
Continuous
 62
     2
100
AcDbLine
 10
295.7618618717759
 20
174.3963171853823
 30
0.0
 11
295.5618618717759
 21
174.3963171853823
 31
0.0
  0
ARC
  5
6FDE
330
1E
100
AcDbEntity
  8
製品
  6
Continuous
 62
     2
100
AcDbCircle
 10
295.5618618717759
 20
174.1963171853822
 30
0.0
 40
0.2
100
AcDbArc
 50
90.0
 51
180.0
  0
LINE
  5
6FDF
330
1E
100
AcDbEntity
  8
製品
  6
Continuous
 62
     2
100
AcDbLine
 10
295.3618618717759
 20
174.1963171853822
 30
0.0
 11
295.3618618717759
 21
173.8963171853823
 31
0.0
  0
LINE
  5
6FE0
330
1E
100
AcDbEntity
  8
製品
  6
Continuous
 62
     2
100
AcDbLine
 10
295.3618618717759
 20
173.8963171853823
 30
0.0
 11
295.2618618717758
 21
173.8963171853823
 31
0.0
  0
LINE
  5
6FE1
330
1E
100
AcDbEntity
  8
製品
  6
Continuous
 62
     2
100
AcDbLine
 10
295.2618618717758
 20
173.8963171853823
 30
0.0
 11
295.2618618717758
 21
174.1963171853822
 31
0.0
  0
ARC
  5
6FE2
330
1E
100
AcDbEntity
  8
製品
  6
Continuous
 62
     2
100
AcDbCircle
 10
295.6730308717759
 20
174.2363171853823
 30
0.0
 40
0.16
100
AcDbArc
 50
90.0
 51
168.6900680000005
  0
LINE
  5
6FE3
330
1E
100
AcDbEntity
  8
製品
  6
Continuous
 62
     2
100
AcDbLine
 10
295.4382078717759
 20
173.8780481853823
 30
0.0
 11
295.5161378717759
 21
174.2676961853822
 31
0.0
  0
ARC
  5
6FE4
330
1E
100
AcDbEntity
  8
製品
  6
Continuous
 62
     2
100
AcDbCircle
 10
295.5618618717759
 20
174.1963171853822
 30
0.0
 40
0.3
100
AcDbArc
 50
90.0
 51
180.0
  0
ARC
  5
6FE5
330
1E
100
AcDbEntity
  8
製品
  6
Continuous
 62
     2
100
AcDbCircle
 10
295.7618618717759
 20
174.1963171853822
 30
0.0
 40
0.3
100
AcDbArc
 50
0.0
 51
90.0
  0
LINE
  5
6FE6
330
1E
100
AcDbEntity
  8
製品
  6
Continuous
 62
     2
100
AcDbLine
 10
294.8618618717759
 20
176.1566901853822
 30
0.0
 11
294.8618618717759
 21
173.9963171853823
 31
0.0
  0
ARC
  5
6FE7
330
1E
100
AcDbEntity
  8
製品
  6
Continuous
 62
     2
100
AcDbCircle
 10
294.2618618717759
 20
177.8963171853822
 30
0.0
 40
0.4
100
AcDbArc
 50
270.0
 51
0.0
  0
LINE
  5
6FE8
330
1E
100
AcDbEntity
  8
製品
  6
Continuous
 62
     2
100
AcDbLine
 10
294.1618618717758
 20
177.4963171853823
 30
0.0
 11
294.2618618717759
 21
177.4963171853823
 31
0.0
  0
ARC
  5
6FE9
330
1E
100
AcDbEntity
  8
製品
  6
Continuous
 62
     2
100
AcDbCircle
 10
294.1618618717758
 20
176.8963171853823
 30
0.0
 40
0.6
100
AcDbArc
 50
90.0
 51
180.0
  0
LINE
  5
6FEA
330
1E
100
AcDbEntity
  8
製品
  6
Continuous
 62
     2
100
AcDbLine
 10
293.5618618717759
 20
173.6763171853823
 30
0.0
 11
293.5618618717759
 21
176.8963171853823
 31
0.0
  0
ARC
  5
6FEB
330
1E
100
AcDbEntity
  8
製品
  6
Continuous
 62
     2
100
AcDbCircle
 10
295.1618618717759
 20
173.9948171853822
 30
0.0
 40
0.300004
100
AcDbArc
 50
179.7135229999999
 51
337.203927
  0
ARC
  5
6FEC
330
1E
100
AcDbEntity
  8
製品
  6
Continuous
 62
     2
100
AcDbCircle
 10
295.8618618717759
 20
176.1566901853822
 30
0.0
 40
1.0
100
AcDbArc
 50
108.267411
 51
180.0
  0
ARC
  5
6FED
330
1E
100
AcDbEntity
  8
製品
  6
Continuous
 62
     2
100
AcDbCircle
 10
294.2618618717759
 20
180.6963171853823
 30
0.0
 40
0.4
100
AcDbArc
 50
0.0
 51
90.0
  0
CIRCLE
  5
6FEE
330
1E
100
AcDbEntity
  8
図面枠
  6
Continuous
 62
     2
100
AcDbCircle
 10
305.5938618717759
 20
174.4963171853822
 30
0.0
 40
0.3
  0
CIRCLE
  5
6FEF
330
1E
100
AcDbEntity
  8
図面枠
  6
Continuous
 62
     2
100
AcDbCircle
 10
305.5938618717759
 20
182.0963171853822
 30
0.0
 40
0.3
  0
LINE
  5
6FF0
330
1E
100
AcDbEntity
  8
製品
  6
Continuous
 62
     4
100
AcDbLine
 10
301.7938618717759
 20
186.0963171853823
 30
0.0
 11
309.3938618717759
 21
186.0963171853823
 31
0.0
  0
LINE
  5
6FF1
330
1E
100
AcDbEntity
  8
図面枠
  6
Continuous
 62
     2
100
AcDbLine
 10
389.153654903699
 20
169.4813588644538
 30
0.0
 11
369.5814809036991
 21
158.1813588644536
 31
0.0
  0
LINE
  5
6FF2
330
1E
100
AcDbEntity
  8
製品
  6
Continuous
 62
     4
100
AcDbLine
 10
369.4536549036988
 20
168.1813588644536
 30
0.0
 11
388.153654903699
 21
168.1813588644536
 31
0.0
  0
LINE
  5
6FF3
330
1E
100
AcDbEntity
  8
製品
  6
Continuous
 62
     4
100
AcDbLine
 10
369.4536549036988
 20
170.7813588644535
 30
0.0
 11
392.0536549036991
 21
170.7813588644535
 31
0.0
  0
LINE
  5
6FF4
330
1E
100
AcDbEntity
  8
製品
  6
Continuous
 62
     4
100
AcDbLine
 10
380.3536549036989
 20
182.3813588644534
 30
0.0
 11
369.4536549036988
 21
182.3813588644534
 31
0.0
  0
LINE
  5
6FF5
330
1E
100
AcDbEntity
  8
製品
  6
Continuous
 62
     4
100
AcDbLine
 10
381.3536549036988
 20
174.7813588644535
 30
0.0
 11
369.4536549036988
 21
174.7813588644535
 31
0.0
  0
LINE
  5
6FF6
330
1E
100
AcDbEntity
  8
図面枠
  6
Continuous
 62
     2
100
AcDbLine
 10
313.3938618717759
 20
182.0963171853822
 30
0.0
 11
319.1673648717759
 21
192.0963171853822
 31
0.0
  0
LINE
  5
6FF7
330
1E
100
AcDbEntity
  8
製品
  6
Continuous
 62
     4
100
AcDbLine
 10
315.3938618717759
 20
182.0963171853822
 30
0.0
 11
315.3938618717759
 21
174.4963171853822
 31
0.0
  0
CIRCLE
  5
6FF8
330
1E
100
AcDbEntity
  8
図面枠
  6
Continuous
 62
     2
100
AcDbCircle
 10
313.3938618717759
 20
182.0963171853822
 30
0.0
 40
0.3
  0
TEXT
  5
6FF9
330
1E
100
AcDbEntity
  8
図面枠
  6
Continuous
 62
     2
100
AcDbText
 10
350.0614849036994
 20
159.1813544575707
 30
0.0
 40
3.0
  1
テープ又は塗装
 50
0.0000100000010064
 41
0.8
  7
ACAD
 72
     2
 11
369.5814849036991
 21
159.1813578644537
 31
0.0
100
AcDbText
  0
LINE
  5
6FFA
330
1E
100
AcDbEntity
  8
図面枠
  6
Continuous
 62
     2
100
AcDbLine
 10
369.5814809036991
 20
158.1813588644536
 30
0.0
 11
348.511480903699
 21
158.1813588644536
 31
0.0
  0
TEXT
  5
6FFB
330
1E
100
AcDbEntity
  8
図面枠
  6
Continuous
 62
     2
100
AcDbText
 10
348.5114779036988
 20
163.1813578644537
 30
0.0
 40
3.0
  1
目地板
 41
0.8
  7
ACAD
100
AcDbText
  0
LINE
  5
6FFC
330
1E
100
AcDbEntity
  8
図面枠
  6
Continuous
 62
     2
100
AcDbLine
 10
319.1673648717759
 20
192.0963171853822
 30
0.0
 11
331.2073648717759
 21
192.0963171853822
 31
0.0
  0
TEXT
  5
6FFD
330
1E
100
AcDbEntity
  8
図面枠
  6
Continuous
 62
     2
100
AcDbText
 10
319.1673738717759
 20
193.0963011853823
 30
0.0
 40
3.0
  1
野縁受け
 41
0.8
  7
ACAD
100
AcDbText
  0
LINE
  5
6FFE
330
1E
100
AcDbEntity
  8
図面枠
  6
Continuous
 62
     2
100
AcDbLine
 10
317.1408678717759
 20
202.0963171853823
 30
0.0
 11
323.1608678717758
 21
202.0963171853823
 31
0.0
  0
TEXT
  5
6FFF
330
1E
100
AcDbEntity
  8
図面枠
  6
Continuous
 62
     2
100
AcDbText
 10
317.1408578717759
 20
203.0963011853823
 30
0.0
 40
3.0
  1
溶接
 41
0.8
  7
ACAD
100
AcDbText
  0
LINE
  5
7000
330
1E
100
AcDbEntity
  8
製品
  6
Continuous
 62
     4
100
AcDbLine
 10
395.8536549036988
 20
186.3813588644534
 30
0.0
 11
395.8536549036988
 21
182.3813588644534
 31
0.0
  0
LINE
  5
7001
330
1E
100
AcDbEntity
  8
製品
  6
Continuous
 62
     4
100
AcDbLine
 10
403.4536549036987
 20
186.3813588644534
 30
0.0
 11
403.4536549036987
 21
182.3813588644534
 31
0.0
  0
LINE
  5
7002
330
1E
100
AcDbEntity
  8
図面枠
  6
Continuous
 62
     2
100
AcDbLine
 10
399.653654903699
 20
182.3813588644534
 30
0.0
 11
411.2006599036988
 21
202.3813588644534
 31
0.0
  0
LINE
  5
7003
330
1E
100
AcDbEntity
  8
図面枠
  6
Continuous
 62
     2
100
AcDbLine
 10
399.653654903699
 20
174.7813588644535
 30
0.0
 11
411.2006599036988
 21
202.3813588644534
 31
0.0
  0
LINE
  5
7004
330
1E
100
AcDbEntity
  8
図面枠
  6
Continuous
 62
     2
100
AcDbLine
 10
407.4536549036987
 20
182.3813588644534
 30
0.0
 11
413.2271579036991
 21
192.3813588644534
 31
0.0
  0
LINE
  5
7005
330
1E
100
AcDbEntity
  8
製品
  6
Continuous
 62
     4
100
AcDbLine
 10
388.9536549036987
 20
174.7813588644535
 30
0.0
 11
409.4536549036987
 21
174.7813588644535
 31
0.0
  0
LINE
  5
7006
330
1E
100
AcDbEntity
  8
製品
  6
Continuous
 62
     4
100
AcDbLine
 10
389.9536549036988
 20
182.3813588644534
 30
0.0
 11
409.4536549036987
 21
182.3813588644534
 31
0.0
  0
LINE
  5
7007
330
1E
100
AcDbEntity
  8
製品
  6
Continuous
 62
     4
100
AcDbLine
 10
392.0536549036991
 20
170.9813588644538
 30
0.0
 11
392.0536549036991
 21
146.3813588644534
 31
0.0
  0
LINE
  5
7008
330
1E
100
AcDbEntity
  8
製品
  6
Continuous
 62
     4
100
AcDbLine
 10
395.8536549036988
 20
166.9313588644536
 30
0.0
 11
395.8536549036988
 21
146.3813588644534
 31
0.0
  0
LINE
  5
7009
330
1E
100
AcDbEntity
  8
製品
  6
Continuous
 62
     4
100
AcDbLine
 10
390.153654903699
 20
170.7813588644535
 30
0.0
 11
390.153654903699
 21
146.3813588644534
 31
0.0
  0
LINE
  5
700A
330
1E
100
AcDbEntity
  8
製品
  6
Continuous
 62
     4
100
AcDbLine
 10
403.4536549036987
 20
165.1813588644536
 30
0.0
 11
403.4536549036987
 21
146.3813588644534
 31
0.0
  0
DIMENSION
  5
700B
330
1E
100
AcDbEntity
  8
寸法
  6
Continuous
100
AcDbDimension
  2
*D5
 10
390.153654903699
 20
156.4792694793033
 30
0.0
 11
381.9250834751276
 21
156.4792694793033
 31
0.0
 70
   160
  1
(10)
 71
     5
 42
2.0
  3
AutoCAD
100
AcDbAlignedDimension
 13
388.153654903699
 23
166.6813588644536
 33
0.0
 14
390.153654903699
 24
158.1813588644536
 34
0.0
100
AcDbRotatedDimension
1001
ACAD
1000
DSTYLE
1002
{
1070
   147
1040
0.8
1070
   140
1040
10.0
1002
}
  0
LINE
  5
700C
330
1E
100
AcDbEntity
  8
製品
  6
Continuous
 62
     4
100
AcDbLine
 10
384.153654903699
 20
170.9813588644538
 30
0.0
 11
392.0536549036991
 21
170.9813588644538
 31
0.0
  0
ARC
  5
700D
330
1E
100
AcDbEntity
  8
製品
  6
Continuous
 62
     2
100
AcDbCircle
 10
380.7536549036989
 20
173.3013588644535
 30
0.0
 40
0.4
100
AcDbArc
 50
180.0
 51
270.0
  0
LINE
  5
700E
330
1E
100
AcDbEntity
  8
製品
  6
Continuous
 62
     2
100
AcDbLine
 10
380.153654903699
 20
171.5813588644537
 30
0.0
 11
380.153654903699
 21
174.4813588644538
 31
0.0
  0
LINE
  5
700F
330
1E
100
AcDbEntity
  8
製品
  6
Continuous
 62
     2
100
AcDbLine
 10
380.253654903699
 20
171.5813588644537
 30
0.0
 11
380.253654903699
 21
174.4813588644538
 31
0.0
  0
ARC
  5
7010
330
1E
100
AcDbEntity
  8
製品
  6
Continuous
 62
     2
100
AcDbCircle
 10
389.5536549036991
 20
173.3013588644535
 30
0.0
 40
0.4
100
AcDbArc
 50
270.0
 51
0.0
  0
LINE
  5
7011
330
1E
100
AcDbEntity
  8
製品
  6
Continuous
 62
     2
100
AcDbLine
 10
390.153654903699
 20
171.5813588644537
 30
0.0
 11
390.153654903699
 21
174.4813588644538
 31
0.0
  0
LINE
  5
7012
330
1E
100
AcDbEntity
  8
製品
  6
Continuous
 62
     2
100
AcDbLine
 10
390.0536549036991
 20
171.5813588644537
 30
0.0
 11
390.0536549036991
 21
174.4813588644538
 31
0.0
  0
LINE
  5
7013
330
1E
100
AcDbEntity
  8
製品
  6
Continuous
 62
     2
100
AcDbLine
 10
383.3952549036989
 20
171.1687588644536
 30
0.0
 11
383.619254903699
 21
171.0939588644537
 31
0.0
  0
LINE
  5
7014
330
1E
100
AcDbEntity
  8
製品
  6
Continuous
 62
     2
100
AcDbLine
 10
383.3952549036989
 20
171.0687588644537
 30
0.0
 11
383.619254903699
 21
170.9939588644538
 31
0.0
  0
ARC
  5
7015
330
1E
100
AcDbEntity
  8
製品
  6
Continuous
 62
     2
100
AcDbCircle
 10
380.7536549036989
 20
171.5813588644537
 30
0.0
 40
0.5
100
AcDbArc
 50
180.0
 51
270.0
  0
ARC
  5
7016
330
1E
100
AcDbEntity
  8
製品
  6
Continuous
 62
     2
100
AcDbCircle
 10
380.7536549036989
 20
171.5813588644537
 30
0.0
 40
0.6
100
AcDbArc
 50
180.0
 51
270.0
  0
LINE
  5
7017
330
1E
100
AcDbEntity
  8
製品
  6
Continuous
 62
     2
100
AcDbLine
 10
382.4952549036988
 20
170.9939588644538
 30
0.0
 11
382.7192549036989
 21
171.0687588644537
 31
0.0
  0
LINE
  5
7018
330
1E
100
AcDbEntity
  8
製品
  6
Continuous
 62
     2
100
AcDbLine
 10
382.4952549036988
 20
171.0939588644537
 30
0.0
 11
382.7192549036989
 21
171.1687588644536
 31
0.0
  0
LINE
  5
7019
330
1E
100
AcDbEntity
  8
製品
  6
Continuous
 62
     2
100
AcDbLine
 10
380.7536549036989
 20
170.9813588644538
 30
0.0
 11
381.3416549036991
 21
170.9813588644538
 31
0.0
  0
ARC
  5
701A
330
1E
100
AcDbEntity
  8
製品
  6
Continuous
 62
     2
100
AcDbCircle
 10
381.3288549036991
 20
171.1013588644537
 30
0.0
 40
0.12
100
AcDbArc
 50
270.0
 51
296.5223689999826
  0
ARC
  5
701B
330
1E
100
AcDbEntity
  8
製品
  6
Continuous
 62
     2
100
AcDbCircle
 10
381.3288549036991
 20
171.2013588644536
 30
0.0
 40
0.12
100
AcDbArc
 50
270.0
 51
296.5223689999826
  0
ARC
  5
701C
330
1E
100
AcDbEntity
  8
製品
  6
Continuous
 62
     2
100
AcDbCircle
 10
382.4572549036988
 20
171.2077588644538
 30
0.0
 40
0.12
100
AcDbArc
 50
251.5348510000121
 51
288.4651489999879
  0
ARC
  5
701D
330
1E
100
AcDbEntity
  8
製品
  6
Continuous
 62
     2
100
AcDbCircle
 10
382.4572549036988
 20
171.1077588644534
 30
0.0
 40
0.12
100
AcDbArc
 50
251.5348510000121
 51
288.4651489999879
  0
ARC
  5
701E
330
1E
100
AcDbEntity
  8
製品
  6
Continuous
 62
     2
100
AcDbCircle
 10
382.157254903699
 20
170.9549588644536
 30
0.0
 40
0.12
100
AcDbArc
 50
71.53485100001211
 51
108.4651489999879
  0
LINE
  5
701F
330
1E
100
AcDbEntity
  8
製品
  6
Continuous
 62
     2
100
AcDbLine
 10
381.8952549036989
 20
170.9939588644538
 30
0.0
 11
382.119254903699
 21
171.0687588644537
 31
0.0
  0
ARC
  5
7020
330
1E
100
AcDbEntity
  8
製品
  6
Continuous
 62
     2
100
AcDbCircle
 10
382.157254903699
 20
171.0549588644535
 30
0.0
 40
0.12
100
AcDbArc
 50
71.53485100001211
 51
108.4651489999879
  0
LINE
  5
7021
330
1E
100
AcDbEntity
  8
製品
  6
Continuous
 62
     2
100
AcDbLine
 10
381.8952549036989
 20
171.0939588644537
 30
0.0
 11
382.119254903699
 21
171.1687588644536
 31
0.0
  0
ARC
  5
7022
330
1E
100
AcDbEntity
  8
製品
  6
Continuous
 62
     2
100
AcDbCircle
 10
381.8572549036988
 20
171.2079588644537
 30
0.0
 40
0.12
100
AcDbArc
 50
251.5650479999934
 51
288.434937000004
  0
LINE
  5
7023
330
1E
100
AcDbEntity
  8
製品
  6
Continuous
 62
     2
100
AcDbLine
 10
381.6044549036991
 20
171.1657588644534
 30
0.0
 11
381.8192549036989
 21
171.0939588644537
 31
0.0
  0
LINE
  5
7024
330
1E
100
AcDbEntity
  8
製品
  6
Continuous
 62
     2
100
AcDbLine
 10
380.7536549036989
 20
171.0813588644537
 30
0.0
 11
381.3288549036991
 21
171.0813588644537
 31
0.0
  0
LINE
  5
7025
330
1E
100
AcDbEntity
  8
製品
  6
Continuous
 62
     2
100
AcDbLine
 10
382.1952549036991
 20
171.1687588644536
 30
0.0
 11
382.4192549036987
 21
171.0939588644537
 31
0.0
  0
LINE
  5
7026
330
1E
100
AcDbEntity
  8
製品
  6
Continuous
 62
     2
100
AcDbLine
 10
382.1952549036991
 20
171.0687588644537
 30
0.0
 11
382.4192549036987
 21
170.9939588644538
 31
0.0
  0
LINE
  5
7027
330
1E
100
AcDbEntity
  8
製品
  6
Continuous
 62
     2
100
AcDbLine
 10
381.3824549036989
 20
170.9939588644538
 30
0.0
 11
381.5128549036989
 21
171.0591588644538
 31
0.0
  0
ARC
  5
7028
330
1E
100
AcDbEntity
  8
製品
  6
Continuous
 62
     2
100
AcDbCircle
 10
381.8572549036988
 20
171.1077588644534
 30
0.0
 40
0.12
100
AcDbArc
 50
251.6254879999904
 51
288.4651489999879
  0
LINE
  5
7029
330
1E
100
AcDbEntity
  8
製品
  6
Continuous
 62
     2
100
AcDbLine
 10
381.6044549036991
 20
171.0655588644535
 30
0.0
 11
381.8194549036988
 21
170.9939588644538
 31
0.0
  0
ARC
  5
702A
330
1E
100
AcDbEntity
  8
製品
  6
Continuous
 62
     2
100
AcDbCircle
 10
381.5664549036991
 20
171.0517588644538
 30
0.0
 40
0.12
100
AcDbArc
 50
71.56504799999338
 51
116.5223539999877
  0
LINE
  5
702B
330
1E
100
AcDbEntity
  8
製品
  6
Continuous
 62
     2
100
AcDbLine
 10
381.3824549036989
 20
171.0939588644537
 30
0.0
 11
381.5128549036989
 21
171.1591588644537
 31
0.0
  0
ARC
  5
702C
330
1E
100
AcDbEntity
  8
製品
  6
Continuous
 62
     2
100
AcDbCircle
 10
381.5664549036991
 20
170.9517588644535
 30
0.0
 40
0.12
100
AcDbArc
 50
71.53485100001211
 51
116.5223539999877
  0
ARC
  5
702D
330
1E
100
AcDbEntity
  8
製品
  6
Continuous
 62
     2
100
AcDbCircle
 10
383.3572549036988
 20
170.9549588644536
 30
0.0
 40
0.12
100
AcDbArc
 50
71.53485100001211
 51
108.4651489999879
  0
LINE
  5
702E
330
1E
100
AcDbEntity
  8
製品
  6
Continuous
 62
     2
100
AcDbLine
 10
383.0952549036991
 20
170.9939588644538
 30
0.0
 11
383.3192549036988
 21
171.0687588644537
 31
0.0
  0
ARC
  5
702F
330
1E
100
AcDbEntity
  8
製品
  6
Continuous
 62
     2
100
AcDbCircle
 10
383.3572549036988
 20
171.0549588644535
 30
0.0
 40
0.12
100
AcDbArc
 50
71.53485100001211
 51
108.4651489999879
  0
LINE
  5
7030
330
1E
100
AcDbEntity
  8
製品
  6
Continuous
 62
     2
100
AcDbLine
 10
383.0952549036991
 20
171.0939588644537
 30
0.0
 11
383.3192549036988
 21
171.1687588644536
 31
0.0
  0
ARC
  5
7031
330
1E
100
AcDbEntity
  8
製品
  6
Continuous
 62
     2
100
AcDbCircle
 10
383.0572549036991
 20
171.1077588644534
 30
0.0
 40
0.12
100
AcDbArc
 50
251.5348510000121
 51
288.4651489999879
  0
ARC
  5
7032
330
1E
100
AcDbEntity
  8
製品
  6
Continuous
 62
     2
100
AcDbCircle
 10
383.0572549036991
 20
171.2077588644538
 30
0.0
 40
0.12
100
AcDbArc
 50
251.5348510000121
 51
288.4651489999879
  0
LINE
  5
7033
330
1E
100
AcDbEntity
  8
製品
  6
Continuous
 62
     2
100
AcDbLine
 10
382.7952549036989
 20
171.0687588644537
 30
0.0
 11
383.0192549036991
 21
170.9939588644538
 31
0.0
  0
LINE
  5
7034
330
1E
100
AcDbEntity
  8
製品
  6
Continuous
 62
     2
100
AcDbLine
 10
382.7952549036989
 20
171.1687588644536
 30
0.0
 11
383.0192549036991
 21
171.0939588644537
 31
0.0
  0
ARC
  5
7035
330
1E
100
AcDbEntity
  8
製品
  6
Continuous
 62
     2
100
AcDbCircle
 10
382.757254903699
 20
170.9549588644536
 30
0.0
 40
0.12
100
AcDbArc
 50
71.53485100001211
 51
108.4651489999879
  0
ARC
  5
7036
330
1E
100
AcDbEntity
  8
製品
  6
Continuous
 62
     2
100
AcDbCircle
 10
382.757254903699
 20
171.0549588644535
 30
0.0
 40
0.12
100
AcDbArc
 50
71.53485100001211
 51
108.4651489999879
  0
LINE
  5
7037
330
1E
100
AcDbEntity
  8
製品
  6
Continuous
 62
     2
100
AcDbLine
 10
387.8120549036988
 20
170.9939588644538
 30
0.0
 11
387.5880549036991
 21
171.0687588644537
 31
0.0
  0
LINE
  5
7038
330
1E
100
AcDbEntity
  8
製品
  6
Continuous
 62
     2
100
AcDbLine
 10
387.8120549036988
 20
171.0939588644537
 30
0.0
 11
387.5880549036991
 21
171.1687588644536
 31
0.0
  0
LINE
  5
7039
330
1E
100
AcDbEntity
  8
製品
  6
Continuous
 62
     2
100
AcDbLine
 10
385.3284549036988
 20
170.9939588644538
 30
0.0
 11
385.2072549036988
 21
171.0545588644536
 31
0.0
  0
LINE
  5
703A
330
1E
100
AcDbEntity
  8
製品
  6
Continuous
 62
     2
100
AcDbLine
 10
385.3284549036988
 20
171.0939588644537
 30
0.0
 11
385.2072549036988
 21
171.1545588644535
 31
0.0
  0
ARC
  5
703B
330
1E
100
AcDbEntity
  8
製品
  6
Continuous
 62
     2
100
AcDbCircle
 10
384.925254903699
 20
171.2013588644536
 30
0.0
 40
0.12
100
AcDbArc
 50
270.0
 51
296.5223689999826
  0
LINE
  5
703C
330
1E
100
AcDbEntity
  8
製品
  6
Continuous
 62
     2
100
AcDbLine
 10
384.9788549036988
 20
171.0939588644537
 30
0.0
 11
385.1000549036988
 21
171.1545588644535
 31
0.0
  0
ARC
  5
703D
330
1E
100
AcDbEntity
  8
製品
  6
Continuous
 62
     2
100
AcDbCircle
 10
384.925254903699
 20
171.1013588644537
 30
0.0
 40
0.12
100
AcDbArc
 50
270.0
 51
296.5223689999826
  0
ARC
  5
703E
330
1E
100
AcDbEntity
  8
製品
  6
Continuous
 62
     2
100
AcDbCircle
 10
385.153654903699
 20
170.9471588644537
 30
0.0
 40
0.12
100
AcDbArc
 50
63.47764199999557
 51
116.5223539999877
  0
ARC
  5
703F
330
1E
100
AcDbEntity
  8
製品
  6
Continuous
 62
     2
100
AcDbCircle
 10
385.153654903699
 20
171.0471588644536
 30
0.0
 40
0.12
100
AcDbArc
 50
63.47764199999557
 51
116.5223539999877
  0
LINE
  5
7040
330
1E
100
AcDbEntity
  8
製品
  6
Continuous
 62
     2
100
AcDbLine
 10
384.9788549036988
 20
170.9939588644538
 30
0.0
 11
385.1000549036988
 21
171.0545588644536
 31
0.0
  0
ARC
  5
7041
330
1E
100
AcDbEntity
  8
製品
  6
Continuous
 62
     2
100
AcDbCircle
 10
384.1856549036987
 20
171.1013588644537
 30
0.0
 40
0.12
100
AcDbArc
 50
243.4776460000123
 51
270.0
  0
LINE
  5
7042
330
1E
100
AcDbEntity
  8
製品
  6
Continuous
 62
     2
100
AcDbLine
 10
384.001654903699
 20
171.0591588644538
 30
0.0
 11
384.132054903699
 21
170.9939588644538
 31
0.0
  0
ARC
  5
7043
330
1E
100
AcDbEntity
  8
製品
  6
Continuous
 62
     2
100
AcDbCircle
 10
384.1856549036987
 20
171.2013588644536
 30
0.0
 40
0.12
100
AcDbArc
 50
243.4776460000123
 51
270.0
  0
LINE
  5
7044
330
1E
100
AcDbEntity
  8
製品
  6
Continuous
 62
     2
100
AcDbLine
 10
384.001654903699
 20
171.1591588644537
 30
0.0
 11
384.132054903699
 21
171.0939588644537
 31
0.0
  0
ARC
  5
7045
330
1E
100
AcDbEntity
  8
製品
  6
Continuous
 62
     2
100
AcDbCircle
 10
383.9480549036988
 20
170.9517588644535
 30
0.0
 40
0.12
100
AcDbArc
 50
63.47764199999557
 51
108.4651489999879
  0
LINE
  5
7046
330
1E
100
AcDbEntity
  8
製品
  6
Continuous
 62
     2
100
AcDbLine
 10
383.695254903699
 20
170.9939588644538
 30
0.0
 11
383.9100549036988
 21
171.0655588644535
 31
0.0
  0
ARC
  5
7047
330
1E
100
AcDbEntity
  8
製品
  6
Continuous
 62
     2
100
AcDbCircle
 10
383.9480549036988
 20
171.0517588644538
 30
0.0
 40
0.12
100
AcDbArc
 50
63.47764199999557
 51
108.4651489999879
  0
LINE
  5
7048
330
1E
100
AcDbEntity
  8
製品
  6
Continuous
 62
     2
100
AcDbLine
 10
383.695254903699
 20
171.0939588644537
 30
0.0
 11
383.9100549036988
 21
171.1655588644535
 31
0.0
  0
ARC
  5
7049
330
1E
100
AcDbEntity
  8
製品
  6
Continuous
 62
     2
100
AcDbCircle
 10
383.657254903699
 20
171.2077588644538
 30
0.0
 40
0.12
100
AcDbArc
 50
251.5348510000121
 51
288.4651489999879
  0
LINE
  5
704A
330
1E
100
AcDbEntity
  8
製品
  6
Continuous
 62
     2
100
AcDbLine
 10
384.1856549036987
 20
171.0813588644537
 30
0.0
 11
384.925254903699
 21
171.0813588644537
 31
0.0
  0
LINE
  5
704B
330
1E
100
AcDbEntity
  8
製品
  6
Continuous
 62
     2
100
AcDbLine
 10
384.1856549036987
 20
170.9813588644538
 30
0.0
 11
384.925254903699
 21
170.9813588644538
 31
0.0
  0
ARC
  5
704C
330
1E
100
AcDbEntity
  8
製品
  6
Continuous
 62
     2
100
AcDbCircle
 10
383.657254903699
 20
171.1077588644534
 30
0.0
 40
0.12
100
AcDbArc
 50
251.5348510000121
 51
288.4651489999879
  0
LINE
  5
704D
330
1E
100
AcDbEntity
  8
製品
  6
Continuous
 62
     4
100
AcDbLine
 10
384.153654903699
 20
170.9813588644538
 30
0.0
 11
384.153654903699
 21
170.7813588644535
 31
0.0
  0
ARC
  5
704E
330
1E
100
AcDbEntity
  8
製品
  6
Continuous
 62
     2
100
AcDbCircle
 10
385.382054903699
 20
171.1013588644537
 30
0.0
 40
0.12
100
AcDbArc
 50
243.4776460000123
 51
270.0
  0
ARC
  5
704F
330
1E
100
AcDbEntity
  8
製品
  6
Continuous
 62
     2
100
AcDbCircle
 10
385.382054903699
 20
171.2013588644536
 30
0.0
 40
0.12
100
AcDbArc
 50
243.4776460000123
 51
270.0
  0
LINE
  5
7050
330
1E
100
AcDbEntity
  8
製品
  6
Continuous
 62
     2
100
AcDbLine
 10
386.3056549036991
 20
171.0591588644538
 30
0.0
 11
386.1752549036991
 21
170.9939588644538
 31
0.0
  0
ARC
  5
7051
330
1E
100
AcDbEntity
  8
製品
  6
Continuous
 62
     2
100
AcDbCircle
 10
386.1216549036989
 20
171.1013588644537
 30
0.0
 40
0.12
100
AcDbArc
 50
270.0
 51
296.5223689999826
  0
ARC
  5
7052
330
1E
100
AcDbEntity
  8
製品
  6
Continuous
 62
     2
100
AcDbCircle
 10
386.1216549036989
 20
171.2013588644536
 30
0.0
 40
0.12
100
AcDbArc
 50
270.0
 51
296.5223689999826
  0
LINE
  5
7053
330
1E
100
AcDbEntity
  8
製品
  6
Continuous
 62
     2
100
AcDbLine
 10
386.3056549036991
 20
171.1591588644537
 30
0.0
 11
386.1752549036991
 21
171.0939588644537
 31
0.0
  0
LINE
  5
7054
330
1E
100
AcDbEntity
  8
製品
  6
Continuous
 62
     2
100
AcDbLine
 10
386.612054903699
 20
170.9939588644538
 30
0.0
 11
386.3972549036988
 21
171.0655588644535
 31
0.0
  0
LINE
  5
7055
330
1E
100
AcDbEntity
  8
製品
  6
Continuous
 62
     2
100
AcDbLine
 10
386.612054903699
 20
171.0939588644537
 30
0.0
 11
386.3972549036988
 21
171.1655588644535
 31
0.0
  0
LINE
  5
7056
330
1E
100
AcDbEntity
  8
製品
  6
Continuous
 62
     2
100
AcDbLine
 10
386.9120549036987
 20
171.1687588644536
 30
0.0
 11
386.688054903699
 21
171.0939588644537
 31
0.0
  0
LINE
  5
7057
330
1E
100
AcDbEntity
  8
製品
  6
Continuous
 62
     2
100
AcDbLine
 10
386.9120549036987
 20
171.0687588644537
 30
0.0
 11
386.688054903699
 21
170.9939588644538
 31
0.0
  0
LINE
  5
7058
330
1E
100
AcDbEntity
  8
製品
  6
Continuous
 62
     2
100
AcDbLine
 10
387.2120549036989
 20
170.9939588644538
 30
0.0
 11
386.9880549036988
 21
171.0687588644537
 31
0.0
  0
LINE
  5
7059
330
1E
100
AcDbEntity
  8
製品
  6
Continuous
 62
     2
100
AcDbLine
 10
387.2120549036989
 20
171.0939588644537
 30
0.0
 11
386.9880549036988
 21
171.1687588644536
 31
0.0
  0
ARC
  5
705A
330
1E
100
AcDbEntity
  8
製品
  6
Continuous
 62
     2
100
AcDbCircle
 10
386.3592549036988
 20
170.9517588644535
 30
0.0
 40
0.12
100
AcDbArc
 50
71.53485100001211
 51
116.5223539999877
  0
ARC
  5
705B
330
1E
100
AcDbEntity
  8
製品
  6
Continuous
 62
     2
100
AcDbCircle
 10
386.3592549036988
 20
171.0517588644538
 30
0.0
 40
0.12
100
AcDbArc
 50
71.53485100001211
 51
116.5223539999877
  0
ARC
  5
705C
330
1E
100
AcDbEntity
  8
製品
  6
Continuous
 62
     2
100
AcDbCircle
 10
386.650054903699
 20
171.2077588644538
 30
0.0
 40
0.12
100
AcDbArc
 50
251.5348510000121
 51
288.4651489999879
  0
ARC
  5
705D
330
1E
100
AcDbEntity
  8
製品
  6
Continuous
 62
     2
100
AcDbCircle
 10
386.650054903699
 20
171.1077588644534
 30
0.0
 40
0.12
100
AcDbArc
 50
251.5348510000121
 51
288.4651489999879
  0
ARC
  5
705E
330
1E
100
AcDbEntity
  8
製品
  6
Continuous
 62
     2
100
AcDbCircle
 10
386.9500549036987
 20
170.9549588644536
 30
0.0
 40
0.12
100
AcDbArc
 50
71.53485100001211
 51
108.4651489999879
  0
ARC
  5
705F
330
1E
100
AcDbEntity
  8
製品
  6
Continuous
 62
     2
100
AcDbCircle
 10
386.9500549036987
 20
171.0549588644535
 30
0.0
 40
0.12
100
AcDbArc
 50
71.53485100001211
 51
108.4651489999879
  0
ARC
  5
7060
330
1E
100
AcDbEntity
  8
製品
  6
Continuous
 62
     2
100
AcDbCircle
 10
387.2500549036989
 20
171.1077588644534
 30
0.0
 40
0.12
100
AcDbArc
 50
251.5348510000121
 51
288.4651489999879
  0
ARC
  5
7061
330
1E
100
AcDbEntity
  8
製品
  6
Continuous
 62
     2
100
AcDbCircle
 10
387.2500549036989
 20
171.2077588644538
 30
0.0
 40
0.12
100
AcDbArc
 50
251.5348510000121
 51
288.4651489999879
  0
LINE
  5
7062
330
1E
100
AcDbEntity
  8
製品
  6
Continuous
 62
     2
100
AcDbLine
 10
387.5120549036991
 20
171.0687588644537
 30
0.0
 11
387.288054903699
 21
170.9939588644538
 31
0.0
  0
LINE
  5
7063
330
1E
100
AcDbEntity
  8
製品
  6
Continuous
 62
     2
100
AcDbLine
 10
387.5120549036991
 20
171.1687588644536
 30
0.0
 11
387.288054903699
 21
171.0939588644537
 31
0.0
  0
ARC
  5
7064
330
1E
100
AcDbEntity
  8
製品
  6
Continuous
 62
     2
100
AcDbCircle
 10
387.5500549036991
 20
170.9549588644536
 30
0.0
 40
0.12
100
AcDbArc
 50
71.53485100001211
 51
108.4651489999879
  0
ARC
  5
7065
330
1E
100
AcDbEntity
  8
製品
  6
Continuous
 62
     2
100
AcDbCircle
 10
387.5500549036991
 20
171.0549588644535
 30
0.0
 40
0.12
100
AcDbArc
 50
71.53485100001211
 51
108.4651489999879
  0
LINE
  5
7066
330
1E
100
AcDbEntity
  8
製品
  6
Continuous
 62
     2
100
AcDbLine
 10
386.1216549036989
 20
170.9813588644538
 30
0.0
 11
385.382054903699
 21
170.9813588644538
 31
0.0
  0
LINE
  5
7067
330
1E
100
AcDbEntity
  8
製品
  6
Continuous
 62
     2
100
AcDbLine
 10
386.1216549036989
 20
171.0813588644537
 30
0.0
 11
385.382054903699
 21
171.0813588644537
 31
0.0
  0
ARC
  5
7068
330
1E
100
AcDbEntity
  8
製品
  6
Continuous
 62
     2
100
AcDbCircle
 10
389.5536549036991
 20
171.5813588644537
 30
0.0
 40
0.5
100
AcDbArc
 50
270.0
 51
0.0
  0
ARC
  5
7069
330
1E
100
AcDbEntity
  8
製品
  6
Continuous
 62
     2
100
AcDbCircle
 10
389.5536549036991
 20
171.5813588644537
 30
0.0
 40
0.6
100
AcDbArc
 50
270.0
 51
0.0
  0
LINE
  5
706A
330
1E
100
AcDbEntity
  8
製品
  6
Continuous
 62
     2
100
AcDbLine
 10
388.112054903699
 20
171.1687588644536
 30
0.0
 11
387.8880549036988
 21
171.0939588644537
 31
0.0
  0
LINE
  5
706B
330
1E
100
AcDbEntity
  8
製品
  6
Continuous
 62
     2
100
AcDbLine
 10
388.112054903699
 20
171.0687588644537
 30
0.0
 11
387.8880549036988
 21
170.9939588644538
 31
0.0
  0
ARC
  5
706C
330
1E
100
AcDbEntity
  8
製品
  6
Continuous
 62
     2
100
AcDbCircle
 10
387.8500549036989
 20
171.2077588644538
 30
0.0
 40
0.12
100
AcDbArc
 50
251.5348510000121
 51
288.4651489999879
  0
ARC
  5
706D
330
1E
100
AcDbEntity
  8
製品
  6
Continuous
 62
     2
100
AcDbCircle
 10
387.8500549036989
 20
171.1077588644534
 30
0.0
 40
0.12
100
AcDbArc
 50
251.5348510000121
 51
288.4651489999879
  0
LINE
  5
706E
330
1E
100
AcDbEntity
  8
製品
  6
Continuous
 62
     2
100
AcDbLine
 10
389.5536549036991
 20
170.9813588644538
 30
0.0
 11
388.9656549036989
 21
170.9813588644538
 31
0.0
  0
ARC
  5
706F
330
1E
100
AcDbEntity
  8
製品
  6
Continuous
 62
     2
100
AcDbCircle
 10
388.9784549036989
 20
171.1013588644537
 30
0.0
 40
0.12
100
AcDbArc
 50
243.4776460000123
 51
270.0
  0
ARC
  5
7070
330
1E
100
AcDbEntity
  8
製品
  6
Continuous
 62
     2
100
AcDbCircle
 10
388.9784549036989
 20
171.2013588644536
 30
0.0
 40
0.12
100
AcDbArc
 50
243.4776460000123
 51
270.0
  0
LINE
  5
7071
330
1E
100
AcDbEntity
  8
製品
  6
Continuous
 62
     2
100
AcDbLine
 10
388.4120549036987
 20
170.9939588644538
 30
0.0
 11
388.188054903699
 21
171.0687588644537
 31
0.0
  0
LINE
  5
7072
330
1E
100
AcDbEntity
  8
製品
  6
Continuous
 62
     2
100
AcDbLine
 10
388.4120549036987
 20
171.0939588644537
 30
0.0
 11
388.188054903699
 21
171.1687588644536
 31
0.0
  0
LINE
  5
7073
330
1E
100
AcDbEntity
  8
製品
  6
Continuous
 62
     2
100
AcDbLine
 10
388.702854903699
 20
171.1657588644534
 30
0.0
 11
388.4880549036988
 21
171.0939588644537
 31
0.0
  0
ARC
  5
7074
330
1E
100
AcDbEntity
  8
製品
  6
Continuous
 62
     2
100
AcDbCircle
 10
388.150054903699
 20
170.9549588644536
 30
0.0
 40
0.12
100
AcDbArc
 50
71.53485100001211
 51
108.4651489999879
  0
ARC
  5
7075
330
1E
100
AcDbEntity
  8
製品
  6
Continuous
 62
     2
100
AcDbCircle
 10
388.150054903699
 20
171.0549588644535
 30
0.0
 40
0.12
100
AcDbArc
 50
71.53485100001211
 51
108.4651489999879
  0
ARC
  5
7076
330
1E
100
AcDbEntity
  8
製品
  6
Continuous
 62
     2
100
AcDbCircle
 10
388.4500549036987
 20
171.2079588644537
 30
0.0
 40
0.12
100
AcDbArc
 50
251.5650479999934
 51
288.434937000004
  0
LINE
  5
7077
330
1E
100
AcDbEntity
  8
製品
  6
Continuous
 62
     2
100
AcDbLine
 10
388.9248549036987
 20
170.9939588644538
 30
0.0
 11
388.7944549036991
 21
171.0591588644538
 31
0.0
  0
LINE
  5
7078
330
1E
100
AcDbEntity
  8
製品
  6
Continuous
 62
     2
100
AcDbLine
 10
388.702854903699
 20
171.0655588644535
 30
0.0
 11
388.4878549036988
 21
170.9939588644538
 31
0.0
  0
LINE
  5
7079
330
1E
100
AcDbEntity
  8
製品
  6
Continuous
 62
     2
100
AcDbLine
 10
388.9248549036987
 20
171.0939588644537
 30
0.0
 11
388.7944549036991
 21
171.1591588644537
 31
0.0
  0
ARC
  5
707A
330
1E
100
AcDbEntity
  8
製品
  6
Continuous
 62
     2
100
AcDbCircle
 10
388.4500549036987
 20
171.1077588644534
 30
0.0
 40
0.12
100
AcDbArc
 50
251.5348510000121
 51
288.3745120000096
  0
ARC
  5
707B
330
1E
100
AcDbEntity
  8
製品
  6
Continuous
 62
     2
100
AcDbCircle
 10
388.740854903699
 20
171.0517588644538
 30
0.0
 40
0.12
100
AcDbArc
 50
63.47764199999557
 51
108.4349520000066
  0
ARC
  5
707C
330
1E
100
AcDbEntity
  8
製品
  6
Continuous
 62
     2
100
AcDbCircle
 10
388.740854903699
 20
170.9517588644535
 30
0.0
 40
0.12
100
AcDbArc
 50
63.47764199999557
 51
108.4651489999879
  0
LINE
  5
707D
330
1E
100
AcDbEntity
  8
製品
  6
Continuous
 62
     2
100
AcDbLine
 10
389.5536549036991
 20
171.0813588644537
 30
0.0
 11
388.9784549036989
 21
171.0813588644537
 31
0.0
  0
CIRCLE
  5
707E
330
1E
100
AcDbEntity
  8
図面枠
  6
Continuous
 62
     2
100
AcDbCircle
 10
389.153654903699
 20
169.4813588644538
 30
0.0
 40
0.3
  0
LINE
  5
707F
330
1E
100
AcDbEntity
  8
製品
  6
Continuous
 62
     4
100
AcDbLine
 10
388.153654903699
 20
170.7813588644535
 30
0.0
 11
388.153654903699
 21
168.1813588644536
 31
0.0
  0
LINE
  5
7080
330
1E
100
AcDbEntity
  8
製品
  6
Continuous
 62
     2
100
AcDbLine
 10
388.3536549036989
 20
181.3813588644534
 30
0.0
 11
381.9536549036988
 21
181.3813588644534
 31
0.0
  0
LINE
  5
7081
330
1E
100
AcDbEntity
  8
製品
  6
Continuous
 62
     2
100
AcDbLine
 10
389.5536549036991
 20
172.9013588644539
 30
0.0
 11
380.7536549036989
 21
172.9013588644539
 31
0.0
  0
LINE
  5
7082
330
1E
100
AcDbEntity
  8
製品
  6
Continuous
 62
     2
100
AcDbLine
 10
389.9536549036988
 20
182.5013588644537
 30
0.0
 11
380.3536549036989
 21
182.5013588644537
 31
0.0
  0
ARC
  5
7083
330
1E
100
AcDbEntity
  8
製品
  6
Continuous
 62
     2
100
AcDbCircle
 10
383.153654903699
 20
173.9613588644538
 30
0.0
 40
0.5
100
AcDbArc
 50
180.0
 51
0.0
  0
ARC
  5
7084
330
1E
100
AcDbEntity
  8
製品
  6
Continuous
 62
     2
100
AcDbCircle
 10
384.253654903699
 20
177.1813588644536
 30
0.0
 40
0.6
100
AcDbArc
 50
90.0
 51
180.0
  0
LINE
  5
7085
330
1E
100
AcDbEntity
  8
製品
  6
Continuous
 62
     2
100
AcDbLine
 10
381.5536549036991
 20
178.1813588644536
 30
0.0
 11
381.5536549036991
 21
180.9813588644538
 31
0.0
  0
LINE
  5
7086
330
1E
100
AcDbEntity
  8
製品
  6
Continuous
 62
     2
100
AcDbLine
 10
380.3536549036989
 20
182.5013588644537
 30
0.0
 11
380.3536549036989
 21
177.7813588644535
 31
0.0
  0
LINE
  5
7087
330
1E
100
AcDbEntity
  8
製品
  6
Continuous
 62
     2
100
AcDbLine
 10
382.653654903699
 20
173.9613588644538
 30
0.0
 11
382.653654903699
 21
177.1813588644536
 31
0.0
  0
LINE
  5
7088
330
1E
100
AcDbEntity
  8
製品
  6
Continuous
 62
     2
100
AcDbLine
 10
381.3536549036988
 20
176.4417318644537
 30
0.0
 11
381.3536549036988
 21
174.2813588644535
 31
0.0
  0
ARC
  5
7089
330
1E
100
AcDbEntity
  8
製品
  6
Continuous
 62
     2
100
AcDbCircle
 10
380.4536549036988
 20
174.4813588644538
 30
0.0
 40
0.3
100
AcDbArc
 50
90.0
 51
180.0
  0
ARC
  5
708A
330
1E
100
AcDbEntity
  8
製品
  6
Continuous
 62
     2
100
AcDbCircle
 10
380.653654903699
 20
174.4813588644538
 30
0.0
 40
0.3
100
AcDbArc
 50
0.0
 51
90.0
  0
ARC
  5
708B
330
1E
100
AcDbEntity
  8
製品
  6
Continuous
 62
     2
100
AcDbCircle
 10
381.0536549036991
 20
174.2798588644537
 30
0.0
 40
0.300004
100
AcDbArc
 50
202.7960729999855
 51
0.286477000004934
  0
LINE
  5
708C
330
1E
100
AcDbEntity
  8
製品
  6
Continuous
 62
     2
100
AcDbLine
 10
380.777308903699
 20
174.1630898644535
 30
0.0
 11
380.6993789036991
 21
174.5527378644537
 31
0.0
  0
ARC
  5
708D
330
1E
100
AcDbEntity
  8
製品
  6
Continuous
 62
     3
100
AcDbCircle
 10
380.5424859036988
 20
174.5213588644537
 30
0.0
 40
0.16
100
AcDbArc
 50
11.30993199999791
 51
90.0
  0
LINE
  5
708E
330
1E
100
AcDbEntity
  8
製品
  6
Continuous
 62
     2
100
AcDbLine
 10
380.4536549036988
 20
174.6813588644536
 30
0.0
 11
380.653654903699
 21
174.6813588644536
 31
0.0
  0
LINE
  5
708F
330
1E
100
AcDbEntity
  8
製品
  6
Continuous
 62
     2
100
AcDbLine
 10
380.9536549036987
 20
174.1813588644536
 30
0.0
 11
380.9536549036987
 21
174.4813588644538
 31
0.0
  0
LINE
  5
7090
330
1E
100
AcDbEntity
  8
製品
  6
Continuous
 62
     2
100
AcDbLine
 10
380.8536549036988
 20
174.1813588644536
 30
0.0
 11
380.9536549036987
 21
174.1813588644536
 31
0.0
  0
LINE
  5
7091
330
1E
100
AcDbEntity
  8
製品
  6
Continuous
 62
     2
100
AcDbLine
 10
380.8536549036988
 20
174.4813588644538
 30
0.0
 11
380.8536549036988
 21
174.1813588644536
 31
0.0
  0
ARC
  5
7092
330
1E
100
AcDbEntity
  8
製品
  6
Continuous
 62
     2
100
AcDbCircle
 10
380.653654903699
 20
174.4813588644538
 30
0.0
 40
0.2
100
AcDbArc
 50
0.0
 51
90.0
  0
ARC
  5
7093
330
1E
100
AcDbEntity
  8
製品
  6
Continuous
 62
     2
100
AcDbCircle
 10
380.4536549036988
 20
174.4813588644538
 30
0.0
 40
0.2
100
AcDbArc
 50
90.0
 51
180.0
  0
LINE
  5
7094
330
1E
100
AcDbEntity
  8
製品
  6
Continuous
 62
     2
100
AcDbLine
 10
380.3536549036989
 20
174.6545638644538
 30
0.0
 11
380.3536549036989
 21
173.3013588644535
 31
0.0
  0
ARC
  5
7095
330
1E
100
AcDbEntity
  8
製品
  6
Continuous
 62
     2
100
AcDbCircle
 10
382.0536549036991
 20
177.1813588644536
 30
0.0
 40
0.6
100
AcDbArc
 50
0.0
 51
90.0
  0
ARC
  5
7096
330
1E
100
AcDbEntity
  8
製品
  6
Continuous
 62
     2
100
AcDbCircle
 10
380.3536549036989
 20
176.4417318644537
 30
0.0
 40
1.0
100
AcDbArc
 50
0.0
 51
71.73258900000312
  0
ARC
  5
7097
330
1E
100
AcDbEntity
  8
製品
  6
Continuous
 62
     2
100
AcDbCircle
 10
380.7536549036989
 20
177.7813588644535
 30
0.0
 40
0.4
100
AcDbArc
 50
180.0
 51
258.2626990000045
  0
LINE
  5
7098
330
1E
100
AcDbEntity
  8
製品
  6
Continuous
 62
     2
100
AcDbLine
 10
382.0536549036991
 20
177.7813588644535
 30
0.0
 11
381.9536549036988
 21
177.7813588644535
 31
0.0
  0
ARC
  5
7099
330
1E
100
AcDbEntity
  8
製品
  6
Continuous
 62
     2
100
AcDbCircle
 10
381.9536549036988
 20
178.1813588644536
 30
0.0
 40
0.4
100
AcDbArc
 50
180.0
 51
270.0
  0
ARC
  5
709A
330
1E
100
AcDbEntity
  8
製品
  6
Continuous
 62
     2
100
AcDbCircle
 10
381.9536549036988
 20
180.9813588644538
 30
0.0
 40
0.4
100
AcDbArc
 50
90.0
 51
180.0
  0
LINE
  5
709B
330
1E
100
AcDbEntity
  8
製品
  6
Continuous
 62
     2
100
AcDbLine
 10
388.7536549036989
 20
180.9813588644538
 30
0.0
 11
388.7536549036989
 21
178.1813588644536
 31
0.0
  0
LINE
  5
709C
330
1E
100
AcDbEntity
  8
製品
  6
Continuous
 62
     2
100
AcDbLine
 10
389.9536549036988
 20
182.5013588644537
 30
0.0
 11
389.9536549036988
 21
177.7813588644535
 31
0.0
  0
ARC
  5
709D
330
1E
100
AcDbEntity
  8
製品
  6
Continuous
 62
     2
100
AcDbCircle
 10
388.2536549036989
 20
177.1813588644536
 30
0.0
 40
0.6
100
AcDbArc
 50
90.0
 51
180.0
  0
LINE
  5
709E
330
1E
100
AcDbEntity
  8
製品
  6
Continuous
 62
     2
100
AcDbLine
 10
384.253654903699
 20
177.7813588644535
 30
0.0
 11
386.0536549036991
 21
177.7813588644535
 31
0.0
  0
LINE
  5
709F
330
1E
100
AcDbEntity
  8
製品
  6
Continuous
 62
     2
100
AcDbLine
 10
383.653654903699
 20
173.9613588644538
 30
0.0
 11
383.653654903699
 21
177.1813588644536
 31
0.0
  0
LINE
  5
70A0
330
1E
100
AcDbEntity
  8
製品
  6
Continuous
 62
     2
100
AcDbLine
 10
386.653654903699
 20
173.9613588644538
 30
0.0
 11
386.653654903699
 21
177.1813588644536
 31
0.0
  0
LINE
  5
70A1
330
1E
100
AcDbEntity
  8
製品
  6
Continuous
 62
     2
100
AcDbLine
 10
387.653654903699
 20
173.9613588644538
 30
0.0
 11
387.653654903699
 21
177.1813588644536
 31
0.0
  0
ARC
  5
70A2
330
1E
100
AcDbEntity
  8
製品
  6
Continuous
 62
     2
100
AcDbCircle
 10
387.153654903699
 20
173.9613588644538
 30
0.0
 40
0.5
100
AcDbArc
 50
180.0
 51
0.0
  0
ARC
  5
70A3
330
1E
100
AcDbEntity
  8
製品
  6
Continuous
 62
     2
100
AcDbCircle
 10
386.0536549036991
 20
177.1813588644536
 30
0.0
 40
0.6
100
AcDbArc
 50
0.0
 51
90.0
  0
LINE
  5
70A4
330
1E
100
AcDbEntity
  8
製品
  6
Continuous
 62
     2
100
AcDbLine
 10
388.9536549036987
 20
176.4417318644537
 30
0.0
 11
388.9536549036987
 21
174.2813588644535
 31
0.0
  0
ARC
  5
70A5
330
1E
100
AcDbEntity
  8
製品
  6
Continuous
 62
     2
100
AcDbCircle
 10
389.8536549036988
 20
174.4813588644538
 30
0.0
 40
0.3
100
AcDbArc
 50
0.0
 51
90.0
  0
ARC
  5
70A6
330
1E
100
AcDbEntity
  8
製品
  6
Continuous
 62
     2
100
AcDbCircle
 10
389.653654903699
 20
174.4813588644538
 30
0.0
 40
0.3
100
AcDbArc
 50
90.0
 51
180.0
  0
ARC
  5
70A7
330
1E
100
AcDbEntity
  8
製品
  6
Continuous
 62
     2
100
AcDbCircle
 10
389.2536549036989
 20
174.2798588644537
 30
0.0
 40
0.300004
100
AcDbArc
 50
179.713522999995
 51
337.2039270000145
  0
LINE
  5
70A8
330
1E
100
AcDbEntity
  8
製品
  6
Continuous
 62
     2
100
AcDbLine
 10
389.530000903699
 20
174.1630898644535
 30
0.0
 11
389.607930903699
 21
174.5527378644537
 31
0.0
  0
ARC
  5
70A9
330
1E
100
AcDbEntity
  8
製品
  6
Continuous
 62
     2
100
AcDbCircle
 10
389.7648229036989
 20
174.5213588644537
 30
0.0
 40
0.16
100
AcDbArc
 50
90.0
 51
168.6900680000021
  0
LINE
  5
70AA
330
1E
100
AcDbEntity
  8
製品
  6
Continuous
 62
     2
100
AcDbLine
 10
389.3536549036988
 20
174.1813588644536
 30
0.0
 11
389.3536549036988
 21
174.4813588644538
 31
0.0
  0
LINE
  5
70AB
330
1E
100
AcDbEntity
  8
製品
  6
Continuous
 62
     2
100
AcDbLine
 10
389.4536549036987
 20
174.1813588644536
 30
0.0
 11
389.3536549036988
 21
174.1813588644536
 31
0.0
  0
LINE
  5
70AC
330
1E
100
AcDbEntity
  8
製品
  6
Continuous
 62
     2
100
AcDbLine
 10
389.4536549036987
 20
174.4813588644538
 30
0.0
 11
389.4536549036987
 21
174.1813588644536
 31
0.0
  0
ARC
  5
70AD
330
1E
100
AcDbEntity
  8
製品
  6
Continuous
 62
     2
100
AcDbCircle
 10
389.653654903699
 20
174.4813588644538
 30
0.0
 40
0.2
100
AcDbArc
 50
90.0
 51
180.0
  0
LINE
  5
70AE
330
1E
100
AcDbEntity
  8
製品
  6
Continuous
 62
     2
100
AcDbLine
 10
389.8536549036988
 20
174.6813588644536
 30
0.0
 11
389.653654903699
 21
174.6813588644536
 31
0.0
  0
ARC
  5
70AF
330
1E
100
AcDbEntity
  8
製品
  6
Continuous
 62
     2
100
AcDbCircle
 10
389.8536549036988
 20
174.4813588644538
 30
0.0
 40
0.2
100
AcDbArc
 50
0.0
 51
90.0
  0
LINE
  5
70B0
330
1E
100
AcDbEntity
  8
製品
  6
Continuous
 62
     2
100
AcDbLine
 10
389.9536549036988
 20
173.3013588644535
 30
0.0
 11
389.9536549036988
 21
174.6750078644536
 31
0.0
  0
ARC
  5
70B1
330
1E
100
AcDbEntity
  8
製品
  6
Continuous
 62
     2
100
AcDbCircle
 10
389.9536549036988
 20
176.4417318644537
 30
0.0
 40
1.0
100
AcDbArc
 50
108.2674109999969
 51
180.0
  0
ARC
  5
70B2
330
1E
100
AcDbEntity
  8
製品
  6
Continuous
 62
     2
100
AcDbCircle
 10
389.5536549036991
 20
177.7813588644535
 30
0.0
 40
0.4
100
AcDbArc
 50
281.7373009999954
 51
0.0
  0
LINE
  5
70B3
330
1E
100
AcDbEntity
  8
製品
  6
Continuous
 62
     2
100
AcDbLine
 10
388.2536549036989
 20
177.7813588644535
 30
0.0
 11
388.3536549036989
 21
177.7813588644535
 31
0.0
  0
ARC
  5
70B4
330
1E
100
AcDbEntity
  8
製品
  6
Continuous
 62
     2
100
AcDbCircle
 10
388.3536549036989
 20
178.1813588644536
 30
0.0
 40
0.4
100
AcDbArc
 50
270.0
 51
0.0
  0
ARC
  5
70B5
330
1E
100
AcDbEntity
  8
製品
  6
Continuous
 62
     2
100
AcDbCircle
 10
388.3536549036989
 20
180.9813588644538
 30
0.0
 40
0.4
100
AcDbArc
 50
0.0
 51
90.0
  0
LINE
  5
70B6
330
1E
100
AcDbEntity
  8
製品
  6
Continuous
 62
     4
100
AcDbLine
 10
395.8536549036988
 20
174.7813588644535
 30
0.0
 11
395.8536549036988
 21
169.4313588644536
 31
0.0
  0
LINE
  5
70B7
330
1E
100
AcDbEntity
  8
製品
  6
Continuous
 62
     4
100
AcDbLine
 10
403.4536549036987
 20
171.1813588644536
 30
0.0
 11
403.4536549036987
 21
174.7813588644535
 31
0.0
  0
LINE
  5
70B8
330
1E
100
AcDbEntity
  8
製品
  6
Continuous
 62
     2
100
AcDbLine
 10
403.4536549036987
 20
171.1813588644536
 30
0.0
 11
398.4136549036988
 21
171.1813588644536
 31
0.0
  0
LINE
  5
70B9
330
1E
100
AcDbEntity
  8
製品
  6
Continuous
 62
     2
100
AcDbLine
 10
403.4536549036987
 20
165.1813588644536
 30
0.0
 11
398.4136549036988
 21
165.1813588644536
 31
0.0
  0
LINE
  5
70BA
330
1E
100
AcDbEntity
  8
製品
  6
Continuous
 62
     2
100
AcDbLine
 10
398.9136549036988
 20
165.6813588644536
 30
0.0
 11
403.573654903699
 21
165.6813588644536
 31
0.0
  0
LINE
  5
70BB
330
1E
100
AcDbEntity
  8
製品
  6
Continuous
 62
     2
100
AcDbLine
 10
398.9136549036988
 20
170.6813588644536
 30
0.0
 11
403.573654903699
 21
170.6813588644536
 31
0.0
  0
LINE
  5
70BC
330
1E
100
AcDbEntity
  8
製品
  6
Continuous
 62
     2
100
AcDbLine
 10
394.1136549036991
 20
170.0313588644535
 30
0.0
 11
394.1136549036991
 21
166.3313588644537
 31
0.0
  0
LINE
  5
70BD
330
1E
100
AcDbEntity
  8
製品
  6
Continuous
 62
     2
100
AcDbLine
 10
392.153654903699
 20
166.9813588644538
 30
0.0
 11
392.2536549036989
 21
167.2813588644535
 31
0.0
  0
LINE
  5
70BE
330
1E
100
AcDbEntity
  8
製品
  6
Continuous
 62
     2
100
AcDbLine
 10
392.0536549036991
 20
166.9813588644538
 30
0.0
 11
392.153654903699
 21
167.2813588644535
 31
0.0
  0
LINE
  5
70BF
330
1E
100
AcDbEntity
  8
製品
  6
Continuous
 62
     2
100
AcDbLine
 10
398.5136549036992
 20
166.0813588644537
 30
0.0
 11
398.5136549036992
 21
167.4813588644538
 31
0.0
  0
LINE
  5
70C0
330
1E
100
AcDbEntity
  8
製品
  6
Continuous
 62
     2
100
AcDbLine
 10
395.3136549036989
 20
166.9313588644536
 30
0.0
 11
397.7767069036989
 21
166.9313588644536
 31
0.0
  0
ARC
  5
70C1
330
1E
100
AcDbEntity
  8
製品
  6
Continuous
 62
     2
100
AcDbCircle
 10
395.5536549036991
 20
165.9813588644538
 30
0.0
 40
0.3
100
AcDbArc
 50
270.0
 51
0.0
  0
ARC
  5
70C2
330
1E
100
AcDbEntity
  8
製品
  6
Continuous
 62
     2
100
AcDbCircle
 10
395.5536549036991
 20
166.1813588644536
 30
0.0
 40
0.3
100
AcDbArc
 50
0.0
 51
90.0
  0
LINE
  5
70C3
330
1E
100
AcDbEntity
  8
製品
  6
Continuous
 62
     2
100
AcDbLine
 10
392.653654903699
 20
165.6813588644536
 30
0.0
 11
395.5536549036991
 21
165.6813588644536
 31
0.0
  0
LINE
  5
70C4
330
1E
100
AcDbEntity
  8
製品
  6
Continuous
 62
     2
100
AcDbLine
 10
392.653654903699
 20
165.7813588644535
 30
0.0
 11
395.5536549036991
 21
165.7813588644535
 31
0.0
  0
LINE
  5
70C5
330
1E
100
AcDbEntity
  8
製品
  6
Continuous
 62
     2
100
AcDbLine
 10
392.153654903699
 20
166.4813588644538
 30
0.0
 11
392.2536549036989
 21
166.6813588644536
 31
0.0
  0
LINE
  5
70C6
330
1E
100
AcDbEntity
  8
製品
  6
Continuous
 62
     2
100
AcDbLine
 10
392.2536549036989
 20
166.6813588644536
 30
0.0
 11
392.153654903699
 21
166.9813588644538
 31
0.0
  0
LINE
  5
70C7
330
1E
100
AcDbEntity
  8
製品
  6
Continuous
 62
     2
100
AcDbLine
 10
392.153654903699
 20
166.6813588644536
 30
0.0
 11
392.0536549036991
 21
166.9813588644538
 31
0.0
  0
LINE
  5
70C8
330
1E
100
AcDbEntity
  8
製品
  6
Continuous
 62
     2
100
AcDbLine
 10
392.0536549036991
 20
166.4813588644538
 30
0.0
 11
392.153654903699
 21
166.6813588644536
 31
0.0
  0
ARC
  5
70C9
330
1E
100
AcDbEntity
  8
製品
  6
Continuous
 62
     2
100
AcDbCircle
 10
392.653654903699
 20
166.2813588644535
 30
0.0
 40
0.6
100
AcDbArc
 50
180.0
 51
270.0
  0
ARC
  5
70CA
330
1E
100
AcDbEntity
  8
製品
  6
Continuous
 62
     2
100
AcDbCircle
 10
392.653654903699
 20
166.2813588644535
 30
0.0
 40
0.5
100
AcDbArc
 50
180.0
 51
270.0
  0
LINE
  5
70CB
330
1E
100
AcDbEntity
  8
製品
  6
Continuous
 62
     2
100
AcDbLine
 10
392.153654903699
 20
166.2813588644535
 30
0.0
 11
392.153654903699
 21
166.4813588644538
 31
0.0
  0
ARC
  5
70CC
330
1E
100
AcDbEntity
  8
製品
  6
Continuous
 62
     2
100
AcDbCircle
 10
394.5136549036991
 20
166.3313588644537
 30
0.0
 40
0.4
100
AcDbArc
 50
180.0
 51
270.0
  0
ARC
  5
70CD
330
1E
100
AcDbEntity
  8
製品
  6
Continuous
 62
     2
100
AcDbCircle
 10
395.3136549036989
 20
166.6313588644534
 30
0.0
 40
0.3
100
AcDbArc
 50
90.0
 51
254.3217239999982
  0
LINE
  5
70CE
330
1E
100
AcDbEntity
  8
製品
  6
Continuous
 62
     2
100
AcDbLine
 10
395.253654903699
 20
166.4813588644538
 30
0.0
 11
395.5536549036991
 21
166.4813588644538
 31
0.0
  0
LINE
  5
70CF
330
1E
100
AcDbEntity
  8
製品
  6
Continuous
 62
     2
100
AcDbLine
 10
395.253654903699
 20
166.3813588644534
 30
0.0
 11
395.253654903699
 21
166.4813588644538
 31
0.0
  0
LINE
  5
70D0
330
1E
100
AcDbEntity
  8
製品
  6
Continuous
 62
     2
100
AcDbLine
 10
395.5536549036991
 20
166.3813588644534
 30
0.0
 11
395.253654903699
 21
166.3813588644534
 31
0.0
  0
ARC
  5
70D1
330
1E
100
AcDbEntity
  8
製品
  6
Continuous
 62
     2
100
AcDbCircle
 10
395.5536549036991
 20
166.1813588644536
 30
0.0
 40
0.2
100
AcDbArc
 50
0.0
 51
90.0
  0
LINE
  5
70D2
330
1E
100
AcDbEntity
  8
製品
  6
Continuous
 62
     2
100
AcDbLine
 10
395.7536549036989
 20
165.9813588644538
 30
0.0
 11
395.7536549036989
 21
166.1813588644536
 31
0.0
  0
ARC
  5
70D3
330
1E
100
AcDbEntity
  8
製品
  6
Continuous
 62
     2
100
AcDbCircle
 10
395.5536549036991
 20
165.9813588644538
 30
0.0
 40
0.2
100
AcDbArc
 50
270.0
 51
0.0
  0
LINE
  5
70D4
330
1E
100
AcDbEntity
  8
製品
  6
Continuous
 62
     2
100
AcDbLine
 10
395.2325839036988
 20
166.3425208644535
 30
0.0
 11
395.7536549036989
 21
166.1962668644537
 31
0.0
  0
LINE
  5
70D5
330
1E
100
AcDbEntity
  8
製品
  6
Continuous
 62
     2
100
AcDbLine
 10
394.5136549036991
 20
165.9313588644536
 30
0.0
 11
395.7473039036989
 21
165.9313588644536
 31
0.0
  0
ARC
  5
70D6
330
1E
100
AcDbEntity
  8
製品
  6
Continuous
 62
     2
100
AcDbCircle
 10
398.9136549036988
 20
166.0813588644537
 30
0.0
 40
0.4
100
AcDbArc
 50
180.0
 51
270.0
  0
LINE
  5
70D7
330
1E
100
AcDbEntity
  8
製品
  6
Continuous
 62
     2
100
AcDbLine
 10
398.4136549036988
 20
165.1813588644536
 30
0.0
 11
397.7767069036989
 21
166.9313588644536
 31
0.0
  0
LINE
  5
70D8
330
1E
100
AcDbEntity
  8
製品
  6
Continuous
 62
     2
100
AcDbLine
 10
395.3136549036989
 20
169.4313588644536
 30
0.0
 11
397.7767069036989
 21
169.4313588644536
 31
0.0
  0
LINE
  5
70D9
330
1E
100
AcDbEntity
  8
製品
  6
Continuous
 62
     2
100
AcDbLine
 10
395.3136549036989
 20
168.8813588644534
 30
0.0
 11
398.5136549036992
 21
168.8813588644534
 31
0.0
  0
LINE
  5
70DA
330
1E
100
AcDbEntity
  8
製品
  6
Continuous
 62
     2
100
AcDbLine
 10
395.3136549036989
 20
167.4813588644538
 30
0.0
 11
398.5136549036992
 21
167.4813588644538
 31
0.0
  0
ARC
  5
70DB
330
1E
100
AcDbEntity
  8
製品
  6
Continuous
 62
     2
100
AcDbCircle
 10
395.5536549036991
 20
170.3813588644534
 30
0.0
 40
0.3
100
AcDbArc
 50
0.0
 51
90.0
  0
ARC
  5
70DC
330
1E
100
AcDbEntity
  8
製品
  6
Continuous
 62
     2
100
AcDbCircle
 10
395.5536549036991
 20
170.1813588644536
 30
0.0
 40
0.3
100
AcDbArc
 50
270.0
 51
0.0
  0
ARC
  5
70DD
330
1E
100
AcDbEntity
  8
製品
  6
Continuous
 62
     2
100
AcDbCircle
 10
395.3136549036989
 20
168.0813588644537
 30
0.0
 40
0.6
100
AcDbArc
 50
180.0
 51
270.0
  0
LINE
  5
70DE
330
1E
100
AcDbEntity
  8
製品
  6
Continuous
 62
     2
100
AcDbLine
 10
392.153654903699
 20
167.5813588644537
 30
0.0
 11
392.2536549036989
 21
167.8813588644534
 31
0.0
  0
LINE
  5
70DF
330
1E
100
AcDbEntity
  8
製品
  6
Continuous
 62
     2
100
AcDbLine
 10
392.0536549036991
 20
167.5813588644537
 30
0.0
 11
392.153654903699
 21
167.8813588644534
 31
0.0
  0
LINE
  5
70E0
330
1E
100
AcDbEntity
  8
製品
  6
Continuous
 62
     2
100
AcDbLine
 10
392.2536549036989
 20
167.2813588644535
 30
0.0
 11
392.153654903699
 21
167.5813588644537
 31
0.0
  0
LINE
  5
70E1
330
1E
100
AcDbEntity
  8
製品
  6
Continuous
 62
     2
100
AcDbLine
 10
392.153654903699
 20
167.2813588644535
 30
0.0
 11
392.0536549036991
 21
167.5813588644537
 31
0.0
  0
LINE
  5
70E2
330
1E
100
AcDbEntity
  8
製品
  6
Continuous
 62
     2
100
AcDbLine
 10
392.653654903699
 20
170.6813588644536
 30
0.0
 11
395.5536549036991
 21
170.6813588644536
 31
0.0
  0
LINE
  5
70E3
330
1E
100
AcDbEntity
  8
製品
  6
Continuous
 62
     2
100
AcDbLine
 10
392.653654903699
 20
170.5813588644537
 30
0.0
 11
395.5536549036991
 21
170.5813588644537
 31
0.0
  0
ARC
  5
70E4
330
1E
100
AcDbEntity
  8
製品
  6
Continuous
 62
     2
100
AcDbCircle
 10
392.653654903699
 20
170.0813588644537
 30
0.0
 40
0.6
100
AcDbArc
 50
90.0
 51
180.0
  0
ARC
  5
70E5
330
1E
100
AcDbEntity
  8
製品
  6
Continuous
 62
     2
100
AcDbCircle
 10
392.653654903699
 20
170.0813588644537
 30
0.0
 40
0.5
100
AcDbArc
 50
90.0
 51
180.0
  0
LINE
  5
70E6
330
1E
100
AcDbEntity
  8
製品
  6
Continuous
 62
     2
100
AcDbLine
 10
392.2536549036989
 20
167.8813588644534
 30
0.0
 11
392.153654903699
 21
168.1813588644536
 31
0.0
  0
LINE
  5
70E7
330
1E
100
AcDbEntity
  8
製品
  6
Continuous
 62
     2
100
AcDbLine
 10
392.153654903699
 20
167.8813588644534
 30
0.0
 11
392.0536549036991
 21
168.1813588644536
 31
0.0
  0
LINE
  5
70E8
330
1E
100
AcDbEntity
  8
製品
  6
Continuous
 62
     2
100
AcDbLine
 10
392.153654903699
 20
169.8813588644534
 30
0.0
 11
392.2536549036989
 21
169.6813588644536
 31
0.0
  0
LINE
  5
70E9
330
1E
100
AcDbEntity
  8
製品
  6
Continuous
 62
     2
100
AcDbLine
 10
392.2536549036989
 20
168.4813588644538
 30
0.0
 11
392.153654903699
 21
168.1813588644536
 31
0.0
  0
LINE
  5
70EA
330
1E
100
AcDbEntity
  8
製品
  6
Continuous
 62
     2
100
AcDbLine
 10
392.153654903699
 20
168.7813588644535
 30
0.0
 11
392.2536549036989
 21
168.4813588644538
 31
0.0
  0
LINE
  5
70EB
330
1E
100
AcDbEntity
  8
製品
  6
Continuous
 62
     2
100
AcDbLine
 10
392.2536549036989
 20
169.0813588644537
 30
0.0
 11
392.153654903699
 21
168.7813588644535
 31
0.0
  0
LINE
  5
70EC
330
1E
100
AcDbEntity
  8
製品
  6
Continuous
 62
     2
100
AcDbLine
 10
392.153654903699
 20
169.3813588644534
 30
0.0
 11
392.2536549036989
 21
169.0813588644537
 31
0.0
  0
LINE
  5
70ED
330
1E
100
AcDbEntity
  8
製品
  6
Continuous
 62
     2
100
AcDbLine
 10
392.2536549036989
 20
169.6813588644536
 30
0.0
 11
392.153654903699
 21
169.3813588644534
 31
0.0
  0
LINE
  5
70EE
330
1E
100
AcDbEntity
  8
製品
  6
Continuous
 62
     2
100
AcDbLine
 10
392.153654903699
 20
168.4813588644538
 30
0.0
 11
392.0536549036991
 21
168.1813588644536
 31
0.0
  0
LINE
  5
70EF
330
1E
100
AcDbEntity
  8
製品
  6
Continuous
 62
     2
100
AcDbLine
 10
392.0536549036991
 20
168.7813588644535
 30
0.0
 11
392.153654903699
 21
168.4813588644538
 31
0.0
  0
LINE
  5
70F0
330
1E
100
AcDbEntity
  8
製品
  6
Continuous
 62
     2
100
AcDbLine
 10
392.153654903699
 20
169.0813588644537
 30
0.0
 11
392.0536549036991
 21
168.7813588644535
 31
0.0
  0
LINE
  5
70F1
330
1E
100
AcDbEntity
  8
製品
  6
Continuous
 62
     2
100
AcDbLine
 10
392.0536549036991
 20
169.3813588644534
 30
0.0
 11
392.153654903699
 21
169.0813588644537
 31
0.0
  0
LINE
  5
70F2
330
1E
100
AcDbEntity
  8
製品
  6
Continuous
 62
     2
100
AcDbLine
 10
392.153654903699
 20
169.6813588644536
 30
0.0
 11
392.0536549036991
 21
169.3813588644534
 31
0.0
  0
LINE
  5
70F3
330
1E
100
AcDbEntity
  8
製品
  6
Continuous
 62
     2
100
AcDbLine
 10
392.0536549036991
 20
169.8813588644534
 30
0.0
 11
392.153654903699
 21
169.6813588644536
 31
0.0
  0
LINE
  5
70F4
330
1E
100
AcDbEntity
  8
製品
  6
Continuous
 62
     2
100
AcDbLine
 10
392.153654903699
 20
170.0813588644537
 30
0.0
 11
392.153654903699
 21
169.8813588644534
 31
0.0
  0
ARC
  5
70F5
330
1E
100
AcDbEntity
  8
製品
  6
Continuous
 62
     2
100
AcDbCircle
 10
394.5136549036991
 20
170.0313588644535
 30
0.0
 40
0.4
100
AcDbArc
 50
90.0
 51
180.0
  0
ARC
  5
70F6
330
1E
100
AcDbEntity
  8
製品
  6
Continuous
 62
     2
100
AcDbCircle
 10
395.3136549036989
 20
169.7313588644538
 30
0.0
 40
0.3
100
AcDbArc
 50
105.6782760000018
 51
270.0
  0
ARC
  5
70F7
330
1E
100
AcDbEntity
  8
製品
  6
Continuous
 62
     2
100
AcDbCircle
 10
395.3136549036989
 20
168.2813588644535
 30
0.0
 40
0.6
100
AcDbArc
 50
90.0
 51
180.0
  0
LINE
  5
70F8
330
1E
100
AcDbEntity
  8
製品
  6
Continuous
 62
     2
100
AcDbLine
 10
394.713654903699
 20
168.2813588644535
 30
0.0
 11
394.713654903699
 21
168.0813588644537
 31
0.0
  0
LINE
  5
70F9
330
1E
100
AcDbEntity
  8
製品
  6
Continuous
 62
     2
100
AcDbLine
 10
395.253654903699
 20
169.8813588644534
 30
0.0
 11
395.5536549036991
 21
169.8813588644534
 31
0.0
  0
LINE
  5
70FA
330
1E
100
AcDbEntity
  8
製品
  6
Continuous
 62
     2
100
AcDbLine
 10
395.253654903699
 20
169.9813588644538
 30
0.0
 11
395.253654903699
 21
169.8813588644534
 31
0.0
  0
LINE
  5
70FB
330
1E
100
AcDbEntity
  8
製品
  6
Continuous
 62
     2
100
AcDbLine
 10
395.5536549036991
 20
169.9813588644538
 30
0.0
 11
395.253654903699
 21
169.9813588644538
 31
0.0
  0
ARC
  5
70FC
330
1E
100
AcDbEntity
  8
製品
  6
Continuous
 62
     2
100
AcDbCircle
 10
395.5536549036991
 20
170.1813588644536
 30
0.0
 40
0.2
100
AcDbArc
 50
270.0
 51
0.0
  0
LINE
  5
70FD
330
1E
100
AcDbEntity
  8
製品
  6
Continuous
 62
     2
100
AcDbLine
 10
395.7536549036989
 20
170.3813588644534
 30
0.0
 11
395.7536549036989
 21
170.1813588644536
 31
0.0
  0
ARC
  5
70FE
330
1E
100
AcDbEntity
  8
製品
  6
Continuous
 62
     2
100
AcDbCircle
 10
395.5536549036991
 20
170.3813588644534
 30
0.0
 40
0.2
100
AcDbArc
 50
0.0
 51
90.0
  0
LINE
  5
70FF
330
1E
100
AcDbEntity
  8
製品
  6
Continuous
 62
     2
100
AcDbLine
 10
395.2325839036988
 20
170.0201968644537
 30
0.0
 11
395.7536549036989
 21
170.1664498644536
 31
0.0
  0
LINE
  5
7100
330
1E
100
AcDbEntity
  8
製品
  6
Continuous
 62
     2
100
AcDbLine
 10
394.5136549036991
 20
170.4313588644536
 30
0.0
 11
395.7473039036989
 21
170.4313588644536
 31
0.0
  0
ARC
  5
7101
330
1E
100
AcDbEntity
  8
製品
  6
Continuous
 62
     2
100
AcDbCircle
 10
398.9136549036988
 20
170.2813588644535
 30
0.0
 40
0.4
100
AcDbArc
 50
90.0
 51
180.0
  0
LINE
  5
7102
330
1E
100
AcDbEntity
  8
製品
  6
Continuous
 62
     2
100
AcDbLine
 10
398.4136549036988
 20
171.1813588644536
 30
0.0
 11
397.7767069036989
 21
169.4313588644536
 31
0.0
  0
LINE
  5
7103
330
1E
100
AcDbEntity
  8
製品
  6
Continuous
 62
     2
100
AcDbLine
 10
398.5136549036992
 20
170.2813588644535
 30
0.0
 11
398.5136549036992
 21
168.8813588644534
 31
0.0
  0
LINE
  5
7104
330
1E
100
AcDbEntity
  8
製品
  6
Continuous
 62
     2
100
AcDbLine
 10
400.9136549036988
 20
169.3813588644534
 30
0.0
 11
400.9136549036988
 21
166.9813588644538
 31
0.0
  0
LINE
  5
7105
330
1E
100
AcDbEntity
  8
製品
  6
Continuous
 62
     2
100
AcDbLine
 10
403.573654903699
 20
165.1813588644536
 30
0.0
 11
403.573654903699
 21
171.1813588644536
 31
0.0
  0
LINE
  5
7106
330
1E
100
AcDbEntity
  8
製品
  6
Continuous
 62
     2
100
AcDbLine
 10
402.5136549036991
 20
169.3813588644534
 30
0.0
 11
402.5136549036991
 21
166.9813588644538
 31
0.0
  0
ARC
  5
7107
330
1E
100
AcDbEntity
  8
製品
  6
Continuous
 62
     2
100
AcDbCircle
 10
401.613654903699
 20
166.9813588644538
 30
0.0
 40
0.7
100
AcDbArc
 50
180.0
 51
270.0
  0
LINE
  5
7108
330
1E
100
AcDbEntity
  8
製品
  6
Continuous
 62
     2
100
AcDbLine
 10
403.4536549036987
 20
165.1813588644536
 30
0.0
 11
403.573654903699
 21
165.1813588644536
 31
0.0
  0
LINE
  5
7109
330
1E
100
AcDbEntity
  8
製品
  6
Continuous
 62
     2
100
AcDbLine
 10
401.613654903699
 20
166.2813588644535
 30
0.0
 11
401.8136549036988
 21
166.2813588644535
 31
0.0
  0
ARC
  5
710A
330
1E
100
AcDbEntity
  8
製品
  6
Continuous
 62
     2
100
AcDbCircle
 10
401.8136549036988
 20
166.9813588644538
 30
0.0
 40
0.7
100
AcDbArc
 50
270.0
 51
0.0
  0
ARC
  5
710B
330
1E
100
AcDbEntity
  8
製品
  6
Continuous
 62
     2
100
AcDbCircle
 10
401.613654903699
 20
169.3813588644534
 30
0.0
 40
0.7
100
AcDbArc
 50
90.0
 51
180.0
  0
LINE
  5
710C
330
1E
100
AcDbEntity
  8
製品
  6
Continuous
 62
     2
100
AcDbLine
 10
403.573654903699
 20
171.1813588644536
 30
0.0
 11
403.4536549036987
 21
171.1813588644536
 31
0.0
  0
LINE
  5
710D
330
1E
100
AcDbEntity
  8
製品
  6
Continuous
 62
     2
100
AcDbLine
 10
401.613654903699
 20
170.0813588644537
 30
0.0
 11
401.8136549036988
 21
170.0813588644537
 31
0.0
  0
ARC
  5
710E
330
1E
100
AcDbEntity
  8
製品
  6
Continuous
 62
     2
100
AcDbCircle
 10
401.8136549036988
 20
169.3813588644534
 30
0.0
 40
0.7
100
AcDbArc
 50
0.0
 51
90.0
  0
CIRCLE
  5
710F
330
1E
100
AcDbEntity
  8
図面枠
  6
Continuous
 62
     2
100
AcDbCircle
 10
399.653654903699
 20
174.7813588644535
 30
0.0
 40
0.3
  0
CIRCLE
  5
7110
330
1E
100
AcDbEntity
  8
図面枠
  6
Continuous
 62
     2
100
AcDbCircle
 10
399.653654903699
 20
182.3813588644534
 30
0.0
 40
0.3
  0
CIRCLE
  5
7111
330
1E
100
AcDbEntity
  8
図面枠
  6
Continuous
 62
     2
100
AcDbCircle
 10
407.4536549036987
 20
182.3813588644534
 30
0.0
 40
0.3
  0
LINE
  5
7112
330
1E
100
AcDbEntity
  8
製品
  6
Continuous
 62
     4
100
AcDbLine
 10
409.4536549036987
 20
182.3813588644534
 30
0.0
 11
409.4536549036987
 21
174.7813588644535
 31
0.0
  0
LINE
  5
7113
330
1E
100
AcDbEntity
  8
製品
  6
Continuous
 62
     4
100
AcDbLine
 10
395.8536549036988
 20
186.3813588644534
 30
0.0
 11
403.4536549036987
 21
186.3813588644534
 31
0.0
  0
TEXT
  5
7114
330
1E
100
AcDbEntity
  8
図面枠
  6
Continuous
 62
     2
100
AcDbText
 10
413.2271529036987
 20
193.3813428644534
 30
0.0
 40
3.0
  1
野縁受け
 41
0.8
  7
ACAD
100
AcDbText
  0
LINE
  5
7115
330
1E
100
AcDbEntity
  8
図面枠
  6
Continuous
 62
     2
100
AcDbLine
 10
413.2271579036991
 20
192.3813588644534
 30
0.0
 11
425.267157903699
 21
192.3813588644534
 31
0.0
  0
LINE
  5
7116
330
1E
100
AcDbEntity
  8
図面枠
  6
Continuous
 62
     2
100
AcDbLine
 10
411.2006609036992
 20
202.3813588644534
 30
0.0
 11
423.2406609036992
 21
202.3813588644534
 31
0.0
  0
TEXT
  5
7117
330
1E
100
AcDbEntity
  8
図面枠
  6
Continuous
 62
     2
100
AcDbText
 10
410.853840120632
 20
202.8906048981585
 30
0.0
 40
3.0
  1
溶接
 41
0.8
  7
ACAD
100
AcDbText
  0
LINE
  5
7118
330
1E
100
AcDbEntity
  8
図面枠
  6
Continuous
 62
     2
100
AcDbLine
 10
505.6360119036993
 20
202.3813588644534
 30
0.0
 11
517.6760119036993
 21
202.3813588644534
 31
0.0
  0
TEXT
  5
7119
330
1E
100
AcDbEntity
  8
図面枠
  6
Continuous
 62
     2
100
AcDbText
 10
505.6359914496137
 20
202.3813589649955
 30
0.0
 40
3.0
  1
溶接
 41
0.8
  7
ACAD
100
AcDbText
  0
LINE
  5
711A
330
1E
100
AcDbEntity
  8
図面枠
  6
Continuous
 62
     2
100
AcDbLine
 10
501.8890069036991
 20
182.3813588644534
 30
0.0
 11
507.6625089036991
 21
192.3813588644534
 31
0.0
  0
LINE
  5
711B
330
1E
100
AcDbEntity
  8
製品
  6
Continuous
 62
     4
100
AcDbLine
 10
490.2890069036987
 20
186.3813588644534
 30
0.0
 11
490.2890069036987
 21
182.3813588644534
 31
0.0
  0
LINE
  5
711C
330
1E
100
AcDbEntity
  8
製品
  6
Continuous
 62
     4
100
AcDbLine
 10
497.8890069036991
 20
186.3813588644534
 30
0.0
 11
497.8890069036991
 21
182.3813588644534
 31
0.0
  0
LINE
  5
711D
330
1E
100
AcDbEntity
  8
図面枠
  6
Continuous
 62
     2
100
AcDbLine
 10
494.0890069036989
 20
182.3813588644534
 30
0.0
 11
505.6360119036988
 21
202.3813588644534
 31
0.0
  0
LINE
  5
711E
330
1E
100
AcDbEntity
  8
図面枠
  6
Continuous
 62
     2
100
AcDbLine
 10
494.0890069036989
 20
174.7813588644535
 30
0.0
 11
505.6360119036988
 21
202.3813588644534
 31
0.0
  0
LINE
  5
711F
330
1E
100
AcDbEntity
  8
製品
  6
Continuous
 62
     4
100
AcDbLine
 10
474.7890069036988
 20
182.3813588644534
 30
0.0
 11
463.8890069036992
 21
182.3813588644534
 31
0.0
  0
LINE
  5
7120
330
1E
100
AcDbEntity
  8
製品
  6
Continuous
 62
     4
100
AcDbLine
 10
475.7890069036988
 20
174.7813588644535
 30
0.0
 11
463.8890069036992
 21
174.7813588644535
 31
0.0
  0
LINE
  5
7121
330
1E
100
AcDbEntity
  8
図面枠
  6
Continuous
 62
     2
100
AcDbLine
 10
481.5890069036989
 20
167.4813588644538
 30
0.0
 11
465.4809339036991
 21
158.1813588644536
 31
0.0
  0
LINE
  5
7122
330
1E
100
AcDbEntity
  8
製品
  6
Continuous
 62
     4
100
AcDbLine
 10
463.8890069036992
 20
170.7813588644535
 30
0.0
 11
484.3890069036992
 21
170.7813588644535
 31
0.0
  0
LINE
  5
7123
330
1E
100
AcDbEntity
  8
製品
  6
Continuous
 62
     4
100
AcDbLine
 10
463.8890069036992
 20
168.1813588644536
 30
0.0
 11
484.3890069036992
 21
168.1813588644536
 31
0.0
  0
TEXT
  5
7124
330
1E
100
AcDbEntity
  8
図面枠
  6
Continuous
 62
     2
100
AcDbText
 10
457.4809219036992
 20
159.1813484681902
 30
0.0
 40
3.0
  1
見切縁
 50
0.0000100000010064
 41
0.8
  7
ACAD
 72
     2
 11
465.4809219036991
 21
159.1813498644537
 31
0.0
100
AcDbText
  0
LINE
  5
7125
330
1E
100
AcDbEntity
  8
図面枠
  6
Continuous
 62
     2
100
AcDbLine
 10
465.4809339036991
 20
158.1813588644536
 30
0.0
 11
456.4509339036988
 21
158.1813588644536
 31
0.0
  0
LINE
  5
7126
330
1E
100
AcDbEntity
  8
製品
  6
Continuous
 62
     4
100
AcDbLine
 10
486.4890069036991
 20
170.9813588644538
 30
0.0
 11
486.4890069036991
 21
146.3813588644534
 31
0.0
  0
LINE
  5
7127
330
1E
100
AcDbEntity
  8
製品
  6
Continuous
 62
     4
100
AcDbLine
 10
484.589006903699
 20
170.9813588644538
 30
0.0
 11
484.589006903699
 21
146.3813588644534
 31
0.0
  0
LINE
  5
7128
330
1E
100
AcDbEntity
  8
製品
  6
Continuous
 62
     4
100
AcDbLine
 10
497.8890069036991
 20
165.1813588644536
 30
0.0
 11
497.8890069036991
 21
146.3813588644534
 31
0.0
  0
LINE
  5
7129
330
1E
100
AcDbEntity
  8
製品
  6
Continuous
 62
     4
100
AcDbLine
 10
490.2890069036987
 20
166.9313588644536
 30
0.0
 11
490.2890069036987
 21
146.3813588644534
 31
0.0
  0
LINE
  5
712A
330
1E
100
AcDbEntity
  8
製品
  6
Continuous
 62
     2
100
AcDbLine
 10
489.7490069036988
 20
169.4313588644536
 30
0.0
 11
492.2120589036989
 21
169.4313588644536
 31
0.0
  0
LINE
  5
712B
330
1E
100
AcDbEntity
  8
製品
  6
Continuous
 62
     2
100
AcDbLine
 10
489.7490069036988
 20
166.9313588644536
 30
0.0
 11
492.2120589036989
 21
166.9313588644536
 31
0.0
  0
LINE
  5
712C
330
1E
100
AcDbEntity
  8
製品
  6
Continuous
 62
     2
100
AcDbLine
 10
489.7490069036988
 20
168.8813588644534
 30
0.0
 11
492.9490069036991
 21
168.8813588644534
 31
0.0
  0
LINE
  5
712D
330
1E
100
AcDbEntity
  8
製品
  6
Continuous
 62
     2
100
AcDbLine
 10
489.7490069036988
 20
167.4813588644538
 30
0.0
 11
492.9490069036991
 21
167.4813588644538
 31
0.0
  0
ARC
  5
712E
330
1E
100
AcDbEntity
  8
製品
  6
Continuous
 62
     2
100
AcDbCircle
 10
489.9890069036991
 20
165.9813588644538
 30
0.0
 40
0.3
100
AcDbArc
 50
270.0
 51
0.0
  0
ARC
  5
712F
330
1E
100
AcDbEntity
  8
製品
  6
Continuous
 62
     2
100
AcDbCircle
 10
489.9890069036991
 20
166.1813588644536
 30
0.0
 40
0.3
100
AcDbArc
 50
0.0
 51
90.0
  0
ARC
  5
7130
330
1E
100
AcDbEntity
  8
製品
  6
Continuous
 62
     2
100
AcDbCircle
 10
489.9890069036991
 20
170.3813588644534
 30
0.0
 40
0.3
100
AcDbArc
 50
0.0
 51
90.0
  0
ARC
  5
7131
330
1E
100
AcDbEntity
  8
製品
  6
Continuous
 62
     2
100
AcDbCircle
 10
489.9890069036991
 20
170.1813588644536
 30
0.0
 40
0.3
100
AcDbArc
 50
270.0
 51
0.0
  0
LINE
  5
7132
330
1E
100
AcDbEntity
  8
製品
  6
Continuous
 62
     4
100
AcDbLine
 10
503.8890069036991
 20
174.7813588644535
 30
0.0
 11
483.3390069036989
 21
174.7813588644535
 31
0.0
  0
LINE
  5
7133
330
1E
100
AcDbEntity
  8
製品
  6
Continuous
 62
     4
100
AcDbLine
 10
484.3890069036992
 20
182.3813588644534
 30
0.0
 11
503.8890069036991
 21
182.3813588644534
 31
0.0
  0
ARC
  5
7134
330
1E
100
AcDbEntity
  8
製品
  6
Continuous
 62
     2
100
AcDbCircle
 10
483.989006903699
 20
173.3013588644535
 30
0.0
 40
0.4
100
AcDbArc
 50
270.0
 51
0.0
  0
LINE
  5
7135
330
1E
100
AcDbEntity
  8
製品
  6
Continuous
 62
     2
100
AcDbLine
 10
484.589006903699
 20
171.5813588644537
 30
0.0
 11
484.589006903699
 21
174.4813588644538
 31
0.0
  0
LINE
  5
7136
330
1E
100
AcDbEntity
  8
製品
  6
Continuous
 62
     2
100
AcDbLine
 10
484.489006903699
 20
171.5813588644537
 30
0.0
 11
484.489006903699
 21
174.4813588644538
 31
0.0
  0
ARC
  5
7137
330
1E
100
AcDbEntity
  8
製品
  6
Continuous
 62
     2
100
AcDbCircle
 10
475.1890069036988
 20
173.3013588644535
 30
0.0
 40
0.4
100
AcDbArc
 50
180.0
 51
270.0
  0
LINE
  5
7138
330
1E
100
AcDbEntity
  8
製品
  6
Continuous
 62
     2
100
AcDbLine
 10
474.5890069036989
 20
171.5813588644537
 30
0.0
 11
474.5890069036989
 21
174.4813588644538
 31
0.0
  0
LINE
  5
7139
330
1E
100
AcDbEntity
  8
製品
  6
Continuous
 62
     2
100
AcDbLine
 10
474.6890069036989
 20
171.5813588644537
 30
0.0
 11
474.6890069036989
 21
174.4813588644538
 31
0.0
  0
LINE
  5
713A
330
1E
100
AcDbEntity
  8
製品
  6
Continuous
 62
     4
100
AcDbLine
 10
486.4890069036991
 20
170.9813588644538
 30
0.0
 11
478.5890069036989
 21
170.9813588644538
 31
0.0
  0
LINE
  5
713B
330
1E
100
AcDbEntity
  8
製品
  6
Continuous
 62
     4
100
AcDbLine
 10
484.589006903699
 20
167.4813588644538
 30
0.0
 11
481.5890069036989
 21
167.4813588644538
 31
0.0
  0
LINE
  5
713C
330
1E
100
AcDbEntity
  8
製品
  6
Continuous
 62
     4
100
AcDbLine
 10
484.3890069036992
 20
167.6813588644536
 30
0.0
 11
481.7890069036987
 21
167.6813588644536
 31
0.0
  0
LINE
  5
713D
330
1E
100
AcDbEntity
  8
製品
  6
Continuous
 62
     2
100
AcDbLine
 10
482.2474069036988
 20
170.9939588644538
 30
0.0
 11
482.0234069036991
 21
171.0687588644537
 31
0.0
  0
LINE
  5
713E
330
1E
100
AcDbEntity
  8
製品
  6
Continuous
 62
     2
100
AcDbLine
 10
482.2474069036988
 20
171.0939588644537
 30
0.0
 11
482.0234069036991
 21
171.1687588644536
 31
0.0
  0
LINE
  5
713F
330
1E
100
AcDbEntity
  8
製品
  6
Continuous
 62
     2
100
AcDbLine
 10
477.8306069036988
 20
171.1687588644536
 30
0.0
 11
478.0546069036989
 21
171.0939588644537
 31
0.0
  0
LINE
  5
7140
330
1E
100
AcDbEntity
  8
製品
  6
Continuous
 62
     2
100
AcDbLine
 10
477.8306069036988
 20
171.0687588644537
 30
0.0
 11
478.0546069036989
 21
170.9939588644538
 31
0.0
  0
ARC
  5
7141
330
1E
100
AcDbEntity
  8
製品
  6
Continuous
 62
     2
100
AcDbCircle
 10
475.1890069036988
 20
171.5813588644537
 30
0.0
 40
0.5
100
AcDbArc
 50
180.0
 51
270.0
  0
ARC
  5
7142
330
1E
100
AcDbEntity
  8
製品
  6
Continuous
 62
     2
100
AcDbCircle
 10
475.1890069036988
 20
171.5813588644537
 30
0.0
 40
0.6
100
AcDbArc
 50
180.0
 51
270.0
  0
LINE
  5
7143
330
1E
100
AcDbEntity
  8
製品
  6
Continuous
 62
     2
100
AcDbLine
 10
475.1890069036988
 20
170.9813588644538
 30
0.0
 11
475.7770069036991
 21
170.9813588644538
 31
0.0
  0
LINE
  5
7144
330
1E
100
AcDbEntity
  8
製品
  6
Continuous
 62
     2
100
AcDbLine
 10
475.1890069036988
 20
171.0813588644537
 30
0.0
 11
475.764206903699
 21
171.0813588644537
 31
0.0
  0
ARC
  5
7145
330
1E
100
AcDbEntity
  8
製品
  6
Continuous
 62
     2
100
AcDbCircle
 10
475.764206903699
 20
171.1013588644537
 30
0.0
 40
0.12
100
AcDbArc
 50
270.0
 51
296.5223689999826
  0
ARC
  5
7146
330
1E
100
AcDbEntity
  8
製品
  6
Continuous
 62
     2
100
AcDbCircle
 10
475.764206903699
 20
171.2013588644536
 30
0.0
 40
0.12
100
AcDbArc
 50
270.0
 51
296.5223689999826
  0
ARC
  5
7147
330
1E
100
AcDbEntity
  8
製品
  6
Continuous
 62
     2
100
AcDbCircle
 10
476.8926069036991
 20
171.2077588644538
 30
0.0
 40
0.12
100
AcDbArc
 50
251.5348510000121
 51
288.4651489999879
  0
ARC
  5
7148
330
1E
100
AcDbEntity
  8
製品
  6
Continuous
 62
     2
100
AcDbCircle
 10
476.8926069036991
 20
171.1077588644534
 30
0.0
 40
0.12
100
AcDbArc
 50
251.5348510000121
 51
288.4651489999879
  0
ARC
  5
7149
330
1E
100
AcDbEntity
  8
製品
  6
Continuous
 62
     2
100
AcDbCircle
 10
476.5926069036989
 20
170.9549588644536
 30
0.0
 40
0.12
100
AcDbArc
 50
71.53485100001211
 51
108.4651489999879
  0
LINE
  5
714A
330
1E
100
AcDbEntity
  8
製品
  6
Continuous
 62
     2
100
AcDbLine
 10
476.3306069036988
 20
170.9939588644538
 30
0.0
 11
476.5546069036989
 21
171.0687588644537
 31
0.0
  0
ARC
  5
714B
330
1E
100
AcDbEntity
  8
製品
  6
Continuous
 62
     2
100
AcDbCircle
 10
476.5926069036989
 20
171.0549588644535
 30
0.0
 40
0.12
100
AcDbArc
 50
71.53485100001211
 51
108.4651489999879
  0
LINE
  5
714C
330
1E
100
AcDbEntity
  8
製品
  6
Continuous
 62
     2
100
AcDbLine
 10
476.3306069036988
 20
171.0939588644537
 30
0.0
 11
476.5546069036989
 21
171.1687588644536
 31
0.0
  0
ARC
  5
714D
330
1E
100
AcDbEntity
  8
製品
  6
Continuous
 62
     2
100
AcDbCircle
 10
476.2926069036987
 20
171.2079588644537
 30
0.0
 40
0.12
100
AcDbArc
 50
251.5650479999934
 51
288.434937000004
  0
LINE
  5
714E
330
1E
100
AcDbEntity
  8
製品
  6
Continuous
 62
     2
100
AcDbLine
 10
476.039806903699
 20
171.1657588644534
 30
0.0
 11
476.2546069036988
 21
171.0939588644537
 31
0.0
  0
ARC
  5
714F
330
1E
100
AcDbEntity
  8
製品
  6
Continuous
 62
     2
100
AcDbCircle
 10
477.7926069036988
 20
170.9549588644536
 30
0.0
 40
0.12
100
AcDbArc
 50
71.53485100001211
 51
108.4651489999879
  0
LINE
  5
7150
330
1E
100
AcDbEntity
  8
製品
  6
Continuous
 62
     2
100
AcDbLine
 10
477.530606903699
 20
170.9939588644538
 30
0.0
 11
477.7546069036987
 21
171.0687588644537
 31
0.0
  0
ARC
  5
7151
330
1E
100
AcDbEntity
  8
製品
  6
Continuous
 62
     2
100
AcDbCircle
 10
477.7926069036988
 20
171.0549588644535
 30
0.0
 40
0.12
100
AcDbArc
 50
71.53485100001211
 51
108.4651489999879
  0
LINE
  5
7152
330
1E
100
AcDbEntity
  8
製品
  6
Continuous
 62
     2
100
AcDbLine
 10
477.530606903699
 20
171.0939588644537
 30
0.0
 11
477.7546069036987
 21
171.1687588644536
 31
0.0
  0
ARC
  5
7153
330
1E
100
AcDbEntity
  8
製品
  6
Continuous
 62
     2
100
AcDbCircle
 10
477.4926069036991
 20
171.1077588644534
 30
0.0
 40
0.12
100
AcDbArc
 50
251.5348510000121
 51
288.4651489999879
  0
ARC
  5
7154
330
1E
100
AcDbEntity
  8
製品
  6
Continuous
 62
     2
100
AcDbCircle
 10
477.4926069036991
 20
171.2077588644538
 30
0.0
 40
0.12
100
AcDbArc
 50
251.5348510000121
 51
288.4651489999879
  0
LINE
  5
7155
330
1E
100
AcDbEntity
  8
製品
  6
Continuous
 62
     2
100
AcDbLine
 10
477.2306069036988
 20
171.0687588644537
 30
0.0
 11
477.4546069036991
 21
170.9939588644538
 31
0.0
  0
LINE
  5
7156
330
1E
100
AcDbEntity
  8
製品
  6
Continuous
 62
     2
100
AcDbLine
 10
477.2306069036988
 20
171.1687588644536
 30
0.0
 11
477.4546069036991
 21
171.0939588644537
 31
0.0
  0
ARC
  5
7157
330
1E
100
AcDbEntity
  8
製品
  6
Continuous
 62
     2
100
AcDbCircle
 10
477.1926069036989
 20
170.9549588644536
 30
0.0
 40
0.12
100
AcDbArc
 50
71.53485100001211
 51
108.4651489999879
  0
LINE
  5
7158
330
1E
100
AcDbEntity
  8
製品
  6
Continuous
 62
     2
100
AcDbLine
 10
476.9306069036987
 20
170.9939588644538
 30
0.0
 11
477.1546069036989
 21
171.0687588644537
 31
0.0
  0
ARC
  5
7159
330
1E
100
AcDbEntity
  8
製品
  6
Continuous
 62
     2
100
AcDbCircle
 10
477.1926069036989
 20
171.0549588644535
 30
0.0
 40
0.12
100
AcDbArc
 50
71.53485100001211
 51
108.4651489999879
  0
LINE
  5
715A
330
1E
100
AcDbEntity
  8
製品
  6
Continuous
 62
     2
100
AcDbLine
 10
476.9306069036987
 20
171.0939588644537
 30
0.0
 11
477.1546069036989
 21
171.1687588644536
 31
0.0
  0
LINE
  5
715B
330
1E
100
AcDbEntity
  8
製品
  6
Continuous
 62
     2
100
AcDbLine
 10
476.630606903699
 20
171.1687588644536
 30
0.0
 11
476.8546069036987
 21
171.0939588644537
 31
0.0
  0
LINE
  5
715C
330
1E
100
AcDbEntity
  8
製品
  6
Continuous
 62
     2
100
AcDbLine
 10
476.630606903699
 20
171.0687588644537
 30
0.0
 11
476.8546069036987
 21
170.9939588644538
 31
0.0
  0
LINE
  5
715D
330
1E
100
AcDbEntity
  8
製品
  6
Continuous
 62
     2
100
AcDbLine
 10
475.8178069036988
 20
170.9939588644538
 30
0.0
 11
475.9482069036988
 21
171.0591588644538
 31
0.0
  0
ARC
  5
715E
330
1E
100
AcDbEntity
  8
製品
  6
Continuous
 62
     2
100
AcDbCircle
 10
476.2926069036987
 20
171.1077588644534
 30
0.0
 40
0.12
100
AcDbArc
 50
251.6254879999904
 51
288.4651489999879
  0
LINE
  5
715F
330
1E
100
AcDbEntity
  8
製品
  6
Continuous
 62
     2
100
AcDbLine
 10
476.039806903699
 20
171.0655588644535
 30
0.0
 11
476.2548069036987
 21
170.9939588644538
 31
0.0
  0
ARC
  5
7160
330
1E
100
AcDbEntity
  8
製品
  6
Continuous
 62
     2
100
AcDbCircle
 10
476.001806903699
 20
171.0517588644538
 30
0.0
 40
0.12
100
AcDbArc
 50
71.56504799999338
 51
116.5223539999877
  0
LINE
  5
7161
330
1E
100
AcDbEntity
  8
製品
  6
Continuous
 62
     2
100
AcDbLine
 10
475.8178069036988
 20
171.0939588644537
 30
0.0
 11
475.9482069036988
 21
171.1591588644537
 31
0.0
  0
ARC
  5
7162
330
1E
100
AcDbEntity
  8
製品
  6
Continuous
 62
     2
100
AcDbCircle
 10
476.001806903699
 20
170.9517588644535
 30
0.0
 40
0.12
100
AcDbArc
 50
71.53485100001211
 51
116.5223539999877
  0
LINE
  5
7163
330
1E
100
AcDbEntity
  8
製品
  6
Continuous
 62
     2
100
AcDbLine
 10
481.0474069036989
 20
170.9939588644538
 30
0.0
 11
480.8326069036987
 21
171.0655588644535
 31
0.0
  0
LINE
  5
7164
330
1E
100
AcDbEntity
  8
製品
  6
Continuous
 62
     2
100
AcDbLine
 10
481.0474069036989
 20
171.0939588644537
 30
0.0
 11
480.8326069036987
 21
171.1655588644535
 31
0.0
  0
LINE
  5
7165
330
1E
100
AcDbEntity
  8
製品
  6
Continuous
 62
     2
100
AcDbLine
 10
478.130606903699
 20
170.9939588644538
 30
0.0
 11
478.3454069036987
 21
171.0655588644535
 31
0.0
  0
LINE
  5
7166
330
1E
100
AcDbEntity
  8
製品
  6
Continuous
 62
     2
100
AcDbLine
 10
478.130606903699
 20
171.0939588644537
 30
0.0
 11
478.3454069036987
 21
171.1655588644535
 31
0.0
  0
ARC
  5
7167
330
1E
100
AcDbEntity
  8
製品
  6
Continuous
 62
     2
100
AcDbCircle
 10
479.3606069036989
 20
171.2013588644536
 30
0.0
 40
0.12
100
AcDbArc
 50
270.0
 51
296.5223689999826
  0
LINE
  5
7168
330
1E
100
AcDbEntity
  8
製品
  6
Continuous
 62
     2
100
AcDbLine
 10
479.4142069036987
 20
171.0939588644537
 30
0.0
 11
479.5354069036988
 21
171.1545588644535
 31
0.0
  0
ARC
  5
7169
330
1E
100
AcDbEntity
  8
製品
  6
Continuous
 62
     2
100
AcDbCircle
 10
479.3606069036989
 20
171.1013588644537
 30
0.0
 40
0.12
100
AcDbArc
 50
270.0
 51
296.5223689999826
  0
ARC
  5
716A
330
1E
100
AcDbEntity
  8
製品
  6
Continuous
 62
     2
100
AcDbCircle
 10
479.8174069036989
 20
171.1013588644537
 30
0.0
 40
0.12
100
AcDbArc
 50
243.4776460000123
 51
270.0
  0
ARC
  5
716B
330
1E
100
AcDbEntity
  8
製品
  6
Continuous
 62
     2
100
AcDbCircle
 10
479.8174069036989
 20
171.2013588644536
 30
0.0
 40
0.12
100
AcDbArc
 50
243.4776460000123
 51
270.0
  0
ARC
  5
716C
330
1E
100
AcDbEntity
  8
製品
  6
Continuous
 62
     2
100
AcDbCircle
 10
479.589006903699
 20
170.9471588644537
 30
0.0
 40
0.12
100
AcDbArc
 50
63.47764199999557
 51
116.5223539999877
  0
ARC
  5
716D
330
1E
100
AcDbEntity
  8
製品
  6
Continuous
 62
     2
100
AcDbCircle
 10
479.589006903699
 20
171.0471588644536
 30
0.0
 40
0.12
100
AcDbArc
 50
63.47764199999557
 51
116.5223539999877
  0
LINE
  5
716E
330
1E
100
AcDbEntity
  8
製品
  6
Continuous
 62
     2
100
AcDbLine
 10
479.4142069036987
 20
170.9939588644538
 30
0.0
 11
479.5354069036988
 21
171.0545588644536
 31
0.0
  0
ARC
  5
716F
330
1E
100
AcDbEntity
  8
製品
  6
Continuous
 62
     2
100
AcDbCircle
 10
478.6210069036991
 20
171.1013588644537
 30
0.0
 40
0.12
100
AcDbArc
 50
243.4776460000123
 51
270.0
  0
LINE
  5
7170
330
1E
100
AcDbEntity
  8
製品
  6
Continuous
 62
     2
100
AcDbLine
 10
478.4370069036989
 20
171.0591588644538
 30
0.0
 11
478.5674069036989
 21
170.9939588644538
 31
0.0
  0
ARC
  5
7171
330
1E
100
AcDbEntity
  8
製品
  6
Continuous
 62
     2
100
AcDbCircle
 10
478.6210069036991
 20
171.2013588644536
 30
0.0
 40
0.12
100
AcDbArc
 50
243.4776460000123
 51
270.0
  0
LINE
  5
7172
330
1E
100
AcDbEntity
  8
製品
  6
Continuous
 62
     2
100
AcDbLine
 10
478.4370069036989
 20
171.1591588644537
 30
0.0
 11
478.5674069036989
 21
171.0939588644537
 31
0.0
  0
ARC
  5
7173
330
1E
100
AcDbEntity
  8
製品
  6
Continuous
 62
     2
100
AcDbCircle
 10
478.3834069036987
 20
170.9517588644535
 30
0.0
 40
0.12
100
AcDbArc
 50
63.47764199999557
 51
108.4651489999879
  0
ARC
  5
7174
330
1E
100
AcDbEntity
  8
製品
  6
Continuous
 62
     2
100
AcDbCircle
 10
478.3834069036987
 20
171.0517588644538
 30
0.0
 40
0.12
100
AcDbArc
 50
63.47764199999557
 51
108.4651489999879
  0
LINE
  5
7175
330
1E
100
AcDbEntity
  8
製品
  6
Continuous
 62
     2
100
AcDbLine
 10
478.6210069036991
 20
171.0813588644537
 30
0.0
 11
479.3606069036989
 21
171.0813588644537
 31
0.0
  0
LINE
  5
7176
330
1E
100
AcDbEntity
  8
製品
  6
Continuous
 62
     2
100
AcDbLine
 10
479.7638069036987
 20
170.9939588644538
 30
0.0
 11
479.6426069036991
 21
171.0545588644536
 31
0.0
  0
LINE
  5
7177
330
1E
100
AcDbEntity
  8
製品
  6
Continuous
 62
     2
100
AcDbLine
 10
479.7638069036987
 20
171.0939588644537
 30
0.0
 11
479.6426069036991
 21
171.1545588644535
 31
0.0
  0
LINE
  5
7178
330
1E
100
AcDbEntity
  8
製品
  6
Continuous
 62
     2
100
AcDbLine
 10
480.741006903699
 20
171.0591588644538
 30
0.0
 11
480.610606903699
 21
170.9939588644538
 31
0.0
  0
ARC
  5
7179
330
1E
100
AcDbEntity
  8
製品
  6
Continuous
 62
     2
100
AcDbCircle
 10
480.5570069036988
 20
171.1013588644537
 30
0.0
 40
0.12
100
AcDbArc
 50
270.0
 51
296.5223689999826
  0
ARC
  5
717A
330
1E
100
AcDbEntity
  8
製品
  6
Continuous
 62
     2
100
AcDbCircle
 10
480.5570069036988
 20
171.2013588644536
 30
0.0
 40
0.12
100
AcDbArc
 50
270.0
 51
296.5223689999826
  0
LINE
  5
717B
330
1E
100
AcDbEntity
  8
製品
  6
Continuous
 62
     2
100
AcDbLine
 10
478.6210069036991
 20
170.9813588644538
 30
0.0
 11
479.3606069036989
 21
170.9813588644538
 31
0.0
  0
LINE
  5
717C
330
1E
100
AcDbEntity
  8
製品
  6
Continuous
 62
     2
100
AcDbLine
 10
480.741006903699
 20
171.1591588644537
 30
0.0
 11
480.610606903699
 21
171.0939588644537
 31
0.0
  0
ARC
  5
717D
330
1E
100
AcDbEntity
  8
製品
  6
Continuous
 62
     2
100
AcDbCircle
 10
480.7946069036987
 20
170.9517588644535
 30
0.0
 40
0.12
100
AcDbArc
 50
71.53485100001211
 51
116.5223539999877
  0
ARC
  5
717E
330
1E
100
AcDbEntity
  8
製品
  6
Continuous
 62
     2
100
AcDbCircle
 10
480.7946069036987
 20
171.0517588644538
 30
0.0
 40
0.12
100
AcDbArc
 50
71.53485100001211
 51
116.5223539999877
  0
LINE
  5
717F
330
1E
100
AcDbEntity
  8
製品
  6
Continuous
 62
     2
100
AcDbLine
 10
480.5570069036988
 20
170.9813588644538
 30
0.0
 11
479.8174069036989
 21
170.9813588644538
 31
0.0
  0
LINE
  5
7180
330
1E
100
AcDbEntity
  8
製品
  6
Continuous
 62
     2
100
AcDbLine
 10
480.5570069036988
 20
171.0813588644537
 30
0.0
 11
479.8174069036989
 21
171.0813588644537
 31
0.0
  0
LINE
  5
7181
330
1E
100
AcDbEntity
  8
製品
  6
Continuous
 62
     4
100
AcDbLine
 10
478.5890069036989
 20
170.9813588644538
 30
0.0
 11
478.5890069036989
 21
170.7813588644535
 31
0.0
  0
CIRCLE
  5
7182
330
1E
100
AcDbEntity
  8
図面枠
  6
Continuous
 62
     2
100
AcDbCircle
 10
481.5890069036989
 20
167.4813588644538
 30
0.0
 40
0.3
  0
LINE
  5
7183
330
1E
100
AcDbEntity
  8
製品
  6
Continuous
 62
     4
100
AcDbLine
 10
481.5890069036989
 20
167.4813588644538
 30
0.0
 11
481.5890069036989
 21
168.1813588644536
 31
0.0
  0
LINE
  5
7184
330
1E
100
AcDbEntity
  8
製品
  6
Continuous
 62
     2
100
AcDbLine
 10
481.3474069036991
 20
171.1687588644536
 30
0.0
 11
481.123406903699
 21
171.0939588644537
 31
0.0
  0
LINE
  5
7185
330
1E
100
AcDbEntity
  8
製品
  6
Continuous
 62
     2
100
AcDbLine
 10
481.3474069036991
 20
171.0687588644537
 30
0.0
 11
481.123406903699
 21
170.9939588644538
 31
0.0
  0
LINE
  5
7186
330
1E
100
AcDbEntity
  8
製品
  6
Continuous
 62
     2
100
AcDbLine
 10
481.6474069036988
 20
170.9939588644538
 30
0.0
 11
481.4234069036987
 21
171.0687588644537
 31
0.0
  0
LINE
  5
7187
330
1E
100
AcDbEntity
  8
製品
  6
Continuous
 62
     2
100
AcDbLine
 10
481.6474069036988
 20
171.0939588644537
 30
0.0
 11
481.4234069036987
 21
171.1687588644536
 31
0.0
  0
ARC
  5
7188
330
1E
100
AcDbEntity
  8
製品
  6
Continuous
 62
     2
100
AcDbCircle
 10
481.085406903699
 20
171.2077588644538
 30
0.0
 40
0.12
100
AcDbArc
 50
251.5348510000121
 51
288.4651489999879
  0
ARC
  5
7189
330
1E
100
AcDbEntity
  8
製品
  6
Continuous
 62
     2
100
AcDbCircle
 10
481.085406903699
 20
171.1077588644534
 30
0.0
 40
0.12
100
AcDbArc
 50
251.5348510000121
 51
288.4651489999879
  0
ARC
  5
718A
330
1E
100
AcDbEntity
  8
製品
  6
Continuous
 62
     2
100
AcDbCircle
 10
481.3854069036991
 20
170.9549588644536
 30
0.0
 40
0.12
100
AcDbArc
 50
71.53485100001211
 51
108.4651489999879
  0
ARC
  5
718B
330
1E
100
AcDbEntity
  8
製品
  6
Continuous
 62
     2
100
AcDbCircle
 10
481.3854069036991
 20
171.0549588644535
 30
0.0
 40
0.12
100
AcDbArc
 50
71.53485100001211
 51
108.4651489999879
  0
ARC
  5
718C
330
1E
100
AcDbEntity
  8
製品
  6
Continuous
 62
     2
100
AcDbCircle
 10
481.6854069036988
 20
171.1077588644534
 30
0.0
 40
0.12
100
AcDbArc
 50
251.5348510000121
 51
288.4651489999879
  0
ARC
  5
718D
330
1E
100
AcDbEntity
  8
製品
  6
Continuous
 62
     2
100
AcDbCircle
 10
481.6854069036988
 20
171.2077588644538
 30
0.0
 40
0.12
100
AcDbArc
 50
251.5348510000121
 51
288.4651489999879
  0
LINE
  5
718E
330
1E
100
AcDbEntity
  8
製品
  6
Continuous
 62
     2
100
AcDbLine
 10
481.947406903699
 20
171.0687588644537
 30
0.0
 11
481.7234069036989
 21
170.9939588644538
 31
0.0
  0
LINE
  5
718F
330
1E
100
AcDbEntity
  8
製品
  6
Continuous
 62
     2
100
AcDbLine
 10
481.947406903699
 20
171.1687588644536
 30
0.0
 11
481.7234069036989
 21
171.0939588644537
 31
0.0
  0
ARC
  5
7190
330
1E
100
AcDbEntity
  8
製品
  6
Continuous
 62
     2
100
AcDbCircle
 10
481.985406903699
 20
170.9549588644536
 30
0.0
 40
0.12
100
AcDbArc
 50
71.53485100001211
 51
108.4651489999879
  0
ARC
  5
7191
330
1E
100
AcDbEntity
  8
製品
  6
Continuous
 62
     2
100
AcDbCircle
 10
481.985406903699
 20
171.0549588644535
 30
0.0
 40
0.12
100
AcDbArc
 50
71.53485100001211
 51
108.4651489999879
  0
LINE
  5
7192
330
1E
100
AcDbEntity
  8
製品
  6
Continuous
 62
     4
100
AcDbLine
 10
481.7890069036987
 20
168.1813588644536
 30
0.0
 11
481.7890069036987
 21
167.6813588644536
 31
0.0
  0
ARC
  5
7193
330
1E
100
AcDbEntity
  8
製品
  6
Continuous
 62
     2
100
AcDbCircle
 10
478.092606903699
 20
171.2077588644538
 30
0.0
 40
0.12
100
AcDbArc
 50
251.5348510000121
 51
288.4651489999879
  0
ARC
  5
7194
330
1E
100
AcDbEntity
  8
製品
  6
Continuous
 62
     2
100
AcDbCircle
 10
478.092606903699
 20
171.1077588644534
 30
0.0
 40
0.12
100
AcDbArc
 50
251.5348510000121
 51
288.4651489999879
  0
LINE
  5
7195
330
1E
100
AcDbEntity
  8
製品
  6
Continuous
 62
     2
100
AcDbLine
 10
488.549006903699
 20
170.0313588644535
 30
0.0
 11
488.549006903699
 21
166.3313588644537
 31
0.0
  0
LINE
  5
7196
330
1E
100
AcDbEntity
  8
製品
  6
Continuous
 62
     2
100
AcDbLine
 10
486.5890069036989
 20
166.9813588644538
 30
0.0
 11
486.6890069036989
 21
167.2813588644535
 31
0.0
  0
LINE
  5
7197
330
1E
100
AcDbEntity
  8
製品
  6
Continuous
 62
     2
100
AcDbLine
 10
486.4890069036991
 20
166.9813588644538
 30
0.0
 11
486.5890069036989
 21
167.2813588644535
 31
0.0
  0
ARC
  5
7198
330
1E
100
AcDbEntity
  8
製品
  6
Continuous
 62
     2
100
AcDbCircle
 10
488.9490069036991
 20
166.3313588644537
 30
0.0
 40
0.4
100
AcDbArc
 50
180.0
 51
270.0
  0
LINE
  5
7199
330
1E
100
AcDbEntity
  8
製品
  6
Continuous
 62
     2
100
AcDbLine
 10
487.0890069036989
 20
165.6813588644536
 30
0.0
 11
489.9890069036991
 21
165.6813588644536
 31
0.0
  0
LINE
  5
719A
330
1E
100
AcDbEntity
  8
製品
  6
Continuous
 62
     2
100
AcDbLine
 10
487.0890069036989
 20
165.7813588644535
 30
0.0
 11
489.9890069036991
 21
165.7813588644535
 31
0.0
  0
LINE
  5
719B
330
1E
100
AcDbEntity
  8
製品
  6
Continuous
 62
     2
100
AcDbLine
 10
486.5890069036989
 20
166.4813588644538
 30
0.0
 11
486.6890069036989
 21
166.6813588644536
 31
0.0
  0
LINE
  5
719C
330
1E
100
AcDbEntity
  8
製品
  6
Continuous
 62
     2
100
AcDbLine
 10
486.6890069036989
 20
166.6813588644536
 30
0.0
 11
486.5890069036989
 21
166.9813588644538
 31
0.0
  0
LINE
  5
719D
330
1E
100
AcDbEntity
  8
製品
  6
Continuous
 62
     2
100
AcDbLine
 10
486.5890069036989
 20
166.6813588644536
 30
0.0
 11
486.4890069036991
 21
166.9813588644538
 31
0.0
  0
LINE
  5
719E
330
1E
100
AcDbEntity
  8
製品
  6
Continuous
 62
     2
100
AcDbLine
 10
486.4890069036991
 20
166.4813588644538
 30
0.0
 11
486.5890069036989
 21
166.6813588644536
 31
0.0
  0
ARC
  5
719F
330
1E
100
AcDbEntity
  8
製品
  6
Continuous
 62
     2
100
AcDbCircle
 10
487.0890069036989
 20
166.2813588644535
 30
0.0
 40
0.6
100
AcDbArc
 50
180.0
 51
270.0
  0
ARC
  5
71A0
330
1E
100
AcDbEntity
  8
製品
  6
Continuous
 62
     2
100
AcDbCircle
 10
487.0890069036989
 20
166.2813588644535
 30
0.0
 40
0.5
100
AcDbArc
 50
180.0
 51
270.0
  0
LINE
  5
71A1
330
1E
100
AcDbEntity
  8
製品
  6
Continuous
 62
     2
100
AcDbLine
 10
486.5890069036989
 20
166.2813588644535
 30
0.0
 11
486.5890069036989
 21
166.4813588644538
 31
0.0
  0
ARC
  5
71A2
330
1E
100
AcDbEntity
  8
製品
  6
Continuous
 62
     2
100
AcDbCircle
 10
489.7490069036988
 20
166.6313588644534
 30
0.0
 40
0.3
100
AcDbArc
 50
90.0
 51
254.3217239999982
  0
LINE
  5
71A3
330
1E
100
AcDbEntity
  8
製品
  6
Continuous
 62
     2
100
AcDbLine
 10
489.6890069036989
 20
166.4813588644538
 30
0.0
 11
489.9890069036991
 21
166.4813588644538
 31
0.0
  0
LINE
  5
71A4
330
1E
100
AcDbEntity
  8
製品
  6
Continuous
 62
     2
100
AcDbLine
 10
489.6890069036989
 20
166.3813588644534
 30
0.0
 11
489.6890069036989
 21
166.4813588644538
 31
0.0
  0
LINE
  5
71A5
330
1E
100
AcDbEntity
  8
製品
  6
Continuous
 62
     2
100
AcDbLine
 10
489.9890069036991
 20
166.3813588644534
 30
0.0
 11
489.6890069036989
 21
166.3813588644534
 31
0.0
  0
ARC
  5
71A6
330
1E
100
AcDbEntity
  8
製品
  6
Continuous
 62
     2
100
AcDbCircle
 10
489.9890069036991
 20
166.1813588644536
 30
0.0
 40
0.2
100
AcDbArc
 50
0.0
 51
90.0
  0
LINE
  5
71A7
330
1E
100
AcDbEntity
  8
製品
  6
Continuous
 62
     2
100
AcDbLine
 10
490.1890069036989
 20
165.9813588644538
 30
0.0
 11
490.1890069036989
 21
166.1813588644536
 31
0.0
  0
ARC
  5
71A8
330
1E
100
AcDbEntity
  8
製品
  6
Continuous
 62
     2
100
AcDbCircle
 10
489.9890069036991
 20
165.9813588644538
 30
0.0
 40
0.2
100
AcDbArc
 50
270.0
 51
0.0
  0
LINE
  5
71A9
330
1E
100
AcDbEntity
  8
製品
  6
Continuous
 62
     2
100
AcDbLine
 10
489.6679359036987
 20
166.3425208644535
 30
0.0
 11
490.1890069036989
 21
166.1962668644537
 31
0.0
  0
LINE
  5
71AA
330
1E
100
AcDbEntity
  8
製品
  6
Continuous
 62
     2
100
AcDbLine
 10
488.9490069036991
 20
165.9313588644536
 30
0.0
 11
490.1826559036988
 21
165.9313588644536
 31
0.0
  0
ARC
  5
71AB
330
1E
100
AcDbEntity
  8
製品
  6
Continuous
 62
     2
100
AcDbCircle
 10
483.989006903699
 20
171.5813588644537
 30
0.0
 40
0.5
100
AcDbArc
 50
270.0
 51
0.0
  0
ARC
  5
71AC
330
1E
100
AcDbEntity
  8
製品
  6
Continuous
 62
     2
100
AcDbCircle
 10
483.989006903699
 20
171.5813588644537
 30
0.0
 40
0.6
100
AcDbArc
 50
270.0
 51
0.0
  0
LINE
  5
71AD
330
1E
100
AcDbEntity
  8
製品
  6
Continuous
 62
     2
100
AcDbLine
 10
483.989006903699
 20
170.9813588644538
 30
0.0
 11
483.4010069036988
 21
170.9813588644538
 31
0.0
  0
LINE
  5
71AE
330
1E
100
AcDbEntity
  8
製品
  6
Continuous
 62
     2
100
AcDbLine
 10
483.989006903699
 20
171.0813588644537
 30
0.0
 11
483.4138069036988
 21
171.0813588644537
 31
0.0
  0
ARC
  5
71AF
330
1E
100
AcDbEntity
  8
製品
  6
Continuous
 62
     2
100
AcDbCircle
 10
483.4138069036988
 20
171.1013588644537
 30
0.0
 40
0.12
100
AcDbArc
 50
243.4776460000123
 51
270.0
  0
ARC
  5
71B0
330
1E
100
AcDbEntity
  8
製品
  6
Continuous
 62
     2
100
AcDbCircle
 10
483.4138069036988
 20
171.2013588644536
 30
0.0
 40
0.12
100
AcDbArc
 50
243.4776460000123
 51
270.0
  0
LINE
  5
71B1
330
1E
100
AcDbEntity
  8
製品
  6
Continuous
 62
     2
100
AcDbLine
 10
482.8474069036992
 20
170.9939588644538
 30
0.0
 11
482.6234069036989
 21
171.0687588644537
 31
0.0
  0
LINE
  5
71B2
330
1E
100
AcDbEntity
  8
製品
  6
Continuous
 62
     2
100
AcDbLine
 10
482.8474069036992
 20
171.0939588644537
 30
0.0
 11
482.6234069036989
 21
171.1687588644536
 31
0.0
  0
LINE
  5
71B3
330
1E
100
AcDbEntity
  8
製品
  6
Continuous
 62
     2
100
AcDbLine
 10
483.1382069036989
 20
171.1657588644534
 30
0.0
 11
482.9234069036987
 21
171.0939588644537
 31
0.0
  0
ARC
  5
71B4
330
1E
100
AcDbEntity
  8
製品
  6
Continuous
 62
     2
100
AcDbCircle
 10
482.2854069036988
 20
171.2077588644538
 30
0.0
 40
0.12
100
AcDbArc
 50
251.5348510000121
 51
288.4651489999879
  0
ARC
  5
71B5
330
1E
100
AcDbEntity
  8
製品
  6
Continuous
 62
     2
100
AcDbCircle
 10
482.2854069036988
 20
171.1077588644534
 30
0.0
 40
0.12
100
AcDbArc
 50
251.5348510000121
 51
288.4651489999879
  0
ARC
  5
71B6
330
1E
100
AcDbEntity
  8
製品
  6
Continuous
 62
     2
100
AcDbCircle
 10
482.5854069036989
 20
170.9549588644536
 30
0.0
 40
0.12
100
AcDbArc
 50
71.53485100001211
 51
108.4651489999879
  0
ARC
  5
71B7
330
1E
100
AcDbEntity
  8
製品
  6
Continuous
 62
     2
100
AcDbCircle
 10
482.5854069036989
 20
171.0549588644535
 30
0.0
 40
0.12
100
AcDbArc
 50
71.53485100001211
 51
108.4651489999879
  0
ARC
  5
71B8
330
1E
100
AcDbEntity
  8
製品
  6
Continuous
 62
     2
100
AcDbCircle
 10
482.8854069036991
 20
171.2079588644537
 30
0.0
 40
0.12
100
AcDbArc
 50
251.5650479999934
 51
288.434937000004
  0
LINE
  5
71B9
330
1E
100
AcDbEntity
  8
製品
  6
Continuous
 62
     2
100
AcDbLine
 10
482.547406903699
 20
171.1687588644536
 30
0.0
 11
482.3234069036987
 21
171.0939588644537
 31
0.0
  0
LINE
  5
71BA
330
1E
100
AcDbEntity
  8
製品
  6
Continuous
 62
     2
100
AcDbLine
 10
482.547406903699
 20
171.0687588644537
 30
0.0
 11
482.3234069036987
 21
170.9939588644538
 31
0.0
  0
LINE
  5
71BB
330
1E
100
AcDbEntity
  8
製品
  6
Continuous
 62
     2
100
AcDbLine
 10
483.3602069036991
 20
170.9939588644538
 30
0.0
 11
483.229806903699
 21
171.0591588644538
 31
0.0
  0
LINE
  5
71BC
330
1E
100
AcDbEntity
  8
製品
  6
Continuous
 62
     2
100
AcDbLine
 10
483.1382069036989
 20
171.0655588644535
 30
0.0
 11
482.9232069036987
 21
170.9939588644538
 31
0.0
  0
LINE
  5
71BD
330
1E
100
AcDbEntity
  8
製品
  6
Continuous
 62
     2
100
AcDbLine
 10
483.3602069036991
 20
171.0939588644537
 30
0.0
 11
483.229806903699
 21
171.1591588644537
 31
0.0
  0
ARC
  5
71BE
330
1E
100
AcDbEntity
  8
製品
  6
Continuous
 62
     2
100
AcDbCircle
 10
482.8854069036991
 20
171.1077588644534
 30
0.0
 40
0.12
100
AcDbArc
 50
251.5348510000121
 51
288.3745120000096
  0
ARC
  5
71BF
330
1E
100
AcDbEntity
  8
製品
  6
Continuous
 62
     2
100
AcDbCircle
 10
483.1762069036989
 20
171.0517588644538
 30
0.0
 40
0.12
100
AcDbArc
 50
63.47764199999557
 51
108.4349520000066
  0
ARC
  5
71C0
330
1E
100
AcDbEntity
  8
製品
  6
Continuous
 62
     2
100
AcDbCircle
 10
483.1762069036989
 20
170.9517588644535
 30
0.0
 40
0.12
100
AcDbArc
 50
63.47764199999557
 51
108.4651489999879
  0
LINE
  5
71C1
330
1E
100
AcDbEntity
  8
製品
  6
Continuous
 62
     4
100
AcDbLine
 10
484.3890069036992
 20
170.7813588644535
 30
0.0
 11
484.3890069036992
 21
167.6813588644536
 31
0.0
  0
ARC
  5
71C2
330
1E
100
AcDbEntity
  8
製品
  6
Continuous
 62
     2
100
AcDbCircle
 10
489.7490069036988
 20
168.0813588644537
 30
0.0
 40
0.6
100
AcDbArc
 50
180.0
 51
270.0
  0
LINE
  5
71C3
330
1E
100
AcDbEntity
  8
製品
  6
Continuous
 62
     2
100
AcDbLine
 10
486.5890069036989
 20
167.5813588644537
 30
0.0
 11
486.6890069036989
 21
167.8813588644534
 31
0.0
  0
LINE
  5
71C4
330
1E
100
AcDbEntity
  8
製品
  6
Continuous
 62
     2
100
AcDbLine
 10
486.4890069036991
 20
167.5813588644537
 30
0.0
 11
486.5890069036989
 21
167.8813588644534
 31
0.0
  0
LINE
  5
71C5
330
1E
100
AcDbEntity
  8
製品
  6
Continuous
 62
     2
100
AcDbLine
 10
486.6890069036989
 20
167.2813588644535
 30
0.0
 11
486.5890069036989
 21
167.5813588644537
 31
0.0
  0
LINE
  5
71C6
330
1E
100
AcDbEntity
  8
製品
  6
Continuous
 62
     2
100
AcDbLine
 10
486.5890069036989
 20
167.2813588644535
 30
0.0
 11
486.4890069036991
 21
167.5813588644537
 31
0.0
  0
ARC
  5
71C7
330
1E
100
AcDbEntity
  8
製品
  6
Continuous
 62
     2
100
AcDbCircle
 10
488.9490069036991
 20
170.0313588644535
 30
0.0
 40
0.4
100
AcDbArc
 50
90.0
 51
180.0
  0
LINE
  5
71C8
330
1E
100
AcDbEntity
  8
製品
  6
Continuous
 62
     2
100
AcDbLine
 10
487.0890069036989
 20
170.6813588644536
 30
0.0
 11
489.9890069036991
 21
170.6813588644536
 31
0.0
  0
LINE
  5
71C9
330
1E
100
AcDbEntity
  8
製品
  6
Continuous
 62
     2
100
AcDbLine
 10
487.0890069036989
 20
170.5813588644537
 30
0.0
 11
489.9890069036991
 21
170.5813588644537
 31
0.0
  0
ARC
  5
71CA
330
1E
100
AcDbEntity
  8
製品
  6
Continuous
 62
     2
100
AcDbCircle
 10
487.0890069036989
 20
170.0813588644537
 30
0.0
 40
0.6
100
AcDbArc
 50
90.0
 51
180.0
  0
ARC
  5
71CB
330
1E
100
AcDbEntity
  8
製品
  6
Continuous
 62
     2
100
AcDbCircle
 10
487.0890069036989
 20
170.0813588644537
 30
0.0
 40
0.5
100
AcDbArc
 50
90.0
 51
180.0
  0
LINE
  5
71CC
330
1E
100
AcDbEntity
  8
製品
  6
Continuous
 62
     2
100
AcDbLine
 10
486.6890069036989
 20
167.8813588644534
 30
0.0
 11
486.5890069036989
 21
168.1813588644536
 31
0.0
  0
LINE
  5
71CD
330
1E
100
AcDbEntity
  8
製品
  6
Continuous
 62
     2
100
AcDbLine
 10
486.5890069036989
 20
167.8813588644534
 30
0.0
 11
486.4890069036991
 21
168.1813588644536
 31
0.0
  0
LINE
  5
71CE
330
1E
100
AcDbEntity
  8
製品
  6
Continuous
 62
     2
100
AcDbLine
 10
486.5890069036989
 20
169.8813588644534
 30
0.0
 11
486.6890069036989
 21
169.6813588644536
 31
0.0
  0
LINE
  5
71CF
330
1E
100
AcDbEntity
  8
製品
  6
Continuous
 62
     2
100
AcDbLine
 10
486.6890069036989
 20
168.4813588644538
 30
0.0
 11
486.5890069036989
 21
168.1813588644536
 31
0.0
  0
LINE
  5
71D0
330
1E
100
AcDbEntity
  8
製品
  6
Continuous
 62
     2
100
AcDbLine
 10
486.5890069036989
 20
168.7813588644535
 30
0.0
 11
486.6890069036989
 21
168.4813588644538
 31
0.0
  0
LINE
  5
71D1
330
1E
100
AcDbEntity
  8
製品
  6
Continuous
 62
     2
100
AcDbLine
 10
486.6890069036989
 20
169.0813588644537
 30
0.0
 11
486.5890069036989
 21
168.7813588644535
 31
0.0
  0
LINE
  5
71D2
330
1E
100
AcDbEntity
  8
製品
  6
Continuous
 62
     2
100
AcDbLine
 10
486.5890069036989
 20
169.3813588644534
 30
0.0
 11
486.6890069036989
 21
169.0813588644537
 31
0.0
  0
LINE
  5
71D3
330
1E
100
AcDbEntity
  8
製品
  6
Continuous
 62
     2
100
AcDbLine
 10
486.6890069036989
 20
169.6813588644536
 30
0.0
 11
486.5890069036989
 21
169.3813588644534
 31
0.0
  0
LINE
  5
71D4
330
1E
100
AcDbEntity
  8
製品
  6
Continuous
 62
     2
100
AcDbLine
 10
486.5890069036989
 20
168.4813588644538
 30
0.0
 11
486.4890069036991
 21
168.1813588644536
 31
0.0
  0
LINE
  5
71D5
330
1E
100
AcDbEntity
  8
製品
  6
Continuous
 62
     2
100
AcDbLine
 10
486.4890069036991
 20
168.7813588644535
 30
0.0
 11
486.5890069036989
 21
168.4813588644538
 31
0.0
  0
LINE
  5
71D6
330
1E
100
AcDbEntity
  8
製品
  6
Continuous
 62
     2
100
AcDbLine
 10
486.5890069036989
 20
169.0813588644537
 30
0.0
 11
486.4890069036991
 21
168.7813588644535
 31
0.0
  0
LINE
  5
71D7
330
1E
100
AcDbEntity
  8
製品
  6
Continuous
 62
     2
100
AcDbLine
 10
486.4890069036991
 20
169.3813588644534
 30
0.0
 11
486.5890069036989
 21
169.0813588644537
 31
0.0
  0
LINE
  5
71D8
330
1E
100
AcDbEntity
  8
製品
  6
Continuous
 62
     2
100
AcDbLine
 10
486.5890069036989
 20
169.6813588644536
 30
0.0
 11
486.4890069036991
 21
169.3813588644534
 31
0.0
  0
LINE
  5
71D9
330
1E
100
AcDbEntity
  8
製品
  6
Continuous
 62
     2
100
AcDbLine
 10
486.4890069036991
 20
169.8813588644534
 30
0.0
 11
486.5890069036989
 21
169.6813588644536
 31
0.0
  0
LINE
  5
71DA
330
1E
100
AcDbEntity
  8
製品
  6
Continuous
 62
     2
100
AcDbLine
 10
486.5890069036989
 20
170.0813588644537
 30
0.0
 11
486.5890069036989
 21
169.8813588644534
 31
0.0
  0
ARC
  5
71DB
330
1E
100
AcDbEntity
  8
製品
  6
Continuous
 62
     2
100
AcDbCircle
 10
489.7490069036988
 20
169.7313588644538
 30
0.0
 40
0.3
100
AcDbArc
 50
105.6782760000018
 51
270.0
  0
ARC
  5
71DC
330
1E
100
AcDbEntity
  8
製品
  6
Continuous
 62
     2
100
AcDbCircle
 10
489.7490069036988
 20
168.2813588644535
 30
0.0
 40
0.6
100
AcDbArc
 50
90.0
 51
180.0
  0
LINE
  5
71DD
330
1E
100
AcDbEntity
  8
製品
  6
Continuous
 62
     2
100
AcDbLine
 10
489.1490069036989
 20
168.2813588644535
 30
0.0
 11
489.1490069036989
 21
168.0813588644537
 31
0.0
  0
LINE
  5
71DE
330
1E
100
AcDbEntity
  8
製品
  6
Continuous
 62
     2
100
AcDbLine
 10
489.6890069036989
 20
169.8813588644534
 30
0.0
 11
489.9890069036991
 21
169.8813588644534
 31
0.0
  0
LINE
  5
71DF
330
1E
100
AcDbEntity
  8
製品
  6
Continuous
 62
     2
100
AcDbLine
 10
489.6890069036989
 20
169.9813588644538
 30
0.0
 11
489.6890069036989
 21
169.8813588644534
 31
0.0
  0
LINE
  5
71E0
330
1E
100
AcDbEntity
  8
製品
  6
Continuous
 62
     2
100
AcDbLine
 10
489.9890069036991
 20
169.9813588644538
 30
0.0
 11
489.6890069036989
 21
169.9813588644538
 31
0.0
  0
ARC
  5
71E1
330
1E
100
AcDbEntity
  8
製品
  6
Continuous
 62
     2
100
AcDbCircle
 10
489.9890069036991
 20
170.1813588644536
 30
0.0
 40
0.2
100
AcDbArc
 50
270.0
 51
0.0
  0
LINE
  5
71E2
330
1E
100
AcDbEntity
  8
製品
  6
Continuous
 62
     2
100
AcDbLine
 10
490.1890069036989
 20
170.3813588644534
 30
0.0
 11
490.1890069036989
 21
170.1813588644536
 31
0.0
  0
ARC
  5
71E3
330
1E
100
AcDbEntity
  8
製品
  6
Continuous
 62
     2
100
AcDbCircle
 10
489.9890069036991
 20
170.3813588644534
 30
0.0
 40
0.2
100
AcDbArc
 50
0.0
 51
90.0
  0
LINE
  5
71E4
330
1E
100
AcDbEntity
  8
製品
  6
Continuous
 62
     2
100
AcDbLine
 10
489.6679359036987
 20
170.0201968644537
 30
0.0
 11
490.1890069036989
 21
170.1664498644536
 31
0.0
  0
LINE
  5
71E5
330
1E
100
AcDbEntity
  8
製品
  6
Continuous
 62
     2
100
AcDbLine
 10
488.9490069036991
 20
170.4313588644536
 30
0.0
 11
490.1826559036988
 21
170.4313588644536
 31
0.0
  0
ARC
  5
71E6
330
1E
100
AcDbEntity
  8
製品
  6
Continuous
 62
     2
100
AcDbCircle
 10
481.5890069036989
 20
173.9613588644538
 30
0.0
 40
0.5
100
AcDbArc
 50
180.0
 51
0.0
  0
ARC
  5
71E7
330
1E
100
AcDbEntity
  8
製品
  6
Continuous
 62
     2
100
AcDbCircle
 10
482.6890069036989
 20
177.1813588644536
 30
0.0
 40
0.6
100
AcDbArc
 50
90.0
 51
180.0
  0
LINE
  5
71E8
330
1E
100
AcDbEntity
  8
製品
  6
Continuous
 62
     2
100
AcDbLine
 10
482.7890069036988
 20
181.3813588644534
 30
0.0
 11
476.3890069036992
 21
181.3813588644534
 31
0.0
  0
LINE
  5
71E9
330
1E
100
AcDbEntity
  8
製品
  6
Continuous
 62
     2
100
AcDbLine
 10
483.989006903699
 20
172.9013588644539
 30
0.0
 11
475.1890069036988
 21
172.9013588644539
 31
0.0
  0
LINE
  5
71EA
330
1E
100
AcDbEntity
  8
製品
  6
Continuous
 62
     2
100
AcDbLine
 10
484.3890069036992
 20
182.5013588644537
 30
0.0
 11
474.7890069036988
 21
182.5013588644537
 31
0.0
  0
LINE
  5
71EB
330
1E
100
AcDbEntity
  8
製品
  6
Continuous
 62
     2
100
AcDbLine
 10
475.989006903699
 20
178.1813588644536
 30
0.0
 11
475.989006903699
 21
180.9813588644538
 31
0.0
  0
LINE
  5
71EC
330
1E
100
AcDbEntity
  8
製品
  6
Continuous
 62
     2
100
AcDbLine
 10
474.7890069036988
 20
182.5013588644537
 30
0.0
 11
474.7890069036988
 21
177.7813588644535
 31
0.0
  0
ARC
  5
71ED
330
1E
100
AcDbEntity
  8
製品
  6
Continuous
 62
     2
100
AcDbCircle
 10
477.5890069036989
 20
173.9613588644538
 30
0.0
 40
0.5
100
AcDbArc
 50
180.0
 51
0.0
  0
ARC
  5
71EE
330
1E
100
AcDbEntity
  8
製品
  6
Continuous
 62
     2
100
AcDbCircle
 10
474.7890069036988
 20
176.4417318644537
 30
0.0
 40
1.0
100
AcDbArc
 50
0.0
 51
71.73258900000312
  0
ARC
  5
71EF
330
1E
100
AcDbEntity
  8
製品
  6
Continuous
 62
     2
100
AcDbCircle
 10
475.489006903699
 20
174.2798588644537
 30
0.0
 40
0.300004
100
AcDbArc
 50
202.7960729999855
 51
0.286477000004934
  0
ARC
  5
71F0
330
1E
100
AcDbEntity
  8
製品
  6
Continuous
 62
     2
100
AcDbCircle
 10
474.8890069036991
 20
174.4813588644538
 30
0.0
 40
0.3
100
AcDbArc
 50
90.0
 51
180.0
  0
ARC
  5
71F1
330
1E
100
AcDbEntity
  8
製品
  6
Continuous
 62
     2
100
AcDbCircle
 10
475.089006903699
 20
174.4813588644538
 30
0.0
 40
0.3
100
AcDbArc
 50
0.0
 51
90.0
  0
LINE
  5
71F2
330
1E
100
AcDbEntity
  8
製品
  6
Continuous
 62
     2
100
AcDbLine
 10
475.212660903699
 20
174.1630898644535
 30
0.0
 11
475.134730903699
 21
174.5527378644537
 31
0.0
  0
ARC
  5
71F3
330
1E
100
AcDbEntity
  8
製品
  6
Continuous
 62
     3
100
AcDbCircle
 10
474.9778379036987
 20
174.5213588644537
 30
0.0
 40
0.16
100
AcDbArc
 50
11.30993199999791
 51
90.0
  0
LINE
  5
71F4
330
1E
100
AcDbEntity
  8
製品
  6
Continuous
 62
     2
100
AcDbLine
 10
474.8890069036991
 20
174.6813588644536
 30
0.0
 11
475.089006903699
 21
174.6813588644536
 31
0.0
  0
LINE
  5
71F5
330
1E
100
AcDbEntity
  8
製品
  6
Continuous
 62
     2
100
AcDbLine
 10
475.3890069036991
 20
174.1813588644536
 30
0.0
 11
475.3890069036991
 21
174.4813588644538
 31
0.0
  0
LINE
  5
71F6
330
1E
100
AcDbEntity
  8
製品
  6
Continuous
 62
     2
100
AcDbLine
 10
475.2890069036988
 20
174.1813588644536
 30
0.0
 11
475.3890069036991
 21
174.1813588644536
 31
0.0
  0
LINE
  5
71F7
330
1E
100
AcDbEntity
  8
製品
  6
Continuous
 62
     2
100
AcDbLine
 10
475.2890069036988
 20
174.4813588644538
 30
0.0
 11
475.2890069036988
 21
174.1813588644536
 31
0.0
  0
ARC
  5
71F8
330
1E
100
AcDbEntity
  8
製品
  6
Continuous
 62
     2
100
AcDbCircle
 10
475.089006903699
 20
174.4813588644538
 30
0.0
 40
0.2
100
AcDbArc
 50
0.0
 51
90.0
  0
ARC
  5
71F9
330
1E
100
AcDbEntity
  8
製品
  6
Continuous
 62
     2
100
AcDbCircle
 10
474.8890069036991
 20
174.4813588644538
 30
0.0
 40
0.2
100
AcDbArc
 50
90.0
 51
180.0
  0
LINE
  5
71FA
330
1E
100
AcDbEntity
  8
製品
  6
Continuous
 62
     2
100
AcDbLine
 10
474.7890069036988
 20
174.6545638644538
 30
0.0
 11
474.7890069036988
 21
173.3013588644535
 31
0.0
  0
ARC
  5
71FB
330
1E
100
AcDbEntity
  8
製品
  6
Continuous
 62
     2
100
AcDbCircle
 10
475.1890069036988
 20
177.7813588644535
 30
0.0
 40
0.4
100
AcDbArc
 50
180.0
 51
258.2626990000045
  0
LINE
  5
71FC
330
1E
100
AcDbEntity
  8
製品
  6
Continuous
 62
     2
100
AcDbLine
 10
477.0890069036989
 20
173.9613588644538
 30
0.0
 11
477.0890069036989
 21
177.1813588644536
 31
0.0
  0
LINE
  5
71FD
330
1E
100
AcDbEntity
  8
製品
  6
Continuous
 62
     2
100
AcDbLine
 10
475.7890069036988
 20
176.4417318644537
 30
0.0
 11
475.7890069036988
 21
174.2813588644535
 31
0.0
  0
ARC
  5
71FE
330
1E
100
AcDbEntity
  8
製品
  6
Continuous
 62
     2
100
AcDbCircle
 10
476.489006903699
 20
177.1813588644536
 30
0.0
 40
0.6
100
AcDbArc
 50
0.0
 51
90.0
  0
LINE
  5
71FF
330
1E
100
AcDbEntity
  8
製品
  6
Continuous
 62
     2
100
AcDbLine
 10
476.489006903699
 20
177.7813588644535
 30
0.0
 11
476.3890069036992
 21
177.7813588644535
 31
0.0
  0
ARC
  5
7200
330
1E
100
AcDbEntity
  8
製品
  6
Continuous
 62
     2
100
AcDbCircle
 10
476.3890069036992
 20
178.1813588644536
 30
0.0
 40
0.4
100
AcDbArc
 50
180.0
 51
270.0
  0
ARC
  5
7201
330
1E
100
AcDbEntity
  8
製品
  6
Continuous
 62
     2
100
AcDbCircle
 10
480.489006903699
 20
177.1813588644536
 30
0.0
 40
0.6
100
AcDbArc
 50
0.0
 51
90.0
  0
LINE
  5
7202
330
1E
100
AcDbEntity
  8
製品
  6
Continuous
 62
     2
100
AcDbLine
 10
478.0890069036989
 20
173.9613588644538
 30
0.0
 11
478.0890069036989
 21
177.1813588644536
 31
0.0
  0
LINE
  5
7203
330
1E
100
AcDbEntity
  8
製品
  6
Continuous
 62
     2
100
AcDbLine
 10
478.6890069036989
 20
177.7813588644535
 30
0.0
 11
480.489006903699
 21
177.7813588644535
 31
0.0
  0
LINE
  5
7204
330
1E
100
AcDbEntity
  8
製品
  6
Continuous
 62
     2
100
AcDbLine
 10
481.089006903699
 20
173.9613588644538
 30
0.0
 11
481.089006903699
 21
177.1813588644536
 31
0.0
  0
ARC
  5
7205
330
1E
100
AcDbEntity
  8
製品
  6
Continuous
 62
     2
100
AcDbCircle
 10
478.6890069036989
 20
177.1813588644536
 30
0.0
 40
0.6
100
AcDbArc
 50
90.0
 51
180.0
  0
ARC
  5
7206
330
1E
100
AcDbEntity
  8
製品
  6
Continuous
 62
     2
100
AcDbCircle
 10
476.3890069036992
 20
180.9813588644538
 30
0.0
 40
0.4
100
AcDbArc
 50
90.0
 51
180.0
  0
LINE
  5
7207
330
1E
100
AcDbEntity
  8
製品
  6
Continuous
 62
     2
100
AcDbLine
 10
483.1890069036989
 20
180.9813588644538
 30
0.0
 11
483.1890069036989
 21
178.1813588644536
 31
0.0
  0
LINE
  5
7208
330
1E
100
AcDbEntity
  8
製品
  6
Continuous
 62
     2
100
AcDbLine
 10
484.3890069036992
 20
182.5013588644537
 30
0.0
 11
484.3890069036992
 21
177.7813588644535
 31
0.0
  0
LINE
  5
7209
330
1E
100
AcDbEntity
  8
製品
  6
Continuous
 62
     2
100
AcDbLine
 10
483.3890069036991
 20
176.4417318644537
 30
0.0
 11
483.3890069036991
 21
174.2813588644535
 31
0.0
  0
LINE
  5
720A
330
1E
100
AcDbEntity
  8
製品
  6
Continuous
 62
     2
100
AcDbLine
 10
482.0890069036989
 20
173.9613588644538
 30
0.0
 11
482.0890069036989
 21
177.1813588644536
 31
0.0
  0
ARC
  5
720B
330
1E
100
AcDbEntity
  8
製品
  6
Continuous
 62
     2
100
AcDbCircle
 10
484.2890069036988
 20
174.4813588644538
 30
0.0
 40
0.3
100
AcDbArc
 50
0.0
 51
90.0
  0
ARC
  5
720C
330
1E
100
AcDbEntity
  8
製品
  6
Continuous
 62
     2
100
AcDbCircle
 10
484.089006903699
 20
174.4813588644538
 30
0.0
 40
0.3
100
AcDbArc
 50
90.0
 51
180.0
  0
ARC
  5
720D
330
1E
100
AcDbEntity
  8
製品
  6
Continuous
 62
     2
100
AcDbCircle
 10
483.6890069036988
 20
174.2798588644537
 30
0.0
 40
0.300004
100
AcDbArc
 50
179.713522999995
 51
337.2039270000145
  0
LINE
  5
720E
330
1E
100
AcDbEntity
  8
製品
  6
Continuous
 62
     2
100
AcDbLine
 10
483.965352903699
 20
174.1630898644535
 30
0.0
 11
484.043281903699
 21
174.5527378644537
 31
0.0
  0
ARC
  5
720F
330
1E
100
AcDbEntity
  8
製品
  6
Continuous
 62
     2
100
AcDbCircle
 10
484.2001749036988
 20
174.5213588644537
 30
0.0
 40
0.16
100
AcDbArc
 50
90.0
 51
168.6900680000021
  0
LINE
  5
7210
330
1E
100
AcDbEntity
  8
製品
  6
Continuous
 62
     2
100
AcDbLine
 10
483.7890069036988
 20
174.1813588644536
 30
0.0
 11
483.7890069036988
 21
174.4813588644538
 31
0.0
  0
LINE
  5
7211
330
1E
100
AcDbEntity
  8
製品
  6
Continuous
 62
     2
100
AcDbLine
 10
483.8890069036991
 20
174.1813588644536
 30
0.0
 11
483.7890069036988
 21
174.1813588644536
 31
0.0
  0
LINE
  5
7212
330
1E
100
AcDbEntity
  8
製品
  6
Continuous
 62
     2
100
AcDbLine
 10
483.8890069036991
 20
174.4813588644538
 30
0.0
 11
483.8890069036991
 21
174.1813588644536
 31
0.0
  0
ARC
  5
7213
330
1E
100
AcDbEntity
  8
製品
  6
Continuous
 62
     2
100
AcDbCircle
 10
484.089006903699
 20
174.4813588644538
 30
0.0
 40
0.2
100
AcDbArc
 50
90.0
 51
180.0
  0
LINE
  5
7214
330
1E
100
AcDbEntity
  8
製品
  6
Continuous
 62
     2
100
AcDbLine
 10
484.2890069036988
 20
174.6813588644536
 30
0.0
 11
484.089006903699
 21
174.6813588644536
 31
0.0
  0
ARC
  5
7215
330
1E
100
AcDbEntity
  8
製品
  6
Continuous
 62
     2
100
AcDbCircle
 10
484.2890069036988
 20
174.4813588644538
 30
0.0
 40
0.2
100
AcDbArc
 50
0.0
 51
90.0
  0
LINE
  5
7216
330
1E
100
AcDbEntity
  8
製品
  6
Continuous
 62
     2
100
AcDbLine
 10
484.3890069036992
 20
173.3013588644535
 30
0.0
 11
484.3890069036992
 21
174.6750078644536
 31
0.0
  0
ARC
  5
7217
330
1E
100
AcDbEntity
  8
製品
  6
Continuous
 62
     2
100
AcDbCircle
 10
484.3890069036992
 20
176.4417318644537
 30
0.0
 40
1.0
100
AcDbArc
 50
108.2674109999969
 51
180.0
  0
LINE
  5
7218
330
1E
100
AcDbEntity
  8
製品
  6
Continuous
 62
     2
100
AcDbLine
 10
482.6890069036989
 20
177.7813588644535
 30
0.0
 11
482.7890069036988
 21
177.7813588644535
 31
0.0
  0
ARC
  5
7219
330
1E
100
AcDbEntity
  8
製品
  6
Continuous
 62
     2
100
AcDbCircle
 10
482.7890069036988
 20
178.1813588644536
 30
0.0
 40
0.4
100
AcDbArc
 50
270.0
 51
0.0
  0
ARC
  5
721A
330
1E
100
AcDbEntity
  8
製品
  6
Continuous
 62
     2
100
AcDbCircle
 10
483.989006903699
 20
177.7813588644535
 30
0.0
 40
0.4
100
AcDbArc
 50
281.7373009999954
 51
0.0
  0
ARC
  5
721B
330
1E
100
AcDbEntity
  8
製品
  6
Continuous
 62
     2
100
AcDbCircle
 10
482.7890069036988
 20
180.9813588644538
 30
0.0
 40
0.4
100
AcDbArc
 50
0.0
 51
90.0
  0
LINE
  5
721C
330
1E
100
AcDbEntity
  8
製品
  6
Continuous
 62
     4
100
AcDbLine
 10
490.2890069036987
 20
174.7813588644535
 30
0.0
 11
490.2890069036987
 21
169.4313588644536
 31
0.0
  0
LINE
  5
721D
330
1E
100
AcDbEntity
  8
製品
  6
Continuous
 62
     4
100
AcDbLine
 10
497.8890069036991
 20
171.1813588644536
 30
0.0
 11
497.8890069036991
 21
174.7813588644535
 31
0.0
  0
LINE
  5
721E
330
1E
100
AcDbEntity
  8
製品
  6
Continuous
 62
     2
100
AcDbLine
 10
495.3490069036987
 20
169.3813588644534
 30
0.0
 11
495.3490069036987
 21
166.9813588644538
 31
0.0
  0
LINE
  5
721F
330
1E
100
AcDbEntity
  8
製品
  6
Continuous
 62
     2
100
AcDbLine
 10
492.9490069036991
 20
166.0813588644537
 30
0.0
 11
492.9490069036991
 21
167.4813588644538
 31
0.0
  0
LINE
  5
7220
330
1E
100
AcDbEntity
  8
製品
  6
Continuous
 62
     2
100
AcDbLine
 10
498.009006903699
 20
165.1813588644536
 30
0.0
 11
498.009006903699
 21
171.1813588644536
 31
0.0
  0
LINE
  5
7221
330
1E
100
AcDbEntity
  8
製品
  6
Continuous
 62
     2
100
AcDbLine
 10
496.9490069036991
 20
169.3813588644534
 30
0.0
 11
496.9490069036991
 21
166.9813588644538
 31
0.0
  0
LINE
  5
7222
330
1E
100
AcDbEntity
  8
製品
  6
Continuous
 62
     2
100
AcDbLine
 10
497.8890069036991
 20
165.1813588644536
 30
0.0
 11
492.8490069036987
 21
165.1813588644536
 31
0.0
  0
LINE
  5
7223
330
1E
100
AcDbEntity
  8
製品
  6
Continuous
 62
     2
100
AcDbLine
 10
493.3490069036987
 20
165.6813588644536
 30
0.0
 11
498.009006903699
 21
165.6813588644536
 31
0.0
  0
LINE
  5
7224
330
1E
100
AcDbEntity
  8
製品
  6
Continuous
 62
     2
100
AcDbLine
 10
492.8490069036987
 20
165.1813588644536
 30
0.0
 11
492.2120589036989
 21
166.9313588644536
 31
0.0
  0
ARC
  5
7225
330
1E
100
AcDbEntity
  8
製品
  6
Continuous
 62
     2
100
AcDbCircle
 10
493.3490069036987
 20
166.0813588644537
 30
0.0
 40
0.4
100
AcDbArc
 50
180.0
 51
270.0
  0
ARC
  5
7226
330
1E
100
AcDbEntity
  8
製品
  6
Continuous
 62
     2
100
AcDbCircle
 10
496.2490069036988
 20
166.9813588644538
 30
0.0
 40
0.7
100
AcDbArc
 50
270.0
 51
0.0
  0
LINE
  5
7227
330
1E
100
AcDbEntity
  8
製品
  6
Continuous
 62
     2
100
AcDbLine
 10
496.049006903699
 20
166.2813588644535
 30
0.0
 11
496.2490069036988
 21
166.2813588644535
 31
0.0
  0
ARC
  5
7228
330
1E
100
AcDbEntity
  8
製品
  6
Continuous
 62
     2
100
AcDbCircle
 10
496.049006903699
 20
166.9813588644538
 30
0.0
 40
0.7
100
AcDbArc
 50
180.0
 51
270.0
  0
LINE
  5
7229
330
1E
100
AcDbEntity
  8
製品
  6
Continuous
 62
     2
100
AcDbLine
 10
497.8890069036991
 20
165.1813588644536
 30
0.0
 11
498.009006903699
 21
165.1813588644536
 31
0.0
  0
LINE
  5
722A
330
1E
100
AcDbEntity
  8
製品
  6
Continuous
 62
     2
100
AcDbLine
 10
497.8890069036991
 20
171.1813588644536
 30
0.0
 11
492.8490069036987
 21
171.1813588644536
 31
0.0
  0
LINE
  5
722B
330
1E
100
AcDbEntity
  8
製品
  6
Continuous
 62
     2
100
AcDbLine
 10
493.3490069036987
 20
170.6813588644536
 30
0.0
 11
498.009006903699
 21
170.6813588644536
 31
0.0
  0
LINE
  5
722C
330
1E
100
AcDbEntity
  8
製品
  6
Continuous
 62
     2
100
AcDbLine
 10
492.8490069036987
 20
171.1813588644536
 30
0.0
 11
492.2120589036989
 21
169.4313588644536
 31
0.0
  0
ARC
  5
722D
330
1E
100
AcDbEntity
  8
製品
  6
Continuous
 62
     2
100
AcDbCircle
 10
493.3490069036987
 20
170.2813588644535
 30
0.0
 40
0.4
100
AcDbArc
 50
90.0
 51
180.0
  0
LINE
  5
722E
330
1E
100
AcDbEntity
  8
製品
  6
Continuous
 62
     2
100
AcDbLine
 10
492.9490069036991
 20
170.2813588644535
 30
0.0
 11
492.9490069036991
 21
168.8813588644534
 31
0.0
  0
ARC
  5
722F
330
1E
100
AcDbEntity
  8
製品
  6
Continuous
 62
     2
100
AcDbCircle
 10
496.2490069036988
 20
169.3813588644534
 30
0.0
 40
0.7
100
AcDbArc
 50
0.0
 51
90.0
  0
LINE
  5
7230
330
1E
100
AcDbEntity
  8
製品
  6
Continuous
 62
     2
100
AcDbLine
 10
496.049006903699
 20
170.0813588644537
 30
0.0
 11
496.2490069036988
 21
170.0813588644537
 31
0.0
  0
ARC
  5
7231
330
1E
100
AcDbEntity
  8
製品
  6
Continuous
 62
     2
100
AcDbCircle
 10
496.049006903699
 20
169.3813588644534
 30
0.0
 40
0.7
100
AcDbArc
 50
90.0
 51
180.0
  0
LINE
  5
7232
330
1E
100
AcDbEntity
  8
製品
  6
Continuous
 62
     2
100
AcDbLine
 10
498.009006903699
 20
171.1813588644536
 30
0.0
 11
497.8890069036991
 21
171.1813588644536
 31
0.0
  0
CIRCLE
  5
7233
330
1E
100
AcDbEntity
  8
図面枠
  6
Continuous
 62
     2
100
AcDbCircle
 10
494.0890069036989
 20
174.7813588644535
 30
0.0
 40
0.3
  0
CIRCLE
  5
7234
330
1E
100
AcDbEntity
  8
図面枠
  6
Continuous
 62
     2
100
AcDbCircle
 10
494.0890069036989
 20
182.3813588644534
 30
0.0
 40
0.3
  0
LINE
  5
7235
330
1E
100
AcDbEntity
  8
製品
  6
Continuous
 62
     4
100
AcDbLine
 10
503.8890069036991
 20
182.3813588644534
 30
0.0
 11
503.8890069036991
 21
174.7813588644535
 31
0.0
  0
CIRCLE
  5
7236
330
1E
100
AcDbEntity
  8
図面枠
  6
Continuous
 62
     2
100
AcDbCircle
 10
501.8890069036991
 20
182.3813588644534
 30
0.0
 40
0.3
  0
LINE
  5
7237
330
1E
100
AcDbEntity
  8
製品
  6
Continuous
 62
     4
100
AcDbLine
 10
490.2890069036987
 20
186.3813588644534
 30
0.0
 11
497.8890069036991
 21
186.3813588644534
 31
0.0
  0
TEXT
  5
7238
330
1E
100
AcDbEntity
  8
図面枠
  6
Continuous
 62
     2
100
AcDbText
 10
507.6625169036991
 20
193.3813428644534
 30
0.0
 40
3.0
  1
野縁受け
 41
0.8
  7
ACAD
100
AcDbText
  0
LINE
  5
7239
330
1E
100
AcDbEntity
  8
図面枠
  6
Continuous
 62
     2
100
AcDbLine
 10
507.6625089036991
 20
192.3813588644534
 30
0.0
 11
519.7025089036991
 21
192.3813588644534
 31
0.0
  0
ENDSEC
  0
SECTION
  2
OBJECTS
  0
DICTIONARY
  5
C
330
0
100
AcDbDictionary
281
     1
  3
ACAD_COLOR
350
72C5
  3
ACAD_GROUP
350
D
  3
ACAD_LAYOUT
350
19
  3
ACAD_MATERIAL
350
72B0
  3
ACAD_MLINESTYLE
350
16
  3
ACAD_PLOTSETTINGS
350
18
  3
ACAD_PLOTSTYLENAME
350
E
  3
ACAD_TABLESTYLE
350
72C6
  3
ACAD_VISUALSTYLE
350
72B4
  3
AcDbVariableDictionary
350
169
  3
DWGPROPS
350
7351
  0
DICTIONARY
  5
7330
330
8
100
AcDbDictionary
280
     1
281
     1
  0
DICTIONARY
  5
175
330
2
100
AcDbDictionary
280
     1
281
     1
  3
ACAD_LAYERFILTERS
360
185
  3
ACAD_LAYERSTATES
360
176
  0
DICTIONARY
  5
28B
330
1E
100
AcDbDictionary
280
     1
281
     1
  3
ACAD_LAYOUTSELFREF
360
72A9
  0
DICTIONARY
  5
28D
330
1A
100
AcDbDictionary
280
     1
281
     1
  3
ACAD_LAYOUTSELFREF
360
72A8
  0
DICTIONARY
  5
72C5
102
{ACAD_REACTORS
330
C
102
}
330
C
100
AcDbDictionary
281
     1
  0
DICTIONARY
  5
D
102
{ACAD_REACTORS
330
C
102
}
330
C
100
AcDbDictionary
281
     1
  0
DICTIONARY
  5
19
102
{ACAD_REACTORS
330
C
102
}
330
C
100
AcDbDictionary
281
     1
  3
Model
350
21
  3
ﾚｲｱｳﾄ1
350
1D
  0
DICTIONARY
  5
72B0
102
{ACAD_REACTORS
330
C
102
}
330
C
100
AcDbDictionary
281
     1
  3
ByBlock
350
72B2
  3
ByLayer
350
72B1
  3
Global
350
72B3
  0
DICTIONARY
  5
16
102
{ACAD_REACTORS
330
C
102
}
330
C
100
AcDbDictionary
281
     1
  3
Standard
350
17
  0
DICTIONARY
  5
18
102
{ACAD_REACTORS
330
C
102
}
330
C
100
AcDbDictionary
281
     1
  0
ACDBDICTIONARYWDFLT
  5
E
102
{ACAD_REACTORS
330
C
102
}
330
C
100
AcDbDictionary
281
     1
  3
Normal
350
F
100
AcDbDictionaryWithDefault
340
F
1001
ACAD
1000
TREAT_AS_HARD
1070
     0
1000
TREAT_AS_HARD
1070
     0
1000
TREAT_AS_HARD
1070
     0
1000
TREAT_AS_HARD
1070
     0
1000
TREAT_AS_HARD
1070
     0
1000
TREAT_AS_HARD
1070
     0
1000
TREAT_AS_HARD
1070
     0
1000
TREAT_AS_HARD
1070
     0
1000
TREAT_AS_HARD
1070
     0
1000
TREAT_AS_HARD
1070
     0
1000
TREAT_AS_HARD
1070
     0
1000
TREAT_AS_HARD
1070
     0
1000
TREAT_AS_HARD
1070
     0
1000
TREAT_AS_HARD
1070
     0
1000
TREAT_AS_HARD
1070
     0
1000
TREAT_AS_HARD
1070
     0
1000
TREAT_AS_HARD
1070
     0
1000
TREAT_AS_HARD
1070
     0
1000
TREAT_AS_HARD
1070
     0
1000
TREAT_AS_HARD
1070
     0
1000
TREAT_AS_HARD
1070
     0
1000
TREAT_AS_HARD
1070
     0
1000
TREAT_AS_HARD
1070
     0
1000
TREAT_AS_HARD
1070
     0
1000
TREAT_AS_HARD
1070
     0
1000
TREAT_AS_HARD
1070
     0
1000
TREAT_AS_HARD
1070
     0
1000
TREAT_AS_HARD
1070
     0
1000
TREAT_AS_HARD
1070
     0
1000
TREAT_AS_HARD
1070
     0
1000
TREAT_AS_HARD
1070
     0
  0
DICTIONARY
  5
72C6
102
{ACAD_REACTORS
330
C
102
}
330
C
100
AcDbDictionary
281
     1
  3
Standard
350
72C7
  0
DICTIONARY
  5
72B4
102
{ACAD_REACTORS
330
C
102
}
330
C
100
AcDbDictionary
281
     1
  3
2dWireframe
350
72BA
  3
3D Hidden
350
72BC
  3
3dWireframe
350
72BB
  3
Basic
350
72B9
  3
Brighten
350
72C0
  3
ColorChange
350
72C4
  3
Conceptual
350
72BD
  3
Dim
350
72BF
  3
Facepattern
350
72C3
  3
Flat
350
72B5
  3
FlatWithEdges
350
72B6
  3
Gouraud
350
72B7
  3
GouraudWithEdges
350
72B8
  3
Linepattern
350
72C2
  3
Realistic
350
72BE
  3
Thicken
350
72C1
  0
DICTIONARY
  5
169
102
{ACAD_REACTORS
330
C
102
}
330
C
100
AcDbDictionary
281
     1
  3
CTABLESTYLE
350
7348
  3
DIMASSOC
350
16A
  3
INDEXCTL
350
734A
  3
SORTENTS
350
7349
  0
XRECORD
  5
7351
102
{ACAD_REACTORS
330
C
102
}
330
C
100
AcDbXrecord
280
     1
  1
DWGPROPS COOKIE
  2

  3

  4

  6

  7

  8
HON1000AV
  9

300
=
301
=
302
=
303
=
304
=
305
=
306
=
307
=
308
=
309
=
 40
0.2440504976851852
 41
2454316.693457674
 42
2454735.625484121
  1

 90
        0
  0
DICTIONARY
  5
185
102
{ACAD_REACTORS
330
175
102
}
330
175
100
AcDbDictionary
280
     1
281
     1
  0
DICTIONARY
  5
176
102
{ACAD_REACTORS
330
175
102
}
330
175
100
AcDbDictionary
281
     1
  3
ACAD
350
177
  0
XRECORD
  5
72A9
102
{ACAD_REACTORS
330
28B
102
}
330
28B
100
AcDbXrecord
280
     1
340
1E
  0
XRECORD
  5
72A8
102
{ACAD_REACTORS
330
28D
102
}
330
28D
100
AcDbXrecord
280
     1
340
1A
  0
LAYOUT
  5
21
102
{ACAD_XDICTIONARY
360
7354
102
}
102
{ACAD_REACTORS
330
19
102
}
330
19
100
AcDbPlotSettings
  1

  2
\\MEISEI-1\EPSON Stylus Photo EX3
  4

  6

 40
0.0
 41
0.0
 42
0.0
 43
0.0
 44
0.0
 45
0.0
 46
0.0
 47
0.0
 48
0.0
 49
0.0
140
0.0
141
0.0
142
1.0
143
1.0
 70
  1712
 72
     0
 73
     0
 74
     0
  7

 75
     0
147
1.0
148
0.0
149
0.0
100
AcDbLayout
  1
Model
 70
     1
 71
     0
 10
0.0
 20
0.0
 11
12.0
 21
9.0
 12
0.0
 22
0.0
 32
0.0
 14
0.0
 24
0.0
 34
0.0
 15
0.0
 25
0.0
 35
0.0
146
0.0
 13
0.0
 23
0.0
 33
0.0
 16
1.0
 26
0.0
 36
0.0
 17
0.0
 27
1.0
 37
0.0
 76
     0
330
1E
331
7264
  0
LAYOUT
  5
1D
102
{ACAD_XDICTIONARY
360
7352
102
}
102
{ACAD_REACTORS
330
19
102
}
330
19
100
AcDbPlotSettings
  1

  2
\\MEISEI-1\EPSON Stylus Photo EX3
  4

  6

 40
0.0
 41
0.0
 42
0.0
 43
0.0
 44
0.0
 45
0.0
 46
0.0
 47
0.0
 48
0.0
 49
0.0
140
0.0
141
0.0
142
1.0
143
1.0
 70
   688
 72
     0
 73
     0
 74
     5
  7

 75
    16
147
1.0
148
0.0
149
0.0
100
AcDbLayout
  1
ﾚｲｱｳﾄ1
 70
     1
 71
     1
 10
0.0
 20
0.0
 11
12.0
 21
9.0
 12
0.0
 22
0.0
 32
0.0
 14
1.000000000000000E+20
 24
1.000000000000000E+20
 34
1.000000000000000E+20
 15
-1.000000000000000E+20
 25
-1.000000000000000E+20
 35
-1.000000000000000E+20
146
0.0
 13
0.0
 23
0.0
 33
0.0
 16
1.0
 26
0.0
 36
0.0
 17
0.0
 27
1.0
 37
0.0
 76
     0
330
1A
  0
MATERIAL
  5
72B2
102
{ACAD_XDICTIONARY
360
7358
102
}
102
{ACAD_REACTORS
330
72B0
102
}
330
72B0
100
AcDbMaterial
  1
ByBlock
  0
MATERIAL
  5
72B1
102
{ACAD_XDICTIONARY
360
7356
102
}
102
{ACAD_REACTORS
330
72B0
102
}
330
72B0
100
AcDbMaterial
  1
ByLayer
  0
MATERIAL
  5
72B3
102
{ACAD_XDICTIONARY
360
735A
102
}
102
{ACAD_REACTORS
330
72B0
102
}
330
72B0
100
AcDbMaterial
  1
Global
  0
MLINESTYLE
  5
17
102
{ACAD_REACTORS
330
16
102
}
330
16
100
AcDbMlineStyle
  2
STANDARD
 70
     0
  3

 62
   256
 51
90.0
 52
90.0
 71
     2
 49
0.5
 62
   256
  6
BYLAYER
 49
-0.5
 62
   256
  6
BYLAYER
  0
ACDBPLACEHOLDER
  5
F
102
{ACAD_REACTORS
330
E
102
}
330
E
  0
TABLESTYLE
  5
72C7
102
{ACAD_XDICTIONARY
360
735C
102
}
102
{ACAD_REACTORS
330
72C6
102
}
330
72C6
100
AcDbTableStyle
  3
Standard
 70
     0
 71
     0
 40
0.06
 41
0.06
280
     0
281
     0
  7
STANDARD
140
0.18
170
     2
 62
     0
 63
     7
283
     0
274
    -2
284
     1
 64
     0
275
    -2
285
     1
 65
     0
276
    -2
286
     1
 66
     0
277
    -2
287
     1
 67
     0
278
    -2
288
     1
 68
     0
279
    -2
289
     1
 69
     0
  7
STANDARD
140
0.25
170
     5
 62
     0
 63
     7
283
     0
274
    -2
284
     1
 64
     0
275
    -2
285
     1
 65
     0
276
    -2
286
     1
 66
     0
277
    -2
287
     1
 67
     0
278
    -2
288
     1
 68
     0
279
    -2
289
     1
 69
     0
  7
STANDARD
140
0.18
170
     5
 62
     0
 63
     7
283
     0
274
    -2
284
     1
 64
     0
275
    -2
285
     1
 65
     0
276
    -2
286
     1
 66
     0
277
    -2
287
     1
 67
     0
278
    -2
288
     1
 68
     0
279
    -2
289
     1
 69
     0
  0
VISUALSTYLE
  5
72BA
102
{ACAD_REACTORS
330
72B4
102
}
330
72B4
100
AcDbVisualStyle
  2
2dWireframe
 70
     4
 71
     0
 72
     2
 73
     0
 90
        0
 40
-0.6
 41
-30.0
 62
     5
 63
     7
 74
     1
 91
        4
 64
     7
 65
   257
 75
     1
175
     1
 42
1.0
 92
        0
 66
   257
 43
1.0
 76
     1
 77
     6
 78
     2
 67
     7
 79
     5
170
     0
171
     0
290
     0
174
     0
 93
        1
 44
0.0
173
     0
291
     0
 45
0.0
1001
ACAD
1000
AcDbSavedByObjectVersion
1070
     0
  0
VISUALSTYLE
  5
72BC
102
{ACAD_REACTORS
330
72B4
102
}
330
72B4
100
AcDbVisualStyle
  2
3D Hidden
 70
     6
 71
     1
 72
     2
 73
     2
 90
        0
 40
-0.6
 41
-30.0
 62
     5
 63
     7
 74
     2
 91
        2
 64
     7
 65
   257
 75
     2
175
     1
 42
40.0
 92
        0
 66
   257
 43
1.0
 76
     1
 77
     6
 78
     2
 67
     7
 79
     3
170
     0
171
     0
290
     0
174
     0
 93
        1
 44
0.0
173
     0
291
     0
 45
0.0
1001
ACAD
1000
AcDbSavedByObjectVersion
1070
     0
  0
VISUALSTYLE
  5
72BB
102
{ACAD_REACTORS
330
72B4
102
}
330
72B4
100
AcDbVisualStyle
  2
3dWireframe
 70
     5
 71
     0
 72
     2
 73
     0
 90
        0
 40
-0.6
 41
-30.0
 62
     5
 63
     7
 74
     1
 91
        4
 64
     7
 65
   257
 75
     1
175
     1
 42
1.0
 92
        0
 66
   257
 43
1.0
 76
     1
 77
     6
 78
     2
 67
     7
 79
     5
170
     0
171
     0
290
     0
174
     0
 93
        1
 44
0.0
173
     0
291
     0
 45
0.0
1001
ACAD
1000
AcDbSavedByObjectVersion
1070
     0
  0
VISUALSTYLE
  5
72B9
102
{ACAD_REACTORS
330
72B4
102
}
330
72B4
100
AcDbVisualStyle
  2
Basic
 70
     7
 71
     1
 72
     0
 73
     1
 90
        0
 40
-0.6
 41
-30.0
 62
     5
 63
     7
 74
     0
 91
        4
 64
     7
 65
   257
 75
     1
175
     1
 42
1.0
 92
        8
 66
     7
 43
1.0
 76
     1
 77
     6
 78
     2
 67
     7
 79
     5
170
     0
171
     0
290
     0
174
     0
 93
        1
 44
0.0
173
     0
291
     1
 45
0.0
1001
ACAD
1000
AcDbSavedByObjectVersion
1070
     0
  0
VISUALSTYLE
  5
72C0
102
{ACAD_REACTORS
330
72B4
102
}
330
72B4
100
AcDbVisualStyle
  2
Brighten
 70
    12
 71
     2
 72
     2
 73
     0
 90
        0
 40
-0.6
 41
-30.0
 62
     5
 63
     7
 74
     1
 91
        4
 64
     7
 65
   257
 75
     1
175
     1
 42
1.0
 92
        8
 66
     7
 43
1.0
 76
     1
 77
     6
 78
     2
 67
     7
 79
     5
170
     0
171
     0
290
     0
174
     0
 93
        1
 44
50.0
173
     0
291
     1
 45
0.0
1001
ACAD
1000
AcDbSavedByObjectVersion
1070
     0
  0
VISUALSTYLE
  5
72C4
102
{ACAD_REACTORS
330
72B4
102
}
330
72B4
100
AcDbVisualStyle
  2
ColorChange
 70
    16
 71
     2
 72
     2
 73
     3
 90
        0
 40
-0.6
 41
-30.0
 62
     5
 63
     8
 74
     1
 91
        4
 64
     7
 65
   257
 75
     1
175
     1
 42
1.0
 92
        8
 66
     8
 43
1.0
 76
     1
 77
     6
 78
     2
 67
     7
 79
     5
170
     0
171
     0
290
     0
174
     0
 93
        1
 44
0.0
173
     0
291
     1
 45
0.0
1001
ACAD
1000
AcDbSavedByObjectVersion
1070
     0
  0
VISUALSTYLE
  5
72BD
102
{ACAD_REACTORS
330
72B4
102
}
330
72B4
100
AcDbVisualStyle
  2
Conceptual
 70
     9
 71
     3
 72
     2
 73
     0
 90
        0
 40
-0.6
 41
-30.0
 62
     5
 63
     7
 74
     2
 91
        2
 64
     7
 65
   257
 75
     1
175
     1
 42
40.0
 92
        8
 66
     7
 43
1.0
 76
     1
 77
     6
 78
     2
 67
     7
 79
     3
170
     0
171
     0
290
     0
174
     0
 93
        1
 44
0.0
173
     0
291
     0
 45
0.0
1001
ACAD
1000
AcDbSavedByObjectVersion
1070
     0
  0
VISUALSTYLE
  5
72BF
102
{ACAD_REACTORS
330
72B4
102
}
330
72B4
100
AcDbVisualStyle
  2
Dim
 70
    11
 71
     2
 72
     2
 73
     0
 90
        0
 40
-0.6
 41
-30.0
 62
     5
 63
     7
 74
     1
 91
        4
 64
     7
 65
   257
 75
     1
175
     1
 42
1.0
 92
        8
 66
     7
 43
1.0
 76
     1
 77
     6
 78
     2
 67
     7
 79
     5
170
     0
171
     0
290
     0
174
     0
 93
        1
 44
-50.0
173
     0
291
     1
 45
0.0
1001
ACAD
1000
AcDbSavedByObjectVersion
1070
     0
  0
VISUALSTYLE
  5
72C3
102
{ACAD_REACTORS
330
72B4
102
}
330
72B4
100
AcDbVisualStyle
  2
Facepattern
 70
    15
 71
     2
 72
     2
 73
     0
 90
        0
 40
-0.6
 41
-30.0
 62
     5
 63
     7
 74
     1
 91
        4
 64
     7
 65
   257
 75
     1
175
     1
 42
1.0
 92
        8
 66
     7
 43
1.0
 76
     1
 77
     6
 78
     2
 67
     7
 79
     5
170
     0
171
     0
290
     0
174
     0
 93
        1
 44
0.0
173
     0
291
     1
 45
0.0
1001
ACAD
1000
AcDbSavedByObjectVersion
1070
     0
  0
VISUALSTYLE
  5
72B5
102
{ACAD_REACTORS
330
72B4
102
}
330
72B4
100
AcDbVisualStyle
  2
Flat
 70
     0
 71
     2
 72
     1
 73
     1
 90
        2
 40
-0.6
 41
30.0
 62
     5
 63
     7
 74
     0
 91
        4
 64
     7
 65
   257
 75
     1
175
     1
 42
1.0
 92
        8
 66
     7
 43
1.0
 76
     1
 77
     6
 78
     2
 67
     7
 79
     5
170
     0
171
     0
290
     0
174
     0
 93
       13
 44
0.0
173
     0
291
     1
 45
0.0
1001
ACAD
1000
AcDbSavedByObjectVersion
1070
     0
  0
VISUALSTYLE
  5
72B6
102
{ACAD_REACTORS
330
72B4
102
}
330
72B4
100
AcDbVisualStyle
  2
FlatWithEdges
 70
     1
 71
     2
 72
     1
 73
     1
 90
        2
 40
-0.6
 41
30.0
 62
     5
 63
     7
 74
     1
 91
        4
 64
     7
 65
   257
 75
     1
175
     1
 42
1.0
 92
        0
 66
   257
 43
1.0
 76
     1
 77
     6
 78
     2
 67
     7
 79
     5
170
     0
171
     0
290
     0
174
     0
 93
       13
 44
0.0
173
     0
291
     1
 45
0.0
1001
ACAD
1000
AcDbSavedByObjectVersion
1070
     0
  0
VISUALSTYLE
  5
72B7
102
{ACAD_REACTORS
330
72B4
102
}
330
72B4
100
AcDbVisualStyle
  2
Gouraud
 70
     2
 71
     2
 72
     2
 73
     1
 90
        2
 40
-0.6
 41
30.0
 62
     5
 63
     7
 74
     0
 91
        4
 64
     7
 65
   257
 75
     1
175
     1
 42
1.0
 92
        0
 66
     7
 43
1.0
 76
     1
 77
     6
 78
     2
 67
     7
 79
     5
170
     0
171
     0
290
     0
174
     0
 93
       13
 44
0.0
173
     0
291
     1
 45
0.0
1001
ACAD
1000
AcDbSavedByObjectVersion
1070
     0
  0
VISUALSTYLE
  5
72B8
102
{ACAD_REACTORS
330
72B4
102
}
330
72B4
100
AcDbVisualStyle
  2
GouraudWithEdges
 70
     3
 71
     2
 72
     2
 73
     1
 90
        2
 40
-0.6
 41
30.0
 62
     5
 63
     7
 74
     1
 91
        4
 64
     7
 65
   257
 75
     1
175
     1
 42
1.0
 92
        0
 66
   257
 43
1.0
 76
     1
 77
     6
 78
     2
 67
     7
 79
     5
170
     0
171
     0
290
     0
174
     0
 93
       13
 44
0.0
173
     0
291
     1
 45
0.0
1001
ACAD
1000
AcDbSavedByObjectVersion
1070
     0
  0
VISUALSTYLE
  5
72C2
102
{ACAD_REACTORS
330
72B4
102
}
330
72B4
100
AcDbVisualStyle
  2
Linepattern
 70
    14
 71
     2
 72
     2
 73
     0
 90
        0
 40
-0.6
 41
-30.0
 62
     5
 63
     7
 74
     1
 91
        4
 64
     7
 65
   257
 75
     7
175
     7
 42
1.0
 92
        8
 66
     7
 43
1.0
 76
     1
 77
     6
 78
     2
 67
     7
 79
     5
170
     0
171
     0
290
     0
174
     0
 93
        1
 44
0.0
173
     0
291
     1
 45
0.0
1001
ACAD
1000
AcDbSavedByObjectVersion
1070
     0
  0
VISUALSTYLE
  5
72BE
102
{ACAD_REACTORS
330
72B4
102
}
330
72B4
100
AcDbVisualStyle
  2
Realistic
 70
     8
 71
     2
 72
     2
 73
     0
 90
        0
 40
-0.6
 41
-30.0
 62
     5
 63
     7
 74
     1
 91
        0
 64
     7
 65
   257
 75
     1
175
     1
 42
1.0
 92
        8
 66
     8
 43
1.0
 76
     1
 77
     6
 78
     2
 67
     7
 79
     5
170
     0
171
     0
290
     0
174
     0
 93
       13
 44
0.0
173
     0
291
     0
 45
0.0
1001
ACAD
1000
AcDbSavedByObjectVersion
1070
     0
  0
VISUALSTYLE
  5
72C1
102
{ACAD_REACTORS
330
72B4
102
}
330
72B4
100
AcDbVisualStyle
  2
Thicken
 70
    13
 71
     2
 72
     2
 73
     0
 90
        0
 40
-0.6
 41
-30.0
 62
     5
 63
     7
 74
     1
 91
        4
 64
     7
 65
   257
 75
     1
175
     1
 42
1.0
 92
       12
 66
     7
 43
1.0
 76
     1
 77
     6
 78
     2
 67
     7
 79
     5
170
     0
171
     0
290
     0
174
     0
 93
        1
 44
0.0
173
     0
291
     1
 45
0.0
1001
ACAD
1000
AcDbSavedByObjectVersion
1070
     0
  0
DICTIONARYVAR
  5
7348
102
{ACAD_REACTORS
330
169
102
}
330
169
100
DictionaryVariables
280
     0
  1
STANDARD
  0
DICTIONARYVAR
  5
16A
102
{ACAD_REACTORS
330
169
102
}
330
169
100
DictionaryVariables
280
     0
  1
1
  0
DICTIONARYVAR
  5
734A
102
{ACAD_REACTORS
330
169
102
}
330
169
100
DictionaryVariables
280
     0
  1
0
  0
DICTIONARYVAR
  5
7349
102
{ACAD_REACTORS
330
169
102
}
330
169
100
DictionaryVariables
280
     0
  1
127
  0
XRECORD
  5
177
102
{ACAD_REACTORS
330
176
102
}
330
176
100
AcDbXrecord
280
     1
 91
      476
330
179
 90
        8
 62
     7
370
    -3
331
15
  1
Color_7
330
128
 90
        0
 62
     7
370
    -3
331
15
  1
Color_7
330
10
 90
        8
 62
     7
370
    -3
331
15
  1
Color_7
  0
DICTIONARY
  5
7354
330
21
100
AcDbDictionary
280
     1
281
     1
  3
ACAD_XREC_ROUNDTRIP
360
7355
  0
DICTIONARY
  5
7352
330
1D
100
AcDbDictionary
280
     1
281
     1
  3
ACAD_XREC_ROUNDTRIP
360
7353
  0
DICTIONARY
  5
7358
330
72B2
100
AcDbDictionary
280
     1
281
     1
  3
ACAD_XREC_ROUNDTRIP
360
7359
  0
DICTIONARY
  5
7356
330
72B1
100
AcDbDictionary
280
     1
281
     1
  3
ACAD_XREC_ROUNDTRIP
360
7357
  0
DICTIONARY
  5
735A
330
72B3
100
AcDbDictionary
280
     1
281
     1
  3
ACAD_XREC_ROUNDTRIP
360
735B
  0
DICTIONARY
  5
735C
330
72C7
100
AcDbDictionary
280
     1
281
     1
  3
ACAD_XREC_ROUNDTRIP
360
735D
  0
XRECORD
  5
7355
102
{ACAD_REACTORS
330
7354
102
}
330
7354
100
AcDbXrecord
280
     1
102
SHADEPLOT
 70
     0
102
SHADEPLOTRESLEVEL
 70
     2
102
SHADEPLOTCUSTOMDPI
 70
   300
  0
XRECORD
  5
7353
102
{ACAD_REACTORS
330
7352
102
}
330
7352
100
AcDbXrecord
280
     1
102
SHADEPLOT
 70
     0
102
SHADEPLOTRESLEVEL
 70
     2
102
SHADEPLOTCUSTOMDPI
 70
   300
  0
XRECORD
  5
7359
102
{ACAD_REACTORS
330
7358
102
}
330
7358
100
AcDbXrecord
280
     1
102
MATERIAL
148
0.0
149
0.0
149
0.0
 93
        0
 94
       63
282
     0
 72
     1
 77
     1
171
     1
175
     1
179
     1
273
     0
  0
XRECORD
  5
7357
102
{ACAD_REACTORS
330
7356
102
}
330
7356
100
AcDbXrecord
280
     1
102
MATERIAL
148
0.0
149
0.0
149
0.0
 93
        0
 94
       63
282
     0
 72
     1
 77
     1
171
     1
175
     1
179
     1
273
     0
  0
XRECORD
  5
735B
102
{ACAD_REACTORS
330
735A
102
}
330
735A
100
AcDbXrecord
280
     1
102
MATERIAL
148
0.0
149
0.0
149
0.0
 93
        0
 94
       63
282
     0
 72
     1
 77
     1
171
     1
175
     1
179
     1
273
     0
  0
XRECORD
  5
735D
102
{ACAD_REACTORS
330
735C
102
}
330
735C
100
AcDbXrecord
280
     1
102
ACAD_ROUNDTRIP_PRE2007_TABLESTYLE
 90
      512
 91
        0
  1

 92
      512
 93
        0
  2

 94
      512
 95
        0
  3

  0
ENDSEC
  0
EOF
