  0
SECTION
  2
HEADER
  9
$ACADVER
  1
AC1015
  9
$ACADMAINTVER
 70
    20
  9
$DWGCODEPAGE
  3
ANSI_932
  9
$INSBASE
 10
0.0
 20
0.0
 30
0.0
  9
$EXTMIN
 10
138.6979127662204
 20
118.4539602988462
 30
0.0
  9
$EXTMAX
 10
356.0514157662202
 20
211.9539602988461
 30
0.0
  9
$LIMMIN
 10
0.0
 20
0.0
  9
$LIMMAX
 10
420.0
 20
297.0
  9
$ORTHOMODE
 70
     0
  9
$REGENMODE
 70
     1
  9
$FILLMODE
 70
     1
  9
$QTEXTMODE
 70
     0
  9
$MIRRTEXT
 70
     1
  9
$LTSCALE
 40
1.0
  9
$ATTMODE
 70
     1
  9
$TEXTSIZE
 40
5.0
  9
$TRACEWID
 40
0.05
  9
$TEXTSTYLE
  7
ACAD
  9
$CLAYER
  8
0
  9
$CELTYPE
  6
CONTINUOUS
  9
$CECOLOR
 62
     4
  9
$CELTSCALE
 40
1.0
  9
$DISPSILH
 70
     0
  9
$DIMSCALE
 40
1.0
  9
$DIMASZ
 40
1.0
  9
$DIMEXO
 40
0.0
  9
$DIMDLI
 40
0.38
  9
$DIMRND
 40
0.0
  9
$DIMDLE
 40
0.0
  9
$DIMEXE
 40
0.0
  9
$DIMTP
 40
0.0
  9
$DIMTM
 40
0.0
  9
$DIMTXT
 40
3.0
  9
$DIMCEN
 40
0.09
  9
$DIMTSZ
 40
0.0
  9
$DIMTOL
 70
     0
  9
$DIMLIM
 70
     0
  9
$DIMTIH
 70
     0
  9
$DIMTOH
 70
     1
  9
$DIMSE1
 70
     0
  9
$DIMSE2
 70
     0
  9
$DIMTAD
 70
     1
  9
$DIMZIN
 70
     0
  9
$DIMBLK
  1
Dot
  9
$DIMASO
 70
     1
  9
$DIMSHO
 70
     1
  9
$DIMPOST
  1

  9
$DIMAPOST
  1

  9
$DIMALT
 70
     0
  9
$DIMALTD
 70
     2
  9
$DIMALTF
 40
25.4
  9
$DIMLFAC
 40
1.0
  9
$DIMTOFL
 70
     0
  9
$DIMTVP
 40
0.0
  9
$DIMTIX
 70
     1
  9
$DIMSOXD
 70
     0
  9
$DIMSAH
 70
     0
  9
$DIMBLK1
  1

  9
$DIMBLK2
  1

  9
$DIMSTYLE
  2
AutoCAD
  9
$DIMCLRD
 70
     4
  9
$DIMCLRE
 70
     4
  9
$DIMCLRT
 70
     3
  9
$DIMTFAC
 40
1.0
  9
$DIMGAP
 40
1.0
  9
$DIMJUST
 70
     0
  9
$DIMSD1
 70
     0
  9
$DIMSD2
 70
     0
  9
$DIMTOLJ
 70
     1
  9
$DIMTZIN
 70
     0
  9
$DIMALTZ
 70
     0
  9
$DIMALTTZ
 70
     0
  9
$DIMUPT
 70
     0
  9
$DIMDEC
 70
     0
  9
$DIMTDEC
 70
     0
  9
$DIMALTU
 70
     2
  9
$DIMALTTD
 70
     2
  9
$DIMTXSTY
  7
ACAD
  9
$DIMAUNIT
 70
     0
  9
$DIMADEC
 70
     0
  9
$DIMALTRND
 40
0.0
  9
$DIMAZIN
 70
     0
  9
$DIMDSEP
 70
    46
  9
$DIMATFIT
 70
     0
  9
$DIMFRAC
 70
     0
  9
$DIMLDRBLK
  1
None
  9
$DIMLUNIT
 70
     2
  9
$DIMLWD
 70
    -2
  9
$DIMLWE
 70
    -2
  9
$DIMTMOVE
 70
     0
  9
$LUNITS
 70
     2
  9
$LUPREC
 70
     4
  9
$SKETCHINC
 40
0.1
  9
$FILLETRAD
 40
0.0
  9
$AUNITS
 70
     0
  9
$AUPREC
 70
     0
  9
$MENU
  1
.
  9
$ELEVATION
 40
0.0
  9
$PELEVATION
 40
0.0
  9
$THICKNESS
 40
0.0
  9
$LIMCHECK
 70
     0
  9
$CHAMFERA
 40
0.0
  9
$CHAMFERB
 40
0.0
  9
$CHAMFERC
 40
0.0
  9
$CHAMFERD
 40
0.0
  9
$SKPOLY
 70
     0
  9
$TDCREATE
 40
2454316.693457674
  9
$TDUCREATE
 40
2454316.318457674
  9
$TDUPDATE
 40
2454735.624939954
  9
$TDUUPDATE
 40
2454735.249939954
  9
$TDINDWG
 40
0.2512562616
  9
$TDUSRTIMER
 40
0.2512562616
  9
$USRTIMER
 70
     1
  9
$ANGBASE
 50
0.0
  9
$ANGDIR
 70
     0
  9
$PDMODE
 70
     0
  9
$PDSIZE
 40
0.0
  9
$PLINEWID
 40
0.0
  9
$SPLFRAME
 70
     0
  9
$SPLINETYPE
 70
     6
  9
$SPLINESEGS
 70
     8
  9
$HANDSEED
  5
75DF
  9
$SURFTAB1
 70
     6
  9
$SURFTAB2
 70
     6
  9
$SURFTYPE
 70
     6
  9
$SURFU
 70
     6
  9
$SURFV
 70
     6
  9
$UCSBASE
  2

  9
$UCSNAME
  2

  9
$UCSORG
 10
0.0
 20
0.0
 30
0.0
  9
$UCSXDIR
 10
1.0
 20
0.0
 30
0.0
  9
$UCSYDIR
 10
0.0
 20
1.0
 30
0.0
  9
$UCSORTHOREF
  2

  9
$UCSORTHOVIEW
 70
     0
  9
$UCSORGTOP
 10
0.0
 20
0.0
 30
0.0
  9
$UCSORGBOTTOM
 10
0.0
 20
0.0
 30
0.0
  9
$UCSORGLEFT
 10
0.0
 20
0.0
 30
0.0
  9
$UCSORGRIGHT
 10
0.0
 20
0.0
 30
0.0
  9
$UCSORGFRONT
 10
0.0
 20
0.0
 30
0.0
  9
$UCSORGBACK
 10
0.0
 20
0.0
 30
0.0
  9
$PUCSBASE
  2

  9
$PUCSNAME
  2

  9
$PUCSORG
 10
0.0
 20
0.0
 30
0.0
  9
$PUCSXDIR
 10
1.0
 20
0.0
 30
0.0
  9
$PUCSYDIR
 10
0.0
 20
1.0
 30
0.0
  9
$PUCSORTHOREF
  2

  9
$PUCSORTHOVIEW
 70
     0
  9
$PUCSORGTOP
 10
0.0
 20
0.0
 30
0.0
  9
$PUCSORGBOTTOM
 10
0.0
 20
0.0
 30
0.0
  9
$PUCSORGLEFT
 10
0.0
 20
0.0
 30
0.0
  9
$PUCSORGRIGHT
 10
0.0
 20
0.0
 30
0.0
  9
$PUCSORGFRONT
 10
0.0
 20
0.0
 30
0.0
  9
$PUCSORGBACK
 10
0.0
 20
0.0
 30
0.0
  9
$USERI1
 70
     0
  9
$USERI2
 70
     0
  9
$USERI3
 70
     0
  9
$USERI4
 70
     0
  9
$USERI5
 70
     0
  9
$USERR1
 40
0.0
  9
$USERR2
 40
0.0
  9
$USERR3
 40
0.0
  9
$USERR4
 40
0.0
  9
$USERR5
 40
0.0
  9
$WORLDVIEW
 70
     1
  9
$SHADEDGE
 70
     3
  9
$SHADEDIF
 70
    70
  9
$TILEMODE
 70
     1
  9
$MAXACTVP
 70
    48
  9
$PINSBASE
 10
0.0
 20
0.0
 30
0.0
  9
$PLIMCHECK
 70
     0
  9
$PEXTMIN
 10
1.000000000000000E+20
 20
1.000000000000000E+20
 30
1.000000000000000E+20
  9
$PEXTMAX
 10
-1.000000000000000E+20
 20
-1.000000000000000E+20
 30
-1.000000000000000E+20
  9
$PLIMMIN
 10
0.0
 20
0.0
  9
$PLIMMAX
 10
12.0
 20
9.0
  9
$UNITMODE
 70
     0
  9
$VISRETAIN
 70
     0
  9
$PLINEGEN
 70
     0
  9
$PSLTSCALE
 70
     1
  9
$TREEDEPTH
 70
  3020
  9
$CMLSTYLE
  2
Standard
  9
$CMLJUST
 70
     0
  9
$CMLSCALE
 40
1.0
  9
$PROXYGRAPHICS
 70
     1
  9
$MEASUREMENT
 70
     0
  9
$CELWEIGHT
370
    -1
  9
$ENDCAPS
280
     0
  9
$JOINSTYLE
280
     0
  9
$LWDISPLAY
290
     0
  9
$INSUNITS
 70
     0
  9
$HYPERLINKBASE
  1

  9
$STYLESHEET
  1

  9
$XEDIT
290
     1
  9
$CEPSNTYPE
380
     0
  9
$PSTYLEMODE
290
     1
  9
$FINGERPRINTGUID
  2
{CC7D6DEE-A9F1-4F3E-AC95-C84B62CCA3FD}
  9
$VERSIONGUID
  2
{97354D53-52AB-492E-B44D-069D59A7D90A}
  9
$EXTNAMES
290
     1
  9
$PSVPSCALE
 40
0.0
  9
$OLESTARTUP
290
     0
  0
ENDSEC
  0
SECTION
  2
CLASSES
  0
CLASS
  1
ACDBDICTIONARYWDFLT
  2
AcDbDictionaryWithDefault
  3
ObjectDBX Classes
 90
        0
280
     0
281
     0
  0
CLASS
  1
ACDBPLACEHOLDER
  2
AcDbPlaceHolder
  3
ObjectDBX Classes
 90
        0
280
     0
281
     0
  0
CLASS
  1
LAYOUT
  2
AcDbLayout
  3
ObjectDBX Classes
 90
        0
280
     0
281
     0
  0
CLASS
  1
DICTIONARYVAR
  2
AcDbDictionaryVar
  3
ObjectDBX Classes
 90
        0
280
     0
281
     0
  0
CLASS
  1
MATERIAL
  2
AcDbMaterial
  3
ObjectDBX Classes
 90
     1153
280
     0
281
     0
  0
CLASS
  1
VISUALSTYLE
  2
AcDbVisualStyle
  3
ObjectDBX Classes
 90
     4095
280
     0
281
     0
  0
CLASS
  1
TABLESTYLE
  2
AcDbTableStyle
  3
ObjectDBX Classes
 90
     4095
280
     0
281
     0
  0
ENDSEC
  0
SECTION
  2
TABLES
  0
TABLE
  2
VPORT
  5
8
102
{ACAD_XDICTIONARY
360
75B1
102
}
330
0
100
AcDbSymbolTable
 70
     1
  0
VPORT
  5
736C
330
8
100
AcDbSymbolTableRecord
100
AcDbViewportTableRecord
  2
*Active
 70
     0
 10
0.0
 20
0.0
 11
1.0
 21
1.0
 12
247.3626719198221
 22
165.2112357573482
 13
0.0
 23
0.0
 14
1.0
 24
1.0
 15
0.0
 25
0.0
 16
0.0
 26
0.0
 36
1.0
 17
0.0
 27
0.0
 37
0.0
 40
139.004829724619
 41
1.571614583333333
 42
50.0
 43
0.0
 44
0.0
 50
0.0
 51
0.0
 71
     0
 72
   100
 73
     1
 74
     1
 75
     0
 76
     0
 77
     0
 78
     0
281
     0
 65
     1
110
0.0
120
0.0
130
0.0
111
1.0
121
0.0
131
0.0
112
0.0
122
1.0
132
0.0
 79
     0
146
0.0
  0
ENDTAB
  0
TABLE
  2
LTYPE
  5
5
330
0
100
AcDbSymbolTable
 70
    50
  0
LTYPE
  5
13
330
5
100
AcDbSymbolTableRecord
100
AcDbLinetypeTableRecord
  2
ByBlock
 70
     0
  3

 72
    65
 73
     0
 40
0.0
  0
LTYPE
  5
14
330
5
100
AcDbSymbolTableRecord
100
AcDbLinetypeTableRecord
  2
ByLayer
 70
     0
  3

 72
    65
 73
     0
 40
0.0
  0
LTYPE
  5
15
330
5
100
AcDbSymbolTableRecord
100
AcDbLinetypeTableRecord
  2
CONTINUOUS
 70
     0
  3
実線
 72
    65
 73
     0
 40
0.0
  0
LTYPE
  5
22
330
5
100
AcDbSymbolTableRecord
100
AcDbLinetypeTableRecord
  2
DASHED1
 70
     0
  3
--  --  --  --  --  --  --  --  
 72
    65
 73
     2
 40
2.5
 49
1.25
 74
     0
 49
-1.25
 74
     0
  0
LTYPE
  5
23
330
5
100
AcDbSymbolTableRecord
100
AcDbLinetypeTableRecord
  2
DASHED2
 70
     0
  3
----    ----    ----    ----    
 72
    65
 73
     2
 40
5.0
 49
2.5
 74
     0
 49
-2.5
 74
     0
  0
LTYPE
  5
24
330
5
100
AcDbSymbolTableRecord
100
AcDbLinetypeTableRecord
  2
DASHED3
 70
     0
  3
------  ------  ------  ------  
 72
    65
 73
     2
 40
5.0
 49
3.75
 74
     0
 49
-1.25
 74
     0
  0
LTYPE
  5
25
330
5
100
AcDbSymbolTableRecord
100
AcDbLinetypeTableRecord
  2
CENTER1
 70
     0
  3
----- - ----- - ----- - ----- - 
 72
    65
 73
     4
 40
10.0
 49
6.25
 74
     0
 49
-1.25
 74
     0
 49
1.25
 74
     0
 49
-1.25
 74
     0
  0
LTYPE
  5
26
330
5
100
AcDbSymbolTableRecord
100
AcDbLinetypeTableRecord
  2
CENTER2
 70
     0
  3
----------  --  ----------  --  
 72
    65
 73
     4
 40
20.0
 49
12.5
 74
     0
 49
-2.5
 74
     0
 49
2.5
 74
     0
 49
-2.5
 74
     0
  0
LTYPE
  5
27
330
5
100
AcDbSymbolTableRecord
100
AcDbLinetypeTableRecord
  2
PHANTOM1
 70
     0
  3
--- - - --- - - --- - - --- - - 
 72
    65
 73
     6
 40
10.0
 49
3.25
 74
     0
 49
-1.25
 74
     0
 49
1.25
 74
     0
 49
-1.25
 74
     0
 49
1.25
 74
     0
 49
-1.25
 74
     0
  0
LTYPE
  5
28
330
5
100
AcDbSymbolTableRecord
100
AcDbLinetypeTableRecord
  2
PHANTOM2
 70
     0
  3
--------  -  -  --------  -  -  
 72
    65
 73
     6
 40
20.0
 49
10.0
 74
     0
 49
-2.5
 74
     0
 49
1.25
 74
     0
 49
-2.5
 74
     0
 49
1.25
 74
     0
 49
-2.5
 74
     0
  0
LTYPE
  5
29
330
5
100
AcDbSymbolTableRecord
100
AcDbLinetypeTableRecord
  2
DOT
 70
     0
  3
-   -   -   -   -   -   -   -   
 72
    65
 73
     2
 40
2.5
 49
0.625
 74
     0
 49
-1.875
 74
     0
  0
LTYPE
  5
2A
330
5
100
AcDbSymbolTableRecord
100
AcDbLinetypeTableRecord
  2
DUMMY
 70
     0
  3
ダミー
 72
    65
 73
     0
 40
0.0
  0
LTYPE
  5
2B
330
5
100
AcDbSymbolTableRecord
100
AcDbLinetypeTableRecord
  2
RAND1
 70
     0
  3
ランダム線1
 72
    65
 73
     4
 40
10.0
 49
1.0
 74
     0
 49
-2.0
 74
     0
 49
3.0
 74
     0
 49
-4.0
 74
     0
  0
LTYPE
  5
2C
330
5
100
AcDbSymbolTableRecord
100
AcDbLinetypeTableRecord
  2
RAND2
 70
     0
  3
ランダム線2
 72
    65
 73
     4
 40
14.0
 49
2.0
 74
     0
 49
-3.0
 74
     0
 49
4.0
 74
     0
 49
-5.0
 74
     0
  0
LTYPE
  5
2D
330
5
100
AcDbSymbolTableRecord
100
AcDbLinetypeTableRecord
  2
RAND3
 70
     0
  3
ランダム線3
 72
    65
 73
     4
 40
18.0
 49
3.0
 74
     0
 49
-4.0
 74
     0
 49
5.0
 74
     0
 49
-6.0
 74
     0
  0
LTYPE
  5
2E
330
5
100
AcDbSymbolTableRecord
100
AcDbLinetypeTableRecord
  2
RAND4
 70
     0
  3
ランダム線4
 72
    65
 73
     4
 40
22.0
 49
4.0
 74
     0
 49
-5.0
 74
     0
 49
6.0
 74
     0
 49
-7.0
 74
     0
  0
LTYPE
  5
2F
330
5
100
AcDbSymbolTableRecord
100
AcDbLinetypeTableRecord
  2
RAND5
 70
     0
  3
ランダム線5
 72
    65
 73
     4
 40
26.0
 49
5.0
 74
     0
 49
-6.0
 74
     0
 49
7.0
 74
     0
 49
-8.0
 74
     0
  0
LTYPE
  5
30
330
5
100
AcDbSymbolTableRecord
100
AcDbLinetypeTableRecord
  2
LONG1
 70
     0
  3
----------  --  ----------  --  
 72
    65
 73
     4
 40
40.0
 49
32.5
 74
     0
 49
-2.5
 74
     0
 49
2.5
 74
     0
 49
-2.5
 74
     0
  0
LTYPE
  5
31
330
5
100
AcDbSymbolTableRecord
100
AcDbLinetypeTableRecord
  2
LONG2
 70
     0
  3
--------  -  -  --------  -  -  
 72
    65
 73
     6
 40
40.0
 49
30.0
 74
     0
 49
-2.5
 74
     0
 49
1.25
 74
     0
 49
-2.5
 74
     0
 49
1.25
 74
     0
 49
-2.5
 74
     0
  0
LTYPE
  5
32
330
5
100
AcDbSymbolTableRecord
100
AcDbLinetypeTableRecord
  2
LONG3
 70
     0
  3
+++++++++++++++..+++++++++++++++
 72
    65
 73
     2
 40
40.0
 49
37.5
 74
     0
 49
-2.5
 74
     0
  0
LTYPE
  5
33
330
5
100
AcDbSymbolTableRecord
100
AcDbLinetypeTableRecord
  2
LONG4
 70
     0
  3
+++++++++++++++..+++++++++++++++
 72
    65
 73
     2
 40
80.0
 49
75.0
 74
     0
 49
-5.0
 74
     0
  0
LTYPE
  5
34
330
5
100
AcDbSymbolTableRecord
100
AcDbLinetypeTableRecord
  2
LONG5
 70
     0
  3
----------  --  ----------  --  
 72
    65
 73
     4
 40
60.0
 49
37.5
 74
     0
 49
-7.5
 74
     0
 49
7.5
 74
     0
 49
-7.5
 74
     0
  0
LTYPE
  5
35
330
5
100
AcDbSymbolTableRecord
100
AcDbLinetypeTableRecord
  2
DASHED
 70
     0
  3
-------   -------------   ------
 72
    65
 73
     2
 40
7.5
 49
6.0
 74
     0
 49
-1.5
 74
     0
  0
LTYPE
  5
36
330
5
100
AcDbSymbolTableRecord
100
AcDbLinetypeTableRecord
  2
DASHED_SPACED
 70
     0
  3
----        --------        ----
 72
    65
 73
     2
 40
12.0
 49
6.0
 74
     0
 49
-6.0
 74
     0
  0
LTYPE
  5
37
330
5
100
AcDbSymbolTableRecord
100
AcDbLinetypeTableRecord
  2
LONG_DASHED_DOTTED
 70
     0
  3
------------- --- --------------
 72
    65
 73
     4
 40
15.25
 49
12.0
 74
     0
 49
-1.5
 74
     0
 49
0.25
 74
     0
 49
-1.5
 74
     0
  0
LTYPE
  5
38
330
5
100
AcDbSymbolTableRecord
100
AcDbLinetypeTableRecord
  2
LONG_DASHED_DOUBLE-DOTTED
 70
     0
  3
----------- --- --- ------------
 72
    65
 73
     6
 40
17.0
 49
12.0
 74
     0
 49
-1.5
 74
     0
 49
0.25
 74
     0
 49
-1.5
 74
     0
 49
0.25
 74
     0
 49
-1.5
 74
     0
  0
LTYPE
  5
39
330
5
100
AcDbSymbolTableRecord
100
AcDbLinetypeTableRecord
  2
LONG_DASHED_TRIPLICATE-DOTTED
 70
     0
  3
--------- --- --- --- ----------
 72
    65
 73
     8
 40
18.75
 49
12.0
 74
     0
 49
-1.5
 74
     0
 49
0.25
 74
     0
 49
-1.5
 74
     0
 49
0.25
 74
     0
 49
-1.5
 74
     0
 49
0.25
 74
     0
 49
-1.5
 74
     0
  0
LTYPE
  5
3A
330
5
100
AcDbSymbolTableRecord
100
AcDbLinetypeTableRecord
  2
DOTTED
 70
     0
  3
   -       -       -       -    
 72
    65
 73
     2
 40
1.75
 49
0.25
 74
     0
 49
-1.5
 74
     0
  0
LTYPE
  5
3B
330
5
100
AcDbSymbolTableRecord
100
AcDbLinetypeTableRecord
  2
CHAIN
 70
     0
  3
-------------- -- --------------
 72
    65
 73
     4
 40
18.5
 49
12.0
 74
     0
 49
-1.5
 74
     0
 49
3.5
 74
     0
 49
-1.5
 74
     0
  0
LTYPE
  5
3C
330
5
100
AcDbSymbolTableRecord
100
AcDbLinetypeTableRecord
  2
CHAIN_DOUBLE_DASH
 70
     0
  3
------------ -- -- -------------
 72
    65
 73
     6
 40
23.5
 49
12.0
 74
     0
 49
-1.5
 74
     0
 49
3.5
 74
     0
 49
-1.5
 74
     0
 49
3.5
 74
     0
 49
-1.5
 74
     0
  0
LTYPE
  5
3D
330
5
100
AcDbSymbolTableRecord
100
AcDbLinetypeTableRecord
  2
DASHED_DOTTED
 70
     0
  3
-----------     -     ----------
 72
    65
 73
     4
 40
9.25
 49
6.0
 74
     0
 49
-1.5
 74
     0
 49
0.25
 74
     0
 49
-1.5
 74
     0
  0
LTYPE
  5
3E
330
5
100
AcDbSymbolTableRecord
100
AcDbLinetypeTableRecord
  2
DOUBLE-DASHED_DOTTED
 70
     0
  3
------   -----------   -   -----
 72
    65
 73
     6
 40
16.75
 49
6.0
 74
     0
 49
-1.5
 74
     0
 49
6.0
 74
     0
 49
-1.5
 74
     0
 49
0.25
 74
     0
 49
-1.5
 74
     0
  0
LTYPE
  5
3F
330
5
100
AcDbSymbolTableRecord
100
AcDbLinetypeTableRecord
  2
DASHED_DOUBLE-DOTTED
 70
     0
  3
---------    -    -    ---------
 72
    65
 73
     6
 40
11.0
 49
6.0
 74
     0
 49
-1.5
 74
     0
 49
0.25
 74
     0
 49
-1.5
 74
     0
 49
0.25
 74
     0
 49
-1.5
 74
     0
  0
LTYPE
  5
40
330
5
100
AcDbSymbolTableRecord
100
AcDbLinetypeTableRecord
  2
DOUBLE-DASHED_DOUBLE-DOTTED
 70
     0
  3
-----   ---------   -   -   ----
 72
    65
 73
     8
 40
18.5
 49
6.0
 74
     0
 49
-1.5
 74
     0
 49
6.0
 74
     0
 49
-1.5
 74
     0
 49
0.25
 74
     0
 49
-1.5
 74
     0
 49
0.25
 74
     0
 49
-1.5
 74
     0
  0
LTYPE
  5
41
330
5
100
AcDbSymbolTableRecord
100
AcDbLinetypeTableRecord
  2
DASHED_TRIPLICATE-DOTTED
 70
     0
  3
-------    -    -    -    ------
 72
    65
 73
     8
 40
12.75
 49
6.0
 74
     0
 49
-1.5
 74
     0
 49
0.25
 74
     0
 49
-1.5
 74
     0
 49
0.25
 74
     0
 49
-1.5
 74
     0
 49
0.25
 74
     0
 49
-1.5
 74
     0
  0
LTYPE
  5
42
330
5
100
AcDbSymbolTableRecord
100
AcDbLinetypeTableRecord
  2
DOUBLE-DASHED_TRIPLICATE-DOTTED
 70
     0
  3
-----  ---------  -  -  -  -----
 72
    65
 73
    10
 40
20.25
 49
6.0
 74
     0
 49
-1.5
 74
     0
 49
6.0
 74
     0
 49
-1.5
 74
     0
 49
0.25
 74
     0
 49
-1.5
 74
     0
 49
0.25
 74
     0
 49
-1.5
 74
     0
 49
0.25
 74
     0
 49
-1.5
 74
     0
  0
LTYPE
  5
43
330
5
100
AcDbSymbolTableRecord
100
AcDbLinetypeTableRecord
  2
UNDEFINED
 70
     0
  3
--------------------------------
 72
    65
 73
     0
 40
0.0
  0
LTYPE
  5
44
330
5
100
AcDbSymbolTableRecord
100
AcDbLinetypeTableRecord
  2
PLINE2
 70
     0
  3
------     -----------     -----
 72
    65
 73
     2
 40
3.0
 49
2.1
 74
     0
 49
-0.9
 74
     0
  0
LTYPE
  5
45
330
5
100
AcDbSymbolTableRecord
100
AcDbLinetypeTableRecord
  2
PLINE3
 70
     0
  3
------------   ---   -----------
 72
    65
 73
     4
 40
10.0
 49
7.0
 74
     0
 49
-1.0
 74
     0
 49
1.0
 74
     0
 49
-1.0
 74
     0
  0
LTYPE
  5
46
330
5
100
AcDbSymbolTableRecord
100
AcDbLinetypeTableRecord
  2
PLINE4
 70
     0
  3
---------   ---   ---   --------
 72
    65
 73
     6
 40
10.0
 49
5.0
 74
     0
 49
-1.0
 74
     0
 49
1.0
 74
     0
 49
-1.0
 74
     0
 49
1.0
 74
     0
 49
-1.0
 74
     0
  0
LTYPE
  5
47
330
5
100
AcDbSymbolTableRecord
100
AcDbLinetypeTableRecord
  2
PLINE5
 70
     0
  3
------     -----------     -----
 72
    65
 73
     2
 40
5.0
 49
3.5
 74
     0
 49
-1.5
 74
     0
  0
LTYPE
  5
48
330
5
100
AcDbSymbolTableRecord
100
AcDbLinetypeTableRecord
  2
PLINE6
 70
     0
  3
------------   ---   -----------
 72
    65
 73
     4
 40
15.0
 49
10.5
 74
     0
 49
-1.5
 74
     0
 49
1.5
 74
     0
 49
-1.5
 74
     0
  0
LTYPE
  5
49
330
5
100
AcDbSymbolTableRecord
100
AcDbLinetypeTableRecord
  2
PLINE7
 70
     0
  3
---------   ---   ---   --------
 72
    65
 73
     6
 40
15.0
 49
7.5
 74
     0
 49
-1.5
 74
     0
 49
1.5
 74
     0
 49
-1.5
 74
     0
 49
1.5
 74
     0
 49
-1.5
 74
     0
  0
LTYPE
  5
4A
330
5
100
AcDbSymbolTableRecord
100
AcDbLinetypeTableRecord
  2
PLINE8
 70
     0
  3
------     -----------     -----
 72
    65
 73
     2
 40
7.0
 49
4.9
 74
     0
 49
-2.1
 74
     0
  0
LTYPE
  5
4B
330
5
100
AcDbSymbolTableRecord
100
AcDbLinetypeTableRecord
  2
PLINE9
 70
     0
  3
------------   ---   -----------
 72
    65
 73
     4
 40
20.0
 49
14.0
 74
     0
 49
-2.0
 74
     0
 49
2.0
 74
     0
 49
-2.0
 74
     0
  0
LTYPE
  5
4C
330
5
100
AcDbSymbolTableRecord
100
AcDbLinetypeTableRecord
  2
PLINE10
 70
     0
  3
---------   ---   ---   --------
 72
    65
 73
     6
 40
20.0
 49
10.0
 74
     0
 49
-2.0
 74
     0
 49
2.0
 74
     0
 49
-2.0
 74
     0
 49
2.0
 74
     0
 49
-2.0
 74
     0
  0
LTYPE
  5
4D
330
5
100
AcDbSymbolTableRecord
100
AcDbLinetypeTableRecord
  2
PLINE11
 70
     0
  3
------     -----------     -----
 72
    65
 73
     2
 40
9.0
 49
6.299999999999999
 74
     0
 49
-2.7
 74
     0
  0
LTYPE
  5
4E
330
5
100
AcDbSymbolTableRecord
100
AcDbLinetypeTableRecord
  2
PLINE12
 70
     0
  3
------------   ---   -----------
 72
    65
 73
     4
 40
25.0
 49
17.5
 74
     0
 49
-2.5
 74
     0
 49
2.5
 74
     0
 49
-2.5
 74
     0
  0
LTYPE
  5
4F
330
5
100
AcDbSymbolTableRecord
100
AcDbLinetypeTableRecord
  2
PLINE13
 70
     0
  3
---------   ---   ---   --------
 72
    65
 73
     6
 40
25.0
 49
12.5
 74
     0
 49
-2.5
 74
     0
 49
2.5
 74
     0
 49
-2.5
 74
     0
 49
2.5
 74
     0
 49
-2.5
 74
     0
  0
LTYPE
  5
50
330
5
100
AcDbSymbolTableRecord
100
AcDbLinetypeTableRecord
  2
PLINE14
 70
     0
  3
------     -----------     -----
 72
    65
 73
     2
 40
11.0
 49
7.7
 74
     0
 49
-3.299999999999999
 74
     0
  0
LTYPE
  5
51
330
5
100
AcDbSymbolTableRecord
100
AcDbLinetypeTableRecord
  2
PLINE15
 70
     0
  3
------------   ---   -----------
 72
    65
 73
     4
 40
30.0
 49
21.0
 74
     0
 49
-3.0
 74
     0
 49
3.0
 74
     0
 49
-3.0
 74
     0
  0
LTYPE
  5
52
330
5
100
AcDbSymbolTableRecord
100
AcDbLinetypeTableRecord
  2
PLINE16
 70
     0
  3
---------   ---   ---   --------
 72
    65
 73
     6
 40
30.0
 49
15.0
 74
     0
 49
-3.0
 74
     0
 49
3.0
 74
     0
 49
-3.0
 74
     0
 49
3.0
 74
     0
 49
-3.0
 74
     0
  0
ENDTAB
  0
TABLE
  2
LAYER
  5
2
102
{ACAD_XDICTIONARY
360
175
102
}
330
0
100
AcDbSymbolTable
 70
     5
  0
LAYER
  5
10
330
2
100
AcDbSymbolTableRecord
100
AcDbLayerTableRecord
  2
0
 70
     0
 62
     7
  6
CONTINUOUS
370
    -3
390
F
  0
LAYER
  5
128
330
2
100
AcDbSymbolTableRecord
100
AcDbLayerTableRecord
  2
Defpoints
 70
     0
 62
     7
  6
CONTINUOUS
290
     0
370
    -3
390
F
  0
LAYER
  5
179
330
2
100
AcDbSymbolTableRecord
100
AcDbLayerTableRecord
  2
製品
 70
     0
 62
     7
  6
CONTINUOUS
370
    -3
390
F
  0
LAYER
  5
6BAC
330
2
100
AcDbSymbolTableRecord
100
AcDbLayerTableRecord
  2
寸法
 70
     0
 62
     7
  6
CONTINUOUS
370
    -3
390
F
  0
LAYER
  5
6BAD
330
2
100
AcDbSymbolTableRecord
100
AcDbLayerTableRecord
  2
図面枠
 70
     0
 62
     7
  6
CONTINUOUS
370
    -3
390
F
  0
ENDTAB
  0
TABLE
  2
STYLE
  5
3
330
0
100
AcDbSymbolTable
 70
     4
  0
STYLE
  5
11
330
3
100
AcDbSymbolTableRecord
100
AcDbTextStyleTableRecord
  2
STANDARD
 70
     0
 40
0.0
 41
1.0
 50
0.0
 71
     0
 42
0.2
  3
txt
  4
bigfont.shx
  0
STYLE
  5
53
330
3
100
AcDbSymbolTableRecord
100
AcDbTextStyleTableRecord
  2
TATEGAKI
 70
     4
 40
0.0
 41
1.0
 50
0.0
 71
     0
 42
1.0
  3
txt
  4
bigfont.shx
  0
STYLE
  5
123
330
3
100
AcDbSymbolTableRecord
100
AcDbTextStyleTableRecord
  2
ACAD
 70
     0
 40
3.0
 41
0.8
 50
0.0
 71
     0
 42
5.0
  3
romans.shx
  4
extfont.shx
  0
STYLE
  5
3A5F
330
3
100
AcDbSymbolTableRecord
100
AcDbTextStyleTableRecord
  2
VERTXT
 70
     4
 40
0.0
 41
0.8582679999999999
 50
0.0
 71
     0
 42
3.5
  3
txt.shx
  4
BIGFONT
  0
ENDTAB
  0
TABLE
  2
VIEW
  5
6
330
0
100
AcDbSymbolTable
 70
     0
  0
ENDTAB
  0
TABLE
  2
UCS
  5
7
330
0
100
AcDbSymbolTable
 70
     0
  0
ENDTAB
  0
TABLE
  2
APPID
  5
9
330
0
100
AcDbSymbolTable
 70
     1
  0
APPID
  5
12
330
9
100
AcDbSymbolTableRecord
100
AcDbRegAppTableRecord
  2
ACAD
 70
     0
  0
ENDTAB
  0
TABLE
  2
DIMSTYLE
  5
A
330
0
100
AcDbSymbolTable
 70
     3
100
AcDbDimStyleTable
 71
     1
340
126
  0
DIMSTYLE
105
11C
330
A
100
AcDbSymbolTableRecord
100
AcDbDimStyleTableRecord
  2
Standard
 70
     0
340
11
  0
DIMSTYLE
105
126
102
{ACAD_REACTORS
330
6EC3
330
6ED3
330
6F38
330
7012
330
702F
330
7030
330
70C2
330
727C
330
7292
330
72A8
330
7502
102
}
330
A
100
AcDbSymbolTableRecord
100
AcDbDimStyleTableRecord
  2
AutoCAD
 70
     0
 41
1.0
 42
0.0
 44
0.0
 73
     0
 77
     1
140
3.0
147
1.0
174
     1
176
     4
177
     4
178
     3
271
     0
272
     0
289
     0
340
123
341
15B0
342
11E
  0
DIMSTYLE
105
2CBB
330
A
100
AcDbSymbolTableRecord
100
AcDbDimStyleTableRecord
  2
111
 70
     0
 41
1.0
 42
0.0
 44
0.0
 73
     0
 77
     1
140
5.0
147
1.0
174
     1
176
     4
177
     4
178
     3
271
     0
272
     0
289
     0
340
123
341
15B0
342
2CB5
  0
ENDTAB
  0
TABLE
  2
BLOCK_RECORD
  5
1
330
0
100
AcDbSymbolTable
 70
    16
  0
BLOCK_RECORD
  5
1E
102
{ACAD_XDICTIONARY
360
28B
102
}
330
1
100
AcDbSymbolTableRecord
100
AcDbBlockTableRecord
  2
*Model_Space
340
21
  0
BLOCK_RECORD
  5
1A
102
{ACAD_XDICTIONARY
360
28D
102
}
330
1
100
AcDbSymbolTableRecord
100
AcDbBlockTableRecord
  2
*Paper_Space
340
1D
  0
BLOCK_RECORD
  5
11E
330
1
100
AcDbSymbolTableRecord
100
AcDbBlockTableRecord
  2
_Dot
340
0
102
{BLKREFS
331
743B
331
743C
331
744B
331
744C
331
7468
331
7469
331
7483
331
7484
331
748C
331
748D
331
7494
331
7495
331
74FC
331
74FD
331
7540
331
7541
331
7555
331
7556
331
7573
331
7574
331
7585
331
7586
331
758D
331
758E
102
}
  0
BLOCK_RECORD
  5
15B0
330
1
100
AcDbSymbolTableRecord
100
AcDbBlockTableRecord
  2
_None
340
0
  0
BLOCK_RECORD
  5
2CB5
330
1
100
AcDbSymbolTableRecord
100
AcDbBlockTableRecord
  2
_Open30
340
0
  0
BLOCK_RECORD
  5
35E3
330
1
100
AcDbSymbolTableRecord
100
AcDbBlockTableRecord
  2
_DotBlank
340
0
  0
BLOCK_RECORD
  5
71D2
330
1
100
AcDbSymbolTableRecord
100
AcDbBlockTableRecord
  2
*D4
340
0
  0
BLOCK_RECORD
  5
71DF
330
1
100
AcDbSymbolTableRecord
100
AcDbBlockTableRecord
  2
*D5
340
0
  0
BLOCK_RECORD
  5
71F5
330
1
100
AcDbSymbolTableRecord
100
AcDbBlockTableRecord
  2
*D7
340
0
  0
BLOCK_RECORD
  5
7202
330
1
100
AcDbSymbolTableRecord
100
AcDbBlockTableRecord
  2
*D8
340
0
  0
BLOCK_RECORD
  5
720F
330
1
100
AcDbSymbolTableRecord
100
AcDbBlockTableRecord
  2
*D9
340
0
  0
BLOCK_RECORD
  5
721B
330
1
100
AcDbSymbolTableRecord
100
AcDbBlockTableRecord
  2
*D10
340
0
  0
BLOCK_RECORD
  5
7226
330
1
100
AcDbSymbolTableRecord
100
AcDbBlockTableRecord
  2
*D11
340
0
  0
BLOCK_RECORD
  5
727D
330
1
100
AcDbSymbolTableRecord
100
AcDbBlockTableRecord
  2
*D12
340
0
  0
BLOCK_RECORD
  5
7293
330
1
100
AcDbSymbolTableRecord
100
AcDbBlockTableRecord
  2
*D13
340
0
  0
BLOCK_RECORD
  5
72A9
330
1
100
AcDbSymbolTableRecord
100
AcDbBlockTableRecord
  2
*D14
340
0
  0
BLOCK_RECORD
  5
7503
330
1
100
AcDbSymbolTableRecord
100
AcDbBlockTableRecord
  2
*D15
340
0
  0
ENDTAB
  0
ENDSEC
  0
SECTION
  2
BLOCKS
  0
BLOCK
  5
1F
330
1E
100
AcDbEntity
  8
0
100
AcDbBlockBegin
  2
*Model_Space
 70
     0
 10
0.0
 20
0.0
 30
0.0
  3
*Model_Space
  1

  0
ENDBLK
  5
20
330
1E
100
AcDbEntity
  8
0
100
AcDbBlockEnd
  0
BLOCK
  5
1B
330
1A
100
AcDbEntity
 67
     1
  8
0
100
AcDbBlockBegin
  2
*Paper_Space
 70
     0
 10
0.0
 20
0.0
 30
0.0
  3
*Paper_Space
  1

  0
ENDBLK
  5
1C
330
1A
100
AcDbEntity
 67
     1
  8
0
100
AcDbBlockEnd
  0
BLOCK
  5
121
330
11E
100
AcDbEntity
  8
0
100
AcDbBlockBegin
  2
_Dot
 70
     0
 10
0.0
 20
0.0
 30
0.0
  3
_Dot
  1

  0
LWPOLYLINE
  5
11F
330
11E
100
AcDbEntity
  8
0
  6
ByBlock
 62
     0
100
AcDbPolyline
 90
        2
 70
     1
 43
0.5
 10
-0.25
 20
0.0
 42
1.0
 10
0.25
 20
0.0
 42
1.0
  0
LINE
  5
120
330
11E
100
AcDbEntity
  8
0
  6
ByBlock
 62
     0
370
    -2
100
AcDbLine
 10
-0.5
 20
0.0
 30
0.0
 11
-1.0
 21
0.0
 31
0.0
  0
ENDBLK
  5
122
330
11E
100
AcDbEntity
  8
0
100
AcDbBlockEnd
  0
BLOCK
  5
15B1
330
15B0
100
AcDbEntity
  8
0
100
AcDbBlockBegin
  2
_None
 70
     0
 10
0.0
 20
0.0
 30
0.0
  3
_None
  1

  0
ENDBLK
  5
15B2
330
15B0
100
AcDbEntity
  8
0
100
AcDbBlockEnd
  0
BLOCK
  5
2CB9
330
2CB5
100
AcDbEntity
  8
0
100
AcDbBlockBegin
  2
_Open30
 70
     0
 10
0.0
 20
0.0
 30
0.0
  3
_Open30
  1

  0
LINE
  5
2CB6
330
2CB5
100
AcDbEntity
  8
0
  6
ByBlock
 62
     0
370
    -2
100
AcDbLine
 10
-1.0
 20
0.26794919
 30
0.0
 11
0.0
 21
0.0
 31
0.0
  0
LINE
  5
2CB7
330
2CB5
100
AcDbEntity
  8
0
  6
ByBlock
 62
     0
370
    -2
100
AcDbLine
 10
0.0
 20
0.0
 30
0.0
 11
-1.0
 21
-0.26794919
 31
0.0
  0
LINE
  5
2CB8
330
2CB5
100
AcDbEntity
  8
0
  6
ByBlock
 62
     0
370
    -2
100
AcDbLine
 10
0.0
 20
0.0
 30
0.0
 11
-1.0
 21
0.0
 31
0.0
  0
ENDBLK
  5
2CBA
330
2CB5
100
AcDbEntity
  8
0
100
AcDbBlockEnd
  0
BLOCK
  5
35E6
330
35E3
100
AcDbEntity
  8
0
100
AcDbBlockBegin
  2
_DotBlank
 70
     0
 10
0.0
 20
0.0
 30
0.0
  3
_DotBlank
  1

  0
CIRCLE
  5
35E4
330
35E3
100
AcDbEntity
  8
0
  6
ByBlock
 62
     0
370
    -2
100
AcDbCircle
 10
0.0
 20
0.0
 30
0.0
 40
0.5
  0
LINE
  5
35E5
330
35E3
100
AcDbEntity
  8
0
  6
ByBlock
 62
     0
370
    -2
100
AcDbLine
 10
-0.5
 20
0.0
 30
0.0
 11
-1.0
 21
0.0
 31
0.0
  0
ENDBLK
  5
35E7
330
35E3
100
AcDbEntity
  8
0
100
AcDbBlockEnd
  0
BLOCK
  5
71DD
330
71D2
100
AcDbEntity
  8
0
100
AcDbBlockBegin
  2
*D4
 70
     1
 10
0.0
 20
0.0
 30
0.0
  3
*D4
  1

  0
LINE
  5
7438
330
71D2
100
AcDbEntity
  8
寸法
  6
Continuous
 62
     4
370
    -2
100
AcDbLine
 10
169.6979127662204
 20
133.9539602988462
 30
0.0
 11
169.6979127662204
 21
118.9539602988462
 31
0.0
  0
LINE
  5
7439
330
71D2
100
AcDbEntity
  8
寸法
  6
Continuous
 62
     4
370
    -2
100
AcDbLine
 10
175.6979127662203
 20
134.9539602988462
 30
0.0
 11
175.6979127662203
 21
118.9539602988462
 31
0.0
  0
LINE
  5
743A
330
71D2
100
AcDbEntity
  8
寸法
  6
Continuous
 62
     4
370
    -2
100
AcDbLine
 10
170.6979127662204
 20
118.9539602988462
 30
0.0
 11
174.6979127662204
 21
118.9539602988462
 31
0.0
  0
INSERT
  5
743B
330
71D2
100
AcDbEntity
  8
寸法
  6
Continuous
 62
     4
370
    -2
100
AcDbBlockReference
  2
_Dot
 10
169.6979127662204
 20
118.9539602988462
 30
0.0
 50
180.0
  0
INSERT
  5
743C
330
71D2
100
AcDbEntity
  8
寸法
  6
Continuous
 62
     4
370
    -2
100
AcDbBlockReference
  2
_Dot
 10
175.6979127662203
 20
118.9539602988462
 30
0.0
  0
MTEXT
  5
743D
330
71D2
100
AcDbEntity
  8
寸法
  6
Continuous
 62
     3
100
AcDbMText
 10
172.6979127662204
 20
121.2539602988462
 30
0.0
 40
3.0
 41
0.0
 71
     5
 72
     1
  1
\A1;30
  7
ACAD
 73
     1
 44
1.0
1001
ACAD
1000
MTEXTBEGIN
1070
    73
1070
     1
1070
    44
1040
1.0
1070
    74
1070
     0
1000
MTEXTEND
  0
POINT
  5
743E
330
71D2
100
AcDbEntity
  8
Defpoints
  6
Continuous
 62
     0
100
AcDbPoint
 10
169.6979127662204
 20
133.9539602988462
 30
0.0
  0
POINT
  5
743F
330
71D2
100
AcDbEntity
  8
Defpoints
  6
Continuous
 62
     0
100
AcDbPoint
 10
175.6979127662203
 20
134.9539602988462
 30
0.0
  0
POINT
  5
7440
330
71D2
100
AcDbEntity
  8
Defpoints
  6
Continuous
 62
     0
100
AcDbPoint
 10
175.6979127662203
 20
118.9539602988462
 30
0.0
  0
ENDBLK
  5
71DE
330
71D2
100
AcDbEntity
  8
0
100
AcDbBlockEnd
  0
BLOCK
  5
71E8
330
71DF
100
AcDbEntity
  8
0
100
AcDbBlockBegin
  2
*D5
 70
     1
 10
0.0
 20
0.0
 30
0.0
  3
*D5
  1

  0
LINE
  5
7551
330
71DF
100
AcDbEntity
  8
寸法
  6
Continuous
 62
     4
370
    -2
100
AcDbLine
 10
173.6979127662204
 20
137.9539602988462
 30
0.0
 11
174.2635774427959
 21
137.9539602988462
 31
0.0
  0
LINE
  5
7552
330
71DF
100
AcDbEntity
  8
寸法
  6
Continuous
 62
     4
370
    -2
100
AcDbLine
 10
173.6979127662204
 20
134.9539602988462
 30
0.0
 11
174.2635774427959
 21
134.9539602988462
 31
0.0
  0
LINE
  5
7553
330
71DF
100
AcDbEntity
  8
寸法
  6
Continuous
 62
     4
370
    -2
100
AcDbLine
 10
174.2635774427959
 20
138.9539602988462
 30
0.0
 11
174.2635774427959
 21
139.9539602988462
 31
0.0
  0
LINE
  5
7554
330
71DF
100
AcDbEntity
  8
寸法
  6
Continuous
 62
     4
370
    -2
100
AcDbLine
 10
174.2635774427959
 20
133.9539602988462
 30
0.0
 11
174.2635774427959
 21
132.9539602988462
 31
0.0
  0
INSERT
  5
7555
330
71DF
100
AcDbEntity
  8
寸法
  6
Continuous
 62
     4
370
    -2
100
AcDbBlockReference
  2
_Dot
 10
174.2635774427959
 20
137.9539602988462
 30
0.0
 50
270.0
  0
INSERT
  5
7556
330
71DF
100
AcDbEntity
  8
寸法
  6
Continuous
 62
     4
370
    -2
100
AcDbBlockReference
  2
_Dot
 10
174.2635774427959
 20
134.9539602988462
 30
0.0
 50
90.0
  0
MTEXT
  5
7557
330
71DF
100
AcDbEntity
  8
寸法
  6
Continuous
 62
     3
100
AcDbMText
 10
171.9635774427958
 20
136.4539602988463
 30
0.0
 40
3.0
 41
0.0
 71
     5
 72
     1
  1
\A1;15
  7
ACAD
 11
0.0000000000000001
 21
1.0
 31
0.0
 73
     1
 44
1.0
1001
ACAD
1000
MTEXTBEGIN
1070
    73
1070
     1
1070
    44
1040
1.0
1070
    74
1070
     0
1000
MTEXTEND
  0
POINT
  5
7558
330
71DF
100
AcDbEntity
  8
Defpoints
  6
Continuous
 62
     0
100
AcDbPoint
 10
173.6979127662204
 20
137.9539602988462
 30
0.0
  0
POINT
  5
7559
330
71DF
100
AcDbEntity
  8
Defpoints
  6
Continuous
 62
     0
100
AcDbPoint
 10
173.6979127662204
 20
134.9539602988462
 30
0.0
  0
POINT
  5
755A
330
71DF
100
AcDbEntity
  8
Defpoints
  6
Continuous
 62
     0
100
AcDbPoint
 10
174.2635774427959
 20
134.9539602988462
 30
0.0
  0
ENDBLK
  5
71E9
330
71DF
100
AcDbEntity
  8
0
100
AcDbBlockEnd
  0
BLOCK
  5
7200
330
71F5
100
AcDbEntity
  8
0
100
AcDbBlockBegin
  2
*D7
 70
     1
 10
0.0
 20
0.0
 30
0.0
  3
*D7
  1

  0
LINE
  5
74F9
330
71F5
100
AcDbEntity
  8
寸法
  6
Continuous
 62
     4
370
    -2
100
AcDbLine
 10
195.6979127662204
 20
136.6339602988461
 30
0.0
 11
195.6979127662204
 21
118.9539602988462
 31
0.0
  0
LINE
  5
74FA
330
71F5
100
AcDbEntity
  8
寸法
  6
Continuous
 62
     4
370
    -2
100
AcDbLine
 10
199.6979127662204
 20
136.6339602988456
 30
0.0
 11
199.6979127662204
 21
118.9539602988462
 31
0.0
  0
LINE
  5
74FB
330
71F5
100
AcDbEntity
  8
寸法
  6
Continuous
 62
     4
370
    -2
100
AcDbLine
 10
196.6979127662204
 20
118.9539602988462
 30
0.0
 11
198.6979127662204
 21
118.9539602988462
 31
0.0
  0
INSERT
  5
74FC
330
71F5
100
AcDbEntity
  8
寸法
  6
Continuous
 62
     4
370
    -2
100
AcDbBlockReference
  2
_Dot
 10
195.6979127662204
 20
118.9539602988462
 30
0.0
 50
180.0
  0
INSERT
  5
74FD
330
71F5
100
AcDbEntity
  8
寸法
  6
Continuous
 62
     4
370
    -2
100
AcDbBlockReference
  2
_Dot
 10
199.6979127662204
 20
118.9539602988462
 30
0.0
  0
MTEXT
  5
74FE
330
71F5
100
AcDbEntity
  8
寸法
  6
Continuous
 62
     3
100
AcDbMText
 10
197.6979127662204
 20
121.2539602988462
 30
0.0
 40
3.0
 41
0.0
 71
     5
 72
     1
  1
\A1;20
  7
ACAD
 73
     1
 44
1.0
1001
ACAD
1000
MTEXTBEGIN
1070
    73
1070
     1
1070
    44
1040
1.0
1070
    74
1070
     0
1000
MTEXTEND
  0
POINT
  5
74FF
330
71F5
100
AcDbEntity
  8
Defpoints
  6
Continuous
 62
     0
100
AcDbPoint
 10
195.6979127662204
 20
136.6339602988461
 30
0.0
  0
POINT
  5
7500
330
71F5
100
AcDbEntity
  8
Defpoints
  6
Continuous
 62
     0
100
AcDbPoint
 10
199.6979127662204
 20
136.6339602988456
 30
0.0
  0
POINT
  5
7501
330
71F5
100
AcDbEntity
  8
Defpoints
  6
Continuous
 62
     0
100
AcDbPoint
 10
199.6979127662204
 20
118.9539602988462
 30
0.0
  0
ENDBLK
  5
7201
330
71F5
100
AcDbEntity
  8
0
100
AcDbBlockEnd
  0
BLOCK
  5
720D
330
7202
100
AcDbEntity
  8
0
100
AcDbBlockBegin
  2
*D8
 70
     1
 10
0.0
 20
0.0
 30
0.0
  3
*D8
  1

  0
LINE
  5
7570
330
7202
100
AcDbEntity
  8
寸法
  6
Continuous
 62
     4
370
    -2
100
AcDbLine
 10
298.6979127662204
 20
136.6339602988461
 30
0.0
 11
298.6979127662204
 21
118.9539602988462
 31
0.0
  0
LINE
  5
7571
330
7202
100
AcDbEntity
  8
寸法
  6
Continuous
 62
     4
370
    -2
100
AcDbLine
 10
302.6979127662204
 20
136.6339602988461
 30
0.0
 11
302.6979127662204
 21
118.9539602988462
 31
0.0
  0
LINE
  5
7572
330
7202
100
AcDbEntity
  8
寸法
  6
Continuous
 62
     4
370
    -2
100
AcDbLine
 10
299.6979127662204
 20
118.9539602988462
 30
0.0
 11
301.6979127662204
 21
118.9539602988462
 31
0.0
  0
INSERT
  5
7573
330
7202
100
AcDbEntity
  8
寸法
  6
Continuous
 62
     4
370
    -2
100
AcDbBlockReference
  2
_Dot
 10
298.6979127662204
 20
118.9539602988462
 30
0.0
 50
180.0
  0
INSERT
  5
7574
330
7202
100
AcDbEntity
  8
寸法
  6
Continuous
 62
     4
370
    -2
100
AcDbBlockReference
  2
_Dot
 10
302.6979127662204
 20
118.9539602988462
 30
0.0
  0
MTEXT
  5
7575
330
7202
100
AcDbEntity
  8
寸法
  6
Continuous
 62
     3
100
AcDbMText
 10
300.6979127662204
 20
121.2539602988462
 30
0.0
 40
3.0
 41
0.0
 71
     5
 72
     1
  1
\A1;20
  7
ACAD
 73
     1
 44
1.0
1001
ACAD
1000
MTEXTBEGIN
1070
    73
1070
     1
1070
    44
1040
1.0
1070
    74
1070
     0
1000
MTEXTEND
  0
POINT
  5
7576
330
7202
100
AcDbEntity
  8
Defpoints
  6
Continuous
 62
     0
100
AcDbPoint
 10
298.6979127662204
 20
136.6339602988461
 30
0.0
  0
POINT
  5
7577
330
7202
100
AcDbEntity
  8
Defpoints
  6
Continuous
 62
     0
100
AcDbPoint
 10
302.6979127662204
 20
136.6339602988461
 30
0.0
  0
POINT
  5
7578
330
7202
100
AcDbEntity
  8
Defpoints
  6
Continuous
 62
     0
100
AcDbPoint
 10
302.6979127662204
 20
118.9539602988462
 30
0.0
  0
ENDBLK
  5
720E
330
7202
100
AcDbEntity
  8
0
100
AcDbBlockEnd
  0
BLOCK
  5
7219
330
720F
100
AcDbEntity
  8
0
100
AcDbBlockBegin
  2
*D9
 70
     1
 10
0.0
 20
0.0
 30
0.0
  3
*D9
  1

  0
LINE
  5
7465
330
720F
100
AcDbEntity
  8
寸法
  6
Continuous
 62
     4
370
    -2
100
AcDbLine
 10
289.6979127662204
 20
133.9539602988462
 30
0.0
 11
289.6979127662204
 21
118.9539602988462
 31
0.0
  0
LINE
  5
7466
330
720F
100
AcDbEntity
  8
寸法
  6
Continuous
 62
     4
370
    -2
100
AcDbLine
 10
298.6979127662204
 20
136.6339602988461
 30
0.0
 11
298.6979127662204
 21
118.9539602988462
 31
0.0
  0
LINE
  5
7467
330
720F
100
AcDbEntity
  8
寸法
  6
Continuous
 62
     4
370
    -2
100
AcDbLine
 10
290.6979127662204
 20
118.9539602988462
 30
0.0
 11
297.6979127662204
 21
118.9539602988462
 31
0.0
  0
INSERT
  5
7468
330
720F
100
AcDbEntity
  8
寸法
  6
Continuous
 62
     4
370
    -2
100
AcDbBlockReference
  2
_Dot
 10
289.6979127662204
 20
118.9539602988462
 30
0.0
 50
180.0
  0
INSERT
  5
7469
330
720F
100
AcDbEntity
  8
寸法
  6
Continuous
 62
     4
370
    -2
100
AcDbBlockReference
  2
_Dot
 10
298.6979127662204
 20
118.9539602988462
 30
0.0
  0
MTEXT
  5
746A
330
720F
100
AcDbEntity
  8
寸法
  6
Continuous
 62
     3
100
AcDbMText
 10
294.1979127662204
 20
121.2539602988462
 30
0.0
 40
3.0
 41
0.0
 71
     5
 72
     1
  1
\A1;45
  7
ACAD
 73
     1
 44
1.0
1001
ACAD
1000
MTEXTBEGIN
1070
    73
1070
     1
1070
    44
1040
1.0
1070
    74
1070
     0
1000
MTEXTEND
  0
POINT
  5
746B
330
720F
100
AcDbEntity
  8
Defpoints
  6
Continuous
 62
     0
100
AcDbPoint
 10
289.6979127662204
 20
133.9539602988462
 30
0.0
  0
POINT
  5
746C
330
720F
100
AcDbEntity
  8
Defpoints
  6
Continuous
 62
     0
100
AcDbPoint
 10
298.6979127662204
 20
136.6339602988461
 30
0.0
  0
POINT
  5
746D
330
720F
100
AcDbEntity
  8
Defpoints
  6
Continuous
 62
     0
100
AcDbPoint
 10
298.6979127662204
 20
118.9539602988462
 30
0.0
  0
ENDBLK
  5
721A
330
720F
100
AcDbEntity
  8
0
100
AcDbBlockEnd
  0
BLOCK
  5
7224
330
721B
100
AcDbEntity
  8
0
100
AcDbBlockBegin
  2
*D10
 70
     1
 10
0.0
 20
0.0
 30
0.0
  3
*D10
  1

  0
LINE
  5
758B
330
721B
100
AcDbEntity
  8
寸法
  6
Continuous
 62
     4
370
    -2
100
AcDbLine
 10
296.6979127662204
 20
138.9539602988462
 30
0.0
 11
296.6979127662204
 21
139.9539602988462
 31
0.0
  0
LINE
  5
758C
330
721B
100
AcDbEntity
  8
寸法
  6
Continuous
 62
     4
370
    -2
100
AcDbLine
 10
296.6979127662204
 20
134.9539602988462
 30
0.0
 11
296.6979127662204
 21
133.9539602988462
 31
0.0
  0
INSERT
  5
758D
330
721B
100
AcDbEntity
  8
寸法
  6
Continuous
 62
     4
370
    -2
100
AcDbBlockReference
  2
_Dot
 10
296.6979127662204
 20
137.9539602988462
 30
0.0
 50
270.0
  0
INSERT
  5
758E
330
721B
100
AcDbEntity
  8
寸法
  6
Continuous
 62
     4
370
    -2
100
AcDbBlockReference
  2
_Dot
 10
296.6979127662204
 20
135.9539602988462
 30
0.0
 50
90.0
  0
MTEXT
  5
758F
330
721B
100
AcDbEntity
  8
寸法
  6
Continuous
 62
     3
100
AcDbMText
 10
294.3979127662203
 20
136.9539602988463
 30
0.0
 40
3.0
 41
0.0
 71
     5
 72
     1
  1
\A1;10
  7
ACAD
 11
0.0000000000000001
 21
1.0
 31
0.0
 73
     1
 44
1.0
1001
ACAD
1000
MTEXTBEGIN
1070
    73
1070
     1
1070
    44
1040
1.0
1070
    74
1070
     0
1000
MTEXTEND
  0
POINT
  5
7590
330
721B
100
AcDbEntity
  8
Defpoints
  6
Continuous
 62
     0
100
AcDbPoint
 10
296.6979127662204
 20
137.9539602988462
 30
0.0
  0
POINT
  5
7591
330
721B
100
AcDbEntity
  8
Defpoints
  6
Continuous
 62
     0
100
AcDbPoint
 10
296.6979127662204
 20
135.9539602988462
 30
0.0
  0
POINT
  5
7592
330
721B
100
AcDbEntity
  8
Defpoints
  6
Continuous
 62
     0
100
AcDbPoint
 10
296.6979127662204
 20
135.9539602988462
 30
0.0
  0
ENDBLK
  5
7225
330
721B
100
AcDbEntity
  8
0
100
AcDbBlockEnd
  0
BLOCK
  5
7231
330
7226
100
AcDbEntity
  8
0
100
AcDbBlockBegin
  2
*D11
 70
     1
 10
0.0
 20
0.0
 30
0.0
  3
*D11
  1

  0
LINE
  5
7582
330
7226
100
AcDbEntity
  8
寸法
  6
Continuous
 62
     4
370
    -2
100
AcDbLine
 10
320.6979127662204
 20
136.6339602988461
 30
0.0
 11
320.6979127662204
 21
119.0073171166192
 31
0.0
  0
LINE
  5
7583
330
7226
100
AcDbEntity
  8
寸法
  6
Continuous
 62
     4
370
    -2
100
AcDbLine
 10
324.6979127662204
 20
136.6339602988456
 30
0.0
 11
324.6979127662204
 21
119.0073171166192
 31
0.0
  0
LINE
  5
7584
330
7226
100
AcDbEntity
  8
寸法
  6
Continuous
 62
     4
370
    -2
100
AcDbLine
 10
321.6979127662204
 20
119.0073171166192
 30
0.0
 11
323.6979127662204
 21
119.0073171166192
 31
0.0
  0
INSERT
  5
7585
330
7226
100
AcDbEntity
  8
寸法
  6
Continuous
 62
     4
370
    -2
100
AcDbBlockReference
  2
_Dot
 10
320.6979127662204
 20
119.0073171166192
 30
0.0
 50
180.0
  0
INSERT
  5
7586
330
7226
100
AcDbEntity
  8
寸法
  6
Continuous
 62
     4
370
    -2
100
AcDbBlockReference
  2
_Dot
 10
324.6979127662204
 20
119.0073171166192
 30
0.0
  0
MTEXT
  5
7587
330
7226
100
AcDbEntity
  8
寸法
  6
Continuous
 62
     3
100
AcDbMText
 10
322.6979127662204
 20
121.3073171166192
 30
0.0
 40
3.0
 41
0.0
 71
     5
 72
     1
  1
\A1;20
  7
ACAD
 73
     1
 44
1.0
1001
ACAD
1000
MTEXTBEGIN
1070
    73
1070
     1
1070
    44
1040
1.0
1070
    74
1070
     0
1000
MTEXTEND
  0
POINT
  5
7588
330
7226
100
AcDbEntity
  8
Defpoints
  6
Continuous
 62
     0
100
AcDbPoint
 10
320.6979127662204
 20
136.6339602988461
 30
0.0
  0
POINT
  5
7589
330
7226
100
AcDbEntity
  8
Defpoints
  6
Continuous
 62
     0
100
AcDbPoint
 10
324.6979127662204
 20
136.6339602988456
 30
0.0
  0
POINT
  5
758A
330
7226
100
AcDbEntity
  8
Defpoints
  6
Continuous
 62
     0
100
AcDbPoint
 10
324.6979127662204
 20
119.0073171166192
 30
0.0
  0
ENDBLK
  5
7232
330
7226
100
AcDbEntity
  8
0
100
AcDbBlockEnd
  0
BLOCK
  5
7287
330
727D
100
AcDbEntity
  8
0
100
AcDbBlockBegin
  2
*D12
 70
     1
 10
0.0
 20
0.0
 30
0.0
  3
*D12
  1

  0
LINE
  5
7480
330
727D
100
AcDbEntity
  8
寸法
  6
Continuous
 62
     4
370
    -2
100
AcDbLine
 10
175.6979127662203
 20
134.9539602988462
 30
0.0
 11
175.6979127662203
 21
118.9539602988462
 31
0.0
  0
LINE
  5
7481
330
727D
100
AcDbEntity
  8
寸法
  6
Continuous
 62
     4
370
    -2
100
AcDbLine
 10
195.6979127662204
 20
136.6339602988461
 30
0.0
 11
195.6979127662204
 21
118.9539602988462
 31
0.0
  0
LINE
  5
7482
330
727D
100
AcDbEntity
  8
寸法
  6
Continuous
 62
     4
370
    -2
100
AcDbLine
 10
176.6979127662203
 20
118.9539602988462
 30
0.0
 11
194.6979127662204
 21
118.9539602988462
 31
0.0
  0
INSERT
  5
7483
330
727D
100
AcDbEntity
  8
寸法
  6
Continuous
 62
     4
370
    -2
100
AcDbBlockReference
  2
_Dot
 10
175.6979127662203
 20
118.9539602988462
 30
0.0
 50
180.0
  0
INSERT
  5
7484
330
727D
100
AcDbEntity
  8
寸法
  6
Continuous
 62
     4
370
    -2
100
AcDbBlockReference
  2
_Dot
 10
195.6979127662204
 20
118.9539602988462
 30
0.0
  0
MTEXT
  5
7485
330
727D
100
AcDbEntity
  8
寸法
  6
Continuous
 62
     3
100
AcDbMText
 10
185.6979127662204
 20
121.4539602988462
 30
0.0
 40
3.0
 41
0.0
 71
     5
 72
     1
  1
\A1;W
  7
ACAD
 73
     1
 44
1.0
1001
ACAD
1000
MTEXTBEGIN
1070
    73
1070
     1
1070
    44
1040
1.0
1070
    74
1070
     0
1000
MTEXTEND
  0
POINT
  5
7486
330
727D
100
AcDbEntity
  8
Defpoints
  6
Continuous
 62
     0
100
AcDbPoint
 10
175.6979127662203
 20
134.9539602988462
 30
0.0
  0
POINT
  5
7487
330
727D
100
AcDbEntity
  8
Defpoints
  6
Continuous
 62
     0
100
AcDbPoint
 10
195.6979127662204
 20
136.6339602988461
 30
0.0
  0
POINT
  5
7488
330
727D
100
AcDbEntity
  8
Defpoints
  6
Continuous
 62
     0
100
AcDbPoint
 10
195.6979127662204
 20
118.9539602988462
 30
0.0
  0
ENDBLK
  5
7288
330
727D
100
AcDbEntity
  8
0
100
AcDbBlockEnd
  0
BLOCK
  5
729D
330
7293
100
AcDbEntity
  8
0
100
AcDbBlockBegin
  2
*D13
 70
     1
 10
0.0
 20
0.0
 30
0.0
  3
*D13
  1

  0
LINE
  5
7489
330
7293
100
AcDbEntity
  8
寸法
  6
Continuous
 62
     4
370
    -2
100
AcDbLine
 10
302.6979127662204
 20
136.6339602988461
 30
0.0
 11
302.6979127662204
 21
119.0073171166192
 31
0.0
  0
LINE
  5
748A
330
7293
100
AcDbEntity
  8
寸法
  6
Continuous
 62
     4
370
    -2
100
AcDbLine
 10
320.6979127662204
 20
136.6339602988461
 30
0.0
 11
320.6979127662204
 21
119.0073171166192
 31
0.0
  0
LINE
  5
748B
330
7293
100
AcDbEntity
  8
寸法
  6
Continuous
 62
     4
370
    -2
100
AcDbLine
 10
303.6979127662204
 20
119.0073171166192
 30
0.0
 11
319.6979127662204
 21
119.0073171166192
 31
0.0
  0
INSERT
  5
748C
330
7293
100
AcDbEntity
  8
寸法
  6
Continuous
 62
     4
370
    -2
100
AcDbBlockReference
  2
_Dot
 10
302.6979127662204
 20
119.0073171166192
 30
0.0
 50
180.0
  0
INSERT
  5
748D
330
7293
100
AcDbEntity
  8
寸法
  6
Continuous
 62
     4
370
    -2
100
AcDbBlockReference
  2
_Dot
 10
320.6979127662204
 20
119.0073171166192
 30
0.0
  0
MTEXT
  5
748E
330
7293
100
AcDbEntity
  8
寸法
  6
Continuous
 62
     3
100
AcDbMText
 10
311.6979127662204
 20
121.5073171166192
 30
0.0
 40
3.0
 41
0.0
 71
     5
 72
     1
  1
\A1;W
  7
ACAD
 73
     1
 44
1.0
1001
ACAD
1000
MTEXTBEGIN
1070
    73
1070
     1
1070
    44
1040
1.0
1070
    74
1070
     0
1000
MTEXTEND
  0
POINT
  5
748F
330
7293
100
AcDbEntity
  8
Defpoints
  6
Continuous
 62
     0
100
AcDbPoint
 10
302.6979127662204
 20
136.6339602988461
 30
0.0
  0
POINT
  5
7490
330
7293
100
AcDbEntity
  8
Defpoints
  6
Continuous
 62
     0
100
AcDbPoint
 10
320.6979127662204
 20
136.6339602988461
 30
0.0
  0
POINT
  5
7491
330
7293
100
AcDbEntity
  8
Defpoints
  6
Continuous
 62
     0
100
AcDbPoint
 10
320.6979127662204
 20
119.0073171166192
 30
0.0
  0
ENDBLK
  5
729E
330
7293
100
AcDbEntity
  8
0
100
AcDbBlockEnd
  0
BLOCK
  5
72B2
330
72A9
100
AcDbEntity
  8
0
100
AcDbBlockBegin
  2
*D14
 70
     1
 10
0.0
 20
0.0
 30
0.0
  3
*D14
  1

  0
LINE
  5
7492
330
72A9
100
AcDbEntity
  8
寸法
  6
Continuous
 62
     4
370
    -2
100
AcDbLine
 10
319.6979127662204
 20
137.6339602988461
 30
0.0
 11
316.6979127662204
 21
137.6339602988461
 31
0.0
  0
LINE
  5
7493
330
72A9
100
AcDbEntity
  8
寸法
  6
Continuous
 62
     4
370
    -2
100
AcDbLine
 10
316.6979127662204
 20
138.6339602988461
 30
0.0
 11
316.6979127662204
 21
152.6539602988461
 31
0.0
  0
INSERT
  5
7494
330
72A9
100
AcDbEntity
  8
寸法
  6
Continuous
 62
     4
370
    -2
100
AcDbBlockReference
  2
_Dot
 10
316.6979127662204
 20
137.6339602988461
 30
0.0
 50
270.0
  0
INSERT
  5
7495
330
72A9
100
AcDbEntity
  8
寸法
  6
Continuous
 62
     4
370
    -2
100
AcDbBlockReference
  2
_Dot
 10
316.6979127662204
 20
153.6539602988461
 30
0.0
 50
90.0
  0
MTEXT
  5
7496
330
72A9
100
AcDbEntity
  8
寸法
  6
Continuous
 62
     3
100
AcDbMText
 10
314.1979127662203
 20
145.6439602988461
 30
0.0
 40
3.0
 41
0.0
 71
     5
 72
     1
  1
\A1;H
  7
ACAD
 11
0.0000000000000001
 21
1.0
 31
0.0
 73
     1
 44
1.0
1001
ACAD
1000
MTEXTBEGIN
1070
    73
1070
     1
1070
    44
1040
1.0
1070
    74
1070
     0
1000
MTEXTEND
  0
POINT
  5
7497
330
72A9
100
AcDbEntity
  8
Defpoints
  6
Continuous
 62
     0
100
AcDbPoint
 10
319.6979127662204
 20
137.6339602988461
 30
0.0
  0
POINT
  5
7498
330
72A9
100
AcDbEntity
  8
Defpoints
  6
Continuous
 62
     0
100
AcDbPoint
 10
316.6979127662204
 20
153.6539602988461
 30
0.0
  0
POINT
  5
7499
330
72A9
100
AcDbEntity
  8
Defpoints
  6
Continuous
 62
     0
100
AcDbPoint
 10
316.6979127662204
 20
153.6539602988461
 30
0.0
  0
ENDBLK
  5
72B3
330
72A9
100
AcDbEntity
  8
0
100
AcDbBlockEnd
  0
BLOCK
  5
750E
330
7503
100
AcDbEntity
  8
0
100
AcDbBlockBegin
  2
*D15
 70
     1
 10
0.0
 20
0.0
 30
0.0
  3
*D15
  1

  0
LINE
  5
753B
330
7503
100
AcDbEntity
  8
0
  6
Continuous
 62
     4
370
    -2
100
AcDbLine
 10
199.6979127662204
 20
136.6339602988456
 30
0.0
 11
199.6979127662204
 21
118.9539602988462
 31
0.0
  0
LINE
  5
753C
330
7503
100
AcDbEntity
  8
0
  6
Continuous
 62
     4
370
    -2
100
AcDbLine
 10
201.6979127662204
 20
137.3539602988463
 30
0.0
 11
201.6979127662204
 21
118.9539602988462
 31
0.0
  0
LINE
  5
753D
330
7503
100
AcDbEntity
  8
0
  6
Continuous
 62
     4
370
    -2
100
AcDbLine
 10
198.6979127662204
 20
118.9539602988462
 30
0.0
 11
197.6979127662204
 21
118.9539602988462
 31
0.0
  0
LINE
  5
753E
330
7503
100
AcDbEntity
  8
0
  6
Continuous
 62
     4
370
    -2
100
AcDbLine
 10
202.6979127662204
 20
118.9539602988462
 30
0.0
 11
203.6979127662204
 21
118.9539602988462
 31
0.0
  0
MTEXT
  5
753F
330
7503
100
AcDbEntity
  8
0
  6
Continuous
 62
     3
100
AcDbMText
 10
204.8350217383131
 20
121.4539602988462
 30
0.0
 40
3.0
 41
0.0
 71
     5
 72
     1
  1
\A1;10
  7
ACAD
 73
     1
 44
1.0
1001
ACAD
1000
MTEXTBEGIN
1070
    73
1070
     1
1070
    44
1040
1.0
1070
    74
1070
     0
1000
MTEXTEND
  0
INSERT
  5
7540
330
7503
100
AcDbEntity
  8
0
  6
Continuous
 62
     4
370
    -2
100
AcDbBlockReference
  2
_Dot
 10
199.6979127662204
 20
118.9539602988462
 30
0.0
  0
INSERT
  5
7541
330
7503
100
AcDbEntity
  8
0
  6
Continuous
 62
     4
370
    -2
100
AcDbBlockReference
  2
_Dot
 10
201.6979127662204
 20
118.9539602988462
 30
0.0
 50
180.0
  0
POINT
  5
7542
330
7503
100
AcDbEntity
  8
Defpoints
  6
Continuous
 62
     0
100
AcDbPoint
 10
199.6979127662204
 20
136.6339602988456
 30
0.0
  0
POINT
  5
7543
330
7503
100
AcDbEntity
  8
Defpoints
  6
Continuous
 62
     0
100
AcDbPoint
 10
201.6979127662204
 20
137.3539602988463
 30
0.0
  0
POINT
  5
7544
330
7503
100
AcDbEntity
  8
Defpoints
  6
Continuous
 62
     0
100
AcDbPoint
 10
201.6979127662204
 20
118.9539602988462
 30
0.0
  0
ENDBLK
  5
750F
330
7503
100
AcDbEntity
  8
0
100
AcDbBlockEnd
  0
ENDSEC
  0
SECTION
  2
ENTITIES
  0
TEXT
  5
6EC2
330
1E
100
AcDbEntity
  8
図面枠
  6
Continuous
 62
     2
100
AcDbText
 10
199.4355157662199
 20
157.6539602988461
 30
0.0
 40
3.0
  1
ＦＢ－３０×３．０－９００＠
 41
0.8
  7
ACAD
100
AcDbText
  0
DIMENSION
  5
6EC3
330
1E
100
AcDbEntity
  8
寸法
  6
Continuous
100
AcDbDimension
  2
*D4
 10
175.6979127662203
 20
118.9539602988462
 30
0.0
 11
172.6979127662204
 21
121.2539602988462
 31
0.0
 70
    32
  1
30
 71
     5
 42
6.0
  3
AutoCAD
100
AcDbAlignedDimension
 13
169.6979127662204
 23
133.9539602988462
 33
0.0
 14
175.6979127662203
 24
134.9539602988462
 34
0.0
100
AcDbRotatedDimension
1001
ACAD
1000
DSTYLE
1002
{
1070
   147
1040
0.8
1070
   140
1040
10.0
1002
}
  0
LINE
  5
6EC4
330
1E
100
AcDbEntity
  8
製品
  6
Continuous
 62
     4
100
AcDbLine
 10
169.6979127662204
 20
186.9539602988462
 30
0.0
 11
199.6979127662204
 21
186.9539602988462
 31
0.0
  0
LINE
  5
6EC6
330
1E
100
AcDbEntity
  8
製品
  6
Continuous
 62
     4
100
AcDbLine
 10
175.3779127662202
 20
157.9539602988462
 30
0.0
 11
196.0179127662201
 21
157.9539602988462
 31
0.0
  0
LINE
  5
6EC7
330
1E
100
AcDbEntity
  8
製品
  6
Continuous
 62
     4
100
AcDbLine
 10
175.6979127662203
 20
157.6339602988461
 30
0.0
 11
195.6979127662204
 21
157.6339602988461
 31
0.0
  0
LINE
  5
6EC8
330
1E
100
AcDbEntity
  8
製品
  6
Continuous
 62
     4
100
AcDbLine
 10
174.7779127662203
 20
158.5539602988461
 30
0.0
 11
196.61791276622
 21
158.5539602988461
 31
0.0
  0
LINE
  5
6EC9
330
1E
100
AcDbEntity
  8
製品
  6
Continuous
 62
     2
100
AcDbLine
 10
138.6979127662204
 20
162.7503882988463
 30
0.0
 11
180.9014837662204
 21
204.9539602988462
 31
0.0
  0
LINE
  5
6ECA
330
1E
100
AcDbEntity
  8
製品
  6
Continuous
 62
     2
100
AcDbLine
 10
138.6979127662204
 20
164.1646022988462
 30
0.0
 11
179.4872707662204
 21
204.9539602988462
 31
0.0
  0
LINE
  5
6ECB
330
1E
100
AcDbEntity
  8
製品
  6
Continuous
 62
     2
100
AcDbLine
 10
138.6979127662204
 20
165.5788152988463
 30
0.0
 11
178.07305676622
 21
204.9539602988462
 31
0.0
  0
LINE
  5
6ECC
330
1E
100
AcDbEntity
  8
図面枠
  6
Continuous
 62
     2
100
AcDbLine
 10
175.6979127662203
 20
142.0392232988462
 30
0.0
 11
192.7959887662201
 21
171.653960298846
 31
0.0
  0
LINE
  5
6ECD
330
1E
100
AcDbEntity
  8
製品
  6
Continuous
 62
     2
100
AcDbLine
 10
155.8091427662203
 20
146.9539602988462
 30
0.0
 11
169.6979127662204
 21
160.8427292988459
 31
0.0
  0
LINE
  5
6ECE
330
1E
100
AcDbEntity
  8
製品
  6
Continuous
 62
     2
100
AcDbLine
 10
154.3949297662203
 20
146.9539602988462
 30
0.0
 11
169.6979127662204
 21
162.2569432988463
 31
0.0
  0
LINE
  5
6ECF
330
1E
100
AcDbEntity
  8
製品
  6
Continuous
 62
     4
100
AcDbLine
 10
169.6979127662204
 20
186.9539602988462
 30
0.0
 11
169.6979127662204
 21
134.9539602988462
 31
0.0
  0
LINE
  5
6ED0
330
1E
100
AcDbEntity
  8
製品
  6
Continuous
 62
     4
100
AcDbLine
 10
138.6979127662204
 20
204.9539602988462
 30
0.0
 11
138.6979127662204
 21
137.9539602988462
 31
0.0
  0
LINE
  5
6ED1
330
1E
100
AcDbEntity
  8
製品
  6
Continuous
 62
     4
100
AcDbLine
 10
138.6979127662204
 20
137.9539602988462
 30
0.0
 11
152.6979127662204
 21
137.9539602988462
 31
0.0
  0
LINE
  5
6ED2
330
1E
100
AcDbEntity
  8
製品
  6
Continuous
 62
     4
100
AcDbLine
 10
138.6979127662204
 20
137.9539602988462
 30
0.0
 11
142.6979127662204
 21
137.9539602988462
 31
0.0
  0
DIMENSION
  5
6ED3
330
1E
100
AcDbEntity
  8
寸法
  6
Continuous
100
AcDbDimension
  2
*D5
 10
174.2635774427959
 20
134.9539602988462
 30
0.0
 11
174.2635774427958
 21
136.4539602988463
 31
0.0
 70
   160
  1
15
 71
     5
 42
3.0
  3
AutoCAD
100
AcDbAlignedDimension
 13
173.6979127662204
 23
137.9539602988462
 33
0.0
 14
173.6979127662204
 24
134.9539602988462
 34
0.0
 50
90.0
100
AcDbRotatedDimension
1001
ACAD
1000
DSTYLE
1002
{
1070
   147
1040
0.8
1070
   140
1040
3.0
1002
}
  0
CIRCLE
  5
6ED4
330
1E
100
AcDbEntity
  8
図面枠
  6
Continuous
 62
     2
100
AcDbCircle
 10
175.6979127662203
 20
142.0392232988462
 30
0.0
 40
0.3
  0
LINE
  5
6ED5
330
1E
100
AcDbEntity
  8
製品
  6
Continuous
 62
     4
100
AcDbLine
 10
174.7779127662203
 20
140.5539602988461
 30
0.0
 11
175.3779127662202
 21
140.5539602988461
 31
0.0
  0
LINE
  5
6ED6
330
1E
100
AcDbEntity
  8
製品
  6
PLINE2
 62
     2
100
AcDbLine
 10
169.2979127662203
 20
142.2739602988459
 30
0.0
 11
169.2979127662203
 21
141.9539602988462
 31
0.0
  0
LINE
  5
6ED7
330
1E
100
AcDbEntity
  8
製品
  6
PLINE2
 62
     2
100
AcDbLine
 10
167.56536376622
 20
142.2739602988459
 30
0.0
 11
169.2979127662203
 21
142.2739602988459
 31
0.0
  0
LINE
  5
6ED8
330
1E
100
AcDbEntity
  8
製品
  6
Continuous
 62
     4
100
AcDbLine
 10
167.6979127662204
 20
141.5539602988461
 30
0.0
 11
167.6979127662204
 21
141.9539602988462
 31
0.0
  0
LINE
  5
6ED9
330
1E
100
AcDbEntity
  8
製品
  6
Continuous
 62
     4
100
AcDbLine
 10
169.2979127662203
 20
141.5539602988461
 30
0.0
 11
167.6979127662204
 21
141.5539602988461
 31
0.0
  0
LINE
  5
6EDA
330
1E
100
AcDbEntity
  8
製品
  6
Continuous
 62
     4
100
AcDbLine
 10
167.6979127662204
 20
141.9539602988462
 30
0.0
 11
169.6979127662204
 21
141.9539602988462
 31
0.0
  0
LINE
  5
6EDB
330
1E
100
AcDbEntity
  8
製品
  6
Continuous
 62
     4
100
AcDbLine
 10
169.6979127662204
 20
141.9539602988462
 30
0.0
 11
170.09791276622
 21
141.9539602988462
 31
0.0
  0
LINE
  5
6EDC
330
1E
100
AcDbEntity
  8
製品
  6
Continuous
 62
     4
100
AcDbLine
 10
174.7779127662203
 20
158.5539602988461
 30
0.0
 11
174.7779127662203
 21
140.5539602988461
 31
0.0
  0
ARC
  5
6EDD
330
1E
100
AcDbEntity
  8
製品
  6
PLINE2
 62
     2
100
AcDbCircle
 10
163.1479127662202
 20
153.827710298846
 30
0.0
 40
0.60625
100
AcDbArc
 50
90.0
 51
137.9249779999948
  0
ARC
  5
6EDE
330
1E
100
AcDbEntity
  8
製品
  6
PLINE2
 62
     2
100
AcDbCircle
 10
163.1479127662202
 20
153.827710298846
 30
0.0
 40
0.60625
100
AcDbArc
 50
42.07502200000517
 51
90.0
  0
ARC
  5
6EDF
330
1E
100
AcDbEntity
  8
製品
  6
PLINE2
 62
     2
100
AcDbCircle
 10
162.2479127662201
 20
153.827710298846
 30
0.0
 40
0.60625
100
AcDbArc
 50
42.07502200000517
 51
137.9249779999948
  0
ARC
  5
6EE0
330
1E
100
AcDbEntity
  8
製品
  6
PLINE2
 62
     2
100
AcDbCircle
 10
162.2479127662201
 20
154.640210298846
 30
0.0
 40
0.60625
100
AcDbArc
 50
222.0750220000052
 51
317.9249779999949
  0
LINE
  5
6EE1
330
1E
100
AcDbEntity
  8
製品
  6
PLINE2
 62
     2
100
AcDbLine
 10
165.6979127662204
 20
143.6339602988461
 30
0.0
 11
165.6979127662204
 21
141.5539602988461
 31
0.0
  0
ARC
  5
6EE2
330
1E
100
AcDbEntity
  8
製品
  6
PLINE2
 62
     2
100
AcDbCircle
 10
165.09791276622
 20
143.6339602988461
 30
0.0
 40
0.6
100
AcDbArc
 50
0.0
 51
90.0
  0
LINE
  5
6EE3
330
1E
100
AcDbEntity
  8
製品
  6
PLINE2
 62
     2
100
AcDbLine
 10
159.6979127662204
 20
141.5539602988461
 30
0.0
 11
159.6979127662204
 21
143.6339602988461
 31
0.0
  0
LINE
  5
6EE4
330
1E
100
AcDbEntity
  8
製品
  6
PLINE2
 62
     2
100
AcDbLine
 10
157.6979127662204
 20
141.9539602988462
 30
0.0
 11
158.4179127662202
 21
141.233960298846
 31
0.0
  0
LINE
  5
6EE5
330
1E
100
AcDbEntity
  8
製品
  6
PLINE2
 62
     2
100
AcDbLine
 10
157.8304607662199
 20
142.2739602988459
 30
0.0
 11
158.5504607662202
 21
141.5539602988461
 31
0.0
  0
LINE
  5
6EE6
330
1E
100
AcDbEntity
  8
製品
  6
Continuous
 62
     4
100
AcDbLine
 10
157.6979127662204
 20
141.9539602988462
 30
0.0
 11
157.6979127662204
 21
141.5539602988461
 31
0.0
  0
LINE
  5
6EE7
330
1E
100
AcDbEntity
  8
製品
  6
PLINE2
 62
     2
100
AcDbLine
 10
157.6979127662204
 20
141.5539602988461
 30
0.0
 11
159.6979127662204
 21
141.5539602988461
 31
0.0
  0
ARC
  5
6EE8
330
1E
100
AcDbEntity
  8
製品
  6
PLINE2
 62
     2
100
AcDbCircle
 10
160.2979127662203
 20
143.6339602988461
 30
0.0
 40
0.6
100
AcDbArc
 50
90.0
 51
180.0
  0
LINE
  5
6EE9
330
1E
100
AcDbEntity
  8
製品
  6
PLINE2
 62
     2
100
AcDbLine
 10
161.7979127662203
 20
142.6339602988461
 30
0.0
 11
163.59791276622
 21
142.6339602988461
 31
0.0
  0
LINE
  5
6EEA
330
1E
100
AcDbEntity
  8
製品
  6
PLINE2
 62
     2
100
AcDbLine
 10
160.2979127662203
 20
144.233960298846
 30
0.0
 11
165.09791276622
 21
144.233960298846
 31
0.0
  0
LINE
  5
6EEB
330
1E
100
AcDbEntity
  8
製品
  6
PLINE2
 62
     2
100
AcDbLine
 10
163.59791276622
 20
154.233960298846
 30
0.0
 11
163.59791276622
 21
142.6339602988461
 31
0.0
  0
LINE
  5
6EEC
330
1E
100
AcDbEntity
  8
製品
  6
PLINE2
 62
     2
100
AcDbLine
 10
161.7979127662203
 20
154.233960298846
 30
0.0
 11
161.7979127662203
 21
142.6339602988461
 31
0.0
  0
LINE
  5
6EED
330
1E
100
AcDbEntity
  8
製品
  6
PLINE2
 62
     2
100
AcDbLine
 10
156.09791276622
 20
142.2739602988459
 30
0.0
 11
156.09791276622
 21
141.9539602988462
 31
0.0
  0
LINE
  5
6EEE
330
1E
100
AcDbEntity
  8
製品
  6
PLINE2
 62
     2
100
AcDbLine
 10
153.0351707662199
 20
140.9539602988462
 30
0.0
 11
152.6979127662204
 21
140.6167012988463
 31
0.0
  0
LINE
  5
6EEF
330
1E
100
AcDbEntity
  8
製品
  6
PLINE2
 62
     2
100
AcDbLine
 10
156.09791276622
 20
142.2739602988459
 30
0.0
 11
157.8304607662199
 21
142.2739602988459
 31
0.0
  0
LINE
  5
6EF0
330
1E
100
AcDbEntity
  8
製品
  6
Continuous
 62
     4
100
AcDbLine
 10
157.6979127662204
 20
141.5539602988461
 30
0.0
 11
156.09791276622
 21
141.5539602988461
 31
0.0
  0
LINE
  5
6EF1
330
1E
100
AcDbEntity
  8
製品
  6
Continuous
 62
     4
100
AcDbLine
 10
157.6979127662204
 20
141.9539602988462
 30
0.0
 11
155.6979127662204
 21
141.9539602988462
 31
0.0
  0
LINE
  5
6EF2
330
1E
100
AcDbEntity
  8
製品
  6
Continuous
 62
     2
100
AcDbLine
 10
157.2233567662202
 20
146.9539602988462
 30
0.0
 11
169.6979127662204
 21
159.428515298846
 31
0.0
  0
LINE
  5
6EF3
330
1E
100
AcDbEntity
  8
製品
  6
Continuous
 62
     4
100
AcDbLine
 10
152.6979127662204
 20
146.9539602988462
 30
0.0
 11
169.6979127662204
 21
146.9539602988462
 31
0.0
  0
LINE
  5
6EF4
330
1E
100
AcDbEntity
  8
製品
  6
PLINE2
 62
     2
100
AcDbLine
 10
156.09791276622
 20
141.1539602988461
 30
0.0
 11
169.2979127662203
 21
141.1539602988461
 31
0.0
  0
LINE
  5
6EF5
330
1E
100
AcDbEntity
  8
製品
  6
PLINE2
 62
     2
100
AcDbLine
 10
167.6979127662204
 20
141.9539602988462
 30
0.0
 11
166.9779127662201
 21
141.233960298846
 31
0.0
  0
LINE
  5
6EF6
330
1E
100
AcDbEntity
  8
製品
  6
PLINE2
 62
     2
100
AcDbLine
 10
166.8453637662202
 20
141.5539602988461
 30
0.0
 11
167.56536376622
 21
142.2739602988459
 31
0.0
  0
LINE
  5
6EF7
330
1E
100
AcDbEntity
  8
製品
  6
PLINE2
 62
     2
100
AcDbLine
 10
165.6979127662204
 20
141.5539602988461
 30
0.0
 11
167.6979127662204
 21
141.5539602988461
 31
0.0
  0
LINE
  5
6EF8
330
1E
100
AcDbEntity
  8
製品
  6
Continuous
 62
     4
100
AcDbLine
 10
173.6979127662204
 20
138.3539602988463
 30
0.0
 11
173.6979127662204
 21
137.9539602988462
 31
0.0
  0
LINE
  5
6EF9
330
1E
100
AcDbEntity
  8
製品
  6
Continuous
 62
     4
100
AcDbLine
 10
169.2979127662203
 20
135.3539602988463
 30
0.0
 11
168.2979127662203
 21
135.3539602988463
 31
0.0
  0
LINE
  5
6EFA
330
1E
100
AcDbEntity
  8
製品
  6
Continuous
 62
     4
100
AcDbLine
 10
168.2979127662203
 20
135.3539602988463
 30
0.0
 11
168.2979127662203
 21
134.9539602988462
 31
0.0
  0
LINE
  5
6EFB
330
1E
100
AcDbEntity
  8
製品
  6
Continuous
 62
     4
100
AcDbLine
 10
168.2979127662203
 20
134.9539602988462
 30
0.0
 11
169.6979127662204
 21
134.9539602988462
 31
0.0
  0
LINE
  5
6EFC
330
1E
100
AcDbEntity
  8
製品
  6
Continuous
 62
     4
100
AcDbLine
 10
169.2979127662203
 20
139.5539602988461
 30
0.0
 11
169.2979127662203
 21
135.3539602988463
 31
0.0
  0
LINE
  5
6EFD
330
1E
100
AcDbEntity
  8
製品
  6
Continuous
 62
     4
100
AcDbLine
 10
170.09791276622
 20
138.3539602988463
 30
0.0
 11
173.6979127662204
 21
138.3539602988463
 31
0.0
  0
LINE
  5
6EFE
330
1E
100
AcDbEntity
  8
製品
  6
Continuous
 62
     4
100
AcDbLine
 10
169.6979127662204
 20
137.6339602988461
 30
0.0
 11
175.6979127662203
 21
137.6339602988461
 31
0.0
  0
LINE
  5
6EFF
330
1E
100
AcDbEntity
  8
製品
  6
Continuous
 62
     4
100
AcDbLine
 10
169.6979127662204
 20
137.9539602988462
 30
0.0
 11
175.3779127662202
 21
137.9539602988462
 31
0.0
  0
LINE
  5
6F02
330
1E
100
AcDbEntity
  8
製品
  6
Continuous
 62
     4
100
AcDbLine
 10
164.09791276622
 20
135.3539602988463
 30
0.0
 11
164.09791276622
 21
134.9539602988462
 31
0.0
  0
LINE
  5
6F03
330
1E
100
AcDbEntity
  8
製品
  6
Continuous
 62
     4
100
AcDbLine
 10
164.09791276622
 20
134.9539602988462
 30
0.0
 11
164.4979127662201
 21
134.9539602988462
 31
0.0
  0
LINE
  5
6F04
330
1E
100
AcDbEntity
  8
製品
  6
Continuous
 62
     4
100
AcDbLine
 10
164.09791276622
 20
139.5539602988461
 30
0.0
 11
164.09791276622
 21
135.3539602988463
 31
0.0
  0
LINE
  5
6F05
330
1E
100
AcDbEntity
  8
製品
  6
Continuous
 62
     4
100
AcDbLine
 10
164.4979127662201
 20
134.9539602988462
 30
0.0
 11
164.4979127662201
 21
139.5539602988461
 31
0.0
  0
LINE
  5
6F06
330
1E
100
AcDbEntity
  8
製品
  6
Continuous
 62
     4
100
AcDbLine
 10
159.09791276622
 20
134.9539602988462
 30
0.0
 11
159.4979127662201
 21
134.9539602988462
 31
0.0
  0
LINE
  5
6F07
330
1E
100
AcDbEntity
  8
製品
  6
Continuous
 62
     4
100
AcDbLine
 10
159.09791276622
 20
139.5539602988461
 30
0.0
 11
159.09791276622
 21
134.9539602988462
 31
0.0
  0
LINE
  5
6F08
330
1E
100
AcDbEntity
  8
製品
  6
Continuous
 62
     4
100
AcDbLine
 10
159.4979127662201
 20
134.9539602988462
 30
0.0
 11
159.4979127662201
 21
139.5539602988461
 31
0.0
  0
LINE
  5
6F09
330
1E
100
AcDbEntity
  8
製品
  6
Continuous
 62
     4
100
AcDbLine
 10
159.4979127662201
 20
139.5539602988461
 30
0.0
 11
164.09791276622
 21
139.5539602988461
 31
0.0
  0
LINE
  5
6F0A
330
1E
100
AcDbEntity
  8
製品
  6
PLINE2
 62
     2
100
AcDbLine
 10
155.6979127662204
 20
139.656903298846
 30
0.0
 11
154.4000417662202
 21
138.3590322988462
 31
0.0
  0
LINE
  5
6F0B
330
1E
100
AcDbEntity
  8
製品
  6
PLINE2
 62
     2
100
AcDbLine
 10
155.6979127662204
 20
139.091218298846
 30
0.0
 11
154.8899717662203
 21
138.2832782988463
 31
0.0
  0
LINE
  5
6F0C
330
1E
100
AcDbEntity
  8
製品
  6
PLINE2
 62
     2
100
AcDbLine
 10
155.6979127662204
 20
138.525533298846
 30
0.0
 11
155.3168327662203
 21
138.1444532988463
 31
0.0
  0
LINE
  5
6F0D
330
1E
100
AcDbEntity
  8
製品
  6
PLINE2
 62
     2
100
AcDbLine
 10
155.6979127662204
 20
137.959847298846
 30
0.0
 11
155.69421776622
 21
137.9561522988462
 31
0.0
  0
ARC
  5
6F0E
330
1E
100
AcDbEntity
  8
製品
  6
Continuous
 62
     4
100
AcDbCircle
 10
154.1979127662204
 20
135.429646298846
 30
0.0
 40
2.936350999999999
100
AcDbArc
 50
59.28032800001123
 51
120.7196719999887
  0
LINE
  5
6F0F
330
1E
100
AcDbEntity
  8
製品
  6
Continuous
 62
     4
100
AcDbLine
 10
155.6979127662204
 20
134.9539602988462
 30
0.0
 11
156.09791276622
 21
134.9539602988462
 31
0.0
  0
LINE
  5
6F10
330
1E
100
AcDbEntity
  8
製品
  6
Continuous
 62
     4
100
AcDbLine
 10
156.09791276622
 20
134.9539602988462
 30
0.0
 11
156.09791276622
 21
139.5539602988461
 31
0.0
  0
LINE
  5
6F11
330
1E
100
AcDbEntity
  8
製品
  6
Continuous
 62
     4
100
AcDbLine
 10
156.09791276622
 20
139.5539602988461
 30
0.0
 11
159.09791276622
 21
139.5539602988461
 31
0.0
  0
LINE
  5
6F12
330
1E
100
AcDbEntity
  8
製品
  6
Continuous
 62
     4
100
AcDbLine
 10
164.4979127662201
 20
139.5539602988461
 30
0.0
 11
169.2979127662203
 21
139.5539602988461
 31
0.0
  0
LINE
  5
6F13
330
1E
100
AcDbEntity
  8
製品
  6
Continuous
 62
     4
100
AcDbLine
 10
156.09791276622
 20
139.9539602988462
 30
0.0
 11
169.2979127662203
 21
139.9539602988462
 31
0.0
  0
LINE
  5
6F14
330
1E
100
AcDbEntity
  8
製品
  6
PLINE2
 62
     2
100
AcDbLine
 10
155.6979127662204
 20
140.7882742988459
 30
0.0
 11
153.03594876622
 21
138.1263112988459
 31
0.0
  0
LINE
  5
6F15
330
1E
100
AcDbEntity
  8
製品
  6
PLINE2
 62
     2
100
AcDbLine
 10
155.6979127662204
 20
140.2225892988459
 30
0.0
 11
153.81643576622
 21
138.341112298846
 31
0.0
  0
LINE
  5
6F16
330
1E
100
AcDbEntity
  8
製品
  6
PLINE2
 62
     2
100
AcDbLine
 10
155.2979127662203
 20
140.9539602988462
 30
0.0
 11
152.6979127662204
 21
138.3539602988463
 31
0.0
  0
LINE
  5
6F17
330
1E
100
AcDbEntity
  8
製品
  6
PLINE2
 62
     2
100
AcDbLine
 10
154.7322267662203
 20
140.9539602988462
 30
0.0
 11
152.6979127662204
 21
138.9196452988459
 31
0.0
  0
LINE
  5
6F18
330
1E
100
AcDbEntity
  8
製品
  6
PLINE2
 62
     2
100
AcDbLine
 10
154.1665417662203
 20
140.9539602988462
 30
0.0
 11
152.6979127662204
 21
139.4853302988459
 31
0.0
  0
LINE
  5
6F19
330
1E
100
AcDbEntity
  8
製品
  6
PLINE2
 62
     2
100
AcDbLine
 10
153.6008567662203
 20
140.9539602988462
 30
0.0
 11
152.6979127662204
 21
140.0510162988463
 31
0.0
  0
LINE
  5
6F1A
330
1E
100
AcDbEntity
  8
製品
  6
Continuous
 62
     2
100
AcDbLine
 10
148.2233567662202
 20
137.9539602988462
 30
0.0
 11
152.6979127662204
 21
142.428515298846
 31
0.0
  0
LINE
  5
6F1B
330
1E
100
AcDbEntity
  8
製品
  6
Continuous
 62
     2
100
AcDbLine
 10
146.8091427662203
 20
137.9539602988462
 30
0.0
 11
152.6979127662204
 21
143.8427292988459
 31
0.0
  0
LINE
  5
6F1C
330
1E
100
AcDbEntity
  8
製品
  6
Continuous
 62
     4
100
AcDbLine
 10
169.2979127662203
 20
139.9539602988462
 30
0.0
 11
169.2979127662203
 21
141.5539602988461
 31
0.0
  0
LINE
  5
6F1D
330
1E
100
AcDbEntity
  8
製品
  6
Continuous
 62
     4
100
AcDbLine
 10
156.09791276622
 20
141.5539602988461
 30
0.0
 11
156.09791276622
 21
139.9539602988462
 31
0.0
  0
LINE
  5
6F1E
330
1E
100
AcDbEntity
  8
製品
  6
Continuous
 62
     4
100
AcDbLine
 10
152.6979127662204
 20
137.9539602988462
 30
0.0
 11
152.6979127662204
 21
146.9539602988462
 31
0.0
  0
LINE
  5
6F1F
330
1E
100
AcDbEntity
  8
製品
  6
Continuous
 62
     4
100
AcDbLine
 10
155.6979127662204
 20
141.9539602988462
 30
0.0
 11
155.6979127662204
 21
134.9539602988462
 31
0.0
  0
LINE
  5
6F20
330
1E
100
AcDbEntity
  8
製品
  6
Continuous
 62
     4
100
AcDbLine
 10
175.3779127662202
 20
157.9539602988462
 30
0.0
 11
175.3779127662202
 21
137.9539602988462
 31
0.0
  0
LINE
  5
6F21
330
1E
100
AcDbEntity
  8
製品
  6
Continuous
 62
     4
100
AcDbLine
 10
175.6979127662203
 20
157.6339602988461
 30
0.0
 11
175.6979127662203
 21
137.6339602988461
 31
0.0
  0
LINE
  5
6F22
330
1E
100
AcDbEntity
  8
製品
  6
Continuous
 62
     4
100
AcDbLine
 10
170.09791276622
 20
141.9539602988462
 30
0.0
 11
170.09791276622
 21
138.3539602988463
 31
0.0
  0
LINE
  5
6F23
330
1E
100
AcDbEntity
  8
製品
  6
Continuous
 62
     2
100
AcDbLine
 10
145.3949297662203
 20
137.9539602988462
 30
0.0
 11
152.6979127662204
 21
145.2569432988463
 31
0.0
  0
LINE
  5
6F24
330
1E
100
AcDbEntity
  8
製品
  6
Continuous
 62
     2
100
AcDbLine
 10
138.6979127662204
 20
198.4864742988462
 30
0.0
 11
145.16539776622
 21
204.9539602988462
 31
0.0
  0
LINE
  5
6F25
330
1E
100
AcDbEntity
  8
製品
  6
Continuous
 62
     2
100
AcDbLine
 10
138.6979127662204
 20
197.0722612988462
 30
0.0
 11
146.5796117662199
 21
204.9539602988462
 31
0.0
  0
LINE
  5
6F26
330
1E
100
AcDbEntity
  8
製品
  6
Continuous
 62
     2
100
AcDbLine
 10
138.6979127662204
 20
199.9006882988461
 30
0.0
 11
143.75118476622
 21
204.9539602988462
 31
0.0
  0
LINE
  5
6F27
330
1E
100
AcDbEntity
  8
図面枠
  6
Continuous
 62
     2
100
AcDbLine
 10
190.1979127662204
 20
159.153960298846
 30
0.0
 11
193.0846637662204
 21
164.153960298846
 31
0.0
  0
LINE
  5
6F28
330
1E
100
AcDbEntity
  8
製品
  6
Continuous
 62
     4
100
AcDbLine
 10
184.1979127662204
 20
164.5539602988461
 30
0.0
 11
184.1979127662204
 21
158.5539602988461
 31
0.0
  0
LINE
  5
6F29
330
1E
100
AcDbEntity
  8
製品
  6
Continuous
 62
     4
100
AcDbLine
 10
186.59791276622
 20
186.9539602988462
 30
0.0
 11
186.59791276622
 21
160.153960298846
 31
0.0
  0
LINE
  5
6F2A
330
1E
100
AcDbEntity
  8
製品
  6
Continuous
 62
     4
100
AcDbLine
 10
184.7979127662203
 20
186.9539602988462
 30
0.0
 11
184.7979127662203
 21
159.153960298846
 31
0.0
  0
LINE
  5
6F2B
330
1E
100
AcDbEntity
  8
製品
  6
PLINE3
 62
     2
100
AcDbLine
 10
185.6979127662204
 20
137.6339602988461
 30
0.0
 11
185.6979127662204
 21
190.9539602988462
 31
0.0
  0
ARC
  5
6F2D
330
1E
100
AcDbEntity
  8
製品
  6
Continuous
 62
     2
100
AcDbCircle
 10
208.4979127662201
 20
145.6143332988459
 30
0.0
 40
1.0
100
AcDbArc
 50
108.2674109999966
 51
180.0
  0
ARC
  5
6F2E
330
1E
100
AcDbEntity
  8
製品
  6
Continuous
 62
     2
100
AcDbCircle
 10
207.7979127662203
 20
143.4524602988459
 30
0.0
 40
0.300004
100
AcDbArc
 50
179.713522999995
 51
337.2039270000152
  0
LINE
  5
6F2F
330
1E
100
AcDbEntity
  8
製品
  6
Continuous
 62
     2
100
AcDbLine
 10
208.09791276622
 20
140.253960298846
 30
0.0
 11
207.5227127662202
 21
140.253960298846
 31
0.0
  0
LINE
  5
6F30
330
1E
100
AcDbEntity
  8
製品
  6
Continuous
 62
     2
100
AcDbLine
 10
208.09791276622
 20
140.1539602988461
 30
0.0
 11
207.5099127662203
 21
140.1539602988461
 31
0.0
  0
LINE
  5
6F31
330
1E
100
AcDbEntity
  8
製品
  6
Continuous
 62
     2
100
AcDbLine
 10
208.09791276622
 20
142.0739602988461
 30
0.0
 11
199.2979127662202
 21
142.0739602988461
 31
0.0
  0
LINE
  5
6F32
330
1E
100
AcDbEntity
  8
製品
  6
Continuous
 62
     4
100
AcDbLine
 10
198.6979127662204
 20
140.1539602988461
 30
0.0
 11
207.6979127662204
 21
140.1539602988461
 31
0.0
  0
LINE
  5
6F33
330
1E
100
AcDbEntity
  8
製品
  6
Continuous
 62
     2
100
AcDbLine
 10
208.4979127662201
 20
151.673960298846
 30
0.0
 11
198.8979127662202
 21
151.673960298846
 31
0.0
  0
LINE
  5
6F34
330
1E
100
AcDbEntity
  8
製品
  6
Continuous
 62
     4
100
AcDbLine
 10
207.4979127662201
 20
143.9539602988462
 30
0.0
 11
215.6979127662204
 21
143.9539602988462
 31
0.0
  0
LINE
  5
6F35
330
1E
100
AcDbEntity
  8
製品
  6
Continuous
 62
     4
100
AcDbLine
 10
201.8979127662202
 20
139.9539602988462
 30
0.0
 11
215.6979127662204
 21
139.9539602988462
 31
0.0
  0
LINE
  5
6F36
330
1E
100
AcDbEntity
  8
製品
  6
Continuous
 62
     4
100
AcDbLine
 10
201.8979127662202
 20
137.9539602988462
 30
0.0
 11
215.6979127662204
 21
137.9539602988462
 31
0.0
  0
LINE
  5
6F37
330
1E
100
AcDbEntity
  8
図面枠
  6
Continuous
 62
     2
100
AcDbLine
 10
199.4355167662203
 20
156.6539602988461
 30
0.0
 11
238.5655167662199
 21
156.6539602988461
 31
0.0
  0
DIMENSION
  5
6F38
330
1E
100
AcDbEntity
  8
寸法
  6
Continuous
100
AcDbDimension
  2
*D7
 10
199.6979127662204
 20
118.9539602988462
 30
0.0
 11
197.6979127662204
 21
118.9539602988462
 31
0.0
 70
   160
  1
20
 71
     5
 42
4.0
  3
AutoCAD
100
AcDbAlignedDimension
 13
195.6979127662204
 23
136.6339602988461
 33
0.0
 14
199.6979127662204
 24
136.6339602988456
 34
0.0
100
AcDbRotatedDimension
1001
ACAD
1000
DSTYLE
1002
{
1070
   147
1040
0.8
1070
   140
1040
10.0
1002
}
  0
LINE
  5
6F39
330
1E
100
AcDbEntity
  8
製品
  6
Continuous
 62
     4
100
AcDbLine
 10
190.1979127662204
 20
159.153960298846
 30
0.0
 11
190.1979127662204
 21
158.5539602988461
 31
0.0
  0
CIRCLE
  5
6F3A
330
1E
100
AcDbEntity
  8
図面枠
  6
Continuous
 62
     2
100
AcDbCircle
 10
190.1979127662204
 20
159.153960298846
 30
0.0
 40
0.3
  0
CIRCLE
  5
6F3B
330
1E
100
AcDbEntity
  8
寸法
  6
Continuous
 62
     2
100
AcDbCircle
 10
191.6979127662204
 20
157.6339602988461
 30
0.0
 40
0.3
  0
LINE
  5
6F3C
330
1E
100
AcDbEntity
  8
製品
  6
Continuous
 62
     2
100
AcDbLine
 10
207.2979127662203
 20
150.153960298846
 30
0.0
 11
207.2979127662203
 21
147.3539602988463
 31
0.0
  0
ARC
  5
6F3D
330
1E
100
AcDbEntity
  8
製品
  6
Continuous
 62
     2
100
AcDbCircle
 10
206.8979127662202
 20
150.153960298846
 30
0.0
 40
0.4
100
AcDbArc
 50
0.0
 51
90.0
  0
LINE
  5
6F3E
330
1E
100
AcDbEntity
  8
製品
  6
Continuous
 62
     2
100
AcDbLine
 10
200.09791276622
 20
147.3539602988463
 30
0.0
 11
200.09791276622
 21
150.153960298846
 31
0.0
  0
ARC
  5
6F3F
330
1E
100
AcDbEntity
  8
製品
  6
Continuous
 62
     2
100
AcDbCircle
 10
200.4979127662201
 20
150.153960298846
 30
0.0
 40
0.4
100
AcDbArc
 50
90.0
 51
180.0
  0
LINE
  5
6F40
330
1E
100
AcDbEntity
  8
製品
  6
Continuous
 62
     2
100
AcDbLine
 10
206.8979127662202
 20
150.5539602988461
 30
0.0
 11
200.4979127662201
 21
150.5539602988461
 31
0.0
  0
ARC
  5
6F41
330
1E
100
AcDbEntity
  8
製品
  6
Continuous
 62
     2
100
AcDbCircle
 10
204.59791276622
 20
146.3539602988463
 30
0.0
 40
0.6
100
AcDbArc
 50
0.0
 51
90.0
  0
LINE
  5
6F42
330
1E
100
AcDbEntity
  8
製品
  6
Continuous
 62
     2
100
AcDbLine
 10
206.7979127662203
 20
146.9539602988462
 30
0.0
 11
206.8979127662202
 21
146.9539602988462
 31
0.0
  0
ARC
  5
6F43
330
1E
100
AcDbEntity
  8
製品
  6
Continuous
 62
     2
100
AcDbCircle
 10
206.7979127662203
 20
146.3539602988463
 30
0.0
 40
0.6
100
AcDbArc
 50
90.0
 51
180.0
  0
ARC
  5
6F44
330
1E
100
AcDbEntity
  8
製品
  6
Continuous
 62
     2
100
AcDbCircle
 10
207.2851127662203
 20
140.1243602988462
 30
0.0
 40
0.12
100
AcDbArc
 50
63.47764199999557
 51
108.4651489999879
  0
ARC
  5
6F45
330
1E
100
AcDbEntity
  8
製品
  6
Continuous
 62
     2
100
AcDbCircle
 10
207.2851127662203
 20
140.2243602988461
 30
0.0
 40
0.12
100
AcDbArc
 50
63.47764199999557
 51
108.4349520000066
  0
LINE
  5
6F46
330
1E
100
AcDbEntity
  8
製品
  6
Continuous
 62
     2
100
AcDbLine
 10
207.4691127662201
 20
140.266560298846
 30
0.0
 11
207.3387127662201
 21
140.331760298846
 31
0.0
  0
LINE
  5
6F47
330
1E
100
AcDbEntity
  8
製品
  6
Continuous
 62
     2
100
AcDbLine
 10
207.4691127662201
 20
140.1665602988461
 30
0.0
 11
207.3387127662201
 21
140.2317602988461
 31
0.0
  0
ARC
  5
6F48
330
1E
100
AcDbEntity
  8
製品
  6
Continuous
 62
     2
100
AcDbCircle
 10
207.5227127662202
 20
140.3739602988463
 30
0.0
 40
0.12
100
AcDbArc
 50
243.4776460000105
 51
270.0
  0
ARC
  5
6F49
330
1E
100
AcDbEntity
  8
製品
  6
Continuous
 62
     2
100
AcDbCircle
 10
207.5227127662202
 20
140.2739602988459
 30
0.0
 40
0.12
100
AcDbArc
 50
243.4776460000105
 51
270.0
  0
ARC
  5
6F4A
330
1E
100
AcDbEntity
  8
製品
  6
Continuous
 62
     2
100
AcDbCircle
 10
205.6979127662204
 20
143.1339602988461
 30
0.0
 40
0.5
100
AcDbArc
 50
180.0
 51
0.0
  0
ARC
  5
6F4B
330
1E
100
AcDbEntity
  8
製品
  6
Continuous
 62
     2
100
AcDbCircle
 10
206.9943127662201
 20
140.2803602988462
 30
0.0
 40
0.12
100
AcDbArc
 50
251.5348510000121
 51
288.3745120000078
  0
ARC
  5
6F4C
330
1E
100
AcDbEntity
  8
製品
  6
Continuous
 62
     2
100
AcDbCircle
 10
206.09431276622
 20
140.2275602988462
 30
0.0
 40
0.12
100
AcDbArc
 50
71.53485100001211
 51
108.4651489999879
  0
ARC
  5
6F4D
330
1E
100
AcDbEntity
  8
製品
  6
Continuous
 62
     2
100
AcDbCircle
 10
206.09431276622
 20
140.1275602988463
 30
0.0
 40
0.12
100
AcDbArc
 50
71.53485100001211
 51
108.4651489999879
  0
LINE
  5
6F4E
330
1E
100
AcDbEntity
  8
製品
  6
Continuous
 62
     2
100
AcDbLine
 10
206.6563127662204
 20
140.241360298846
 30
0.0
 11
206.4323127662202
 21
140.1665602988461
 31
0.0
  0
LINE
  5
6F4F
330
1E
100
AcDbEntity
  8
製品
  6
Continuous
 62
     2
100
AcDbLine
 10
206.6563127662204
 20
140.3413602988463
 30
0.0
 11
206.4323127662202
 21
140.266560298846
 31
0.0
  0
LINE
  5
6F50
330
1E
100
AcDbEntity
  8
製品
  6
Continuous
 62
     2
100
AcDbLine
 10
206.3563127662202
 20
140.266560298846
 30
0.0
 11
206.13231276622
 21
140.3413602988463
 31
0.0
  0
LINE
  5
6F51
330
1E
100
AcDbEntity
  8
製品
  6
Continuous
 62
     2
100
AcDbLine
 10
206.3563127662202
 20
140.1665602988461
 30
0.0
 11
206.13231276622
 21
140.241360298846
 31
0.0
  0
LINE
  5
6F52
330
1E
100
AcDbEntity
  8
製品
  6
Continuous
 62
     2
100
AcDbLine
 10
206.05631276622
 20
140.3413602988463
 30
0.0
 11
205.8323127662203
 21
140.266560298846
 31
0.0
  0
LINE
  5
6F53
330
1E
100
AcDbEntity
  8
製品
  6
Continuous
 62
     2
100
AcDbLine
 10
206.05631276622
 20
140.241360298846
 30
0.0
 11
205.8323127662203
 21
140.1665602988461
 31
0.0
  0
ARC
  5
6F54
330
1E
100
AcDbEntity
  8
製品
  6
Continuous
 62
     2
100
AcDbCircle
 10
205.7943127662203
 20
140.3803602988461
 30
0.0
 40
0.12
100
AcDbArc
 50
251.5348510000121
 51
288.4651489999879
  0
ARC
  5
6F55
330
1E
100
AcDbEntity
  8
製品
  6
Continuous
 62
     2
100
AcDbCircle
 10
205.7943127662203
 20
140.2803602988462
 30
0.0
 40
0.12
100
AcDbArc
 50
251.5348510000121
 51
288.4651489999879
  0
ARC
  5
6F56
330
1E
100
AcDbEntity
  8
製品
  6
Continuous
 62
     2
100
AcDbCircle
 10
205.4943127662201
 20
140.2275602988462
 30
0.0
 40
0.12
100
AcDbArc
 50
71.53485100001211
 51
108.4651489999879
  0
ARC
  5
6F57
330
1E
100
AcDbEntity
  8
製品
  6
Continuous
 62
     2
100
AcDbCircle
 10
205.4943127662201
 20
140.1275602988463
 30
0.0
 40
0.12
100
AcDbArc
 50
71.53485100001211
 51
108.4651489999879
  0
ARC
  5
6F58
330
1E
100
AcDbEntity
  8
製品
  6
Continuous
 62
     2
100
AcDbCircle
 10
205.1943127662204
 20
140.2803602988462
 30
0.0
 40
0.12
100
AcDbArc
 50
251.5348510000121
 51
288.4651489999879
  0
ARC
  5
6F59
330
1E
100
AcDbEntity
  8
製品
  6
Continuous
 62
     2
100
AcDbCircle
 10
205.1943127662204
 20
140.3803602988461
 30
0.0
 40
0.12
100
AcDbArc
 50
251.5348510000121
 51
288.4651489999879
  0
ARC
  5
6F5A
330
1E
100
AcDbEntity
  8
製品
  6
Continuous
 62
     2
100
AcDbCircle
 10
204.9035127662202
 20
140.2243602988461
 30
0.0
 40
0.12
100
AcDbArc
 50
71.53485100001211
 51
116.5223539999895
  0
ARC
  5
6F5B
330
1E
100
AcDbEntity
  8
製品
  6
Continuous
 62
     2
100
AcDbCircle
 10
204.9035127662202
 20
140.1243602988462
 30
0.0
 40
0.12
100
AcDbArc
 50
71.53485100001211
 51
116.5223539999895
  0
LINE
  5
6F5C
330
1E
100
AcDbEntity
  8
製品
  6
Continuous
 62
     2
100
AcDbLine
 10
205.7563127662203
 20
140.266560298846
 30
0.0
 11
205.5323127662201
 21
140.3413602988463
 31
0.0
  0
LINE
  5
6F5D
330
1E
100
AcDbEntity
  8
製品
  6
Continuous
 62
     2
100
AcDbLine
 10
205.7563127662203
 20
140.1665602988461
 30
0.0
 11
205.5323127662201
 21
140.241360298846
 31
0.0
  0
LINE
  5
6F5E
330
1E
100
AcDbEntity
  8
製品
  6
Continuous
 62
     2
100
AcDbLine
 10
205.4563127662201
 20
140.241360298846
 30
0.0
 11
205.2323127662204
 21
140.1665602988461
 31
0.0
  0
LINE
  5
6F5F
330
1E
100
AcDbEntity
  8
製品
  6
Continuous
 62
     2
100
AcDbLine
 10
205.4563127662201
 20
140.3413602988463
 30
0.0
 11
205.2323127662204
 21
140.266560298846
 31
0.0
  0
LINE
  5
6F60
330
1E
100
AcDbEntity
  8
製品
  6
Continuous
 62
     2
100
AcDbLine
 10
205.1563127662204
 20
140.266560298846
 30
0.0
 11
204.9415127662202
 21
140.3381602988462
 31
0.0
  0
LINE
  5
6F61
330
1E
100
AcDbEntity
  8
製品
  6
Continuous
 62
     2
100
AcDbLine
 10
205.1563127662204
 20
140.1665602988461
 30
0.0
 11
204.9415127662202
 21
140.2381602988463
 31
0.0
  0
LINE
  5
6F62
330
1E
100
AcDbEntity
  8
製品
  6
Continuous
 62
     2
100
AcDbLine
 10
204.8499127662199
 20
140.331760298846
 30
0.0
 11
204.71951276622
 21
140.266560298846
 31
0.0
  0
ARC
  5
6F63
330
1E
100
AcDbEntity
  8
製品
  6
Continuous
 62
     2
100
AcDbCircle
 10
206.9943127662201
 20
140.380560298846
 30
0.0
 40
0.12
100
AcDbArc
 50
251.5650479999934
 51
288.4349370000022
  0
ARC
  5
6F64
330
1E
100
AcDbEntity
  8
製品
  6
Continuous
 62
     2
100
AcDbCircle
 10
206.6943127662204
 20
140.2275602988462
 30
0.0
 40
0.12
100
AcDbArc
 50
71.53485100001211
 51
108.4651489999879
  0
ARC
  5
6F65
330
1E
100
AcDbEntity
  8
製品
  6
Continuous
 62
     2
100
AcDbCircle
 10
206.6943127662204
 20
140.1275602988463
 30
0.0
 40
0.12
100
AcDbArc
 50
71.53485100001211
 51
108.4651489999879
  0
ARC
  5
6F66
330
1E
100
AcDbEntity
  8
製品
  6
Continuous
 62
     2
100
AcDbCircle
 10
206.3943127662202
 20
140.2803602988462
 30
0.0
 40
0.12
100
AcDbArc
 50
251.5348510000121
 51
288.4651489999879
  0
ARC
  5
6F67
330
1E
100
AcDbEntity
  8
製品
  6
Continuous
 62
     2
100
AcDbCircle
 10
206.3943127662202
 20
140.3803602988461
 30
0.0
 40
0.12
100
AcDbArc
 50
251.5348510000121
 51
288.4651489999879
  0
LINE
  5
6F68
330
1E
100
AcDbEntity
  8
製品
  6
Continuous
 62
     2
100
AcDbLine
 10
206.9563127662201
 20
140.266560298846
 30
0.0
 11
206.7323127662204
 21
140.3413602988463
 31
0.0
  0
LINE
  5
6F69
330
1E
100
AcDbEntity
  8
製品
  6
Continuous
 62
     2
100
AcDbLine
 10
206.9563127662201
 20
140.1665602988461
 30
0.0
 11
206.7323127662204
 21
140.241360298846
 31
0.0
  0
ARC
  5
6F6A
330
1E
100
AcDbEntity
  8
製品
  6
Continuous
 62
     2
100
AcDbCircle
 10
204.6659127662202
 20
140.3739602988463
 30
0.0
 40
0.12
100
AcDbArc
 50
270.0
 51
296.5223689999841
  0
ARC
  5
6F6B
330
1E
100
AcDbEntity
  8
製品
  6
Continuous
 62
     2
100
AcDbCircle
 10
204.6659127662202
 20
140.2739602988459
 30
0.0
 40
0.12
100
AcDbArc
 50
270.0
 51
296.5223689999841
  0
LINE
  5
6F6C
330
1E
100
AcDbEntity
  8
製品
  6
Continuous
 62
     2
100
AcDbLine
 10
204.8499127662199
 20
140.2317602988461
 30
0.0
 11
204.71951276622
 21
140.1665602988461
 31
0.0
  0
LINE
  5
6F6D
330
1E
100
AcDbEntity
  8
製品
  6
Continuous
 62
     2
100
AcDbLine
 10
207.2471127662203
 20
140.2381602988463
 30
0.0
 11
207.0321127662201
 21
140.1665602988461
 31
0.0
  0
LINE
  5
6F6E
330
1E
100
AcDbEntity
  8
製品
  6
Continuous
 62
     2
100
AcDbLine
 10
207.2471127662203
 20
140.3383602988461
 30
0.0
 11
207.0323127662201
 21
140.266560298846
 31
0.0
  0
LINE
  5
6F6F
330
1E
100
AcDbEntity
  8
製品
  6
Continuous
 62
     2
100
AcDbLine
 10
206.1979127662204
 20
143.1339602988461
 30
0.0
 11
206.1979127662204
 21
146.3539602988463
 31
0.0
  0
LINE
  5
6F70
330
1E
100
AcDbEntity
  8
製品
  6
Continuous
 62
     2
100
AcDbLine
 10
205.1979127662204
 20
143.1339602988461
 30
0.0
 11
205.1979127662204
 21
146.3539602988463
 31
0.0
  0
LINE
  5
6F71
330
1E
100
AcDbEntity
  8
製品
  6
Continuous
 62
     2
100
AcDbLine
 10
207.4979127662201
 20
145.6143332988459
 30
0.0
 11
207.4979127662201
 21
143.4539602988462
 31
0.0
  0
ARC
  5
6F72
330
1E
100
AcDbEntity
  8
製品
  6
Continuous
 62
     2
100
AcDbCircle
 10
202.7979127662203
 20
146.3539602988463
 30
0.0
 40
0.6
100
AcDbArc
 50
90.0
 51
180.0
  0
LINE
  5
6F73
330
1E
100
AcDbEntity
  8
製品
  6
Continuous
 62
     2
100
AcDbLine
 10
200.59791276622
 20
146.9539602988462
 30
0.0
 11
200.4979127662201
 21
146.9539602988462
 31
0.0
  0
ARC
  5
6F74
330
1E
100
AcDbEntity
  8
製品
  6
Continuous
 62
     2
100
AcDbCircle
 10
200.59791276622
 20
146.3539602988463
 30
0.0
 40
0.6
100
AcDbArc
 50
0.0
 51
90.0
  0
ARC
  5
6F75
330
1E
100
AcDbEntity
  8
製品
  6
Continuous
 62
     2
100
AcDbCircle
 10
202.2015127662204
 20
140.2803602988462
 30
0.0
 40
0.12
100
AcDbArc
 50
251.5348510000121
 51
288.4651489999879
  0
LINE
  5
6F76
330
1E
100
AcDbEntity
  8
製品
  6
Continuous
 62
     2
100
AcDbLine
 10
201.9395127662202
 20
140.241360298846
 30
0.0
 11
202.1635127662204
 21
140.1665602988461
 31
0.0
  0
LINE
  5
6F77
330
1E
100
AcDbEntity
  8
製品
  6
Continuous
 62
     2
100
AcDbLine
 10
202.7299127662201
 20
140.1539602988461
 30
0.0
 11
203.46951276622
 21
140.1539602988461
 31
0.0
  0
LINE
  5
6F78
330
1E
100
AcDbEntity
  8
製品
  6
Continuous
 62
     2
100
AcDbLine
 10
203.8727127662201
 20
140.266560298846
 30
0.0
 11
203.7515127662201
 21
140.3271602988462
 31
0.0
  0
LINE
  5
6F79
330
1E
100
AcDbEntity
  8
製品
  6
Continuous
 62
     2
100
AcDbLine
 10
203.8727127662201
 20
140.1665602988461
 30
0.0
 11
203.7515127662201
 21
140.2271602988463
 31
0.0
  0
LINE
  5
6F7A
330
1E
100
AcDbEntity
  8
製品
  6
Continuous
 62
     2
100
AcDbLine
 10
202.7299127662201
 20
140.253960298846
 30
0.0
 11
203.46951276622
 21
140.253960298846
 31
0.0
  0
ARC
  5
6F7B
330
1E
100
AcDbEntity
  8
製品
  6
Continuous
 62
     2
100
AcDbCircle
 10
202.2015127662204
 20
140.3803602988461
 30
0.0
 40
0.12
100
AcDbArc
 50
251.5348510000121
 51
288.4651489999879
  0
LINE
  5
6F7C
330
1E
100
AcDbEntity
  8
製品
  6
Continuous
 62
     2
100
AcDbLine
 10
201.9395127662202
 20
140.3413602988463
 30
0.0
 11
202.1635127662204
 21
140.266560298846
 31
0.0
  0
LINE
  5
6F7D
330
1E
100
AcDbEntity
  8
製品
  6
Continuous
 62
     2
100
AcDbLine
 10
202.2395127662199
 20
140.266560298846
 30
0.0
 11
202.4543127662201
 21
140.3381602988462
 31
0.0
  0
ARC
  5
6F7E
330
1E
100
AcDbEntity
  8
製品
  6
Continuous
 62
     2
100
AcDbCircle
 10
202.4923127662201
 20
140.2243602988461
 30
0.0
 40
0.12
100
AcDbArc
 50
63.47764199999557
 51
108.4651489999879
  0
LINE
  5
6F7F
330
1E
100
AcDbEntity
  8
製品
  6
Continuous
 62
     2
100
AcDbLine
 10
202.2395127662199
 20
140.1665602988461
 30
0.0
 11
202.4543127662201
 21
140.2381602988463
 31
0.0
  0
ARC
  5
6F80
330
1E
100
AcDbEntity
  8
製品
  6
Continuous
 62
     2
100
AcDbCircle
 10
202.4923127662201
 20
140.1243602988462
 30
0.0
 40
0.12
100
AcDbArc
 50
63.47764199999557
 51
108.4651489999879
  0
LINE
  5
6F81
330
1E
100
AcDbEntity
  8
製品
  6
Continuous
 62
     2
100
AcDbLine
 10
202.5459127662204
 20
140.331760298846
 30
0.0
 11
202.6763127662203
 21
140.266560298846
 31
0.0
  0
ARC
  5
6F82
330
1E
100
AcDbEntity
  8
製品
  6
Continuous
 62
     2
100
AcDbCircle
 10
202.7299127662201
 20
140.3739602988463
 30
0.0
 40
0.12
100
AcDbArc
 50
243.4776460000105
 51
270.0
  0
LINE
  5
6F83
330
1E
100
AcDbEntity
  8
製品
  6
Continuous
 62
     2
100
AcDbLine
 10
202.5459127662204
 20
140.2317602988461
 30
0.0
 11
202.6763127662203
 21
140.1665602988461
 31
0.0
  0
ARC
  5
6F84
330
1E
100
AcDbEntity
  8
製品
  6
Continuous
 62
     2
100
AcDbCircle
 10
202.7299127662201
 20
140.2739602988459
 30
0.0
 40
0.12
100
AcDbArc
 50
243.4776460000105
 51
270.0
  0
LINE
  5
6F85
330
1E
100
AcDbEntity
  8
製品
  6
Continuous
 62
     2
100
AcDbLine
 10
203.5231127662202
 20
140.1665602988461
 30
0.0
 11
203.6443127662202
 21
140.2271602988463
 31
0.0
  0
ARC
  5
6F86
330
1E
100
AcDbEntity
  8
製品
  6
Continuous
 62
     2
100
AcDbCircle
 10
203.6979127662204
 20
140.2197602988459
 30
0.0
 40
0.12
100
AcDbArc
 50
63.47764199999557
 51
116.5223539999895
  0
ARC
  5
6F87
330
1E
100
AcDbEntity
  8
製品
  6
Continuous
 62
     2
100
AcDbCircle
 10
203.6979127662204
 20
140.119760298846
 30
0.0
 40
0.12
100
AcDbArc
 50
63.47764199999557
 51
116.5223539999895
  0
ARC
  5
6F88
330
1E
100
AcDbEntity
  8
製品
  6
Continuous
 62
     2
100
AcDbCircle
 10
203.9263127662203
 20
140.3739602988463
 30
0.0
 40
0.12
100
AcDbArc
 50
243.4776460000105
 51
270.0
  0
ARC
  5
6F89
330
1E
100
AcDbEntity
  8
製品
  6
Continuous
 62
     2
100
AcDbCircle
 10
203.9263127662203
 20
140.2739602988459
 30
0.0
 40
0.12
100
AcDbArc
 50
243.4776460000105
 51
270.0
  0
ARC
  5
6F8A
330
1E
100
AcDbEntity
  8
製品
  6
Continuous
 62
     2
100
AcDbCircle
 10
203.46951276622
 20
140.2739602988459
 30
0.0
 40
0.12
100
AcDbArc
 50
270.0
 51
296.5223689999841
  0
LINE
  5
6F8B
330
1E
100
AcDbEntity
  8
製品
  6
Continuous
 62
     2
100
AcDbLine
 10
203.5231127662202
 20
140.266560298846
 30
0.0
 11
203.6443127662202
 21
140.3271602988462
 31
0.0
  0
ARC
  5
6F8C
330
1E
100
AcDbEntity
  8
製品
  6
Continuous
 62
     2
100
AcDbCircle
 10
203.46951276622
 20
140.3739602988463
 30
0.0
 40
0.12
100
AcDbArc
 50
270.0
 51
296.5223689999841
  0
LINE
  5
6F8D
330
1E
100
AcDbEntity
  8
製品
  6
Continuous
 62
     2
100
AcDbLine
 10
199.3979127662202
 20
143.653960298846
 30
0.0
 11
199.3979127662202
 21
143.3539602988463
 31
0.0
  0
LINE
  5
6F8E
330
1E
100
AcDbEntity
  8
製品
  6
Continuous
 62
     2
100
AcDbLine
 10
199.3979127662202
 20
143.3539602988463
 30
0.0
 11
199.4979127662201
 21
143.3539602988463
 31
0.0
  0
LINE
  5
6F8F
330
1E
100
AcDbEntity
  8
製品
  6
Continuous
 62
     2
100
AcDbLine
 10
199.4979127662201
 20
143.3539602988463
 30
0.0
 11
199.4979127662201
 21
143.653960298846
 31
0.0
  0
ARC
  5
6F90
330
1E
100
AcDbEntity
  8
製品
  6
Continuous
 62
     2
100
AcDbCircle
 10
199.59791276622
 20
143.4524602988459
 30
0.0
 40
0.300004
100
AcDbArc
 50
202.7960729999847
 51
0.2864770000049421
  0
ARC
  5
6F91
330
1E
100
AcDbEntity
  8
製品
  6
Continuous
 62
     2
100
AcDbCircle
 10
200.11071276622
 20
140.1243602988462
 30
0.0
 40
0.12
100
AcDbArc
 50
71.53485100001211
 51
116.5223539999895
  0
LINE
  5
6F92
330
1E
100
AcDbEntity
  8
製品
  6
Continuous
 62
     2
100
AcDbLine
 10
199.9267127662202
 20
140.266560298846
 30
0.0
 11
200.0571127662202
 21
140.331760298846
 31
0.0
  0
ARC
  5
6F93
330
1E
100
AcDbEntity
  8
製品
  6
Continuous
 62
     2
100
AcDbCircle
 10
200.11071276622
 20
140.2243602988461
 30
0.0
 40
0.12
100
AcDbArc
 50
71.56504799999338
 51
116.5223539999895
  0
LINE
  5
6F94
330
1E
100
AcDbEntity
  8
製品
  6
Continuous
 62
     2
100
AcDbLine
 10
200.14871276622
 20
140.2381602988463
 30
0.0
 11
200.3637127662202
 21
140.1665602988461
 31
0.0
  0
ARC
  5
6F95
330
1E
100
AcDbEntity
  8
製品
  6
Continuous
 62
     2
100
AcDbCircle
 10
200.4015127662202
 20
140.2803602988462
 30
0.0
 40
0.12
100
AcDbArc
 50
251.6254879999921
 51
288.4651489999879
  0
LINE
  5
6F96
330
1E
100
AcDbEntity
  8
製品
  6
Continuous
 62
     2
100
AcDbLine
 10
199.9267127662202
 20
140.1665602988461
 30
0.0
 11
200.0571127662202
 21
140.2317602988461
 31
0.0
  0
LINE
  5
6F97
330
1E
100
AcDbEntity
  8
製品
  6
Continuous
 62
     2
100
AcDbLine
 10
200.7395127662199
 20
140.241360298846
 30
0.0
 11
200.9635127662201
 21
140.1665602988461
 31
0.0
  0
LINE
  5
6F98
330
1E
100
AcDbEntity
  8
製品
  6
Continuous
 62
     2
100
AcDbLine
 10
200.7395127662199
 20
140.3413602988463
 30
0.0
 11
200.9635127662201
 21
140.266560298846
 31
0.0
  0
LINE
  5
6F99
330
1E
100
AcDbEntity
  8
製品
  6
Continuous
 62
     2
100
AcDbLine
 10
201.0395127662201
 20
140.266560298846
 30
0.0
 11
201.2635127662203
 21
140.3413602988463
 31
0.0
  0
ARC
  5
6F9A
330
1E
100
AcDbEntity
  8
製品
  6
Continuous
 62
     2
100
AcDbCircle
 10
201.3015127662203
 20
140.2275602988462
 30
0.0
 40
0.12
100
AcDbArc
 50
71.53485100001211
 51
108.4651489999879
  0
LINE
  5
6F9B
330
1E
100
AcDbEntity
  8
製品
  6
Continuous
 62
     2
100
AcDbLine
 10
201.0395127662201
 20
140.1665602988461
 30
0.0
 11
201.2635127662203
 21
140.241360298846
 31
0.0
  0
ARC
  5
6F9C
330
1E
100
AcDbEntity
  8
製品
  6
Continuous
 62
     2
100
AcDbCircle
 10
201.3015127662203
 20
140.1275602988463
 30
0.0
 40
0.12
100
AcDbArc
 50
71.53485100001211
 51
108.4651489999879
  0
LINE
  5
6F9D
330
1E
100
AcDbEntity
  8
製品
  6
Continuous
 62
     2
100
AcDbLine
 10
201.3395127662203
 20
140.3413602988463
 30
0.0
 11
201.56351276622
 21
140.266560298846
 31
0.0
  0
LINE
  5
6F9E
330
1E
100
AcDbEntity
  8
製品
  6
Continuous
 62
     2
100
AcDbLine
 10
201.3395127662203
 20
140.241360298846
 30
0.0
 11
201.56351276622
 21
140.1665602988461
 31
0.0
  0
ARC
  5
6F9F
330
1E
100
AcDbEntity
  8
製品
  6
Continuous
 62
     2
100
AcDbCircle
 10
201.60151276622
 20
140.3803602988461
 30
0.0
 40
0.12
100
AcDbArc
 50
251.5348510000121
 51
288.4651489999879
  0
ARC
  5
6FA0
330
1E
100
AcDbEntity
  8
製品
  6
Continuous
 62
     2
100
AcDbCircle
 10
201.60151276622
 20
140.2803602988462
 30
0.0
 40
0.12
100
AcDbArc
 50
251.5348510000121
 51
288.4651489999879
  0
LINE
  5
6FA1
330
1E
100
AcDbEntity
  8
製品
  6
Continuous
 62
     2
100
AcDbLine
 10
201.63951276622
 20
140.266560298846
 30
0.0
 11
201.8635127662202
 21
140.3413602988463
 31
0.0
  0
LINE
  5
6FA2
330
1E
100
AcDbEntity
  8
製品
  6
Continuous
 62
     2
100
AcDbLine
 10
201.63951276622
 20
140.1665602988461
 30
0.0
 11
201.8635127662202
 21
140.241360298846
 31
0.0
  0
LINE
  5
6FA3
330
1E
100
AcDbEntity
  8
製品
  6
Continuous
 62
     2
100
AcDbLine
 10
199.2979127662202
 20
140.253960298846
 30
0.0
 11
199.87311276622
 21
140.253960298846
 31
0.0
  0
LINE
  5
6FA4
330
1E
100
AcDbEntity
  8
製品
  6
Continuous
 62
     2
100
AcDbLine
 10
200.14871276622
 20
140.3383602988461
 30
0.0
 11
200.3635127662202
 21
140.266560298846
 31
0.0
  0
ARC
  5
6FA5
330
1E
100
AcDbEntity
  8
製品
  6
Continuous
 62
     2
100
AcDbCircle
 10
200.4015127662202
 20
140.380560298846
 30
0.0
 40
0.12
100
AcDbArc
 50
251.5650479999934
 51
288.4349370000022
  0
LINE
  5
6FA6
330
1E
100
AcDbEntity
  8
製品
  6
Continuous
 62
     2
100
AcDbLine
 10
200.4395127662202
 20
140.266560298846
 30
0.0
 11
200.6635127662204
 21
140.3413602988463
 31
0.0
  0
ARC
  5
6FA7
330
1E
100
AcDbEntity
  8
製品
  6
Continuous
 62
     2
100
AcDbCircle
 10
200.7015127662204
 20
140.2275602988462
 30
0.0
 40
0.12
100
AcDbArc
 50
71.53485100001211
 51
108.4651489999879
  0
LINE
  5
6FA8
330
1E
100
AcDbEntity
  8
製品
  6
Continuous
 62
     2
100
AcDbLine
 10
200.4395127662202
 20
140.1665602988461
 30
0.0
 11
200.6635127662204
 21
140.241360298846
 31
0.0
  0
ARC
  5
6FA9
330
1E
100
AcDbEntity
  8
製品
  6
Continuous
 62
     2
100
AcDbCircle
 10
200.7015127662204
 20
140.1275602988463
 30
0.0
 40
0.12
100
AcDbArc
 50
71.53485100001211
 51
108.4651489999879
  0
ARC
  5
6FAA
330
1E
100
AcDbEntity
  8
製品
  6
Continuous
 62
     2
100
AcDbCircle
 10
201.0015127662201
 20
140.2803602988462
 30
0.0
 40
0.12
100
AcDbArc
 50
251.5348510000121
 51
288.4651489999879
  0
ARC
  5
6FAB
330
1E
100
AcDbEntity
  8
製品
  6
Continuous
 62
     2
100
AcDbCircle
 10
201.0015127662201
 20
140.3803602988461
 30
0.0
 40
0.12
100
AcDbArc
 50
251.5348510000121
 51
288.4651489999879
  0
ARC
  5
6FAC
330
1E
100
AcDbEntity
  8
製品
  6
Continuous
 62
     2
100
AcDbCircle
 10
199.87311276622
 20
140.3739602988463
 30
0.0
 40
0.12
100
AcDbArc
 50
270.0
 51
296.5223689999841
  0
ARC
  5
6FAD
330
1E
100
AcDbEntity
  8
製品
  6
Continuous
 62
     2
100
AcDbCircle
 10
199.87311276622
 20
140.2739602988459
 30
0.0
 40
0.12
100
AcDbArc
 50
270.0
 51
296.5223689999841
  0
LINE
  5
6FAE
330
1E
100
AcDbEntity
  8
製品
  6
Continuous
 62
     2
100
AcDbLine
 10
199.2979127662202
 20
140.1539602988461
 30
0.0
 11
199.88591276622
 21
140.1539602988461
 31
0.0
  0
ARC
  5
6FAF
330
1E
100
AcDbEntity
  8
製品
  6
Continuous
 62
     2
100
AcDbCircle
 10
201.6979127662204
 20
143.1339602988461
 30
0.0
 40
0.5
100
AcDbArc
 50
180.0
 51
0.0
  0
ARC
  5
6FB0
330
1E
100
AcDbEntity
  8
製品
  6
Continuous
 62
     2
100
AcDbCircle
 10
201.9015127662202
 20
140.2275602988462
 30
0.0
 40
0.12
100
AcDbArc
 50
71.53485100001211
 51
108.4651489999879
  0
ARC
  5
6FB1
330
1E
100
AcDbEntity
  8
製品
  6
Continuous
 62
     2
100
AcDbCircle
 10
201.9015127662202
 20
140.1275602988463
 30
0.0
 40
0.12
100
AcDbArc
 50
71.53485100001211
 51
108.4651489999879
  0
LINE
  5
6FB2
330
1E
100
AcDbEntity
  8
製品
  6
Continuous
 62
     2
100
AcDbLine
 10
199.8979127662202
 20
145.6143332988459
 30
0.0
 11
199.8979127662202
 21
143.4539602988462
 31
0.0
  0
LINE
  5
6FB3
330
1E
100
AcDbEntity
  8
製品
  6
Continuous
 62
     2
100
AcDbLine
 10
201.1979127662204
 20
143.1339602988461
 30
0.0
 11
201.1979127662204
 21
146.3539602988463
 31
0.0
  0
LINE
  5
6FB4
330
1E
100
AcDbEntity
  8
製品
  6
Continuous
 62
     2
100
AcDbLine
 10
202.1979127662204
 20
143.1339602988461
 30
0.0
 11
202.1979127662204
 21
146.3539602988463
 31
0.0
  0
LINE
  5
6FB5
330
1E
100
AcDbEntity
  8
製品
  6
Continuous
 62
     2
100
AcDbLine
 10
202.7979127662203
 20
146.9539602988462
 30
0.0
 11
204.59791276622
 21
146.9539602988462
 31
0.0
  0
LINE
  5
6FB6
330
1E
100
AcDbEntity
  8
製品
  6
Continuous
 62
     2
100
AcDbLine
 10
204.6659127662202
 20
140.253960298846
 30
0.0
 11
203.9263127662203
 21
140.253960298846
 31
0.0
  0
LINE
  5
6FB7
330
1E
100
AcDbEntity
  8
製品
  6
Continuous
 62
     2
100
AcDbLine
 10
204.6659127662202
 20
140.1539602988461
 30
0.0
 11
203.9263127662203
 21
140.1539602988461
 31
0.0
  0
ARC
  5
6FB8
330
1E
100
AcDbEntity
  8
製品
  6
Continuous
 62
     2
100
AcDbCircle
 10
200.4979127662201
 20
147.3539602988463
 30
0.0
 40
0.4
100
AcDbArc
 50
180.0
 51
270.0
  0
ARC
  5
6FB9
330
1E
100
AcDbEntity
  8
製品
  6
Continuous
 62
     2
100
AcDbCircle
 10
206.8979127662202
 20
147.3539602988463
 30
0.0
 40
0.4
100
AcDbArc
 50
270.0
 51
0.0
  0
LINE
  5
6FBA
330
1E
100
AcDbEntity
  8
製品
  6
Continuous
 62
     4
100
AcDbLine
 10
198.84791276622
 20
151.5539602988461
 30
0.0
 11
197.6979127662204
 21
151.5539602988461
 31
0.0
  0
CIRCLE
  5
6FBB
330
1E
100
AcDbEntity
  8
製品
  6
Continuous
 62
     2
100
AcDbCircle
 10
196.61791276622
 20
151.7737262988463
 30
0.0
 40
0.3
  0
LINE
  5
6FBC
330
1E
100
AcDbEntity
  8
製品
  6
Continuous
 62
     2
100
AcDbLine
 10
198.9979127662201
 20
143.8539602988463
 30
0.0
 11
199.1979127662204
 21
143.8539602988463
 31
0.0
  0
ARC
  5
6FBD
330
1E
100
AcDbEntity
  8
製品
  6
Continuous
 62
     2
100
AcDbCircle
 10
199.2979127662202
 20
146.9539602988462
 30
0.0
 40
0.4
100
AcDbArc
 50
180.0
 51
258.2626990000028
  0
LINE
  5
6FBE
330
1E
100
AcDbEntity
  8
製品
  6
Continuous
 62
     2
100
AcDbLine
 10
198.7979127662203
 20
140.753960298846
 30
0.0
 11
198.7979127662203
 21
143.653960298846
 31
0.0
  0
LINE
  5
6FBF
330
1E
100
AcDbEntity
  8
製品
  6
Continuous
 62
     2
100
AcDbLine
 10
198.6979127662204
 20
140.753960298846
 30
0.0
 11
198.6979127662204
 21
143.653960298846
 31
0.0
  0
LINE
  5
6FC0
330
1E
100
AcDbEntity
  8
製品
  6
Continuous
 62
     4
100
AcDbLine
 10
196.61791276622
 20
140.5539602988461
 30
0.0
 11
196.0179127662201
 21
140.5539602988461
 31
0.0
  0
LINE
  5
6FC1
330
1E
100
AcDbEntity
  8
製品
  6
Continuous
 62
     2
100
AcDbLine
 10
198.8979127662202
 20
143.8271652988461
 30
0.0
 11
198.8979127662202
 21
142.4739602988462
 31
0.0
  0
ARC
  5
6FC2
330
1E
100
AcDbEntity
  8
製品
  6
Continuous
 62
     2
100
AcDbCircle
 10
198.9979127662201
 20
143.653960298846
 30
0.0
 40
0.2
100
AcDbArc
 50
90.0
 51
180.0
  0
ARC
  5
6FC3
330
1E
100
AcDbEntity
  8
製品
  6
Continuous
 62
     2
100
AcDbCircle
 10
198.9979127662201
 20
143.653960298846
 30
0.0
 40
0.3
100
AcDbArc
 50
90.0
 51
180.0
  0
LINE
  5
6FC4
330
1E
100
AcDbEntity
  8
製品
  6
Continuous
 62
     4
100
AcDbLine
 10
197.6979127662204
 20
151.5539602988461
 30
0.0
 11
197.6979127662204
 21
143.9539602988462
 31
0.0
  0
LINE
  5
6FC5
330
1E
100
AcDbEntity
  8
製品
  6
Continuous
 62
     2
100
AcDbLine
 10
198.8979127662202
 20
151.673960298846
 30
0.0
 11
198.8979127662202
 21
146.9539602988462
 31
0.0
  0
LINE
  5
6FC6
330
1E
100
AcDbEntity
  8
製品
  6
Continuous
 62
     4
100
AcDbLine
 10
199.8979127662202
 20
143.9539602988462
 30
0.0
 11
197.6979127662204
 21
143.9539602988462
 31
0.0
  0
ARC
  5
6FC7
330
1E
100
AcDbEntity
  8
製品
  6
Continuous
 62
     2
100
AcDbCircle
 10
199.1979127662204
 20
143.653960298846
 30
0.0
 40
0.2
100
AcDbArc
 50
0.0
 51
90.0
  0
ARC
  5
6FC8
330
1E
100
AcDbEntity
  8
製品
  6
Continuous
 62
     2
100
AcDbCircle
 10
199.1979127662204
 20
143.653960298846
 30
0.0
 40
0.3
100
AcDbArc
 50
0.0
 51
90.0
  0
ARC
  5
6FC9
330
1E
100
AcDbEntity
  8
製品
  6
Continuous
 62
     2
100
AcDbCircle
 10
199.2979127662202
 20
142.4739602988462
 30
0.0
 40
0.4
100
AcDbArc
 50
180.0
 51
270.0
  0
ARC
  5
6FCA
330
1E
100
AcDbEntity
  8
製品
  6
Continuous
 62
     3
100
AcDbCircle
 10
199.0867437662201
 20
143.693960298846
 30
0.0
 40
0.16
100
AcDbArc
 50
11.3099319999968
 51
90.0
  0
LINE
  5
6FCB
330
1E
100
AcDbEntity
  8
製品
  6
Continuous
 62
     2
100
AcDbLine
 10
199.3215667662203
 20
143.3356902988463
 30
0.0
 11
199.24363676622
 21
143.7253382988461
 31
0.0
  0
ARC
  5
6FCC
330
1E
100
AcDbEntity
  8
製品
  6
Continuous
 62
     2
100
AcDbCircle
 10
198.8979127662202
 20
145.6143332988459
 30
0.0
 40
1.0
100
AcDbArc
 50
0.0
 51
71.73258900000337
  0
ARC
  5
6FCD
330
1E
100
AcDbEntity
  8
製品
  6
Continuous
 62
     2
100
AcDbCircle
 10
199.2979127662202
 20
140.753960298846
 30
0.0
 40
0.5
100
AcDbArc
 50
180.0
 51
270.0
  0
LINE
  5
6FCE
330
1E
100
AcDbEntity
  8
製品
  6
Continuous
 62
     4
100
AcDbLine
 10
196.61791276622
 20
158.5539602988461
 30
0.0
 11
196.61791276622
 21
140.5539602988461
 31
0.0
  0
LINE
  5
6FCF
330
1E
100
AcDbEntity
  8
図面枠
  6
Continuous
 62
     2
100
AcDbLine
 10
196.61791276622
 20
151.7737262988463
 30
0.0
 11
199.4355167662203
 21
156.6539602988461
 31
0.0
  0
LINE
  5
6FD0
330
1E
100
AcDbEntity
  8
製品
  6
Continuous
 62
     4
100
AcDbLine
 10
204.6979127662204
 20
137.3539602988463
 30
0.0
 11
204.6979127662204
 21
137.9539602988462
 31
0.0
  0
LINE
  5
6FD1
330
1E
100
AcDbEntity
  8
製品
  6
Continuous
 62
     4
100
AcDbLine
 10
204.4979127662201
 20
137.9539602988462
 30
0.0
 11
204.4979127662201
 21
137.5539602988461
 31
0.0
  0
LINE
  5
6FD2
330
1E
100
AcDbEntity
  8
製品
  6
Continuous
 62
     4
100
AcDbLine
 10
201.6979127662204
 20
139.9539602988462
 30
0.0
 11
201.6979127662204
 21
137.3539602988463
 31
0.0
  0
LINE
  5
6FD3
330
1E
100
AcDbEntity
  8
製品
  6
Continuous
 62
     4
100
AcDbLine
 10
201.8979127662202
 20
139.9539602988462
 30
0.0
 11
201.8979127662202
 21
137.5539602988461
 31
0.0
  0
LINE
  5
6FD4
330
1E
100
AcDbEntity
  8
製品
  6
Continuous
 62
     4
100
AcDbLine
 10
199.3779127662202
 20
139.9539602988462
 30
0.0
 11
199.3779127662202
 21
137.9539602988462
 31
0.0
  0
LINE
  5
6FD5
330
1E
100
AcDbEntity
  8
製品
  6
Continuous
 62
     4
100
AcDbLine
 10
199.6979127662204
 20
137.6339602988461
 30
0.0
 11
199.6979127662204
 21
139.9539602988462
 31
0.0
  0
LINE
  5
6FD6
330
1E
100
AcDbEntity
  8
製品
  6
Continuous
 62
     4
100
AcDbLine
 10
201.8979127662202
 20
137.5539602988461
 30
0.0
 11
204.4979127662201
 21
137.5539602988461
 31
0.0
  0
LINE
  5
6FD7
330
1E
100
AcDbEntity
  8
製品
  6
Continuous
 62
     4
100
AcDbLine
 10
201.6979127662204
 20
137.3539602988463
 30
0.0
 11
204.6979127662204
 21
137.3539602988463
 31
0.0
  0
CIRCLE
  5
6FD8
330
1E
100
AcDbEntity
  8
寸法
  6
Continuous
 62
     2
100
AcDbCircle
 10
191.6979127662204
 20
137.6339602988461
 30
0.0
 40
0.3
  0
LINE
  5
6FD9
330
1E
100
AcDbEntity
  8
寸法
  6
Continuous
 62
     2
100
AcDbLine
 10
194.6979127662204
 20
137.6339602988461
 30
0.0
 11
189.6979127662204
 21
137.6339602988461
 31
0.0
  0
LINE
  5
6FDA
330
1E
100
AcDbEntity
  8
製品
  6
Continuous
 62
     4
100
AcDbLine
 10
198.6979127662204
 20
139.9539602988462
 30
0.0
 11
201.6979127662204
 21
139.9539602988462
 31
0.0
  0
LINE
  5
6FDB
330
1E
100
AcDbEntity
  8
製品
  6
Continuous
 62
     4
100
AcDbLine
 10
199.3779127662202
 20
137.9539602988462
 30
0.0
 11
196.0179127662201
 21
137.9539602988462
 31
0.0
  0
LINE
  5
6FDC
330
1E
100
AcDbEntity
  8
製品
  6
Continuous
 62
     4
100
AcDbLine
 10
195.6979127662204
 20
137.6339602988461
 30
0.0
 11
199.6979127662204
 21
137.6339602988461
 31
0.0
  0
LINE
  5
6FDF
330
1E
100
AcDbEntity
  8
製品
  6
Continuous
 62
     4
100
AcDbLine
 10
198.6979127662204
 20
140.1539602988461
 30
0.0
 11
198.6979127662204
 21
139.9539602988462
 31
0.0
  0
LINE
  5
6FE0
330
1E
100
AcDbEntity
  8
製品
  6
Continuous
 62
     4
100
AcDbLine
 10
196.0179127662201
 20
157.9539602988462
 30
0.0
 11
196.0179127662201
 21
137.9539602988462
 31
0.0
  0
LINE
  5
6FE1
330
1E
100
AcDbEntity
  8
製品
  6
Continuous
 62
     4
100
AcDbLine
 10
195.6979127662204
 20
157.6339602988461
 30
0.0
 11
195.6979127662204
 21
137.6339602988461
 31
0.0
  0
LINE
  5
6FE2
330
1E
100
AcDbEntity
  8
寸法
  6
Continuous
 62
     2
100
AcDbLine
 10
191.6979127662204
 20
157.6339602988461
 30
0.0
 11
191.6979127662204
 21
137.6339602988461
 31
0.0
  0
ARC
  5
6FE3
330
1E
100
AcDbEntity
  8
製品
  6
Continuous
 62
     2
100
AcDbCircle
 10
199.2979127662202
 20
140.753960298846
 30
0.0
 40
0.6
100
AcDbArc
 50
180.0
 51
270.0
  0
LINE
  5
6FE4
330
1E
100
AcDbEntity
  8
製品
  6
Continuous
 62
     4
100
AcDbLine
 10
186.59791276622
 20
160.153960298846
 30
0.0
 11
184.7979127662203
 21
160.153960298846
 31
0.0
  0
LINE
  5
6FE6
330
1E
100
AcDbEntity
  8
製品
  6
Continuous
 62
     4
100
AcDbLine
 10
184.7979127662203
 20
159.153960298846
 30
0.0
 11
190.1979127662204
 21
159.153960298846
 31
0.0
  0
TEXT
  5
6FE7
330
1E
100
AcDbEntity
  8
寸法
  6
Continuous
 62
     2
100
AcDbText
 10
190.6979058293445
 20
146.4283846321794
 30
0.0
 40
3.5
  1
Ｈ
 50
90.00000300001072
 41
0.73811
 72
     1
 11
190.6979057662203
 21
147.633964298846
 31
0.0
100
AcDbText
  0
LINE
  5
6FE8
330
1E
100
AcDbEntity
  8
製品
  6
Continuous
 62
     2
100
AcDbLine
 10
208.3979127662202
 20
143.8539602988463
 30
0.0
 11
208.1979127662204
 21
143.8539602988463
 31
0.0
  0
ARC
  5
6FE9
330
1E
100
AcDbEntity
  8
製品
  6
Continuous
 62
     2
100
AcDbCircle
 10
208.3090807662203
 20
143.693960298846
 30
0.0
 40
0.16
100
AcDbArc
 50
90.0
 51
168.6900680000032
  0
ARC
  5
6FEA
330
1E
100
AcDbEntity
  8
製品
  6
Continuous
 62
     2
100
AcDbCircle
 10
208.09791276622
 20
146.9539602988462
 30
0.0
 40
0.4
100
AcDbArc
 50
281.7373009999972
 51
0.0
  0
LINE
  5
6FEB
330
1E
100
AcDbEntity
  8
製品
  6
Continuous
 62
     2
100
AcDbLine
 10
208.59791276622
 20
140.753960298846
 30
0.0
 11
208.59791276622
 21
143.653960298846
 31
0.0
  0
LINE
  5
6FEC
330
1E
100
AcDbEntity
  8
製品
  6
Continuous
 62
     2
100
AcDbLine
 10
208.6979127662204
 20
140.753960298846
 30
0.0
 11
208.6979127662204
 21
143.653960298846
 31
0.0
  0
LINE
  5
6FED
330
1E
100
AcDbEntity
  8
製品
  6
Continuous
 62
     2
100
AcDbLine
 10
207.9979127662201
 20
143.653960298846
 30
0.0
 11
207.9979127662201
 21
143.3539602988463
 31
0.0
  0
LINE
  5
6FEE
330
1E
100
AcDbEntity
  8
製品
  6
Continuous
 62
     2
100
AcDbLine
 10
207.9979127662201
 20
143.3539602988463
 30
0.0
 11
207.8979127662202
 21
143.3539602988463
 31
0.0
  0
LINE
  5
6FEF
330
1E
100
AcDbEntity
  8
製品
  6
Continuous
 62
     2
100
AcDbLine
 10
207.8979127662202
 20
143.3539602988463
 30
0.0
 11
207.8979127662202
 21
143.653960298846
 31
0.0
  0
ARC
  5
6FF0
330
1E
100
AcDbEntity
  8
製品
  6
Continuous
 62
     2
100
AcDbCircle
 10
208.09791276622
 20
142.4739602988462
 30
0.0
 40
0.4
100
AcDbArc
 50
270.0
 51
0.0
  0
ARC
  5
6FF1
330
1E
100
AcDbEntity
  8
製品
  6
Continuous
 62
     2
100
AcDbCircle
 10
208.09791276622
 20
140.753960298846
 30
0.0
 40
0.5
100
AcDbArc
 50
270.0
 51
0.0
  0
LINE
  5
6FF2
330
1E
100
AcDbEntity
  8
製品
  6
Continuous
 62
     2
100
AcDbLine
 10
208.4979127662201
 20
142.4739602988462
 30
0.0
 11
208.4979127662201
 21
143.8476092988463
 31
0.0
  0
ARC
  5
6FF3
330
1E
100
AcDbEntity
  8
製品
  6
Continuous
 62
     2
100
AcDbCircle
 10
208.3979127662202
 20
143.653960298846
 30
0.0
 40
0.2
100
AcDbArc
 50
0.0
 51
90.0
  0
ARC
  5
6FF4
330
1E
100
AcDbEntity
  8
製品
  6
Continuous
 62
     2
100
AcDbCircle
 10
208.1979127662204
 20
143.653960298846
 30
0.0
 40
0.2
100
AcDbArc
 50
90.0
 51
180.0
  0
ARC
  5
6FF5
330
1E
100
AcDbEntity
  8
製品
  6
Continuous
 62
     2
100
AcDbCircle
 10
208.1979127662204
 20
143.653960298846
 30
0.0
 40
0.3
100
AcDbArc
 50
90.0
 51
180.0
  0
ARC
  5
6FF6
330
1E
100
AcDbEntity
  8
製品
  6
Continuous
 62
     2
100
AcDbCircle
 10
208.3979127662202
 20
143.653960298846
 30
0.0
 40
0.3
100
AcDbArc
 50
0.0
 51
90.0
  0
LINE
  5
6FF7
330
1E
100
AcDbEntity
  8
製品
  6
Continuous
 62
     2
100
AcDbLine
 10
208.0742587662204
 20
143.3356902988463
 30
0.0
 11
208.1521887662203
 21
143.7253382988461
 31
0.0
  0
LINE
  5
6FF8
330
1E
100
AcDbEntity
  8
製品
  6
Continuous
 62
     2
100
AcDbLine
 10
208.4979127662201
 20
151.673960298846
 30
0.0
 11
208.4979127662201
 21
146.9539602988462
 31
0.0
  0
LINE
  5
6FF9
330
1E
100
AcDbEntity
  8
製品
  6
Continuous
 62
     4
100
AcDbLine
 10
208.5479127662203
 20
151.5539602988461
 30
0.0
 11
215.6979127662204
 21
151.5539602988461
 31
0.0
  0
LINE
  5
6FFA
330
1E
100
AcDbEntity
  8
製品
  6
Continuous
 62
     4
100
AcDbLine
 10
207.6979127662204
 20
140.1539602988461
 30
0.0
 11
207.6979127662204
 21
139.9539602988462
 31
0.0
  0
ARC
  5
6FFB
330
1E
100
AcDbEntity
  8
製品
  6
Continuous
 62
     2
100
AcDbCircle
 10
208.09791276622
 20
140.753960298846
 30
0.0
 40
0.6
100
AcDbArc
 50
270.0
 51
0.0
  0
LINE
  5
6FFC
330
1E
100
AcDbEntity
  8
図面枠
  6
Continuous
 62
     2
100
AcDbLine
 10
197.9377387662204
 20
208.1539602988461
 30
0.0
 11
212.9877387662201
 21
208.1539602988461
 31
0.0
  0
TEXT
  5
6FFD
330
1E
100
AcDbEntity
  8
図面枠
  6
Continuous
 62
     2
100
AcDbText
 10
197.9377357662202
 20
209.1539602988461
 30
0.0
 40
3.0
  1
インサート
 41
0.8
  7
ACAD
100
AcDbText
  0
LINE
  5
6FFE
330
1E
100
AcDbEntity
  8
図面枠
  6
Continuous
 62
     2
100
AcDbLine
 10
192.7959887662201
 20
171.653960298846
 30
0.0
 11
216.8759887662201
 21
171.653960298846
 31
0.0
  0
TEXT
  5
6FFF
330
1E
100
AcDbEntity
  8
図面枠
  6
Continuous
 62
     2
100
AcDbText
 10
192.79598176622
 20
172.653960298846
 30
0.0
 40
3.0
  1
PL－１．６（ＯＰ）
 41
0.8
  7
ACAD
100
AcDbText
  0
LINE
  5
7000
330
1E
100
AcDbEntity
  8
図面枠
  6
Continuous
 62
     2
100
AcDbLine
 10
191.4714157662203
 20
179.153960298846
 30
0.0
 11
227.5914157662202
 21
179.153960298846
 31
0.0
  0
TEXT
  5
7001
330
1E
100
AcDbEntity
  8
図面枠
  6
Continuous
 62
     2
100
AcDbText
 10
191.4714197662202
 20
180.153960298846
 30
0.0
 40
3.0
  1
吊りボルト　９００＠程度
 41
0.8
  7
ACAD
100
AcDbText
  0
LINE
  5
7002
330
1E
100
AcDbEntity
  8
図面枠
  6
Continuous
 62
     2
100
AcDbLine
 10
193.0846637662204
 20
164.153960298846
 30
0.0
 11
223.1846637662203
 21
164.153960298846
 31
0.0
  0
TEXT
  5
7003
330
1E
100
AcDbEntity
  8
図面枠
  6
Continuous
 62
     2
100
AcDbText
 10
193.0846557662199
 20
165.1539602988461
 30
0.0
 40
3.0
  1
Ｌ－３０×３０×３．０
 41
0.8
  7
ACAD
100
AcDbText
  0
LINE
  5
7004
330
1E
100
AcDbEntity
  8
製品
  6
Continuous
 62
     4
100
AcDbLine
 10
199.6979127662204
 20
186.9539602988462
 30
0.0
 11
199.6979127662204
 21
204.9539602988462
 31
0.0
  0
CIRCLE
  5
7005
330
1E
100
AcDbEntity
  8
図面枠
  6
Continuous
 62
     2
100
AcDbCircle
 10
187.3979127662202
 20
189.8984462988461
 30
0.0
 40
0.3
  0
LINE
  5
7006
330
1E
100
AcDbEntity
  8
製品
  6
PLINE2
 62
     2
100
AcDbLine
 10
187.3979127662202
 20
187.753960298846
 30
0.0
 11
188.1979127662203
 21
187.753960298846
 31
0.0
  0
LINE
  5
7007
330
1E
100
AcDbEntity
  8
製品
  6
PLINE2
 62
     2
100
AcDbLine
 10
188.1979127662203
 20
187.753960298846
 30
0.0
 11
188.1979127662203
 21
186.9539602988462
 31
0.0
  0
LINE
  5
7008
330
1E
100
AcDbEntity
  8
製品
  6
PLINE2
 62
     2
100
AcDbLine
 10
183.1979127662204
 20
186.9539602988462
 30
0.0
 11
183.1979127662204
 21
187.753960298846
 31
0.0
  0
LINE
  5
7009
330
1E
100
AcDbEntity
  8
製品
  6
PLINE2
 62
     2
100
AcDbLine
 10
183.1979127662204
 20
187.753960298846
 30
0.0
 11
183.9979127662201
 21
187.753960298846
 31
0.0
  0
LINE
  5
700A
330
1E
100
AcDbEntity
  8
製品
  6
PLINE2
 62
     2
100
AcDbLine
 10
186.59791276622
 20
186.9539602988462
 30
0.0
 11
186.59791276622
 21
190.9539602988462
 31
0.0
  0
LINE
  5
700B
330
1E
100
AcDbEntity
  8
製品
  6
PLINE2
 62
     2
100
AcDbLine
 10
187.3979127662202
 20
190.9539602988462
 30
0.0
 11
187.3979127662202
 21
187.753960298846
 31
0.0
  0
LINE
  5
700C
330
1E
100
AcDbEntity
  8
製品
  6
PLINE2
 62
     2
100
AcDbLine
 10
183.9979127662201
 20
187.753960298846
 30
0.0
 11
183.9979127662201
 21
190.9539602988462
 31
0.0
  0
LINE
  5
700D
330
1E
100
AcDbEntity
  8
製品
  6
PLINE2
 62
     2
100
AcDbLine
 10
184.7979127662203
 20
190.9539602988462
 30
0.0
 11
184.7979127662203
 21
186.9539602988462
 31
0.0
  0
LINE
  5
700E
330
1E
100
AcDbEntity
  8
図面枠
  6
Continuous
 62
     2
100
AcDbLine
 10
187.3979127662202
 20
189.8984462988461
 30
0.0
 11
197.9377387662204
 21
208.1539602988461
 31
0.0
  0
LINE
  5
700F
330
1E
100
AcDbEntity
  8
図面枠
  6
Continuous
 62
     2
100
AcDbLine
 10
185.6979127662204
 20
169.1539602988461
 30
0.0
 11
191.4714157662203
 21
179.153960298846
 31
0.0
  0
LINE
  5
7010
330
1E
100
AcDbEntity
  8
製品
  6
Continuous
 62
     4
100
AcDbLine
 10
184.1979127662204
 20
164.5539602988461
 30
0.0
 11
184.7979127662203
 21
164.5539602988461
 31
0.0
  0
CIRCLE
  5
7011
330
1E
100
AcDbEntity
  8
図面枠
  6
Continuous
 62
     2
100
AcDbCircle
 10
185.6979127662204
 20
169.1539602988461
 30
0.0
 40
0.3
  0
DIMENSION
  5
7012
330
1E
100
AcDbEntity
  8
寸法
  6
Continuous
100
AcDbDimension
  2
*D8
 10
302.6979127662204
 20
118.9539602988462
 30
0.0
 11
300.6979127662204
 21
118.9539602988462
 31
0.0
 70
   160
  1
20
 71
     5
 42
4.0
  3
AutoCAD
100
AcDbAlignedDimension
 13
298.6979127662204
 23
136.6339602988461
 33
0.0
 14
302.6979127662204
 24
136.6339602988461
 34
0.0
100
AcDbRotatedDimension
1001
ACAD
1000
DSTYLE
1002
{
1070
   147
1040
0.8
1070
   140
1040
10.0
1002
}
  0
LINE
  5
7013
330
1E
100
AcDbEntity
  8
製品
  6
Continuous
 62
     2
100
AcDbLine
 10
300.7035697662201
 20
181.9539602988462
 30
0.0
 11
305.7035697662201
 21
186.9539602988462
 31
0.0
  0
LINE
  5
7014
330
1E
100
AcDbEntity
  8
製品
  6
Continuous
 62
     2
100
AcDbLine
 10
298.5765917662203
 20
181.9539602988462
 30
0.0
 11
303.5765917662203
 21
186.9539602988462
 31
0.0
  0
LINE
  5
7015
330
1E
100
AcDbEntity
  8
製品
  6
Continuous
 62
     2
100
AcDbLine
 10
301.3928257662202
 20
186.9539602988462
 30
0.0
 11
306.3928257662202
 21
181.9539602988462
 31
0.0
  0
LINE
  5
7016
330
1E
100
AcDbEntity
  8
製品
  6
Continuous
 62
     2
100
AcDbLine
 10
299.27150576622
 20
186.9539602988462
 30
0.0
 11
304.27150576622
 21
181.9539602988462
 31
0.0
  0
LINE
  5
7017
330
1E
100
AcDbEntity
  8
製品
  6
Continuous
 62
     2
100
AcDbLine
 10
297.1501857662202
 20
186.9539602988462
 30
0.0
 11
302.1501857662203
 21
181.9539602988462
 31
0.0
  0
LINE
  5
7018
330
1E
100
AcDbEntity
  8
製品
  6
Continuous
 62
     4
100
AcDbLine
 10
294.6979127662204
 20
181.9539602988462
 30
0.0
 11
328.6979127662204
 21
181.9539602988462
 31
0.0
  0
LINE
  5
7019
330
1E
100
AcDbEntity
  8
製品
  6
Continuous
 62
     4
100
AcDbLine
 10
289.6979127662204
 20
186.9539602988462
 30
0.0
 11
323.6979127662204
 21
186.9539602988462
 31
0.0
  0
LINE
  5
701A
330
1E
100
AcDbEntity
  8
製品
  6
Continuous
 62
     4
100
AcDbLine
 10
300.4579127662201
 20
138.5539602988461
 30
0.0
 11
302.2579127662203
 21
138.5539602988461
 31
0.0
  0
LINE
  5
701B
330
1E
100
AcDbEntity
  8
製品
  6
Continuous
 62
     4
100
AcDbLine
 10
298.9979127662201
 20
138.253960298846
 30
0.0
 11
302.3979127662202
 21
138.253960298846
 31
0.0
  0
LINE
  5
701C
330
1E
100
AcDbEntity
  8
製品
  6
Continuous
 62
     4
100
AcDbLine
 10
289.6979127662204
 20
137.9539602988462
 30
0.0
 11
302.6979127662204
 21
137.9539602988462
 31
0.0
  0
LINE
  5
701D
330
1E
100
AcDbEntity
  8
製品
  6
Continuous
 62
     2
100
AcDbLine
 10
289.6979127662204
 20
156.1047172988461
 30
0.0
 11
294.6979127662204
 21
161.1047172988461
 31
0.0
  0
LINE
  5
701E
330
1E
100
AcDbEntity
  8
製品
  6
Continuous
 62
     2
100
AcDbLine
 10
289.6979127662204
 20
160.465107298846
 30
0.0
 11
294.6979127662204
 21
155.4651072988459
 31
0.0
  0
LINE
  5
701F
330
1E
100
AcDbEntity
  8
製品
  6
Continuous
 62
     2
100
AcDbLine
 10
289.6979127662204
 20
160.3473582988459
 30
0.0
 11
294.6979127662204
 21
165.3473582988459
 31
0.0
  0
LINE
  5
7020
330
1E
100
AcDbEntity
  8
製品
  6
Continuous
 62
     2
100
AcDbLine
 10
289.6979127662204
 20
158.2260382988462
 30
0.0
 11
294.6979127662204
 21
163.2260382988462
 31
0.0
  0
LINE
  5
7021
330
1E
100
AcDbEntity
  8
製品
  6
Continuous
 62
     2
100
AcDbLine
 10
289.6979127662204
 20
164.7077482988462
 30
0.0
 11
294.6979127662204
 21
159.7077482988462
 31
0.0
  0
LINE
  5
7022
330
1E
100
AcDbEntity
  8
製品
  6
Continuous
 62
     2
100
AcDbLine
 10
289.6979127662204
 20
162.5864272988461
 30
0.0
 11
294.6979127662204
 21
157.5864272988461
 31
0.0
  0
LINE
  5
7023
330
1E
100
AcDbEntity
  8
製品
  6
Continuous
 62
     2
100
AcDbLine
 10
275.8091427662204
 20
146.9539602988462
 30
0.0
 11
289.6979127662204
 21
160.8427292988459
 31
0.0
  0
LINE
  5
7024
330
1E
100
AcDbEntity
  8
製品
  6
Continuous
 62
     2
100
AcDbLine
 10
274.3949297662203
 20
146.9539602988462
 30
0.0
 11
289.6979127662204
 21
162.2569432988463
 31
0.0
  0
LINE
  5
7025
330
1E
100
AcDbEntity
  8
製品
  6
Continuous
 62
     4
100
AcDbLine
 10
294.6979127662204
 20
138.253960298846
 30
0.0
 11
294.6979127662204
 21
181.9539602988462
 31
0.0
  0
LINE
  5
7026
330
1E
100
AcDbEntity
  8
製品
  6
Continuous
 62
     4
100
AcDbLine
 10
289.6979127662204
 20
186.9539602988462
 30
0.0
 11
289.6979127662204
 21
135.9539602988462
 31
0.0
  0
LINE
  5
7027
330
1E
100
AcDbEntity
  8
製品
  6
Continuous
 62
     4
100
AcDbLine
 10
258.6979127662204
 20
204.9539602988462
 30
0.0
 11
258.6979127662204
 21
137.9539602988462
 31
0.0
  0
LINE
  5
7028
330
1E
100
AcDbEntity
  8
製品
  6
Continuous
 62
     4
100
AcDbLine
 10
258.6979127662204
 20
137.9539602988462
 30
0.0
 11
272.6979127662204
 21
137.9539602988462
 31
0.0
  0
LINE
  5
7029
330
1E
100
AcDbEntity
  8
製品
  6
Continuous
 62
     2
100
AcDbLine
 10
268.2233567662203
 20
137.9539602988462
 30
0.0
 11
272.6979127662204
 21
142.428515298846
 31
0.0
  0
LINE
  5
702A
330
1E
100
AcDbEntity
  8
製品
  6
Continuous
 62
     2
100
AcDbLine
 10
266.8091427662204
 20
137.9539602988462
 30
0.0
 11
272.6979127662204
 21
143.8427292988459
 31
0.0
  0
LINE
  5
702B
330
1E
100
AcDbEntity
  8
製品
  6
Continuous
 62
     2
100
AcDbLine
 10
265.3949297662204
 20
137.9539602988462
 30
0.0
 11
272.6979127662204
 21
145.2569432988463
 31
0.0
  0
LINE
  5
702C
330
1E
100
AcDbEntity
  8
図面枠
  6
Continuous
 62
     2
100
AcDbLine
 10
278.9188567662201
 20
118.9539602988462
 30
0.0
 11
263.8688567662204
 21
118.9539602988462
 31
0.0
  0
TEXT
  5
702D
330
1E
100
AcDbEntity
  8
図面枠
  6
Continuous
 62
     2
100
AcDbText
 10
265.1588537662202
 20
119.9539568972726
 30
0.0
 40
3.0
  1
断熱補修材
 50
0.0000100000010064
 41
0.8
  7
ACAD
 72
     2
 11
278.91885376622
 21
119.9539592988459
 31
0.0
100
AcDbText
  0
LINE
  5
702E
330
1E
100
AcDbEntity
  8
製品
  6
Continuous
 62
     4
100
AcDbLine
 10
258.6979127662204
 20
137.9539602988462
 30
0.0
 11
262.6979127662204
 21
137.9539602988462
 31
0.0
  0
DIMENSION
  5
702F
330
1E
100
AcDbEntity
  8
寸法
  6
Continuous
100
AcDbDimension
  2
*D9
 10
298.6979127662204
 20
118.9539602988462
 30
0.0
 11
294.1979127662204
 21
121.2539602988462
 31
0.0
 70
    32
  1
45
 71
     5
 42
9.0
  3
AutoCAD
100
AcDbAlignedDimension
 13
289.6979127662204
 23
133.9539602988462
 33
0.0
 14
298.6979127662204
 24
136.6339602988461
 34
0.0
100
AcDbRotatedDimension
1001
ACAD
1000
DSTYLE
1002
{
1070
   147
1040
0.8
1070
   140
1040
10.0
1002
}
  0
DIMENSION
  5
7030
330
1E
100
AcDbEntity
  8
寸法
  6
Continuous
100
AcDbDimension
  2
*D10
 10
296.6979127662204
 20
135.9539602988462
 30
0.0
 11
294.3979127662203
 21
136.9539602988463
 31
0.0
 70
    32
  1
10
 71
     5
 42
2.0
  3
AutoCAD
100
AcDbAlignedDimension
 13
296.6979127662204
 23
137.9539602988462
 33
0.0
 14
296.6979127662204
 24
135.9539602988462
 34
0.0
 50
90.0
100
AcDbRotatedDimension
1001
ACAD
1000
DSTYLE
1002
{
1070
   147
1040
0.8
1070
   140
1040
10.0
1002
}
  0
ARC
  5
7031
330
1E
100
AcDbEntity
  8
製品
  6
PLINE2
 62
     2
100
AcDbCircle
 10
282.2479127662201
 20
154.827710298846
 30
0.0
 40
0.60625
100
AcDbArc
 50
42.07502200000517
 51
137.9249779999948
  0
ARC
  5
7032
330
1E
100
AcDbEntity
  8
製品
  6
PLINE2
 62
     2
100
AcDbCircle
 10
282.2479127662201
 20
155.640210298846
 30
0.0
 40
0.60625
100
AcDbArc
 50
222.0750220000052
 51
317.9249779999949
  0
ARC
  5
7033
330
1E
100
AcDbEntity
  8
製品
  6
PLINE2
 62
     2
100
AcDbCircle
 10
283.1479127662202
 20
154.827710298846
 30
0.0
 40
0.60625
100
AcDbArc
 50
90.0
 51
137.9249779999948
  0
ARC
  5
7034
330
1E
100
AcDbEntity
  8
製品
  6
PLINE2
 62
     2
100
AcDbCircle
 10
283.1479127662202
 20
154.827710298846
 30
0.0
 40
0.60625
100
AcDbArc
 50
42.07502200000517
 51
90.0
  0
LINE
  5
7035
330
1E
100
AcDbEntity
  8
製品
  6
Continuous
 62
     2
100
AcDbLine
 10
289.6979127662204
 20
147.6194362988463
 30
0.0
 11
294.6979127662204
 21
152.6194362988464
 31
0.0
  0
LINE
  5
7036
330
1E
100
AcDbEntity
  8
製品
  6
Continuous
 62
     2
100
AcDbLine
 10
289.6979127662204
 20
154.1011462988459
 30
0.0
 11
294.6979127662204
 21
149.1011462988459
 31
0.0
  0
LINE
  5
7037
330
1E
100
AcDbEntity
  8
製品
  6
Continuous
 62
     4
100
AcDbLine
 10
289.6979127662204
 20
141.9539602988462
 30
0.0
 11
289.9979127662201
 21
141.9539602988462
 31
0.0
  0
CIRCLE
  5
7038
330
1E
100
AcDbEntity
  8
図面枠
  6
Continuous
 62
     2
100
AcDbCircle
 10
292.1979127662204
 20
141.9539602988462
 30
0.0
 40
0.3
  0
LINE
  5
7039
330
1E
100
AcDbEntity
  8
製品
  6
Continuous
 62
     2
100
AcDbLine
 10
289.9979127662201
 20
141.5554752988461
 30
0.0
 11
294.6979127662204
 21
146.2554752988463
 31
0.0
  0
LINE
  5
703A
330
1E
100
AcDbEntity
  8
製品
  6
Continuous
 62
     2
100
AcDbLine
 10
289.6979127662204
 20
145.6158652988461
 30
0.0
 11
294.6979127662204
 21
140.6158652988462
 31
0.0
  0
ARC
  5
703B
330
1E
100
AcDbEntity
  8
製品
  6
PLINE2
 62
     2
100
AcDbCircle
 10
285.09791276622
 20
144.6339602988461
 30
0.0
 40
0.6
100
AcDbArc
 50
0.0
 51
90.0
  0
LINE
  5
703C
330
1E
100
AcDbEntity
  8
製品
  6
PLINE2
 62
     2
100
AcDbLine
 10
287.6979127662204
 20
142.9539602988462
 30
0.0
 11
286.9779127662202
 21
142.233960298846
 31
0.0
  0
LINE
  5
703D
330
1E
100
AcDbEntity
  8
製品
  6
PLINE2
 62
     2
100
AcDbLine
 10
289.2979127662203
 20
143.2739602988459
 30
0.0
 11
289.2979127662203
 21
142.9539602988462
 31
0.0
  0
LINE
  5
703E
330
1E
100
AcDbEntity
  8
製品
  6
PLINE2
 62
     2
100
AcDbLine
 10
287.56536376622
 20
143.2739602988459
 30
0.0
 11
289.2979127662203
 21
143.2739602988459
 31
0.0
  0
LINE
  5
703F
330
1E
100
AcDbEntity
  8
製品
  6
Continuous
 62
     4
100
AcDbLine
 10
287.6979127662204
 20
142.5539602988461
 30
0.0
 11
287.6979127662204
 21
142.9539602988462
 31
0.0
  0
LINE
  5
7040
330
1E
100
AcDbEntity
  8
製品
  6
Continuous
 62
     4
100
AcDbLine
 10
289.2979127662203
 20
142.5539602988461
 30
0.0
 11
287.6979127662204
 21
142.5539602988461
 31
0.0
  0
LINE
  5
7041
330
1E
100
AcDbEntity
  8
製品
  6
Continuous
 62
     4
100
AcDbLine
 10
289.2979127662203
 20
140.9539602988462
 30
0.0
 11
289.2979127662203
 21
142.5539602988461
 31
0.0
  0
LINE
  5
7042
330
1E
100
AcDbEntity
  8
製品
  6
PLINE2
 62
     2
100
AcDbLine
 10
286.8453637662202
 20
142.5539602988461
 30
0.0
 11
287.56536376622
 21
143.2739602988459
 31
0.0
  0
LINE
  5
7043
330
1E
100
AcDbEntity
  8
製品
  6
PLINE2
 62
     2
100
AcDbLine
 10
285.6979127662204
 20
142.5539602988461
 30
0.0
 11
287.6979127662204
 21
142.5539602988461
 31
0.0
  0
LINE
  5
7044
330
1E
100
AcDbEntity
  8
製品
  6
Continuous
 62
     4
100
AcDbLine
 10
284.4979127662201
 20
140.5539602988461
 30
0.0
 11
289.2979127662203
 21
140.5539602988461
 31
0.0
  0
LINE
  5
7045
330
1E
100
AcDbEntity
  8
製品
  6
PLINE2
 62
     2
100
AcDbLine
 10
285.6979127662204
 20
144.6339602988461
 30
0.0
 11
285.6979127662204
 21
142.5539602988461
 31
0.0
  0
LINE
  5
7046
330
1E
100
AcDbEntity
  8
製品
  6
Continuous
 62
     4
100
AcDbLine
 10
287.6979127662204
 20
142.9539602988462
 30
0.0
 11
289.6979127662204
 21
142.9539602988462
 31
0.0
  0
LINE
  5
7047
330
1E
100
AcDbEntity
  8
製品
  6
Continuous
 62
     2
100
AcDbLine
 10
289.6979127662204
 20
145.4981162988462
 30
0.0
 11
294.6979127662204
 21
150.4981162988462
 31
0.0
  0
LINE
  5
7048
330
1E
100
AcDbEntity
  8
製品
  6
Continuous
 62
     2
100
AcDbLine
 10
289.6979127662204
 20
143.3767952988461
 30
0.0
 11
294.6979127662204
 21
148.3767952988461
 31
0.0
  0
LINE
  5
7049
330
1E
100
AcDbEntity
  8
製品
  6
Continuous
 62
     2
100
AcDbLine
 10
289.6979127662204
 20
151.9798262988462
 30
0.0
 11
294.6979127662204
 21
146.9798262988462
 31
0.0
  0
LINE
  5
704A
330
1E
100
AcDbEntity
  8
製品
  6
Continuous
 62
     2
100
AcDbLine
 10
289.6979127662204
 20
149.8585052988461
 30
0.0
 11
294.6979127662204
 21
144.8585052988461
 31
0.0
  0
LINE
  5
704B
330
1E
100
AcDbEntity
  8
製品
  6
Continuous
 62
     2
100
AcDbLine
 10
289.6979127662204
 20
147.7371852988459
 30
0.0
 11
294.6979127662204
 21
142.7371852988459
 31
0.0
  0
ARC
  5
704C
330
1E
100
AcDbEntity
  8
製品
  6
PLINE2
 62
     2
100
AcDbCircle
 10
280.2979127662203
 20
144.6339602988461
 30
0.0
 40
0.6
100
AcDbArc
 50
90.0
 51
180.0
  0
LINE
  5
704D
330
1E
100
AcDbEntity
  8
製品
  6
PLINE2
 62
     2
100
AcDbLine
 10
281.7979127662203
 20
143.6339602988461
 30
0.0
 11
283.59791276622
 21
143.6339602988461
 31
0.0
  0
LINE
  5
704E
330
1E
100
AcDbEntity
  8
製品
  6
Continuous
 62
     4
100
AcDbLine
 10
279.4979127662201
 20
140.5539602988461
 30
0.0
 11
284.09791276622
 21
140.5539602988461
 31
0.0
  0
LINE
  5
704F
330
1E
100
AcDbEntity
  8
製品
  6
PLINE2
 62
     2
100
AcDbLine
 10
279.6979127662204
 20
142.5539602988461
 30
0.0
 11
279.6979127662204
 21
144.6339602988461
 31
0.0
  0
LINE
  5
7050
330
1E
100
AcDbEntity
  8
製品
  6
PLINE2
 62
     2
100
AcDbLine
 10
277.6979127662204
 20
142.9539602988462
 30
0.0
 11
278.4179127662202
 21
142.233960298846
 31
0.0
  0
LINE
  5
7051
330
1E
100
AcDbEntity
  8
製品
  6
PLINE2
 62
     2
100
AcDbLine
 10
277.8304607662199
 20
143.2739602988459
 30
0.0
 11
278.5504607662202
 21
142.5539602988461
 31
0.0
  0
LINE
  5
7052
330
1E
100
AcDbEntity
  8
製品
  6
Continuous
 62
     4
100
AcDbLine
 10
277.6979127662204
 20
142.9539602988462
 30
0.0
 11
277.6979127662204
 21
142.5539602988461
 31
0.0
  0
LINE
  5
7053
330
1E
100
AcDbEntity
  8
製品
  6
PLINE2
 62
     2
100
AcDbLine
 10
276.09791276622
 20
143.2739602988459
 30
0.0
 11
276.09791276622
 21
142.9539602988462
 31
0.0
  0
LINE
  5
7054
330
1E
100
AcDbEntity
  8
製品
  6
Continuous
 62
     4
100
AcDbLine
 10
276.09791276622
 20
142.5539602988461
 30
0.0
 11
276.09791276622
 21
140.9539602988462
 31
0.0
  0
LINE
  5
7055
330
1E
100
AcDbEntity
  8
製品
  6
PLINE2
 62
     2
100
AcDbLine
 10
276.09791276622
 20
143.2739602988459
 30
0.0
 11
277.8304607662199
 21
143.2739602988459
 31
0.0
  0
LINE
  5
7056
330
1E
100
AcDbEntity
  8
製品
  6
Continuous
 62
     4
100
AcDbLine
 10
277.6979127662204
 20
142.5539602988461
 30
0.0
 11
276.09791276622
 21
142.5539602988461
 31
0.0
  0
LINE
  5
7057
330
1E
100
AcDbEntity
  8
製品
  6
Continuous
 62
     4
100
AcDbLine
 10
277.6979127662204
 20
142.9539602988462
 30
0.0
 11
275.6979127662204
 21
142.9539602988462
 31
0.0
  0
LINE
  5
7058
330
1E
100
AcDbEntity
  8
製品
  6
PLINE2
 62
     2
100
AcDbLine
 10
277.6979127662204
 20
142.5539602988461
 30
0.0
 11
279.6979127662204
 21
142.5539602988461
 31
0.0
  0
LINE
  5
7059
330
1E
100
AcDbEntity
  8
製品
  6
Continuous
 62
     4
100
AcDbLine
 10
276.09791276622
 20
140.5539602988461
 30
0.0
 11
279.09791276622
 21
140.5539602988461
 31
0.0
  0
LINE
  5
705A
330
1E
100
AcDbEntity
  8
製品
  6
PLINE2
 62
     2
100
AcDbLine
 10
276.09791276622
 20
142.1539602988461
 30
0.0
 11
289.2979127662203
 21
142.1539602988461
 31
0.0
  0
LINE
  5
705B
330
1E
100
AcDbEntity
  8
製品
  6
PLINE2
 62
     2
100
AcDbLine
 10
280.2979127662203
 20
145.233960298846
 30
0.0
 11
285.09791276622
 21
145.233960298846
 31
0.0
  0
LINE
  5
705C
330
1E
100
AcDbEntity
  8
製品
  6
Continuous
 62
     4
100
AcDbLine
 10
276.09791276622
 20
140.9539602988462
 30
0.0
 11
289.2979127662203
 21
140.9539602988462
 31
0.0
  0
LINE
  5
705D
330
1E
100
AcDbEntity
  8
製品
  6
Continuous
 62
     2
100
AcDbLine
 10
289.6979127662204
 20
153.9833972988459
 30
0.0
 11
294.6979127662204
 21
158.9833972988459
 31
0.0
  0
LINE
  5
705E
330
1E
100
AcDbEntity
  8
製品
  6
Continuous
 62
     2
100
AcDbLine
 10
289.6979127662204
 20
151.8620772988462
 30
0.0
 11
294.6979127662204
 21
156.8620772988462
 31
0.0
  0
LINE
  5
705F
330
1E
100
AcDbEntity
  8
製品
  6
Continuous
 62
     2
100
AcDbLine
 10
289.6979127662204
 20
149.7407562988461
 30
0.0
 11
294.6979127662204
 21
154.7407562988461
 31
0.0
  0
LINE
  5
7060
330
1E
100
AcDbEntity
  8
製品
  6
Continuous
 62
     2
100
AcDbLine
 10
289.6979127662204
 20
158.3437872988462
 30
0.0
 11
294.6979127662204
 21
153.3437872988462
 31
0.0
  0
LINE
  5
7061
330
1E
100
AcDbEntity
  8
製品
  6
Continuous
 62
     2
100
AcDbLine
 10
289.6979127662204
 20
156.2224662988461
 30
0.0
 11
294.6979127662204
 21
151.2224662988461
 31
0.0
  0
LINE
  5
7062
330
1E
100
AcDbEntity
  8
製品
  6
Continuous
 62
     2
100
AcDbLine
 10
277.2233567662202
 20
146.9539602988462
 30
0.0
 11
289.6979127662204
 21
159.428515298846
 31
0.0
  0
LINE
  5
7063
330
1E
100
AcDbEntity
  8
製品
  6
PLINE2
 62
     2
100
AcDbLine
 10
283.59791276622
 20
155.233960298846
 30
0.0
 11
283.59791276622
 21
143.6339602988461
 31
0.0
  0
LINE
  5
7064
330
1E
100
AcDbEntity
  8
製品
  6
PLINE2
 62
     2
100
AcDbLine
 10
281.7979127662203
 20
155.233960298846
 30
0.0
 11
281.7979127662203
 21
143.6339602988461
 31
0.0
  0
LINE
  5
7065
330
1E
100
AcDbEntity
  8
製品
  6
Continuous
 62
     4
100
AcDbLine
 10
300.1979127662204
 20
139.253960298846
 30
0.0
 11
300.1979127662204
 21
138.253960298846
 31
0.0
  0
LINE
  5
7066
330
1E
100
AcDbEntity
  8
製品
  6
Continuous
 62
     4
100
AcDbLine
 10
300.4579127662201
 20
139.5139602988462
 30
0.0
 11
300.4579127662201
 21
138.5539602988461
 31
0.0
  0
LINE
  5
7067
330
1E
100
AcDbEntity
  8
製品
  6
Continuous
 62
     4
100
AcDbLine
 10
298.6979127662204
 20
137.9539602988462
 30
0.0
 11
298.6979127662204
 21
139.253960298846
 31
0.0
  0
LINE
  5
7068
330
1E
100
AcDbEntity
  8
製品
  6
Continuous
 62
     4
100
AcDbLine
 10
298.4379127662202
 20
139.5139602988462
 30
0.0
 11
298.4379127662202
 21
138.253960298846
 31
0.0
  0
LINE
  5
7069
330
1E
100
AcDbEntity
  8
製品
  6
Continuous
 62
     4
100
AcDbLine
 10
298.9979127662201
 20
139.253960298846
 30
0.0
 11
298.9979127662201
 21
138.253960298846
 31
0.0
  0
LINE
  5
706A
330
1E
100
AcDbEntity
  8
製品
  6
Continuous
 62
     4
100
AcDbLine
 10
298.6979127662204
 20
139.253960298846
 30
0.0
 11
300.1979127662204
 21
139.253960298846
 31
0.0
  0
LINE
  5
706B
330
1E
100
AcDbEntity
  8
製品
  6
Continuous
 62
     4
100
AcDbLine
 10
300.4579127662201
 20
139.5139602988462
 30
0.0
 11
298.4379127662202
 21
139.5139602988462
 31
0.0
  0
LINE
  5
706C
330
1E
100
AcDbEntity
  8
製品
  6
Continuous
 62
     2
100
AcDbLine
 10
293.06035876622
 20
138.253960298846
 30
0.0
 11
294.6979127662204
 21
139.8915142988463
 31
0.0
  0
LINE
  5
706D
330
1E
100
AcDbEntity
  8
製品
  6
Continuous
 62
     2
100
AcDbLine
 10
289.9979127662201
 20
138.9519032988461
 30
0.0
 11
290.6958567662201
 21
138.253960298846
 31
0.0
  0
LINE
  5
706E
330
1E
100
AcDbEntity
  8
製品
  6
Continuous
 62
     4
100
AcDbLine
 10
289.2979127662203
 20
136.3539602988463
 30
0.0
 11
288.2979127662203
 21
136.3539602988463
 31
0.0
  0
LINE
  5
706F
330
1E
100
AcDbEntity
  8
製品
  6
Continuous
 62
     4
100
AcDbLine
 10
288.2979127662203
 20
136.3539602988463
 30
0.0
 11
288.2979127662203
 21
135.9539602988462
 31
0.0
  0
LINE
  5
7070
330
1E
100
AcDbEntity
  8
製品
  6
Continuous
 62
     4
100
AcDbLine
 10
289.6979127662204
 20
135.9539602988462
 30
0.0
 11
288.2979127662203
 21
135.9539602988462
 31
0.0
  0
LINE
  5
7071
330
1E
100
AcDbEntity
  8
製品
  6
Continuous
 62
     4
100
AcDbLine
 10
284.09791276622
 20
136.3539602988463
 30
0.0
 11
284.09791276622
 21
135.9539602988462
 31
0.0
  0
LINE
  5
7072
330
1E
100
AcDbEntity
  8
製品
  6
Continuous
 62
     4
100
AcDbLine
 10
279.09791276622
 20
135.9539602988462
 30
0.0
 11
279.4979127662201
 21
135.9539602988462
 31
0.0
  0
LINE
  5
7073
330
1E
100
AcDbEntity
  8
製品
  6
PLINE2
 62
     2
100
AcDbLine
 10
275.6979127662204
 20
139.656903298846
 30
0.0
 11
274.4000417662202
 21
138.3590322988462
 31
0.0
  0
LINE
  5
7074
330
1E
100
AcDbEntity
  8
製品
  6
PLINE2
 62
     2
100
AcDbLine
 10
275.6979127662204
 20
139.091218298846
 30
0.0
 11
274.8899717662204
 21
138.2832782988463
 31
0.0
  0
LINE
  5
7075
330
1E
100
AcDbEntity
  8
製品
  6
PLINE2
 62
     2
100
AcDbLine
 10
275.6979127662204
 20
138.525533298846
 30
0.0
 11
275.3168327662203
 21
138.1444532988463
 31
0.0
  0
LINE
  5
7076
330
1E
100
AcDbEntity
  8
製品
  6
PLINE2
 62
     2
100
AcDbLine
 10
275.6979127662204
 20
138.959847298846
 30
0.0
 11
275.69421776622
 21
138.9561522988461
 31
0.0
  0
LINE
  5
7077
330
1E
100
AcDbEntity
  8
製品
  6
Continuous
 62
     4
100
AcDbLine
 10
275.6979127662204
 20
135.9539602988462
 30
0.0
 11
276.09791276622
 21
135.9539602988462
 31
0.0
  0
LINE
  5
7078
330
1E
100
AcDbEntity
  8
製品
  6
Continuous
 62
     4
100
AcDbLine
 10
284.09791276622
 20
135.9539602988462
 30
0.0
 11
284.4979127662201
 21
135.9539602988462
 31
0.0
  0
LINE
  5
7079
330
1E
100
AcDbEntity
  8
製品
  6
Continuous
 62
     4
100
AcDbLine
 10
298.4379127662202
 20
138.253960298846
 30
0.0
 11
289.9979127662201
 21
138.253960298846
 31
0.0
  0
LINE
  5
707A
330
1E
100
AcDbEntity
  8
製品
  6
Continuous
 62
     2
100
AcDbLine
 10
289.9979127662201
 20
139.434154298846
 30
0.0
 11
294.6979127662204
 21
144.1341542988463
 31
0.0
  0
LINE
  5
707B
330
1E
100
AcDbEntity
  8
製品
  6
Continuous
 62
     2
100
AcDbLine
 10
290.9390377662199
 20
138.253960298846
 30
0.0
 11
294.6979127662204
 21
142.012834298846
 31
0.0
  0
LINE
  5
707C
330
1E
100
AcDbEntity
  8
製品
  6
Continuous
 62
     2
100
AcDbLine
 10
289.6979127662204
 20
143.4945442988461
 30
0.0
 11
294.6979127662204
 21
138.4945442988461
 31
0.0
  0
LINE
  5
707D
330
1E
100
AcDbEntity
  8
製品
  6
Continuous
 62
     2
100
AcDbLine
 10
289.9979127662201
 20
141.0732242988462
 30
0.0
 11
292.8171767662203
 21
138.253960298846
 31
0.0
  0
LINE
  5
707E
330
1E
100
AcDbEntity
  8
図面枠
  6
Continuous
 62
     2
100
AcDbLine
 10
292.1979127662204
 20
141.9539602988462
 30
0.0
 11
278.9188567662201
 21
118.9539602988462
 31
0.0
  0
LINE
  5
707F
330
1E
100
AcDbEntity
  8
製品
  6
Continuous
 62
     4
100
AcDbLine
 10
289.9979127662201
 20
141.9539602988462
 30
0.0
 11
289.9979127662201
 21
138.253960298846
 31
0.0
  0
LINE
  5
7080
330
1E
100
AcDbEntity
  8
製品
  6
PLINE2
 62
     2
100
AcDbLine
 10
275.6979127662204
 20
140.2225892988459
 30
0.0
 11
273.81643576622
 21
138.341112298846
 31
0.0
  0
LINE
  5
7081
330
1E
100
AcDbEntity
  8
製品
  6
Continuous
 62
     4
100
AcDbLine
 10
276.09791276622
 20
135.9539602988462
 30
0.0
 11
276.09791276622
 21
140.5539602988461
 31
0.0
  0
LINE
  5
7082
330
1E
100
AcDbEntity
  8
製品
  6
Continuous
 62
     4
100
AcDbLine
 10
279.09791276622
 20
140.5539602988461
 30
0.0
 11
279.09791276622
 21
135.9539602988462
 31
0.0
  0
LINE
  5
7083
330
1E
100
AcDbEntity
  8
製品
  6
Continuous
 62
     4
100
AcDbLine
 10
279.4979127662201
 20
135.9539602988462
 30
0.0
 11
279.4979127662201
 21
140.5539602988461
 31
0.0
  0
LINE
  5
7084
330
1E
100
AcDbEntity
  8
製品
  6
Continuous
 62
     4
100
AcDbLine
 10
284.09791276622
 20
140.5539602988461
 30
0.0
 11
284.09791276622
 21
136.3539602988463
 31
0.0
  0
LINE
  5
7085
330
1E
100
AcDbEntity
  8
製品
  6
Continuous
 62
     4
100
AcDbLine
 10
284.4979127662201
 20
135.9539602988462
 30
0.0
 11
284.4979127662201
 21
140.5539602988461
 31
0.0
  0
LINE
  5
7086
330
1E
100
AcDbEntity
  8
製品
  6
Continuous
 62
     4
100
AcDbLine
 10
289.2979127662203
 20
140.5539602988461
 30
0.0
 11
289.2979127662203
 21
136.3539602988463
 31
0.0
  0
LINE
  5
7087
330
1E
100
AcDbEntity
  8
製品
  6
Continuous
 62
     4
100
AcDbLine
 10
275.6979127662204
 20
142.9539602988462
 30
0.0
 11
275.6979127662204
 21
135.9539602988462
 31
0.0
  0
LINE
  5
7088
330
1E
100
AcDbEntity
  8
製品
  6
PLINE2
 62
     2
100
AcDbLine
 10
273.03517076622
 20
140.9539602988462
 30
0.0
 11
272.6979127662204
 21
140.6167012988463
 31
0.0
  0
LINE
  5
7089
330
1E
100
AcDbEntity
  8
製品
  6
PLINE2
 62
     2
100
AcDbLine
 10
273.6008567662203
 20
140.9539602988462
 30
0.0
 11
272.6979127662204
 21
140.0510162988463
 31
0.0
  0
LINE
  5
708A
330
1E
100
AcDbEntity
  8
製品
  6
Continuous
 62
     4
100
AcDbLine
 10
272.6979127662204
 20
137.9539602988462
 30
0.0
 11
272.6979127662204
 21
146.9539602988462
 31
0.0
  0
LINE
  5
708B
330
1E
100
AcDbEntity
  8
製品
  6
Continuous
 62
     4
100
AcDbLine
 10
272.6979127662204
 20
146.9539602988462
 30
0.0
 11
294.6979127662204
 21
146.9539602988462
 31
0.0
  0
LINE
  5
708C
330
1E
100
AcDbEntity
  8
製品
  6
PLINE2
 62
     2
100
AcDbLine
 10
275.6979127662204
 20
140.7882742988459
 30
0.0
 11
273.03594876622
 21
138.1263112988459
 31
0.0
  0
LINE
  5
708D
330
1E
100
AcDbEntity
  8
製品
  6
PLINE2
 62
     2
100
AcDbLine
 10
275.2979127662203
 20
140.9539602988462
 30
0.0
 11
272.6979127662204
 21
138.3539602988463
 31
0.0
  0
LINE
  5
708E
330
1E
100
AcDbEntity
  8
製品
  6
PLINE2
 62
     2
100
AcDbLine
 10
274.7322267662199
 20
140.9539602988462
 30
0.0
 11
272.6979127662204
 21
138.9196452988459
 31
0.0
  0
LINE
  5
708F
330
1E
100
AcDbEntity
  8
製品
  6
PLINE2
 62
     2
100
AcDbLine
 10
274.1665417662204
 20
140.9539602988462
 30
0.0
 11
272.6979127662204
 21
139.4853302988459
 31
0.0
  0
ARC
  5
7090
330
1E
100
AcDbEntity
  8
製品
  6
Continuous
 62
     4
100
AcDbCircle
 10
274.1979127662204
 20
135.429646298846
 30
0.0
 40
2.936350999999999
100
AcDbArc
 50
59.28032800001123
 51
120.7196719999887
  0
LINE
  5
7091
330
1E
100
AcDbEntity
  8
製品
  6
Continuous
 62
     2
100
AcDbLine
 10
258.6979127662204
 20
162.7503882988463
 30
0.0
 11
300.9014837662204
 21
204.9539602988462
 31
0.0
  0
LINE
  5
7092
330
1E
100
AcDbEntity
  8
製品
  6
Continuous
 62
     2
100
AcDbLine
 10
258.6979127662204
 20
164.1646022988462
 30
0.0
 11
299.4872707662204
 21
204.9539602988462
 31
0.0
  0
LINE
  5
7093
330
1E
100
AcDbEntity
  8
製品
  6
Continuous
 62
     2
100
AcDbLine
 10
258.6979127662204
 20
165.5788152988463
 30
0.0
 11
298.07305676622
 21
204.9539602988462
 31
0.0
  0
LINE
  5
7094
330
1E
100
AcDbEntity
  8
製品
  6
Continuous
 62
     2
100
AcDbLine
 10
258.6979127662204
 20
199.9006882988461
 30
0.0
 11
263.75118476622
 21
204.9539602988462
 31
0.0
  0
LINE
  5
7095
330
1E
100
AcDbEntity
  8
製品
  6
Continuous
 62
     2
100
AcDbLine
 10
258.6979127662204
 20
198.4864742988462
 30
0.0
 11
265.1653977662201
 21
204.9539602988462
 31
0.0
  0
LINE
  5
7096
330
1E
100
AcDbEntity
  8
製品
  6
Continuous
 62
     2
100
AcDbLine
 10
258.6979127662204
 20
197.0722612988462
 30
0.0
 11
266.57961176622
 21
204.9539602988462
 31
0.0
  0
LINE
  5
7097
330
1E
100
AcDbEntity
  8
製品
  6
Continuous
 62
     2
100
AcDbLine
 10
296.4552717662201
 20
181.9539602988462
 30
0.0
 11
301.4552717662201
 21
186.9539602988462
 31
0.0
  0
LINE
  5
7098
330
1E
100
AcDbEntity
  8
製品
  6
Continuous
 62
     2
100
AcDbLine
 10
295.0288647662202
 20
186.9539602988462
 30
0.0
 11
300.0288647662202
 21
181.9539602988462
 31
0.0
  0
LINE
  5
7099
330
1E
100
AcDbEntity
  8
製品
  6
Continuous
 62
     2
100
AcDbLine
 10
290.8486697662203
 20
186.9539602988462
 30
0.0
 11
289.6979127662204
 21
185.803202298846
 31
0.0
  0
LINE
  5
709A
330
1E
100
AcDbEntity
  8
製品
  6
Continuous
 62
     2
100
AcDbLine
 10
292.9699907662203
 20
186.9539602988462
 30
0.0
 11
289.6979127662204
 21
183.6818822988463
 31
0.0
  0
LINE
  5
709B
330
1E
100
AcDbEntity
  8
製品
  6
Continuous
 62
     2
100
AcDbLine
 10
289.6979127662204
 20
181.6783102988462
 30
0.0
 11
294.6979127662204
 21
176.6783102988462
 31
0.0
  0
LINE
  5
709C
330
1E
100
AcDbEntity
  8
製品
  6
Continuous
 62
     2
100
AcDbLine
 10
289.6979127662204
 20
170.9483032988461
 30
0.0
 11
294.6979127662204
 21
175.9483032988461
 31
0.0
  0
LINE
  5
709D
330
1E
100
AcDbEntity
  8
製品
  6
Continuous
 62
     2
100
AcDbLine
 10
289.6979127662204
 20
175.3143492988462
 30
0.0
 11
294.6979127662204
 21
170.3143492988462
 31
0.0
  0
LINE
  5
709E
330
1E
100
AcDbEntity
  8
製品
  6
Continuous
 62
     2
100
AcDbLine
 10
289.6979127662204
 20
173.075280298846
 30
0.0
 11
294.6979127662204
 21
178.075280298846
 31
0.0
  0
LINE
  5
709F
330
1E
100
AcDbEntity
  8
製品
  6
Continuous
 62
     2
100
AcDbLine
 10
289.6979127662204
 20
175.1966002988462
 30
0.0
 11
294.6979127662204
 21
180.1966002988462
 31
0.0
  0
LINE
  5
70A0
330
1E
100
AcDbEntity
  8
製品
  6
Continuous
 62
     2
100
AcDbLine
 10
289.6979127662204
 20
179.556990298846
 30
0.0
 11
294.6979127662204
 21
174.556990298846
 31
0.0
  0
LINE
  5
70A1
330
1E
100
AcDbEntity
  8
製品
  6
Continuous
 62
     2
100
AcDbLine
 10
289.6979127662204
 20
177.4356702988463
 30
0.0
 11
294.6979127662204
 21
172.4356702988463
 31
0.0
  0
LINE
  5
70A2
330
1E
100
AcDbEntity
  8
製品
  6
Continuous
 62
     2
100
AcDbLine
 10
289.6979127662204
 20
185.920951298846
 30
0.0
 11
294.6979127662204
 21
180.920951298846
 31
0.0
  0
LINE
  5
70A3
330
1E
100
AcDbEntity
  8
製品
  6
Continuous
 62
     2
100
AcDbLine
 10
289.6979127662204
 20
183.7996312988463
 30
0.0
 11
294.6979127662204
 21
178.7996312988463
 31
0.0
  0
LINE
  5
70A4
330
1E
100
AcDbEntity
  8
製品
  6
Continuous
 62
     2
100
AcDbLine
 10
299.3339517662203
 20
186.9539602988462
 30
0.0
 11
289.6979127662204
 21
177.3179212988462
 31
0.0
  0
LINE
  5
70A5
330
1E
100
AcDbEntity
  8
製品
  6
Continuous
 62
     2
100
AcDbLine
 10
297.2126307662203
 20
186.9539602988462
 30
0.0
 11
289.6979127662204
 21
179.439241298846
 31
0.0
  0
LINE
  5
70A6
330
1E
100
AcDbEntity
  8
製品
  6
Continuous
 62
     2
100
AcDbLine
 10
295.0913107662201
 20
186.9539602988462
 30
0.0
 11
289.6979127662204
 21
181.5605612988462
 31
0.0
  0
LINE
  5
70A7
330
1E
100
AcDbEntity
  8
製品
  6
Continuous
 62
     2
100
AcDbLine
 10
292.90754476622
 20
186.9539602988462
 30
0.0
 11
297.90754476622
 21
181.9539602988462
 31
0.0
  0
LINE
  5
70A8
330
1E
100
AcDbEntity
  8
製品
  6
Continuous
 62
     2
100
AcDbLine
 10
290.7862247662203
 20
186.9539602988462
 30
0.0
 11
295.7862247662202
 21
181.9539602988462
 31
0.0
  0
LINE
  5
70A9
330
1E
100
AcDbEntity
  8
製品
  6
Continuous
 62
     2
100
AcDbLine
 10
289.6979127662204
 20
162.4686782988461
 30
0.0
 11
294.6979127662204
 21
167.4686782988461
 31
0.0
  0
LINE
  5
70AA
330
1E
100
AcDbEntity
  8
製品
  6
Continuous
 62
     2
100
AcDbLine
 10
289.6979127662204
 20
168.9503882988462
 30
0.0
 11
294.6979127662204
 21
163.9503882988462
 31
0.0
  0
LINE
  5
70AB
330
1E
100
AcDbEntity
  8
製品
  6
Continuous
 62
     2
100
AcDbLine
 10
289.6979127662204
 20
166.829068298846
 30
0.0
 11
294.6979127662204
 21
161.829068298846
 31
0.0
  0
LINE
  5
70AC
330
1E
100
AcDbEntity
  8
製品
  6
Continuous
 62
     2
100
AcDbLine
 10
289.6979127662204
 20
168.8326392988462
 30
0.0
 11
294.6979127662204
 21
173.8326392988462
 31
0.0
  0
LINE
  5
70AD
330
1E
100
AcDbEntity
  8
製品
  6
Continuous
 62
     2
100
AcDbLine
 10
289.6979127662204
 20
166.7113192988459
 30
0.0
 11
294.6979127662204
 21
171.711319298846
 31
0.0
  0
LINE
  5
70AE
330
1E
100
AcDbEntity
  8
製品
  6
Continuous
 62
     2
100
AcDbLine
 10
289.6979127662204
 20
164.5899992988462
 30
0.0
 11
294.6979127662204
 21
169.5899992988462
 31
0.0
  0
LINE
  5
70AF
330
1E
100
AcDbEntity
  8
製品
  6
Continuous
 62
     2
100
AcDbLine
 10
289.6979127662204
 20
173.193029298846
 30
0.0
 11
294.6979127662204
 21
168.193029298846
 31
0.0
  0
LINE
  5
70B0
330
1E
100
AcDbEntity
  8
製品
  6
Continuous
 62
     2
100
AcDbLine
 10
289.6979127662204
 20
171.0717092988462
 30
0.0
 11
294.6979127662204
 21
166.0717092988462
 31
0.0
  0
LINE
  5
70B1
330
1E
100
AcDbEntity
  8
製品
  6
Continuous
 62
     4
100
AcDbLine
 10
314.6979127662204
 20
162.9539602988462
 30
0.0
 11
314.6979127662204
 21
154.2739602988459
 31
0.0
  0
LINE
  5
70B2
330
1E
100
AcDbEntity
  8
製品
  6
Continuous
 62
     4
100
AcDbLine
 10
308.6979127662204
 20
162.9539602988462
 30
0.0
 11
308.6979127662204
 21
154.2739602988459
 31
0.0
  0
LINE
  5
70B3
330
1E
100
AcDbEntity
  8
製品
  6
Continuous
 62
     4
100
AcDbLine
 10
310.7979127662203
 20
181.9539602988462
 30
0.0
 11
310.7979127662203
 21
158.9539602988462
 31
0.0
  0
LINE
  5
70B4
330
1E
100
AcDbEntity
  8
製品
  6
Continuous
 62
     4
100
AcDbLine
 10
312.59791276622
 20
158.9539602988462
 30
0.0
 11
312.59791276622
 21
181.9539602988462
 31
0.0
  0
LINE
  5
70B5
330
1E
100
AcDbEntity
  8
製品
  6
PLINE3
 62
     2
100
AcDbLine
 10
311.6979127662204
 20
137.6339602988461
 30
0.0
 11
311.6979127662204
 21
190.9539602988462
 31
0.0
  0
ARC
  5
70B6
330
1E
100
AcDbEntity
  8
製品
  6
Continuous
 62
     2
100
AcDbCircle
 10
333.2179127662199
 20
144.7539602988459
 30
0.0
 40
0.2
100
AcDbArc
 50
90.0
 51
180.0
  0
LINE
  5
70B7
330
1E
100
AcDbEntity
  8
製品
  6
Continuous
 62
     2
100
AcDbLine
 10
333.0179127662201
 20
144.4539602988462
 30
0.0
 11
332.9179127662202
 21
144.4539602988462
 31
0.0
  0
ARC
  5
70B8
330
1E
100
AcDbEntity
  8
製品
  6
Continuous
 62
     2
100
AcDbCircle
 10
333.2179127662199
 20
144.7539602988459
 30
0.0
 40
0.3
100
AcDbArc
 50
90.0
 51
180.0
  0
ARC
  5
70B9
330
1E
100
AcDbEntity
  8
製品
  6
Continuous
 62
     2
100
AcDbCircle
 10
332.8179127662203
 20
144.5524602988463
 30
0.0
 40
0.300004
100
AcDbArc
 50
179.713522999995
 51
337.2039270000152
  0
LINE
  5
70BA
330
1E
100
AcDbEntity
  8
製品
  6
Continuous
 62
     2
100
AcDbLine
 10
333.11791276622
 20
141.3539602988463
 30
0.0
 11
332.5427127662202
 21
141.3539602988463
 31
0.0
  0
LINE
  5
70BB
330
1E
100
AcDbEntity
  8
製品
  6
Continuous
 62
     2
100
AcDbLine
 10
333.11791276622
 20
141.2539602988459
 30
0.0
 11
332.5299127662203
 21
141.2539602988459
 31
0.0
  0
ARC
  5
70BC
330
1E
100
AcDbEntity
  8
製品
  6
Continuous
 62
     2
100
AcDbCircle
 10
333.5179127662201
 20
146.7143332988463
 30
0.0
 40
1.0
100
AcDbArc
 50
108.2674109999966
 51
180.0
  0
LINE
  5
70BD
330
1E
100
AcDbEntity
  8
製品
  6
Continuous
 62
     2
100
AcDbLine
 10
333.5179127662201
 20
152.7739602988459
 30
0.0
 11
323.9179127662202
 21
152.7739602988459
 31
0.0
  0
LINE
  5
70BE
330
1E
100
AcDbEntity
  8
製品
  6
Continuous
 62
     2
100
AcDbLine
 10
333.11791276622
 20
143.173960298846
 30
0.0
 11
324.3179127662203
 21
143.173960298846
 31
0.0
  0
LINE
  5
70BF
330
1E
100
AcDbEntity
  8
製品
  6
Continuous
 62
     4
100
AcDbLine
 10
341.1996407662201
 20
141.2539602988459
 30
0.0
 11
321.59791276622
 21
141.2539602988459
 31
0.0
  0
LINE
  5
70C0
330
1E
100
AcDbEntity
  8
製品
  6
Continuous
 62
     4
100
AcDbLine
 10
332.5179127662201
 20
145.0539602988461
 30
0.0
 11
341.1996407662201
 21
145.0539602988461
 31
0.0
  0
LINE
  5
70C1
330
1E
100
AcDbEntity
  8
製品
  6
Continuous
 62
     4
100
AcDbLine
 10
321.59791276622
 20
139.253960298846
 30
0.0
 11
341.1996407662201
 21
139.253960298846
 31
0.0
  0
DIMENSION
  5
70C2
330
1E
100
AcDbEntity
  8
寸法
  6
Continuous
100
AcDbDimension
  2
*D11
 10
324.6979127662204
 20
119.0073171166192
 30
0.0
 11
322.6979127662204
 21
119.0073171166192
 31
0.0
 70
   160
  1
20
 71
     5
 42
4.0
  3
AutoCAD
100
AcDbAlignedDimension
 13
320.6979127662204
 23
136.6339602988461
 33
0.0
 14
324.6979127662204
 24
136.6339602988456
 34
0.0
100
AcDbRotatedDimension
1001
ACAD
1000
DSTYLE
1002
{
1070
   147
1040
0.8
1070
   140
1040
10.0
1002
}
  0
LINE
  5
70C3
330
1E
100
AcDbEntity
  8
製品
  6
Continuous
 62
     4
100
AcDbLine
 10
317.7479127662201
 20
154.6539602988461
 30
0.0
 11
316.9479127662204
 21
154.6539602988461
 31
0.0
  0
LINE
  5
70C4
330
1E
100
AcDbEntity
  8
製品
  6
Continuous
 62
     4
100
AcDbLine
 10
317.7479127662201
 20
155.0539602988461
 30
0.0
 11
317.7479127662201
 21
154.6539602988461
 31
0.0
  0
LINE
  5
70C5
330
1E
100
AcDbEntity
  8
製品
  6
Continuous
 62
     4
100
AcDbLine
 10
317.7479127662201
 20
155.0539602988461
 30
0.0
 11
318.0479127662203
 21
155.0539602988461
 31
0.0
  0
LINE
  5
70C6
330
1E
100
AcDbEntity
  8
製品
  6
Continuous
 62
     2
100
AcDbLine
 10
332.3179127662203
 20
151.253960298846
 30
0.0
 11
332.3179127662203
 21
148.4539602988462
 31
0.0
  0
ARC
  5
70C7
330
1E
100
AcDbEntity
  8
製品
  6
Continuous
 62
     2
100
AcDbCircle
 10
329.61791276622
 20
147.4539602988462
 30
0.0
 40
0.6
100
AcDbArc
 50
0.0
 51
90.0
  0
LINE
  5
70C8
330
1E
100
AcDbEntity
  8
製品
  6
Continuous
 62
     2
100
AcDbLine
 10
331.8179127662203
 20
148.0539602988461
 30
0.0
 11
331.9179127662202
 21
148.0539602988461
 31
0.0
  0
ARC
  5
70C9
330
1E
100
AcDbEntity
  8
製品
  6
Continuous
 62
     2
100
AcDbCircle
 10
331.8179127662203
 20
147.4539602988462
 30
0.0
 40
0.6
100
AcDbArc
 50
90.0
 51
180.0
  0
ARC
  5
70CA
330
1E
100
AcDbEntity
  8
製品
  6
Continuous
 62
     2
100
AcDbCircle
 10
327.8179127662203
 20
147.4539602988462
 30
0.0
 40
0.6
100
AcDbArc
 50
90.0
 51
180.0
  0
LINE
  5
70CB
330
1E
100
AcDbEntity
  8
製品
  6
Continuous
 62
     2
100
AcDbLine
 10
327.8179127662203
 20
148.0539602988461
 30
0.0
 11
329.61791276622
 21
148.0539602988461
 31
0.0
  0
ARC
  5
70CC
330
1E
100
AcDbEntity
  8
製品
  6
Continuous
 62
     2
100
AcDbCircle
 10
331.9179127662202
 20
151.253960298846
 30
0.0
 40
0.4
100
AcDbArc
 50
0.0
 51
90.0
  0
ARC
  5
70CD
330
1E
100
AcDbEntity
  8
製品
  6
Continuous
 62
     2
100
AcDbCircle
 10
331.9179127662202
 20
148.4539602988462
 30
0.0
 40
0.4
100
AcDbArc
 50
270.0
 51
0.0
  0
LINE
  5
70CE
330
1E
100
AcDbEntity
  8
製品
  6
Continuous
 62
     2
100
AcDbLine
 10
332.9179127662202
 20
144.4539602988462
 30
0.0
 11
332.9179127662202
 21
144.7539602988459
 31
0.0
  0
LINE
  5
70CF
330
1E
100
AcDbEntity
  8
製品
  6
Continuous
 62
     2
100
AcDbLine
 10
332.5179127662201
 20
146.7143332988463
 30
0.0
 11
332.5179127662201
 21
144.5539602988461
 31
0.0
  0
ARC
  5
70D0
330
1E
100
AcDbEntity
  8
製品
  6
Continuous
 62
     2
100
AcDbCircle
 10
332.3051127662203
 20
141.2243602988461
 30
0.0
 40
0.12
100
AcDbArc
 50
63.47764199999557
 51
108.4651489999879
  0
ARC
  5
70D1
330
1E
100
AcDbEntity
  8
製品
  6
Continuous
 62
     2
100
AcDbCircle
 10
332.3051127662203
 20
141.324360298846
 30
0.0
 40
0.12
100
AcDbArc
 50
63.47764199999557
 51
108.4349520000066
  0
LINE
  5
70D2
330
1E
100
AcDbEntity
  8
製品
  6
Continuous
 62
     2
100
AcDbLine
 10
332.48911276622
 20
141.3665602988463
 30
0.0
 11
332.3587127662201
 21
141.4317602988459
 31
0.0
  0
LINE
  5
70D3
330
1E
100
AcDbEntity
  8
製品
  6
Continuous
 62
     2
100
AcDbLine
 10
332.48911276622
 20
141.266560298846
 30
0.0
 11
332.3587127662201
 21
141.331760298846
 31
0.0
  0
ARC
  5
70D4
330
1E
100
AcDbEntity
  8
製品
  6
Continuous
 62
     2
100
AcDbCircle
 10
332.5427127662202
 20
141.4739602988462
 30
0.0
 40
0.12
100
AcDbArc
 50
243.4776460000105
 51
270.0
  0
ARC
  5
70D5
330
1E
100
AcDbEntity
  8
製品
  6
Continuous
 62
     2
100
AcDbCircle
 10
332.5427127662202
 20
141.3739602988463
 30
0.0
 40
0.12
100
AcDbArc
 50
243.4776460000105
 51
270.0
  0
ARC
  5
70D6
330
1E
100
AcDbEntity
  8
製品
  6
Continuous
 62
     2
100
AcDbCircle
 10
330.7179127662199
 20
144.233960298846
 30
0.0
 40
0.5
100
AcDbArc
 50
180.0
 51
0.0
  0
ARC
  5
70D7
330
1E
100
AcDbEntity
  8
製品
  6
Continuous
 62
     2
100
AcDbCircle
 10
332.0143127662201
 20
141.3803602988461
 30
0.0
 40
0.12
100
AcDbArc
 50
251.5348510000121
 51
288.3745120000078
  0
ARC
  5
70D8
330
1E
100
AcDbEntity
  8
製品
  6
Continuous
 62
     2
100
AcDbCircle
 10
331.11431276622
 20
141.3275602988461
 30
0.0
 40
0.12
100
AcDbArc
 50
71.53485100001211
 51
108.4651489999879
  0
ARC
  5
70D9
330
1E
100
AcDbEntity
  8
製品
  6
Continuous
 62
     2
100
AcDbCircle
 10
331.11431276622
 20
141.2275602988462
 30
0.0
 40
0.12
100
AcDbArc
 50
71.53485100001211
 51
108.4651489999879
  0
LINE
  5
70DA
330
1E
100
AcDbEntity
  8
製品
  6
Continuous
 62
     2
100
AcDbLine
 10
331.6763127662203
 20
141.3413602988463
 30
0.0
 11
331.4523127662202
 21
141.266560298846
 31
0.0
  0
LINE
  5
70DB
330
1E
100
AcDbEntity
  8
製品
  6
Continuous
 62
     2
100
AcDbLine
 10
331.6763127662203
 20
141.4413602988462
 30
0.0
 11
331.4523127662202
 21
141.3665602988463
 31
0.0
  0
LINE
  5
70DC
330
1E
100
AcDbEntity
  8
製品
  6
Continuous
 62
     2
100
AcDbLine
 10
331.3763127662202
 20
141.3665602988463
 30
0.0
 11
331.15231276622
 21
141.4413602988462
 31
0.0
  0
LINE
  5
70DD
330
1E
100
AcDbEntity
  8
製品
  6
Continuous
 62
     2
100
AcDbLine
 10
331.3763127662202
 20
141.266560298846
 30
0.0
 11
331.15231276622
 21
141.3413602988463
 31
0.0
  0
LINE
  5
70DE
330
1E
100
AcDbEntity
  8
製品
  6
Continuous
 62
     2
100
AcDbLine
 10
331.07631276622
 20
141.4413602988462
 30
0.0
 11
330.8523127662203
 21
141.3665602988463
 31
0.0
  0
LINE
  5
70DF
330
1E
100
AcDbEntity
  8
製品
  6
Continuous
 62
     2
100
AcDbLine
 10
331.07631276622
 20
141.3413602988463
 30
0.0
 11
330.8523127662203
 21
141.266560298846
 31
0.0
  0
ARC
  5
70E0
330
1E
100
AcDbEntity
  8
製品
  6
Continuous
 62
     2
100
AcDbCircle
 10
330.8143127662203
 20
141.480360298846
 30
0.0
 40
0.12
100
AcDbArc
 50
251.5348510000121
 51
288.4651489999879
  0
ARC
  5
70E1
330
1E
100
AcDbEntity
  8
製品
  6
Continuous
 62
     2
100
AcDbCircle
 10
330.8143127662203
 20
141.3803602988461
 30
0.0
 40
0.12
100
AcDbArc
 50
251.5348510000121
 51
288.4651489999879
  0
ARC
  5
70E2
330
1E
100
AcDbEntity
  8
製品
  6
Continuous
 62
     2
100
AcDbCircle
 10
330.5143127662201
 20
141.3275602988461
 30
0.0
 40
0.12
100
AcDbArc
 50
71.53485100001211
 51
108.4651489999879
  0
ARC
  5
70E3
330
1E
100
AcDbEntity
  8
製品
  6
Continuous
 62
     2
100
AcDbCircle
 10
330.5143127662201
 20
141.2275602988462
 30
0.0
 40
0.12
100
AcDbArc
 50
71.53485100001211
 51
108.4651489999879
  0
ARC
  5
70E4
330
1E
100
AcDbEntity
  8
製品
  6
Continuous
 62
     2
100
AcDbCircle
 10
330.2143127662203
 20
141.3803602988461
 30
0.0
 40
0.12
100
AcDbArc
 50
251.5348510000121
 51
288.4651489999879
  0
ARC
  5
70E5
330
1E
100
AcDbEntity
  8
製品
  6
Continuous
 62
     2
100
AcDbCircle
 10
330.2143127662203
 20
141.480360298846
 30
0.0
 40
0.12
100
AcDbArc
 50
251.5348510000121
 51
288.4651489999879
  0
ARC
  5
70E6
330
1E
100
AcDbEntity
  8
製品
  6
Continuous
 62
     2
100
AcDbCircle
 10
329.9235127662202
 20
141.324360298846
 30
0.0
 40
0.12
100
AcDbArc
 50
71.53485100001211
 51
116.5223539999895
  0
ARC
  5
70E7
330
1E
100
AcDbEntity
  8
製品
  6
Continuous
 62
     2
100
AcDbCircle
 10
329.9235127662202
 20
141.2243602988461
 30
0.0
 40
0.12
100
AcDbArc
 50
71.53485100001211
 51
116.5223539999895
  0
LINE
  5
70E8
330
1E
100
AcDbEntity
  8
製品
  6
Continuous
 62
     2
100
AcDbLine
 10
330.7763127662203
 20
141.3665602988463
 30
0.0
 11
330.5523127662201
 21
141.4413602988462
 31
0.0
  0
LINE
  5
70E9
330
1E
100
AcDbEntity
  8
製品
  6
Continuous
 62
     2
100
AcDbLine
 10
330.7763127662203
 20
141.266560298846
 30
0.0
 11
330.5523127662201
 21
141.3413602988463
 31
0.0
  0
LINE
  5
70EA
330
1E
100
AcDbEntity
  8
製品
  6
Continuous
 62
     2
100
AcDbLine
 10
330.4763127662201
 20
141.3413602988463
 30
0.0
 11
330.2523127662204
 21
141.266560298846
 31
0.0
  0
LINE
  5
70EB
330
1E
100
AcDbEntity
  8
製品
  6
Continuous
 62
     2
100
AcDbLine
 10
330.4763127662201
 20
141.4413602988462
 30
0.0
 11
330.2523127662204
 21
141.3665602988463
 31
0.0
  0
LINE
  5
70EC
330
1E
100
AcDbEntity
  8
製品
  6
Continuous
 62
     2
100
AcDbLine
 10
330.1763127662204
 20
141.3665602988463
 30
0.0
 11
329.9615127662201
 21
141.4381602988461
 31
0.0
  0
LINE
  5
70ED
330
1E
100
AcDbEntity
  8
製品
  6
Continuous
 62
     2
100
AcDbLine
 10
330.1763127662204
 20
141.266560298846
 30
0.0
 11
329.9615127662201
 21
141.3381602988462
 31
0.0
  0
LINE
  5
70EE
330
1E
100
AcDbEntity
  8
製品
  6
Continuous
 62
     2
100
AcDbLine
 10
329.8699127662199
 20
141.4317602988459
 30
0.0
 11
329.7395127662199
 21
141.3665602988463
 31
0.0
  0
ARC
  5
70EF
330
1E
100
AcDbEntity
  8
製品
  6
Continuous
 62
     2
100
AcDbCircle
 10
332.0143127662201
 20
141.4805602988459
 30
0.0
 40
0.12
100
AcDbArc
 50
251.5650479999934
 51
288.4349370000022
  0
ARC
  5
70F0
330
1E
100
AcDbEntity
  8
製品
  6
Continuous
 62
     2
100
AcDbCircle
 10
331.7143127662204
 20
141.3275602988461
 30
0.0
 40
0.12
100
AcDbArc
 50
71.53485100001211
 51
108.4651489999879
  0
ARC
  5
70F1
330
1E
100
AcDbEntity
  8
製品
  6
Continuous
 62
     2
100
AcDbCircle
 10
331.7143127662204
 20
141.2275602988462
 30
0.0
 40
0.12
100
AcDbArc
 50
71.53485100001211
 51
108.4651489999879
  0
ARC
  5
70F2
330
1E
100
AcDbEntity
  8
製品
  6
Continuous
 62
     2
100
AcDbCircle
 10
331.4143127662202
 20
141.3803602988461
 30
0.0
 40
0.12
100
AcDbArc
 50
251.5348510000121
 51
288.4651489999879
  0
ARC
  5
70F3
330
1E
100
AcDbEntity
  8
製品
  6
Continuous
 62
     2
100
AcDbCircle
 10
331.4143127662202
 20
141.480360298846
 30
0.0
 40
0.12
100
AcDbArc
 50
251.5348510000121
 51
288.4651489999879
  0
LINE
  5
70F4
330
1E
100
AcDbEntity
  8
製品
  6
Continuous
 62
     2
100
AcDbLine
 10
331.9763127662201
 20
141.3665602988463
 30
0.0
 11
331.7523127662204
 21
141.4413602988462
 31
0.0
  0
LINE
  5
70F5
330
1E
100
AcDbEntity
  8
製品
  6
Continuous
 62
     2
100
AcDbLine
 10
331.9763127662201
 20
141.266560298846
 30
0.0
 11
331.7523127662204
 21
141.3413602988463
 31
0.0
  0
ARC
  5
70F6
330
1E
100
AcDbEntity
  8
製品
  6
Continuous
 62
     2
100
AcDbCircle
 10
329.6859127662202
 20
141.4739602988462
 30
0.0
 40
0.12
100
AcDbArc
 50
270.0
 51
296.5223689999841
  0
ARC
  5
70F7
330
1E
100
AcDbEntity
  8
製品
  6
Continuous
 62
     2
100
AcDbCircle
 10
329.6859127662202
 20
141.3739602988463
 30
0.0
 40
0.12
100
AcDbArc
 50
270.0
 51
296.5223689999841
  0
LINE
  5
70F8
330
1E
100
AcDbEntity
  8
製品
  6
Continuous
 62
     2
100
AcDbLine
 10
329.8699127662199
 20
141.331760298846
 30
0.0
 11
329.7395127662199
 21
141.266560298846
 31
0.0
  0
ARC
  5
70F9
330
1E
100
AcDbEntity
  8
製品
  6
Continuous
 62
     2
100
AcDbCircle
 10
326.9215127662202
 20
141.3275602988461
 30
0.0
 40
0.12
100
AcDbArc
 50
71.53485100001211
 51
108.4651489999879
  0
ARC
  5
70FA
330
1E
100
AcDbEntity
  8
製品
  6
Continuous
 62
     2
100
AcDbCircle
 10
326.9215127662202
 20
141.2275602988462
 30
0.0
 40
0.12
100
AcDbArc
 50
71.53485100001211
 51
108.4651489999879
  0
ARC
  5
70FB
330
1E
100
AcDbEntity
  8
製品
  6
Continuous
 62
     2
100
AcDbCircle
 10
327.2215127662199
 20
141.3803602988461
 30
0.0
 40
0.12
100
AcDbArc
 50
251.5348510000121
 51
288.4651489999879
  0
LINE
  5
70FC
330
1E
100
AcDbEntity
  8
製品
  6
Continuous
 62
     2
100
AcDbLine
 10
326.9595127662202
 20
141.3413602988463
 30
0.0
 11
327.1835127662204
 21
141.266560298846
 31
0.0
  0
LINE
  5
70FD
330
1E
100
AcDbEntity
  8
製品
  6
Continuous
 62
     2
100
AcDbLine
 10
327.74991276622
 20
141.2539602988459
 30
0.0
 11
328.48951276622
 21
141.2539602988459
 31
0.0
  0
LINE
  5
70FE
330
1E
100
AcDbEntity
  8
製品
  6
Continuous
 62
     2
100
AcDbLine
 10
328.8927127662201
 20
141.3665602988463
 30
0.0
 11
328.7715127662201
 21
141.4271602988461
 31
0.0
  0
LINE
  5
70FF
330
1E
100
AcDbEntity
  8
製品
  6
Continuous
 62
     2
100
AcDbLine
 10
328.8927127662201
 20
141.266560298846
 30
0.0
 11
328.7715127662201
 21
141.3271602988462
 31
0.0
  0
LINE
  5
7100
330
1E
100
AcDbEntity
  8
製品
  6
Continuous
 62
     2
100
AcDbLine
 10
327.74991276622
 20
141.3539602988463
 30
0.0
 11
328.48951276622
 21
141.3539602988463
 31
0.0
  0
ARC
  5
7101
330
1E
100
AcDbEntity
  8
製品
  6
Continuous
 62
     2
100
AcDbCircle
 10
327.2215127662199
 20
141.480360298846
 30
0.0
 40
0.12
100
AcDbArc
 50
251.5348510000121
 51
288.4651489999879
  0
LINE
  5
7102
330
1E
100
AcDbEntity
  8
製品
  6
Continuous
 62
     2
100
AcDbLine
 10
326.9595127662202
 20
141.4413602988462
 30
0.0
 11
327.1835127662204
 21
141.3665602988463
 31
0.0
  0
LINE
  5
7103
330
1E
100
AcDbEntity
  8
製品
  6
Continuous
 62
     2
100
AcDbLine
 10
327.2595127662204
 20
141.3665602988463
 30
0.0
 11
327.4743127662201
 21
141.4381602988461
 31
0.0
  0
ARC
  5
7104
330
1E
100
AcDbEntity
  8
製品
  6
Continuous
 62
     2
100
AcDbCircle
 10
327.5123127662201
 20
141.324360298846
 30
0.0
 40
0.12
100
AcDbArc
 50
63.47764199999557
 51
108.4651489999879
  0
LINE
  5
7105
330
1E
100
AcDbEntity
  8
製品
  6
Continuous
 62
     2
100
AcDbLine
 10
327.2595127662204
 20
141.266560298846
 30
0.0
 11
327.4743127662201
 21
141.3381602988462
 31
0.0
  0
ARC
  5
7106
330
1E
100
AcDbEntity
  8
製品
  6
Continuous
 62
     2
100
AcDbCircle
 10
327.5123127662201
 20
141.2243602988461
 30
0.0
 40
0.12
100
AcDbArc
 50
63.47764199999557
 51
108.4651489999879
  0
LINE
  5
7107
330
1E
100
AcDbEntity
  8
製品
  6
Continuous
 62
     2
100
AcDbLine
 10
327.5659127662203
 20
141.4317602988459
 30
0.0
 11
327.6963127662203
 21
141.3665602988463
 31
0.0
  0
ARC
  5
7108
330
1E
100
AcDbEntity
  8
製品
  6
Continuous
 62
     2
100
AcDbCircle
 10
327.74991276622
 20
141.4739602988462
 30
0.0
 40
0.12
100
AcDbArc
 50
243.4776460000105
 51
270.0
  0
LINE
  5
7109
330
1E
100
AcDbEntity
  8
製品
  6
Continuous
 62
     2
100
AcDbLine
 10
327.5659127662203
 20
141.331760298846
 30
0.0
 11
327.6963127662203
 21
141.266560298846
 31
0.0
  0
ARC
  5
710A
330
1E
100
AcDbEntity
  8
製品
  6
Continuous
 62
     2
100
AcDbCircle
 10
327.74991276622
 20
141.3739602988463
 30
0.0
 40
0.12
100
AcDbArc
 50
243.4776460000105
 51
270.0
  0
LINE
  5
710B
330
1E
100
AcDbEntity
  8
製品
  6
Continuous
 62
     2
100
AcDbLine
 10
328.5431127662201
 20
141.266560298846
 30
0.0
 11
328.6643127662202
 21
141.3271602988462
 31
0.0
  0
ARC
  5
710C
330
1E
100
AcDbEntity
  8
製品
  6
Continuous
 62
     2
100
AcDbCircle
 10
328.7179127662199
 20
141.3197602988463
 30
0.0
 40
0.12
100
AcDbArc
 50
63.47764199999557
 51
116.5223539999895
  0
ARC
  5
710D
330
1E
100
AcDbEntity
  8
製品
  6
Continuous
 62
     2
100
AcDbCircle
 10
328.7179127662199
 20
141.2197602988459
 30
0.0
 40
0.12
100
AcDbArc
 50
63.47764199999557
 51
116.5223539999895
  0
ARC
  5
710E
330
1E
100
AcDbEntity
  8
製品
  6
Continuous
 62
     2
100
AcDbCircle
 10
328.9463127662203
 20
141.4739602988462
 30
0.0
 40
0.12
100
AcDbArc
 50
243.4776460000105
 51
270.0
  0
ARC
  5
710F
330
1E
100
AcDbEntity
  8
製品
  6
Continuous
 62
     2
100
AcDbCircle
 10
328.9463127662203
 20
141.3739602988463
 30
0.0
 40
0.12
100
AcDbArc
 50
243.4776460000105
 51
270.0
  0
ARC
  5
7110
330
1E
100
AcDbEntity
  8
製品
  6
Continuous
 62
     2
100
AcDbCircle
 10
328.48951276622
 20
141.3739602988463
 30
0.0
 40
0.12
100
AcDbArc
 50
270.0
 51
296.5223689999841
  0
LINE
  5
7111
330
1E
100
AcDbEntity
  8
製品
  6
Continuous
 62
     2
100
AcDbLine
 10
328.5431127662201
 20
141.3665602988463
 30
0.0
 11
328.6643127662202
 21
141.4271602988461
 31
0.0
  0
ARC
  5
7112
330
1E
100
AcDbEntity
  8
製品
  6
Continuous
 62
     2
100
AcDbCircle
 10
328.48951276622
 20
141.4739602988462
 30
0.0
 40
0.12
100
AcDbArc
 50
270.0
 51
296.5223689999841
  0
LINE
  5
7113
330
1E
100
AcDbEntity
  8
製品
  6
Continuous
 62
     2
100
AcDbLine
 10
329.6859127662202
 20
141.3539602988463
 30
0.0
 11
328.9463127662203
 21
141.3539602988463
 31
0.0
  0
LINE
  5
7114
330
1E
100
AcDbEntity
  8
製品
  6
Continuous
 62
     2
100
AcDbLine
 10
329.6859127662202
 20
141.2539602988459
 30
0.0
 11
328.9463127662203
 21
141.2539602988459
 31
0.0
  0
LINE
  5
7115
330
1E
100
AcDbEntity
  8
製品
  6
Continuous
 62
     2
100
AcDbLine
 10
332.2671127662203
 20
141.3381602988462
 30
0.0
 11
332.0521127662201
 21
141.266560298846
 31
0.0
  0
LINE
  5
7116
330
1E
100
AcDbEntity
  8
製品
  6
Continuous
 62
     2
100
AcDbLine
 10
332.2671127662203
 20
141.4383602988461
 30
0.0
 11
332.0523127662201
 21
141.3665602988463
 31
0.0
  0
LINE
  5
7117
330
1E
100
AcDbEntity
  8
製品
  6
Continuous
 62
     2
100
AcDbLine
 10
327.2179127662199
 20
144.233960298846
 30
0.0
 11
327.2179127662199
 21
147.4539602988462
 31
0.0
  0
LINE
  5
7118
330
1E
100
AcDbEntity
  8
製品
  6
Continuous
 62
     2
100
AcDbLine
 10
331.2179127662199
 20
144.233960298846
 30
0.0
 11
331.2179127662199
 21
147.4539602988462
 31
0.0
  0
LINE
  5
7119
330
1E
100
AcDbEntity
  8
製品
  6
Continuous
 62
     2
100
AcDbLine
 10
330.2179127662199
 20
144.233960298846
 30
0.0
 11
330.2179127662199
 21
147.4539602988462
 31
0.0
  0
ARC
  5
711A
330
1E
100
AcDbEntity
  8
製品
  6
Continuous
 62
     2
100
AcDbCircle
 10
325.5179127662201
 20
151.253960298846
 30
0.0
 40
0.4
100
AcDbArc
 50
90.0
 51
180.0
  0
LINE
  5
711B
330
1E
100
AcDbEntity
  8
製品
  6
Continuous
 62
     4
100
AcDbLine
 10
323.86791276622
 20
152.6539602988461
 30
0.0
 11
322.7179127662199
 21
152.6539602988461
 31
0.0
  0
ARC
  5
711C
330
1E
100
AcDbEntity
  8
製品
  6
Continuous
 62
     2
100
AcDbCircle
 10
325.5179127662201
 20
148.4539602988462
 30
0.0
 40
0.4
100
AcDbArc
 50
180.0
 51
270.0
  0
LINE
  5
711D
330
1E
100
AcDbEntity
  8
製品
  6
Continuous
 62
     2
100
AcDbLine
 10
325.61791276622
 20
148.0539602988461
 30
0.0
 11
325.5179127662201
 21
148.0539602988461
 31
0.0
  0
ARC
  5
711E
330
1E
100
AcDbEntity
  8
製品
  6
Continuous
 62
     2
100
AcDbCircle
 10
325.61791276622
 20
147.4539602988462
 30
0.0
 40
0.6
100
AcDbArc
 50
0.0
 51
90.0
  0
ARC
  5
711F
330
1E
100
AcDbEntity
  8
製品
  6
Continuous
 62
     2
100
AcDbCircle
 10
324.3179127662203
 20
148.0539602988461
 30
0.0
 40
0.4
100
AcDbArc
 50
180.0
 51
258.2626990000028
  0
LINE
  5
7120
330
1E
100
AcDbEntity
  8
製品
  6
Continuous
 62
     2
100
AcDbLine
 10
323.9179127662202
 20
152.7739602988459
 30
0.0
 11
323.9179127662202
 21
148.0539602988461
 31
0.0
  0
LINE
  5
7121
330
1E
100
AcDbEntity
  8
製品
  6
Continuous
 62
     2
100
AcDbLine
 10
325.11791276622
 20
148.4539602988462
 30
0.0
 11
325.11791276622
 21
151.253960298846
 31
0.0
  0
LINE
  5
7123
330
1E
100
AcDbEntity
  8
製品
  6
Continuous
 62
     4
100
AcDbLine
 10
317.7479127662201
 20
154.3539602988463
 30
0.0
 11
316.9479127662204
 21
154.3539602988463
 31
0.0
  0
LINE
  5
7124
330
1E
100
AcDbEntity
  8
製品
  6
Continuous
 62
     4
100
AcDbLine
 10
317.7479127662201
 20
154.3539602988463
 30
0.0
 11
317.7479127662201
 21
153.9539602988462
 31
0.0
  0
LINE
  5
7125
330
1E
100
AcDbEntity
  8
製品
  6
Continuous
 62
     4
100
AcDbLine
 10
318.0479127662203
 20
153.9539602988462
 30
0.0
 11
320.9979127662201
 21
153.9539602988462
 31
0.0
  0
ARC
  5
7126
330
1E
100
AcDbEntity
  8
製品
  6
Continuous
 62
     2
100
AcDbCircle
 10
324.2179127662199
 20
144.7539602988459
 30
0.0
 40
0.2
100
AcDbArc
 50
0.0
 51
90.0
  0
LINE
  5
7127
330
1E
100
AcDbEntity
  8
製品
  6
Continuous
 62
     2
100
AcDbLine
 10
324.4179127662202
 20
144.7539602988459
 30
0.0
 11
324.4179127662202
 21
144.4539602988462
 31
0.0
  0
LINE
  5
7128
330
1E
100
AcDbEntity
  8
製品
  6
Continuous
 62
     2
100
AcDbLine
 10
324.4179127662202
 20
144.4539602988462
 30
0.0
 11
324.5179127662201
 21
144.4539602988462
 31
0.0
  0
LINE
  5
7129
330
1E
100
AcDbEntity
  8
製品
  6
Continuous
 62
     2
100
AcDbLine
 10
324.5179127662201
 20
144.4539602988462
 30
0.0
 11
324.5179127662201
 21
144.7539602988459
 31
0.0
  0
ARC
  5
712A
330
1E
100
AcDbEntity
  8
製品
  6
Continuous
 62
     2
100
AcDbCircle
 10
324.2179127662199
 20
144.7539602988459
 30
0.0
 40
0.3
100
AcDbArc
 50
0.0
 51
90.0
  0
LINE
  5
712B
330
1E
100
AcDbEntity
  8
製品
  6
Continuous
 62
     2
100
AcDbLine
 10
324.9179127662202
 20
146.7143332988463
 30
0.0
 11
324.9179127662202
 21
144.5539602988461
 31
0.0
  0
ARC
  5
712C
330
1E
100
AcDbEntity
  8
製品
  6
Continuous
 62
     3
100
AcDbCircle
 10
324.1067437662201
 20
144.7939602988459
 30
0.0
 40
0.16
100
AcDbArc
 50
11.3099319999968
 51
90.0
  0
LINE
  5
712D
330
1E
100
AcDbEntity
  8
製品
  6
Continuous
 62
     2
100
AcDbLine
 10
324.3415667662203
 20
144.4356902988462
 30
0.0
 11
324.26363676622
 21
144.825338298846
 31
0.0
  0
ARC
  5
712E
330
1E
100
AcDbEntity
  8
製品
  6
Continuous
 62
     2
100
AcDbCircle
 10
324.61791276622
 20
144.5524602988463
 30
0.0
 40
0.300004
100
AcDbArc
 50
202.7960729999847
 51
0.2864770000049421
  0
ARC
  5
712F
330
1E
100
AcDbEntity
  8
製品
  6
Continuous
 62
     2
100
AcDbCircle
 10
324.0179127662201
 20
144.7539602988459
 30
0.0
 40
0.2
100
AcDbArc
 50
90.0
 51
180.0
  0
ARC
  5
7130
330
1E
100
AcDbEntity
  8
製品
  6
Continuous
 62
     2
100
AcDbCircle
 10
324.0179127662201
 20
144.7539602988459
 30
0.0
 40
0.3
100
AcDbArc
 50
90.0
 51
180.0
  0
LINE
  5
7131
330
1E
100
AcDbEntity
  8
製品
  6
Continuous
 62
     4
100
AcDbLine
 10
324.9179127662202
 20
145.0539602988461
 30
0.0
 11
322.7179127662199
 21
145.0539602988461
 31
0.0
  0
LINE
  5
7132
330
1E
100
AcDbEntity
  8
製品
  6
Continuous
 62
     2
100
AcDbLine
 10
324.0179127662201
 20
144.9539602988462
 30
0.0
 11
324.2179127662199
 21
144.9539602988462
 31
0.0
  0
ARC
  5
7133
330
1E
100
AcDbEntity
  8
製品
  6
Continuous
 62
     2
100
AcDbCircle
 10
325.13071276622
 20
141.2243602988461
 30
0.0
 40
0.12
100
AcDbArc
 50
71.53485100001211
 51
116.5223539999895
  0
LINE
  5
7134
330
1E
100
AcDbEntity
  8
製品
  6
Continuous
 62
     2
100
AcDbLine
 10
324.9467127662202
 20
141.3665602988463
 30
0.0
 11
325.0771127662202
 21
141.4317602988459
 31
0.0
  0
ARC
  5
7135
330
1E
100
AcDbEntity
  8
製品
  6
Continuous
 62
     2
100
AcDbCircle
 10
325.13071276622
 20
141.324360298846
 30
0.0
 40
0.12
100
AcDbArc
 50
71.56504799999338
 51
116.5223539999895
  0
LINE
  5
7136
330
1E
100
AcDbEntity
  8
製品
  6
Continuous
 62
     2
100
AcDbLine
 10
325.16871276622
 20
141.3381602988462
 30
0.0
 11
325.3837127662202
 21
141.266560298846
 31
0.0
  0
ARC
  5
7137
330
1E
100
AcDbEntity
  8
製品
  6
Continuous
 62
     2
100
AcDbCircle
 10
325.4215127662202
 20
141.3803602988461
 30
0.0
 40
0.12
100
AcDbArc
 50
251.6254879999921
 51
288.4651489999879
  0
LINE
  5
7138
330
1E
100
AcDbEntity
  8
製品
  6
Continuous
 62
     2
100
AcDbLine
 10
324.9467127662202
 20
141.266560298846
 30
0.0
 11
325.0771127662202
 21
141.331760298846
 31
0.0
  0
LINE
  5
7139
330
1E
100
AcDbEntity
  8
製品
  6
Continuous
 62
     2
100
AcDbLine
 10
325.7595127662204
 20
141.3413602988463
 30
0.0
 11
325.9835127662201
 21
141.266560298846
 31
0.0
  0
LINE
  5
713A
330
1E
100
AcDbEntity
  8
製品
  6
Continuous
 62
     2
100
AcDbLine
 10
325.7595127662204
 20
141.4413602988462
 30
0.0
 11
325.9835127662201
 21
141.3665602988463
 31
0.0
  0
LINE
  5
713B
330
1E
100
AcDbEntity
  8
製品
  6
Continuous
 62
     2
100
AcDbLine
 10
326.0595127662201
 20
141.3665602988463
 30
0.0
 11
326.2835127662203
 21
141.4413602988462
 31
0.0
  0
ARC
  5
713C
330
1E
100
AcDbEntity
  8
製品
  6
Continuous
 62
     2
100
AcDbCircle
 10
326.3215127662203
 20
141.3275602988461
 30
0.0
 40
0.12
100
AcDbArc
 50
71.53485100001211
 51
108.4651489999879
  0
LINE
  5
713D
330
1E
100
AcDbEntity
  8
製品
  6
Continuous
 62
     2
100
AcDbLine
 10
326.0595127662201
 20
141.266560298846
 30
0.0
 11
326.2835127662203
 21
141.3413602988463
 31
0.0
  0
ARC
  5
713E
330
1E
100
AcDbEntity
  8
製品
  6
Continuous
 62
     2
100
AcDbCircle
 10
326.3215127662203
 20
141.2275602988462
 30
0.0
 40
0.12
100
AcDbArc
 50
71.53485100001211
 51
108.4651489999879
  0
LINE
  5
713F
330
1E
100
AcDbEntity
  8
製品
  6
Continuous
 62
     2
100
AcDbLine
 10
326.3595127662203
 20
141.4413602988462
 30
0.0
 11
326.58351276622
 21
141.3665602988463
 31
0.0
  0
LINE
  5
7140
330
1E
100
AcDbEntity
  8
製品
  6
Continuous
 62
     2
100
AcDbLine
 10
326.3595127662203
 20
141.3413602988463
 30
0.0
 11
326.58351276622
 21
141.266560298846
 31
0.0
  0
ARC
  5
7141
330
1E
100
AcDbEntity
  8
製品
  6
Continuous
 62
     2
100
AcDbCircle
 10
326.62151276622
 20
141.480360298846
 30
0.0
 40
0.12
100
AcDbArc
 50
251.5348510000121
 51
288.4651489999879
  0
ARC
  5
7142
330
1E
100
AcDbEntity
  8
製品
  6
Continuous
 62
     2
100
AcDbCircle
 10
326.62151276622
 20
141.3803602988461
 30
0.0
 40
0.12
100
AcDbArc
 50
251.5348510000121
 51
288.4651489999879
  0
LINE
  5
7143
330
1E
100
AcDbEntity
  8
製品
  6
Continuous
 62
     2
100
AcDbLine
 10
324.3179127662203
 20
141.3539602988463
 30
0.0
 11
324.8931127662201
 21
141.3539602988463
 31
0.0
  0
LINE
  5
7144
330
1E
100
AcDbEntity
  8
製品
  6
Continuous
 62
     2
100
AcDbLine
 10
325.16871276622
 20
141.4383602988461
 30
0.0
 11
325.3835127662202
 21
141.3665602988463
 31
0.0
  0
ARC
  5
7145
330
1E
100
AcDbEntity
  8
製品
  6
Continuous
 62
     2
100
AcDbCircle
 10
325.4215127662202
 20
141.4805602988459
 30
0.0
 40
0.12
100
AcDbArc
 50
251.5650479999934
 51
288.4349370000022
  0
LINE
  5
7146
330
1E
100
AcDbEntity
  8
製品
  6
Continuous
 62
     2
100
AcDbLine
 10
325.4595127662202
 20
141.3665602988463
 30
0.0
 11
325.6835127662204
 21
141.4413602988462
 31
0.0
  0
ARC
  5
7147
330
1E
100
AcDbEntity
  8
製品
  6
Continuous
 62
     2
100
AcDbCircle
 10
325.7215127662199
 20
141.3275602988461
 30
0.0
 40
0.12
100
AcDbArc
 50
71.53485100001211
 51
108.4651489999879
  0
LINE
  5
7148
330
1E
100
AcDbEntity
  8
製品
  6
Continuous
 62
     2
100
AcDbLine
 10
325.4595127662202
 20
141.266560298846
 30
0.0
 11
325.6835127662204
 21
141.3413602988463
 31
0.0
  0
ARC
  5
7149
330
1E
100
AcDbEntity
  8
製品
  6
Continuous
 62
     2
100
AcDbCircle
 10
325.7215127662199
 20
141.2275602988462
 30
0.0
 40
0.12
100
AcDbArc
 50
71.53485100001211
 51
108.4651489999879
  0
ARC
  5
714A
330
1E
100
AcDbEntity
  8
製品
  6
Continuous
 62
     2
100
AcDbCircle
 10
326.0215127662201
 20
141.3803602988461
 30
0.0
 40
0.12
100
AcDbArc
 50
251.5348510000121
 51
288.4651489999879
  0
ARC
  5
714B
330
1E
100
AcDbEntity
  8
製品
  6
Continuous
 62
     2
100
AcDbCircle
 10
326.0215127662201
 20
141.480360298846
 30
0.0
 40
0.12
100
AcDbArc
 50
251.5348510000121
 51
288.4651489999879
  0
ARC
  5
714C
330
1E
100
AcDbEntity
  8
製品
  6
Continuous
 62
     2
100
AcDbCircle
 10
324.8931127662201
 20
141.4739602988462
 30
0.0
 40
0.12
100
AcDbArc
 50
270.0
 51
296.5223689999841
  0
ARC
  5
714D
330
1E
100
AcDbEntity
  8
製品
  6
Continuous
 62
     2
100
AcDbCircle
 10
324.8931127662201
 20
141.3739602988463
 30
0.0
 40
0.12
100
AcDbArc
 50
270.0
 51
296.5223689999841
  0
LINE
  5
714E
330
1E
100
AcDbEntity
  8
製品
  6
Continuous
 62
     2
100
AcDbLine
 10
324.3179127662203
 20
141.2539602988459
 30
0.0
 11
324.90591276622
 21
141.2539602988459
 31
0.0
  0
ARC
  5
714F
330
1E
100
AcDbEntity
  8
製品
  6
Continuous
 62
     2
100
AcDbCircle
 10
324.3179127662203
 20
143.5739602988461
 30
0.0
 40
0.4
100
AcDbArc
 50
180.0
 51
270.0
  0
ARC
  5
7150
330
1E
100
AcDbEntity
  8
製品
  6
Continuous
 62
     2
100
AcDbCircle
 10
324.3179127662203
 20
141.8539602988463
 30
0.0
 40
0.6
100
AcDbArc
 50
180.0
 51
270.0
  0
ARC
  5
7151
330
1E
100
AcDbEntity
  8
製品
  6
Continuous
 62
     2
100
AcDbCircle
 10
324.3179127662203
 20
141.8539602988463
 30
0.0
 40
0.5
100
AcDbArc
 50
180.0
 51
270.0
  0
LINE
  5
7152
330
1E
100
AcDbEntity
  8
製品
  6
Continuous
 62
     2
100
AcDbLine
 10
323.9179127662202
 20
144.927165298846
 30
0.0
 11
323.9179127662202
 21
143.5739602988461
 31
0.0
  0
LINE
  5
7153
330
1E
100
AcDbEntity
  8
製品
  6
Continuous
 62
     2
100
AcDbLine
 10
323.8179127662203
 20
141.8539602988463
 30
0.0
 11
323.8179127662203
 21
144.7539602988459
 31
0.0
  0
LINE
  5
7154
330
1E
100
AcDbEntity
  8
製品
  6
Continuous
 62
     2
100
AcDbLine
 10
323.7179127662199
 20
141.8539602988463
 30
0.0
 11
323.7179127662199
 21
144.7539602988459
 31
0.0
  0
LINE
  5
7155
330
1E
100
AcDbEntity
  8
製品
  6
Continuous
 62
     4
100
AcDbLine
 10
322.7179127662199
 20
152.6539602988461
 30
0.0
 11
322.7179127662199
 21
145.0539602988461
 31
0.0
  0
LINE
  5
7156
330
1E
100
AcDbEntity
  8
製品
  6
Continuous
 62
     2
100
AcDbLine
 10
326.2179127662199
 20
144.233960298846
 30
0.0
 11
326.2179127662199
 21
147.4539602988462
 31
0.0
  0
ARC
  5
7157
330
1E
100
AcDbEntity
  8
製品
  6
Continuous
 62
     2
100
AcDbCircle
 10
323.9179127662202
 20
146.7143332988463
 30
0.0
 40
1.0
100
AcDbArc
 50
0.0
 51
71.73258900000337
  0
LINE
  5
7158
330
1E
100
AcDbEntity
  8
製品
  6
Continuous
 62
     2
100
AcDbLine
 10
331.9179127662202
 20
151.653960298846
 30
0.0
 11
325.5179127662201
 21
151.653960298846
 31
0.0
  0
ARC
  5
7159
330
1E
100
AcDbEntity
  8
製品
  6
Continuous
 62
     2
100
AcDbCircle
 10
326.7179127662199
 20
144.233960298846
 30
0.0
 40
0.5
100
AcDbArc
 50
180.0
 51
0.0
  0
LINE
  5
715A
330
1E
100
AcDbEntity
  8
製品
  6
Continuous
 62
     2
100
AcDbLine
 10
326.65951276622
 20
141.3665602988463
 30
0.0
 11
326.8835127662202
 21
141.4413602988462
 31
0.0
  0
LINE
  5
715B
330
1E
100
AcDbEntity
  8
製品
  6
Continuous
 62
     2
100
AcDbLine
 10
326.65951276622
 20
141.266560298846
 30
0.0
 11
326.8835127662202
 21
141.3413602988463
 31
0.0
  0
LINE
  5
715C
330
1E
100
AcDbEntity
  8
製品
  6
Continuous
 62
     4
100
AcDbLine
 10
316.9479127662204
 20
154.3539602988463
 30
0.0
 11
316.9479127662204
 21
154.6539602988461
 31
0.0
  0
LINE
  5
715D
330
1E
100
AcDbEntity
  8
製品
  6
Continuous
 62
     4
100
AcDbLine
 10
318.0479127662203
 20
155.0539602988461
 30
0.0
 11
318.0479127662203
 21
153.9539602988462
 31
0.0
  0
LINE
  5
715E
330
1E
100
AcDbEntity
  8
製品
  6
Continuous
 62
     4
100
AcDbLine
 10
324.6979127662204
 20
139.253960298846
 30
0.0
 11
324.6979127662204
 21
137.6339602988461
 31
0.0
  0
LINE
  5
715F
330
1E
100
AcDbEntity
  8
製品
  6
Continuous
 62
     4
100
AcDbLine
 10
324.3979127662202
 20
139.253960298846
 30
0.0
 11
324.3979127662202
 21
137.9339602988463
 31
0.0
  0
LINE
  5
7160
330
1E
100
AcDbEntity
  8
製品
  6
Continuous
 62
     4
100
AcDbLine
 10
324.6979127662204
 20
139.253960298846
 30
0.0
 11
324.6979127662204
 21
137.6339602988461
 31
0.0
  0
LINE
  5
7162
330
1E
100
AcDbEntity
  8
製品
  6
Continuous
 62
     4
100
AcDbLine
 10
324.3979127662202
 20
137.9339602988463
 30
0.0
 11
320.9979127662201
 21
137.9339602988463
 31
0.0
  0
LINE
  5
7163
330
1E
100
AcDbEntity
  8
製品
  6
Continuous
 62
     4
100
AcDbLine
 10
320.6979127662204
 20
137.6339602988461
 30
0.0
 11
324.6979127662204
 21
137.6339602988461
 31
0.0
  0
LINE
  5
7167
330
1E
100
AcDbEntity
  8
製品
  6
Continuous
 62
     4
100
AcDbLine
 10
320.6979127662204
 20
153.6539602988461
 30
0.0
 11
320.6979127662204
 21
137.6339602988461
 31
0.0
  0
LINE
  5
7168
330
1E
100
AcDbEntity
  8
製品
  6
Continuous
 62
     4
100
AcDbLine
 10
320.9979127662201
 20
153.9539602988462
 30
0.0
 11
320.9979127662201
 21
137.9339602988463
 31
0.0
  0
LINE
  5
7169
330
1E
100
AcDbEntity
  8
製品
  6
Continuous
 62
     4
100
AcDbLine
 10
321.59791276622
 20
141.2539602988459
 30
0.0
 11
321.59791276622
 21
139.253960298846
 31
0.0
  0
LINE
  5
716A
330
1E
100
AcDbEntity
  8
製品
  6
Continuous
 62
     4
100
AcDbLine
 10
305.6479127662202
 20
154.6539602988461
 30
0.0
 11
306.4479127662204
 21
154.6539602988461
 31
0.0
  0
LINE
  5
716B
330
1E
100
AcDbEntity
  8
製品
  6
Continuous
 62
     4
100
AcDbLine
 10
305.6479127662202
 20
155.0539602988461
 30
0.0
 11
305.6479127662202
 21
154.6539602988461
 31
0.0
  0
LINE
  5
716C
330
1E
100
AcDbEntity
  8
製品
  6
Continuous
 62
     4
100
AcDbLine
 10
310.7979127662203
 20
158.9539602988462
 30
0.0
 11
312.59791276622
 21
158.9539602988462
 31
0.0
  0
LINE
  5
716D
330
1E
100
AcDbEntity
  8
製品
  6
Continuous
 62
     4
100
AcDbLine
 10
305.6479127662202
 20
155.0539602988461
 30
0.0
 11
305.34791276622
 21
155.0539602988461
 31
0.0
  0
LINE
  5
716E
330
1E
100
AcDbEntity
  8
製品
  6
Continuous
 62
     4
100
AcDbLine
 10
305.6479127662202
 20
154.3539602988463
 30
0.0
 11
306.4479127662204
 21
154.3539602988463
 31
0.0
  0
LINE
  5
716F
330
1E
100
AcDbEntity
  8
製品
  6
Continuous
 62
     4
100
AcDbLine
 10
305.6479127662202
 20
154.3539602988463
 30
0.0
 11
305.6479127662202
 21
153.9539602988462
 31
0.0
  0
LINE
  5
7171
330
1E
100
AcDbEntity
  8
製品
  6
Continuous
 62
     4
100
AcDbLine
 10
302.3979127662202
 20
153.9539602988462
 30
0.0
 11
305.34791276622
 21
153.9539602988462
 31
0.0
  0
LINE
  5
7172
330
1E
100
AcDbEntity
  8
製品
  6
Continuous
 62
     4
100
AcDbLine
 10
306.4479127662204
 20
154.3539602988463
 30
0.0
 11
306.4479127662204
 21
154.6539602988461
 31
0.0
  0
LINE
  5
7173
330
1E
100
AcDbEntity
  8
製品
  6
Continuous
 62
     4
100
AcDbLine
 10
305.34791276622
 20
155.0539602988461
 30
0.0
 11
305.34791276622
 21
153.9539602988462
 31
0.0
  0
LINE
  5
7174
330
1E
100
AcDbEntity
  8
製品
  6
Continuous
 62
     4
100
AcDbLine
 10
302.2579127662203
 20
138.253960298846
 30
0.0
 11
302.2579127662203
 21
138.5539602988461
 31
0.0
  0
LINE
  5
7178
330
1E
100
AcDbEntity
  8
製品
  6
Continuous
 62
     4
100
AcDbLine
 10
302.3979127662202
 20
153.9539602988462
 30
0.0
 11
302.3979127662202
 21
138.253960298846
 31
0.0
  0
LINE
  5
7179
330
1E
100
AcDbEntity
  8
製品
  6
Continuous
 62
     4
100
AcDbLine
 10
302.6979127662204
 20
153.6539602988461
 30
0.0
 11
302.6979127662204
 21
137.9539602988462
 31
0.0
  0
LINE
  5
717A
330
1E
100
AcDbEntity
  8
製品
  6
Continuous
 62
     4
100
AcDbLine
 10
305.6479127662202
 20
154.2739602988459
 30
0.0
 11
317.7479127662201
 21
154.2739602988459
 31
0.0
  0
LINE
  5
717C
330
1E
100
AcDbEntity
  8
製品
  6
Continuous
 62
     4
100
AcDbLine
 10
302.6979127662204
 20
153.6539602988461
 30
0.0
 11
320.6979127662204
 21
153.6539602988461
 31
0.0
  0
LINE
  5
717D
330
1E
100
AcDbEntity
  8
製品
  6
Continuous
 62
     4
100
AcDbLine
 10
305.6479127662202
 20
153.9539602988462
 30
0.0
 11
317.7479127662201
 21
153.9539602988462
 31
0.0
  0
ARC
  5
717F
330
1E
100
AcDbEntity
  8
製品
  6
Continuous
 62
     2
100
AcDbCircle
 10
333.11791276622
 20
148.0539602988461
 30
0.0
 40
0.4
100
AcDbArc
 50
281.7373009999972
 51
0.0
  0
LINE
  5
7180
330
1E
100
AcDbEntity
  8
製品
  6
Continuous
 62
     2
100
AcDbLine
 10
333.5179127662201
 20
152.7739602988459
 30
0.0
 11
333.5179127662201
 21
148.0539602988461
 31
0.0
  0
ARC
  5
7181
330
1E
100
AcDbEntity
  8
製品
  6
Continuous
 62
     2
100
AcDbCircle
 10
333.4179127662202
 20
144.7539602988459
 30
0.0
 40
0.2
100
AcDbArc
 50
0.0
 51
90.0
  0
LINE
  5
7182
330
1E
100
AcDbEntity
  8
製品
  6
Continuous
 62
     2
100
AcDbLine
 10
333.4179127662202
 20
144.9539602988462
 30
0.0
 11
333.2179127662199
 21
144.9539602988462
 31
0.0
  0
LINE
  5
7183
330
1E
100
AcDbEntity
  8
製品
  6
Continuous
 62
     2
100
AcDbLine
 10
333.0179127662201
 20
144.7539602988459
 30
0.0
 11
333.0179127662201
 21
144.4539602988462
 31
0.0
  0
ARC
  5
7184
330
1E
100
AcDbEntity
  8
製品
  6
Continuous
 62
     2
100
AcDbCircle
 10
333.4179127662202
 20
144.7539602988459
 30
0.0
 40
0.3
100
AcDbArc
 50
0.0
 51
90.0
  0
ARC
  5
7185
330
1E
100
AcDbEntity
  8
製品
  6
Continuous
 62
     2
100
AcDbCircle
 10
333.3290807662203
 20
144.7939602988459
 30
0.0
 40
0.16
100
AcDbArc
 50
90.0
 51
168.6900680000032
  0
LINE
  5
7186
330
1E
100
AcDbEntity
  8
製品
  6
Continuous
 62
     2
100
AcDbLine
 10
333.0942587662199
 20
144.4356902988462
 30
0.0
 11
333.1721887662203
 21
144.825338298846
 31
0.0
  0
ARC
  5
7187
330
1E
100
AcDbEntity
  8
製品
  6
Continuous
 62
     2
100
AcDbCircle
 10
333.11791276622
 20
143.5739602988461
 30
0.0
 40
0.4
100
AcDbArc
 50
270.0
 51
0.0
  0
ARC
  5
7188
330
1E
100
AcDbEntity
  8
製品
  6
Continuous
 62
     2
100
AcDbCircle
 10
333.11791276622
 20
141.8539602988463
 30
0.0
 40
0.6
100
AcDbArc
 50
270.0
 51
0.0
  0
ARC
  5
7189
330
1E
100
AcDbEntity
  8
製品
  6
Continuous
 62
     2
100
AcDbCircle
 10
333.11791276622
 20
141.8539602988463
 30
0.0
 40
0.5
100
AcDbArc
 50
270.0
 51
0.0
  0
LINE
  5
718A
330
1E
100
AcDbEntity
  8
製品
  6
Continuous
 62
     2
100
AcDbLine
 10
333.5179127662201
 20
143.5739602988461
 30
0.0
 11
333.5179127662201
 21
144.9476092988462
 31
0.0
  0
LINE
  5
718B
330
1E
100
AcDbEntity
  8
製品
  6
Continuous
 62
     2
100
AcDbLine
 10
333.61791276622
 20
141.8539602988463
 30
0.0
 11
333.61791276622
 21
144.7539602988459
 31
0.0
  0
LINE
  5
718C
330
1E
100
AcDbEntity
  8
製品
  6
Continuous
 62
     2
100
AcDbLine
 10
333.7179127662199
 20
141.8539602988463
 30
0.0
 11
333.7179127662199
 21
144.7539602988459
 31
0.0
  0
LINE
  5
718D
330
1E
100
AcDbEntity
  8
製品
  6
Continuous
 62
     4
100
AcDbLine
 10
333.5479127662203
 20
152.6539602988461
 30
0.0
 11
341.1996407662201
 21
152.6539602988461
 31
0.0
  0
LINE
  5
718E
330
1E
100
AcDbEntity
  8
図面枠
  6
Continuous
 62
     2
100
AcDbLine
 10
321.9377387662204
 20
208.1539602988461
 30
0.0
 11
336.9877387662201
 21
208.1539602988461
 31
0.0
  0
TEXT
  5
718F
330
1E
100
AcDbEntity
  8
図面枠
  6
Continuous
 62
     2
100
AcDbText
 10
321.9377437662203
 20
209.1539602988461
 30
0.0
 40
3.0
  1
インサート
 41
0.8
  7
ACAD
100
AcDbText
  0
LINE
  5
7190
330
1E
100
AcDbEntity
  8
図面枠
  6
Continuous
 62
     2
100
AcDbLine
 10
331.9714157662203
 20
199.9539602988462
 30
0.0
 11
356.0514157662202
 21
199.9539602988462
 31
0.0
  0
TEXT
  5
7191
330
1E
100
AcDbEntity
  8
図面枠
  6
Continuous
 62
     2
100
AcDbText
 10
331.9714197662203
 20
200.9539632988464
 30
0.0
 40
3.0
  1
断熱材　ア　２５
 41
0.8
  7
ACAD
100
AcDbText
  0
TEXT
  5
7192
330
1E
100
AcDbEntity
  8
図面枠
  6
Continuous
 62
     2
100
AcDbText
 10
316.0280457662203
 20
174.4539632988463
 30
0.0
 40
3.0
  1
吊りボルト　９００＠程度
 41
0.8
  7
ACAD
100
AcDbText
  0
LINE
  5
7193
330
1E
100
AcDbEntity
  8
図面枠
  6
Continuous
 62
     2
100
AcDbLine
 10
316.0280397662201
 20
173.4539602988462
 30
0.0
 11
352.14803976622
 21
173.4539602988462
 31
0.0
  0
LINE
  5
7194
330
1E
100
AcDbEntity
  8
製品
  6
Continuous
 62
     2
100
AcDbLine
 10
327.9405527662203
 20
204.9539602988462
 30
0.0
 11
328.6979127662204
 21
204.1966002988462
 31
0.0
  0
LINE
  5
7195
330
1E
100
AcDbEntity
  8
製品
  6
Continuous
 62
     2
100
AcDbLine
 10
323.6979127662204
 20
204.9483032988461
 30
0.0
 11
323.7035697662201
 21
204.9539602988462
 31
0.0
  0
LINE
  5
7196
330
1E
100
AcDbEntity
  8
製品
  6
Continuous
 62
     2
100
AcDbLine
 10
323.6979127662204
 20
202.8326392988462
 30
0.0
 11
325.8192327662201
 21
204.9539602988462
 31
0.0
  0
LINE
  5
7197
330
1E
100
AcDbEntity
  8
製品
  6
Continuous
 62
     2
100
AcDbLine
 10
323.6979127662204
 20
200.711319298846
 30
0.0
 11
327.9405527662203
 21
204.9539602988462
 31
0.0
  0
LINE
  5
7198
330
1E
100
AcDbEntity
  8
製品
  6
Continuous
 62
     2
100
AcDbLine
 10
323.6979127662204
 20
198.5899992988462
 30
0.0
 11
328.6979127662204
 21
203.5899992988462
 31
0.0
  0
LINE
  5
7199
330
1E
100
AcDbEntity
  8
製品
  6
Continuous
 62
     2
100
AcDbLine
 10
323.6979127662204
 20
204.9483032988461
 30
0.0
 11
328.6979127662204
 21
199.9483032988461
 31
0.0
  0
LINE
  5
719A
330
1E
100
AcDbEntity
  8
製品
  6
Continuous
 62
     2
100
AcDbLine
 10
325.8192327662201
 20
204.9539602988462
 30
0.0
 11
328.6979127662204
 21
202.075280298846
 31
0.0
  0
CIRCLE
  5
719B
330
1E
100
AcDbEntity
  8
図面枠
  6
Continuous
 62
     2
100
AcDbCircle
 10
326.1979127662204
 20
189.9539602988462
 30
0.0
 40
0.3
  0
LINE
  5
719C
330
1E
100
AcDbEntity
  8
製品
  6
Continuous
 62
     2
100
AcDbLine
 10
323.6979127662204
 20
192.2260382988462
 30
0.0
 11
328.6979127662204
 21
197.2260382988462
 31
0.0
  0
LINE
  5
719D
330
1E
100
AcDbEntity
  8
製品
  6
Continuous
 62
     2
100
AcDbLine
 10
323.6979127662204
 20
190.1047172988461
 30
0.0
 11
328.6979127662204
 21
195.1047172988461
 31
0.0
  0
LINE
  5
719E
330
1E
100
AcDbEntity
  8
製品
  6
Continuous
 62
     2
100
AcDbLine
 10
323.6979127662204
 20
187.9833972988459
 30
0.0
 11
328.6979127662204
 21
192.9833972988459
 31
0.0
  0
LINE
  5
719F
330
1E
100
AcDbEntity
  8
製品
  6
Continuous
 62
     2
100
AcDbLine
 10
323.6979127662204
 20
196.4686782988461
 30
0.0
 11
328.6979127662204
 21
191.4686782988461
 31
0.0
  0
LINE
  5
71A0
330
1E
100
AcDbEntity
  8
製品
  6
Continuous
 62
     2
100
AcDbLine
 10
323.6979127662204
 20
194.347358298846
 30
0.0
 11
328.6979127662204
 21
189.3473582988459
 31
0.0
  0
LINE
  5
71A1
330
1E
100
AcDbEntity
  8
製品
  6
Continuous
 62
     2
100
AcDbLine
 10
323.6979127662204
 20
192.2260382988462
 30
0.0
 11
328.6979127662204
 21
187.2260382988462
 31
0.0
  0
LINE
  5
71A2
330
1E
100
AcDbEntity
  8
製品
  6
Continuous
 62
     2
100
AcDbLine
 10
323.6979127662204
 20
190.1047172988461
 30
0.0
 11
328.6979127662204
 21
185.1047172988461
 31
0.0
  0
LINE
  5
71A3
330
1E
100
AcDbEntity
  8
製品
  6
Continuous
 62
     2
100
AcDbLine
 10
328.2750767662202
 20
181.9539602988462
 30
0.0
 11
328.6979127662204
 21
182.3767952988461
 31
0.0
  0
LINE
  5
71A4
330
1E
100
AcDbEntity
  8
製品
  6
Continuous
 62
     2
100
AcDbLine
 10
317.6684757662203
 20
181.9539602988462
 30
0.0
 11
322.6684757662202
 21
186.9539602988462
 31
0.0
  0
LINE
  5
71A5
330
1E
100
AcDbEntity
  8
製品
  6
Continuous
 62
     2
100
AcDbLine
 10
319.78979576622
 20
181.9539602988462
 30
0.0
 11
328.6979127662204
 21
190.8620772988462
 31
0.0
  0
LINE
  5
71A6
330
1E
100
AcDbEntity
  8
製品
  6
Continuous
 62
     2
100
AcDbLine
 10
321.9111157662202
 20
181.9539602988462
 30
0.0
 11
328.6979127662204
 21
188.7407562988461
 31
0.0
  0
LINE
  5
71A7
330
1E
100
AcDbEntity
  8
製品
  6
Continuous
 62
     2
100
AcDbLine
 10
324.0324367662203
 20
181.9539602988462
 30
0.0
 11
328.6979127662204
 21
186.6194362988464
 31
0.0
  0
LINE
  5
71A8
330
1E
100
AcDbEntity
  8
製品
  6
Continuous
 62
     2
100
AcDbLine
 10
326.15375676622
 20
181.9539602988462
 30
0.0
 11
328.6979127662204
 21
184.4981162988462
 31
0.0
  0
LINE
  5
71A9
330
1E
100
AcDbEntity
  8
製品
  6
Continuous
 62
     2
100
AcDbLine
 10
323.6979127662204
 20
187.9833972988459
 30
0.0
 11
328.6979127662204
 21
182.9833972988459
 31
0.0
  0
LINE
  5
71AA
330
1E
100
AcDbEntity
  8
製品
  6
Continuous
 62
     2
100
AcDbLine
 10
322.6060297662203
 20
186.9539602988462
 30
0.0
 11
327.6060297662203
 21
181.9539602988462
 31
0.0
  0
LINE
  5
71AB
330
1E
100
AcDbEntity
  8
製品
  6
Continuous
 62
     2
100
AcDbLine
 10
320.4847087662202
 20
186.9539602988462
 30
0.0
 11
325.4847087662203
 21
181.9539602988462
 31
0.0
  0
LINE
  5
71AC
330
1E
100
AcDbEntity
  8
製品
  6
Continuous
 62
     2
100
AcDbLine
 10
318.3633887662201
 20
186.9539602988462
 30
0.0
 11
323.3633887662201
 21
181.9539602988462
 31
0.0
  0
LINE
  5
71AD
330
1E
100
AcDbEntity
  8
製品
  6
Continuous
 62
     2
100
AcDbLine
 10
316.2420687662203
 20
186.9539602988462
 30
0.0
 11
321.2420687662203
 21
181.9539602988462
 31
0.0
  0
LINE
  5
71AE
330
1E
100
AcDbEntity
  8
製品
  6
Continuous
 62
     2
100
AcDbLine
 10
323.6979127662204
 20
196.4686782988461
 30
0.0
 11
328.6979127662204
 21
201.4686782988462
 31
0.0
  0
LINE
  5
71AF
330
1E
100
AcDbEntity
  8
製品
  6
Continuous
 62
     2
100
AcDbLine
 10
323.6979127662204
 20
194.347358298846
 30
0.0
 11
328.6979127662204
 21
199.3473582988459
 31
0.0
  0
LINE
  5
71B0
330
1E
100
AcDbEntity
  8
製品
  6
Continuous
 62
     2
100
AcDbLine
 10
323.6979127662204
 20
202.8326392988462
 30
0.0
 11
328.6979127662204
 21
197.8326392988462
 31
0.0
  0
LINE
  5
71B1
330
1E
100
AcDbEntity
  8
製品
  6
Continuous
 62
     2
100
AcDbLine
 10
323.6979127662204
 20
200.711319298846
 30
0.0
 11
328.6979127662204
 21
195.711319298846
 31
0.0
  0
LINE
  5
71B2
330
1E
100
AcDbEntity
  8
製品
  6
Continuous
 62
     2
100
AcDbLine
 10
323.6979127662204
 20
198.5899992988462
 30
0.0
 11
328.6979127662204
 21
193.5899992988462
 31
0.0
  0
LINE
  5
71B3
330
1E
100
AcDbEntity
  8
製品
  6
Continuous
 62
     4
100
AcDbLine
 10
328.6979127662204
 20
181.9539602988462
 30
0.0
 11
328.6979127662204
 21
204.9539602988462
 31
0.0
  0
LINE
  5
71B4
330
1E
100
AcDbEntity
  8
図面枠
  6
Continuous
 62
     2
100
AcDbLine
 10
326.1979127662204
 20
189.9539602988462
 30
0.0
 11
331.9714157662203
 21
199.9539602988462
 31
0.0
  0
LINE
  5
71B5
330
1E
100
AcDbEntity
  8
製品
  6
Continuous
 62
     4
100
AcDbLine
 10
323.6979127662204
 20
186.9539602988462
 30
0.0
 11
323.6979127662204
 21
204.9539602988462
 31
0.0
  0
CIRCLE
  5
71B6
330
1E
100
AcDbEntity
  8
図面枠
  6
Continuous
 62
     2
100
AcDbCircle
 10
311.3979127662202
 20
189.8984462988461
 30
0.0
 40
0.3
  0
LINE
  5
71B7
330
1E
100
AcDbEntity
  8
製品
  6
PLINE2
 62
     2
100
AcDbLine
 10
313.3979127662202
 20
187.753960298846
 30
0.0
 11
314.1979127662204
 21
187.753960298846
 31
0.0
  0
LINE
  5
71B8
330
1E
100
AcDbEntity
  8
製品
  6
PLINE2
 62
     2
100
AcDbLine
 10
314.1979127662204
 20
187.753960298846
 30
0.0
 11
314.1979127662204
 21
186.9539602988462
 31
0.0
  0
LINE
  5
71B9
330
1E
100
AcDbEntity
  8
製品
  6
PLINE2
 62
     2
100
AcDbLine
 10
309.1979127662204
 20
187.753960298846
 30
0.0
 11
309.9979127662201
 21
187.753960298846
 31
0.0
  0
LINE
  5
71BA
330
1E
100
AcDbEntity
  8
製品
  6
PLINE2
 62
     2
100
AcDbLine
 10
309.1979127662204
 20
186.9539602988462
 30
0.0
 11
309.1979127662204
 21
187.753960298846
 31
0.0
  0
LINE
  5
71BB
330
1E
100
AcDbEntity
  8
製品
  6
PLINE2
 62
     2
100
AcDbLine
 10
313.3979127662202
 20
190.9539602988462
 30
0.0
 11
313.3979127662202
 21
187.753960298846
 31
0.0
  0
LINE
  5
71BC
330
1E
100
AcDbEntity
  8
製品
  6
PLINE2
 62
     2
100
AcDbLine
 10
309.9979127662201
 20
187.753960298846
 30
0.0
 11
309.9979127662201
 21
190.9539602988462
 31
0.0
  0
LINE
  5
71BD
330
1E
100
AcDbEntity
  8
製品
  6
Continuous
 62
     2
100
AcDbLine
 10
302.8192327662201
 20
181.9539602988462
 30
0.0
 11
307.8192327662201
 21
186.9539602988462
 31
0.0
  0
LINE
  5
71BE
330
1E
100
AcDbEntity
  8
製品
  6
Continuous
 62
     2
100
AcDbLine
 10
304.9405527662203
 20
181.9539602988462
 30
0.0
 11
309.9405527662203
 21
186.9539602988462
 31
0.0
  0
LINE
  5
71BF
330
1E
100
AcDbEntity
  8
製品
  6
Continuous
 62
     2
100
AcDbLine
 10
307.0618737662204
 20
181.9539602988462
 30
0.0
 11
312.0618737662204
 21
186.9539602988462
 31
0.0
  0
LINE
  5
71C0
330
1E
100
AcDbEntity
  8
製品
  6
Continuous
 62
     2
100
AcDbLine
 10
309.1831937662202
 20
181.9539602988462
 30
0.0
 11
314.1831937662201
 21
186.9539602988462
 31
0.0
  0
LINE
  5
71C1
330
1E
100
AcDbEntity
  8
製品
  6
Continuous
 62
     2
100
AcDbLine
 10
309.8781077662203
 20
186.9539602988462
 30
0.0
 11
314.8781077662203
 21
181.9539602988462
 31
0.0
  0
LINE
  5
71C2
330
1E
100
AcDbEntity
  8
製品
  6
Continuous
 62
     2
100
AcDbLine
 10
307.7567867662202
 20
186.9539602988462
 30
0.0
 11
312.7567867662202
 21
181.9539602988462
 31
0.0
  0
LINE
  5
71C3
330
1E
100
AcDbEntity
  8
製品
  6
Continuous
 62
     2
100
AcDbLine
 10
305.63546676622
 20
186.9539602988462
 30
0.0
 11
310.63546676622
 21
181.9539602988462
 31
0.0
  0
LINE
  5
71C4
330
1E
100
AcDbEntity
  8
製品
  6
Continuous
 62
     2
100
AcDbLine
 10
303.5141467662203
 20
186.9539602988462
 30
0.0
 11
308.5141467662203
 21
181.9539602988462
 31
0.0
  0
LINE
  5
71C5
330
1E
100
AcDbEntity
  8
製品
  6
PLINE2
 62
     2
100
AcDbLine
 10
310.7979127662203
 20
190.9539602988462
 30
0.0
 11
310.7979127662203
 21
181.9539602988462
 31
0.0
  0
LINE
  5
71C6
330
1E
100
AcDbEntity
  8
製品
  6
PLINE2
 62
     2
100
AcDbLine
 10
312.59791276622
 20
181.9539602988462
 30
0.0
 11
312.59791276622
 21
190.9539602988462
 31
0.0
  0
LINE
  5
71C7
330
1E
100
AcDbEntity
  8
製品
  6
Continuous
 62
     2
100
AcDbLine
 10
311.3045147662202
 20
181.9539602988462
 30
0.0
 11
316.3045147662202
 21
186.9539602988462
 31
0.0
  0
LINE
  5
71C8
330
1E
100
AcDbEntity
  8
製品
  6
Continuous
 62
     2
100
AcDbLine
 10
313.42583476622
 20
181.9539602988462
 30
0.0
 11
318.42583476622
 21
186.9539602988462
 31
0.0
  0
LINE
  5
71C9
330
1E
100
AcDbEntity
  8
製品
  6
Continuous
 62
     2
100
AcDbLine
 10
315.5471547662202
 20
181.9539602988462
 30
0.0
 11
320.5471547662201
 21
186.9539602988462
 31
0.0
  0
LINE
  5
71CA
330
1E
100
AcDbEntity
  8
製品
  6
Continuous
 62
     2
100
AcDbLine
 10
314.1207477662202
 20
186.9539602988462
 30
0.0
 11
319.1207477662203
 21
181.9539602988462
 31
0.0
  0
LINE
  5
71CB
330
1E
100
AcDbEntity
  8
製品
  6
Continuous
 62
     2
100
AcDbLine
 10
311.99942776622
 20
186.9539602988462
 30
0.0
 11
316.99942776622
 21
181.9539602988462
 31
0.0
  0
LINE
  5
71CC
330
1E
100
AcDbEntity
  8
図面枠
  6
Continuous
 62
     2
100
AcDbLine
 10
311.3979127662202
 20
189.8984462988461
 30
0.0
 11
321.9377387662204
 21
208.1539602988461
 31
0.0
  0
CIRCLE
  5
71CD
330
1E
100
AcDbEntity
  8
図面枠
  6
Continuous
 62
     2
100
AcDbCircle
 10
311.6979127662204
 20
165.9539602988462
 30
0.0
 40
0.3
  0
LINE
  5
71CE
330
1E
100
AcDbEntity
  8
製品
  6
Continuous
 62
     4
100
AcDbLine
 10
314.6979127662204
 20
162.6339602988461
 30
0.0
 11
308.6979127662204
 21
162.6339602988461
 31
0.0
  0
LINE
  5
71CF
330
1E
100
AcDbEntity
  8
製品
  6
Continuous
 62
     4
100
AcDbLine
 10
314.6979127662204
 20
162.9539602988462
 30
0.0
 11
308.6979127662204
 21
162.9539602988462
 31
0.0
  0
LINE
  5
71D0
330
1E
100
AcDbEntity
  8
図面枠
  6
Continuous
 62
     2
100
AcDbLine
 10
311.6979127662204
 20
165.9539602988462
 30
0.0
 11
316.0280397662201
 21
173.4539602988462
 31
0.0
  0
CIRCLE
  5
71D1
330
1E
100
AcDbEntity
  8
図面枠
  6
Continuous
 62
     2
100
AcDbCircle
 10
345.1074517662202
 20
202.7920522988462
 30
0.0
 40
1.928281
  0
DIMENSION
  5
727C
330
1E
100
AcDbEntity
  8
寸法
  6
Continuous
100
AcDbDimension
  2
*D12
 10
195.6979127662204
 20
118.9539602988462
 30
0.0
 11
185.6979127662204
 21
121.4539602988462
 31
0.0
 70
    32
  1
W
 71
     5
 42
20.0
  3
AutoCAD
100
AcDbAlignedDimension
 13
175.6979127662203
 23
134.9539602988462
 33
0.0
 14
195.6979127662204
 24
136.6339602988461
 34
0.0
100
AcDbRotatedDimension
  0
DIMENSION
  5
7292
330
1E
100
AcDbEntity
  8
寸法
  6
Continuous
100
AcDbDimension
  2
*D13
 10
320.6979127662204
 20
119.0073171166192
 30
0.0
 11
311.6979127662204
 21
121.5073171166192
 31
0.0
 70
    32
  1
W
 71
     5
 42
18.0
  3
AutoCAD
100
AcDbAlignedDimension
 13
302.6979127662204
 23
136.6339602988461
 33
0.0
 14
320.6979127662204
 24
136.6339602988461
 34
0.0
100
AcDbRotatedDimension
  0
DIMENSION
  5
72A8
330
1E
100
AcDbEntity
  8
寸法
  6
Continuous
100
AcDbDimension
  2
*D14
 10
316.6979127662204
 20
153.6539602988461
 30
0.0
 11
314.1979127662203
 21
145.6439602988461
 31
0.0
 70
    32
  1
H
 71
     5
 42
16.01999999999998
  3
AutoCAD
100
AcDbAlignedDimension
 13
319.6979127662204
 23
137.6339602988461
 33
0.0
 14
316.6979127662204
 24
153.6539602988461
 34
0.0
 50
90.0
100
AcDbRotatedDimension
  0
DIMENSION
  5
7502
330
1E
100
AcDbEntity
  8
0
  6
Continuous
100
AcDbDimension
  2
*D15
 10
201.6979127662204
 20
118.9539602988462
 30
0.0
 11
204.8350217383131
 21
118.9539602988462
 31
0.0
 70
   160
  1
10
 71
     5
 42
2.0
  3
AutoCAD
100
AcDbAlignedDimension
 13
199.6979127662204
 23
136.6339602988456
 33
0.0
 14
201.6979127662204
 24
137.3539602988463
 34
0.0
100
AcDbRotatedDimension
1001
ACAD
1000
DSTYLE
1002
{
1070
   279
1070
     1
1002
}
  0
LINE
  5
7546
330
1E
100
AcDbEntity
  8
0
  6
Continuous
 62
     4
100
AcDbLine
 10
199.6979127662204
 20
118.9539602988462
 30
0.0
 11
201.6979127662204
 21
118.9539602988462
 31
0.0
  0
LINE
  5
755B
330
1E
100
AcDbEntity
  8
0
  6
Continuous
 62
     4
100
AcDbLine
 10
174.2635774427959
 20
134.9539602988462
 30
0.0
 11
174.2635774427959
 21
137.9539602988462
 31
0.0
  0
LINE
  5
755C
330
1E
100
AcDbEntity
  8
0
  6
Continuous
 62
     4
100
AcDbLine
 10
174.2635774427959
 20
134.9539602988462
 30
0.0
 11
170.2386634474379
 21
134.9539602988462
 31
0.0
  0
LINE
  5
7593
330
1E
100
AcDbEntity
  8
0
  6
Continuous
 62
     4
100
AcDbLine
 10
290.9168454424491
 20
135.9539602988462
 30
0.0
 11
296.6979127662204
 21
135.9539602988462
 31
0.0
  0
ENDSEC
  0
SECTION
  2
OBJECTS
  0
DICTIONARY
  5
C
330
0
100
AcDbDictionary
281
     1
  3
ACAD_COLOR
350
73CD
  3
ACAD_GROUP
350
D
  3
ACAD_LAYOUT
350
19
  3
ACAD_MATERIAL
350
73B8
  3
ACAD_MLINESTYLE
350
16
  3
ACAD_PLOTSETTINGS
350
18
  3
ACAD_PLOTSTYLENAME
350
E
  3
ACAD_TABLESTYLE
350
73CE
  3
ACAD_VISUALSTYLE
350
73BC
  3
AcDbVariableDictionary
350
169
  3
DWGPROPS
350
75D2
  0
DICTIONARY
  5
75B1
330
8
100
AcDbDictionary
280
     1
281
     1
  0
DICTIONARY
  5
175
330
2
100
AcDbDictionary
280
     1
281
     1
  3
ACAD_LAYERFILTERS
360
185
  3
ACAD_LAYERSTATES
360
176
  0
DICTIONARY
  5
28B
330
1E
100
AcDbDictionary
280
     1
281
     1
  3
ACAD_LAYOUTSELFREF
360
73B1
  0
DICTIONARY
  5
28D
330
1A
100
AcDbDictionary
280
     1
281
     1
  3
ACAD_LAYOUTSELFREF
360
73B0
  0
DICTIONARY
  5
73CD
102
{ACAD_REACTORS
330
C
102
}
330
C
100
AcDbDictionary
281
     1
  0
DICTIONARY
  5
D
102
{ACAD_REACTORS
330
C
102
}
330
C
100
AcDbDictionary
281
     1
  0
DICTIONARY
  5
19
102
{ACAD_REACTORS
330
C
102
}
330
C
100
AcDbDictionary
281
     1
  3
Model
350
21
  3
ﾚｲｱｳﾄ1
350
1D
  0
DICTIONARY
  5
73B8
102
{ACAD_REACTORS
330
C
102
}
330
C
100
AcDbDictionary
281
     1
  3
ByBlock
350
73BA
  3
ByLayer
350
73B9
  3
Global
350
73BB
  0
DICTIONARY
  5
16
102
{ACAD_REACTORS
330
C
102
}
330
C
100
AcDbDictionary
281
     1
  3
Standard
350
17
  0
DICTIONARY
  5
18
102
{ACAD_REACTORS
330
C
102
}
330
C
100
AcDbDictionary
281
     1
  0
ACDBDICTIONARYWDFLT
  5
E
102
{ACAD_REACTORS
330
C
102
}
330
C
100
AcDbDictionary
281
     1
  3
Normal
350
F
100
AcDbDictionaryWithDefault
340
F
1001
ACAD
1000
TREAT_AS_HARD
1070
     0
1000
TREAT_AS_HARD
1070
     0
1000
TREAT_AS_HARD
1070
     0
1000
TREAT_AS_HARD
1070
     0
1000
TREAT_AS_HARD
1070
     0
1000
TREAT_AS_HARD
1070
     0
1000
TREAT_AS_HARD
1070
     0
1000
TREAT_AS_HARD
1070
     0
1000
TREAT_AS_HARD
1070
     0
1000
TREAT_AS_HARD
1070
     0
1000
TREAT_AS_HARD
1070
     0
1000
TREAT_AS_HARD
1070
     0
1000
TREAT_AS_HARD
1070
     0
1000
TREAT_AS_HARD
1070
     0
1000
TREAT_AS_HARD
1070
     0
1000
TREAT_AS_HARD
1070
     0
1000
TREAT_AS_HARD
1070
     0
1000
TREAT_AS_HARD
1070
     0
1000
TREAT_AS_HARD
1070
     0
1000
TREAT_AS_HARD
1070
     0
1000
TREAT_AS_HARD
1070
     0
1000
TREAT_AS_HARD
1070
     0
1000
TREAT_AS_HARD
1070
     0
1000
TREAT_AS_HARD
1070
     0
1000
TREAT_AS_HARD
1070
     0
1000
TREAT_AS_HARD
1070
     0
1000
TREAT_AS_HARD
1070
     0
1000
TREAT_AS_HARD
1070
     0
1000
TREAT_AS_HARD
1070
     0
1000
TREAT_AS_HARD
1070
     0
1000
TREAT_AS_HARD
1070
     0
  0
DICTIONARY
  5
73CE
102
{ACAD_REACTORS
330
C
102
}
330
C
100
AcDbDictionary
281
     1
  3
Standard
350
73CF
  0
DICTIONARY
  5
73BC
102
{ACAD_REACTORS
330
C
102
}
330
C
100
AcDbDictionary
281
     1
  3
2dWireframe
350
73C2
  3
3D Hidden
350
73C4
  3
3dWireframe
350
73C3
  3
Basic
350
73C1
  3
Brighten
350
73C8
  3
ColorChange
350
73CC
  3
Conceptual
350
73C5
  3
Dim
350
73C7
  3
Facepattern
350
73CB
  3
Flat
350
73BD
  3
FlatWithEdges
350
73BE
  3
Gouraud
350
73BF
  3
GouraudWithEdges
350
73C0
  3
Linepattern
350
73CA
  3
Realistic
350
73C6
  3
Thicken
350
73C9
  0
DICTIONARY
  5
169
102
{ACAD_REACTORS
330
C
102
}
330
C
100
AcDbDictionary
281
     1
  3
CTABLESTYLE
350
75C9
  3
DIMASSOC
350
16A
  3
INDEXCTL
350
75CB
  3
SORTENTS
350
75CA
  0
XRECORD
  5
75D2
102
{ACAD_REACTORS
330
C
102
}
330
C
100
AcDbXrecord
280
     1
  1
DWGPROPS COOKIE
  2

  3

  4

  6

  7

  8
HON1000AV
  9

300
=
301
=
302
=
303
=
304
=
305
=
306
=
307
=
308
=
309
=
 40
0.2512560763888889
 41
2454316.693457674
 42
2454735.624939954
  1

 90
        0
  0
DICTIONARY
  5
185
102
{ACAD_REACTORS
330
175
102
}
330
175
100
AcDbDictionary
280
     1
281
     1
  0
DICTIONARY
  5
176
102
{ACAD_REACTORS
330
175
102
}
330
175
100
AcDbDictionary
281
     1
  3
ACAD
350
177
  0
XRECORD
  5
73B1
102
{ACAD_REACTORS
330
28B
102
}
330
28B
100
AcDbXrecord
280
     1
340
1E
  0
XRECORD
  5
73B0
102
{ACAD_REACTORS
330
28D
102
}
330
28D
100
AcDbXrecord
280
     1
340
1A
  0
LAYOUT
  5
21
102
{ACAD_XDICTIONARY
360
75D5
102
}
102
{ACAD_REACTORS
330
19
102
}
330
19
100
AcDbPlotSettings
  1

  2
\\MEISEI-1\EPSON Stylus Photo EX3
  4

  6

 40
0.0
 41
0.0
 42
0.0
 43
0.0
 44
0.0
 45
0.0
 46
0.0
 47
0.0
 48
0.0
 49
0.0
140
0.0
141
0.0
142
1.0
143
1.0
 70
  1712
 72
     0
 73
     0
 74
     0
  7

 75
     0
147
1.0
148
0.0
149
0.0
100
AcDbLayout
  1
Model
 70
     1
 71
     0
 10
0.0
 20
0.0
 11
12.0
 21
9.0
 12
0.0
 22
0.0
 32
0.0
 14
0.0
 24
0.0
 34
0.0
 15
0.0
 25
0.0
 35
0.0
146
0.0
 13
0.0
 23
0.0
 33
0.0
 16
1.0
 26
0.0
 36
0.0
 17
0.0
 27
1.0
 37
0.0
 76
     0
330
1E
331
736C
  0
LAYOUT
  5
1D
102
{ACAD_XDICTIONARY
360
75D3
102
}
102
{ACAD_REACTORS
330
19
102
}
330
19
100
AcDbPlotSettings
  1

  2
\\MEISEI-1\EPSON Stylus Photo EX3
  4

  6

 40
0.0
 41
0.0
 42
0.0
 43
0.0
 44
0.0
 45
0.0
 46
0.0
 47
0.0
 48
0.0
 49
0.0
140
0.0
141
0.0
142
1.0
143
1.0
 70
   688
 72
     0
 73
     0
 74
     5
  7

 75
    16
147
1.0
148
0.0
149
0.0
100
AcDbLayout
  1
ﾚｲｱｳﾄ1
 70
     1
 71
     1
 10
0.0
 20
0.0
 11
12.0
 21
9.0
 12
0.0
 22
0.0
 32
0.0
 14
1.000000000000000E+20
 24
1.000000000000000E+20
 34
1.000000000000000E+20
 15
-1.000000000000000E+20
 25
-1.000000000000000E+20
 35
-1.000000000000000E+20
146
0.0
 13
0.0
 23
0.0
 33
0.0
 16
1.0
 26
0.0
 36
0.0
 17
0.0
 27
1.0
 37
0.0
 76
     0
330
1A
  0
MATERIAL
  5
73BA
102
{ACAD_XDICTIONARY
360
75D9
102
}
102
{ACAD_REACTORS
330
73B8
102
}
330
73B8
100
AcDbMaterial
  1
ByBlock
  0
MATERIAL
  5
73B9
102
{ACAD_XDICTIONARY
360
75D7
102
}
102
{ACAD_REACTORS
330
73B8
102
}
330
73B8
100
AcDbMaterial
  1
ByLayer
  0
MATERIAL
  5
73BB
102
{ACAD_XDICTIONARY
360
75DB
102
}
102
{ACAD_REACTORS
330
73B8
102
}
330
73B8
100
AcDbMaterial
  1
Global
  0
MLINESTYLE
  5
17
102
{ACAD_REACTORS
330
16
102
}
330
16
100
AcDbMlineStyle
  2
STANDARD
 70
     0
  3

 62
   256
 51
90.0
 52
90.0
 71
     2
 49
0.5
 62
   256
  6
BYLAYER
 49
-0.5
 62
   256
  6
BYLAYER
  0
ACDBPLACEHOLDER
  5
F
102
{ACAD_REACTORS
330
E
102
}
330
E
  0
TABLESTYLE
  5
73CF
102
{ACAD_XDICTIONARY
360
75DD
102
}
102
{ACAD_REACTORS
330
73CE
102
}
330
73CE
100
AcDbTableStyle
  3
Standard
 70
     0
 71
     0
 40
0.06
 41
0.06
280
     0
281
     0
  7
STANDARD
140
0.18
170
     2
 62
     0
 63
     7
283
     0
274
    -2
284
     1
 64
     0
275
    -2
285
     1
 65
     0
276
    -2
286
     1
 66
     0
277
    -2
287
     1
 67
     0
278
    -2
288
     1
 68
     0
279
    -2
289
     1
 69
     0
  7
STANDARD
140
0.25
170
     5
 62
     0
 63
     7
283
     0
274
    -2
284
     1
 64
     0
275
    -2
285
     1
 65
     0
276
    -2
286
     1
 66
     0
277
    -2
287
     1
 67
     0
278
    -2
288
     1
 68
     0
279
    -2
289
     1
 69
     0
  7
STANDARD
140
0.18
170
     5
 62
     0
 63
     7
283
     0
274
    -2
284
     1
 64
     0
275
    -2
285
     1
 65
     0
276
    -2
286
     1
 66
     0
277
    -2
287
     1
 67
     0
278
    -2
288
     1
 68
     0
279
    -2
289
     1
 69
     0
  0
VISUALSTYLE
  5
73C2
102
{ACAD_REACTORS
330
73BC
102
}
330
73BC
100
AcDbVisualStyle
  2
2dWireframe
 70
     4
 71
     0
 72
     2
 73
     0
 90
        0
 40
-0.6
 41
-30.0
 62
     5
 63
     7
 74
     1
 91
        4
 64
     7
 65
   257
 75
     1
175
     1
 42
1.0
 92
        0
 66
   257
 43
1.0
 76
     1
 77
     6
 78
     2
 67
     7
 79
     5
170
     0
171
     0
290
     0
174
     0
 93
        1
 44
0.0
173
     0
291
     0
 45
0.0
1001
ACAD
1000
AcDbSavedByObjectVersion
1070
     0
  0
VISUALSTYLE
  5
73C4
102
{ACAD_REACTORS
330
73BC
102
}
330
73BC
100
AcDbVisualStyle
  2
3D Hidden
 70
     6
 71
     1
 72
     2
 73
     2
 90
        0
 40
-0.6
 41
-30.0
 62
     5
 63
     7
 74
     2
 91
        2
 64
     7
 65
   257
 75
     2
175
     1
 42
40.0
 92
        0
 66
   257
 43
1.0
 76
     1
 77
     6
 78
     2
 67
     7
 79
     3
170
     0
171
     0
290
     0
174
     0
 93
        1
 44
0.0
173
     0
291
     0
 45
0.0
1001
ACAD
1000
AcDbSavedByObjectVersion
1070
     0
  0
VISUALSTYLE
  5
73C3
102
{ACAD_REACTORS
330
73BC
102
}
330
73BC
100
AcDbVisualStyle
  2
3dWireframe
 70
     5
 71
     0
 72
     2
 73
     0
 90
        0
 40
-0.6
 41
-30.0
 62
     5
 63
     7
 74
     1
 91
        4
 64
     7
 65
   257
 75
     1
175
     1
 42
1.0
 92
        0
 66
   257
 43
1.0
 76
     1
 77
     6
 78
     2
 67
     7
 79
     5
170
     0
171
     0
290
     0
174
     0
 93
        1
 44
0.0
173
     0
291
     0
 45
0.0
1001
ACAD
1000
AcDbSavedByObjectVersion
1070
     0
  0
VISUALSTYLE
  5
73C1
102
{ACAD_REACTORS
330
73BC
102
}
330
73BC
100
AcDbVisualStyle
  2
Basic
 70
     7
 71
     1
 72
     0
 73
     1
 90
        0
 40
-0.6
 41
-30.0
 62
     5
 63
     7
 74
     0
 91
        4
 64
     7
 65
   257
 75
     1
175
     1
 42
1.0
 92
        8
 66
     7
 43
1.0
 76
     1
 77
     6
 78
     2
 67
     7
 79
     5
170
     0
171
     0
290
     0
174
     0
 93
        1
 44
0.0
173
     0
291
     1
 45
0.0
1001
ACAD
1000
AcDbSavedByObjectVersion
1070
     0
  0
VISUALSTYLE
  5
73C8
102
{ACAD_REACTORS
330
73BC
102
}
330
73BC
100
AcDbVisualStyle
  2
Brighten
 70
    12
 71
     2
 72
     2
 73
     0
 90
        0
 40
-0.6
 41
-30.0
 62
     5
 63
     7
 74
     1
 91
        4
 64
     7
 65
   257
 75
     1
175
     1
 42
1.0
 92
        8
 66
     7
 43
1.0
 76
     1
 77
     6
 78
     2
 67
     7
 79
     5
170
     0
171
     0
290
     0
174
     0
 93
        1
 44
50.0
173
     0
291
     1
 45
0.0
1001
ACAD
1000
AcDbSavedByObjectVersion
1070
     0
  0
VISUALSTYLE
  5
73CC
102
{ACAD_REACTORS
330
73BC
102
}
330
73BC
100
AcDbVisualStyle
  2
ColorChange
 70
    16
 71
     2
 72
     2
 73
     3
 90
        0
 40
-0.6
 41
-30.0
 62
     5
 63
     8
 74
     1
 91
        4
 64
     7
 65
   257
 75
     1
175
     1
 42
1.0
 92
        8
 66
     8
 43
1.0
 76
     1
 77
     6
 78
     2
 67
     7
 79
     5
170
     0
171
     0
290
     0
174
     0
 93
        1
 44
0.0
173
     0
291
     1
 45
0.0
1001
ACAD
1000
AcDbSavedByObjectVersion
1070
     0
  0
VISUALSTYLE
  5
73C5
102
{ACAD_REACTORS
330
73BC
102
}
330
73BC
100
AcDbVisualStyle
  2
Conceptual
 70
     9
 71
     3
 72
     2
 73
     0
 90
        0
 40
-0.6
 41
-30.0
 62
     5
 63
     7
 74
     2
 91
        2
 64
     7
 65
   257
 75
     1
175
     1
 42
40.0
 92
        8
 66
     7
 43
1.0
 76
     1
 77
     6
 78
     2
 67
     7
 79
     3
170
     0
171
     0
290
     0
174
     0
 93
        1
 44
0.0
173
     0
291
     0
 45
0.0
1001
ACAD
1000
AcDbSavedByObjectVersion
1070
     0
  0
VISUALSTYLE
  5
73C7
102
{ACAD_REACTORS
330
73BC
102
}
330
73BC
100
AcDbVisualStyle
  2
Dim
 70
    11
 71
     2
 72
     2
 73
     0
 90
        0
 40
-0.6
 41
-30.0
 62
     5
 63
     7
 74
     1
 91
        4
 64
     7
 65
   257
 75
     1
175
     1
 42
1.0
 92
        8
 66
     7
 43
1.0
 76
     1
 77
     6
 78
     2
 67
     7
 79
     5
170
     0
171
     0
290
     0
174
     0
 93
        1
 44
-50.0
173
     0
291
     1
 45
0.0
1001
ACAD
1000
AcDbSavedByObjectVersion
1070
     0
  0
VISUALSTYLE
  5
73CB
102
{ACAD_REACTORS
330
73BC
102
}
330
73BC
100
AcDbVisualStyle
  2
Facepattern
 70
    15
 71
     2
 72
     2
 73
     0
 90
        0
 40
-0.6
 41
-30.0
 62
     5
 63
     7
 74
     1
 91
        4
 64
     7
 65
   257
 75
     1
175
     1
 42
1.0
 92
        8
 66
     7
 43
1.0
 76
     1
 77
     6
 78
     2
 67
     7
 79
     5
170
     0
171
     0
290
     0
174
     0
 93
        1
 44
0.0
173
     0
291
     1
 45
0.0
1001
ACAD
1000
AcDbSavedByObjectVersion
1070
     0
  0
VISUALSTYLE
  5
73BD
102
{ACAD_REACTORS
330
73BC
102
}
330
73BC
100
AcDbVisualStyle
  2
Flat
 70
     0
 71
     2
 72
     1
 73
     1
 90
        2
 40
-0.6
 41
30.0
 62
     5
 63
     7
 74
     0
 91
        4
 64
     7
 65
   257
 75
     1
175
     1
 42
1.0
 92
        8
 66
     7
 43
1.0
 76
     1
 77
     6
 78
     2
 67
     7
 79
     5
170
     0
171
     0
290
     0
174
     0
 93
       13
 44
0.0
173
     0
291
     1
 45
0.0
1001
ACAD
1000
AcDbSavedByObjectVersion
1070
     0
  0
VISUALSTYLE
  5
73BE
102
{ACAD_REACTORS
330
73BC
102
}
330
73BC
100
AcDbVisualStyle
  2
FlatWithEdges
 70
     1
 71
     2
 72
     1
 73
     1
 90
        2
 40
-0.6
 41
30.0
 62
     5
 63
     7
 74
     1
 91
        4
 64
     7
 65
   257
 75
     1
175
     1
 42
1.0
 92
        0
 66
   257
 43
1.0
 76
     1
 77
     6
 78
     2
 67
     7
 79
     5
170
     0
171
     0
290
     0
174
     0
 93
       13
 44
0.0
173
     0
291
     1
 45
0.0
1001
ACAD
1000
AcDbSavedByObjectVersion
1070
     0
  0
VISUALSTYLE
  5
73BF
102
{ACAD_REACTORS
330
73BC
102
}
330
73BC
100
AcDbVisualStyle
  2
Gouraud
 70
     2
 71
     2
 72
     2
 73
     1
 90
        2
 40
-0.6
 41
30.0
 62
     5
 63
     7
 74
     0
 91
        4
 64
     7
 65
   257
 75
     1
175
     1
 42
1.0
 92
        0
 66
     7
 43
1.0
 76
     1
 77
     6
 78
     2
 67
     7
 79
     5
170
     0
171
     0
290
     0
174
     0
 93
       13
 44
0.0
173
     0
291
     1
 45
0.0
1001
ACAD
1000
AcDbSavedByObjectVersion
1070
     0
  0
VISUALSTYLE
  5
73C0
102
{ACAD_REACTORS
330
73BC
102
}
330
73BC
100
AcDbVisualStyle
  2
GouraudWithEdges
 70
     3
 71
     2
 72
     2
 73
     1
 90
        2
 40
-0.6
 41
30.0
 62
     5
 63
     7
 74
     1
 91
        4
 64
     7
 65
   257
 75
     1
175
     1
 42
1.0
 92
        0
 66
   257
 43
1.0
 76
     1
 77
     6
 78
     2
 67
     7
 79
     5
170
     0
171
     0
290
     0
174
     0
 93
       13
 44
0.0
173
     0
291
     1
 45
0.0
1001
ACAD
1000
AcDbSavedByObjectVersion
1070
     0
  0
VISUALSTYLE
  5
73CA
102
{ACAD_REACTORS
330
73BC
102
}
330
73BC
100
AcDbVisualStyle
  2
Linepattern
 70
    14
 71
     2
 72
     2
 73
     0
 90
        0
 40
-0.6
 41
-30.0
 62
     5
 63
     7
 74
     1
 91
        4
 64
     7
 65
   257
 75
     7
175
     7
 42
1.0
 92
        8
 66
     7
 43
1.0
 76
     1
 77
     6
 78
     2
 67
     7
 79
     5
170
     0
171
     0
290
     0
174
     0
 93
        1
 44
0.0
173
     0
291
     1
 45
0.0
1001
ACAD
1000
AcDbSavedByObjectVersion
1070
     0
  0
VISUALSTYLE
  5
73C6
102
{ACAD_REACTORS
330
73BC
102
}
330
73BC
100
AcDbVisualStyle
  2
Realistic
 70
     8
 71
     2
 72
     2
 73
     0
 90
        0
 40
-0.6
 41
-30.0
 62
     5
 63
     7
 74
     1
 91
        0
 64
     7
 65
   257
 75
     1
175
     1
 42
1.0
 92
        8
 66
     8
 43
1.0
 76
     1
 77
     6
 78
     2
 67
     7
 79
     5
170
     0
171
     0
290
     0
174
     0
 93
       13
 44
0.0
173
     0
291
     0
 45
0.0
1001
ACAD
1000
AcDbSavedByObjectVersion
1070
     0
  0
VISUALSTYLE
  5
73C9
102
{ACAD_REACTORS
330
73BC
102
}
330
73BC
100
AcDbVisualStyle
  2
Thicken
 70
    13
 71
     2
 72
     2
 73
     0
 90
        0
 40
-0.6
 41
-30.0
 62
     5
 63
     7
 74
     1
 91
        4
 64
     7
 65
   257
 75
     1
175
     1
 42
1.0
 92
       12
 66
     7
 43
1.0
 76
     1
 77
     6
 78
     2
 67
     7
 79
     5
170
     0
171
     0
290
     0
174
     0
 93
        1
 44
0.0
173
     0
291
     1
 45
0.0
1001
ACAD
1000
AcDbSavedByObjectVersion
1070
     0
  0
DICTIONARYVAR
  5
75C9
102
{ACAD_REACTORS
330
169
102
}
330
169
100
DictionaryVariables
280
     0
  1
STANDARD
  0
DICTIONARYVAR
  5
16A
102
{ACAD_REACTORS
330
169
102
}
330
169
100
DictionaryVariables
280
     0
  1
1
  0
DICTIONARYVAR
  5
75CB
102
{ACAD_REACTORS
330
169
102
}
330
169
100
DictionaryVariables
280
     0
  1
0
  0
DICTIONARYVAR
  5
75CA
102
{ACAD_REACTORS
330
169
102
}
330
169
100
DictionaryVariables
280
     0
  1
127
  0
XRECORD
  5
177
102
{ACAD_REACTORS
330
176
102
}
330
176
100
AcDbXrecord
280
     1
 91
      476
330
179
 90
        8
 62
     7
370
    -3
331
15
  1
Color_7
330
128
 90
        0
 62
     7
370
    -3
331
15
  1
Color_7
330
10
 90
        8
 62
     7
370
    -3
331
15
  1
Color_7
  0
DICTIONARY
  5
75D5
330
21
100
AcDbDictionary
280
     1
281
     1
  3
ACAD_XREC_ROUNDTRIP
360
75D6
  0
DICTIONARY
  5
75D3
330
1D
100
AcDbDictionary
280
     1
281
     1
  3
ACAD_XREC_ROUNDTRIP
360
75D4
  0
DICTIONARY
  5
75D9
330
73BA
100
AcDbDictionary
280
     1
281
     1
  3
ACAD_XREC_ROUNDTRIP
360
75DA
  0
DICTIONARY
  5
75D7
330
73B9
100
AcDbDictionary
280
     1
281
     1
  3
ACAD_XREC_ROUNDTRIP
360
75D8
  0
DICTIONARY
  5
75DB
330
73BB
100
AcDbDictionary
280
     1
281
     1
  3
ACAD_XREC_ROUNDTRIP
360
75DC
  0
DICTIONARY
  5
75DD
330
73CF
100
AcDbDictionary
280
     1
281
     1
  3
ACAD_XREC_ROUNDTRIP
360
75DE
  0
XRECORD
  5
75D6
102
{ACAD_REACTORS
330
75D5
102
}
330
75D5
100
AcDbXrecord
280
     1
102
SHADEPLOT
 70
     0
102
SHADEPLOTRESLEVEL
 70
     2
102
SHADEPLOTCUSTOMDPI
 70
   300
  0
XRECORD
  5
75D4
102
{ACAD_REACTORS
330
75D3
102
}
330
75D3
100
AcDbXrecord
280
     1
102
SHADEPLOT
 70
     0
102
SHADEPLOTRESLEVEL
 70
     2
102
SHADEPLOTCUSTOMDPI
 70
   300
  0
XRECORD
  5
75DA
102
{ACAD_REACTORS
330
75D9
102
}
330
75D9
100
AcDbXrecord
280
     1
102
MATERIAL
148
0.0
149
0.0
149
0.0
 93
        0
 94
       63
282
     0
 72
     1
 77
     1
171
     1
175
     1
179
     1
273
     0
  0
XRECORD
  5
75D8
102
{ACAD_REACTORS
330
75D7
102
}
330
75D7
100
AcDbXrecord
280
     1
102
MATERIAL
148
0.0
149
0.0
149
0.0
 93
        0
 94
       63
282
     0
 72
     1
 77
     1
171
     1
175
     1
179
     1
273
     0
  0
XRECORD
  5
75DC
102
{ACAD_REACTORS
330
75DB
102
}
330
75DB
100
AcDbXrecord
280
     1
102
MATERIAL
148
0.0
149
0.0
149
0.0
 93
        0
 94
       63
282
     0
 72
     1
 77
     1
171
     1
175
     1
179
     1
273
     0
  0
XRECORD
  5
75DE
102
{ACAD_REACTORS
330
75DD
102
}
330
75DD
100
AcDbXrecord
280
     1
102
ACAD_ROUNDTRIP_PRE2007_TABLESTYLE
 90
      512
 91
        0
  1

 92
      512
 93
        0
  2

 94
      512
 95
        0
  3

  0
ENDSEC
  0
EOF
