  0
SECTION
  2
HEADER
  9
$ACADVER
  1
AC1015
  9
$ACADMAINTVER
 70
    20
  9
$DWGCODEPAGE
  3
ANSI_932
  9
$INSBASE
 10
0.0
 20
0.0
 30
0.0
  9
$EXTMIN
 10
252.1281307136113
 20
106.8361581444287
 30
0.0
  9
$EXTMAX
 10
385.9020277136114
 20
157.3469361444286
 30
0.0
  9
$LIMMIN
 10
0.0
 20
0.0
  9
$LIMMAX
 10
420.0
 20
297.0
  9
$ORTHOMODE
 70
     0
  9
$REGENMODE
 70
     1
  9
$FILLMODE
 70
     1
  9
$QTEXTMODE
 70
     0
  9
$MIRRTEXT
 70
     1
  9
$LTSCALE
 40
1.0
  9
$ATTMODE
 70
     1
  9
$TEXTSIZE
 40
5.0
  9
$TRACEWID
 40
0.05
  9
$TEXTSTYLE
  7
ACAD
  9
$CLAYER
  8
0
  9
$CELTYPE
  6
CONTINUOUS
  9
$CECOLOR
 62
   256
  9
$CELTSCALE
 40
1.0
  9
$DISPSILH
 70
     0
  9
$DIMSCALE
 40
1.0
  9
$DIMASZ
 40
1.0
  9
$DIMEXO
 40
0.0
  9
$DIMDLI
 40
0.38
  9
$DIMRND
 40
0.0
  9
$DIMDLE
 40
0.0
  9
$DIMEXE
 40
0.0
  9
$DIMTP
 40
0.0
  9
$DIMTM
 40
0.0
  9
$DIMTXT
 40
1.0
  9
$DIMCEN
 40
0.09
  9
$DIMTSZ
 40
0.0
  9
$DIMTOL
 70
     0
  9
$DIMLIM
 70
     0
  9
$DIMTIH
 70
     0
  9
$DIMTOH
 70
     1
  9
$DIMSE1
 70
     0
  9
$DIMSE2
 70
     0
  9
$DIMTAD
 70
     1
  9
$DIMZIN
 70
     0
  9
$DIMBLK
  1
Dot
  9
$DIMASO
 70
     1
  9
$DIMSHO
 70
     1
  9
$DIMPOST
  1

  9
$DIMAPOST
  1

  9
$DIMALT
 70
     0
  9
$DIMALTD
 70
     2
  9
$DIMALTF
 40
25.4
  9
$DIMLFAC
 40
1.0
  9
$DIMTOFL
 70
     0
  9
$DIMTVP
 40
0.0
  9
$DIMTIX
 70
     1
  9
$DIMSOXD
 70
     0
  9
$DIMSAH
 70
     0
  9
$DIMBLK1
  1

  9
$DIMBLK2
  1

  9
$DIMSTYLE
  2
AutoCAD
  9
$DIMCLRD
 70
     4
  9
$DIMCLRE
 70
     4
  9
$DIMCLRT
 70
     3
  9
$DIMTFAC
 40
1.0
  9
$DIMGAP
 40
1.0
  9
$DIMJUST
 70
     0
  9
$DIMSD1
 70
     0
  9
$DIMSD2
 70
     0
  9
$DIMTOLJ
 70
     1
  9
$DIMTZIN
 70
     0
  9
$DIMALTZ
 70
     0
  9
$DIMALTTZ
 70
     0
  9
$DIMUPT
 70
     0
  9
$DIMDEC
 70
     0
  9
$DIMTDEC
 70
     0
  9
$DIMALTU
 70
     2
  9
$DIMALTTD
 70
     2
  9
$DIMTXSTY
  7
ACAD
  9
$DIMAUNIT
 70
     0
  9
$DIMADEC
 70
     0
  9
$DIMALTRND
 40
0.0
  9
$DIMAZIN
 70
     0
  9
$DIMDSEP
 70
    46
  9
$DIMATFIT
 70
     0
  9
$DIMFRAC
 70
     0
  9
$DIMLDRBLK
  1
None
  9
$DIMLUNIT
 70
     2
  9
$DIMLWD
 70
    -2
  9
$DIMLWE
 70
    -2
  9
$DIMTMOVE
 70
     0
  9
$LUNITS
 70
     2
  9
$LUPREC
 70
     4
  9
$SKETCHINC
 40
0.1
  9
$FILLETRAD
 40
0.0
  9
$AUNITS
 70
     0
  9
$AUPREC
 70
     0
  9
$MENU
  1
.
  9
$ELEVATION
 40
0.0
  9
$PELEVATION
 40
0.0
  9
$THICKNESS
 40
0.0
  9
$LIMCHECK
 70
     0
  9
$CHAMFERA
 40
0.0
  9
$CHAMFERB
 40
0.0
  9
$CHAMFERC
 40
0.0
  9
$CHAMFERD
 40
0.0
  9
$SKPOLY
 70
     0
  9
$TDCREATE
 40
2454316.693457674
  9
$TDUCREATE
 40
2454316.318457674
  9
$TDUPDATE
 40
2454735.624610278
  9
$TDUUPDATE
 40
2454735.249610278
  9
$TDINDWG
 40
0.2438157407
  9
$TDUSRTIMER
 40
0.2438157407
  9
$USRTIMER
 70
     1
  9
$ANGBASE
 50
0.0
  9
$ANGDIR
 70
     0
  9
$PDMODE
 70
     0
  9
$PDSIZE
 40
0.0
  9
$PLINEWID
 40
0.0
  9
$SPLFRAME
 70
     0
  9
$SPLINETYPE
 70
     6
  9
$SPLINESEGS
 70
     8
  9
$HANDSEED
  5
6F15
  9
$SURFTAB1
 70
     6
  9
$SURFTAB2
 70
     6
  9
$SURFTYPE
 70
     6
  9
$SURFU
 70
     6
  9
$SURFV
 70
     6
  9
$UCSBASE
  2

  9
$UCSNAME
  2

  9
$UCSORG
 10
0.0
 20
0.0
 30
0.0
  9
$UCSXDIR
 10
1.0
 20
0.0
 30
0.0
  9
$UCSYDIR
 10
0.0
 20
1.0
 30
0.0
  9
$UCSORTHOREF
  2

  9
$UCSORTHOVIEW
 70
     0
  9
$UCSORGTOP
 10
0.0
 20
0.0
 30
0.0
  9
$UCSORGBOTTOM
 10
0.0
 20
0.0
 30
0.0
  9
$UCSORGLEFT
 10
0.0
 20
0.0
 30
0.0
  9
$UCSORGRIGHT
 10
0.0
 20
0.0
 30
0.0
  9
$UCSORGFRONT
 10
0.0
 20
0.0
 30
0.0
  9
$UCSORGBACK
 10
0.0
 20
0.0
 30
0.0
  9
$PUCSBASE
  2

  9
$PUCSNAME
  2

  9
$PUCSORG
 10
0.0
 20
0.0
 30
0.0
  9
$PUCSXDIR
 10
1.0
 20
0.0
 30
0.0
  9
$PUCSYDIR
 10
0.0
 20
1.0
 30
0.0
  9
$PUCSORTHOREF
  2

  9
$PUCSORTHOVIEW
 70
     0
  9
$PUCSORGTOP
 10
0.0
 20
0.0
 30
0.0
  9
$PUCSORGBOTTOM
 10
0.0
 20
0.0
 30
0.0
  9
$PUCSORGLEFT
 10
0.0
 20
0.0
 30
0.0
  9
$PUCSORGRIGHT
 10
0.0
 20
0.0
 30
0.0
  9
$PUCSORGFRONT
 10
0.0
 20
0.0
 30
0.0
  9
$PUCSORGBACK
 10
0.0
 20
0.0
 30
0.0
  9
$USERI1
 70
     0
  9
$USERI2
 70
     0
  9
$USERI3
 70
     0
  9
$USERI4
 70
     0
  9
$USERI5
 70
     0
  9
$USERR1
 40
0.0
  9
$USERR2
 40
0.0
  9
$USERR3
 40
0.0
  9
$USERR4
 40
0.0
  9
$USERR5
 40
0.0
  9
$WORLDVIEW
 70
     1
  9
$SHADEDGE
 70
     3
  9
$SHADEDIF
 70
    70
  9
$TILEMODE
 70
     1
  9
$MAXACTVP
 70
    48
  9
$PINSBASE
 10
0.0
 20
0.0
 30
0.0
  9
$PLIMCHECK
 70
     0
  9
$PEXTMIN
 10
1.000000000000000E+20
 20
1.000000000000000E+20
 30
1.000000000000000E+20
  9
$PEXTMAX
 10
-1.000000000000000E+20
 20
-1.000000000000000E+20
 30
-1.000000000000000E+20
  9
$PLIMMIN
 10
0.0
 20
0.0
  9
$PLIMMAX
 10
12.0
 20
9.0
  9
$UNITMODE
 70
     0
  9
$VISRETAIN
 70
     0
  9
$PLINEGEN
 70
     0
  9
$PSLTSCALE
 70
     1
  9
$TREEDEPTH
 70
  3020
  9
$CMLSTYLE
  2
Standard
  9
$CMLJUST
 70
     0
  9
$CMLSCALE
 40
1.0
  9
$PROXYGRAPHICS
 70
     1
  9
$MEASUREMENT
 70
     0
  9
$CELWEIGHT
370
    -1
  9
$ENDCAPS
280
     0
  9
$JOINSTYLE
280
     0
  9
$LWDISPLAY
290
     0
  9
$INSUNITS
 70
     0
  9
$HYPERLINKBASE
  1

  9
$STYLESHEET
  1

  9
$XEDIT
290
     1
  9
$CEPSNTYPE
380
     0
  9
$PSTYLEMODE
290
     1
  9
$FINGERPRINTGUID
  2
{CC7D6DEE-A9F1-4F3E-AC95-C84B62CCA3FD}
  9
$VERSIONGUID
  2
{AA1AEAB8-0E71-4943-869B-8B4B69F3E7FD}
  9
$EXTNAMES
290
     1
  9
$PSVPSCALE
 40
0.0
  9
$OLESTARTUP
290
     0
  0
ENDSEC
  0
SECTION
  2
CLASSES
  0
CLASS
  1
ACDBDICTIONARYWDFLT
  2
AcDbDictionaryWithDefault
  3
ObjectDBX Classes
 90
        0
280
     0
281
     0
  0
CLASS
  1
ACDBPLACEHOLDER
  2
AcDbPlaceHolder
  3
ObjectDBX Classes
 90
        0
280
     0
281
     0
  0
CLASS
  1
LAYOUT
  2
AcDbLayout
  3
ObjectDBX Classes
 90
        0
280
     0
281
     0
  0
CLASS
  1
DICTIONARYVAR
  2
AcDbDictionaryVar
  3
ObjectDBX Classes
 90
        0
280
     0
281
     0
  0
CLASS
  1
MATERIAL
  2
AcDbMaterial
  3
ObjectDBX Classes
 90
     1153
280
     0
281
     0
  0
CLASS
  1
VISUALSTYLE
  2
AcDbVisualStyle
  3
ObjectDBX Classes
 90
     4095
280
     0
281
     0
  0
CLASS
  1
TABLESTYLE
  2
AcDbTableStyle
  3
ObjectDBX Classes
 90
     4095
280
     0
281
     0
  0
ENDSEC
  0
SECTION
  2
TABLES
  0
TABLE
  2
VPORT
  5
8
102
{ACAD_XDICTIONARY
360
6EE7
102
}
330
0
100
AcDbSymbolTable
 70
     1
  0
VPORT
  5
6E2B
330
8
100
AcDbSymbolTableRecord
100
AcDbViewportTableRecord
  2
*Active
 70
     0
 10
0.0
 20
0.0
 11
1.0
 21
1.0
 12
311.3269814661586
 22
132.6747783575546
 13
0.0
 23
0.0
 14
1.0
 24
1.0
 15
0.0
 25
0.0
 16
0.0
 26
0.0
 36
1.0
 17
0.0
 27
0.0
 37
0.0
 40
104.5164855327872
 41
1.571614583333333
 42
50.0
 43
0.0
 44
0.0
 50
0.0
 51
0.0
 71
     0
 72
   100
 73
     1
 74
     1
 75
     0
 76
     0
 77
     0
 78
     0
281
     0
 65
     1
110
0.0
120
0.0
130
0.0
111
1.0
121
0.0
131
0.0
112
0.0
122
1.0
132
0.0
 79
     0
146
0.0
  0
ENDTAB
  0
TABLE
  2
LTYPE
  5
5
330
0
100
AcDbSymbolTable
 70
    50
  0
LTYPE
  5
13
330
5
100
AcDbSymbolTableRecord
100
AcDbLinetypeTableRecord
  2
ByBlock
 70
     0
  3

 72
    65
 73
     0
 40
0.0
  0
LTYPE
  5
14
330
5
100
AcDbSymbolTableRecord
100
AcDbLinetypeTableRecord
  2
ByLayer
 70
     0
  3

 72
    65
 73
     0
 40
0.0
  0
LTYPE
  5
15
330
5
100
AcDbSymbolTableRecord
100
AcDbLinetypeTableRecord
  2
CONTINUOUS
 70
     0
  3
実線
 72
    65
 73
     0
 40
0.0
  0
LTYPE
  5
22
330
5
100
AcDbSymbolTableRecord
100
AcDbLinetypeTableRecord
  2
DASHED1
 70
     0
  3
--  --  --  --  --  --  --  --  
 72
    65
 73
     2
 40
2.5
 49
1.25
 74
     0
 49
-1.25
 74
     0
  0
LTYPE
  5
23
330
5
100
AcDbSymbolTableRecord
100
AcDbLinetypeTableRecord
  2
DASHED2
 70
     0
  3
----    ----    ----    ----    
 72
    65
 73
     2
 40
5.0
 49
2.5
 74
     0
 49
-2.5
 74
     0
  0
LTYPE
  5
24
330
5
100
AcDbSymbolTableRecord
100
AcDbLinetypeTableRecord
  2
DASHED3
 70
     0
  3
------  ------  ------  ------  
 72
    65
 73
     2
 40
5.0
 49
3.75
 74
     0
 49
-1.25
 74
     0
  0
LTYPE
  5
25
330
5
100
AcDbSymbolTableRecord
100
AcDbLinetypeTableRecord
  2
CENTER1
 70
     0
  3
----- - ----- - ----- - ----- - 
 72
    65
 73
     4
 40
10.0
 49
6.25
 74
     0
 49
-1.25
 74
     0
 49
1.25
 74
     0
 49
-1.25
 74
     0
  0
LTYPE
  5
26
330
5
100
AcDbSymbolTableRecord
100
AcDbLinetypeTableRecord
  2
CENTER2
 70
     0
  3
----------  --  ----------  --  
 72
    65
 73
     4
 40
20.0
 49
12.5
 74
     0
 49
-2.5
 74
     0
 49
2.5
 74
     0
 49
-2.5
 74
     0
  0
LTYPE
  5
27
330
5
100
AcDbSymbolTableRecord
100
AcDbLinetypeTableRecord
  2
PHANTOM1
 70
     0
  3
--- - - --- - - --- - - --- - - 
 72
    65
 73
     6
 40
10.0
 49
3.25
 74
     0
 49
-1.25
 74
     0
 49
1.25
 74
     0
 49
-1.25
 74
     0
 49
1.25
 74
     0
 49
-1.25
 74
     0
  0
LTYPE
  5
28
330
5
100
AcDbSymbolTableRecord
100
AcDbLinetypeTableRecord
  2
PHANTOM2
 70
     0
  3
--------  -  -  --------  -  -  
 72
    65
 73
     6
 40
20.0
 49
10.0
 74
     0
 49
-2.5
 74
     0
 49
1.25
 74
     0
 49
-2.5
 74
     0
 49
1.25
 74
     0
 49
-2.5
 74
     0
  0
LTYPE
  5
29
330
5
100
AcDbSymbolTableRecord
100
AcDbLinetypeTableRecord
  2
DOT
 70
     0
  3
-   -   -   -   -   -   -   -   
 72
    65
 73
     2
 40
2.5
 49
0.625
 74
     0
 49
-1.875
 74
     0
  0
LTYPE
  5
2A
330
5
100
AcDbSymbolTableRecord
100
AcDbLinetypeTableRecord
  2
DUMMY
 70
     0
  3
ダミー
 72
    65
 73
     0
 40
0.0
  0
LTYPE
  5
2B
330
5
100
AcDbSymbolTableRecord
100
AcDbLinetypeTableRecord
  2
RAND1
 70
     0
  3
ランダム線1
 72
    65
 73
     4
 40
10.0
 49
1.0
 74
     0
 49
-2.0
 74
     0
 49
3.0
 74
     0
 49
-4.0
 74
     0
  0
LTYPE
  5
2C
330
5
100
AcDbSymbolTableRecord
100
AcDbLinetypeTableRecord
  2
RAND2
 70
     0
  3
ランダム線2
 72
    65
 73
     4
 40
14.0
 49
2.0
 74
     0
 49
-3.0
 74
     0
 49
4.0
 74
     0
 49
-5.0
 74
     0
  0
LTYPE
  5
2D
330
5
100
AcDbSymbolTableRecord
100
AcDbLinetypeTableRecord
  2
RAND3
 70
     0
  3
ランダム線3
 72
    65
 73
     4
 40
18.0
 49
3.0
 74
     0
 49
-4.0
 74
     0
 49
5.0
 74
     0
 49
-6.0
 74
     0
  0
LTYPE
  5
2E
330
5
100
AcDbSymbolTableRecord
100
AcDbLinetypeTableRecord
  2
RAND4
 70
     0
  3
ランダム線4
 72
    65
 73
     4
 40
22.0
 49
4.0
 74
     0
 49
-5.0
 74
     0
 49
6.0
 74
     0
 49
-7.0
 74
     0
  0
LTYPE
  5
2F
330
5
100
AcDbSymbolTableRecord
100
AcDbLinetypeTableRecord
  2
RAND5
 70
     0
  3
ランダム線5
 72
    65
 73
     4
 40
26.0
 49
5.0
 74
     0
 49
-6.0
 74
     0
 49
7.0
 74
     0
 49
-8.0
 74
     0
  0
LTYPE
  5
30
330
5
100
AcDbSymbolTableRecord
100
AcDbLinetypeTableRecord
  2
LONG1
 70
     0
  3
----------  --  ----------  --  
 72
    65
 73
     4
 40
40.0
 49
32.5
 74
     0
 49
-2.5
 74
     0
 49
2.5
 74
     0
 49
-2.5
 74
     0
  0
LTYPE
  5
31
330
5
100
AcDbSymbolTableRecord
100
AcDbLinetypeTableRecord
  2
LONG2
 70
     0
  3
--------  -  -  --------  -  -  
 72
    65
 73
     6
 40
40.0
 49
30.0
 74
     0
 49
-2.5
 74
     0
 49
1.25
 74
     0
 49
-2.5
 74
     0
 49
1.25
 74
     0
 49
-2.5
 74
     0
  0
LTYPE
  5
32
330
5
100
AcDbSymbolTableRecord
100
AcDbLinetypeTableRecord
  2
LONG3
 70
     0
  3
+++++++++++++++..+++++++++++++++
 72
    65
 73
     2
 40
40.0
 49
37.5
 74
     0
 49
-2.5
 74
     0
  0
LTYPE
  5
33
330
5
100
AcDbSymbolTableRecord
100
AcDbLinetypeTableRecord
  2
LONG4
 70
     0
  3
+++++++++++++++..+++++++++++++++
 72
    65
 73
     2
 40
80.0
 49
75.0
 74
     0
 49
-5.0
 74
     0
  0
LTYPE
  5
34
330
5
100
AcDbSymbolTableRecord
100
AcDbLinetypeTableRecord
  2
LONG5
 70
     0
  3
----------  --  ----------  --  
 72
    65
 73
     4
 40
60.0
 49
37.5
 74
     0
 49
-7.5
 74
     0
 49
7.5
 74
     0
 49
-7.5
 74
     0
  0
LTYPE
  5
35
330
5
100
AcDbSymbolTableRecord
100
AcDbLinetypeTableRecord
  2
DASHED
 70
     0
  3
-------   -------------   ------
 72
    65
 73
     2
 40
7.5
 49
6.0
 74
     0
 49
-1.5
 74
     0
  0
LTYPE
  5
36
330
5
100
AcDbSymbolTableRecord
100
AcDbLinetypeTableRecord
  2
DASHED_SPACED
 70
     0
  3
----        --------        ----
 72
    65
 73
     2
 40
12.0
 49
6.0
 74
     0
 49
-6.0
 74
     0
  0
LTYPE
  5
37
330
5
100
AcDbSymbolTableRecord
100
AcDbLinetypeTableRecord
  2
LONG_DASHED_DOTTED
 70
     0
  3
------------- --- --------------
 72
    65
 73
     4
 40
15.25
 49
12.0
 74
     0
 49
-1.5
 74
     0
 49
0.25
 74
     0
 49
-1.5
 74
     0
  0
LTYPE
  5
38
330
5
100
AcDbSymbolTableRecord
100
AcDbLinetypeTableRecord
  2
LONG_DASHED_DOUBLE-DOTTED
 70
     0
  3
----------- --- --- ------------
 72
    65
 73
     6
 40
17.0
 49
12.0
 74
     0
 49
-1.5
 74
     0
 49
0.25
 74
     0
 49
-1.5
 74
     0
 49
0.25
 74
     0
 49
-1.5
 74
     0
  0
LTYPE
  5
39
330
5
100
AcDbSymbolTableRecord
100
AcDbLinetypeTableRecord
  2
LONG_DASHED_TRIPLICATE-DOTTED
 70
     0
  3
--------- --- --- --- ----------
 72
    65
 73
     8
 40
18.75
 49
12.0
 74
     0
 49
-1.5
 74
     0
 49
0.25
 74
     0
 49
-1.5
 74
     0
 49
0.25
 74
     0
 49
-1.5
 74
     0
 49
0.25
 74
     0
 49
-1.5
 74
     0
  0
LTYPE
  5
3A
330
5
100
AcDbSymbolTableRecord
100
AcDbLinetypeTableRecord
  2
DOTTED
 70
     0
  3
   -       -       -       -    
 72
    65
 73
     2
 40
1.75
 49
0.25
 74
     0
 49
-1.5
 74
     0
  0
LTYPE
  5
3B
330
5
100
AcDbSymbolTableRecord
100
AcDbLinetypeTableRecord
  2
CHAIN
 70
     0
  3
-------------- -- --------------
 72
    65
 73
     4
 40
18.5
 49
12.0
 74
     0
 49
-1.5
 74
     0
 49
3.5
 74
     0
 49
-1.5
 74
     0
  0
LTYPE
  5
3C
330
5
100
AcDbSymbolTableRecord
100
AcDbLinetypeTableRecord
  2
CHAIN_DOUBLE_DASH
 70
     0
  3
------------ -- -- -------------
 72
    65
 73
     6
 40
23.5
 49
12.0
 74
     0
 49
-1.5
 74
     0
 49
3.5
 74
     0
 49
-1.5
 74
     0
 49
3.5
 74
     0
 49
-1.5
 74
     0
  0
LTYPE
  5
3D
330
5
100
AcDbSymbolTableRecord
100
AcDbLinetypeTableRecord
  2
DASHED_DOTTED
 70
     0
  3
-----------     -     ----------
 72
    65
 73
     4
 40
9.25
 49
6.0
 74
     0
 49
-1.5
 74
     0
 49
0.25
 74
     0
 49
-1.5
 74
     0
  0
LTYPE
  5
3E
330
5
100
AcDbSymbolTableRecord
100
AcDbLinetypeTableRecord
  2
DOUBLE-DASHED_DOTTED
 70
     0
  3
------   -----------   -   -----
 72
    65
 73
     6
 40
16.75
 49
6.0
 74
     0
 49
-1.5
 74
     0
 49
6.0
 74
     0
 49
-1.5
 74
     0
 49
0.25
 74
     0
 49
-1.5
 74
     0
  0
LTYPE
  5
3F
330
5
100
AcDbSymbolTableRecord
100
AcDbLinetypeTableRecord
  2
DASHED_DOUBLE-DOTTED
 70
     0
  3
---------    -    -    ---------
 72
    65
 73
     6
 40
11.0
 49
6.0
 74
     0
 49
-1.5
 74
     0
 49
0.25
 74
     0
 49
-1.5
 74
     0
 49
0.25
 74
     0
 49
-1.5
 74
     0
  0
LTYPE
  5
40
330
5
100
AcDbSymbolTableRecord
100
AcDbLinetypeTableRecord
  2
DOUBLE-DASHED_DOUBLE-DOTTED
 70
     0
  3
-----   ---------   -   -   ----
 72
    65
 73
     8
 40
18.5
 49
6.0
 74
     0
 49
-1.5
 74
     0
 49
6.0
 74
     0
 49
-1.5
 74
     0
 49
0.25
 74
     0
 49
-1.5
 74
     0
 49
0.25
 74
     0
 49
-1.5
 74
     0
  0
LTYPE
  5
41
330
5
100
AcDbSymbolTableRecord
100
AcDbLinetypeTableRecord
  2
DASHED_TRIPLICATE-DOTTED
 70
     0
  3
-------    -    -    -    ------
 72
    65
 73
     8
 40
12.75
 49
6.0
 74
     0
 49
-1.5
 74
     0
 49
0.25
 74
     0
 49
-1.5
 74
     0
 49
0.25
 74
     0
 49
-1.5
 74
     0
 49
0.25
 74
     0
 49
-1.5
 74
     0
  0
LTYPE
  5
42
330
5
100
AcDbSymbolTableRecord
100
AcDbLinetypeTableRecord
  2
DOUBLE-DASHED_TRIPLICATE-DOTTED
 70
     0
  3
-----  ---------  -  -  -  -----
 72
    65
 73
    10
 40
20.25
 49
6.0
 74
     0
 49
-1.5
 74
     0
 49
6.0
 74
     0
 49
-1.5
 74
     0
 49
0.25
 74
     0
 49
-1.5
 74
     0
 49
0.25
 74
     0
 49
-1.5
 74
     0
 49
0.25
 74
     0
 49
-1.5
 74
     0
  0
LTYPE
  5
43
330
5
100
AcDbSymbolTableRecord
100
AcDbLinetypeTableRecord
  2
UNDEFINED
 70
     0
  3
--------------------------------
 72
    65
 73
     0
 40
0.0
  0
LTYPE
  5
44
330
5
100
AcDbSymbolTableRecord
100
AcDbLinetypeTableRecord
  2
PLINE2
 70
     0
  3
------     -----------     -----
 72
    65
 73
     2
 40
3.0
 49
2.1
 74
     0
 49
-0.9
 74
     0
  0
LTYPE
  5
45
330
5
100
AcDbSymbolTableRecord
100
AcDbLinetypeTableRecord
  2
PLINE3
 70
     0
  3
------------   ---   -----------
 72
    65
 73
     4
 40
10.0
 49
7.0
 74
     0
 49
-1.0
 74
     0
 49
1.0
 74
     0
 49
-1.0
 74
     0
  0
LTYPE
  5
46
330
5
100
AcDbSymbolTableRecord
100
AcDbLinetypeTableRecord
  2
PLINE4
 70
     0
  3
---------   ---   ---   --------
 72
    65
 73
     6
 40
10.0
 49
5.0
 74
     0
 49
-1.0
 74
     0
 49
1.0
 74
     0
 49
-1.0
 74
     0
 49
1.0
 74
     0
 49
-1.0
 74
     0
  0
LTYPE
  5
47
330
5
100
AcDbSymbolTableRecord
100
AcDbLinetypeTableRecord
  2
PLINE5
 70
     0
  3
------     -----------     -----
 72
    65
 73
     2
 40
5.0
 49
3.5
 74
     0
 49
-1.5
 74
     0
  0
LTYPE
  5
48
330
5
100
AcDbSymbolTableRecord
100
AcDbLinetypeTableRecord
  2
PLINE6
 70
     0
  3
------------   ---   -----------
 72
    65
 73
     4
 40
15.0
 49
10.5
 74
     0
 49
-1.5
 74
     0
 49
1.5
 74
     0
 49
-1.5
 74
     0
  0
LTYPE
  5
49
330
5
100
AcDbSymbolTableRecord
100
AcDbLinetypeTableRecord
  2
PLINE7
 70
     0
  3
---------   ---   ---   --------
 72
    65
 73
     6
 40
15.0
 49
7.5
 74
     0
 49
-1.5
 74
     0
 49
1.5
 74
     0
 49
-1.5
 74
     0
 49
1.5
 74
     0
 49
-1.5
 74
     0
  0
LTYPE
  5
4A
330
5
100
AcDbSymbolTableRecord
100
AcDbLinetypeTableRecord
  2
PLINE8
 70
     0
  3
------     -----------     -----
 72
    65
 73
     2
 40
7.0
 49
4.9
 74
     0
 49
-2.1
 74
     0
  0
LTYPE
  5
4B
330
5
100
AcDbSymbolTableRecord
100
AcDbLinetypeTableRecord
  2
PLINE9
 70
     0
  3
------------   ---   -----------
 72
    65
 73
     4
 40
20.0
 49
14.0
 74
     0
 49
-2.0
 74
     0
 49
2.0
 74
     0
 49
-2.0
 74
     0
  0
LTYPE
  5
4C
330
5
100
AcDbSymbolTableRecord
100
AcDbLinetypeTableRecord
  2
PLINE10
 70
     0
  3
---------   ---   ---   --------
 72
    65
 73
     6
 40
20.0
 49
10.0
 74
     0
 49
-2.0
 74
     0
 49
2.0
 74
     0
 49
-2.0
 74
     0
 49
2.0
 74
     0
 49
-2.0
 74
     0
  0
LTYPE
  5
4D
330
5
100
AcDbSymbolTableRecord
100
AcDbLinetypeTableRecord
  2
PLINE11
 70
     0
  3
------     -----------     -----
 72
    65
 73
     2
 40
9.0
 49
6.299999999999999
 74
     0
 49
-2.7
 74
     0
  0
LTYPE
  5
4E
330
5
100
AcDbSymbolTableRecord
100
AcDbLinetypeTableRecord
  2
PLINE12
 70
     0
  3
------------   ---   -----------
 72
    65
 73
     4
 40
25.0
 49
17.5
 74
     0
 49
-2.5
 74
     0
 49
2.5
 74
     0
 49
-2.5
 74
     0
  0
LTYPE
  5
4F
330
5
100
AcDbSymbolTableRecord
100
AcDbLinetypeTableRecord
  2
PLINE13
 70
     0
  3
---------   ---   ---   --------
 72
    65
 73
     6
 40
25.0
 49
12.5
 74
     0
 49
-2.5
 74
     0
 49
2.5
 74
     0
 49
-2.5
 74
     0
 49
2.5
 74
     0
 49
-2.5
 74
     0
  0
LTYPE
  5
50
330
5
100
AcDbSymbolTableRecord
100
AcDbLinetypeTableRecord
  2
PLINE14
 70
     0
  3
------     -----------     -----
 72
    65
 73
     2
 40
11.0
 49
7.7
 74
     0
 49
-3.299999999999999
 74
     0
  0
LTYPE
  5
51
330
5
100
AcDbSymbolTableRecord
100
AcDbLinetypeTableRecord
  2
PLINE15
 70
     0
  3
------------   ---   -----------
 72
    65
 73
     4
 40
30.0
 49
21.0
 74
     0
 49
-3.0
 74
     0
 49
3.0
 74
     0
 49
-3.0
 74
     0
  0
LTYPE
  5
52
330
5
100
AcDbSymbolTableRecord
100
AcDbLinetypeTableRecord
  2
PLINE16
 70
     0
  3
---------   ---   ---   --------
 72
    65
 73
     6
 40
30.0
 49
15.0
 74
     0
 49
-3.0
 74
     0
 49
3.0
 74
     0
 49
-3.0
 74
     0
 49
3.0
 74
     0
 49
-3.0
 74
     0
  0
ENDTAB
  0
TABLE
  2
LAYER
  5
2
102
{ACAD_XDICTIONARY
360
175
102
}
330
0
100
AcDbSymbolTable
 70
     5
  0
LAYER
  5
10
330
2
100
AcDbSymbolTableRecord
100
AcDbLayerTableRecord
  2
0
 70
     0
 62
     7
  6
CONTINUOUS
370
    -3
390
F
  0
LAYER
  5
128
330
2
100
AcDbSymbolTableRecord
100
AcDbLayerTableRecord
  2
Defpoints
 70
     0
 62
     7
  6
CONTINUOUS
290
     0
370
    -3
390
F
  0
LAYER
  5
179
330
2
100
AcDbSymbolTableRecord
100
AcDbLayerTableRecord
  2
製品
 70
     0
 62
     7
  6
CONTINUOUS
370
    -3
390
F
  0
LAYER
  5
6B63
330
2
100
AcDbSymbolTableRecord
100
AcDbLayerTableRecord
  2
寸法
 70
     0
 62
     7
  6
CONTINUOUS
370
    -3
390
F
  0
LAYER
  5
6B64
330
2
100
AcDbSymbolTableRecord
100
AcDbLayerTableRecord
  2
図面枠
 70
     0
 62
     7
  6
CONTINUOUS
370
    -3
390
F
  0
ENDTAB
  0
TABLE
  2
STYLE
  5
3
330
0
100
AcDbSymbolTable
 70
     4
  0
STYLE
  5
11
330
3
100
AcDbSymbolTableRecord
100
AcDbTextStyleTableRecord
  2
STANDARD
 70
     0
 40
0.0
 41
1.0
 50
0.0
 71
     0
 42
0.2
  3
txt
  4
bigfont.shx
  0
STYLE
  5
53
330
3
100
AcDbSymbolTableRecord
100
AcDbTextStyleTableRecord
  2
TATEGAKI
 70
     4
 40
0.0
 41
1.0
 50
0.0
 71
     0
 42
1.0
  3
txt
  4
bigfont.shx
  0
STYLE
  5
123
330
3
100
AcDbSymbolTableRecord
100
AcDbTextStyleTableRecord
  2
ACAD
 70
     0
 40
0.0
 41
0.8
 50
0.0
 71
     0
 42
5.0
  3
romans.shx
  4
extfont.shx
  0
STYLE
  5
3A5F
330
3
100
AcDbSymbolTableRecord
100
AcDbTextStyleTableRecord
  2
VERTXT
 70
     4
 40
0.0
 41
0.8582679999999999
 50
0.0
 71
     0
 42
3.5
  3
txt.shx
  4
BIGFONT
  0
ENDTAB
  0
TABLE
  2
VIEW
  5
6
330
0
100
AcDbSymbolTable
 70
     0
  0
ENDTAB
  0
TABLE
  2
UCS
  5
7
330
0
100
AcDbSymbolTable
 70
     0
  0
ENDTAB
  0
TABLE
  2
APPID
  5
9
330
0
100
AcDbSymbolTable
 70
     1
  0
APPID
  5
12
330
9
100
AcDbSymbolTableRecord
100
AcDbRegAppTableRecord
  2
ACAD
 70
     0
  0
ENDTAB
  0
TABLE
  2
DIMSTYLE
  5
A
330
0
100
AcDbSymbolTable
 70
     3
100
AcDbDimStyleTable
 71
     1
340
126
  0
DIMSTYLE
105
11C
330
A
100
AcDbSymbolTableRecord
100
AcDbDimStyleTableRecord
  2
Standard
 70
     0
340
11
  0
DIMSTYLE
105
126
102
{ACAD_REACTORS
330
6CE9
330
6D95
102
}
330
A
100
AcDbSymbolTableRecord
100
AcDbDimStyleTableRecord
  2
AutoCAD
 70
     0
 41
1.0
 42
0.0
 44
0.0
 73
     0
 77
     1
140
1.0
147
1.0
174
     1
176
     4
177
     4
178
     3
271
     0
272
     0
289
     0
340
123
341
15B0
342
11E
  0
DIMSTYLE
105
2CBB
330
A
100
AcDbSymbolTableRecord
100
AcDbDimStyleTableRecord
  2
111
 70
     0
 41
1.0
 42
0.0
 44
0.0
 73
     0
 77
     1
140
5.0
147
1.0
174
     1
176
     4
177
     4
178
     3
271
     0
272
     0
289
     0
340
123
341
15B0
342
2CB5
  0
ENDTAB
  0
TABLE
  2
BLOCK_RECORD
  5
1
330
0
100
AcDbSymbolTable
 70
     6
  0
BLOCK_RECORD
  5
1E
102
{ACAD_XDICTIONARY
360
28B
102
}
330
1
100
AcDbSymbolTableRecord
100
AcDbBlockTableRecord
  2
*Model_Space
340
21
  0
BLOCK_RECORD
  5
1A
102
{ACAD_XDICTIONARY
360
28D
102
}
330
1
100
AcDbSymbolTableRecord
100
AcDbBlockTableRecord
  2
*Paper_Space
340
1D
  0
BLOCK_RECORD
  5
11E
330
1
100
AcDbSymbolTableRecord
100
AcDbBlockTableRecord
  2
_Dot
340
0
102
{BLKREFS
331
6EBC
331
6EBD
331
6EE0
331
6EE1
102
}
  0
BLOCK_RECORD
  5
15B0
330
1
100
AcDbSymbolTableRecord
100
AcDbBlockTableRecord
  2
_None
340
0
  0
BLOCK_RECORD
  5
2CB5
330
1
100
AcDbSymbolTableRecord
100
AcDbBlockTableRecord
  2
_Open30
340
0
  0
BLOCK_RECORD
  5
35E3
330
1
100
AcDbSymbolTableRecord
100
AcDbBlockTableRecord
  2
_DotBlank
340
0
  0
BLOCK_RECORD
  5
6E01
330
1
100
AcDbSymbolTableRecord
100
AcDbBlockTableRecord
  2
*D4
340
0
  0
BLOCK_RECORD
  5
6E0D
330
1
100
AcDbSymbolTableRecord
100
AcDbBlockTableRecord
  2
*D5
340
0
  0
ENDTAB
  0
ENDSEC
  0
SECTION
  2
BLOCKS
  0
BLOCK
  5
1F
330
1E
100
AcDbEntity
  8
0
100
AcDbBlockBegin
  2
*Model_Space
 70
     0
 10
0.0
 20
0.0
 30
0.0
  3
*Model_Space
  1

  0
ENDBLK
  5
20
330
1E
100
AcDbEntity
  8
0
100
AcDbBlockEnd
  0
BLOCK
  5
1B
330
1A
100
AcDbEntity
 67
     1
  8
0
100
AcDbBlockBegin
  2
*Paper_Space
 70
     0
 10
0.0
 20
0.0
 30
0.0
  3
*Paper_Space
  1

  0
ENDBLK
  5
1C
330
1A
100
AcDbEntity
 67
     1
  8
0
100
AcDbBlockEnd
  0
BLOCK
  5
121
330
11E
100
AcDbEntity
  8
0
100
AcDbBlockBegin
  2
_Dot
 70
     0
 10
0.0
 20
0.0
 30
0.0
  3
_Dot
  1

  0
LWPOLYLINE
  5
11F
330
11E
100
AcDbEntity
  8
0
  6
ByBlock
 62
     0
100
AcDbPolyline
 90
        2
 70
     1
 43
0.5
 10
-0.25
 20
0.0
 42
1.0
 10
0.25
 20
0.0
 42
1.0
  0
LINE
  5
120
330
11E
100
AcDbEntity
  8
0
  6
ByBlock
 62
     0
370
    -2
100
AcDbLine
 10
-0.5
 20
0.0
 30
0.0
 11
-1.0
 21
0.0
 31
0.0
  0
ENDBLK
  5
122
330
11E
100
AcDbEntity
  8
0
100
AcDbBlockEnd
  0
BLOCK
  5
15B1
330
15B0
100
AcDbEntity
  8
0
100
AcDbBlockBegin
  2
_None
 70
     0
 10
0.0
 20
0.0
 30
0.0
  3
_None
  1

  0
ENDBLK
  5
15B2
330
15B0
100
AcDbEntity
  8
0
100
AcDbBlockEnd
  0
BLOCK
  5
2CB9
330
2CB5
100
AcDbEntity
  8
0
100
AcDbBlockBegin
  2
_Open30
 70
     0
 10
0.0
 20
0.0
 30
0.0
  3
_Open30
  1

  0
LINE
  5
2CB6
330
2CB5
100
AcDbEntity
  8
0
  6
ByBlock
 62
     0
370
    -2
100
AcDbLine
 10
-1.0
 20
0.26794919
 30
0.0
 11
0.0
 21
0.0
 31
0.0
  0
LINE
  5
2CB7
330
2CB5
100
AcDbEntity
  8
0
  6
ByBlock
 62
     0
370
    -2
100
AcDbLine
 10
0.0
 20
0.0
 30
0.0
 11
-1.0
 21
-0.26794919
 31
0.0
  0
LINE
  5
2CB8
330
2CB5
100
AcDbEntity
  8
0
  6
ByBlock
 62
     0
370
    -2
100
AcDbLine
 10
0.0
 20
0.0
 30
0.0
 11
-1.0
 21
0.0
 31
0.0
  0
ENDBLK
  5
2CBA
330
2CB5
100
AcDbEntity
  8
0
100
AcDbBlockEnd
  0
BLOCK
  5
35E6
330
35E3
100
AcDbEntity
  8
0
100
AcDbBlockBegin
  2
_DotBlank
 70
     0
 10
0.0
 20
0.0
 30
0.0
  3
_DotBlank
  1

  0
CIRCLE
  5
35E4
330
35E3
100
AcDbEntity
  8
0
  6
ByBlock
 62
     0
370
    -2
100
AcDbCircle
 10
0.0
 20
0.0
 30
0.0
 40
0.5
  0
LINE
  5
35E5
330
35E3
100
AcDbEntity
  8
0
  6
ByBlock
 62
     0
370
    -2
100
AcDbLine
 10
-0.5
 20
0.0
 30
0.0
 11
-1.0
 21
0.0
 31
0.0
  0
ENDBLK
  5
35E7
330
35E3
100
AcDbEntity
  8
0
100
AcDbBlockEnd
  0
BLOCK
  5
6E0B
330
6E01
100
AcDbEntity
  8
0
100
AcDbBlockBegin
  2
*D4
 70
     1
 10
0.0
 20
0.0
 30
0.0
  3
*D4
  1

  0
LINE
  5
6EB8
330
6E01
100
AcDbEntity
  8
寸法
  6
Continuous
 62
     4
370
    -2
100
AcDbLine
 10
272.6281307136113
 20
140.5469361444288
 30
0.0
 11
272.6281307136113
 21
119.745266425629
 31
0.0
  0
LINE
  5
6EB9
330
6E01
100
AcDbEntity
  8
寸法
  6
Continuous
 62
     4
370
    -2
100
AcDbLine
 10
270.6281307136113
 20
121.5469361444288
 30
0.0
 11
270.6281307136113
 21
119.745266425629
 31
0.0
  0
LINE
  5
6EBA
330
6E01
100
AcDbEntity
  8
寸法
  6
Continuous
 62
     4
370
    -2
100
AcDbLine
 10
269.6281307136113
 20
119.745266425629
 30
0.0
 11
268.6281307136113
 21
119.745266425629
 31
0.0
  0
LINE
  5
6EBB
330
6E01
100
AcDbEntity
  8
寸法
  6
Continuous
 62
     4
370
    -2
100
AcDbLine
 10
273.6281307136113
 20
119.745266425629
 30
0.0
 11
283.0852735707542
 21
119.745266425629
 31
0.0
  0
INSERT
  5
6EBC
330
6E01
100
AcDbEntity
  8
寸法
  6
Continuous
 62
     4
370
    -2
100
AcDbBlockReference
  2
_Dot
 10
270.6281307136113
 20
119.745266425629
 30
0.0
  0
INSERT
  5
6EBD
330
6E01
100
AcDbEntity
  8
寸法
  6
Continuous
 62
     4
370
    -2
100
AcDbBlockReference
  2
_Dot
 10
272.6281307136113
 20
119.745266425629
 30
0.0
 50
180.0
  0
MTEXT
  5
6EBE
330
6E01
100
AcDbEntity
  8
寸法
  6
Continuous
 62
     3
100
AcDbMText
 10
278.8567021421828
 20
122.8309807113433
 30
0.0
 40
3.0
 41
0.0
 71
     5
 72
     1
  1
\A1;(10)
  7
ACAD
 73
     1
 44
1.0
1001
ACAD
1000
MTEXTBEGIN
1070
    73
1070
     1
1070
    44
1040
1.0
1070
    74
1070
     0
1000
MTEXTEND
  0
POINT
  5
6EBF
330
6E01
100
AcDbEntity
  8
Defpoints
  6
Continuous
 62
     0
100
AcDbPoint
 10
272.6281307136113
 20
140.5469361444288
 30
0.0
  0
POINT
  5
6EC0
330
6E01
100
AcDbEntity
  8
Defpoints
  6
Continuous
 62
     0
100
AcDbPoint
 10
270.6281307136113
 20
121.5469361444288
 30
0.0
  0
POINT
  5
6EC1
330
6E01
100
AcDbEntity
  8
Defpoints
  6
Continuous
 62
     0
100
AcDbPoint
 10
270.6281307136113
 20
119.745266425629
 30
0.0
  0
ENDBLK
  5
6E0C
330
6E01
100
AcDbEntity
  8
0
100
AcDbBlockEnd
  0
BLOCK
  5
6E17
330
6E0D
100
AcDbEntity
  8
0
100
AcDbBlockBegin
  2
*D5
 70
     1
 10
0.0
 20
0.0
 30
0.0
  3
*D5
  1

  0
LINE
  5
6EDD
330
6E0D
100
AcDbEntity
  8
寸法
  6
Continuous
 62
     4
370
    -2
100
AcDbLine
 10
341.9020277136113
 20
138.0361581444285
 30
0.0
 11
341.9020277136113
 21
119.0361581444285
 31
0.0
  0
LINE
  5
6EDE
330
6E0D
100
AcDbEntity
  8
寸法
  6
Continuous
 62
     4
370
    -2
100
AcDbLine
 10
338.9020277136113
 20
119.0361581444285
 30
0.0
 11
337.9020277136114
 21
119.0361581444285
 31
0.0
  0
LINE
  5
6EDF
330
6E0D
100
AcDbEntity
  8
寸法
  6
Continuous
 62
     4
370
    -2
100
AcDbLine
 10
342.9020277136114
 20
119.0361581444285
 30
0.0
 11
352.3591705707542
 21
119.0361581444285
 31
0.0
  0
INSERT
  5
6EE0
330
6E0D
100
AcDbEntity
  8
寸法
  6
Continuous
 62
     4
370
    -2
100
AcDbBlockReference
  2
_Dot
 10
339.9020277136113
 20
119.0361581444285
 30
0.0
  0
INSERT
  5
6EE1
330
6E0D
100
AcDbEntity
  8
寸法
  6
Continuous
 62
     4
370
    -2
100
AcDbBlockReference
  2
_Dot
 10
341.9020277136113
 20
119.0361581444285
 30
0.0
 50
180.0
  0
MTEXT
  5
6EE2
330
6E0D
100
AcDbEntity
  8
寸法
  6
Continuous
 62
     3
100
AcDbMText
 10
348.1305991421828
 20
122.1218724301428
 30
0.0
 40
3.0
 41
0.0
 71
     5
 72
     1
  1
\A1;(10)
  7
ACAD
 73
     1
 44
1.0
1001
ACAD
1000
MTEXTBEGIN
1070
    73
1070
     1
1070
    44
1040
1.0
1070
    74
1070
     0
1000
MTEXTEND
  0
POINT
  5
6EE3
330
6E0D
100
AcDbEntity
  8
Defpoints
  6
Continuous
 62
     0
100
AcDbPoint
 10
341.9020277136113
 20
138.0361581444285
 30
0.0
  0
POINT
  5
6EE4
330
6E0D
100
AcDbEntity
  8
Defpoints
  6
Continuous
 62
     0
100
AcDbPoint
 10
339.9020277136113
 20
119.0361581444285
 30
0.0
  0
POINT
  5
6EE5
330
6E0D
100
AcDbEntity
  8
Defpoints
  6
Continuous
 62
     0
100
AcDbPoint
 10
339.9020277136113
 20
119.0361581444285
 30
0.0
  0
ENDBLK
  5
6E18
330
6E0D
100
AcDbEntity
  8
0
100
AcDbBlockEnd
  0
ENDSEC
  0
SECTION
  2
ENTITIES
  0
LINE
  5
6CB5
330
1E
100
AcDbEntity
  8
図面枠
  6
Continuous
 62
     7
100
AcDbLine
 10
372.5533977136114
 20
148.8361581444287
 30
0.0
 11
360.5133977136114
 21
148.8361581444287
 31
0.0
  0
TEXT
  5
6CB6
330
1E
100
AcDbEntity
  8
図面枠
 62
     7
100
AcDbText
 10
360.5376477136114
 20
149.8361651444288
 30
0.0
 40
3.0
  1
下地張り
 41
0.8
  7
ACAD
100
AcDbText
  0
LINE
  5
6CB7
330
1E
100
AcDbEntity
  8
製品
  6
Continuous
 62
     7
100
AcDbLine
 10
341.9020277136113
 20
139.0361581444285
 30
0.0
 11
385.9020277136114
 21
139.0361581444285
 31
0.0
  0
LINE
  5
6CB8
330
1E
100
AcDbEntity
  8
製品
  6
Continuous
 62
     7
100
AcDbLine
 10
339.9020277136113
 20
141.0361581444285
 30
0.0
 11
385.9020277136114
 21
141.0361581444285
 31
0.0
  0
LINE
  5
6CB9
330
1E
100
AcDbEntity
  8
製品
  6
Continuous
 62
     7
100
AcDbLine
 10
385.9020277136114
 20
143.0361581444285
 30
0.0
 11
338.0620277136117
 21
143.0361581444285
 31
0.0
  0
LINE
  5
6CBC
330
1E
100
AcDbEntity
  8
図面枠
  6
Continuous
 62
     7
100
AcDbLine
 10
347.2528877136114
 20
129.0361581444285
 30
0.0
 11
368.3228877136115
 21
129.0361581444285
 31
0.0
  0
TEXT
  5
6CBD
330
1E
100
AcDbEntity
  8
図面枠
 62
     7
100
AcDbText
 10
347.2528877136114
 20
130.0361641444288
 30
0.0
 40
3.0
  1
テープ又は塗装
 41
0.8
  7
ACAD
100
AcDbText
  0
LINE
  5
6CBE
330
1E
100
AcDbEntity
  8
製品
  6
Continuous
 62
     7
100
AcDbLine
 10
385.9020277136114
 20
146.8361581444287
 30
0.0
 11
321.4020277136114
 21
146.8361581444287
 31
0.0
  0
LINE
  5
6CBF
330
1E
100
AcDbEntity
  8
製品
  6
Continuous
 62
     7
100
AcDbLine
 10
321.4020277136114
 20
154.4361581444286
 30
0.0
 11
385.9020277136114
 21
154.4361581444286
 31
0.0
  0
LINE
  5
6CC0
330
1E
100
AcDbEntity
  8
製品
  6
Continuous
 62
     7
100
AcDbLine
 10
272.6281307136113
 20
141.5469361444288
 30
0.0
 11
316.6281307136113
 21
141.5469361444288
 31
0.0
  0
LINE
  5
6CC1
330
1E
100
AcDbEntity
  8
製品
  6
Continuous
 62
     7
100
AcDbLine
 10
272.6281307136113
 20
143.5469361444288
 30
0.0
 11
316.6281307136113
 21
143.5469361444288
 31
0.0
  0
LINE
  5
6CC2
330
1E
100
AcDbEntity
  8
製品
  6
Continuous
 62
     7
100
AcDbLine
 10
316.6281307136113
 20
147.3469361444285
 30
0.0
 11
252.1281307136113
 21
147.3469361444285
 31
0.0
  0
LINE
  5
6CC3
330
1E
100
AcDbEntity
  8
製品
  6
Continuous
 62
     7
100
AcDbLine
 10
252.1281307136113
 20
154.9469361444285
 30
0.0
 11
316.6281307136113
 21
154.9469361444285
 31
0.0
  0
LINE
  5
6CC5
330
1E
100
AcDbEntity
  8
図面枠
  6
Continuous
 62
     7
100
AcDbLine
 10
277.9789807136116
 20
131.5469361444288
 30
0.0
 11
299.0489807136113
 21
131.5469361444288
 31
0.0
  0
TEXT
  5
6CC7
330
1E
100
AcDbEntity
  8
図面枠
 62
     7
100
AcDbText
 10
277.9789807136116
 20
132.5469371444287
 30
0.0
 40
3.0
  1
テープ又は塗装
 41
0.8
  7
ACAD
100
AcDbText
  0
LINE
  5
6CC8
330
1E
100
AcDbEntity
  8
製品
  6
DASHED_DOTTED
 62
     3
100
AcDbLine
 10
262.1281307136113
 20
157.3469361444286
 30
0.0
 11
262.1281307136113
 21
107.3469361444286
 31
0.0
  0
LINE
  5
6CC9
330
1E
100
AcDbEntity
  8
製品
  6
Continuous
 62
     7
100
AcDbLine
 10
268.6281307136113
 20
147.1869361444287
 30
0.0
 11
255.6281307136113
 21
147.1869361444287
 31
0.0
  0
LINE
  5
6CCA
330
1E
100
AcDbEntity
  8
製品
  6
Continuous
 62
     7
100
AcDbLine
 10
262.1281307136113
 20
123.4675631444288
 30
0.0
 11
258.0281307136114
 21
123.4675631444288
 31
0.0
  0
LINE
  5
6CCB
330
1E
100
AcDbEntity
  8
製品
  6
DASHED2
 62
     7
100
AcDbLine
 10
255.8281307136116
 20
124.0669361444288
 30
0.0
 11
262.1281307136113
 21
124.0669361444288
 31
0.0
  0
LINE
  5
6CCC
330
1E
100
AcDbEntity
  8
製品
  6
DASHED2
 62
     7
100
AcDbLine
 10
255.8281307136116
 20
127.2269361444287
 30
0.0
 11
262.1281307136113
 21
127.2269361444287
 31
0.0
  0
LINE
  5
6CCD
330
1E
100
AcDbEntity
  8
製品
  6
Continuous
 62
     7
100
AcDbLine
 10
262.1281307136113
 20
127.3469361444286
 30
0.0
 11
255.8281307136116
 21
127.3469361444286
 31
0.0
  0
LINE
  5
6CCE
330
1E
100
AcDbEntity
  8
製品
  6
Continuous
 62
     7
100
AcDbLine
 10
258.5281307136114
 20
121.4675631444288
 30
0.0
 11
259.4281307136115
 21
121.4675631444288
 31
0.0
  0
LINE
  5
6CCF
330
1E
100
AcDbEntity
  8
製品
  6
Continuous
 62
     7
100
AcDbLine
 10
255.8448307136113
 20
123.9469361444285
 30
0.0
 11
262.1281307136113
 21
123.9469361444285
 31
0.0
  0
LINE
  5
6CD0
330
1E
100
AcDbEntity
  8
製品
  6
Continuous
 62
     7
100
AcDbLine
 10
255.4681307136115
 20
139.3469361444286
 30
0.0
 11
255.6281307136113
 21
139.3469361444286
 31
0.0
  0
LINE
  5
6CD1
330
1E
100
AcDbEntity
  8
製品
  6
Continuous
 62
     7
100
AcDbLine
 10
255.4681307136115
 20
147.3469361444285
 30
0.0
 11
255.4681307136115
 21
139.3469361444286
 31
0.0
  0
LINE
  5
6CD2
330
1E
100
AcDbEntity
  8
製品
  6
Continuous
 62
     7
100
AcDbLine
 10
257.4281307136115
 20
123.4675631444288
 30
0.0
 11
257.0781307136116
 21
123.4675631444288
 31
0.0
  0
ARC
  5
6CD3
330
1E
100
AcDbEntity
  8
製品
  6
Continuous
 62
     7
100
AcDbCircle
 10
258.5281307136114
 20
121.2675631444285
 30
0.0
 40
0.2
100
AcDbArc
 50
90.0
 51
180.0
  0
ARC
  5
6CD4
330
1E
100
AcDbEntity
  8
製品
  6
Continuous
 62
     7
100
AcDbCircle
 10
257.7881307136116
 20
123.5275631444287
 30
0.0
 40
0.24
100
AcDbArc
 50
0.0
 51
90.0
  0
ARC
  5
6CD5
330
1E
100
AcDbEntity
  8
製品
  6
Continuous
 62
     7
100
AcDbCircle
 10
257.6681307136113
 20
123.5275631444287
 30
0.0
 40
0.24
100
AcDbArc
 50
90.0
 51
180.0
  0
LINE
  5
6CD6
330
1E
100
AcDbEntity
  8
製品
  6
Continuous
 62
     7
100
AcDbLine
 10
257.6681307136113
 20
123.7675631444285
 30
0.0
 11
257.7881307136116
 21
123.7675631444285
 31
0.0
  0
ARC
  5
6CD7
330
1E
100
AcDbEntity
  8
製品
  6
Continuous
 62
     7
100
AcDbCircle
 10
256.7781307136114
 20
123.5269361444288
 30
0.0
 40
0.3
100
AcDbArc
 50
0.0
 51
90.0
  0
LINE
  5
6CD8
330
1E
100
AcDbEntity
  8
製品
  6
Continuous
 62
     7
100
AcDbLine
 10
257.0781307136116
 20
123.5269361444288
 30
0.0
 11
257.0781307136116
 21
122.6269361444288
 31
0.0
  0
LINE
  5
6CD9
330
1E
100
AcDbEntity
  8
製品
  6
Continuous
 62
     7
100
AcDbLine
 10
257.0281307136114
 20
122.5797951444288
 30
0.0
 11
257.0781307136116
 21
122.6269361444288
 31
0.0
  0
LINE
  5
6CDA
330
1E
100
AcDbEntity
  8
製品
  6
Continuous
 62
     7
100
AcDbLine
 10
256.7781307136114
 20
123.8269361444286
 30
0.0
 11
256.0281307136114
 21
123.8269361444286
 31
0.0
  0
ARC
  5
6CDB
330
1E
100
AcDbEntity
  8
製品
  6
Continuous
 62
     7
100
AcDbCircle
 10
256.0281307136114
 20
124.0269361444289
 30
0.0
 40
0.2
100
AcDbArc
 50
180.0
 51
270.0
  0
LINE
  5
6CDC
330
1E
100
AcDbEntity
  8
製品
  6
Continuous
 62
     7
100
AcDbLine
 10
255.8281307136116
 20
124.0269361444289
 30
0.0
 11
255.8281307136116
 21
127.3469361444286
 31
0.0
  0
ARC
  5
6CDD
330
1E
100
AcDbEntity
  8
製品
  6
Continuous
 62
     7
100
AcDbCircle
 10
258.1281307136113
 20
120.2675631444285
 30
0.0
 40
0.2
100
AcDbArc
 50
270.0
 51
0.0
  0
ARC
  5
6CDE
330
1E
100
AcDbEntity
  8
製品
  6
Continuous
 62
     7
100
AcDbCircle
 10
257.7881307136116
 20
120.7122061444288
 30
0.0
 40
0.24
100
AcDbArc
 50
270.0
 51
0.0
  0
LINE
  5
6CDF
330
1E
100
AcDbEntity
  8
製品
  6
Continuous
 62
     7
100
AcDbLine
 10
257.6681307136113
 20
120.4629201444286
 30
0.0
 11
257.7881307136116
 21
120.4629201444286
 31
0.0
  0
ARC
  5
6CE0
330
1E
100
AcDbEntity
  8
製品
  6
Continuous
 62
     7
100
AcDbCircle
 10
257.6681307136113
 20
120.7122061444288
 30
0.0
 40
0.24
100
AcDbArc
 50
180.0
 51
270.0
  0
LINE
  5
6CE1
330
1E
100
AcDbEntity
  8
製品
  6
Continuous
 62
     7
100
AcDbLine
 10
257.0281307136114
 20
120.0675631444287
 30
0.0
 11
258.1281307136113
 21
120.0675631444287
 31
0.0
  0
LINE
  5
6CE2
330
1E
100
AcDbEntity
  8
製品
  6
CENTER1
 62
     7
100
AcDbLine
 10
257.7281307136117
 20
123.9469361444285
 30
0.0
 11
257.7281307136117
 21
120.4675631444288
 31
0.0
  0
LINE
  5
6CE3
330
1E
100
AcDbEntity
  8
製品
  6
Continuous
 62
     7
100
AcDbLine
 10
258.3281307136116
 20
120.2675631444285
 30
0.0
 11
258.3281307136116
 21
121.2675631444285
 31
0.0
  0
LINE
  5
6CE4
330
1E
100
AcDbEntity
  8
製品
  6
Continuous
 62
     7
100
AcDbLine
 10
258.0281307136114
 20
120.7122061444288
 30
0.0
 11
258.0281307136114
 21
123.5275631444287
 31
0.0
  0
LINE
  5
6CE5
330
1E
100
AcDbEntity
  8
製品
  6
Continuous
 62
     7
100
AcDbLine
 10
257.4281307136115
 20
120.7122061444288
 30
0.0
 11
257.4281307136115
 21
123.5275631444287
 31
0.0
  0
LINE
  5
6CE6
330
1E
100
AcDbEntity
  8
製品
  6
Continuous
 62
     7
100
AcDbLine
 10
257.0281307136114
 20
123.9469361444285
 30
0.0
 11
257.0281307136114
 21
107.3469361444286
 31
0.0
  0
LINE
  5
6CE7
330
1E
100
AcDbEntity
  8
製品
  6
Continuous
 62
     7
100
AcDbLine
 10
257.0281307136114
 20
147.1869361444287
 30
0.0
 11
257.0281307136114
 21
127.3469361444286
 31
0.0
  0
LINE
  5
6CE8
330
1E
100
AcDbEntity
  8
製品
  6
Continuous
 62
     7
100
AcDbLine
 10
255.6281307136113
 20
147.1869361444287
 30
0.0
 11
255.6281307136113
 21
107.3469361444286
 31
0.0
  0
DIMENSION
  5
6CE9
330
1E
100
AcDbEntity
  8
寸法
  6
Continuous
100
AcDbDimension
  2
*D4
 10
270.6281307136113
 20
119.745266425629
 30
0.0
 11
278.8567021421828
 21
119.745266425629
 31
0.0
 70
   160
  1
(10)
 71
     5
 42
2.0
  3
AutoCAD
100
AcDbAlignedDimension
 13
272.6281307136113
 23
140.5469361444288
 33
0.0
 14
270.6281307136113
 24
121.5469361444288
 34
0.0
100
AcDbRotatedDimension
1001
ACAD
1000
DSTYLE
1002
{
1070
   147
1040
0.8
1070
   140
1040
3.0
1002
}
  0
ARC
  5
6CEA
330
1E
100
AcDbEntity
  8
製品
  6
Continuous
 62
     7
100
AcDbCircle
 10
279.3281307136116
 20
147.0469361444288
 30
0.0
 40
0.2
100
AcDbArc
 50
0.0
 51
90.0
  0
ARC
  5
6CEB
330
1E
100
AcDbEntity
  8
製品
  6
Continuous
 62
     7
100
AcDbCircle
 10
279.3281307136116
 20
147.0469361444288
 30
0.0
 40
0.3
100
AcDbArc
 50
0.0
 51
90.0
  0
LINE
  5
6CEC
330
1E
100
AcDbEntity
  8
製品
  6
Continuous
 62
     7
100
AcDbLine
 10
278.9281307136115
 20
147.0469361444288
 30
0.0
 11
278.9281307136115
 21
146.7469361444287
 31
0.0
  0
LINE
  5
6CED
330
1E
100
AcDbEntity
  8
製品
  6
Continuous
 62
     7
100
AcDbLine
 10
278.9281307136115
 20
146.7469361444287
 30
0.0
 11
278.8281307136116
 21
146.7469361444287
 31
0.0
  0
LINE
  5
6CEE
330
1E
100
AcDbEntity
  8
製品
  6
Continuous
 62
     7
100
AcDbLine
 10
278.8281307136116
 20
146.7469361444287
 30
0.0
 11
278.8281307136116
 21
147.0469361444288
 31
0.0
  0
ARC
  5
6CEF
330
1E
100
AcDbEntity
  8
製品
  6
Continuous
 62
     7
100
AcDbCircle
 10
279.1281307136113
 20
147.0469361444288
 30
0.0
 40
0.2
100
AcDbArc
 50
90.0
 51
180.0
  0
ARC
  5
6CF0
330
1E
100
AcDbEntity
  8
製品
  6
Continuous
 62
     7
100
AcDbCircle
 10
279.1281307136113
 20
147.0469361444288
 30
0.0
 40
0.3
100
AcDbArc
 50
90.0
 51
180.0
  0
LINE
  5
6CF1
330
1E
100
AcDbEntity
  8
製品
  6
Continuous
 62
     7
100
AcDbLine
 10
279.3281307136116
 20
147.2469361444287
 30
0.0
 11
279.1281307136113
 21
147.2469361444287
 31
0.0
  0
LINE
  5
6CF2
330
1E
100
AcDbEntity
  8
製品
  6
Continuous
 62
     7
100
AcDbLine
 10
278.4281307136115
 20
143.6469361444287
 30
0.0
 11
278.2281307136117
 21
143.7469361444287
 31
0.0
  0
LINE
  5
6CF3
330
1E
100
AcDbEntity
  8
製品
  6
Continuous
 62
     7
100
AcDbLine
 10
278.2281307136117
 20
143.7469361444287
 30
0.0
 11
277.9281307136115
 21
143.6469361444287
 31
0.0
  0
LINE
  5
6CF4
330
1E
100
AcDbEntity
  8
製品
  6
Continuous
 62
     7
100
AcDbLine
 10
277.9281307136115
 20
143.6469361444287
 30
0.0
 11
277.6281307136113
 21
143.7469361444287
 31
0.0
  0
LINE
  5
6CF5
330
1E
100
AcDbEntity
  8
製品
  6
Continuous
 62
     7
100
AcDbLine
 10
277.6281307136113
 20
143.7469361444287
 30
0.0
 11
277.3281307136116
 21
143.6469361444287
 31
0.0
  0
LINE
  5
6CF6
330
1E
100
AcDbEntity
  8
製品
  6
Continuous
 62
     7
100
AcDbLine
 10
278.4281307136115
 20
143.5469361444288
 30
0.0
 11
278.2281307136117
 21
143.6469361444287
 31
0.0
  0
LINE
  5
6CF7
330
1E
100
AcDbEntity
  8
製品
  6
Continuous
 62
     7
100
AcDbLine
 10
278.2281307136117
 20
143.6469361444287
 30
0.0
 11
277.9281307136115
 21
143.5469361444288
 31
0.0
  0
LINE
  5
6CF8
330
1E
100
AcDbEntity
  8
製品
  6
Continuous
 62
     7
100
AcDbLine
 10
277.9281307136115
 20
143.5469361444288
 30
0.0
 11
277.6281307136113
 21
143.6469361444287
 31
0.0
  0
LINE
  5
6CF9
330
1E
100
AcDbEntity
  8
製品
  6
Continuous
 62
     7
100
AcDbLine
 10
277.6281307136113
 20
143.6469361444287
 30
0.0
 11
277.3281307136116
 21
143.5469361444288
 31
0.0
  0
LINE
  5
6CFA
330
1E
100
AcDbEntity
  8
製品
  6
Continuous
 62
     7
100
AcDbLine
 10
279.0281307136114
 20
143.5469361444288
 30
0.0
 11
278.4281307136115
 21
143.5469361444288
 31
0.0
  0
LINE
  5
6CFB
330
1E
100
AcDbEntity
  8
製品
  6
Continuous
 62
     7
100
AcDbLine
 10
279.0281307136114
 20
143.6469361444287
 30
0.0
 11
278.4281307136115
 21
143.6469361444287
 31
0.0
  0
LINE
  5
6CFC
330
1E
100
AcDbEntity
  8
製品
  6
Continuous
 62
     7
100
AcDbLine
 10
277.0281307136114
 20
143.7469361444287
 30
0.0
 11
276.7281307136117
 21
143.6469361444287
 31
0.0
  0
LINE
  5
6CFD
330
1E
100
AcDbEntity
  8
製品
  6
Continuous
 62
     7
100
AcDbLine
 10
276.7281307136117
 20
143.6469361444287
 30
0.0
 11
276.4281307136115
 21
143.7469361444287
 31
0.0
  0
LINE
  5
6CFE
330
1E
100
AcDbEntity
  8
製品
  6
Continuous
 62
     7
100
AcDbLine
 10
276.4281307136115
 20
143.7469361444287
 30
0.0
 11
276.1281307136113
 21
143.6469361444287
 31
0.0
  0
LINE
  5
6CFF
330
1E
100
AcDbEntity
  8
製品
  6
Continuous
 62
     7
100
AcDbLine
 10
276.1281307136113
 20
143.6469361444287
 30
0.0
 11
275.8281307136116
 21
143.7469361444287
 31
0.0
  0
LINE
  5
6D00
330
1E
100
AcDbEntity
  8
製品
  6
Continuous
 62
     7
100
AcDbLine
 10
275.8281307136116
 20
143.7469361444287
 30
0.0
 11
275.6281307136113
 21
143.6469361444287
 31
0.0
  0
LINE
  5
6D01
330
1E
100
AcDbEntity
  8
製品
  6
Continuous
 62
     7
100
AcDbLine
 10
277.0281307136114
 20
143.6469361444287
 30
0.0
 11
276.7281307136117
 21
143.5469361444288
 31
0.0
  0
LINE
  5
6D02
330
1E
100
AcDbEntity
  8
製品
  6
Continuous
 62
     7
100
AcDbLine
 10
276.7281307136117
 20
143.5469361444288
 30
0.0
 11
276.4281307136115
 21
143.6469361444287
 31
0.0
  0
LINE
  5
6D03
330
1E
100
AcDbEntity
  8
製品
  6
Continuous
 62
     7
100
AcDbLine
 10
276.4281307136115
 20
143.6469361444287
 30
0.0
 11
276.1281307136113
 21
143.5469361444288
 31
0.0
  0
LINE
  5
6D04
330
1E
100
AcDbEntity
  8
製品
  6
Continuous
 62
     7
100
AcDbLine
 10
276.1281307136113
 20
143.5469361444288
 30
0.0
 11
275.8281307136116
 21
143.6469361444287
 31
0.0
  0
LINE
  5
6D05
330
1E
100
AcDbEntity
  8
製品
  6
Continuous
 62
     7
100
AcDbLine
 10
275.8281307136116
 20
143.6469361444287
 30
0.0
 11
275.6281307136113
 21
143.5469361444288
 31
0.0
  0
LINE
  5
6D06
330
1E
100
AcDbEntity
  8
製品
  6
Continuous
 62
     7
100
AcDbLine
 10
277.3281307136116
 20
143.6469361444287
 30
0.0
 11
277.0281307136114
 21
143.7469361444287
 31
0.0
  0
LINE
  5
6D07
330
1E
100
AcDbEntity
  8
製品
  6
Continuous
 62
     7
100
AcDbLine
 10
277.3281307136116
 20
143.5469361444288
 30
0.0
 11
277.0281307136114
 21
143.6469361444287
 31
0.0
  0
ARC
  5
6D08
330
1E
100
AcDbEntity
  8
製品
  6
Continuous
 62
     7
100
AcDbCircle
 10
279.0281307136114
 20
144.1469361444287
 30
0.0
 40
0.6
100
AcDbArc
 50
270.0
 51
0.0
  0
ARC
  5
6D09
330
1E
100
AcDbEntity
  8
製品
  6
Continuous
 62
     7
100
AcDbCircle
 10
279.0281307136114
 20
144.1469361444287
 30
0.0
 40
0.5
100
AcDbArc
 50
270.0
 51
0.0
  0
LINE
  5
6D0A
330
1E
100
AcDbEntity
  8
製品
  6
Continuous
 62
     7
100
AcDbLine
 10
279.5281307136114
 20
144.1469361444287
 30
0.0
 11
279.5281307136114
 21
147.0469361444288
 31
0.0
  0
LINE
  5
6D0B
330
1E
100
AcDbEntity
  8
製品
  6
Continuous
 62
     7
100
AcDbLine
 10
279.6281307136113
 20
144.1469361444287
 30
0.0
 11
279.6281307136113
 21
147.0469361444288
 31
0.0
  0
LINE
  5
6D0C
330
1E
100
AcDbEntity
  8
製品
  6
Continuous
 62
     7
100
AcDbLine
 10
269.9281307136115
 20
147.2469361444287
 30
0.0
 11
270.1281307136113
 21
147.2469361444287
 31
0.0
  0
LINE
  5
6D0D
330
1E
100
AcDbEntity
  8
製品
  6
Continuous
 62
     7
100
AcDbLine
 10
270.3281307136116
 20
147.0469361444288
 30
0.0
 11
270.3281307136116
 21
146.7469361444287
 31
0.0
  0
LINE
  5
6D0E
330
1E
100
AcDbEntity
  8
製品
  6
Continuous
 62
     7
100
AcDbLine
 10
270.3281307136116
 20
146.7469361444287
 30
0.0
 11
270.4281307136115
 21
146.7469361444287
 31
0.0
  0
LINE
  5
6D0F
330
1E
100
AcDbEntity
  8
製品
  6
Continuous
 62
     7
100
AcDbLine
 10
270.4281307136115
 20
146.7469361444287
 30
0.0
 11
270.4281307136115
 21
147.0469361444288
 31
0.0
  0
ARC
  5
6D10
330
1E
100
AcDbEntity
  8
製品
  6
Continuous
 62
     7
100
AcDbCircle
 10
269.9281307136115
 20
147.0469361444288
 30
0.0
 40
0.2
100
AcDbArc
 50
90.0
 51
180.0
  0
ARC
  5
6D11
330
1E
100
AcDbEntity
  8
製品
  6
Continuous
 62
     7
100
AcDbCircle
 10
270.1281307136113
 20
147.0469361444288
 30
0.0
 40
0.2
100
AcDbArc
 50
0.0
 51
90.0
  0
ARC
  5
6D12
330
1E
100
AcDbEntity
  8
製品
  6
Continuous
 62
     7
100
AcDbCircle
 10
270.1281307136113
 20
147.0469361444288
 30
0.0
 40
0.3
100
AcDbArc
 50
0.0
 51
90.0
  0
ARC
  5
6D13
330
1E
100
AcDbEntity
  8
製品
  6
Continuous
 62
     7
100
AcDbCircle
 10
269.9281307136115
 20
147.0469361444288
 30
0.0
 40
0.3
100
AcDbArc
 50
90.0
 51
180.0
  0
LINE
  5
6D14
330
1E
100
AcDbEntity
  8
製品
  6
Continuous
 62
     7
100
AcDbLine
 10
261.7281307136117
 20
149.3469361444286
 30
0.0
 11
261.7281307136117
 21
147.3469361444285
 31
0.0
  0
LINE
  5
6D15
330
1E
100
AcDbEntity
  8
製品
  6
Continuous
 62
     7
100
AcDbLine
 10
262.5281307136114
 20
147.3469361444285
 30
0.0
 11
262.5281307136114
 21
149.3469361444286
 31
0.0
  0
ARC
  5
6D16
330
1E
100
AcDbEntity
  8
製品
  6
Continuous
 62
     7
100
AcDbCircle
 10
262.1281307136113
 20
147.1869361444287
 30
0.0
 40
0.8
100
AcDbArc
 50
180.0
 51
0.0
  0
LINE
  5
6D17
330
1E
100
AcDbEntity
  8
製品
  6
Continuous
 62
     7
100
AcDbLine
 10
274.8281307136116
 20
143.6469361444287
 30
0.0
 11
274.6281307136113
 21
143.7469361444287
 31
0.0
  0
LINE
  5
6D18
330
1E
100
AcDbEntity
  8
製品
  6
Continuous
 62
     7
100
AcDbLine
 10
274.8281307136116
 20
143.5469361444288
 30
0.0
 11
274.6281307136113
 21
143.6469361444287
 31
0.0
  0
LINE
  5
6D19
330
1E
100
AcDbEntity
  8
製品
  6
Continuous
 62
     7
100
AcDbLine
 10
273.6281307136113
 20
143.6469361444287
 30
0.0
 11
274.4281307136115
 21
143.6469361444287
 31
0.0
  0
LINE
  5
6D1A
330
1E
100
AcDbEntity
  8
製品
  6
Continuous
 62
     7
100
AcDbLine
 10
274.4281307136115
 20
143.6469361444287
 30
0.0
 11
274.6281307136113
 21
143.7469361444287
 31
0.0
  0
LINE
  5
6D1B
330
1E
100
AcDbEntity
  8
製品
  6
Continuous
 62
     7
100
AcDbLine
 10
273.6281307136113
 20
143.5469361444288
 30
0.0
 11
274.4281307136115
 21
143.5469361444288
 31
0.0
  0
LINE
  5
6D1C
330
1E
100
AcDbEntity
  8
製品
  6
Continuous
 62
     7
100
AcDbLine
 10
274.4281307136115
 20
143.5469361444288
 30
0.0
 11
274.6281307136113
 21
143.6469361444287
 31
0.0
  0
LINE
  5
6D1D
330
1E
100
AcDbEntity
  8
製品
  6
Continuous
 62
     7
100
AcDbLine
 10
273.6281307136113
 20
143.6469361444287
 30
0.0
 11
273.4281307136115
 21
143.7469361444287
 31
0.0
  0
LINE
  5
6D1E
330
1E
100
AcDbEntity
  8
製品
  6
Continuous
 62
     7
100
AcDbLine
 10
273.4281307136115
 20
143.7469361444287
 30
0.0
 11
273.1281307136113
 21
143.6469361444287
 31
0.0
  0
LINE
  5
6D1F
330
1E
100
AcDbEntity
  8
製品
  6
Continuous
 62
     7
100
AcDbLine
 10
273.6281307136113
 20
143.5469361444288
 30
0.0
 11
273.4281307136115
 21
143.6469361444287
 31
0.0
  0
LINE
  5
6D20
330
1E
100
AcDbEntity
  8
製品
  6
Continuous
 62
     7
100
AcDbLine
 10
273.4281307136115
 20
143.6469361444287
 30
0.0
 11
273.1281307136113
 21
143.5469361444288
 31
0.0
  0
LINE
  5
6D21
330
1E
100
AcDbEntity
  8
製品
  6
Continuous
 62
     7
100
AcDbLine
 10
272.8281307136116
 20
143.7469361444287
 30
0.0
 11
272.5281307136114
 21
143.6469361444287
 31
0.0
  0
LINE
  5
6D22
330
1E
100
AcDbEntity
  8
製品
  6
Continuous
 62
     7
100
AcDbLine
 10
272.5281307136114
 20
143.6469361444287
 30
0.0
 11
272.2281307136117
 21
143.7469361444287
 31
0.0
  0
LINE
  5
6D23
330
1E
100
AcDbEntity
  8
製品
  6
Continuous
 62
     7
100
AcDbLine
 10
272.2281307136117
 20
143.7469361444287
 30
0.0
 11
271.9281307136115
 21
143.6469361444287
 31
0.0
  0
LINE
  5
6D24
330
1E
100
AcDbEntity
  8
製品
  6
Continuous
 62
     7
100
AcDbLine
 10
271.9281307136115
 20
143.6469361444287
 30
0.0
 11
271.6281307136113
 21
143.7469361444287
 31
0.0
  0
LINE
  5
6D25
330
1E
100
AcDbEntity
  8
製品
  6
Continuous
 62
     7
100
AcDbLine
 10
271.6281307136113
 20
143.7469361444287
 30
0.0
 11
271.3281307136116
 21
143.6469361444287
 31
0.0
  0
LINE
  5
6D26
330
1E
100
AcDbEntity
  8
製品
  6
Continuous
 62
     7
100
AcDbLine
 10
272.8281307136116
 20
143.6469361444287
 30
0.0
 11
272.5281307136114
 21
143.5469361444288
 31
0.0
  0
LINE
  5
6D27
330
1E
100
AcDbEntity
  8
製品
  6
Continuous
 62
     7
100
AcDbLine
 10
272.5281307136114
 20
143.5469361444288
 30
0.0
 11
272.2281307136117
 21
143.6469361444287
 31
0.0
  0
LINE
  5
6D28
330
1E
100
AcDbEntity
  8
製品
  6
Continuous
 62
     7
100
AcDbLine
 10
272.2281307136117
 20
143.6469361444287
 30
0.0
 11
271.9281307136115
 21
143.5469361444288
 31
0.0
  0
LINE
  5
6D29
330
1E
100
AcDbEntity
  8
製品
  6
Continuous
 62
     7
100
AcDbLine
 10
271.9281307136115
 20
143.5469361444288
 30
0.0
 11
271.6281307136113
 21
143.6469361444287
 31
0.0
  0
LINE
  5
6D2A
330
1E
100
AcDbEntity
  8
製品
  6
Continuous
 62
     7
100
AcDbLine
 10
271.6281307136113
 20
143.6469361444287
 30
0.0
 11
271.3281307136116
 21
143.5469361444288
 31
0.0
  0
LINE
  5
6D2B
330
1E
100
AcDbEntity
  8
製品
  6
Continuous
 62
     7
100
AcDbLine
 10
272.6281307136113
 20
143.5469361444288
 30
0.0
 11
272.6281307136113
 21
141.5469361444288
 31
0.0
  0
CIRCLE
  5
6D2C
330
1E
100
AcDbEntity
  8
図面枠
  6
Continuous
 62
     7
100
AcDbCircle
 10
271.6281307136113
 20
142.5469361444288
 30
0.0
 40
0.3
  0
LINE
  5
6D2D
330
1E
100
AcDbEntity
  8
製品
  6
Continuous
 62
     7
100
AcDbLine
 10
273.1281307136113
 20
143.6469361444287
 30
0.0
 11
272.8281307136116
 21
143.7469361444287
 31
0.0
  0
LINE
  5
6D2E
330
1E
100
AcDbEntity
  8
製品
  6
Continuous
 62
     7
100
AcDbLine
 10
273.1281307136113
 20
143.5469361444288
 30
0.0
 11
272.8281307136116
 21
143.6469361444287
 31
0.0
  0
LINE
  5
6D2F
330
1E
100
AcDbEntity
  8
製品
  6
Continuous
 62
     7
100
AcDbLine
 10
270.2281307136117
 20
143.5469361444288
 30
0.0
 11
270.8281307136116
 21
143.5469361444288
 31
0.0
  0
ARC
  5
6D30
330
1E
100
AcDbEntity
  8
製品
  6
Continuous
 62
     7
100
AcDbCircle
 10
270.2281307136117
 20
144.1469361444287
 30
0.0
 40
0.6
100
AcDbArc
 50
180.0
 51
270.0
  0
LINE
  5
6D31
330
1E
100
AcDbEntity
  8
製品
  6
Continuous
 62
     7
100
AcDbLine
 10
270.2281307136117
 20
143.6469361444287
 30
0.0
 11
270.8281307136116
 21
143.6469361444287
 31
0.0
  0
ARC
  5
6D32
330
1E
100
AcDbEntity
  8
製品
  6
Continuous
 62
     7
100
AcDbCircle
 10
270.2281307136117
 20
144.1469361444287
 30
0.0
 40
0.5
100
AcDbArc
 50
180.0
 51
270.0
  0
LINE
  5
6D33
330
1E
100
AcDbEntity
  8
製品
  6
Continuous
 62
     7
100
AcDbLine
 10
271.0281307136114
 20
143.7469361444287
 30
0.0
 11
270.8281307136116
 21
143.6469361444287
 31
0.0
  0
LINE
  5
6D34
330
1E
100
AcDbEntity
  8
製品
  6
Continuous
 62
     7
100
AcDbLine
 10
271.0281307136114
 20
143.6469361444287
 30
0.0
 11
270.8281307136116
 21
143.5469361444288
 31
0.0
  0
LINE
  5
6D35
330
1E
100
AcDbEntity
  8
製品
  6
Continuous
 62
     7
100
AcDbLine
 10
270.6281307136113
 20
143.5469361444288
 30
0.0
 11
268.7806707136114
 21
143.5469361444288
 31
0.0
  0
LINE
  5
6D36
330
1E
100
AcDbEntity
  8
製品
  6
Continuous
 62
     7
100
AcDbLine
 10
268.6281307136113
 20
139.3469361444286
 30
0.0
 11
268.7881307136116
 21
139.3469361444286
 31
0.0
  0
LINE
  5
6D37
330
1E
100
AcDbEntity
  8
製品
  6
Continuous
 62
     7
100
AcDbLine
 10
271.3281307136116
 20
143.6469361444287
 30
0.0
 11
271.0281307136114
 21
143.7469361444287
 31
0.0
  0
LINE
  5
6D38
330
1E
100
AcDbEntity
  8
製品
  6
Continuous
 62
     7
100
AcDbLine
 10
271.3281307136116
 20
143.5469361444288
 30
0.0
 11
271.0281307136114
 21
143.6469361444287
 31
0.0
  0
LINE
  5
6D39
330
1E
100
AcDbEntity
  8
製品
  6
Continuous
 62
     7
100
AcDbLine
 10
268.7881307136116
 20
147.3469361444285
 30
0.0
 11
268.7881307136116
 21
139.3469361444286
 31
0.0
  0
LINE
  5
6D3A
330
1E
100
AcDbEntity
  8
製品
  6
Continuous
 62
     7
100
AcDbLine
 10
269.6281307136113
 20
144.1469361444287
 30
0.0
 11
269.6281307136113
 21
147.0469361444288
 31
0.0
  0
LINE
  5
6D3B
330
1E
100
AcDbEntity
  8
製品
  6
Continuous
 62
     7
100
AcDbLine
 10
269.7281307136117
 20
144.1469361444287
 30
0.0
 11
269.7281307136117
 21
147.0469361444288
 31
0.0
  0
LINE
  5
6D3C
330
1E
100
AcDbEntity
  8
製品
  6
Continuous
 62
     7
100
AcDbLine
 10
275.6281307136113
 20
143.6469361444287
 30
0.0
 11
274.8281307136116
 21
143.6469361444287
 31
0.0
  0
LINE
  5
6D3D
330
1E
100
AcDbEntity
  8
製品
  6
Continuous
 62
     7
100
AcDbLine
 10
275.6281307136113
 20
143.5469361444288
 30
0.0
 11
274.8281307136116
 21
143.5469361444288
 31
0.0
  0
LINE
  5
6D3E
330
1E
100
AcDbEntity
  8
製品
  6
Continuous
 62
     7
100
AcDbLine
 10
267.1781307136115
 20
123.5269361444288
 30
0.0
 11
267.1781307136115
 21
122.6269361444288
 31
0.0
  0
ARC
  5
6D3F
330
1E
100
AcDbEntity
  8
製品
  6
Continuous
 62
     7
100
AcDbCircle
 10
267.4781307136117
 20
123.5269361444288
 30
0.0
 40
0.3
100
AcDbArc
 50
90.0
 51
180.0
  0
LINE
  5
6D40
330
1E
100
AcDbEntity
  8
製品
  6
Continuous
 62
     7
100
AcDbLine
 10
267.4781307136117
 20
123.8269361444286
 30
0.0
 11
268.2281307136117
 21
123.8269361444286
 31
0.0
  0
LINE
  5
6D41
330
1E
100
AcDbEntity
  8
製品
  6
Continuous
 62
     7
100
AcDbLine
 10
267.2281307136117
 20
122.5797951444288
 30
0.0
 11
267.1781307136115
 21
122.6269361444288
 31
0.0
  0
ARC
  5
6D42
330
1E
100
AcDbEntity
  8
製品
  6
Continuous
 62
     7
100
AcDbCircle
 10
268.2281307136117
 20
124.0269361444289
 30
0.0
 40
0.2
100
AcDbArc
 50
270.0
 51
0.0
  0
LINE
  5
6D43
330
1E
100
AcDbEntity
  8
製品
  6
Continuous
 62
     7
100
AcDbLine
 10
268.4281307136115
 20
127.3469361444286
 30
0.0
 11
268.4281307136115
 21
124.0269361444289
 31
0.0
  0
ARC
  5
6D44
330
1E
100
AcDbEntity
  8
製品
  6
Continuous
 62
     7
100
AcDbCircle
 10
265.7281307136117
 20
121.2675631444285
 30
0.0
 40
0.2
100
AcDbArc
 50
0.0
 51
90.0
  0
ARC
  5
6D45
330
1E
100
AcDbEntity
  8
製品
  6
Continuous
 62
     7
100
AcDbCircle
 10
266.4681307136115
 20
123.5275631444287
 30
0.0
 40
0.24
100
AcDbArc
 50
90.0
 51
180.0
  0
LINE
  5
6D46
330
1E
100
AcDbEntity
  8
製品
  6
Continuous
 62
     7
100
AcDbLine
 10
266.4681307136115
 20
123.7675631444285
 30
0.0
 11
266.5881307136114
 21
123.7675631444285
 31
0.0
  0
ARC
  5
6D47
330
1E
100
AcDbEntity
  8
製品
  6
Continuous
 62
     7
100
AcDbCircle
 10
266.5881307136114
 20
123.5275631444287
 30
0.0
 40
0.24
100
AcDbArc
 50
0.0
 51
90.0
  0
ARC
  5
6D48
330
1E
100
AcDbEntity
  8
製品
  6
Continuous
 62
     7
100
AcDbCircle
 10
264.8281307136116
 20
121.6675631444286
 30
0.0
 40
0.2
100
AcDbArc
 50
180.0
 51
270.0
  0
LINE
  5
6D49
330
1E
100
AcDbEntity
  8
製品
  6
Continuous
 62
     7
100
AcDbLine
 10
264.6281307136113
 20
121.6675631444286
 30
0.0
 11
264.6281307136113
 21
122.6675631444286
 31
0.0
  0
ARC
  5
6D4A
330
1E
100
AcDbEntity
  8
製品
  6
Continuous
 62
     7
100
AcDbCircle
 10
264.4281307136115
 20
122.6675631444286
 30
0.0
 40
0.2
100
AcDbArc
 50
0.0
 51
90.0
  0
LINE
  5
6D4B
330
1E
100
AcDbEntity
  8
製品
  6
Continuous
 62
     7
100
AcDbLine
 10
265.7281307136117
 20
121.4675631444288
 30
0.0
 11
264.8281307136116
 21
121.4675631444288
 31
0.0
  0
LINE
  5
6D4C
330
1E
100
AcDbEntity
  8
製品
  6
Continuous
 62
     7
100
AcDbLine
 10
261.4281307136115
 20
126.1469361444287
 30
0.0
 11
261.4281307136115
 21
125.1469361444287
 31
0.0
  0
ARC
  5
6D4D
330
1E
100
AcDbEntity
  8
製品
  6
Continuous
 62
     7
100
AcDbCircle
 10
261.6281307136113
 20
126.1469361444287
 30
0.0
 40
0.2
100
AcDbArc
 50
90.0
 51
180.0
  0
LINE
  5
6D4E
330
1E
100
AcDbEntity
  8
製品
  6
Continuous
 62
     7
100
AcDbLine
 10
261.6281307136113
 20
126.3469361444286
 30
0.0
 11
262.6281307136113
 21
126.3469361444286
 31
0.0
  0
ARC
  5
6D4F
330
1E
100
AcDbEntity
  8
製品
  6
Continuous
 62
     7
100
AcDbCircle
 10
261.6281307136113
 20
125.1469361444287
 30
0.0
 40
0.2
100
AcDbArc
 50
180.0
 51
270.0
  0
LINE
  5
6D50
330
1E
100
AcDbEntity
  8
製品
  6
Continuous
 62
     7
100
AcDbLine
 10
261.6281307136113
 20
124.9469361444285
 30
0.0
 11
262.6281307136113
 21
124.9469361444285
 31
0.0
  0
LINE
  5
6D51
330
1E
100
AcDbEntity
  8
製品
  6
Continuous
 62
     7
100
AcDbLine
 10
262.8281307136116
 20
125.1469361444287
 30
0.0
 11
262.8281307136116
 21
126.1469361444287
 31
0.0
  0
ARC
  5
6D52
330
1E
100
AcDbEntity
  8
製品
  6
Continuous
 62
     7
100
AcDbCircle
 10
259.8281307136116
 20
122.6675631444286
 30
0.0
 40
0.2
100
AcDbArc
 50
90.0
 51
180.0
  0
ARC
  5
6D53
330
1E
100
AcDbEntity
  8
製品
  6
Continuous
 62
     7
100
AcDbCircle
 10
259.4281307136115
 20
121.6675631444286
 30
0.0
 40
0.2
100
AcDbArc
 50
270.0
 51
0.0
  0
LINE
  5
6D54
330
1E
100
AcDbEntity
  8
製品
  6
Continuous
 62
     7
100
AcDbLine
 10
259.6281307136113
 20
121.6675631444286
 30
0.0
 11
259.6281307136113
 21
122.6675631444286
 31
0.0
  0
LINE
  5
6D55
330
1E
100
AcDbEntity
  8
製品
  6
Continuous
 62
     7
100
AcDbLine
 10
259.8281307136116
 20
122.8675631444284
 30
0.0
 11
262.1281307136113
 21
122.8675631444284
 31
0.0
  0
LINE
  5
6D56
330
1E
100
AcDbEntity
  8
製品
  6
Continuous
 62
     7
100
AcDbLine
 10
266.2281307136117
 20
123.4675631444288
 30
0.0
 11
262.1281307136113
 21
123.4675631444288
 31
0.0
  0
LINE
  5
6D57
330
1E
100
AcDbEntity
  8
製品
  6
Continuous
 62
     7
100
AcDbLine
 10
264.4281307136115
 20
122.8675631444284
 30
0.0
 11
262.1281307136113
 21
122.8675631444284
 31
0.0
  0
ARC
  5
6D58
330
1E
100
AcDbEntity
  8
製品
  6
Continuous
 62
     7
100
AcDbCircle
 10
262.6281307136113
 20
125.1469361444287
 30
0.0
 40
0.2
100
AcDbArc
 50
270.0
 51
0.0
  0
ARC
  5
6D59
330
1E
100
AcDbEntity
  8
製品
  6
Continuous
 62
     7
100
AcDbCircle
 10
262.6281307136113
 20
126.1469361444287
 30
0.0
 40
0.2
100
AcDbArc
 50
0.0
 51
90.0
  0
LINE
  5
6D5A
330
1E
100
AcDbEntity
  8
製品
  6
CENTER1
 62
     7
100
AcDbLine
 10
262.1281307136113
 20
127.9469361444285
 30
0.0
 11
262.1281307136113
 21
122.2675631444285
 31
0.0
  0
LINE
  5
6D5B
330
1E
100
AcDbEntity
  8
製品
  6
Continuous
 62
     7
100
AcDbLine
 10
267.1781307136115
 20
123.4675631444288
 30
0.0
 11
266.8281307136116
 21
123.4675631444288
 31
0.0
  0
LINE
  5
6D5C
330
1E
100
AcDbEntity
  8
製品
  6
DASHED2
 62
     7
100
AcDbLine
 10
268.4281307136115
 20
124.0669361444288
 30
0.0
 11
262.1281307136113
 21
124.0669361444288
 31
0.0
  0
LINE
  5
6D5D
330
1E
100
AcDbEntity
  8
製品
  6
DASHED2
 62
     7
100
AcDbLine
 10
268.4281307136115
 20
127.2269361444287
 30
0.0
 11
262.1281307136113
 21
127.2269361444287
 31
0.0
  0
LINE
  5
6D5E
330
1E
100
AcDbEntity
  8
製品
  6
Continuous
 62
     7
100
AcDbLine
 10
262.1281307136113
 20
127.3469361444286
 30
0.0
 11
268.4281307136115
 21
127.3469361444286
 31
0.0
  0
LINE
  5
6D5F
330
1E
100
AcDbEntity
  8
製品
  6
Continuous
 62
     7
100
AcDbLine
 10
268.4114307136113
 20
123.9469361444285
 30
0.0
 11
262.1281307136113
 21
123.9469361444285
 31
0.0
  0
ARC
  5
6D60
330
1E
100
AcDbEntity
  8
製品
  6
Continuous
 62
     7
100
AcDbCircle
 10
266.1281307136113
 20
120.2675631444285
 30
0.0
 40
0.2
100
AcDbArc
 50
180.0
 51
270.0
  0
LINE
  5
6D61
330
1E
100
AcDbEntity
  8
製品
  6
Continuous
 62
     7
100
AcDbLine
 10
266.4681307136115
 20
120.4722061444286
 30
0.0
 11
266.5881307136114
 21
120.4722061444286
 31
0.0
  0
ARC
  5
6D62
330
1E
100
AcDbEntity
  8
製品
  6
Continuous
 62
     7
100
AcDbCircle
 10
266.4681307136115
 20
120.7122061444288
 30
0.0
 40
0.24
100
AcDbArc
 50
180.0
 51
270.0
  0
ARC
  5
6D63
330
1E
100
AcDbEntity
  8
製品
  6
Continuous
 62
     7
100
AcDbCircle
 10
266.5881307136114
 20
120.7122061444288
 30
0.0
 40
0.24
100
AcDbArc
 50
270.0
 51
0.0
  0
LINE
  5
6D64
330
1E
100
AcDbEntity
  8
製品
  6
Continuous
 62
     7
100
AcDbLine
 10
266.1281307136113
 20
120.0675631444287
 30
0.0
 11
267.2281307136117
 21
120.0675631444287
 31
0.0
  0
LINE
  5
6D65
330
1E
100
AcDbEntity
  8
製品
  6
Continuous
 62
     7
100
AcDbLine
 10
265.9281307136115
 20
120.2675631444285
 30
0.0
 11
265.9281307136115
 21
121.2675631444285
 31
0.0
  0
LINE
  5
6D66
330
1E
100
AcDbEntity
  8
製品
  6
Continuous
 62
     7
100
AcDbLine
 10
266.2281307136117
 20
120.7122061444288
 30
0.0
 11
266.2281307136117
 21
123.5275631444287
 31
0.0
  0
LINE
  5
6D67
330
1E
100
AcDbEntity
  8
製品
  6
Continuous
 62
     7
100
AcDbLine
 10
266.8281307136116
 20
120.7122061444288
 30
0.0
 11
266.8281307136116
 21
123.5275631444287
 31
0.0
  0
LINE
  5
6D68
330
1E
100
AcDbEntity
  8
製品
  6
CENTER1
 62
     7
100
AcDbLine
 10
266.5281307136114
 20
123.9469361444285
 30
0.0
 11
266.5281307136114
 21
120.4768501444287
 31
0.0
  0
LINE
  5
6D69
330
1E
100
AcDbEntity
  8
製品
  6
Continuous
 62
     7
100
AcDbLine
 10
267.2281307136117
 20
123.9469361444285
 30
0.0
 11
267.2281307136117
 21
107.3469361444286
 31
0.0
  0
LINE
  5
6D6A
330
1E
100
AcDbEntity
  8
製品
  6
Continuous
 62
     7
100
AcDbLine
 10
267.2281307136117
 20
147.1869361444287
 30
0.0
 11
267.2281307136117
 21
127.3469361444286
 31
0.0
  0
LINE
  5
6D6B
330
1E
100
AcDbEntity
  8
製品
  6
Continuous
 62
     7
100
AcDbLine
 10
268.6281307136113
 20
147.1869361444287
 30
0.0
 11
268.6281307136113
 21
107.3469361444286
 31
0.0
  0
LINE
  5
6D6C
330
1E
100
AcDbEntity
  8
図面枠
  6
Continuous
 62
     7
100
AcDbLine
 10
271.6281307136113
 20
142.5469361444288
 30
0.0
 11
277.9789807136116
 21
131.5469361444288
 31
0.0
  0
LINE
  5
6D6D
330
1E
100
AcDbEntity
  8
製品
  6
Continuous
 62
     7
100
AcDbLine
 10
270.6281307136113
 20
143.5469361444288
 30
0.0
 11
270.6281307136113
 21
107.3469361444286
 31
0.0
  0
LINE
  5
6D6E
330
1E
100
AcDbEntity
  8
製品
  6
DASHED_DOTTED
 62
     3
100
AcDbLine
 10
331.4020277136113
 20
156.8361581444287
 30
0.0
 11
331.4020277136113
 21
106.8361581444287
 31
0.0
  0
LINE
  5
6D70
330
1E
100
AcDbEntity
  8
製品
  6
Continuous
 62
     7
100
AcDbLine
 10
337.9020277136114
 20
146.6761581444289
 30
0.0
 11
324.9020277136113
 21
146.6761581444289
 31
0.0
  0
LINE
  5
6D71
330
1E
100
AcDbEntity
  8
製品
  6
Continuous
 62
     7
100
AcDbLine
 10
331.4020277136113
 20
126.8361581444287
 30
0.0
 11
325.1020277136116
 21
126.8361581444287
 31
0.0
  0
LINE
  5
6D72
330
1E
100
AcDbEntity
  8
製品
  6
Continuous
 62
     7
100
AcDbLine
 10
329.1020277136116
 20
122.3567851444286
 30
0.0
 11
331.4020277136113
 21
122.3567851444286
 31
0.0
  0
LINE
  5
6D73
330
1E
100
AcDbEntity
  8
製品
  6
Continuous
 62
     7
100
AcDbLine
 10
331.4020277136113
 20
122.9567851444285
 30
0.0
 11
327.3020277136114
 21
122.9567851444285
 31
0.0
  0
LINE
  5
6D74
330
1E
100
AcDbEntity
  8
製品
  6
DASHED2
 62
     7
100
AcDbLine
 10
325.1020277136116
 20
123.5561581444285
 30
0.0
 11
331.4020277136113
 21
123.5561581444285
 31
0.0
  0
LINE
  5
6D75
330
1E
100
AcDbEntity
  8
製品
  6
DASHED2
 62
     7
100
AcDbLine
 10
325.1020277136116
 20
126.7161581444288
 30
0.0
 11
331.4020277136113
 21
126.7161581444288
 31
0.0
  0
LINE
  5
6D76
330
1E
100
AcDbEntity
  8
製品
  6
Continuous
 62
     7
100
AcDbLine
 10
325.1187277136113
 20
123.4361581444286
 30
0.0
 11
331.4020277136113
 21
123.4361581444286
 31
0.0
  0
LINE
  5
6D77
330
1E
100
AcDbEntity
  8
製品
  6
Continuous
 62
     7
100
AcDbLine
 10
324.7420277136115
 20
138.8361581444287
 30
0.0
 11
324.9020277136113
 21
138.8361581444287
 31
0.0
  0
LINE
  5
6D78
330
1E
100
AcDbEntity
  8
製品
  6
Continuous
 62
     7
100
AcDbLine
 10
324.7420277136115
 20
146.8361581444287
 30
0.0
 11
324.7420277136115
 21
138.8361581444287
 31
0.0
  0
ARC
  5
6D79
330
1E
100
AcDbEntity
  8
製品
  6
Continuous
 62
     7
100
AcDbCircle
 10
329.1020277136116
 20
122.1567851444288
 30
0.0
 40
0.2
100
AcDbArc
 50
90.0
 51
180.0
  0
LINE
  5
6D7A
330
1E
100
AcDbEntity
  8
製品
  6
Continuous
 62
     7
100
AcDbLine
 10
328.9020277136113
 20
121.1567851444288
 30
0.0
 11
328.9020277136113
 21
122.1567851444288
 31
0.0
  0
ARC
  5
6D7B
330
1E
100
AcDbEntity
  8
製品
  6
Continuous
 62
     7
100
AcDbCircle
 10
327.0620277136117
 20
123.0167851444284
 30
0.0
 40
0.24
100
AcDbArc
 50
0.0
 51
90.0
  0
ARC
  5
6D7C
330
1E
100
AcDbEntity
  8
製品
  6
Continuous
 62
     7
100
AcDbCircle
 10
326.9420277136113
 20
123.0167851444284
 30
0.0
 40
0.24
100
AcDbArc
 50
90.0
 51
180.0
  0
LINE
  5
6D7D
330
1E
100
AcDbEntity
  8
製品
  6
Continuous
 62
     7
100
AcDbLine
 10
326.9420277136113
 20
123.2567851444287
 30
0.0
 11
327.0620277136117
 21
123.2567851444287
 31
0.0
  0
ARC
  5
6D7E
330
1E
100
AcDbEntity
  8
製品
  6
Continuous
 62
     7
100
AcDbCircle
 10
325.3020277136114
 20
123.5161581444286
 30
0.0
 40
0.2
100
AcDbArc
 50
180.0
 51
270.0
  0
LINE
  5
6D7F
330
1E
100
AcDbEntity
  8
製品
  6
Continuous
 62
     7
100
AcDbLine
 10
326.0520277136115
 20
123.3161581444287
 30
0.0
 11
325.3020277136114
 21
123.3161581444287
 31
0.0
  0
LINE
  5
6D80
330
1E
100
AcDbEntity
  8
製品
  6
Continuous
 62
     7
100
AcDbLine
 10
326.3520277136116
 20
123.0161581444285
 30
0.0
 11
326.3520277136116
 21
122.1161581444285
 31
0.0
  0
LINE
  5
6D81
330
1E
100
AcDbEntity
  8
製品
  6
Continuous
 62
     7
100
AcDbLine
 10
326.3020277136114
 20
122.0690171444285
 30
0.0
 11
326.3520277136116
 21
122.1161581444285
 31
0.0
  0
LINE
  5
6D82
330
1E
100
AcDbEntity
  8
製品
  6
Continuous
 62
     7
100
AcDbLine
 10
326.7020277136115
 20
122.9567851444285
 30
0.0
 11
326.3520277136116
 21
122.9567851444285
 31
0.0
  0
ARC
  5
6D83
330
1E
100
AcDbEntity
  8
製品
  6
Continuous
 62
     7
100
AcDbCircle
 10
326.0520277136115
 20
123.0161581444285
 30
0.0
 40
0.3
100
AcDbArc
 50
0.0
 51
90.0
  0
LINE
  5
6D84
330
1E
100
AcDbEntity
  8
製品
  6
Continuous
 62
     7
100
AcDbLine
 10
325.1020277136116
 20
123.5161581444286
 30
0.0
 11
325.1020277136116
 21
126.8361581444287
 31
0.0
  0
ARC
  5
6D85
330
1E
100
AcDbEntity
  8
製品
  6
Continuous
 62
     7
100
AcDbCircle
 10
327.4020277136113
 20
119.7567851444287
 30
0.0
 40
0.2
100
AcDbArc
 50
270.0
 51
0.0
  0
LINE
  5
6D86
330
1E
100
AcDbEntity
  8
製品
  6
Continuous
 62
     7
100
AcDbLine
 10
327.6020277136116
 20
119.7567851444287
 30
0.0
 11
327.6020277136116
 21
120.7567851444287
 31
0.0
  0
ARC
  5
6D87
330
1E
100
AcDbEntity
  8
製品
  6
Continuous
 62
     7
100
AcDbCircle
 10
327.8020277136115
 20
120.7567851444287
 30
0.0
 40
0.2
100
AcDbArc
 50
90.0
 51
180.0
  0
ARC
  5
6D88
330
1E
100
AcDbEntity
  8
製品
  6
Continuous
 62
     7
100
AcDbCircle
 10
327.0620277136117
 20
120.2014281444285
 30
0.0
 40
0.24
100
AcDbArc
 50
270.0
 51
0.0
  0
LINE
  5
6D89
330
1E
100
AcDbEntity
  8
製品
  6
Continuous
 62
     7
100
AcDbLine
 10
326.9420277136113
 20
119.9521421444287
 30
0.0
 11
327.0620277136117
 21
119.9521421444287
 31
0.0
  0
ARC
  5
6D8A
330
1E
100
AcDbEntity
  8
製品
  6
Continuous
 62
     7
100
AcDbCircle
 10
326.9420277136113
 20
120.2014281444285
 30
0.0
 40
0.24
100
AcDbArc
 50
180.0
 51
270.0
  0
LINE
  5
6D8B
330
1E
100
AcDbEntity
  8
製品
  6
Continuous
 62
     7
100
AcDbLine
 10
326.3020277136114
 20
119.5567851444289
 30
0.0
 11
327.4020277136113
 21
119.5567851444289
 31
0.0
  0
LINE
  5
6D8C
330
1E
100
AcDbEntity
  8
製品
  6
Continuous
 62
     7
100
AcDbLine
 10
327.8020277136115
 20
120.9567851444285
 30
0.0
 11
328.7020277136115
 21
120.9567851444285
 31
0.0
  0
LINE
  5
6D8D
330
1E
100
AcDbEntity
  8
製品
  6
CENTER1
 62
     7
100
AcDbLine
 10
327.0020277136112
 20
123.4361581444286
 30
0.0
 11
327.0020277136112
 21
119.9567851444285
 31
0.0
  0
ARC
  5
6D8E
330
1E
100
AcDbEntity
  8
製品
  6
Continuous
 62
     7
100
AcDbCircle
 10
328.7020277136115
 20
121.1567851444288
 30
0.0
 40
0.2
100
AcDbArc
 50
270.0
 51
0.0
  0
LINE
  5
6D8F
330
1E
100
AcDbEntity
  8
製品
  6
Continuous
 62
     7
100
AcDbLine
 10
327.3020277136114
 20
120.2014281444285
 30
0.0
 11
327.3020277136114
 21
123.0167851444284
 31
0.0
  0
LINE
  5
6D90
330
1E
100
AcDbEntity
  8
製品
  6
Continuous
 62
     7
100
AcDbLine
 10
326.7020277136115
 20
120.2014281444285
 30
0.0
 11
326.7020277136115
 21
123.0167851444284
 31
0.0
  0
LINE
  5
6D91
330
1E
100
AcDbEntity
  8
製品
  6
Continuous
 62
     7
100
AcDbLine
 10
326.3020277136114
 20
123.4361581444286
 30
0.0
 11
326.3020277136114
 21
106.8361581444287
 31
0.0
  0
LINE
  5
6D92
330
1E
100
AcDbEntity
  8
製品
  6
Continuous
 62
     7
100
AcDbLine
 10
326.3020277136114
 20
146.6761581444289
 30
0.0
 11
326.3020277136114
 21
126.8361581444287
 31
0.0
  0
LINE
  5
6D93
330
1E
100
AcDbEntity
  8
製品
  6
Continuous
 62
     7
100
AcDbLine
 10
324.9020277136113
 20
146.6761581444289
 30
0.0
 11
324.9020277136113
 21
106.8361581444287
 31
0.0
  0
DIMENSION
  5
6D95
330
1E
100
AcDbEntity
  8
寸法
  6
Continuous
100
AcDbDimension
  2
*D5
 10
339.9020277136113
 20
119.0361581444285
 30
0.0
 11
348.1305991421828
 21
119.0361581444285
 31
0.0
 70
   160
  1
(10)
 71
     5
 42
2.0
  3
AutoCAD
100
AcDbAlignedDimension
 13
341.9020277136113
 23
138.0361581444285
 33
0.0
 14
339.9020277136113
 24
119.0361581444285
 34
0.0
100
AcDbRotatedDimension
1001
ACAD
1000
DSTYLE
1002
{
1070
   147
1040
0.8
1070
   140
1040
3.0
1002
}
  0
ARC
  5
6D96
330
1E
100
AcDbEntity
  8
製品
  6
Continuous
 62
     7
100
AcDbCircle
 10
343.6020277136116
 20
146.5361581444285
 30
0.0
 40
0.2
100
AcDbArc
 50
0.0
 51
90.0
  0
LINE
  5
6D97
330
1E
100
AcDbEntity
  8
製品
  6
Continuous
 62
     7
100
AcDbLine
 10
343.6020277136116
 20
146.7361581444288
 30
0.0
 11
343.4020277136113
 21
146.7361581444288
 31
0.0
  0
ARC
  5
6D98
330
1E
100
AcDbEntity
  8
製品
  6
Continuous
 62
     7
100
AcDbCircle
 10
343.4020277136113
 20
146.5361581444285
 30
0.0
 40
0.2
100
AcDbArc
 50
90.0
 51
180.0
  0
LINE
  5
6D99
330
1E
100
AcDbEntity
  8
製品
  6
Continuous
 62
     7
100
AcDbLine
 10
343.2020277136115
 20
146.5361581444285
 30
0.0
 11
343.2020277136115
 21
146.2361581444288
 31
0.0
  0
LINE
  5
6D9A
330
1E
100
AcDbEntity
  8
製品
  6
Continuous
 62
     7
100
AcDbLine
 10
343.2020277136115
 20
146.2361581444288
 30
0.0
 11
343.1020277136116
 21
146.2361581444288
 31
0.0
  0
LINE
  5
6D9B
330
1E
100
AcDbEntity
  8
製品
  6
Continuous
 62
     7
100
AcDbLine
 10
343.1020277136116
 20
146.2361581444288
 30
0.0
 11
343.1020277136116
 21
146.5361581444285
 31
0.0
  0
ARC
  5
6D9C
330
1E
100
AcDbEntity
  8
製品
  6
Continuous
 62
     7
100
AcDbCircle
 10
343.4020277136113
 20
146.5361581444285
 30
0.0
 40
0.3
100
AcDbArc
 50
90.0
 51
180.0
  0
ARC
  5
6D9D
330
1E
100
AcDbEntity
  8
製品
  6
Continuous
 62
     7
100
AcDbCircle
 10
343.6020277136116
 20
146.5361581444285
 30
0.0
 40
0.3
100
AcDbArc
 50
0.0
 51
90.0
  0
LINE
  5
6D9E
330
1E
100
AcDbEntity
  8
製品
  6
Continuous
 62
     7
100
AcDbLine
 10
343.3020277136114
 20
143.1361581444284
 30
0.0
 11
343.1020277136116
 21
143.1361581444284
 31
0.0
  0
ARC
  5
6D9F
330
1E
100
AcDbEntity
  8
製品
  6
Continuous
 62
     7
100
AcDbCircle
 10
343.3020277136114
 20
143.6361581444284
 30
0.0
 40
0.5
100
AcDbArc
 50
270.0
 51
0.0
  0
LINE
  5
6DA0
330
1E
100
AcDbEntity
  8
製品
  6
Continuous
 62
     7
100
AcDbLine
 10
343.3020277136114
 20
143.0361581444285
 30
0.0
 11
343.1020277136116
 21
143.0361581444285
 31
0.0
  0
ARC
  5
6DA1
330
1E
100
AcDbEntity
  8
製品
  6
Continuous
 62
     7
100
AcDbCircle
 10
343.3020277136114
 20
143.6361581444284
 30
0.0
 40
0.6
100
AcDbArc
 50
270.0
 51
0.0
  0
LINE
  5
6DA2
330
1E
100
AcDbEntity
  8
製品
  6
Continuous
 62
     7
100
AcDbLine
 10
343.1020277136116
 20
143.0361581444285
 30
0.0
 11
342.9020277136114
 21
143.1361581444284
 31
0.0
  0
LINE
  5
6DA3
330
1E
100
AcDbEntity
  8
製品
  6
Continuous
 62
     7
100
AcDbLine
 10
343.1020277136116
 20
143.1361581444284
 30
0.0
 11
342.9020277136114
 21
143.2361581444288
 31
0.0
  0
LINE
  5
6DA4
330
1E
100
AcDbEntity
  8
製品
  6
Continuous
 62
     7
100
AcDbLine
 10
340.8020277136114
 20
143.0361581444285
 30
0.0
 11
341.1020277136116
 21
143.1361581444284
 31
0.0
  0
LINE
  5
6DA5
330
1E
100
AcDbEntity
  8
製品
  6
Continuous
 62
     7
100
AcDbLine
 10
341.1020277136116
 20
143.1361581444284
 30
0.0
 11
341.4020277136113
 21
143.0361581444285
 31
0.0
  0
LINE
  5
6DA6
330
1E
100
AcDbEntity
  8
製品
  6
Continuous
 62
     7
100
AcDbLine
 10
340.8020277136114
 20
143.1361581444284
 30
0.0
 11
341.1020277136116
 21
143.2361581444288
 31
0.0
  0
LINE
  5
6DA7
330
1E
100
AcDbEntity
  8
製品
  6
Continuous
 62
     7
100
AcDbLine
 10
341.1020277136116
 20
143.2361581444288
 30
0.0
 11
341.4020277136113
 21
143.1361581444284
 31
0.0
  0
LINE
  5
6DA8
330
1E
100
AcDbEntity
  8
製品
  6
Continuous
 62
     7
100
AcDbLine
 10
342.6020277136116
 20
143.0361581444285
 30
0.0
 11
342.3020277136114
 21
143.1361581444284
 31
0.0
  0
LINE
  5
6DA9
330
1E
100
AcDbEntity
  8
製品
  6
Continuous
 62
     7
100
AcDbLine
 10
342.3020277136114
 20
143.1361581444284
 30
0.0
 11
342.0020277136113
 21
143.0361581444285
 31
0.0
  0
LINE
  5
6DAA
330
1E
100
AcDbEntity
  8
製品
  6
Continuous
 62
     7
100
AcDbLine
 10
342.0020277136113
 20
143.0361581444285
 30
0.0
 11
341.7020277136115
 21
143.1361581444284
 31
0.0
  0
LINE
  5
6DAB
330
1E
100
AcDbEntity
  8
製品
  6
Continuous
 62
     7
100
AcDbLine
 10
341.7020277136115
 20
143.1361581444284
 30
0.0
 11
341.4020277136113
 21
143.0361581444285
 31
0.0
  0
LINE
  5
6DAC
330
1E
100
AcDbEntity
  8
製品
  6
Continuous
 62
     7
100
AcDbLine
 10
342.6020277136116
 20
143.1361581444284
 30
0.0
 11
342.3020277136114
 21
143.2361581444288
 31
0.0
  0
LINE
  5
6DAD
330
1E
100
AcDbEntity
  8
製品
  6
Continuous
 62
     7
100
AcDbLine
 10
342.3020277136114
 20
143.2361581444288
 30
0.0
 11
342.0020277136113
 21
143.1361581444284
 31
0.0
  0
LINE
  5
6DAE
330
1E
100
AcDbEntity
  8
製品
  6
Continuous
 62
     7
100
AcDbLine
 10
342.0020277136113
 20
143.1361581444284
 30
0.0
 11
341.7020277136115
 21
143.2361581444288
 31
0.0
  0
LINE
  5
6DAF
330
1E
100
AcDbEntity
  8
製品
  6
Continuous
 62
     7
100
AcDbLine
 10
341.7020277136115
 20
143.2361581444288
 30
0.0
 11
341.4020277136113
 21
143.1361581444284
 31
0.0
  0
LINE
  5
6DB0
330
1E
100
AcDbEntity
  8
製品
  6
Continuous
 62
     7
100
AcDbLine
 10
342.9020277136114
 20
143.1361581444284
 30
0.0
 11
342.6020277136116
 21
143.0361581444285
 31
0.0
  0
LINE
  5
6DB1
330
1E
100
AcDbEntity
  8
製品
  6
Continuous
 62
     7
100
AcDbLine
 10
342.9020277136114
 20
143.2361581444288
 30
0.0
 11
342.6020277136116
 21
143.1361581444284
 31
0.0
  0
LINE
  5
6DB2
330
1E
100
AcDbEntity
  8
製品
  6
Continuous
 62
     7
100
AcDbLine
 10
341.9020277136113
 20
141.0361581444285
 30
0.0
 11
341.9020277136113
 21
139.0361581444285
 31
0.0
  0
LINE
  5
6DB3
330
1E
100
AcDbEntity
  8
製品
  6
Continuous
 62
     7
100
AcDbLine
 10
343.8020277136114
 20
143.6361581444284
 30
0.0
 11
343.8020277136114
 21
146.5361581444285
 31
0.0
  0
LINE
  5
6DB4
330
1E
100
AcDbEntity
  8
製品
  6
Continuous
 62
     7
100
AcDbLine
 10
343.9020277136113
 20
143.6361581444284
 30
0.0
 11
343.9020277136113
 21
146.5361581444285
 31
0.0
  0
ARC
  5
6DB5
330
1E
100
AcDbEntity
  8
製品
  6
Continuous
 62
     7
100
AcDbCircle
 10
339.2020277136115
 20
146.5361581444285
 30
0.0
 40
0.2
100
AcDbArc
 50
90.0
 51
180.0
  0
LINE
  5
6DB6
330
1E
100
AcDbEntity
  8
製品
  6
Continuous
 62
     7
100
AcDbLine
 10
339.2020277136115
 20
146.7361581444288
 30
0.0
 11
339.4020277136113
 21
146.7361581444288
 31
0.0
  0
ARC
  5
6DB7
330
1E
100
AcDbEntity
  8
製品
  6
Continuous
 62
     7
100
AcDbCircle
 10
339.4020277136113
 20
146.5361581444285
 30
0.0
 40
0.2
100
AcDbArc
 50
0.0
 51
90.0
  0
LINE
  5
6DB8
330
1E
100
AcDbEntity
  8
製品
  6
Continuous
 62
     7
100
AcDbLine
 10
339.6020277136116
 20
146.5361581444285
 30
0.0
 11
339.6020277136116
 21
146.2361581444288
 31
0.0
  0
LINE
  5
6DB9
330
1E
100
AcDbEntity
  8
製品
  6
Continuous
 62
     7
100
AcDbLine
 10
339.6020277136116
 20
146.2361581444288
 30
0.0
 11
339.7020277136115
 21
146.2361581444288
 31
0.0
  0
LINE
  5
6DBA
330
1E
100
AcDbEntity
  8
製品
  6
Continuous
 62
     7
100
AcDbLine
 10
339.7020277136115
 20
146.2361581444288
 30
0.0
 11
339.7020277136115
 21
146.5361581444285
 31
0.0
  0
ARC
  5
6DBB
330
1E
100
AcDbEntity
  8
製品
  6
Continuous
 62
     7
100
AcDbCircle
 10
339.4020277136113
 20
146.5361581444285
 30
0.0
 40
0.3
100
AcDbArc
 50
0.0
 51
90.0
  0
ARC
  5
6DBC
330
1E
100
AcDbEntity
  8
製品
  6
Continuous
 62
     7
100
AcDbCircle
 10
339.2020277136115
 20
146.5361581444285
 30
0.0
 40
0.3
100
AcDbArc
 50
90.0
 51
180.0
  0
ARC
  5
6DBD
330
1E
100
AcDbEntity
  8
製品
  6
Continuous
 62
     7
100
AcDbCircle
 10
331.4020277136113
 20
146.6761581444289
 30
0.0
 40
0.8
100
AcDbArc
 50
180.0
 51
0.0
  0
LINE
  5
6DBE
330
1E
100
AcDbEntity
  8
製品
  6
Continuous
 62
     7
100
AcDbLine
 10
331.0020277136112
 20
148.8361581444287
 30
0.0
 11
331.0020277136112
 21
146.8361581444287
 31
0.0
  0
LINE
  5
6DBF
330
1E
100
AcDbEntity
  8
製品
  6
Continuous
 62
     7
100
AcDbLine
 10
331.8020277136114
 20
146.8361581444287
 30
0.0
 11
331.8020277136114
 21
148.8361581444287
 31
0.0
  0
LINE
  5
6DC0
330
1E
100
AcDbEntity
  8
製品
  6
Continuous
 62
     7
100
AcDbLine
 10
338.9020277136113
 20
143.0361581444285
 30
0.0
 11
339.7020277136115
 21
143.0361581444285
 31
0.0
  0
LINE
  5
6DC1
330
1E
100
AcDbEntity
  8
製品
  6
Continuous
 62
     7
100
AcDbLine
 10
339.5020277136112
 20
143.1361581444284
 30
0.0
 11
339.7020277136115
 21
143.1361581444284
 31
0.0
  0
LINE
  5
6DC2
330
1E
100
AcDbEntity
  8
製品
  6
Continuous
 62
     7
100
AcDbLine
 10
339.7020277136115
 20
143.1361581444284
 30
0.0
 11
339.9020277136113
 21
143.2361581444288
 31
0.0
  0
ARC
  5
6DC3
330
1E
100
AcDbEntity
  8
製品
  6
Continuous
 62
     7
100
AcDbCircle
 10
339.5020277136112
 20
143.6361581444284
 30
0.0
 40
0.5
100
AcDbArc
 50
180.0
 51
270.0
  0
ARC
  5
6DC4
330
1E
100
AcDbEntity
  8
製品
  6
Continuous
 62
     7
100
AcDbCircle
 10
339.5020277136112
 20
143.6361581444284
 30
0.0
 40
0.6
100
AcDbArc
 50
180.0
 51
270.0
  0
LINE
  5
6DC5
330
1E
100
AcDbEntity
  8
製品
  6
Continuous
 62
     7
100
AcDbLine
 10
339.7020277136115
 20
143.0361581444285
 30
0.0
 11
339.9020277136113
 21
143.1361581444284
 31
0.0
  0
LINE
  5
6DC6
330
1E
100
AcDbEntity
  8
製品
  6
Continuous
 62
     7
100
AcDbLine
 10
339.9020277136113
 20
143.1361581444284
 30
0.0
 11
340.2020277136115
 21
143.0361581444285
 31
0.0
  0
LINE
  5
6DC7
330
1E
100
AcDbEntity
  8
製品
  6
Continuous
 62
     7
100
AcDbLine
 10
340.2020277136115
 20
143.0361581444285
 30
0.0
 11
340.5020277136113
 21
143.1361581444284
 31
0.0
  0
LINE
  5
6DC8
330
1E
100
AcDbEntity
  8
製品
  6
Continuous
 62
     7
100
AcDbLine
 10
339.9020277136113
 20
143.2361581444288
 30
0.0
 11
340.2020277136115
 21
143.1361581444284
 31
0.0
  0
LINE
  5
6DC9
330
1E
100
AcDbEntity
  8
製品
  6
Continuous
 62
     7
100
AcDbLine
 10
340.2020277136115
 20
143.1361581444284
 30
0.0
 11
340.5020277136113
 21
143.2361581444288
 31
0.0
  0
LINE
  5
6DCA
330
1E
100
AcDbEntity
  8
製品
  6
Continuous
 62
     7
100
AcDbLine
 10
337.9020277136114
 20
138.8361581444287
 30
0.0
 11
338.0620277136117
 21
138.8361581444287
 31
0.0
  0
LINE
  5
6DCB
330
1E
100
AcDbEntity
  8
製品
  6
Continuous
 62
     7
100
AcDbLine
 10
338.0620277136117
 20
146.8361581444287
 30
0.0
 11
338.0620277136117
 21
138.8361581444287
 31
0.0
  0
LINE
  5
6DCC
330
1E
100
AcDbEntity
  8
製品
  6
Continuous
 62
     7
100
AcDbLine
 10
338.9020277136113
 20
146.5361581444285
 30
0.0
 11
338.9020277136113
 21
143.0361581444285
 31
0.0
  0
LINE
  5
6DCD
330
1E
100
AcDbEntity
  8
製品
  6
Continuous
 62
     7
100
AcDbLine
 10
339.0020277136112
 20
143.6361581444284
 30
0.0
 11
339.0020277136112
 21
146.5361581444285
 31
0.0
  0
LINE
  5
6DCE
330
1E
100
AcDbEntity
  8
製品
  6
Continuous
 62
     7
100
AcDbLine
 10
340.5020277136113
 20
143.1361581444284
 30
0.0
 11
340.8020277136114
 21
143.0361581444285
 31
0.0
  0
LINE
  5
6DCF
330
1E
100
AcDbEntity
  8
製品
  6
Continuous
 62
     7
100
AcDbLine
 10
340.5020277136113
 20
143.2361581444288
 30
0.0
 11
340.8020277136114
 21
143.1361581444284
 31
0.0
  0
CIRCLE
  5
6DD0
330
1E
100
AcDbEntity
  8
図面枠
  6
Continuous
 62
     7
100
AcDbCircle
 10
340.9020277136113
 20
140.0361581444285
 30
0.0
 40
0.3
  0
ARC
  5
6DD1
330
1E
100
AcDbEntity
  8
製品
  6
Continuous
 62
     7
100
AcDbCircle
 10
337.5020277136112
 20
123.5161581444286
 30
0.0
 40
0.2
100
AcDbArc
 50
270.0
 51
0.0
  0
LINE
  5
6DD2
330
1E
100
AcDbEntity
  8
製品
  6
Continuous
 62
     7
100
AcDbLine
 10
336.7520277136113
 20
123.3161581444287
 30
0.0
 11
337.5020277136112
 21
123.3161581444287
 31
0.0
  0
LINE
  5
6DD3
330
1E
100
AcDbEntity
  8
製品
  6
Continuous
 62
     7
100
AcDbLine
 10
336.4520277136116
 20
122.9567851444285
 30
0.0
 11
336.1020277136116
 21
122.9567851444285
 31
0.0
  0
LINE
  5
6DD4
330
1E
100
AcDbEntity
  8
製品
  6
Continuous
 62
     7
100
AcDbLine
 10
336.4520277136116
 20
123.0161581444285
 30
0.0
 11
336.4520277136116
 21
122.1161581444285
 31
0.0
  0
ARC
  5
6DD5
330
1E
100
AcDbEntity
  8
製品
  6
Continuous
 62
     7
100
AcDbCircle
 10
335.7420277136115
 20
123.0167851444284
 30
0.0
 40
0.24
100
AcDbArc
 50
90.0
 51
180.0
  0
LINE
  5
6DD6
330
1E
100
AcDbEntity
  8
製品
  6
Continuous
 62
     7
100
AcDbLine
 10
335.7420277136115
 20
123.2567851444287
 30
0.0
 11
335.8620277136114
 21
123.2567851444287
 31
0.0
  0
ARC
  5
6DD7
330
1E
100
AcDbEntity
  8
製品
  6
Continuous
 62
     7
100
AcDbCircle
 10
335.8620277136114
 20
123.0167851444284
 30
0.0
 40
0.24
100
AcDbArc
 50
0.0
 51
90.0
  0
LINE
  5
6DD8
330
1E
100
AcDbEntity
  8
製品
  6
Continuous
 62
     7
100
AcDbLine
 10
336.5020277136113
 20
122.0690171444285
 30
0.0
 11
336.4520277136116
 21
122.1161581444285
 31
0.0
  0
LINE
  5
6DD9
330
1E
100
AcDbEntity
  8
製品
  6
Continuous
 62
     7
100
AcDbLine
 10
333.9020277136114
 20
121.1567851444288
 30
0.0
 11
333.9020277136114
 21
122.1567851444288
 31
0.0
  0
ARC
  5
6DDA
330
1E
100
AcDbEntity
  8
製品
  6
Continuous
 62
     7
100
AcDbCircle
 10
333.7020277136115
 20
122.1567851444288
 30
0.0
 40
0.2
100
AcDbArc
 50
0.0
 51
90.0
  0
ARC
  5
6DDB
330
1E
100
AcDbEntity
  8
製品
  6
Continuous
 62
     7
100
AcDbCircle
 10
336.7520277136113
 20
123.0161581444285
 30
0.0
 40
0.3
100
AcDbArc
 50
90.0
 51
180.0
  0
LINE
  5
6DDC
330
1E
100
AcDbEntity
  8
製品
  6
Continuous
 62
     7
100
AcDbLine
 10
337.7020277136115
 20
126.8361581444287
 30
0.0
 11
337.7020277136115
 21
123.5161581444286
 31
0.0
  0
LINE
  5
6DDD
330
1E
100
AcDbEntity
  8
製品
  6
Continuous
 62
     7
100
AcDbLine
 10
330.7020277136115
 20
125.6361581444284
 30
0.0
 11
330.7020277136115
 21
124.6361581444284
 31
0.0
  0
ARC
  5
6DDE
330
1E
100
AcDbEntity
  8
製品
  6
Continuous
 62
     7
100
AcDbCircle
 10
330.9020277136113
 20
125.6361581444284
 30
0.0
 40
0.2
100
AcDbArc
 50
90.0
 51
180.0
  0
LINE
  5
6DDF
330
1E
100
AcDbEntity
  8
製品
  6
Continuous
 62
     7
100
AcDbLine
 10
330.9020277136113
 20
125.8361581444287
 30
0.0
 11
331.9020277136114
 21
125.8361581444287
 31
0.0
  0
ARC
  5
6DE0
330
1E
100
AcDbEntity
  8
製品
  6
Continuous
 62
     7
100
AcDbCircle
 10
330.9020277136113
 20
124.6361581444284
 30
0.0
 40
0.2
100
AcDbArc
 50
180.0
 51
270.0
  0
LINE
  5
6DE1
330
1E
100
AcDbEntity
  8
製品
  6
Continuous
 62
     7
100
AcDbLine
 10
330.9020277136113
 20
124.4361581444286
 30
0.0
 11
331.9020277136114
 21
124.4361581444286
 31
0.0
  0
ARC
  5
6DE2
330
1E
100
AcDbEntity
  8
製品
  6
Continuous
 62
     7
100
AcDbCircle
 10
331.9020277136114
 20
124.6361581444284
 30
0.0
 40
0.2
100
AcDbArc
 50
270.0
 51
0.0
  0
LINE
  5
6DE3
330
1E
100
AcDbEntity
  8
製品
  6
Continuous
 62
     7
100
AcDbLine
 10
332.1020277136116
 20
124.6361581444284
 30
0.0
 11
332.1020277136116
 21
125.6361581444284
 31
0.0
  0
ARC
  5
6DE4
330
1E
100
AcDbEntity
  8
製品
  6
Continuous
 62
     7
100
AcDbCircle
 10
331.9020277136114
 20
125.6361581444284
 30
0.0
 40
0.2
100
AcDbArc
 50
0.0
 51
90.0
  0
LINE
  5
6DE5
330
1E
100
AcDbEntity
  8
製品
  6
CENTER1
 62
     7
100
AcDbLine
 10
331.4020277136113
 20
127.4361581444286
 30
0.0
 11
331.4020277136113
 21
121.7567851444287
 31
0.0
  0
LINE
  5
6DE6
330
1E
100
AcDbEntity
  8
製品
  6
Continuous
 62
     7
100
AcDbLine
 10
335.5020277136113
 20
122.9567851444285
 30
0.0
 11
331.4020277136113
 21
122.9567851444285
 31
0.0
  0
LINE
  5
6DE7
330
1E
100
AcDbEntity
  8
製品
  6
DASHED2
 62
     7
100
AcDbLine
 10
337.7020277136115
 20
123.5561581444285
 30
0.0
 11
331.4020277136113
 21
123.5561581444285
 31
0.0
  0
LINE
  5
6DE8
330
1E
100
AcDbEntity
  8
製品
  6
DASHED2
 62
     7
100
AcDbLine
 10
337.7020277136115
 20
126.7161581444288
 30
0.0
 11
331.4020277136113
 21
126.7161581444288
 31
0.0
  0
LINE
  5
6DE9
330
1E
100
AcDbEntity
  8
製品
  6
Continuous
 62
     7
100
AcDbLine
 10
331.4020277136113
 20
126.8361581444287
 30
0.0
 11
337.7020277136115
 21
126.8361581444287
 31
0.0
  0
LINE
  5
6DEA
330
1E
100
AcDbEntity
  8
製品
  6
Continuous
 62
     7
100
AcDbLine
 10
337.6853377136116
 20
123.4361581444286
 30
0.0
 11
331.4020277136113
 21
123.4361581444286
 31
0.0
  0
LINE
  5
6DEB
330
1E
100
AcDbEntity
  8
製品
  6
Continuous
 62
     7
100
AcDbLine
 10
333.7020277136115
 20
122.3567851444286
 30
0.0
 11
331.4020277136113
 21
122.3567851444286
 31
0.0
  0
LINE
  5
6DEC
330
1E
100
AcDbEntity
  8
製品
  6
Continuous
 62
     7
100
AcDbLine
 10
335.2020277136115
 20
119.7567851444287
 30
0.0
 11
335.2020277136115
 21
120.7567851444287
 31
0.0
  0
ARC
  5
6DED
330
1E
100
AcDbEntity
  8
製品
  6
Continuous
 62
     7
100
AcDbCircle
 10
335.4020277136113
 20
119.7567851444287
 30
0.0
 40
0.2
100
AcDbArc
 50
180.0
 51
270.0
  0
ARC
  5
6DEE
330
1E
100
AcDbEntity
  8
製品
  6
Continuous
 62
     7
100
AcDbCircle
 10
335.0020277136112
 20
120.7567851444287
 30
0.0
 40
0.2
100
AcDbArc
 50
0.0
 51
90.0
  0
LINE
  5
6DEF
330
1E
100
AcDbEntity
  8
製品
  6
Continuous
 62
     7
100
AcDbLine
 10
335.7420277136115
 20
119.9614281444287
 30
0.0
 11
335.8620277136114
 21
119.9614281444287
 31
0.0
  0
ARC
  5
6DF0
330
1E
100
AcDbEntity
  8
製品
  6
Continuous
 62
     7
100
AcDbCircle
 10
335.7420277136115
 20
120.2014281444285
 30
0.0
 40
0.24
100
AcDbArc
 50
180.0
 51
270.0
  0
ARC
  5
6DF1
330
1E
100
AcDbEntity
  8
製品
  6
Continuous
 62
     7
100
AcDbCircle
 10
335.8620277136114
 20
120.2014281444285
 30
0.0
 40
0.24
100
AcDbArc
 50
270.0
 51
0.0
  0
LINE
  5
6DF2
330
1E
100
AcDbEntity
  8
製品
  6
Continuous
 62
     7
100
AcDbLine
 10
335.4020277136113
 20
119.5567851444289
 30
0.0
 11
336.5020277136113
 21
119.5567851444289
 31
0.0
  0
LINE
  5
6DF3
330
1E
100
AcDbEntity
  8
製品
  6
Continuous
 62
     7
100
AcDbLine
 10
335.0020277136112
 20
120.9567851444285
 30
0.0
 11
334.1020277136116
 21
120.9567851444285
 31
0.0
  0
LINE
  5
6DF4
330
1E
100
AcDbEntity
  8
製品
  6
Continuous
 62
     7
100
AcDbLine
 10
335.5020277136113
 20
120.2014281444285
 30
0.0
 11
335.5020277136113
 21
123.0167851444284
 31
0.0
  0
LINE
  5
6DF5
330
1E
100
AcDbEntity
  8
製品
  6
Continuous
 62
     7
100
AcDbLine
 10
336.1020277136116
 20
120.2014281444285
 30
0.0
 11
336.1020277136116
 21
123.0167851444284
 31
0.0
  0
LINE
  5
6DF6
330
1E
100
AcDbEntity
  8
製品
  6
CENTER1
 62
     7
100
AcDbLine
 10
335.8020277136114
 20
123.4361581444286
 30
0.0
 11
335.8020277136114
 21
119.9660721444288
 31
0.0
  0
ARC
  5
6DF7
330
1E
100
AcDbEntity
  8
製品
  6
Continuous
 62
     7
100
AcDbCircle
 10
334.1020277136116
 20
121.1567851444288
 30
0.0
 40
0.2
100
AcDbArc
 50
180.0
 51
270.0
  0
LINE
  5
6DF8
330
1E
100
AcDbEntity
  8
製品
  6
Continuous
 62
     7
100
AcDbLine
 10
336.5020277136113
 20
123.4361581444286
 30
0.0
 11
336.5020277136113
 21
106.8361581444287
 31
0.0
  0
LINE
  5
6DF9
330
1E
100
AcDbEntity
  8
製品
  6
Continuous
 62
     7
100
AcDbLine
 10
336.5020277136113
 20
146.6761581444289
 30
0.0
 11
336.5020277136113
 21
126.8361581444287
 31
0.0
  0
LINE
  5
6DFA
330
1E
100
AcDbEntity
  8
製品
  6
Continuous
 62
     7
100
AcDbLine
 10
337.9020277136114
 20
146.6761581444289
 30
0.0
 11
337.9020277136114
 21
106.8361581444287
 31
0.0
  0
LINE
  5
6DFB
330
1E
100
AcDbEntity
  8
製品
  6
Continuous
 62
     7
100
AcDbLine
 10
339.9020277136113
 20
143.0361581444285
 30
0.0
 11
339.9020277136113
 21
106.8361581444287
 31
0.0
  0
LINE
  5
6DFC
330
1E
100
AcDbEntity
  8
図面枠
  6
Continuous
 62
     7
100
AcDbLine
 10
340.9020277136113
 20
140.0361581444285
 30
0.0
 11
347.2528877136114
 21
129.0361581444285
 31
0.0
  0
CIRCLE
  5
6DFE
330
1E
100
AcDbEntity
  8
図面枠
  6
Continuous
 62
     7
100
AcDbCircle
 10
375.9020277136114
 20
143.0361581444285
 30
0.0
 40
0.3
  0
LINE
  5
6DFF
330
1E
100
AcDbEntity
  8
図面枠
  6
Continuous
 62
     7
100
AcDbLine
 10
375.9020277136114
 20
143.0361581444285
 30
0.0
 11
372.5533977136114
 21
148.8361581444287
 31
0.0
  0
ENDSEC
  0
SECTION
  2
OBJECTS
  0
DICTIONARY
  5
C
330
0
100
AcDbDictionary
281
     1
  3
ACAD_COLOR
350
6E8C
  3
ACAD_GROUP
350
D
  3
ACAD_LAYOUT
350
19
  3
ACAD_MATERIAL
350
6E77
  3
ACAD_MLINESTYLE
350
16
  3
ACAD_PLOTSETTINGS
350
18
  3
ACAD_PLOTSTYLENAME
350
E
  3
ACAD_TABLESTYLE
350
6E8D
  3
ACAD_VISUALSTYLE
350
6E7B
  3
AcDbVariableDictionary
350
169
  3
DWGPROPS
350
6F08
  0
DICTIONARY
  5
6EE7
330
8
100
AcDbDictionary
280
     1
281
     1
  0
DICTIONARY
  5
175
330
2
100
AcDbDictionary
280
     1
281
     1
  3
ACAD_LAYERFILTERS
360
185
  3
ACAD_LAYERSTATES
360
176
  0
DICTIONARY
  5
28B
330
1E
100
AcDbDictionary
280
     1
281
     1
  3
ACAD_LAYOUTSELFREF
360
6E70
  0
DICTIONARY
  5
28D
330
1A
100
AcDbDictionary
280
     1
281
     1
  3
ACAD_LAYOUTSELFREF
360
6E6F
  0
DICTIONARY
  5
6E8C
102
{ACAD_REACTORS
330
C
102
}
330
C
100
AcDbDictionary
281
     1
  0
DICTIONARY
  5
D
102
{ACAD_REACTORS
330
C
102
}
330
C
100
AcDbDictionary
281
     1
  0
DICTIONARY
  5
19
102
{ACAD_REACTORS
330
C
102
}
330
C
100
AcDbDictionary
281
     1
  3
Model
350
21
  3
ﾚｲｱｳﾄ1
350
1D
  0
DICTIONARY
  5
6E77
102
{ACAD_REACTORS
330
C
102
}
330
C
100
AcDbDictionary
281
     1
  3
ByBlock
350
6E79
  3
ByLayer
350
6E78
  3
Global
350
6E7A
  0
DICTIONARY
  5
16
102
{ACAD_REACTORS
330
C
102
}
330
C
100
AcDbDictionary
281
     1
  3
Standard
350
17
  0
DICTIONARY
  5
18
102
{ACAD_REACTORS
330
C
102
}
330
C
100
AcDbDictionary
281
     1
  0
ACDBDICTIONARYWDFLT
  5
E
102
{ACAD_REACTORS
330
C
102
}
330
C
100
AcDbDictionary
281
     1
  3
Normal
350
F
100
AcDbDictionaryWithDefault
340
F
1001
ACAD
1000
TREAT_AS_HARD
1070
     0
1000
TREAT_AS_HARD
1070
     0
1000
TREAT_AS_HARD
1070
     0
1000
TREAT_AS_HARD
1070
     0
1000
TREAT_AS_HARD
1070
     0
1000
TREAT_AS_HARD
1070
     0
1000
TREAT_AS_HARD
1070
     0
1000
TREAT_AS_HARD
1070
     0
1000
TREAT_AS_HARD
1070
     0
1000
TREAT_AS_HARD
1070
     0
1000
TREAT_AS_HARD
1070
     0
1000
TREAT_AS_HARD
1070
     0
1000
TREAT_AS_HARD
1070
     0
1000
TREAT_AS_HARD
1070
     0
1000
TREAT_AS_HARD
1070
     0
1000
TREAT_AS_HARD
1070
     0
1000
TREAT_AS_HARD
1070
     0
1000
TREAT_AS_HARD
1070
     0
1000
TREAT_AS_HARD
1070
     0
1000
TREAT_AS_HARD
1070
     0
1000
TREAT_AS_HARD
1070
     0
1000
TREAT_AS_HARD
1070
     0
1000
TREAT_AS_HARD
1070
     0
1000
TREAT_AS_HARD
1070
     0
1000
TREAT_AS_HARD
1070
     0
1000
TREAT_AS_HARD
1070
     0
1000
TREAT_AS_HARD
1070
     0
1000
TREAT_AS_HARD
1070
     0
1000
TREAT_AS_HARD
1070
     0
1000
TREAT_AS_HARD
1070
     0
1000
TREAT_AS_HARD
1070
     0
  0
DICTIONARY
  5
6E8D
102
{ACAD_REACTORS
330
C
102
}
330
C
100
AcDbDictionary
281
     1
  3
Standard
350
6E8E
  0
DICTIONARY
  5
6E7B
102
{ACAD_REACTORS
330
C
102
}
330
C
100
AcDbDictionary
281
     1
  3
2dWireframe
350
6E81
  3
3D Hidden
350
6E83
  3
3dWireframe
350
6E82
  3
Basic
350
6E80
  3
Brighten
350
6E87
  3
ColorChange
350
6E8B
  3
Conceptual
350
6E84
  3
Dim
350
6E86
  3
Facepattern
350
6E8A
  3
Flat
350
6E7C
  3
FlatWithEdges
350
6E7D
  3
Gouraud
350
6E7E
  3
GouraudWithEdges
350
6E7F
  3
Linepattern
350
6E89
  3
Realistic
350
6E85
  3
Thicken
350
6E88
  0
DICTIONARY
  5
169
102
{ACAD_REACTORS
330
C
102
}
330
C
100
AcDbDictionary
281
     1
  3
CTABLESTYLE
350
6EFF
  3
DIMASSOC
350
16A
  3
INDEXCTL
350
6F01
  3
SORTENTS
350
6F00
  0
XRECORD
  5
6F08
102
{ACAD_REACTORS
330
C
102
}
330
C
100
AcDbXrecord
280
     1
  1
DWGPROPS COOKIE
  2

  3

  4

  6

  7

  8
HON1000AV
  9

300
=
301
=
302
=
303
=
304
=
305
=
306
=
307
=
308
=
309
=
 40
0.2438157407407408
 41
2454316.693457674
 42
2454735.624610278
  1

 90
        0
  0
DICTIONARY
  5
185
102
{ACAD_REACTORS
330
175
102
}
330
175
100
AcDbDictionary
280
     1
281
     1
  0
DICTIONARY
  5
176
102
{ACAD_REACTORS
330
175
102
}
330
175
100
AcDbDictionary
281
     1
  3
ACAD
350
177
  0
XRECORD
  5
6E70
102
{ACAD_REACTORS
330
28B
102
}
330
28B
100
AcDbXrecord
280
     1
340
1E
  0
XRECORD
  5
6E6F
102
{ACAD_REACTORS
330
28D
102
}
330
28D
100
AcDbXrecord
280
     1
340
1A
  0
LAYOUT
  5
21
102
{ACAD_XDICTIONARY
360
6F0B
102
}
102
{ACAD_REACTORS
330
19
102
}
330
19
100
AcDbPlotSettings
  1

  2
\\MEISEI-1\EPSON Stylus Photo EX3
  4

  6

 40
0.0
 41
0.0
 42
0.0
 43
0.0
 44
0.0
 45
0.0
 46
0.0
 47
0.0
 48
0.0
 49
0.0
140
0.0
141
0.0
142
1.0
143
1.0
 70
  1712
 72
     0
 73
     0
 74
     0
  7

 75
     0
147
1.0
148
0.0
149
0.0
100
AcDbLayout
  1
Model
 70
     1
 71
     0
 10
0.0
 20
0.0
 11
12.0
 21
9.0
 12
0.0
 22
0.0
 32
0.0
 14
0.0
 24
0.0
 34
0.0
 15
0.0
 25
0.0
 35
0.0
146
0.0
 13
0.0
 23
0.0
 33
0.0
 16
1.0
 26
0.0
 36
0.0
 17
0.0
 27
1.0
 37
0.0
 76
     0
330
1E
331
6E2B
  0
LAYOUT
  5
1D
102
{ACAD_XDICTIONARY
360
6F09
102
}
102
{ACAD_REACTORS
330
19
102
}
330
19
100
AcDbPlotSettings
  1

  2
\\MEISEI-1\EPSON Stylus Photo EX3
  4

  6

 40
0.0
 41
0.0
 42
0.0
 43
0.0
 44
0.0
 45
0.0
 46
0.0
 47
0.0
 48
0.0
 49
0.0
140
0.0
141
0.0
142
1.0
143
1.0
 70
   688
 72
     0
 73
     0
 74
     5
  7

 75
    16
147
1.0
148
0.0
149
0.0
100
AcDbLayout
  1
ﾚｲｱｳﾄ1
 70
     1
 71
     1
 10
0.0
 20
0.0
 11
12.0
 21
9.0
 12
0.0
 22
0.0
 32
0.0
 14
1.000000000000000E+20
 24
1.000000000000000E+20
 34
1.000000000000000E+20
 15
-1.000000000000000E+20
 25
-1.000000000000000E+20
 35
-1.000000000000000E+20
146
0.0
 13
0.0
 23
0.0
 33
0.0
 16
1.0
 26
0.0
 36
0.0
 17
0.0
 27
1.0
 37
0.0
 76
     0
330
1A
  0
MATERIAL
  5
6E79
102
{ACAD_XDICTIONARY
360
6F0F
102
}
102
{ACAD_REACTORS
330
6E77
102
}
330
6E77
100
AcDbMaterial
  1
ByBlock
  0
MATERIAL
  5
6E78
102
{ACAD_XDICTIONARY
360
6F0D
102
}
102
{ACAD_REACTORS
330
6E77
102
}
330
6E77
100
AcDbMaterial
  1
ByLayer
  0
MATERIAL
  5
6E7A
102
{ACAD_XDICTIONARY
360
6F11
102
}
102
{ACAD_REACTORS
330
6E77
102
}
330
6E77
100
AcDbMaterial
  1
Global
  0
MLINESTYLE
  5
17
102
{ACAD_REACTORS
330
16
102
}
330
16
100
AcDbMlineStyle
  2
STANDARD
 70
     0
  3

 62
   256
 51
90.0
 52
90.0
 71
     2
 49
0.5
 62
   256
  6
BYLAYER
 49
-0.5
 62
   256
  6
BYLAYER
  0
ACDBPLACEHOLDER
  5
F
102
{ACAD_REACTORS
330
E
102
}
330
E
  0
TABLESTYLE
  5
6E8E
102
{ACAD_XDICTIONARY
360
6F13
102
}
102
{ACAD_REACTORS
330
6E8D
102
}
330
6E8D
100
AcDbTableStyle
  3
Standard
 70
     0
 71
     0
 40
0.06
 41
0.06
280
     0
281
     0
  7
STANDARD
140
0.18
170
     2
 62
     0
 63
     7
283
     0
274
    -2
284
     1
 64
     0
275
    -2
285
     1
 65
     0
276
    -2
286
     1
 66
     0
277
    -2
287
     1
 67
     0
278
    -2
288
     1
 68
     0
279
    -2
289
     1
 69
     0
  7
STANDARD
140
0.25
170
     5
 62
     0
 63
     7
283
     0
274
    -2
284
     1
 64
     0
275
    -2
285
     1
 65
     0
276
    -2
286
     1
 66
     0
277
    -2
287
     1
 67
     0
278
    -2
288
     1
 68
     0
279
    -2
289
     1
 69
     0
  7
STANDARD
140
0.18
170
     5
 62
     0
 63
     7
283
     0
274
    -2
284
     1
 64
     0
275
    -2
285
     1
 65
     0
276
    -2
286
     1
 66
     0
277
    -2
287
     1
 67
     0
278
    -2
288
     1
 68
     0
279
    -2
289
     1
 69
     0
  0
VISUALSTYLE
  5
6E81
102
{ACAD_REACTORS
330
6E7B
102
}
330
6E7B
100
AcDbVisualStyle
  2
2dWireframe
 70
     4
 71
     0
 72
     2
 73
     0
 90
        0
 40
-0.6
 41
-30.0
 62
     5
 63
     7
 74
     1
 91
        4
 64
     7
 65
   257
 75
     1
175
     1
 42
1.0
 92
        0
 66
   257
 43
1.0
 76
     1
 77
     6
 78
     2
 67
     7
 79
     5
170
     0
171
     0
290
     0
174
     0
 93
        1
 44
0.0
173
     0
291
     0
 45
0.0
1001
ACAD
1000
AcDbSavedByObjectVersion
1070
     0
  0
VISUALSTYLE
  5
6E83
102
{ACAD_REACTORS
330
6E7B
102
}
330
6E7B
100
AcDbVisualStyle
  2
3D Hidden
 70
     6
 71
     1
 72
     2
 73
     2
 90
        0
 40
-0.6
 41
-30.0
 62
     5
 63
     7
 74
     2
 91
        2
 64
     7
 65
   257
 75
     2
175
     1
 42
40.0
 92
        0
 66
   257
 43
1.0
 76
     1
 77
     6
 78
     2
 67
     7
 79
     3
170
     0
171
     0
290
     0
174
     0
 93
        1
 44
0.0
173
     0
291
     0
 45
0.0
1001
ACAD
1000
AcDbSavedByObjectVersion
1070
     0
  0
VISUALSTYLE
  5
6E82
102
{ACAD_REACTORS
330
6E7B
102
}
330
6E7B
100
AcDbVisualStyle
  2
3dWireframe
 70
     5
 71
     0
 72
     2
 73
     0
 90
        0
 40
-0.6
 41
-30.0
 62
     5
 63
     7
 74
     1
 91
        4
 64
     7
 65
   257
 75
     1
175
     1
 42
1.0
 92
        0
 66
   257
 43
1.0
 76
     1
 77
     6
 78
     2
 67
     7
 79
     5
170
     0
171
     0
290
     0
174
     0
 93
        1
 44
0.0
173
     0
291
     0
 45
0.0
1001
ACAD
1000
AcDbSavedByObjectVersion
1070
     0
  0
VISUALSTYLE
  5
6E80
102
{ACAD_REACTORS
330
6E7B
102
}
330
6E7B
100
AcDbVisualStyle
  2
Basic
 70
     7
 71
     1
 72
     0
 73
     1
 90
        0
 40
-0.6
 41
-30.0
 62
     5
 63
     7
 74
     0
 91
        4
 64
     7
 65
   257
 75
     1
175
     1
 42
1.0
 92
        8
 66
     7
 43
1.0
 76
     1
 77
     6
 78
     2
 67
     7
 79
     5
170
     0
171
     0
290
     0
174
     0
 93
        1
 44
0.0
173
     0
291
     1
 45
0.0
1001
ACAD
1000
AcDbSavedByObjectVersion
1070
     0
  0
VISUALSTYLE
  5
6E87
102
{ACAD_REACTORS
330
6E7B
102
}
330
6E7B
100
AcDbVisualStyle
  2
Brighten
 70
    12
 71
     2
 72
     2
 73
     0
 90
        0
 40
-0.6
 41
-30.0
 62
     5
 63
     7
 74
     1
 91
        4
 64
     7
 65
   257
 75
     1
175
     1
 42
1.0
 92
        8
 66
     7
 43
1.0
 76
     1
 77
     6
 78
     2
 67
     7
 79
     5
170
     0
171
     0
290
     0
174
     0
 93
        1
 44
50.0
173
     0
291
     1
 45
0.0
1001
ACAD
1000
AcDbSavedByObjectVersion
1070
     0
  0
VISUALSTYLE
  5
6E8B
102
{ACAD_REACTORS
330
6E7B
102
}
330
6E7B
100
AcDbVisualStyle
  2
ColorChange
 70
    16
 71
     2
 72
     2
 73
     3
 90
        0
 40
-0.6
 41
-30.0
 62
     5
 63
     8
 74
     1
 91
        4
 64
     7
 65
   257
 75
     1
175
     1
 42
1.0
 92
        8
 66
     8
 43
1.0
 76
     1
 77
     6
 78
     2
 67
     7
 79
     5
170
     0
171
     0
290
     0
174
     0
 93
        1
 44
0.0
173
     0
291
     1
 45
0.0
1001
ACAD
1000
AcDbSavedByObjectVersion
1070
     0
  0
VISUALSTYLE
  5
6E84
102
{ACAD_REACTORS
330
6E7B
102
}
330
6E7B
100
AcDbVisualStyle
  2
Conceptual
 70
     9
 71
     3
 72
     2
 73
     0
 90
        0
 40
-0.6
 41
-30.0
 62
     5
 63
     7
 74
     2
 91
        2
 64
     7
 65
   257
 75
     1
175
     1
 42
40.0
 92
        8
 66
     7
 43
1.0
 76
     1
 77
     6
 78
     2
 67
     7
 79
     3
170
     0
171
     0
290
     0
174
     0
 93
        1
 44
0.0
173
     0
291
     0
 45
0.0
1001
ACAD
1000
AcDbSavedByObjectVersion
1070
     0
  0
VISUALSTYLE
  5
6E86
102
{ACAD_REACTORS
330
6E7B
102
}
330
6E7B
100
AcDbVisualStyle
  2
Dim
 70
    11
 71
     2
 72
     2
 73
     0
 90
        0
 40
-0.6
 41
-30.0
 62
     5
 63
     7
 74
     1
 91
        4
 64
     7
 65
   257
 75
     1
175
     1
 42
1.0
 92
        8
 66
     7
 43
1.0
 76
     1
 77
     6
 78
     2
 67
     7
 79
     5
170
     0
171
     0
290
     0
174
     0
 93
        1
 44
-50.0
173
     0
291
     1
 45
0.0
1001
ACAD
1000
AcDbSavedByObjectVersion
1070
     0
  0
VISUALSTYLE
  5
6E8A
102
{ACAD_REACTORS
330
6E7B
102
}
330
6E7B
100
AcDbVisualStyle
  2
Facepattern
 70
    15
 71
     2
 72
     2
 73
     0
 90
        0
 40
-0.6
 41
-30.0
 62
     5
 63
     7
 74
     1
 91
        4
 64
     7
 65
   257
 75
     1
175
     1
 42
1.0
 92
        8
 66
     7
 43
1.0
 76
     1
 77
     6
 78
     2
 67
     7
 79
     5
170
     0
171
     0
290
     0
174
     0
 93
        1
 44
0.0
173
     0
291
     1
 45
0.0
1001
ACAD
1000
AcDbSavedByObjectVersion
1070
     0
  0
VISUALSTYLE
  5
6E7C
102
{ACAD_REACTORS
330
6E7B
102
}
330
6E7B
100
AcDbVisualStyle
  2
Flat
 70
     0
 71
     2
 72
     1
 73
     1
 90
        2
 40
-0.6
 41
30.0
 62
     5
 63
     7
 74
     0
 91
        4
 64
     7
 65
   257
 75
     1
175
     1
 42
1.0
 92
        8
 66
     7
 43
1.0
 76
     1
 77
     6
 78
     2
 67
     7
 79
     5
170
     0
171
     0
290
     0
174
     0
 93
       13
 44
0.0
173
     0
291
     1
 45
0.0
1001
ACAD
1000
AcDbSavedByObjectVersion
1070
     0
  0
VISUALSTYLE
  5
6E7D
102
{ACAD_REACTORS
330
6E7B
102
}
330
6E7B
100
AcDbVisualStyle
  2
FlatWithEdges
 70
     1
 71
     2
 72
     1
 73
     1
 90
        2
 40
-0.6
 41
30.0
 62
     5
 63
     7
 74
     1
 91
        4
 64
     7
 65
   257
 75
     1
175
     1
 42
1.0
 92
        0
 66
   257
 43
1.0
 76
     1
 77
     6
 78
     2
 67
     7
 79
     5
170
     0
171
     0
290
     0
174
     0
 93
       13
 44
0.0
173
     0
291
     1
 45
0.0
1001
ACAD
1000
AcDbSavedByObjectVersion
1070
     0
  0
VISUALSTYLE
  5
6E7E
102
{ACAD_REACTORS
330
6E7B
102
}
330
6E7B
100
AcDbVisualStyle
  2
Gouraud
 70
     2
 71
     2
 72
     2
 73
     1
 90
        2
 40
-0.6
 41
30.0
 62
     5
 63
     7
 74
     0
 91
        4
 64
     7
 65
   257
 75
     1
175
     1
 42
1.0
 92
        0
 66
     7
 43
1.0
 76
     1
 77
     6
 78
     2
 67
     7
 79
     5
170
     0
171
     0
290
     0
174
     0
 93
       13
 44
0.0
173
     0
291
     1
 45
0.0
1001
ACAD
1000
AcDbSavedByObjectVersion
1070
     0
  0
VISUALSTYLE
  5
6E7F
102
{ACAD_REACTORS
330
6E7B
102
}
330
6E7B
100
AcDbVisualStyle
  2
GouraudWithEdges
 70
     3
 71
     2
 72
     2
 73
     1
 90
        2
 40
-0.6
 41
30.0
 62
     5
 63
     7
 74
     1
 91
        4
 64
     7
 65
   257
 75
     1
175
     1
 42
1.0
 92
        0
 66
   257
 43
1.0
 76
     1
 77
     6
 78
     2
 67
     7
 79
     5
170
     0
171
     0
290
     0
174
     0
 93
       13
 44
0.0
173
     0
291
     1
 45
0.0
1001
ACAD
1000
AcDbSavedByObjectVersion
1070
     0
  0
VISUALSTYLE
  5
6E89
102
{ACAD_REACTORS
330
6E7B
102
}
330
6E7B
100
AcDbVisualStyle
  2
Linepattern
 70
    14
 71
     2
 72
     2
 73
     0
 90
        0
 40
-0.6
 41
-30.0
 62
     5
 63
     7
 74
     1
 91
        4
 64
     7
 65
   257
 75
     7
175
     7
 42
1.0
 92
        8
 66
     7
 43
1.0
 76
     1
 77
     6
 78
     2
 67
     7
 79
     5
170
     0
171
     0
290
     0
174
     0
 93
        1
 44
0.0
173
     0
291
     1
 45
0.0
1001
ACAD
1000
AcDbSavedByObjectVersion
1070
     0
  0
VISUALSTYLE
  5
6E85
102
{ACAD_REACTORS
330
6E7B
102
}
330
6E7B
100
AcDbVisualStyle
  2
Realistic
 70
     8
 71
     2
 72
     2
 73
     0
 90
        0
 40
-0.6
 41
-30.0
 62
     5
 63
     7
 74
     1
 91
        0
 64
     7
 65
   257
 75
     1
175
     1
 42
1.0
 92
        8
 66
     8
 43
1.0
 76
     1
 77
     6
 78
     2
 67
     7
 79
     5
170
     0
171
     0
290
     0
174
     0
 93
       13
 44
0.0
173
     0
291
     0
 45
0.0
1001
ACAD
1000
AcDbSavedByObjectVersion
1070
     0
  0
VISUALSTYLE
  5
6E88
102
{ACAD_REACTORS
330
6E7B
102
}
330
6E7B
100
AcDbVisualStyle
  2
Thicken
 70
    13
 71
     2
 72
     2
 73
     0
 90
        0
 40
-0.6
 41
-30.0
 62
     5
 63
     7
 74
     1
 91
        4
 64
     7
 65
   257
 75
     1
175
     1
 42
1.0
 92
       12
 66
     7
 43
1.0
 76
     1
 77
     6
 78
     2
 67
     7
 79
     5
170
     0
171
     0
290
     0
174
     0
 93
        1
 44
0.0
173
     0
291
     1
 45
0.0
1001
ACAD
1000
AcDbSavedByObjectVersion
1070
     0
  0
DICTIONARYVAR
  5
6EFF
102
{ACAD_REACTORS
330
169
102
}
330
169
100
DictionaryVariables
280
     0
  1
STANDARD
  0
DICTIONARYVAR
  5
16A
102
{ACAD_REACTORS
330
169
102
}
330
169
100
DictionaryVariables
280
     0
  1
1
  0
DICTIONARYVAR
  5
6F01
102
{ACAD_REACTORS
330
169
102
}
330
169
100
DictionaryVariables
280
     0
  1
0
  0
DICTIONARYVAR
  5
6F00
102
{ACAD_REACTORS
330
169
102
}
330
169
100
DictionaryVariables
280
     0
  1
127
  0
XRECORD
  5
177
102
{ACAD_REACTORS
330
176
102
}
330
176
100
AcDbXrecord
280
     1
 91
      476
330
179
 90
        8
 62
     7
370
    -3
331
15
  1
Color_7
330
128
 90
        0
 62
     7
370
    -3
331
15
  1
Color_7
330
10
 90
        8
 62
     7
370
    -3
331
15
  1
Color_7
  0
DICTIONARY
  5
6F0B
330
21
100
AcDbDictionary
280
     1
281
     1
  3
ACAD_XREC_ROUNDTRIP
360
6F0C
  0
DICTIONARY
  5
6F09
330
1D
100
AcDbDictionary
280
     1
281
     1
  3
ACAD_XREC_ROUNDTRIP
360
6F0A
  0
DICTIONARY
  5
6F0F
330
6E79
100
AcDbDictionary
280
     1
281
     1
  3
ACAD_XREC_ROUNDTRIP
360
6F10
  0
DICTIONARY
  5
6F0D
330
6E78
100
AcDbDictionary
280
     1
281
     1
  3
ACAD_XREC_ROUNDTRIP
360
6F0E
  0
DICTIONARY
  5
6F11
330
6E7A
100
AcDbDictionary
280
     1
281
     1
  3
ACAD_XREC_ROUNDTRIP
360
6F12
  0
DICTIONARY
  5
6F13
330
6E8E
100
AcDbDictionary
280
     1
281
     1
  3
ACAD_XREC_ROUNDTRIP
360
6F14
  0
XRECORD
  5
6F0C
102
{ACAD_REACTORS
330
6F0B
102
}
330
6F0B
100
AcDbXrecord
280
     1
102
SHADEPLOT
 70
     0
102
SHADEPLOTRESLEVEL
 70
     2
102
SHADEPLOTCUSTOMDPI
 70
   300
  0
XRECORD
  5
6F0A
102
{ACAD_REACTORS
330
6F09
102
}
330
6F09
100
AcDbXrecord
280
     1
102
SHADEPLOT
 70
     0
102
SHADEPLOTRESLEVEL
 70
     2
102
SHADEPLOTCUSTOMDPI
 70
   300
  0
XRECORD
  5
6F10
102
{ACAD_REACTORS
330
6F0F
102
}
330
6F0F
100
AcDbXrecord
280
     1
102
MATERIAL
148
0.0
149
0.0
149
0.0
 93
        0
 94
       63
282
     0
 72
     1
 77
     1
171
     1
175
     1
179
     1
273
     0
  0
XRECORD
  5
6F0E
102
{ACAD_REACTORS
330
6F0D
102
}
330
6F0D
100
AcDbXrecord
280
     1
102
MATERIAL
148
0.0
149
0.0
149
0.0
 93
        0
 94
       63
282
     0
 72
     1
 77
     1
171
     1
175
     1
179
     1
273
     0
  0
XRECORD
  5
6F12
102
{ACAD_REACTORS
330
6F11
102
}
330
6F11
100
AcDbXrecord
280
     1
102
MATERIAL
148
0.0
149
0.0
149
0.0
 93
        0
 94
       63
282
     0
 72
     1
 77
     1
171
     1
175
     1
179
     1
273
     0
  0
XRECORD
  5
6F14
102
{ACAD_REACTORS
330
6F13
102
}
330
6F13
100
AcDbXrecord
280
     1
102
ACAD_ROUNDTRIP_PRE2007_TABLESTYLE
 90
      512
 91
        0
  1

 92
      512
 93
        0
  2

 94
      512
 95
        0
  3

  0
ENDSEC
  0
EOF
