  0
SECTION
  2
HEADER
  9
$ACADVER
  1
AC1015
  9
$ACADMAINTVER
 70
    20
  9
$DWGCODEPAGE
  3
ANSI_932
  9
$INSBASE
 10
0.0
 20
0.0
 30
0.0
  9
$EXTMIN
 10
84.01349880016686
 20
183.0152454285542
 30
0.0
  9
$EXTMAX
 10
222.1248788001667
 20
233.0152454285542
 30
0.0
  9
$LIMMIN
 10
0.0
 20
0.0
  9
$LIMMAX
 10
420.0
 20
297.0
  9
$ORTHOMODE
 70
     0
  9
$REGENMODE
 70
     1
  9
$FILLMODE
 70
     1
  9
$QTEXTMODE
 70
     0
  9
$MIRRTEXT
 70
     1
  9
$LTSCALE
 40
1.0
  9
$ATTMODE
 70
     1
  9
$TEXTSIZE
 40
5.0
  9
$TRACEWID
 40
0.05
  9
$TEXTSTYLE
  7
ACAD
  9
$CLAYER
  8
0
  9
$CELTYPE
  6
CONTINUOUS
  9
$CECOLOR
 62
   256
  9
$CELTSCALE
 40
1.0
  9
$DISPSILH
 70
     0
  9
$DIMSCALE
 40
1.0
  9
$DIMASZ
 40
1.0
  9
$DIMEXO
 40
0.0
  9
$DIMDLI
 40
0.38
  9
$DIMRND
 40
0.0
  9
$DIMDLE
 40
0.0
  9
$DIMEXE
 40
0.0
  9
$DIMTP
 40
0.0
  9
$DIMTM
 40
0.0
  9
$DIMTXT
 40
5.0
  9
$DIMCEN
 40
0.09
  9
$DIMTSZ
 40
0.0
  9
$DIMTOL
 70
     0
  9
$DIMLIM
 70
     0
  9
$DIMTIH
 70
     0
  9
$DIMTOH
 70
     1
  9
$DIMSE1
 70
     0
  9
$DIMSE2
 70
     0
  9
$DIMTAD
 70
     1
  9
$DIMZIN
 70
     0
  9
$DIMBLK
  1
Dot
  9
$DIMASO
 70
     1
  9
$DIMSHO
 70
     1
  9
$DIMPOST
  1

  9
$DIMAPOST
  1

  9
$DIMALT
 70
     0
  9
$DIMALTD
 70
     2
  9
$DIMALTF
 40
25.4
  9
$DIMLFAC
 40
1.0
  9
$DIMTOFL
 70
     0
  9
$DIMTVP
 40
0.0
  9
$DIMTIX
 70
     1
  9
$DIMSOXD
 70
     0
  9
$DIMSAH
 70
     0
  9
$DIMBLK1
  1

  9
$DIMBLK2
  1

  9
$DIMSTYLE
  2
AutoCAD
  9
$DIMCLRD
 70
     4
  9
$DIMCLRE
 70
     4
  9
$DIMCLRT
 70
     3
  9
$DIMTFAC
 40
1.0
  9
$DIMGAP
 40
1.0
  9
$DIMJUST
 70
     0
  9
$DIMSD1
 70
     0
  9
$DIMSD2
 70
     0
  9
$DIMTOLJ
 70
     1
  9
$DIMTZIN
 70
     0
  9
$DIMALTZ
 70
     0
  9
$DIMALTTZ
 70
     0
  9
$DIMUPT
 70
     0
  9
$DIMDEC
 70
     0
  9
$DIMTDEC
 70
     0
  9
$DIMALTU
 70
     2
  9
$DIMALTTD
 70
     2
  9
$DIMTXSTY
  7
ACAD
  9
$DIMAUNIT
 70
     0
  9
$DIMADEC
 70
     0
  9
$DIMALTRND
 40
0.0
  9
$DIMAZIN
 70
     0
  9
$DIMDSEP
 70
    46
  9
$DIMATFIT
 70
     0
  9
$DIMFRAC
 70
     0
  9
$DIMLDRBLK
  1
None
  9
$DIMLUNIT
 70
     2
  9
$DIMLWD
 70
    -2
  9
$DIMLWE
 70
    -2
  9
$DIMTMOVE
 70
     0
  9
$LUNITS
 70
     2
  9
$LUPREC
 70
     4
  9
$SKETCHINC
 40
0.1
  9
$FILLETRAD
 40
0.0
  9
$AUNITS
 70
     0
  9
$AUPREC
 70
     0
  9
$MENU
  1
.
  9
$ELEVATION
 40
0.0
  9
$PELEVATION
 40
0.0
  9
$THICKNESS
 40
0.0
  9
$LIMCHECK
 70
     0
  9
$CHAMFERA
 40
0.0
  9
$CHAMFERB
 40
0.0
  9
$CHAMFERC
 40
0.0
  9
$CHAMFERD
 40
0.0
  9
$SKPOLY
 70
     0
  9
$TDCREATE
 40
2454316.693457674
  9
$TDUCREATE
 40
2454316.318457674
  9
$TDUPDATE
 40
2454735.624307176
  9
$TDUUPDATE
 40
2454735.249307176
  9
$TDINDWG
 40
0.2431435648
  9
$TDUSRTIMER
 40
0.2431435648
  9
$USRTIMER
 70
     1
  9
$ANGBASE
 50
0.0
  9
$ANGDIR
 70
     0
  9
$PDMODE
 70
     0
  9
$PDSIZE
 40
0.0
  9
$PLINEWID
 40
0.0
  9
$SPLFRAME
 70
     0
  9
$SPLINETYPE
 70
     6
  9
$SPLINESEGS
 70
     8
  9
$HANDSEED
  5
6EF8
  9
$SURFTAB1
 70
     6
  9
$SURFTAB2
 70
     6
  9
$SURFTYPE
 70
     6
  9
$SURFU
 70
     6
  9
$SURFV
 70
     6
  9
$UCSBASE
  2

  9
$UCSNAME
  2

  9
$UCSORG
 10
0.0
 20
0.0
 30
0.0
  9
$UCSXDIR
 10
1.0
 20
0.0
 30
0.0
  9
$UCSYDIR
 10
0.0
 20
1.0
 30
0.0
  9
$UCSORTHOREF
  2

  9
$UCSORTHOVIEW
 70
     0
  9
$UCSORGTOP
 10
0.0
 20
0.0
 30
0.0
  9
$UCSORGBOTTOM
 10
0.0
 20
0.0
 30
0.0
  9
$UCSORGLEFT
 10
0.0
 20
0.0
 30
0.0
  9
$UCSORGRIGHT
 10
0.0
 20
0.0
 30
0.0
  9
$UCSORGFRONT
 10
0.0
 20
0.0
 30
0.0
  9
$UCSORGBACK
 10
0.0
 20
0.0
 30
0.0
  9
$PUCSBASE
  2

  9
$PUCSNAME
  2

  9
$PUCSORG
 10
0.0
 20
0.0
 30
0.0
  9
$PUCSXDIR
 10
1.0
 20
0.0
 30
0.0
  9
$PUCSYDIR
 10
0.0
 20
1.0
 30
0.0
  9
$PUCSORTHOREF
  2

  9
$PUCSORTHOVIEW
 70
     0
  9
$PUCSORGTOP
 10
0.0
 20
0.0
 30
0.0
  9
$PUCSORGBOTTOM
 10
0.0
 20
0.0
 30
0.0
  9
$PUCSORGLEFT
 10
0.0
 20
0.0
 30
0.0
  9
$PUCSORGRIGHT
 10
0.0
 20
0.0
 30
0.0
  9
$PUCSORGFRONT
 10
0.0
 20
0.0
 30
0.0
  9
$PUCSORGBACK
 10
0.0
 20
0.0
 30
0.0
  9
$USERI1
 70
     0
  9
$USERI2
 70
     0
  9
$USERI3
 70
     0
  9
$USERI4
 70
     0
  9
$USERI5
 70
     0
  9
$USERR1
 40
0.0
  9
$USERR2
 40
0.0
  9
$USERR3
 40
0.0
  9
$USERR4
 40
0.0
  9
$USERR5
 40
0.0
  9
$WORLDVIEW
 70
     1
  9
$SHADEDGE
 70
     3
  9
$SHADEDIF
 70
    70
  9
$TILEMODE
 70
     1
  9
$MAXACTVP
 70
    48
  9
$PINSBASE
 10
0.0
 20
0.0
 30
0.0
  9
$PLIMCHECK
 70
     0
  9
$PEXTMIN
 10
1.000000000000000E+20
 20
1.000000000000000E+20
 30
1.000000000000000E+20
  9
$PEXTMAX
 10
-1.000000000000000E+20
 20
-1.000000000000000E+20
 30
-1.000000000000000E+20
  9
$PLIMMIN
 10
0.0
 20
0.0
  9
$PLIMMAX
 10
12.0
 20
9.0
  9
$UNITMODE
 70
     0
  9
$VISRETAIN
 70
     0
  9
$PLINEGEN
 70
     0
  9
$PSLTSCALE
 70
     1
  9
$TREEDEPTH
 70
  3020
  9
$CMLSTYLE
  2
Standard
  9
$CMLJUST
 70
     0
  9
$CMLSCALE
 40
1.0
  9
$PROXYGRAPHICS
 70
     1
  9
$MEASUREMENT
 70
     0
  9
$CELWEIGHT
370
    -1
  9
$ENDCAPS
280
     0
  9
$JOINSTYLE
280
     0
  9
$LWDISPLAY
290
     0
  9
$INSUNITS
 70
     0
  9
$HYPERLINKBASE
  1

  9
$STYLESHEET
  1

  9
$XEDIT
290
     1
  9
$CEPSNTYPE
380
     0
  9
$PSTYLEMODE
290
     1
  9
$FINGERPRINTGUID
  2
{CC7D6DEE-A9F1-4F3E-AC95-C84B62CCA3FD}
  9
$VERSIONGUID
  2
{E87B53D4-4248-4405-B103-E3DA109F2F26}
  9
$EXTNAMES
290
     1
  9
$PSVPSCALE
 40
0.0
  9
$OLESTARTUP
290
     0
  0
ENDSEC
  0
SECTION
  2
CLASSES
  0
CLASS
  1
ACDBDICTIONARYWDFLT
  2
AcDbDictionaryWithDefault
  3
ObjectDBX Classes
 90
        0
280
     0
281
     0
  0
CLASS
  1
ACDBPLACEHOLDER
  2
AcDbPlaceHolder
  3
ObjectDBX Classes
 90
        0
280
     0
281
     0
  0
CLASS
  1
LAYOUT
  2
AcDbLayout
  3
ObjectDBX Classes
 90
        0
280
     0
281
     0
  0
CLASS
  1
DICTIONARYVAR
  2
AcDbDictionaryVar
  3
ObjectDBX Classes
 90
        0
280
     0
281
     0
  0
CLASS
  1
MATERIAL
  2
AcDbMaterial
  3
ObjectDBX Classes
 90
     1153
280
     0
281
     0
  0
CLASS
  1
VISUALSTYLE
  2
AcDbVisualStyle
  3
ObjectDBX Classes
 90
     4095
280
     0
281
     0
  0
CLASS
  1
TABLESTYLE
  2
AcDbTableStyle
  3
ObjectDBX Classes
 90
     4095
280
     0
281
     0
  0
ENDSEC
  0
SECTION
  2
TABLES
  0
TABLE
  2
VPORT
  5
8
102
{ACAD_XDICTIONARY
360
6ECA
102
}
330
0
100
AcDbSymbolTable
 70
     1
  0
VPORT
  5
6DE3
330
8
100
AcDbSymbolTableRecord
100
AcDbViewportTableRecord
  2
*Active
 70
     0
 10
0.0
 20
0.0
 11
1.0
 21
1.0
 12
134.7734737113488
 22
221.7089249206189
 13
0.0
 23
0.0
 14
1.0
 24
1.0
 15
0.0
 25
0.0
 16
0.0
 26
0.0
 36
1.0
 17
0.0
 27
0.0
 37
0.0
 40
119.2360551594536
 41
1.571614583333333
 42
50.0
 43
0.0
 44
0.0
 50
0.0
 51
0.0
 71
     0
 72
   100
 73
     1
 74
     1
 75
     0
 76
     0
 77
     0
 78
     0
281
     0
 65
     1
110
0.0
120
0.0
130
0.0
111
1.0
121
0.0
131
0.0
112
0.0
122
1.0
132
0.0
 79
     0
146
0.0
  0
ENDTAB
  0
TABLE
  2
LTYPE
  5
5
330
0
100
AcDbSymbolTable
 70
    50
  0
LTYPE
  5
13
330
5
100
AcDbSymbolTableRecord
100
AcDbLinetypeTableRecord
  2
ByBlock
 70
     0
  3

 72
    65
 73
     0
 40
0.0
  0
LTYPE
  5
14
330
5
100
AcDbSymbolTableRecord
100
AcDbLinetypeTableRecord
  2
ByLayer
 70
     0
  3

 72
    65
 73
     0
 40
0.0
  0
LTYPE
  5
15
330
5
100
AcDbSymbolTableRecord
100
AcDbLinetypeTableRecord
  2
CONTINUOUS
 70
     0
  3
実線
 72
    65
 73
     0
 40
0.0
  0
LTYPE
  5
22
330
5
100
AcDbSymbolTableRecord
100
AcDbLinetypeTableRecord
  2
DASHED1
 70
     0
  3
--  --  --  --  --  --  --  --  
 72
    65
 73
     2
 40
2.5
 49
1.25
 74
     0
 49
-1.25
 74
     0
  0
LTYPE
  5
23
330
5
100
AcDbSymbolTableRecord
100
AcDbLinetypeTableRecord
  2
DASHED2
 70
     0
  3
----    ----    ----    ----    
 72
    65
 73
     2
 40
5.0
 49
2.5
 74
     0
 49
-2.5
 74
     0
  0
LTYPE
  5
24
330
5
100
AcDbSymbolTableRecord
100
AcDbLinetypeTableRecord
  2
DASHED3
 70
     0
  3
------  ------  ------  ------  
 72
    65
 73
     2
 40
5.0
 49
3.75
 74
     0
 49
-1.25
 74
     0
  0
LTYPE
  5
25
330
5
100
AcDbSymbolTableRecord
100
AcDbLinetypeTableRecord
  2
CENTER1
 70
     0
  3
----- - ----- - ----- - ----- - 
 72
    65
 73
     4
 40
10.0
 49
6.25
 74
     0
 49
-1.25
 74
     0
 49
1.25
 74
     0
 49
-1.25
 74
     0
  0
LTYPE
  5
26
330
5
100
AcDbSymbolTableRecord
100
AcDbLinetypeTableRecord
  2
CENTER2
 70
     0
  3
----------  --  ----------  --  
 72
    65
 73
     4
 40
20.0
 49
12.5
 74
     0
 49
-2.5
 74
     0
 49
2.5
 74
     0
 49
-2.5
 74
     0
  0
LTYPE
  5
27
330
5
100
AcDbSymbolTableRecord
100
AcDbLinetypeTableRecord
  2
PHANTOM1
 70
     0
  3
--- - - --- - - --- - - --- - - 
 72
    65
 73
     6
 40
10.0
 49
3.25
 74
     0
 49
-1.25
 74
     0
 49
1.25
 74
     0
 49
-1.25
 74
     0
 49
1.25
 74
     0
 49
-1.25
 74
     0
  0
LTYPE
  5
28
330
5
100
AcDbSymbolTableRecord
100
AcDbLinetypeTableRecord
  2
PHANTOM2
 70
     0
  3
--------  -  -  --------  -  -  
 72
    65
 73
     6
 40
20.0
 49
10.0
 74
     0
 49
-2.5
 74
     0
 49
1.25
 74
     0
 49
-2.5
 74
     0
 49
1.25
 74
     0
 49
-2.5
 74
     0
  0
LTYPE
  5
29
330
5
100
AcDbSymbolTableRecord
100
AcDbLinetypeTableRecord
  2
DOT
 70
     0
  3
-   -   -   -   -   -   -   -   
 72
    65
 73
     2
 40
2.5
 49
0.625
 74
     0
 49
-1.875
 74
     0
  0
LTYPE
  5
2A
330
5
100
AcDbSymbolTableRecord
100
AcDbLinetypeTableRecord
  2
DUMMY
 70
     0
  3
ダミー
 72
    65
 73
     0
 40
0.0
  0
LTYPE
  5
2B
330
5
100
AcDbSymbolTableRecord
100
AcDbLinetypeTableRecord
  2
RAND1
 70
     0
  3
ランダム線1
 72
    65
 73
     4
 40
10.0
 49
1.0
 74
     0
 49
-2.0
 74
     0
 49
3.0
 74
     0
 49
-4.0
 74
     0
  0
LTYPE
  5
2C
330
5
100
AcDbSymbolTableRecord
100
AcDbLinetypeTableRecord
  2
RAND2
 70
     0
  3
ランダム線2
 72
    65
 73
     4
 40
14.0
 49
2.0
 74
     0
 49
-3.0
 74
     0
 49
4.0
 74
     0
 49
-5.0
 74
     0
  0
LTYPE
  5
2D
330
5
100
AcDbSymbolTableRecord
100
AcDbLinetypeTableRecord
  2
RAND3
 70
     0
  3
ランダム線3
 72
    65
 73
     4
 40
18.0
 49
3.0
 74
     0
 49
-4.0
 74
     0
 49
5.0
 74
     0
 49
-6.0
 74
     0
  0
LTYPE
  5
2E
330
5
100
AcDbSymbolTableRecord
100
AcDbLinetypeTableRecord
  2
RAND4
 70
     0
  3
ランダム線4
 72
    65
 73
     4
 40
22.0
 49
4.0
 74
     0
 49
-5.0
 74
     0
 49
6.0
 74
     0
 49
-7.0
 74
     0
  0
LTYPE
  5
2F
330
5
100
AcDbSymbolTableRecord
100
AcDbLinetypeTableRecord
  2
RAND5
 70
     0
  3
ランダム線5
 72
    65
 73
     4
 40
26.0
 49
5.0
 74
     0
 49
-6.0
 74
     0
 49
7.0
 74
     0
 49
-8.0
 74
     0
  0
LTYPE
  5
30
330
5
100
AcDbSymbolTableRecord
100
AcDbLinetypeTableRecord
  2
LONG1
 70
     0
  3
----------  --  ----------  --  
 72
    65
 73
     4
 40
40.0
 49
32.5
 74
     0
 49
-2.5
 74
     0
 49
2.5
 74
     0
 49
-2.5
 74
     0
  0
LTYPE
  5
31
330
5
100
AcDbSymbolTableRecord
100
AcDbLinetypeTableRecord
  2
LONG2
 70
     0
  3
--------  -  -  --------  -  -  
 72
    65
 73
     6
 40
40.0
 49
30.0
 74
     0
 49
-2.5
 74
     0
 49
1.25
 74
     0
 49
-2.5
 74
     0
 49
1.25
 74
     0
 49
-2.5
 74
     0
  0
LTYPE
  5
32
330
5
100
AcDbSymbolTableRecord
100
AcDbLinetypeTableRecord
  2
LONG3
 70
     0
  3
+++++++++++++++..+++++++++++++++
 72
    65
 73
     2
 40
40.0
 49
37.5
 74
     0
 49
-2.5
 74
     0
  0
LTYPE
  5
33
330
5
100
AcDbSymbolTableRecord
100
AcDbLinetypeTableRecord
  2
LONG4
 70
     0
  3
+++++++++++++++..+++++++++++++++
 72
    65
 73
     2
 40
80.0
 49
75.0
 74
     0
 49
-5.0
 74
     0
  0
LTYPE
  5
34
330
5
100
AcDbSymbolTableRecord
100
AcDbLinetypeTableRecord
  2
LONG5
 70
     0
  3
----------  --  ----------  --  
 72
    65
 73
     4
 40
60.0
 49
37.5
 74
     0
 49
-7.5
 74
     0
 49
7.5
 74
     0
 49
-7.5
 74
     0
  0
LTYPE
  5
35
330
5
100
AcDbSymbolTableRecord
100
AcDbLinetypeTableRecord
  2
DASHED
 70
     0
  3
-------   -------------   ------
 72
    65
 73
     2
 40
7.5
 49
6.0
 74
     0
 49
-1.5
 74
     0
  0
LTYPE
  5
36
330
5
100
AcDbSymbolTableRecord
100
AcDbLinetypeTableRecord
  2
DASHED_SPACED
 70
     0
  3
----        --------        ----
 72
    65
 73
     2
 40
12.0
 49
6.0
 74
     0
 49
-6.0
 74
     0
  0
LTYPE
  5
37
330
5
100
AcDbSymbolTableRecord
100
AcDbLinetypeTableRecord
  2
LONG_DASHED_DOTTED
 70
     0
  3
------------- --- --------------
 72
    65
 73
     4
 40
15.25
 49
12.0
 74
     0
 49
-1.5
 74
     0
 49
0.25
 74
     0
 49
-1.5
 74
     0
  0
LTYPE
  5
38
330
5
100
AcDbSymbolTableRecord
100
AcDbLinetypeTableRecord
  2
LONG_DASHED_DOUBLE-DOTTED
 70
     0
  3
----------- --- --- ------------
 72
    65
 73
     6
 40
17.0
 49
12.0
 74
     0
 49
-1.5
 74
     0
 49
0.25
 74
     0
 49
-1.5
 74
     0
 49
0.25
 74
     0
 49
-1.5
 74
     0
  0
LTYPE
  5
39
330
5
100
AcDbSymbolTableRecord
100
AcDbLinetypeTableRecord
  2
LONG_DASHED_TRIPLICATE-DOTTED
 70
     0
  3
--------- --- --- --- ----------
 72
    65
 73
     8
 40
18.75
 49
12.0
 74
     0
 49
-1.5
 74
     0
 49
0.25
 74
     0
 49
-1.5
 74
     0
 49
0.25
 74
     0
 49
-1.5
 74
     0
 49
0.25
 74
     0
 49
-1.5
 74
     0
  0
LTYPE
  5
3A
330
5
100
AcDbSymbolTableRecord
100
AcDbLinetypeTableRecord
  2
DOTTED
 70
     0
  3
   -       -       -       -    
 72
    65
 73
     2
 40
1.75
 49
0.25
 74
     0
 49
-1.5
 74
     0
  0
LTYPE
  5
3B
330
5
100
AcDbSymbolTableRecord
100
AcDbLinetypeTableRecord
  2
CHAIN
 70
     0
  3
-------------- -- --------------
 72
    65
 73
     4
 40
18.5
 49
12.0
 74
     0
 49
-1.5
 74
     0
 49
3.5
 74
     0
 49
-1.5
 74
     0
  0
LTYPE
  5
3C
330
5
100
AcDbSymbolTableRecord
100
AcDbLinetypeTableRecord
  2
CHAIN_DOUBLE_DASH
 70
     0
  3
------------ -- -- -------------
 72
    65
 73
     6
 40
23.5
 49
12.0
 74
     0
 49
-1.5
 74
     0
 49
3.5
 74
     0
 49
-1.5
 74
     0
 49
3.5
 74
     0
 49
-1.5
 74
     0
  0
LTYPE
  5
3D
330
5
100
AcDbSymbolTableRecord
100
AcDbLinetypeTableRecord
  2
DASHED_DOTTED
 70
     0
  3
-----------     -     ----------
 72
    65
 73
     4
 40
9.25
 49
6.0
 74
     0
 49
-1.5
 74
     0
 49
0.25
 74
     0
 49
-1.5
 74
     0
  0
LTYPE
  5
3E
330
5
100
AcDbSymbolTableRecord
100
AcDbLinetypeTableRecord
  2
DOUBLE-DASHED_DOTTED
 70
     0
  3
------   -----------   -   -----
 72
    65
 73
     6
 40
16.75
 49
6.0
 74
     0
 49
-1.5
 74
     0
 49
6.0
 74
     0
 49
-1.5
 74
     0
 49
0.25
 74
     0
 49
-1.5
 74
     0
  0
LTYPE
  5
3F
330
5
100
AcDbSymbolTableRecord
100
AcDbLinetypeTableRecord
  2
DASHED_DOUBLE-DOTTED
 70
     0
  3
---------    -    -    ---------
 72
    65
 73
     6
 40
11.0
 49
6.0
 74
     0
 49
-1.5
 74
     0
 49
0.25
 74
     0
 49
-1.5
 74
     0
 49
0.25
 74
     0
 49
-1.5
 74
     0
  0
LTYPE
  5
40
330
5
100
AcDbSymbolTableRecord
100
AcDbLinetypeTableRecord
  2
DOUBLE-DASHED_DOUBLE-DOTTED
 70
     0
  3
-----   ---------   -   -   ----
 72
    65
 73
     8
 40
18.5
 49
6.0
 74
     0
 49
-1.5
 74
     0
 49
6.0
 74
     0
 49
-1.5
 74
     0
 49
0.25
 74
     0
 49
-1.5
 74
     0
 49
0.25
 74
     0
 49
-1.5
 74
     0
  0
LTYPE
  5
41
330
5
100
AcDbSymbolTableRecord
100
AcDbLinetypeTableRecord
  2
DASHED_TRIPLICATE-DOTTED
 70
     0
  3
-------    -    -    -    ------
 72
    65
 73
     8
 40
12.75
 49
6.0
 74
     0
 49
-1.5
 74
     0
 49
0.25
 74
     0
 49
-1.5
 74
     0
 49
0.25
 74
     0
 49
-1.5
 74
     0
 49
0.25
 74
     0
 49
-1.5
 74
     0
  0
LTYPE
  5
42
330
5
100
AcDbSymbolTableRecord
100
AcDbLinetypeTableRecord
  2
DOUBLE-DASHED_TRIPLICATE-DOTTED
 70
     0
  3
-----  ---------  -  -  -  -----
 72
    65
 73
    10
 40
20.25
 49
6.0
 74
     0
 49
-1.5
 74
     0
 49
6.0
 74
     0
 49
-1.5
 74
     0
 49
0.25
 74
     0
 49
-1.5
 74
     0
 49
0.25
 74
     0
 49
-1.5
 74
     0
 49
0.25
 74
     0
 49
-1.5
 74
     0
  0
LTYPE
  5
43
330
5
100
AcDbSymbolTableRecord
100
AcDbLinetypeTableRecord
  2
UNDEFINED
 70
     0
  3
--------------------------------
 72
    65
 73
     0
 40
0.0
  0
LTYPE
  5
44
330
5
100
AcDbSymbolTableRecord
100
AcDbLinetypeTableRecord
  2
PLINE2
 70
     0
  3
------     -----------     -----
 72
    65
 73
     2
 40
3.0
 49
2.1
 74
     0
 49
-0.9
 74
     0
  0
LTYPE
  5
45
330
5
100
AcDbSymbolTableRecord
100
AcDbLinetypeTableRecord
  2
PLINE3
 70
     0
  3
------------   ---   -----------
 72
    65
 73
     4
 40
10.0
 49
7.0
 74
     0
 49
-1.0
 74
     0
 49
1.0
 74
     0
 49
-1.0
 74
     0
  0
LTYPE
  5
46
330
5
100
AcDbSymbolTableRecord
100
AcDbLinetypeTableRecord
  2
PLINE4
 70
     0
  3
---------   ---   ---   --------
 72
    65
 73
     6
 40
10.0
 49
5.0
 74
     0
 49
-1.0
 74
     0
 49
1.0
 74
     0
 49
-1.0
 74
     0
 49
1.0
 74
     0
 49
-1.0
 74
     0
  0
LTYPE
  5
47
330
5
100
AcDbSymbolTableRecord
100
AcDbLinetypeTableRecord
  2
PLINE5
 70
     0
  3
------     -----------     -----
 72
    65
 73
     2
 40
5.0
 49
3.5
 74
     0
 49
-1.5
 74
     0
  0
LTYPE
  5
48
330
5
100
AcDbSymbolTableRecord
100
AcDbLinetypeTableRecord
  2
PLINE6
 70
     0
  3
------------   ---   -----------
 72
    65
 73
     4
 40
15.0
 49
10.5
 74
     0
 49
-1.5
 74
     0
 49
1.5
 74
     0
 49
-1.5
 74
     0
  0
LTYPE
  5
49
330
5
100
AcDbSymbolTableRecord
100
AcDbLinetypeTableRecord
  2
PLINE7
 70
     0
  3
---------   ---   ---   --------
 72
    65
 73
     6
 40
15.0
 49
7.5
 74
     0
 49
-1.5
 74
     0
 49
1.5
 74
     0
 49
-1.5
 74
     0
 49
1.5
 74
     0
 49
-1.5
 74
     0
  0
LTYPE
  5
4A
330
5
100
AcDbSymbolTableRecord
100
AcDbLinetypeTableRecord
  2
PLINE8
 70
     0
  3
------     -----------     -----
 72
    65
 73
     2
 40
7.0
 49
4.9
 74
     0
 49
-2.1
 74
     0
  0
LTYPE
  5
4B
330
5
100
AcDbSymbolTableRecord
100
AcDbLinetypeTableRecord
  2
PLINE9
 70
     0
  3
------------   ---   -----------
 72
    65
 73
     4
 40
20.0
 49
14.0
 74
     0
 49
-2.0
 74
     0
 49
2.0
 74
     0
 49
-2.0
 74
     0
  0
LTYPE
  5
4C
330
5
100
AcDbSymbolTableRecord
100
AcDbLinetypeTableRecord
  2
PLINE10
 70
     0
  3
---------   ---   ---   --------
 72
    65
 73
     6
 40
20.0
 49
10.0
 74
     0
 49
-2.0
 74
     0
 49
2.0
 74
     0
 49
-2.0
 74
     0
 49
2.0
 74
     0
 49
-2.0
 74
     0
  0
LTYPE
  5
4D
330
5
100
AcDbSymbolTableRecord
100
AcDbLinetypeTableRecord
  2
PLINE11
 70
     0
  3
------     -----------     -----
 72
    65
 73
     2
 40
9.0
 49
6.299999999999999
 74
     0
 49
-2.7
 74
     0
  0
LTYPE
  5
4E
330
5
100
AcDbSymbolTableRecord
100
AcDbLinetypeTableRecord
  2
PLINE12
 70
     0
  3
------------   ---   -----------
 72
    65
 73
     4
 40
25.0
 49
17.5
 74
     0
 49
-2.5
 74
     0
 49
2.5
 74
     0
 49
-2.5
 74
     0
  0
LTYPE
  5
4F
330
5
100
AcDbSymbolTableRecord
100
AcDbLinetypeTableRecord
  2
PLINE13
 70
     0
  3
---------   ---   ---   --------
 72
    65
 73
     6
 40
25.0
 49
12.5
 74
     0
 49
-2.5
 74
     0
 49
2.5
 74
     0
 49
-2.5
 74
     0
 49
2.5
 74
     0
 49
-2.5
 74
     0
  0
LTYPE
  5
50
330
5
100
AcDbSymbolTableRecord
100
AcDbLinetypeTableRecord
  2
PLINE14
 70
     0
  3
------     -----------     -----
 72
    65
 73
     2
 40
11.0
 49
7.7
 74
     0
 49
-3.299999999999999
 74
     0
  0
LTYPE
  5
51
330
5
100
AcDbSymbolTableRecord
100
AcDbLinetypeTableRecord
  2
PLINE15
 70
     0
  3
------------   ---   -----------
 72
    65
 73
     4
 40
30.0
 49
21.0
 74
     0
 49
-3.0
 74
     0
 49
3.0
 74
     0
 49
-3.0
 74
     0
  0
LTYPE
  5
52
330
5
100
AcDbSymbolTableRecord
100
AcDbLinetypeTableRecord
  2
PLINE16
 70
     0
  3
---------   ---   ---   --------
 72
    65
 73
     6
 40
30.0
 49
15.0
 74
     0
 49
-3.0
 74
     0
 49
3.0
 74
     0
 49
-3.0
 74
     0
 49
3.0
 74
     0
 49
-3.0
 74
     0
  0
ENDTAB
  0
TABLE
  2
LAYER
  5
2
102
{ACAD_XDICTIONARY
360
175
102
}
330
0
100
AcDbSymbolTable
 70
     5
  0
LAYER
  5
10
330
2
100
AcDbSymbolTableRecord
100
AcDbLayerTableRecord
  2
0
 70
     0
 62
     7
  6
CONTINUOUS
370
    -3
390
F
  0
LAYER
  5
128
330
2
100
AcDbSymbolTableRecord
100
AcDbLayerTableRecord
  2
Defpoints
 70
     0
 62
     7
  6
CONTINUOUS
290
     0
370
    -3
390
F
  0
LAYER
  5
179
330
2
100
AcDbSymbolTableRecord
100
AcDbLayerTableRecord
  2
製品
 70
     0
 62
     7
  6
CONTINUOUS
370
    -3
390
F
  0
LAYER
  5
6B63
330
2
100
AcDbSymbolTableRecord
100
AcDbLayerTableRecord
  2
寸法
 70
     0
 62
     7
  6
CONTINUOUS
370
    -3
390
F
  0
LAYER
  5
6B64
330
2
100
AcDbSymbolTableRecord
100
AcDbLayerTableRecord
  2
図面枠
 70
     0
 62
     7
  6
CONTINUOUS
370
    -3
390
F
  0
ENDTAB
  0
TABLE
  2
STYLE
  5
3
330
0
100
AcDbSymbolTable
 70
     4
  0
STYLE
  5
11
330
3
100
AcDbSymbolTableRecord
100
AcDbTextStyleTableRecord
  2
STANDARD
 70
     0
 40
0.0
 41
1.0
 50
0.0
 71
     0
 42
0.2
  3
txt
  4
bigfont.shx
  0
STYLE
  5
53
330
3
100
AcDbSymbolTableRecord
100
AcDbTextStyleTableRecord
  2
TATEGAKI
 70
     4
 40
0.0
 41
1.0
 50
0.0
 71
     0
 42
1.0
  3
txt
  4
bigfont.shx
  0
STYLE
  5
123
330
3
100
AcDbSymbolTableRecord
100
AcDbTextStyleTableRecord
  2
ACAD
 70
     0
 40
0.0
 41
0.8
 50
0.0
 71
     0
 42
5.0
  3
romans.shx
  4
extfont.shx
  0
STYLE
  5
3A5F
330
3
100
AcDbSymbolTableRecord
100
AcDbTextStyleTableRecord
  2
VERTXT
 70
     4
 40
0.0
 41
0.8582679999999999
 50
0.0
 71
     0
 42
3.5
  3
txt.shx
  4
BIGFONT
  0
ENDTAB
  0
TABLE
  2
VIEW
  5
6
330
0
100
AcDbSymbolTable
 70
     0
  0
ENDTAB
  0
TABLE
  2
UCS
  5
7
330
0
100
AcDbSymbolTable
 70
     0
  0
ENDTAB
  0
TABLE
  2
APPID
  5
9
330
0
100
AcDbSymbolTable
 70
     1
  0
APPID
  5
12
330
9
100
AcDbSymbolTableRecord
100
AcDbRegAppTableRecord
  2
ACAD
 70
     0
  0
ENDTAB
  0
TABLE
  2
DIMSTYLE
  5
A
330
0
100
AcDbSymbolTable
 70
     3
100
AcDbDimStyleTable
 71
     0
  0
DIMSTYLE
105
11C
330
A
100
AcDbSymbolTableRecord
100
AcDbDimStyleTableRecord
  2
Standard
 70
     0
340
11
  0
DIMSTYLE
105
126
102
{ACAD_REACTORS
330
6C5E
330
6CCA
102
}
330
A
100
AcDbSymbolTableRecord
100
AcDbDimStyleTableRecord
  2
AutoCAD
 70
     0
 41
1.0
 42
0.0
 44
0.0
 73
     0
 77
     1
140
5.0
147
1.0
174
     1
176
     4
177
     4
178
     3
271
     0
272
     0
289
     0
340
123
341
15B0
342
11E
  0
DIMSTYLE
105
2CBB
330
A
100
AcDbSymbolTableRecord
100
AcDbDimStyleTableRecord
  2
111
 70
     0
 41
1.0
 42
0.0
 44
0.0
 73
     0
 77
     1
140
5.0
147
1.0
174
     1
176
     4
177
     4
178
     3
271
     0
272
     0
289
     0
340
123
341
15B0
342
2CB5
  0
ENDTAB
  0
TABLE
  2
BLOCK_RECORD
  5
1
330
0
100
AcDbSymbolTable
 70
     6
  0
BLOCK_RECORD
  5
1E
102
{ACAD_XDICTIONARY
360
28B
102
}
330
1
100
AcDbSymbolTableRecord
100
AcDbBlockTableRecord
  2
*Model_Space
340
21
  0
BLOCK_RECORD
  5
1A
102
{ACAD_XDICTIONARY
360
28D
102
}
330
1
100
AcDbSymbolTableRecord
100
AcDbBlockTableRecord
  2
*Paper_Space
340
1D
  0
BLOCK_RECORD
  5
11E
330
1
100
AcDbSymbolTableRecord
100
AcDbBlockTableRecord
  2
_Dot
340
0
102
{BLKREFS
331
6E93
331
6E94
331
6EC3
331
6EC4
102
}
  0
BLOCK_RECORD
  5
15B0
330
1
100
AcDbSymbolTableRecord
100
AcDbBlockTableRecord
  2
_None
340
0
  0
BLOCK_RECORD
  5
2CB5
330
1
100
AcDbSymbolTableRecord
100
AcDbBlockTableRecord
  2
_Open30
340
0
  0
BLOCK_RECORD
  5
35E3
330
1
100
AcDbSymbolTableRecord
100
AcDbBlockTableRecord
  2
_DotBlank
340
0
  0
BLOCK_RECORD
  5
6D23
330
1
100
AcDbSymbolTableRecord
100
AcDbBlockTableRecord
  2
*D4
340
0
  0
BLOCK_RECORD
  5
6D2F
330
1
100
AcDbSymbolTableRecord
100
AcDbBlockTableRecord
  2
*D5
340
0
  0
ENDTAB
  0
ENDSEC
  0
SECTION
  2
BLOCKS
  0
BLOCK
  5
1F
330
1E
100
AcDbEntity
  8
0
100
AcDbBlockBegin
  2
*Model_Space
 70
     0
 10
0.0
 20
0.0
 30
0.0
  3
*Model_Space
  1

  0
ENDBLK
  5
20
330
1E
100
AcDbEntity
  8
0
100
AcDbBlockEnd
  0
BLOCK
  5
1B
330
1A
100
AcDbEntity
 67
     1
  8
0
100
AcDbBlockBegin
  2
*Paper_Space
 70
     0
 10
0.0
 20
0.0
 30
0.0
  3
*Paper_Space
  1

  0
ENDBLK
  5
1C
330
1A
100
AcDbEntity
 67
     1
  8
0
100
AcDbBlockEnd
  0
BLOCK
  5
121
330
11E
100
AcDbEntity
  8
0
100
AcDbBlockBegin
  2
_Dot
 70
     0
 10
0.0
 20
0.0
 30
0.0
  3
_Dot
  1

  0
LWPOLYLINE
  5
11F
330
11E
100
AcDbEntity
  8
0
  6
ByBlock
 62
     0
100
AcDbPolyline
 90
        2
 70
     1
 43
0.5
 10
-0.25
 20
0.0
 42
1.0
 10
0.25
 20
0.0
 42
1.0
  0
LINE
  5
120
330
11E
100
AcDbEntity
  8
0
  6
ByBlock
 62
     0
370
    -2
100
AcDbLine
 10
-0.5
 20
0.0
 30
0.0
 11
-1.0
 21
0.0
 31
0.0
  0
ENDBLK
  5
122
330
11E
100
AcDbEntity
  8
0
100
AcDbBlockEnd
  0
BLOCK
  5
15B1
330
15B0
100
AcDbEntity
  8
0
100
AcDbBlockBegin
  2
_None
 70
     0
 10
0.0
 20
0.0
 30
0.0
  3
_None
  1

  0
ENDBLK
  5
15B2
330
15B0
100
AcDbEntity
  8
0
100
AcDbBlockEnd
  0
BLOCK
  5
2CB9
330
2CB5
100
AcDbEntity
  8
0
100
AcDbBlockBegin
  2
_Open30
 70
     0
 10
0.0
 20
0.0
 30
0.0
  3
_Open30
  1

  0
LINE
  5
2CB6
330
2CB5
100
AcDbEntity
  8
0
  6
ByBlock
 62
     0
370
    -2
100
AcDbLine
 10
-1.0
 20
0.26794919
 30
0.0
 11
0.0
 21
0.0
 31
0.0
  0
LINE
  5
2CB7
330
2CB5
100
AcDbEntity
  8
0
  6
ByBlock
 62
     0
370
    -2
100
AcDbLine
 10
0.0
 20
0.0
 30
0.0
 11
-1.0
 21
-0.26794919
 31
0.0
  0
LINE
  5
2CB8
330
2CB5
100
AcDbEntity
  8
0
  6
ByBlock
 62
     0
370
    -2
100
AcDbLine
 10
0.0
 20
0.0
 30
0.0
 11
-1.0
 21
0.0
 31
0.0
  0
ENDBLK
  5
2CBA
330
2CB5
100
AcDbEntity
  8
0
100
AcDbBlockEnd
  0
BLOCK
  5
35E6
330
35E3
100
AcDbEntity
  8
0
100
AcDbBlockBegin
  2
_DotBlank
 70
     0
 10
0.0
 20
0.0
 30
0.0
  3
_DotBlank
  1

  0
CIRCLE
  5
35E4
330
35E3
100
AcDbEntity
  8
0
  6
ByBlock
 62
     0
370
    -2
100
AcDbCircle
 10
0.0
 20
0.0
 30
0.0
 40
0.5
  0
LINE
  5
35E5
330
35E3
100
AcDbEntity
  8
0
  6
ByBlock
 62
     0
370
    -2
100
AcDbLine
 10
-0.5
 20
0.0
 30
0.0
 11
-1.0
 21
0.0
 31
0.0
  0
ENDBLK
  5
35E7
330
35E3
100
AcDbEntity
  8
0
100
AcDbBlockEnd
  0
BLOCK
  5
6D2D
330
6D23
100
AcDbEntity
  8
0
100
AcDbBlockBegin
  2
*D4
 70
     1
 10
0.0
 20
0.0
 30
0.0
  3
*D4
  1

  0
LINE
  5
6E8F
330
6D23
100
AcDbEntity
  8
寸法
  6
Continuous
 62
     4
370
    -2
100
AcDbLine
 10
98.21450980016653
 20
197.2152454285544
 30
0.0
 11
98.21450980016653
 21
197.4053933624022
 31
0.0
  0
LINE
  5
6E90
330
6D23
100
AcDbEntity
  8
寸法
  6
Continuous
 62
     4
370
    -2
100
AcDbLine
 10
100.2145098001665
 20
216.2152454285545
 30
0.0
 11
100.2145098001665
 21
197.4053933624022
 31
0.0
  0
LINE
  5
6E91
330
6D23
100
AcDbEntity
  8
寸法
  6
Continuous
 62
     4
370
    -2
100
AcDbLine
 10
97.21450980016653
 20
197.4053933624022
 30
0.0
 11
96.21450980016653
 21
197.4053933624022
 31
0.0
  0
LINE
  5
6E92
330
6D23
100
AcDbEntity
  8
寸法
  6
Continuous
 62
     4
370
    -2
100
AcDbLine
 10
101.2145098001665
 20
197.4053933624022
 30
0.0
 11
112.6716526573094
 21
197.4053933624022
 31
0.0
  0
INSERT
  5
6E93
330
6D23
100
AcDbEntity
  8
寸法
  6
Continuous
 62
     4
370
    -2
100
AcDbBlockReference
  2
_Dot
 10
98.21450980016653
 20
197.4053933624022
 30
0.0
  0
INSERT
  5
6E94
330
6D23
100
AcDbEntity
  8
寸法
  6
Continuous
 62
     4
370
    -2
100
AcDbBlockReference
  2
_Dot
 10
100.2145098001665
 20
197.4053933624022
 30
0.0
 50
180.0
  0
MTEXT
  5
6E95
330
6D23
100
AcDbEntity
  8
寸法
  6
Continuous
 62
     3
100
AcDbMText
 10
108.4430812287379
 20
200.4911076481166
 30
0.0
 40
3.0
 41
0.0
 71
     5
 72
     1
  1
\A1;(10)
  7
ACAD
 73
     1
 44
1.0
1001
ACAD
1000
MTEXTBEGIN
1070
    73
1070
     1
1070
    44
1040
1.0
1070
    74
1070
     0
1000
MTEXTEND
  0
POINT
  5
6E96
330
6D23
100
AcDbEntity
  8
Defpoints
  6
Continuous
 62
     0
100
AcDbPoint
 10
98.21450980016653
 20
197.2152454285544
 30
0.0
  0
POINT
  5
6E97
330
6D23
100
AcDbEntity
  8
Defpoints
  6
Continuous
 62
     0
100
AcDbPoint
 10
100.2145098001665
 20
216.2152454285545
 30
0.0
  0
POINT
  5
6E98
330
6D23
100
AcDbEntity
  8
Defpoints
  6
Continuous
 62
     0
100
AcDbPoint
 10
100.2145098001665
 20
197.4053933624022
 30
0.0
  0
ENDBLK
  5
6D2E
330
6D23
100
AcDbEntity
  8
0
100
AcDbBlockEnd
  0
BLOCK
  5
6D39
330
6D2F
100
AcDbEntity
  8
0
100
AcDbBlockBegin
  2
*D5
 70
     1
 10
0.0
 20
0.0
 30
0.0
  3
*D5
  1

  0
LINE
  5
6EBF
330
6D2F
100
AcDbEntity
  8
寸法
  6
Continuous
 62
     4
370
    -2
100
AcDbLine
 10
178.1248788001667
 20
214.2152454285545
 30
0.0
 11
178.1248788001667
 21
197.4053933624022
 31
0.0
  0
LINE
  5
6EC0
330
6D2F
100
AcDbEntity
  8
寸法
  6
Continuous
 62
     4
370
    -2
100
AcDbLine
 10
176.1248788001667
 20
195.2152454285544
 30
0.0
 11
176.1248788001667
 21
197.4053933624022
 31
0.0
  0
LINE
  5
6EC1
330
6D2F
100
AcDbEntity
  8
寸法
  6
Continuous
 62
     4
370
    -2
100
AcDbLine
 10
175.1248788001667
 20
197.4053933624022
 30
0.0
 11
174.1248788001667
 21
197.4053933624022
 31
0.0
  0
LINE
  5
6EC2
330
6D2F
100
AcDbEntity
  8
寸法
  6
Continuous
 62
     4
370
    -2
100
AcDbLine
 10
179.1248788001667
 20
197.4053933624022
 30
0.0
 11
188.5820216573095
 21
197.4053933624022
 31
0.0
  0
INSERT
  5
6EC3
330
6D2F
100
AcDbEntity
  8
寸法
  6
Continuous
 62
     4
370
    -2
100
AcDbBlockReference
  2
_Dot
 10
176.1248788001667
 20
197.4053933624022
 30
0.0
  0
INSERT
  5
6EC4
330
6D2F
100
AcDbEntity
  8
寸法
  6
Continuous
 62
     4
370
    -2
100
AcDbBlockReference
  2
_Dot
 10
178.1248788001667
 20
197.4053933624022
 30
0.0
 50
180.0
  0
MTEXT
  5
6EC5
330
6D2F
100
AcDbEntity
  8
寸法
  6
Continuous
 62
     3
100
AcDbMText
 10
184.3534502287381
 20
200.4911076481166
 30
0.0
 40
3.0
 41
0.0
 71
     5
 72
     1
  1
\A1;(10)
  7
ACAD
 73
     1
 44
1.0
1001
ACAD
1000
MTEXTBEGIN
1070
    73
1070
     1
1070
    44
1040
1.0
1070
    74
1070
     0
1000
MTEXTEND
  0
POINT
  5
6EC6
330
6D2F
100
AcDbEntity
  8
Defpoints
  6
Continuous
 62
     0
100
AcDbPoint
 10
178.1248788001667
 20
214.2152454285545
 30
0.0
  0
POINT
  5
6EC7
330
6D2F
100
AcDbEntity
  8
Defpoints
  6
Continuous
 62
     0
100
AcDbPoint
 10
176.1248788001667
 20
195.2152454285544
 30
0.0
  0
POINT
  5
6EC8
330
6D2F
100
AcDbEntity
  8
Defpoints
  6
Continuous
 62
     0
100
AcDbPoint
 10
176.1248788001667
 20
197.4053933624022
 30
0.0
  0
ENDBLK
  5
6D3A
330
6D2F
100
AcDbEntity
  8
0
100
AcDbBlockEnd
  0
ENDSEC
  0
SECTION
  2
ENTITIES
  0
LINE
  5
6C46
330
1E
100
AcDbEntity
  8
製品
  6
Continuous
 62
     4
100
AcDbLine
 10
222.1248788001667
 20
223.0152454285542
 30
0.0
 11
172.7248788001666
 21
223.0152454285542
 31
0.0
  0
LINE
  5
6C47
330
1E
100
AcDbEntity
  8
製品
  6
Continuous
 62
     4
100
AcDbLine
 10
172.7248788001666
 20
230.6152454285546
 30
0.0
 11
222.1248788001667
 21
230.6152454285546
 31
0.0
  0
LINE
  5
6C48
330
1E
100
AcDbEntity
  8
製品
  6
Continuous
 62
     4
100
AcDbLine
 10
176.1248788001667
 20
217.2152454285544
 30
0.0
 11
222.1248788001667
 21
217.2152454285544
 31
0.0
  0
LINE
  5
6C49
330
1E
100
AcDbEntity
  8
製品
  6
Continuous
 62
     4
100
AcDbLine
 10
178.1248788001667
 20
219.2152454285544
 30
0.0
 11
222.1248788001667
 21
219.2152454285544
 31
0.0
  0
LINE
  5
6C4A
330
1E
100
AcDbEntity
  8
製品
  6
Continuous
 62
     4
100
AcDbLine
 10
178.1248788001667
 20
215.2152454285545
 30
0.0
 11
222.1248788001667
 21
215.2152454285545
 31
0.0
  0
LINE
  5
6C4B
330
1E
100
AcDbEntity
  8
図面枠
  6
Continuous
 62
     2
100
AcDbLine
 10
183.4757308001667
 20
205.2152454285545
 30
0.0
 11
204.5457308001664
 21
205.2152454285545
 31
0.0
  0
TEXT
  5
6C4C
330
1E
100
AcDbEntity
  8
図面枠
  6
Continuous
 62
     2
100
AcDbText
 10
183.4757378001668
 20
206.2152544285543
 30
0.0
 40
3.0
  1
テープ又は塗装
 50
0.0000100000010064
 41
0.8
  7
ACAD
100
AcDbText
  0
LINE
  5
6C4D
330
1E
100
AcDbEntity
  8
製品
  6
Continuous
 62
     4
100
AcDbLine
 10
144.2145098001665
 20
223.0152454285542
 30
0.0
 11
94.81450980016644
 21
223.0152454285542
 31
0.0
  0
LINE
  5
6C4E
330
1E
100
AcDbEntity
  8
製品
  6
Continuous
 62
     4
100
AcDbLine
 10
94.81450980016644
 20
230.6152454285546
 30
0.0
 11
144.2145098001665
 21
230.6152454285546
 31
0.0
  0
LINE
  5
6C4F
330
1E
100
AcDbEntity
  8
製品
  6
Continuous
 62
     4
100
AcDbLine
 10
100.2145098001665
 20
217.2152454285544
 30
0.0
 11
144.2145098001665
 21
217.2152454285544
 31
0.0
  0
LINE
  5
6C50
330
1E
100
AcDbEntity
  8
製品
  6
Continuous
 62
     4
100
AcDbLine
 10
100.2145098001665
 20
219.2152454285544
 30
0.0
 11
144.2145098001665
 21
219.2152454285544
 31
0.0
  0
LINE
  5
6C51
330
1E
100
AcDbEntity
  8
図面枠
  6
Continuous
 62
     2
100
AcDbLine
 10
105.5653628001664
 20
207.2152454285545
 30
0.0
 11
126.6353628001666
 21
207.2152454285545
 31
0.0
  0
TEXT
  5
6C52
330
1E
100
AcDbEntity
  8
図面枠
  6
Continuous
 62
     2
100
AcDbText
 10
105.5653608001666
 20
208.2152544285543
 30
0.0
 40
3.0
  1
テープ又は塗装
 50
0.0000100000010064
 41
0.8
  7
ACAD
100
AcDbText
  0
LINE
  5
6C53
330
1E
100
AcDbEntity
  8
製品
  6
Continuous
 62
     2
100
AcDbLine
 10
84.21450980016652
 20
224.2284494285543
 30
0.0
 11
93.00130580016684
 21
233.0152454285542
 31
0.0
  0
LINE
  5
6C54
330
1E
100
AcDbEntity
  8
製品
  6
Continuous
 62
     2
100
AcDbLine
 10
84.21450980016652
 20
222.8142354285544
 30
0.0
 11
94.21450980016652
 21
232.8142354285544
 31
0.0
  0
LINE
  5
6C55
330
1E
100
AcDbEntity
  8
製品
  6
Continuous
 62
     2
100
AcDbLine
 10
84.21450980016652
 20
225.6426624285543
 30
0.0
 11
91.58709280016683
 21
233.0152454285542
 31
0.0
  0
LINE
  5
6C56
330
1E
100
AcDbEntity
  8
製品
  6
Continuous
 62
     4
100
AcDbLine
 10
94.81450980016644
 20
230.6152454285546
 30
0.0
 11
94.81450980016644
 21
223.0152454285542
 31
0.0
  0
LINE
  5
6C57
330
1E
100
AcDbEntity
  8
製品
  6
Continuous
 62
     4
100
AcDbLine
 10
94.21450980016652
 20
233.0152454285542
 30
0.0
 11
94.21450980016652
 21
183.0152454285542
 31
0.0
  0
LINE
  5
6C58
330
1E
100
AcDbEntity
  8
製品
  6
Continuous
 62
     2
100
AcDbLine
 10
84.21450980016652
 20
201.6010324285542
 30
0.0
 11
94.21450980016652
 21
211.6010324285542
 31
0.0
  0
LINE
  5
6C59
330
1E
100
AcDbEntity
  8
製品
  6
Continuous
 62
     2
100
AcDbLine
 10
84.21450980016652
 20
204.4294594285545
 30
0.0
 11
94.21450980016652
 21
214.4294594285546
 31
0.0
  0
LINE
  5
6C5A
330
1E
100
AcDbEntity
  8
製品
  6
Continuous
 62
     2
100
AcDbLine
 10
84.21450980016652
 20
203.0152454285542
 30
0.0
 11
94.21450980016652
 21
213.0152454285542
 31
0.0
  0
LINE
  5
6C5B
330
1E
100
AcDbEntity
  8
製品
  6
Continuous
 62
     2
100
AcDbLine
 10
86.84192680016668
 20
183.0152454285542
 30
0.0
 11
94.21450980016652
 21
190.3878284285545
 31
0.0
  0
LINE
  5
6C5C
330
1E
100
AcDbEntity
  8
製品
  6
Continuous
 62
     2
100
AcDbLine
 10
84.01349880016686
 20
183.0152454285542
 30
0.0
 11
94.21450980016652
 21
193.2162554285544
 31
0.0
  0
LINE
  5
6C5D
330
1E
100
AcDbEntity
  8
製品
  6
Continuous
 62
     2
100
AcDbLine
 10
85.42771280016678
 20
183.0152454285542
 30
0.0
 11
94.21450980016652
 21
191.8020424285544
 31
0.0
  0
DIMENSION
  5
6C5E
330
1E
100
AcDbEntity
  8
寸法
  6
Continuous
100
AcDbDimension
  2
*D4
 10
100.2145098001665
 20
197.4053933624022
 30
0.0
 11
108.4430812287379
 21
197.4053933624022
 31
0.0
 70
   160
  1
(10)
 71
     5
 42
2.0
  3
AutoCAD
100
AcDbAlignedDimension
 13
98.21450980016653
 23
197.2152454285544
 33
0.0
 14
100.2145098001665
 24
216.2152454285545
 34
0.0
100
AcDbRotatedDimension
1001
ACAD
1000
DSTYLE
1002
{
1070
   147
1040
0.8
1070
   140
1040
3.0
1002
}
  0
ARC
  5
6C5F
330
1E
100
AcDbEntity
  8
製品
  6
Continuous
 62
     2
100
AcDbCircle
 10
106.9145098001668
 20
222.7152454285544
 30
0.0
 40
0.2
100
AcDbArc
 50
0.0
 51
90.0
  0
LINE
  5
6C60
330
1E
100
AcDbEntity
  8
製品
  6
Continuous
 62
     2
100
AcDbLine
 10
106.9145098001668
 20
222.9152454285543
 30
0.0
 11
106.7145098001665
 21
222.9152454285543
 31
0.0
  0
ARC
  5
6C61
330
1E
100
AcDbEntity
  8
製品
  6
Continuous
 62
     2
100
AcDbCircle
 10
106.7145098001665
 20
222.7152454285544
 30
0.0
 40
0.2
100
AcDbArc
 50
90.0
 51
180.0
  0
LINE
  5
6C62
330
1E
100
AcDbEntity
  8
製品
  6
Continuous
 62
     2
100
AcDbLine
 10
106.5145098001667
 20
222.7152454285544
 30
0.0
 11
106.5145098001667
 21
222.4152454285543
 31
0.0
  0
LINE
  5
6C63
330
1E
100
AcDbEntity
  8
製品
  6
Continuous
 62
     2
100
AcDbLine
 10
106.5145098001667
 20
222.4152454285543
 30
0.0
 11
106.4145098001668
 21
222.4152454285543
 31
0.0
  0
LINE
  5
6C64
330
1E
100
AcDbEntity
  8
製品
  6
Continuous
 62
     2
100
AcDbLine
 10
106.4145098001668
 20
222.4152454285543
 30
0.0
 11
106.4145098001668
 21
222.7152454285544
 31
0.0
  0
ARC
  5
6C65
330
1E
100
AcDbEntity
  8
製品
  6
Continuous
 62
     2
100
AcDbCircle
 10
106.9145098001668
 20
222.7152454285544
 30
0.0
 40
0.3
100
AcDbArc
 50
0.0
 51
90.0
  0
ARC
  5
6C66
330
1E
100
AcDbEntity
  8
製品
  6
Continuous
 62
     2
100
AcDbCircle
 10
106.7145098001665
 20
222.7152454285544
 30
0.0
 40
0.3
100
AcDbArc
 50
90.0
 51
180.0
  0
ARC
  5
6C67
330
1E
100
AcDbEntity
  8
製品
  6
Continuous
 62
     2
100
AcDbCircle
 10
106.6145098001666
 20
219.8152454285544
 30
0.0
 40
0.6
100
AcDbArc
 50
270.0
 51
0.0
  0
ARC
  5
6C68
330
1E
100
AcDbEntity
  8
製品
  6
Continuous
 62
     2
100
AcDbCircle
 10
106.6145098001666
 20
219.8152454285544
 30
0.0
 40
0.5
100
AcDbArc
 50
270.0
 51
0.0
  0
LINE
  5
6C69
330
1E
100
AcDbEntity
  8
製品
  6
Continuous
 62
     2
100
AcDbLine
 10
106.0145098001667
 20
219.3152454285544
 30
0.0
 11
105.8145098001664
 21
219.4152454285543
 31
0.0
  0
LINE
  5
6C6A
330
1E
100
AcDbEntity
  8
製品
  6
Continuous
 62
     2
100
AcDbLine
 10
105.8145098001664
 20
219.4152454285543
 30
0.0
 11
105.5145098001667
 21
219.3152454285544
 31
0.0
  0
LINE
  5
6C6B
330
1E
100
AcDbEntity
  8
製品
  6
Continuous
 62
     2
100
AcDbLine
 10
105.5145098001667
 20
219.3152454285544
 30
0.0
 11
105.2145098001665
 21
219.4152454285543
 31
0.0
  0
LINE
  5
6C6C
330
1E
100
AcDbEntity
  8
製品
  6
Continuous
 62
     2
100
AcDbLine
 10
105.2145098001665
 20
219.4152454285543
 30
0.0
 11
104.9145098001668
 21
219.3152454285544
 31
0.0
  0
LINE
  5
6C6D
330
1E
100
AcDbEntity
  8
製品
  6
Continuous
 62
     2
100
AcDbLine
 10
104.9145098001668
 20
219.3152454285544
 30
0.0
 11
104.6145098001666
 21
219.4152454285543
 31
0.0
  0
LINE
  5
6C6E
330
1E
100
AcDbEntity
  8
製品
  6
Continuous
 62
     2
100
AcDbLine
 10
104.6145098001666
 20
219.4152454285543
 30
0.0
 11
104.3145098001664
 21
219.3152454285544
 31
0.0
  0
LINE
  5
6C6F
330
1E
100
AcDbEntity
  8
製品
  6
Continuous
 62
     2
100
AcDbLine
 10
104.3145098001664
 20
219.3152454285544
 30
0.0
 11
104.0145098001667
 21
219.4152454285543
 31
0.0
  0
LINE
  5
6C70
330
1E
100
AcDbEntity
  8
製品
  6
Continuous
 62
     2
100
AcDbLine
 10
106.0145098001667
 20
219.2152454285544
 30
0.0
 11
105.8145098001664
 21
219.3152454285544
 31
0.0
  0
LINE
  5
6C71
330
1E
100
AcDbEntity
  8
製品
  6
Continuous
 62
     2
100
AcDbLine
 10
105.8145098001664
 20
219.3152454285544
 30
0.0
 11
105.5145098001667
 21
219.2152454285544
 31
0.0
  0
LINE
  5
6C72
330
1E
100
AcDbEntity
  8
製品
  6
Continuous
 62
     2
100
AcDbLine
 10
105.5145098001667
 20
219.2152454285544
 30
0.0
 11
105.2145098001665
 21
219.3152454285544
 31
0.0
  0
LINE
  5
6C73
330
1E
100
AcDbEntity
  8
製品
  6
Continuous
 62
     2
100
AcDbLine
 10
105.2145098001665
 20
219.3152454285544
 30
0.0
 11
104.9145098001668
 21
219.2152454285544
 31
0.0
  0
LINE
  5
6C74
330
1E
100
AcDbEntity
  8
製品
  6
Continuous
 62
     2
100
AcDbLine
 10
104.9145098001668
 20
219.2152454285544
 30
0.0
 11
104.6145098001666
 21
219.3152454285544
 31
0.0
  0
LINE
  5
6C75
330
1E
100
AcDbEntity
  8
製品
  6
Continuous
 62
     2
100
AcDbLine
 10
104.6145098001666
 20
219.3152454285544
 30
0.0
 11
104.3145098001664
 21
219.2152454285544
 31
0.0
  0
LINE
  5
6C76
330
1E
100
AcDbEntity
  8
製品
  6
Continuous
 62
     2
100
AcDbLine
 10
104.3145098001664
 20
219.2152454285544
 30
0.0
 11
104.0145098001667
 21
219.3152454285544
 31
0.0
  0
LINE
  5
6C77
330
1E
100
AcDbEntity
  8
製品
  6
Continuous
 62
     2
100
AcDbLine
 10
103.7145098001665
 20
219.3152454285544
 30
0.0
 11
103.4145098001668
 21
219.4152454285543
 31
0.0
  0
LINE
  5
6C78
330
1E
100
AcDbEntity
  8
製品
  6
Continuous
 62
     2
100
AcDbLine
 10
103.4145098001668
 20
219.4152454285543
 30
0.0
 11
103.2145098001665
 21
219.3152454285544
 31
0.0
  0
LINE
  5
6C79
330
1E
100
AcDbEntity
  8
製品
  6
Continuous
 62
     2
100
AcDbLine
 10
103.2145098001665
 20
219.3152454285544
 30
0.0
 11
102.4145098001668
 21
219.3152454285544
 31
0.0
  0
LINE
  5
6C7A
330
1E
100
AcDbEntity
  8
製品
  6
Continuous
 62
     2
100
AcDbLine
 10
102.4145098001668
 20
219.3152454285544
 30
0.0
 11
102.2145098001665
 21
219.4152454285543
 31
0.0
  0
LINE
  5
6C7B
330
1E
100
AcDbEntity
  8
製品
  6
Continuous
 62
     2
100
AcDbLine
 10
103.7145098001665
 20
219.2152454285544
 30
0.0
 11
103.4145098001668
 21
219.3152454285544
 31
0.0
  0
LINE
  5
6C7C
330
1E
100
AcDbEntity
  8
製品
  6
Continuous
 62
     2
100
AcDbLine
 10
103.4145098001668
 20
219.3152454285544
 30
0.0
 11
103.2145098001665
 21
219.2152454285544
 31
0.0
  0
LINE
  5
6C7D
330
1E
100
AcDbEntity
  8
製品
  6
Continuous
 62
     2
100
AcDbLine
 10
103.2145098001665
 20
219.2152454285544
 30
0.0
 11
102.4145098001668
 21
219.2152454285544
 31
0.0
  0
LINE
  5
6C7E
330
1E
100
AcDbEntity
  8
製品
  6
Continuous
 62
     2
100
AcDbLine
 10
102.4145098001668
 20
219.2152454285544
 30
0.0
 11
102.2145098001665
 21
219.3152454285544
 31
0.0
  0
LINE
  5
6C7F
330
1E
100
AcDbEntity
  8
製品
  6
Continuous
 62
     2
100
AcDbLine
 10
101.2145098001665
 20
219.3152454285544
 30
0.0
 11
102.0145098001667
 21
219.3152454285544
 31
0.0
  0
LINE
  5
6C80
330
1E
100
AcDbEntity
  8
製品
  6
Continuous
 62
     2
100
AcDbLine
 10
102.0145098001667
 20
219.3152454285544
 30
0.0
 11
102.2145098001665
 21
219.4152454285543
 31
0.0
  0
LINE
  5
6C81
330
1E
100
AcDbEntity
  8
製品
  6
Continuous
 62
     2
100
AcDbLine
 10
101.2145098001665
 20
219.2152454285544
 30
0.0
 11
102.0145098001667
 21
219.2152454285544
 31
0.0
  0
LINE
  5
6C82
330
1E
100
AcDbEntity
  8
製品
  6
Continuous
 62
     2
100
AcDbLine
 10
102.0145098001667
 20
219.2152454285544
 30
0.0
 11
102.2145098001665
 21
219.3152454285544
 31
0.0
  0
LINE
  5
6C83
330
1E
100
AcDbEntity
  8
製品
  6
Continuous
 62
     2
100
AcDbLine
 10
104.0145098001667
 20
219.4152454285543
 30
0.0
 11
103.7145098001665
 21
219.3152454285544
 31
0.0
  0
LINE
  5
6C84
330
1E
100
AcDbEntity
  8
製品
  6
Continuous
 62
     2
100
AcDbLine
 10
104.0145098001667
 20
219.3152454285544
 30
0.0
 11
103.7145098001665
 21
219.2152454285544
 31
0.0
  0
LINE
  5
6C85
330
1E
100
AcDbEntity
  8
製品
  6
Continuous
 62
     2
100
AcDbLine
 10
106.6145098001666
 20
219.2152454285544
 30
0.0
 11
106.0145098001667
 21
219.2152454285544
 31
0.0
  0
LINE
  5
6C86
330
1E
100
AcDbEntity
  8
製品
  6
Continuous
 62
     2
100
AcDbLine
 10
106.6145098001666
 20
219.3152454285544
 30
0.0
 11
106.0145098001667
 21
219.3152454285544
 31
0.0
  0
LINE
  5
6C87
330
1E
100
AcDbEntity
  8
製品
  6
Continuous
 62
     2
100
AcDbLine
 10
107.1145098001666
 20
219.8152454285544
 30
0.0
 11
107.1145098001666
 21
222.7152454285544
 31
0.0
  0
LINE
  5
6C88
330
1E
100
AcDbEntity
  8
製品
  6
Continuous
 62
     2
100
AcDbLine
 10
107.2145098001665
 20
219.8152454285544
 30
0.0
 11
107.2145098001665
 21
222.7152454285544
 31
0.0
  0
ARC
  5
6C89
330
1E
100
AcDbEntity
  8
製品
  6
Continuous
 62
     2
100
AcDbCircle
 10
97.5145098001667
 20
222.7152454285544
 30
0.0
 40
0.2
100
AcDbArc
 50
90.0
 51
180.0
  0
LINE
  5
6C8A
330
1E
100
AcDbEntity
  8
製品
  6
Continuous
 62
     2
100
AcDbLine
 10
97.5145098001667
 20
222.9152454285543
 30
0.0
 11
97.71450980016652
 21
222.9152454285543
 31
0.0
  0
ARC
  5
6C8B
330
1E
100
AcDbEntity
  8
製品
  6
Continuous
 62
     2
100
AcDbCircle
 10
97.71450980016652
 20
222.7152454285544
 30
0.0
 40
0.2
100
AcDbArc
 50
0.0
 51
90.0
  0
LINE
  5
6C8C
330
1E
100
AcDbEntity
  8
製品
  6
Continuous
 62
     2
100
AcDbLine
 10
97.9145098001668
 20
222.7152454285544
 30
0.0
 11
97.9145098001668
 21
222.4152454285543
 31
0.0
  0
LINE
  5
6C8D
330
1E
100
AcDbEntity
  8
製品
  6
Continuous
 62
     2
100
AcDbLine
 10
97.9145098001668
 20
222.4152454285543
 30
0.0
 11
98.01450980016671
 21
222.4152454285543
 31
0.0
  0
LINE
  5
6C8E
330
1E
100
AcDbEntity
  8
製品
  6
Continuous
 62
     2
100
AcDbLine
 10
98.01450980016671
 20
222.4152454285543
 30
0.0
 11
98.01450980016671
 21
222.7152454285544
 31
0.0
  0
ARC
  5
6C8F
330
1E
100
AcDbEntity
  8
製品
  6
Continuous
 62
     2
100
AcDbCircle
 10
97.71450980016652
 20
222.7152454285544
 30
0.0
 40
0.3
100
AcDbArc
 50
0.0
 51
90.0
  0
ARC
  5
6C90
330
1E
100
AcDbEntity
  8
製品
  6
Continuous
 62
     2
100
AcDbCircle
 10
97.5145098001667
 20
222.7152454285544
 30
0.0
 40
0.3
100
AcDbArc
 50
90.0
 51
180.0
  0
LINE
  5
6C91
330
1E
100
AcDbEntity
  8
製品
  6
Continuous
 62
     2
100
AcDbLine
 10
101.0145098001667
 20
219.4152454285543
 30
0.0
 11
100.7145098001665
 21
219.3152454285544
 31
0.0
  0
LINE
  5
6C92
330
1E
100
AcDbEntity
  8
製品
  6
Continuous
 62
     2
100
AcDbLine
 10
100.7145098001665
 20
219.3152454285544
 30
0.0
 11
100.4145098001668
 21
219.4152454285543
 31
0.0
  0
LINE
  5
6C93
330
1E
100
AcDbEntity
  8
製品
  6
Continuous
 62
     2
100
AcDbLine
 10
100.4145098001668
 20
219.4152454285543
 30
0.0
 11
100.1145098001666
 21
219.3152454285544
 31
0.0
  0
LINE
  5
6C94
330
1E
100
AcDbEntity
  8
製品
  6
Continuous
 62
     2
100
AcDbLine
 10
100.1145098001666
 20
219.3152454285544
 30
0.0
 11
99.81450980016644
 21
219.4152454285543
 31
0.0
  0
LINE
  5
6C95
330
1E
100
AcDbEntity
  8
製品
  6
Continuous
 62
     2
100
AcDbLine
 10
99.81450980016644
 20
219.4152454285543
 30
0.0
 11
99.51450980016671
 21
219.3152454285544
 31
0.0
  0
LINE
  5
6C96
330
1E
100
AcDbEntity
  8
製品
  6
Continuous
 62
     2
100
AcDbLine
 10
99.51450980016671
 20
219.3152454285544
 30
0.0
 11
99.21450980016652
 21
219.4152454285543
 31
0.0
  0
LINE
  5
6C97
330
1E
100
AcDbEntity
  8
製品
  6
Continuous
 62
     2
100
AcDbLine
 10
99.21450980016652
 20
219.4152454285543
 30
0.0
 11
98.9145098001668
 21
219.3152454285544
 31
0.0
  0
LINE
  5
6C98
330
1E
100
AcDbEntity
  8
製品
  6
Continuous
 62
     2
100
AcDbLine
 10
101.0145098001667
 20
219.3152454285544
 30
0.0
 11
100.7145098001665
 21
219.2152454285544
 31
0.0
  0
LINE
  5
6C99
330
1E
100
AcDbEntity
  8
製品
  6
Continuous
 62
     2
100
AcDbLine
 10
100.7145098001665
 20
219.2152454285544
 30
0.0
 11
100.4145098001668
 21
219.3152454285544
 31
0.0
  0
LINE
  5
6C9A
330
1E
100
AcDbEntity
  8
製品
  6
Continuous
 62
     2
100
AcDbLine
 10
100.4145098001668
 20
219.3152454285544
 30
0.0
 11
100.1145098001666
 21
219.2152454285544
 31
0.0
  0
LINE
  5
6C9B
330
1E
100
AcDbEntity
  8
製品
  6
Continuous
 62
     2
100
AcDbLine
 10
100.1145098001666
 20
219.2152454285544
 30
0.0
 11
99.81450980016644
 21
219.3152454285544
 31
0.0
  0
LINE
  5
6C9C
330
1E
100
AcDbEntity
  8
製品
  6
Continuous
 62
     2
100
AcDbLine
 10
99.81450980016644
 20
219.3152454285544
 30
0.0
 11
99.51450980016671
 21
219.2152454285544
 31
0.0
  0
LINE
  5
6C9D
330
1E
100
AcDbEntity
  8
製品
  6
Continuous
 62
     2
100
AcDbLine
 10
99.51450980016671
 20
219.2152454285544
 30
0.0
 11
99.21450980016652
 21
219.3152454285544
 31
0.0
  0
LINE
  5
6C9E
330
1E
100
AcDbEntity
  8
製品
  6
Continuous
 62
     2
100
AcDbLine
 10
99.21450980016652
 20
219.3152454285544
 30
0.0
 11
98.9145098001668
 21
219.2152454285544
 31
0.0
  0
LINE
  5
6C9F
330
1E
100
AcDbEntity
  8
製品
  6
Continuous
 62
     2
100
AcDbLine
 10
98.9145098001668
 20
219.3152454285544
 30
0.0
 11
98.61450980016662
 21
219.4152454285543
 31
0.0
  0
LINE
  5
6CA0
330
1E
100
AcDbEntity
  8
製品
  6
Continuous
 62
     2
100
AcDbLine
 10
98.9145098001668
 20
219.2152454285544
 30
0.0
 11
98.61450980016662
 21
219.3152454285544
 31
0.0
  0
LINE
  5
6CA1
330
1E
100
AcDbEntity
  8
製品
  6
Continuous
 62
     2
100
AcDbLine
 10
97.81450980016643
 20
219.2152454285544
 30
0.0
 11
98.41450980016681
 21
219.2152454285544
 31
0.0
  0
ARC
  5
6CA2
330
1E
100
AcDbEntity
  8
製品
  6
Continuous
 62
     2
100
AcDbCircle
 10
97.81450980016643
 20
219.8152454285544
 30
0.0
 40
0.6
100
AcDbArc
 50
180.0
 51
270.0
  0
LINE
  5
6CA3
330
1E
100
AcDbEntity
  8
製品
  6
Continuous
 62
     2
100
AcDbLine
 10
97.81450980016643
 20
219.3152454285544
 30
0.0
 11
98.41450980016681
 21
219.3152454285544
 31
0.0
  0
ARC
  5
6CA4
330
1E
100
AcDbEntity
  8
製品
  6
Continuous
 62
     2
100
AcDbCircle
 10
97.81450980016643
 20
219.8152454285544
 30
0.0
 40
0.5
100
AcDbArc
 50
180.0
 51
270.0
  0
CIRCLE
  5
6CA5
330
1E
100
AcDbEntity
  8
製品
  6
Continuous
 62
     4
100
AcDbCircle
 10
96.49013980016661
 20
220.3594434285544
 30
0.0
 40
0.2
  0
LINE
  5
6CA6
330
1E
100
AcDbEntity
  8
製品
  6
Continuous
 62
     2
100
AcDbLine
 10
98.61450980016662
 20
219.4152454285543
 30
0.0
 11
98.41450980016681
 21
219.3152454285544
 31
0.0
  0
LINE
  5
6CA7
330
1E
100
AcDbEntity
  8
製品
  6
Continuous
 62
     2
100
AcDbLine
 10
98.61450980016662
 20
219.3152454285544
 30
0.0
 11
98.41450980016681
 21
219.2152454285544
 31
0.0
  0
CIRCLE
  5
6CA8
330
1E
100
AcDbEntity
  8
図面枠
  6
Continuous
 62
     2
100
AcDbCircle
 10
99.21450980016652
 20
218.2152454285545
 30
0.0
 40
0.3
  0
CIRCLE
  5
6CA9
330
1E
100
AcDbEntity
  8
製品
  6
Continuous
 62
     4
100
AcDbCircle
 10
97.09702880016676
 20
218.0619354285543
 30
0.0
 40
0.2
  0
LINE
  5
6CAA
330
1E
100
AcDbEntity
  8
製品
  6
Continuous
 62
     4
100
AcDbLine
 10
100.2145098001665
 20
219.2152454285544
 30
0.0
 11
100.2145098001665
 21
217.2152454285544
 31
0.0
  0
CIRCLE
  5
6CAB
330
1E
100
AcDbEntity
  8
製品
  6
Continuous
 62
     4
100
AcDbCircle
 10
95.0162668001667
 20
220.9229834285545
 30
0.0
 40
0.2
  0
CIRCLE
  5
6CAC
330
1E
100
AcDbEntity
  8
製品
  6
Continuous
 62
     4
100
AcDbCircle
 10
95.23301280016676
 20
215.3742844285546
 30
0.0
 40
0.2
  0
CIRCLE
  5
6CAD
330
1E
100
AcDbEntity
  8
製品
  6
Continuous
 62
     4
100
AcDbCircle
 10
95.96994980016644
 20
217.1949514285545
 30
0.0
 40
0.2
  0
LINE
  5
6CAE
330
1E
100
AcDbEntity
  8
製品
  6
Continuous
 62
     2
100
AcDbLine
 10
97.21450980016653
 20
219.8152454285544
 30
0.0
 11
97.21450980016653
 21
222.7152454285544
 31
0.0
  0
LINE
  5
6CAF
330
1E
100
AcDbEntity
  8
製品
  6
Continuous
 62
     2
100
AcDbLine
 10
97.31450980016644
 20
219.8152454285544
 30
0.0
 11
97.31450980016644
 21
222.7152454285544
 31
0.0
  0
ARC
  5
6CB0
330
1E
100
AcDbEntity
  8
製品
  6
Continuous
 62
     4
100
AcDbCircle
 10
97.21450980016653
 20
214.7152454285544
 30
0.0
 40
8.0
100
AcDbArc
 50
90.0
 51
112.0243129999989
  0
LINE
  5
6CB1
330
1E
100
AcDbEntity
  8
製品
  6
Continuous
 62
     2
100
AcDbLine
 10
101.2145098001665
 20
219.3152454285544
 30
0.0
 11
101.0145098001667
 21
219.4152454285543
 31
0.0
  0
LINE
  5
6CB2
330
1E
100
AcDbEntity
  8
製品
  6
Continuous
 62
     2
100
AcDbLine
 10
101.2145098001665
 20
219.2152454285544
 30
0.0
 11
101.0145098001667
 21
219.3152454285544
 31
0.0
  0
CIRCLE
  5
6CB3
330
1E
100
AcDbEntity
  8
製品
  6
Continuous
 62
     4
100
AcDbCircle
 10
96.40344180016654
 20
213.7703634285542
 30
0.0
 40
0.2
  0
CIRCLE
  5
6CB4
330
1E
100
AcDbEntity
  8
製品
  6
Continuous
 62
     4
100
AcDbCircle
 10
97.14037780016679
 20
210.2590764285544
 30
0.0
 40
0.2
  0
CIRCLE
  5
6CB5
330
1E
100
AcDbEntity
  8
製品
  6
Continuous
 62
     4
100
AcDbCircle
 10
95.57980680016681
 20
209.8689334285543
 30
0.0
 40
0.2
  0
CIRCLE
  5
6CB6
330
1E
100
AcDbEntity
  8
製品
  6
Continuous
 62
     4
100
AcDbCircle
 10
96.66353680016664
 20
201.8059794285544
 30
0.0
 40
0.2
  0
CIRCLE
  5
6CB7
330
1E
100
AcDbEntity
  8
製品
  6
Continuous
 62
     4
100
AcDbCircle
 10
96.66353680016664
 20
204.3202344285544
 30
0.0
 40
0.2
  0
CIRCLE
  5
6CB8
330
1E
100
AcDbEntity
  8
製品
  6
Continuous
 62
     4
100
AcDbCircle
 10
95.14631480016669
 20
202.3695194285545
 30
0.0
 40
0.2
  0
CIRCLE
  5
6CB9
330
1E
100
AcDbEntity
  8
製品
  6
Continuous
 62
     4
100
AcDbCircle
 10
95.75320380016682
 20
207.1812824285542
 30
0.0
 40
0.2
  0
LINE
  5
6CBA
330
1E
100
AcDbEntity
  8
図面枠
  6
Continuous
 62
     2
100
AcDbLine
 10
99.21450980016652
 20
218.2152454285545
 30
0.0
 11
105.5653628001664
 21
207.2152454285545
 31
0.0
  0
CIRCLE
  5
6CBB
330
1E
100
AcDbEntity
  8
製品
  6
Continuous
 62
     4
100
AcDbCircle
 10
96.66353680016664
 20
198.9882804285541
 30
0.0
 40
0.2
  0
CIRCLE
  5
6CBC
330
1E
100
AcDbEntity
  8
製品
  6
Continuous
 62
     4
100
AcDbCircle
 10
97.22707680016675
 20
195.6503914285542
 30
0.0
 40
0.2
  0
CIRCLE
  5
6CBD
330
1E
100
AcDbEntity
  8
製品
  6
Continuous
 62
     4
100
AcDbCircle
 10
95.44975880016682
 20
198.2946934285544
 30
0.0
 40
0.2
  0
CIRCLE
  5
6CBE
330
1E
100
AcDbEntity
  8
製品
  6
Continuous
 62
     4
100
AcDbCircle
 10
95.40640980016679
 20
194.7834064285541
 30
0.0
 40
0.2
  0
CIRCLE
  5
6CBF
330
1E
100
AcDbEntity
  8
製品
  6
Continuous
 62
     4
100
AcDbCircle
 10
97.22707680016675
 20
189.9282944285544
 30
0.0
 40
0.2
  0
CIRCLE
  5
6CC0
330
1E
100
AcDbEntity
  8
製品
  6
Continuous
 62
     4
100
AcDbCircle
 10
96.44679080016658
 20
192.3558504285545
 30
0.0
 40
0.2
  0
CIRCLE
  5
6CC1
330
1E
100
AcDbEntity
  8
製品
  6
Continuous
 62
     4
100
AcDbCircle
 10
95.49310780016686
 20
188.9746124285541
 30
0.0
 40
0.2
  0
CIRCLE
  5
6CC2
330
1E
100
AcDbEntity
  8
製品
  6
Continuous
 62
     4
100
AcDbCircle
 10
97.05367980016673
 20
185.4633254285543
 30
0.0
 40
0.2
  0
CIRCLE
  5
6CC3
330
1E
100
AcDbEntity
  8
製品
  6
Continuous
 62
     4
100
AcDbCircle
 10
95.36306080016675
 20
184.3795954285544
 30
0.0
 40
0.2
  0
LINE
  5
6CC4
330
1E
100
AcDbEntity
  8
製品
  6
Continuous
 62
     4
100
AcDbLine
 10
98.21450980016653
 20
219.2152454285544
 30
0.0
 11
98.21450980016653
 21
183.0152454285542
 31
0.0
  0
LINE
  5
6CC5
330
1E
100
AcDbEntity
  8
製品
  6
Continuous
 62
     2
100
AcDbLine
 10
162.1248788001667
 20
224.2284494285543
 30
0.0
 11
170.9116748001665
 21
233.0152454285542
 31
0.0
  0
LINE
  5
6CC6
330
1E
100
AcDbEntity
  8
製品
  6
Continuous
 62
     2
100
AcDbLine
 10
162.1248788001667
 20
222.8142354285544
 30
0.0
 11
172.1248788001667
 21
232.8142354285544
 31
0.0
  0
LINE
  5
6CC7
330
1E
100
AcDbEntity
  8
製品
  6
Continuous
 62
     2
100
AcDbLine
 10
162.1248788001667
 20
225.6426624285543
 30
0.0
 11
169.4974618001665
 21
233.0152454285542
 31
0.0
  0
LINE
  5
6CC8
330
1E
100
AcDbEntity
  8
製品
  6
Continuous
 62
     4
100
AcDbLine
 10
172.7248788001666
 20
230.6152454285546
 30
0.0
 11
172.7248788001666
 21
223.0152454285542
 31
0.0
  0
LINE
  5
6CC9
330
1E
100
AcDbEntity
  8
製品
  6
Continuous
 62
     4
100
AcDbLine
 10
172.1248788001667
 20
233.0152454285542
 30
0.0
 11
172.1248788001667
 21
183.0152454285542
 31
0.0
  0
DIMENSION
  5
6CCA
330
1E
100
AcDbEntity
  8
寸法
  6
Continuous
100
AcDbDimension
  2
*D5
 10
176.1248788001667
 20
197.4053933624022
 30
0.0
 11
184.3534502287381
 21
197.4053933624022
 31
0.0
 70
   160
  1
(10)
 71
     5
 42
2.0
  3
AutoCAD
100
AcDbAlignedDimension
 13
178.1248788001667
 23
214.2152454285545
 33
0.0
 14
176.1248788001667
 24
195.2152454285544
 34
0.0
100
AcDbRotatedDimension
1001
ACAD
1000
DSTYLE
1002
{
1070
   147
1040
0.8
1070
   140
1040
3.0
1002
}
  0
ARC
  5
6CCB
330
1E
100
AcDbEntity
  8
製品
  6
Continuous
 62
     2
100
AcDbCircle
 10
179.8248788001665
 20
222.7152454285544
 30
0.0
 40
0.2
100
AcDbArc
 50
0.0
 51
90.0
  0
LINE
  5
6CCC
330
1E
100
AcDbEntity
  8
製品
  6
Continuous
 62
     2
100
AcDbLine
 10
179.8248788001665
 20
222.9152454285543
 30
0.0
 11
179.6248788001667
 21
222.9152454285543
 31
0.0
  0
ARC
  5
6CCD
330
1E
100
AcDbEntity
  8
製品
  6
Continuous
 62
     2
100
AcDbCircle
 10
179.6248788001667
 20
222.7152454285544
 30
0.0
 40
0.2
100
AcDbArc
 50
90.0
 51
180.0
  0
LINE
  5
6CCE
330
1E
100
AcDbEntity
  8
製品
  6
Continuous
 62
     2
100
AcDbLine
 10
179.4248788001664
 20
222.7152454285544
 30
0.0
 11
179.4248788001664
 21
222.4152454285543
 31
0.0
  0
LINE
  5
6CCF
330
1E
100
AcDbEntity
  8
製品
  6
Continuous
 62
     2
100
AcDbLine
 10
179.4248788001664
 20
222.4152454285543
 30
0.0
 11
179.3248788001665
 21
222.4152454285543
 31
0.0
  0
LINE
  5
6CD0
330
1E
100
AcDbEntity
  8
製品
  6
Continuous
 62
     2
100
AcDbLine
 10
179.3248788001665
 20
222.4152454285543
 30
0.0
 11
179.3248788001665
 21
222.7152454285544
 31
0.0
  0
ARC
  5
6CD1
330
1E
100
AcDbEntity
  8
製品
  6
Continuous
 62
     2
100
AcDbCircle
 10
179.6248788001667
 20
222.7152454285544
 30
0.0
 40
0.3
100
AcDbArc
 50
90.0
 51
180.0
  0
ARC
  5
6CD2
330
1E
100
AcDbEntity
  8
製品
  6
Continuous
 62
     2
100
AcDbCircle
 10
179.8248788001665
 20
222.7152454285544
 30
0.0
 40
0.3
100
AcDbArc
 50
0.0
 51
90.0
  0
ARC
  5
6CD3
330
1E
100
AcDbEntity
  8
製品
  6
Continuous
 62
     2
100
AcDbCircle
 10
175.6248788001667
 20
222.7152454285544
 30
0.0
 40
0.2
100
AcDbArc
 50
0.0
 51
90.0
  0
LINE
  5
6CD4
330
1E
100
AcDbEntity
  8
製品
  6
Continuous
 62
     2
100
AcDbLine
 10
175.8248788001665
 20
222.7152454285544
 30
0.0
 11
175.8248788001665
 21
222.4152454285543
 31
0.0
  0
LINE
  5
6CD5
330
1E
100
AcDbEntity
  8
製品
  6
Continuous
 62
     2
100
AcDbLine
 10
175.8248788001665
 20
222.4152454285543
 30
0.0
 11
175.9248788001664
 21
222.4152454285543
 31
0.0
  0
LINE
  5
6CD6
330
1E
100
AcDbEntity
  8
製品
  6
Continuous
 62
     2
100
AcDbLine
 10
175.9248788001664
 20
222.4152454285543
 30
0.0
 11
175.9248788001664
 21
222.7152454285544
 31
0.0
  0
ARC
  5
6CD7
330
1E
100
AcDbEntity
  8
製品
  6
Continuous
 62
     2
100
AcDbCircle
 10
175.6248788001667
 20
222.7152454285544
 30
0.0
 40
0.3
100
AcDbArc
 50
0.0
 51
90.0
  0
LINE
  5
6CD8
330
1E
100
AcDbEntity
  8
製品
  6
Continuous
 62
     2
100
AcDbLine
 10
179.5248788001668
 20
219.3152454285544
 30
0.0
 11
179.3248788001665
 21
219.3152454285544
 31
0.0
  0
ARC
  5
6CD9
330
1E
100
AcDbEntity
  8
製品
  6
Continuous
 62
     2
100
AcDbCircle
 10
179.5248788001668
 20
219.8152454285544
 30
0.0
 40
0.5
100
AcDbArc
 50
270.0
 51
0.0
  0
LINE
  5
6CDA
330
1E
100
AcDbEntity
  8
製品
  6
Continuous
 62
     2
100
AcDbLine
 10
179.5248788001668
 20
219.2152454285544
 30
0.0
 11
179.3248788001665
 21
219.2152454285544
 31
0.0
  0
ARC
  5
6CDB
330
1E
100
AcDbEntity
  8
製品
  6
Continuous
 62
     2
100
AcDbCircle
 10
179.5248788001668
 20
219.8152454285544
 30
0.0
 40
0.6
100
AcDbArc
 50
270.0
 51
0.0
  0
LINE
  5
6CDC
330
1E
100
AcDbEntity
  8
製品
  6
Continuous
 62
     2
100
AcDbLine
 10
179.3248788001665
 20
219.2152454285544
 30
0.0
 11
179.1248788001667
 21
219.3152454285544
 31
0.0
  0
LINE
  5
6CDD
330
1E
100
AcDbEntity
  8
製品
  6
Continuous
 62
     2
100
AcDbLine
 10
179.1248788001667
 20
219.3152454285544
 30
0.0
 11
178.8248788001665
 21
219.2152454285544
 31
0.0
  0
LINE
  5
6CDE
330
1E
100
AcDbEntity
  8
製品
  6
Continuous
 62
     2
100
AcDbLine
 10
178.8248788001665
 20
219.2152454285544
 30
0.0
 11
178.5248788001668
 21
219.3152454285544
 31
0.0
  0
LINE
  5
6CDF
330
1E
100
AcDbEntity
  8
製品
  6
Continuous
 62
     2
100
AcDbLine
 10
178.5248788001668
 20
219.3152454285544
 30
0.0
 11
178.2248788001666
 21
219.2152454285544
 31
0.0
  0
LINE
  5
6CE0
330
1E
100
AcDbEntity
  8
製品
  6
Continuous
 62
     2
100
AcDbLine
 10
179.1248788001667
 20
219.4152454285543
 30
0.0
 11
178.8248788001665
 21
219.3152454285544
 31
0.0
  0
LINE
  5
6CE1
330
1E
100
AcDbEntity
  8
製品
  6
Continuous
 62
     2
100
AcDbLine
 10
178.8248788001665
 20
219.3152454285544
 30
0.0
 11
178.5248788001668
 21
219.4152454285543
 31
0.0
  0
LINE
  5
6CE2
330
1E
100
AcDbEntity
  8
製品
  6
Continuous
 62
     2
100
AcDbLine
 10
178.5248788001668
 20
219.4152454285543
 30
0.0
 11
178.2248788001666
 21
219.3152454285544
 31
0.0
  0
LINE
  5
6CE3
330
1E
100
AcDbEntity
  8
製品
  6
Continuous
 62
     2
100
AcDbLine
 10
179.3248788001665
 20
219.3152454285544
 30
0.0
 11
179.1248788001667
 21
219.4152454285543
 31
0.0
  0
LINE
  5
6CE4
330
1E
100
AcDbEntity
  8
製品
  6
Continuous
 62
     2
100
AcDbLine
 10
175.7248788001666
 20
219.3152454285544
 30
0.0
 11
175.9248788001664
 21
219.3152454285544
 31
0.0
  0
LINE
  5
6CE5
330
1E
100
AcDbEntity
  8
製品
  6
Continuous
 62
     2
100
AcDbLine
 10
175.9248788001664
 20
219.3152454285544
 30
0.0
 11
176.1248788001667
 21
219.4152454285543
 31
0.0
  0
LINE
  5
6CE6
330
1E
100
AcDbEntity
  8
製品
  6
Continuous
 62
     2
100
AcDbLine
 10
175.9248788001664
 20
219.2152454285544
 30
0.0
 11
176.1248788001667
 21
219.3152454285544
 31
0.0
  0
LINE
  5
6CE7
330
1E
100
AcDbEntity
  8
製品
  6
Continuous
 62
     2
100
AcDbLine
 10
176.1248788001667
 20
219.3152454285544
 30
0.0
 11
176.4248788001664
 21
219.2152454285544
 31
0.0
  0
LINE
  5
6CE8
330
1E
100
AcDbEntity
  8
製品
  6
Continuous
 62
     2
100
AcDbLine
 10
176.4248788001664
 20
219.2152454285544
 30
0.0
 11
176.7248788001666
 21
219.3152454285544
 31
0.0
  0
LINE
  5
6CE9
330
1E
100
AcDbEntity
  8
製品
  6
Continuous
 62
     2
100
AcDbLine
 10
176.7248788001666
 20
219.3152454285544
 30
0.0
 11
177.0248788001668
 21
219.2152454285544
 31
0.0
  0
LINE
  5
6CEA
330
1E
100
AcDbEntity
  8
製品
  6
Continuous
 62
     2
100
AcDbLine
 10
177.0248788001668
 20
219.2152454285544
 30
0.0
 11
177.3248788001665
 21
219.3152454285544
 31
0.0
  0
LINE
  5
6CEB
330
1E
100
AcDbEntity
  8
製品
  6
Continuous
 62
     2
100
AcDbLine
 10
177.3248788001665
 20
219.3152454285544
 30
0.0
 11
177.6248788001667
 21
219.2152454285544
 31
0.0
  0
LINE
  5
6CEC
330
1E
100
AcDbEntity
  8
製品
  6
Continuous
 62
     2
100
AcDbLine
 10
176.1248788001667
 20
219.4152454285543
 30
0.0
 11
176.4248788001664
 21
219.3152454285544
 31
0.0
  0
LINE
  5
6CED
330
1E
100
AcDbEntity
  8
製品
  6
Continuous
 62
     2
100
AcDbLine
 10
176.4248788001664
 20
219.3152454285544
 30
0.0
 11
176.7248788001666
 21
219.4152454285543
 31
0.0
  0
LINE
  5
6CEE
330
1E
100
AcDbEntity
  8
製品
  6
Continuous
 62
     2
100
AcDbLine
 10
176.7248788001666
 20
219.4152454285543
 30
0.0
 11
177.0248788001668
 21
219.3152454285544
 31
0.0
  0
LINE
  5
6CEF
330
1E
100
AcDbEntity
  8
製品
  6
Continuous
 62
     2
100
AcDbLine
 10
177.0248788001668
 20
219.3152454285544
 30
0.0
 11
177.3248788001665
 21
219.4152454285543
 31
0.0
  0
LINE
  5
6CF0
330
1E
100
AcDbEntity
  8
製品
  6
Continuous
 62
     2
100
AcDbLine
 10
177.3248788001665
 20
219.4152454285543
 30
0.0
 11
177.6248788001667
 21
219.3152454285544
 31
0.0
  0
LINE
  5
6CF1
330
1E
100
AcDbEntity
  8
製品
  6
Continuous
 62
     2
100
AcDbLine
 10
177.9248788001664
 20
219.3152454285544
 30
0.0
 11
177.6248788001667
 21
219.2152454285544
 31
0.0
  0
LINE
  5
6CF2
330
1E
100
AcDbEntity
  8
製品
  6
Continuous
 62
     2
100
AcDbLine
 10
177.9248788001664
 20
219.4152454285543
 30
0.0
 11
177.6248788001667
 21
219.3152454285544
 31
0.0
  0
LINE
  5
6CF3
330
1E
100
AcDbEntity
  8
製品
  6
Continuous
 62
     2
100
AcDbLine
 10
175.7248788001666
 20
219.2152454285544
 30
0.0
 11
175.9248788001664
 21
219.2152454285544
 31
0.0
  0
LINE
  5
6CF4
330
1E
100
AcDbEntity
  8
製品
  6
Continuous
 62
     2
100
AcDbLine
 10
178.2248788001666
 20
219.2152454285544
 30
0.0
 11
177.9248788001664
 21
219.3152454285544
 31
0.0
  0
LINE
  5
6CF5
330
1E
100
AcDbEntity
  8
製品
  6
Continuous
 62
     2
100
AcDbLine
 10
178.2248788001666
 20
219.3152454285544
 30
0.0
 11
177.9248788001664
 21
219.4152454285543
 31
0.0
  0
LINE
  5
6CF6
330
1E
100
AcDbEntity
  8
製品
  6
Continuous
 62
     4
100
AcDbLine
 10
178.1248788001667
 20
217.2152454285544
 30
0.0
 11
178.1248788001667
 21
215.2152454285545
 31
0.0
  0
CIRCLE
  5
6CF7
330
1E
100
AcDbEntity
  8
図面枠
  6
Continuous
 62
     2
100
AcDbCircle
 10
177.1248788001667
 20
216.2152454285545
 30
0.0
 40
0.3
  0
LINE
  5
6CF8
330
1E
100
AcDbEntity
  8
製品
  6
Continuous
 62
     2
100
AcDbLine
 10
180.0248788001668
 20
219.8152454285544
 30
0.0
 11
180.0248788001668
 21
222.7152454285544
 31
0.0
  0
LINE
  5
6CF9
330
1E
100
AcDbEntity
  8
製品
  6
Continuous
 62
     2
100
AcDbLine
 10
180.1248788001667
 20
219.8152454285544
 30
0.0
 11
180.1248788001667
 21
222.7152454285544
 31
0.0
  0
LINE
  5
6CFA
330
1E
100
AcDbEntity
  8
図面枠
  6
Continuous
 62
     2
100
AcDbLine
 10
177.1248788001667
 20
216.2152454285545
 30
0.0
 11
183.4757308001667
 21
205.2152454285545
 31
0.0
  0
ARC
  5
6CFB
330
1E
100
AcDbEntity
  8
製品
  6
Continuous
 62
     2
100
AcDbCircle
 10
175.4248788001664
 20
222.7152454285544
 30
0.0
 40
0.2
100
AcDbArc
 50
90.0
 51
180.0
  0
ARC
  5
6CFC
330
1E
100
AcDbEntity
  8
製品
  6
Continuous
 62
     2
100
AcDbCircle
 10
175.4248788001664
 20
222.7152454285544
 30
0.0
 40
0.3
100
AcDbArc
 50
90.0
 51
180.0
  0
CIRCLE
  5
6CFD
330
1E
100
AcDbEntity
  8
製品
  6
Continuous
 62
     4
100
AcDbCircle
 10
174.4005088001668
 20
220.3594434285544
 30
0.0
 40
0.2
  0
CIRCLE
  5
6CFE
330
1E
100
AcDbEntity
  8
製品
  6
Continuous
 62
     4
100
AcDbCircle
 10
172.9266358001664
 20
220.9229834285545
 30
0.0
 40
0.2
  0
CIRCLE
  5
6CFF
330
1E
100
AcDbEntity
  8
製品
  6
Continuous
 62
     4
100
AcDbCircle
 10
175.0073978001664
 20
218.0619354285543
 30
0.0
 40
0.2
  0
CIRCLE
  5
6D00
330
1E
100
AcDbEntity
  8
製品
  6
Continuous
 62
     4
100
AcDbCircle
 10
173.1433818001665
 20
215.3742844285546
 30
0.0
 40
0.2
  0
CIRCLE
  5
6D01
330
1E
100
AcDbEntity
  8
製品
  6
Continuous
 62
     4
100
AcDbCircle
 10
173.8803188001666
 20
217.1949514285545
 30
0.0
 40
0.2
  0
LINE
  5
6D02
330
1E
100
AcDbEntity
  8
製品
  6
Continuous
 62
     2
100
AcDbLine
 10
175.2248788001666
 20
219.8152454285544
 30
0.0
 11
175.2248788001666
 21
222.7152454285544
 31
0.0
  0
LINE
  5
6D03
330
1E
100
AcDbEntity
  8
製品
  6
Continuous
 62
     2
100
AcDbLine
 10
175.1248788001667
 20
222.7152454285544
 30
0.0
 11
175.1248788001667
 21
219.8152454285544
 31
0.0
  0
ARC
  5
6D04
330
1E
100
AcDbEntity
  8
製品
  6
Continuous
 62
     4
100
AcDbCircle
 10
175.1248788001667
 20
214.7152454285544
 30
0.0
 40
8.0
100
AcDbArc
 50
90.0
 51
112.0243129999989
  0
CIRCLE
  5
6D05
330
1E
100
AcDbEntity
  8
製品
  6
Continuous
 62
     4
100
AcDbCircle
 10
174.3138108001667
 20
213.7703634285542
 30
0.0
 40
0.2
  0
CIRCLE
  5
6D06
330
1E
100
AcDbEntity
  8
製品
  6
Continuous
 62
     4
100
AcDbCircle
 10
175.0507468001665
 20
210.2590764285544
 30
0.0
 40
0.2
  0
CIRCLE
  5
6D07
330
1E
100
AcDbEntity
  8
製品
  6
Continuous
 62
     4
100
AcDbCircle
 10
173.4901758001665
 20
209.8689334285543
 30
0.0
 40
0.2
  0
CIRCLE
  5
6D08
330
1E
100
AcDbEntity
  8
製品
  6
Continuous
 62
     4
100
AcDbCircle
 10
173.6635728001665
 20
207.1812824285542
 30
0.0
 40
0.2
  0
CIRCLE
  5
6D09
330
1E
100
AcDbEntity
  8
製品
  6
Continuous
 62
     4
100
AcDbCircle
 10
174.5739058001668
 20
201.8059794285544
 30
0.0
 40
0.2
  0
CIRCLE
  5
6D0A
330
1E
100
AcDbEntity
  8
製品
  6
Continuous
 62
     4
100
AcDbCircle
 10
173.0566838001668
 20
202.3695194285545
 30
0.0
 40
0.2
  0
CIRCLE
  5
6D0B
330
1E
100
AcDbEntity
  8
製品
  6
Continuous
 62
     4
100
AcDbCircle
 10
174.5739058001668
 20
204.3202344285544
 30
0.0
 40
0.2
  0
LINE
  5
6D0C
330
1E
100
AcDbEntity
  8
製品
  6
Continuous
 62
     2
100
AcDbLine
 10
162.1248788001667
 20
201.6010324285542
 30
0.0
 11
172.1248788001667
 21
211.6010324285542
 31
0.0
  0
LINE
  5
6D0D
330
1E
100
AcDbEntity
  8
製品
  6
Continuous
 62
     2
100
AcDbLine
 10
162.1248788001667
 20
204.4294594285545
 30
0.0
 11
172.1248788001667
 21
214.4294594285546
 31
0.0
  0
LINE
  5
6D0E
330
1E
100
AcDbEntity
  8
製品
  6
Continuous
 62
     2
100
AcDbLine
 10
162.1248788001667
 20
203.0152454285542
 30
0.0
 11
172.1248788001667
 21
213.0152454285542
 31
0.0
  0
ARC
  5
6D0F
330
1E
100
AcDbEntity
  8
製品
  6
Continuous
 62
     2
100
AcDbCircle
 10
175.7248788001666
 20
219.8152454285544
 30
0.0
 40
0.5
100
AcDbArc
 50
180.0
 51
270.0
  0
ARC
  5
6D10
330
1E
100
AcDbEntity
  8
製品
  6
Continuous
 62
     2
100
AcDbCircle
 10
175.7248788001666
 20
219.8152454285544
 30
0.0
 40
0.6
100
AcDbArc
 50
180.0
 51
270.0
  0
LINE
  5
6D11
330
1E
100
AcDbEntity
  8
製品
  6
Continuous
 62
     2
100
AcDbLine
 10
175.4248788001664
 20
222.9152454285543
 30
0.0
 11
175.6248788001667
 21
222.9152454285543
 31
0.0
  0
CIRCLE
  5
6D12
330
1E
100
AcDbEntity
  8
製品
  6
Continuous
 62
     4
100
AcDbCircle
 10
174.5739058001668
 20
198.9882804285541
 30
0.0
 40
0.2
  0
CIRCLE
  5
6D13
330
1E
100
AcDbEntity
  8
製品
  6
Continuous
 62
     4
100
AcDbCircle
 10
173.3601278001665
 20
198.2946934285544
 30
0.0
 40
0.2
  0
CIRCLE
  5
6D14
330
1E
100
AcDbEntity
  8
製品
  6
Continuous
 62
     4
100
AcDbCircle
 10
175.1374458001664
 20
195.6503914285542
 30
0.0
 40
0.2
  0
CIRCLE
  5
6D15
330
1E
100
AcDbEntity
  8
製品
  6
Continuous
 62
     4
100
AcDbCircle
 10
173.3167788001665
 20
194.7834064285541
 30
0.0
 40
0.2
  0
CIRCLE
  5
6D16
330
1E
100
AcDbEntity
  8
製品
  6
Continuous
 62
     4
100
AcDbCircle
 10
175.1374458001664
 20
189.9282944285544
 30
0.0
 40
0.2
  0
CIRCLE
  5
6D17
330
1E
100
AcDbEntity
  8
製品
  6
Continuous
 62
     4
100
AcDbCircle
 10
174.3571598001667
 20
192.3558504285545
 30
0.0
 40
0.2
  0
CIRCLE
  5
6D18
330
1E
100
AcDbEntity
  8
製品
  6
Continuous
 62
     4
100
AcDbCircle
 10
173.4034768001665
 20
188.9746124285541
 30
0.0
 40
0.2
  0
CIRCLE
  5
6D19
330
1E
100
AcDbEntity
  8
製品
  6
Continuous
 62
     4
100
AcDbCircle
 10
174.9640488001664
 20
185.4633254285543
 30
0.0
 40
0.2
  0
CIRCLE
  5
6D1A
330
1E
100
AcDbEntity
  8
製品
  6
Continuous
 62
     4
100
AcDbCircle
 10
173.2734298001664
 20
184.3795954285544
 30
0.0
 40
0.2
  0
LINE
  5
6D1B
330
1E
100
AcDbEntity
  8
製品
  6
Continuous
 62
     2
100
AcDbLine
 10
162.1248788001667
 20
183.2162554285544
 30
0.0
 11
172.1248788001667
 21
193.2162554285544
 31
0.0
  0
LINE
  5
6D1C
330
1E
100
AcDbEntity
  8
製品
  6
Continuous
 62
     2
100
AcDbLine
 10
164.7522948001665
 20
183.0152454285542
 30
0.0
 11
172.1248788001667
 21
190.3878284285545
 31
0.0
  0
LINE
  5
6D1D
330
1E
100
AcDbEntity
  8
製品
  6
Continuous
 62
     2
100
AcDbLine
 10
163.3380818001665
 20
183.0152454285542
 30
0.0
 11
172.1248788001667
 21
191.8020424285544
 31
0.0
  0
LINE
  5
6D1E
330
1E
100
AcDbEntity
  8
製品
  6
Continuous
 62
     4
100
AcDbLine
 10
176.1248788001667
 20
219.2152454285544
 30
0.0
 11
176.1248788001667
 21
183.0152454285542
 31
0.0
  0
TEXT
  5
6D1F
330
1E
100
AcDbEntity
  8
図面枠
  6
Continuous
 62
     2
100
AcDbText
 10
198.376259800167
 20
226.0152556134115
 30
0.0
 40
3.0
  1
下地張り
 50
0.0000100000010064
 41
0.8
  7
ACAD
 72
     2
 11
208.7762598001668
 21
226.0152574285541
 31
0.0
100
AcDbText
  0
CIRCLE
  5
6D20
330
1E
100
AcDbEntity
  8
図面枠
  6
Continuous
 62
     2
100
AcDbCircle
 10
212.1248788001667
 20
219.2152454285544
 30
0.0
 40
0.3
  0
LINE
  5
6D21
330
1E
100
AcDbEntity
  8
図面枠
  6
Continuous
 62
     2
100
AcDbLine
 10
212.1248788001667
 20
219.2152454285544
 30
0.0
 11
208.7762468001665
 21
225.0152454285542
 31
0.0
  0
LINE
  5
6D22
330
1E
100
AcDbEntity
  8
図面枠
  6
Continuous
 62
     2
100
AcDbLine
 10
208.7762468001665
 20
225.0152454285542
 30
0.0
 11
196.7362468001665
 21
225.0152454285542
 31
0.0
  0
ENDSEC
  0
SECTION
  2
OBJECTS
  0
DICTIONARY
  5
C
330
0
100
AcDbDictionary
281
     1
  3
ACAD_COLOR
350
6E44
  3
ACAD_GROUP
350
D
  3
ACAD_LAYOUT
350
19
  3
ACAD_MATERIAL
350
6E2F
  3
ACAD_MLINESTYLE
350
16
  3
ACAD_PLOTSETTINGS
350
18
  3
ACAD_PLOTSTYLENAME
350
E
  3
ACAD_TABLESTYLE
350
6E45
  3
ACAD_VISUALSTYLE
350
6E33
  3
AcDbVariableDictionary
350
169
  3
DWGPROPS
350
6EEB
  0
DICTIONARY
  5
6ECA
330
8
100
AcDbDictionary
280
     1
281
     1
  0
DICTIONARY
  5
175
330
2
100
AcDbDictionary
280
     1
281
     1
  3
ACAD_LAYERFILTERS
360
185
  3
ACAD_LAYERSTATES
360
176
  0
DICTIONARY
  5
28B
330
1E
100
AcDbDictionary
280
     1
281
     1
  3
ACAD_LAYOUTSELFREF
360
6E28
  0
DICTIONARY
  5
28D
330
1A
100
AcDbDictionary
280
     1
281
     1
  3
ACAD_LAYOUTSELFREF
360
6E27
  0
DICTIONARY
  5
6E44
102
{ACAD_REACTORS
330
C
102
}
330
C
100
AcDbDictionary
281
     1
  0
DICTIONARY
  5
D
102
{ACAD_REACTORS
330
C
102
}
330
C
100
AcDbDictionary
281
     1
  0
DICTIONARY
  5
19
102
{ACAD_REACTORS
330
C
102
}
330
C
100
AcDbDictionary
281
     1
  3
Model
350
21
  3
ﾚｲｱｳﾄ1
350
1D
  0
DICTIONARY
  5
6E2F
102
{ACAD_REACTORS
330
C
102
}
330
C
100
AcDbDictionary
281
     1
  3
ByBlock
350
6E31
  3
ByLayer
350
6E30
  3
Global
350
6E32
  0
DICTIONARY
  5
16
102
{ACAD_REACTORS
330
C
102
}
330
C
100
AcDbDictionary
281
     1
  3
Standard
350
17
  0
DICTIONARY
  5
18
102
{ACAD_REACTORS
330
C
102
}
330
C
100
AcDbDictionary
281
     1
  0
ACDBDICTIONARYWDFLT
  5
E
102
{ACAD_REACTORS
330
C
102
}
330
C
100
AcDbDictionary
281
     1
  3
Normal
350
F
100
AcDbDictionaryWithDefault
340
F
1001
ACAD
1000
TREAT_AS_HARD
1070
     0
1000
TREAT_AS_HARD
1070
     0
1000
TREAT_AS_HARD
1070
     0
1000
TREAT_AS_HARD
1070
     0
1000
TREAT_AS_HARD
1070
     0
1000
TREAT_AS_HARD
1070
     0
1000
TREAT_AS_HARD
1070
     0
1000
TREAT_AS_HARD
1070
     0
1000
TREAT_AS_HARD
1070
     0
1000
TREAT_AS_HARD
1070
     0
1000
TREAT_AS_HARD
1070
     0
1000
TREAT_AS_HARD
1070
     0
1000
TREAT_AS_HARD
1070
     0
1000
TREAT_AS_HARD
1070
     0
1000
TREAT_AS_HARD
1070
     0
1000
TREAT_AS_HARD
1070
     0
1000
TREAT_AS_HARD
1070
     0
1000
TREAT_AS_HARD
1070
     0
1000
TREAT_AS_HARD
1070
     0
1000
TREAT_AS_HARD
1070
     0
1000
TREAT_AS_HARD
1070
     0
1000
TREAT_AS_HARD
1070
     0
1000
TREAT_AS_HARD
1070
     0
1000
TREAT_AS_HARD
1070
     0
1000
TREAT_AS_HARD
1070
     0
1000
TREAT_AS_HARD
1070
     0
1000
TREAT_AS_HARD
1070
     0
1000
TREAT_AS_HARD
1070
     0
1000
TREAT_AS_HARD
1070
     0
1000
TREAT_AS_HARD
1070
     0
1000
TREAT_AS_HARD
1070
     0
  0
DICTIONARY
  5
6E45
102
{ACAD_REACTORS
330
C
102
}
330
C
100
AcDbDictionary
281
     1
  3
Standard
350
6E46
  0
DICTIONARY
  5
6E33
102
{ACAD_REACTORS
330
C
102
}
330
C
100
AcDbDictionary
281
     1
  3
2dWireframe
350
6E39
  3
3D Hidden
350
6E3B
  3
3dWireframe
350
6E3A
  3
Basic
350
6E38
  3
Brighten
350
6E3F
  3
ColorChange
350
6E43
  3
Conceptual
350
6E3C
  3
Dim
350
6E3E
  3
Facepattern
350
6E42
  3
Flat
350
6E34
  3
FlatWithEdges
350
6E35
  3
Gouraud
350
6E36
  3
GouraudWithEdges
350
6E37
  3
Linepattern
350
6E41
  3
Realistic
350
6E3D
  3
Thicken
350
6E40
  0
DICTIONARY
  5
169
102
{ACAD_REACTORS
330
C
102
}
330
C
100
AcDbDictionary
281
     1
  3
CTABLESTYLE
350
6EE2
  3
DIMASSOC
350
16A
  3
INDEXCTL
350
6EE4
  3
SORTENTS
350
6EE3
  0
XRECORD
  5
6EEB
102
{ACAD_REACTORS
330
C
102
}
330
C
100
AcDbXrecord
280
     1
  1
DWGPROPS COOKIE
  2

  3

  4

  6

  7

  8
HON1000AV
  9

300
=
301
=
302
=
303
=
304
=
305
=
306
=
307
=
308
=
309
=
 40
0.2431435648148148
 41
2454316.693457674
 42
2454735.624307176
  1

 90
        0
  0
DICTIONARY
  5
185
102
{ACAD_REACTORS
330
175
102
}
330
175
100
AcDbDictionary
280
     1
281
     1
  0
DICTIONARY
  5
176
102
{ACAD_REACTORS
330
175
102
}
330
175
100
AcDbDictionary
281
     1
  3
ACAD
350
177
  0
XRECORD
  5
6E28
102
{ACAD_REACTORS
330
28B
102
}
330
28B
100
AcDbXrecord
280
     1
340
1E
  0
XRECORD
  5
6E27
102
{ACAD_REACTORS
330
28D
102
}
330
28D
100
AcDbXrecord
280
     1
340
1A
  0
LAYOUT
  5
21
102
{ACAD_XDICTIONARY
360
6EEE
102
}
102
{ACAD_REACTORS
330
19
102
}
330
19
100
AcDbPlotSettings
  1

  2
\\MEISEI-1\EPSON Stylus Photo EX3
  4

  6

 40
0.0
 41
0.0
 42
0.0
 43
0.0
 44
0.0
 45
0.0
 46
0.0
 47
0.0
 48
0.0
 49
0.0
140
0.0
141
0.0
142
1.0
143
1.0
 70
  1712
 72
     0
 73
     0
 74
     0
  7

 75
     0
147
1.0
148
0.0
149
0.0
100
AcDbLayout
  1
Model
 70
     1
 71
     0
 10
0.0
 20
0.0
 11
12.0
 21
9.0
 12
0.0
 22
0.0
 32
0.0
 14
0.0
 24
0.0
 34
0.0
 15
0.0
 25
0.0
 35
0.0
146
0.0
 13
0.0
 23
0.0
 33
0.0
 16
1.0
 26
0.0
 36
0.0
 17
0.0
 27
1.0
 37
0.0
 76
     0
330
1E
331
6DE3
  0
LAYOUT
  5
1D
102
{ACAD_XDICTIONARY
360
6EEC
102
}
102
{ACAD_REACTORS
330
19
102
}
330
19
100
AcDbPlotSettings
  1

  2
\\MEISEI-1\EPSON Stylus Photo EX3
  4

  6

 40
0.0
 41
0.0
 42
0.0
 43
0.0
 44
0.0
 45
0.0
 46
0.0
 47
0.0
 48
0.0
 49
0.0
140
0.0
141
0.0
142
1.0
143
1.0
 70
   688
 72
     0
 73
     0
 74
     5
  7

 75
    16
147
1.0
148
0.0
149
0.0
100
AcDbLayout
  1
ﾚｲｱｳﾄ1
 70
     1
 71
     1
 10
0.0
 20
0.0
 11
12.0
 21
9.0
 12
0.0
 22
0.0
 32
0.0
 14
1.000000000000000E+20
 24
1.000000000000000E+20
 34
1.000000000000000E+20
 15
-1.000000000000000E+20
 25
-1.000000000000000E+20
 35
-1.000000000000000E+20
146
0.0
 13
0.0
 23
0.0
 33
0.0
 16
1.0
 26
0.0
 36
0.0
 17
0.0
 27
1.0
 37
0.0
 76
     0
330
1A
  0
MATERIAL
  5
6E31
102
{ACAD_XDICTIONARY
360
6EF2
102
}
102
{ACAD_REACTORS
330
6E2F
102
}
330
6E2F
100
AcDbMaterial
  1
ByBlock
  0
MATERIAL
  5
6E30
102
{ACAD_XDICTIONARY
360
6EF0
102
}
102
{ACAD_REACTORS
330
6E2F
102
}
330
6E2F
100
AcDbMaterial
  1
ByLayer
  0
MATERIAL
  5
6E32
102
{ACAD_XDICTIONARY
360
6EF4
102
}
102
{ACAD_REACTORS
330
6E2F
102
}
330
6E2F
100
AcDbMaterial
  1
Global
  0
MLINESTYLE
  5
17
102
{ACAD_REACTORS
330
16
102
}
330
16
100
AcDbMlineStyle
  2
STANDARD
 70
     0
  3

 62
   256
 51
90.0
 52
90.0
 71
     2
 49
0.5
 62
   256
  6
BYLAYER
 49
-0.5
 62
   256
  6
BYLAYER
  0
ACDBPLACEHOLDER
  5
F
102
{ACAD_REACTORS
330
E
102
}
330
E
  0
TABLESTYLE
  5
6E46
102
{ACAD_XDICTIONARY
360
6EF6
102
}
102
{ACAD_REACTORS
330
6E45
102
}
330
6E45
100
AcDbTableStyle
  3
Standard
 70
     0
 71
     0
 40
0.06
 41
0.06
280
     0
281
     0
  7
STANDARD
140
0.18
170
     2
 62
     0
 63
     7
283
     0
274
    -2
284
     1
 64
     0
275
    -2
285
     1
 65
     0
276
    -2
286
     1
 66
     0
277
    -2
287
     1
 67
     0
278
    -2
288
     1
 68
     0
279
    -2
289
     1
 69
     0
  7
STANDARD
140
0.25
170
     5
 62
     0
 63
     7
283
     0
274
    -2
284
     1
 64
     0
275
    -2
285
     1
 65
     0
276
    -2
286
     1
 66
     0
277
    -2
287
     1
 67
     0
278
    -2
288
     1
 68
     0
279
    -2
289
     1
 69
     0
  7
STANDARD
140
0.18
170
     5
 62
     0
 63
     7
283
     0
274
    -2
284
     1
 64
     0
275
    -2
285
     1
 65
     0
276
    -2
286
     1
 66
     0
277
    -2
287
     1
 67
     0
278
    -2
288
     1
 68
     0
279
    -2
289
     1
 69
     0
  0
VISUALSTYLE
  5
6E39
102
{ACAD_REACTORS
330
6E33
102
}
330
6E33
100
AcDbVisualStyle
  2
2dWireframe
 70
     4
 71
     0
 72
     2
 73
     0
 90
        0
 40
-0.6
 41
-30.0
 62
     5
 63
     7
 74
     1
 91
        4
 64
     7
 65
   257
 75
     1
175
     1
 42
1.0
 92
        0
 66
   257
 43
1.0
 76
     1
 77
     6
 78
     2
 67
     7
 79
     5
170
     0
171
     0
290
     0
174
     0
 93
        1
 44
0.0
173
     0
291
     0
 45
0.0
1001
ACAD
1000
AcDbSavedByObjectVersion
1070
     0
  0
VISUALSTYLE
  5
6E3B
102
{ACAD_REACTORS
330
6E33
102
}
330
6E33
100
AcDbVisualStyle
  2
3D Hidden
 70
     6
 71
     1
 72
     2
 73
     2
 90
        0
 40
-0.6
 41
-30.0
 62
     5
 63
     7
 74
     2
 91
        2
 64
     7
 65
   257
 75
     2
175
     1
 42
40.0
 92
        0
 66
   257
 43
1.0
 76
     1
 77
     6
 78
     2
 67
     7
 79
     3
170
     0
171
     0
290
     0
174
     0
 93
        1
 44
0.0
173
     0
291
     0
 45
0.0
1001
ACAD
1000
AcDbSavedByObjectVersion
1070
     0
  0
VISUALSTYLE
  5
6E3A
102
{ACAD_REACTORS
330
6E33
102
}
330
6E33
100
AcDbVisualStyle
  2
3dWireframe
 70
     5
 71
     0
 72
     2
 73
     0
 90
        0
 40
-0.6
 41
-30.0
 62
     5
 63
     7
 74
     1
 91
        4
 64
     7
 65
   257
 75
     1
175
     1
 42
1.0
 92
        0
 66
   257
 43
1.0
 76
     1
 77
     6
 78
     2
 67
     7
 79
     5
170
     0
171
     0
290
     0
174
     0
 93
        1
 44
0.0
173
     0
291
     0
 45
0.0
1001
ACAD
1000
AcDbSavedByObjectVersion
1070
     0
  0
VISUALSTYLE
  5
6E38
102
{ACAD_REACTORS
330
6E33
102
}
330
6E33
100
AcDbVisualStyle
  2
Basic
 70
     7
 71
     1
 72
     0
 73
     1
 90
        0
 40
-0.6
 41
-30.0
 62
     5
 63
     7
 74
     0
 91
        4
 64
     7
 65
   257
 75
     1
175
     1
 42
1.0
 92
        8
 66
     7
 43
1.0
 76
     1
 77
     6
 78
     2
 67
     7
 79
     5
170
     0
171
     0
290
     0
174
     0
 93
        1
 44
0.0
173
     0
291
     1
 45
0.0
1001
ACAD
1000
AcDbSavedByObjectVersion
1070
     0
  0
VISUALSTYLE
  5
6E3F
102
{ACAD_REACTORS
330
6E33
102
}
330
6E33
100
AcDbVisualStyle
  2
Brighten
 70
    12
 71
     2
 72
     2
 73
     0
 90
        0
 40
-0.6
 41
-30.0
 62
     5
 63
     7
 74
     1
 91
        4
 64
     7
 65
   257
 75
     1
175
     1
 42
1.0
 92
        8
 66
     7
 43
1.0
 76
     1
 77
     6
 78
     2
 67
     7
 79
     5
170
     0
171
     0
290
     0
174
     0
 93
        1
 44
50.0
173
     0
291
     1
 45
0.0
1001
ACAD
1000
AcDbSavedByObjectVersion
1070
     0
  0
VISUALSTYLE
  5
6E43
102
{ACAD_REACTORS
330
6E33
102
}
330
6E33
100
AcDbVisualStyle
  2
ColorChange
 70
    16
 71
     2
 72
     2
 73
     3
 90
        0
 40
-0.6
 41
-30.0
 62
     5
 63
     8
 74
     1
 91
        4
 64
     7
 65
   257
 75
     1
175
     1
 42
1.0
 92
        8
 66
     8
 43
1.0
 76
     1
 77
     6
 78
     2
 67
     7
 79
     5
170
     0
171
     0
290
     0
174
     0
 93
        1
 44
0.0
173
     0
291
     1
 45
0.0
1001
ACAD
1000
AcDbSavedByObjectVersion
1070
     0
  0
VISUALSTYLE
  5
6E3C
102
{ACAD_REACTORS
330
6E33
102
}
330
6E33
100
AcDbVisualStyle
  2
Conceptual
 70
     9
 71
     3
 72
     2
 73
     0
 90
        0
 40
-0.6
 41
-30.0
 62
     5
 63
     7
 74
     2
 91
        2
 64
     7
 65
   257
 75
     1
175
     1
 42
40.0
 92
        8
 66
     7
 43
1.0
 76
     1
 77
     6
 78
     2
 67
     7
 79
     3
170
     0
171
     0
290
     0
174
     0
 93
        1
 44
0.0
173
     0
291
     0
 45
0.0
1001
ACAD
1000
AcDbSavedByObjectVersion
1070
     0
  0
VISUALSTYLE
  5
6E3E
102
{ACAD_REACTORS
330
6E33
102
}
330
6E33
100
AcDbVisualStyle
  2
Dim
 70
    11
 71
     2
 72
     2
 73
     0
 90
        0
 40
-0.6
 41
-30.0
 62
     5
 63
     7
 74
     1
 91
        4
 64
     7
 65
   257
 75
     1
175
     1
 42
1.0
 92
        8
 66
     7
 43
1.0
 76
     1
 77
     6
 78
     2
 67
     7
 79
     5
170
     0
171
     0
290
     0
174
     0
 93
        1
 44
-50.0
173
     0
291
     1
 45
0.0
1001
ACAD
1000
AcDbSavedByObjectVersion
1070
     0
  0
VISUALSTYLE
  5
6E42
102
{ACAD_REACTORS
330
6E33
102
}
330
6E33
100
AcDbVisualStyle
  2
Facepattern
 70
    15
 71
     2
 72
     2
 73
     0
 90
        0
 40
-0.6
 41
-30.0
 62
     5
 63
     7
 74
     1
 91
        4
 64
     7
 65
   257
 75
     1
175
     1
 42
1.0
 92
        8
 66
     7
 43
1.0
 76
     1
 77
     6
 78
     2
 67
     7
 79
     5
170
     0
171
     0
290
     0
174
     0
 93
        1
 44
0.0
173
     0
291
     1
 45
0.0
1001
ACAD
1000
AcDbSavedByObjectVersion
1070
     0
  0
VISUALSTYLE
  5
6E34
102
{ACAD_REACTORS
330
6E33
102
}
330
6E33
100
AcDbVisualStyle
  2
Flat
 70
     0
 71
     2
 72
     1
 73
     1
 90
        2
 40
-0.6
 41
30.0
 62
     5
 63
     7
 74
     0
 91
        4
 64
     7
 65
   257
 75
     1
175
     1
 42
1.0
 92
        8
 66
     7
 43
1.0
 76
     1
 77
     6
 78
     2
 67
     7
 79
     5
170
     0
171
     0
290
     0
174
     0
 93
       13
 44
0.0
173
     0
291
     1
 45
0.0
1001
ACAD
1000
AcDbSavedByObjectVersion
1070
     0
  0
VISUALSTYLE
  5
6E35
102
{ACAD_REACTORS
330
6E33
102
}
330
6E33
100
AcDbVisualStyle
  2
FlatWithEdges
 70
     1
 71
     2
 72
     1
 73
     1
 90
        2
 40
-0.6
 41
30.0
 62
     5
 63
     7
 74
     1
 91
        4
 64
     7
 65
   257
 75
     1
175
     1
 42
1.0
 92
        0
 66
   257
 43
1.0
 76
     1
 77
     6
 78
     2
 67
     7
 79
     5
170
     0
171
     0
290
     0
174
     0
 93
       13
 44
0.0
173
     0
291
     1
 45
0.0
1001
ACAD
1000
AcDbSavedByObjectVersion
1070
     0
  0
VISUALSTYLE
  5
6E36
102
{ACAD_REACTORS
330
6E33
102
}
330
6E33
100
AcDbVisualStyle
  2
Gouraud
 70
     2
 71
     2
 72
     2
 73
     1
 90
        2
 40
-0.6
 41
30.0
 62
     5
 63
     7
 74
     0
 91
        4
 64
     7
 65
   257
 75
     1
175
     1
 42
1.0
 92
        0
 66
     7
 43
1.0
 76
     1
 77
     6
 78
     2
 67
     7
 79
     5
170
     0
171
     0
290
     0
174
     0
 93
       13
 44
0.0
173
     0
291
     1
 45
0.0
1001
ACAD
1000
AcDbSavedByObjectVersion
1070
     0
  0
VISUALSTYLE
  5
6E37
102
{ACAD_REACTORS
330
6E33
102
}
330
6E33
100
AcDbVisualStyle
  2
GouraudWithEdges
 70
     3
 71
     2
 72
     2
 73
     1
 90
        2
 40
-0.6
 41
30.0
 62
     5
 63
     7
 74
     1
 91
        4
 64
     7
 65
   257
 75
     1
175
     1
 42
1.0
 92
        0
 66
   257
 43
1.0
 76
     1
 77
     6
 78
     2
 67
     7
 79
     5
170
     0
171
     0
290
     0
174
     0
 93
       13
 44
0.0
173
     0
291
     1
 45
0.0
1001
ACAD
1000
AcDbSavedByObjectVersion
1070
     0
  0
VISUALSTYLE
  5
6E41
102
{ACAD_REACTORS
330
6E33
102
}
330
6E33
100
AcDbVisualStyle
  2
Linepattern
 70
    14
 71
     2
 72
     2
 73
     0
 90
        0
 40
-0.6
 41
-30.0
 62
     5
 63
     7
 74
     1
 91
        4
 64
     7
 65
   257
 75
     7
175
     7
 42
1.0
 92
        8
 66
     7
 43
1.0
 76
     1
 77
     6
 78
     2
 67
     7
 79
     5
170
     0
171
     0
290
     0
174
     0
 93
        1
 44
0.0
173
     0
291
     1
 45
0.0
1001
ACAD
1000
AcDbSavedByObjectVersion
1070
     0
  0
VISUALSTYLE
  5
6E3D
102
{ACAD_REACTORS
330
6E33
102
}
330
6E33
100
AcDbVisualStyle
  2
Realistic
 70
     8
 71
     2
 72
     2
 73
     0
 90
        0
 40
-0.6
 41
-30.0
 62
     5
 63
     7
 74
     1
 91
        0
 64
     7
 65
   257
 75
     1
175
     1
 42
1.0
 92
        8
 66
     8
 43
1.0
 76
     1
 77
     6
 78
     2
 67
     7
 79
     5
170
     0
171
     0
290
     0
174
     0
 93
       13
 44
0.0
173
     0
291
     0
 45
0.0
1001
ACAD
1000
AcDbSavedByObjectVersion
1070
     0
  0
VISUALSTYLE
  5
6E40
102
{ACAD_REACTORS
330
6E33
102
}
330
6E33
100
AcDbVisualStyle
  2
Thicken
 70
    13
 71
     2
 72
     2
 73
     0
 90
        0
 40
-0.6
 41
-30.0
 62
     5
 63
     7
 74
     1
 91
        4
 64
     7
 65
   257
 75
     1
175
     1
 42
1.0
 92
       12
 66
     7
 43
1.0
 76
     1
 77
     6
 78
     2
 67
     7
 79
     5
170
     0
171
     0
290
     0
174
     0
 93
        1
 44
0.0
173
     0
291
     1
 45
0.0
1001
ACAD
1000
AcDbSavedByObjectVersion
1070
     0
  0
DICTIONARYVAR
  5
6EE2
102
{ACAD_REACTORS
330
169
102
}
330
169
100
DictionaryVariables
280
     0
  1
STANDARD
  0
DICTIONARYVAR
  5
16A
102
{ACAD_REACTORS
330
169
102
}
330
169
100
DictionaryVariables
280
     0
  1
1
  0
DICTIONARYVAR
  5
6EE4
102
{ACAD_REACTORS
330
169
102
}
330
169
100
DictionaryVariables
280
     0
  1
0
  0
DICTIONARYVAR
  5
6EE3
102
{ACAD_REACTORS
330
169
102
}
330
169
100
DictionaryVariables
280
     0
  1
127
  0
XRECORD
  5
177
102
{ACAD_REACTORS
330
176
102
}
330
176
100
AcDbXrecord
280
     1
 91
      476
330
179
 90
        8
 62
     7
370
    -3
331
15
  1
Color_7
330
128
 90
        0
 62
     7
370
    -3
331
15
  1
Color_7
330
10
 90
        8
 62
     7
370
    -3
331
15
  1
Color_7
  0
DICTIONARY
  5
6EEE
330
21
100
AcDbDictionary
280
     1
281
     1
  3
ACAD_XREC_ROUNDTRIP
360
6EEF
  0
DICTIONARY
  5
6EEC
330
1D
100
AcDbDictionary
280
     1
281
     1
  3
ACAD_XREC_ROUNDTRIP
360
6EED
  0
DICTIONARY
  5
6EF2
330
6E31
100
AcDbDictionary
280
     1
281
     1
  3
ACAD_XREC_ROUNDTRIP
360
6EF3
  0
DICTIONARY
  5
6EF0
330
6E30
100
AcDbDictionary
280
     1
281
     1
  3
ACAD_XREC_ROUNDTRIP
360
6EF1
  0
DICTIONARY
  5
6EF4
330
6E32
100
AcDbDictionary
280
     1
281
     1
  3
ACAD_XREC_ROUNDTRIP
360
6EF5
  0
DICTIONARY
  5
6EF6
330
6E46
100
AcDbDictionary
280
     1
281
     1
  3
ACAD_XREC_ROUNDTRIP
360
6EF7
  0
XRECORD
  5
6EEF
102
{ACAD_REACTORS
330
6EEE
102
}
330
6EEE
100
AcDbXrecord
280
     1
102
SHADEPLOT
 70
     0
102
SHADEPLOTRESLEVEL
 70
     2
102
SHADEPLOTCUSTOMDPI
 70
   300
  0
XRECORD
  5
6EED
102
{ACAD_REACTORS
330
6EEC
102
}
330
6EEC
100
AcDbXrecord
280
     1
102
SHADEPLOT
 70
     0
102
SHADEPLOTRESLEVEL
 70
     2
102
SHADEPLOTCUSTOMDPI
 70
   300
  0
XRECORD
  5
6EF3
102
{ACAD_REACTORS
330
6EF2
102
}
330
6EF2
100
AcDbXrecord
280
     1
102
MATERIAL
148
0.0
149
0.0
149
0.0
 93
        0
 94
       63
282
     0
 72
     1
 77
     1
171
     1
175
     1
179
     1
273
     0
  0
XRECORD
  5
6EF1
102
{ACAD_REACTORS
330
6EF0
102
}
330
6EF0
100
AcDbXrecord
280
     1
102
MATERIAL
148
0.0
149
0.0
149
0.0
 93
        0
 94
       63
282
     0
 72
     1
 77
     1
171
     1
175
     1
179
     1
273
     0
  0
XRECORD
  5
6EF5
102
{ACAD_REACTORS
330
6EF4
102
}
330
6EF4
100
AcDbXrecord
280
     1
102
MATERIAL
148
0.0
149
0.0
149
0.0
 93
        0
 94
       63
282
     0
 72
     1
 77
     1
171
     1
175
     1
179
     1
273
     0
  0
XRECORD
  5
6EF7
102
{ACAD_REACTORS
330
6EF6
102
}
330
6EF6
100
AcDbXrecord
280
     1
102
ACAD_ROUNDTRIP_PRE2007_TABLESTYLE
 90
      512
 91
        0
  1

 92
      512
 93
        0
  2

 94
      512
 95
        0
  3

  0
ENDSEC
  0
EOF
