  0
SECTION
  2
HEADER
  9
$ACADVER
  1
AC1015
  9
$ACADMAINTVER
 70
    20
  9
$DWGCODEPAGE
  3
ANSI_932
  9
$INSBASE
 10
0.0
 20
0.0
 30
0.0
  9
$EXTMIN
 10
90.25360215717649
 20
-14.74903491036605
 30
-0.0015258207003583
  9
$EXTMAX
 10
212.275086185284
 20
126.2891245328403
 30
0.0000000349246037
  9
$LIMMIN
 10
0.0
 20
0.0
  9
$LIMMAX
 10
420.0
 20
297.0
  9
$ORTHOMODE
 70
     0
  9
$REGENMODE
 70
     1
  9
$FILLMODE
 70
     1
  9
$QTEXTMODE
 70
     0
  9
$MIRRTEXT
 70
     1
  9
$LTSCALE
 40
1.0
  9
$ATTMODE
 70
     1
  9
$TEXTSIZE
 40
5.0
  9
$TRACEWID
 40
0.05
  9
$TEXTSTYLE
  7
ACAD
  9
$CLAYER
  8
寸法
  9
$CELTYPE
  6
CONTINUOUS
  9
$CECOLOR
 62
   256
  9
$CELTSCALE
 40
1.0
  9
$DISPSILH
 70
     0
  9
$DIMSCALE
 40
1.0
  9
$DIMASZ
 40
1.0
  9
$DIMEXO
 40
3.0
  9
$DIMDLI
 40
0.38
  9
$DIMRND
 40
0.0
  9
$DIMDLE
 40
0.0
  9
$DIMEXE
 40
0.0
  9
$DIMTP
 40
0.0
  9
$DIMTM
 40
0.0
  9
$DIMTXT
 40
5.0
  9
$DIMCEN
 40
0.09
  9
$DIMTSZ
 40
0.0
  9
$DIMTOL
 70
     0
  9
$DIMLIM
 70
     0
  9
$DIMTIH
 70
     0
  9
$DIMTOH
 70
     1
  9
$DIMSE1
 70
     0
  9
$DIMSE2
 70
     0
  9
$DIMTAD
 70
     1
  9
$DIMZIN
 70
     0
  9
$DIMBLK
  1
Dot
  9
$DIMASO
 70
     1
  9
$DIMSHO
 70
     1
  9
$DIMPOST
  1

  9
$DIMAPOST
  1

  9
$DIMALT
 70
     0
  9
$DIMALTD
 70
     2
  9
$DIMALTF
 40
25.4
  9
$DIMLFAC
 40
1.0
  9
$DIMTOFL
 70
     0
  9
$DIMTVP
 40
0.0
  9
$DIMTIX
 70
     1
  9
$DIMSOXD
 70
     0
  9
$DIMSAH
 70
     0
  9
$DIMBLK1
  1

  9
$DIMBLK2
  1

  9
$DIMSTYLE
  2
AutoCAD
  9
$DIMCLRD
 70
     4
  9
$DIMCLRE
 70
     4
  9
$DIMCLRT
 70
     3
  9
$DIMTFAC
 40
1.0
  9
$DIMGAP
 40
1.0
  9
$DIMJUST
 70
     0
  9
$DIMSD1
 70
     0
  9
$DIMSD2
 70
     0
  9
$DIMTOLJ
 70
     1
  9
$DIMTZIN
 70
     0
  9
$DIMALTZ
 70
     0
  9
$DIMALTTZ
 70
     0
  9
$DIMUPT
 70
     0
  9
$DIMDEC
 70
     0
  9
$DIMTDEC
 70
     0
  9
$DIMALTU
 70
     2
  9
$DIMALTTD
 70
     2
  9
$DIMTXSTY
  7
ACAD
  9
$DIMAUNIT
 70
     0
  9
$DIMADEC
 70
     0
  9
$DIMALTRND
 40
0.0
  9
$DIMAZIN
 70
     0
  9
$DIMDSEP
 70
    46
  9
$DIMATFIT
 70
     0
  9
$DIMFRAC
 70
     0
  9
$DIMLDRBLK
  1
None
  9
$DIMLUNIT
 70
     2
  9
$DIMLWD
 70
    -2
  9
$DIMLWE
 70
    -2
  9
$DIMTMOVE
 70
     0
  9
$LUNITS
 70
     2
  9
$LUPREC
 70
     4
  9
$SKETCHINC
 40
0.1
  9
$FILLETRAD
 40
0.0
  9
$AUNITS
 70
     0
  9
$AUPREC
 70
     0
  9
$MENU
  1
.
  9
$ELEVATION
 40
0.0
  9
$PELEVATION
 40
0.0
  9
$THICKNESS
 40
0.0
  9
$LIMCHECK
 70
     0
  9
$CHAMFERA
 40
0.0
  9
$CHAMFERB
 40
0.0
  9
$CHAMFERC
 40
0.0
  9
$CHAMFERD
 40
0.0
  9
$SKPOLY
 70
     0
  9
$TDCREATE
 40
2454316.693457674
  9
$TDUCREATE
 40
2454316.318457674
  9
$TDUPDATE
 40
2454735.623277986
  9
$TDUUPDATE
 40
2454735.248277986
  9
$TDINDWG
 40
0.2492043866
  9
$TDUSRTIMER
 40
0.2492043866
  9
$USRTIMER
 70
     1
  9
$ANGBASE
 50
0.0
  9
$ANGDIR
 70
     0
  9
$PDMODE
 70
     0
  9
$PDSIZE
 40
0.0
  9
$PLINEWID
 40
0.0
  9
$SPLFRAME
 70
     0
  9
$SPLINETYPE
 70
     6
  9
$SPLINESEGS
 70
     8
  9
$HANDSEED
  5
6F95
  9
$SURFTAB1
 70
     6
  9
$SURFTAB2
 70
     6
  9
$SURFTYPE
 70
     6
  9
$SURFU
 70
     6
  9
$SURFV
 70
     6
  9
$UCSBASE
  2

  9
$UCSNAME
  2

  9
$UCSORG
 10
0.0
 20
0.0
 30
0.0
  9
$UCSXDIR
 10
1.0
 20
0.0
 30
0.0
  9
$UCSYDIR
 10
0.0
 20
1.0
 30
0.0
  9
$UCSORTHOREF
  2

  9
$UCSORTHOVIEW
 70
     0
  9
$UCSORGTOP
 10
0.0
 20
0.0
 30
0.0
  9
$UCSORGBOTTOM
 10
0.0
 20
0.0
 30
0.0
  9
$UCSORGLEFT
 10
0.0
 20
0.0
 30
0.0
  9
$UCSORGRIGHT
 10
0.0
 20
0.0
 30
0.0
  9
$UCSORGFRONT
 10
0.0
 20
0.0
 30
0.0
  9
$UCSORGBACK
 10
0.0
 20
0.0
 30
0.0
  9
$PUCSBASE
  2

  9
$PUCSNAME
  2

  9
$PUCSORG
 10
0.0
 20
0.0
 30
0.0
  9
$PUCSXDIR
 10
1.0
 20
0.0
 30
0.0
  9
$PUCSYDIR
 10
0.0
 20
1.0
 30
0.0
  9
$PUCSORTHOREF
  2

  9
$PUCSORTHOVIEW
 70
     0
  9
$PUCSORGTOP
 10
0.0
 20
0.0
 30
0.0
  9
$PUCSORGBOTTOM
 10
0.0
 20
0.0
 30
0.0
  9
$PUCSORGLEFT
 10
0.0
 20
0.0
 30
0.0
  9
$PUCSORGRIGHT
 10
0.0
 20
0.0
 30
0.0
  9
$PUCSORGFRONT
 10
0.0
 20
0.0
 30
0.0
  9
$PUCSORGBACK
 10
0.0
 20
0.0
 30
0.0
  9
$USERI1
 70
     0
  9
$USERI2
 70
     0
  9
$USERI3
 70
     0
  9
$USERI4
 70
     0
  9
$USERI5
 70
     0
  9
$USERR1
 40
0.0
  9
$USERR2
 40
0.0
  9
$USERR3
 40
0.0
  9
$USERR4
 40
0.0
  9
$USERR5
 40
0.0
  9
$WORLDVIEW
 70
     1
  9
$SHADEDGE
 70
     3
  9
$SHADEDIF
 70
    70
  9
$TILEMODE
 70
     1
  9
$MAXACTVP
 70
    48
  9
$PINSBASE
 10
0.0
 20
0.0
 30
0.0
  9
$PLIMCHECK
 70
     0
  9
$PEXTMIN
 10
1.000000000000000E+20
 20
1.000000000000000E+20
 30
1.000000000000000E+20
  9
$PEXTMAX
 10
-1.000000000000000E+20
 20
-1.000000000000000E+20
 30
-1.000000000000000E+20
  9
$PLIMMIN
 10
0.0
 20
0.0
  9
$PLIMMAX
 10
12.0
 20
9.0
  9
$UNITMODE
 70
     0
  9
$VISRETAIN
 70
     0
  9
$PLINEGEN
 70
     0
  9
$PSLTSCALE
 70
     1
  9
$TREEDEPTH
 70
  3020
  9
$CMLSTYLE
  2
Standard
  9
$CMLJUST
 70
     0
  9
$CMLSCALE
 40
1.0
  9
$PROXYGRAPHICS
 70
     1
  9
$MEASUREMENT
 70
     0
  9
$CELWEIGHT
370
    -1
  9
$ENDCAPS
280
     0
  9
$JOINSTYLE
280
     0
  9
$LWDISPLAY
290
     0
  9
$INSUNITS
 70
     0
  9
$HYPERLINKBASE
  1

  9
$STYLESHEET
  1

  9
$XEDIT
290
     1
  9
$CEPSNTYPE
380
     0
  9
$PSTYLEMODE
290
     1
  9
$FINGERPRINTGUID
  2
{CC7D6DEE-A9F1-4F3E-AC95-C84B62CCA3FD}
  9
$VERSIONGUID
  2
{EF0813DB-9132-450B-A8EA-43F36F003F43}
  9
$EXTNAMES
290
     1
  9
$PSVPSCALE
 40
0.0
  9
$OLESTARTUP
290
     0
  0
ENDSEC
  0
SECTION
  2
CLASSES
  0
CLASS
  1
ACDBDICTIONARYWDFLT
  2
AcDbDictionaryWithDefault
  3
ObjectDBX Classes
 90
        0
280
     0
281
     0
  0
CLASS
  1
ACDBPLACEHOLDER
  2
AcDbPlaceHolder
  3
ObjectDBX Classes
 90
        0
280
     0
281
     0
  0
CLASS
  1
LAYOUT
  2
AcDbLayout
  3
ObjectDBX Classes
 90
        0
280
     0
281
     0
  0
CLASS
  1
DICTIONARYVAR
  2
AcDbDictionaryVar
  3
ObjectDBX Classes
 90
        0
280
     0
281
     0
  0
CLASS
  1
MATERIAL
  2
AcDbMaterial
  3
ObjectDBX Classes
 90
     1153
280
     0
281
     0
  0
CLASS
  1
VISUALSTYLE
  2
AcDbVisualStyle
  3
ObjectDBX Classes
 90
     4095
280
     0
281
     0
  0
CLASS
  1
TABLESTYLE
  2
AcDbTableStyle
  3
ObjectDBX Classes
 90
     4095
280
     0
281
     0
  0
ENDSEC
  0
SECTION
  2
TABLES
  0
TABLE
  2
VPORT
  5
8
102
{ACAD_XDICTIONARY
360
6F67
102
}
330
0
100
AcDbSymbolTable
 70
     1
  0
VPORT
  5
6D35
330
8
100
AcDbSymbolTableRecord
100
AcDbViewportTableRecord
  2
*Active
 70
     0
 10
0.0
 20
0.0
 11
1.0
 21
1.0
 12
151.2643441712302
 22
55.77004481123715
 13
0.0
 23
0.0
 14
1.0
 24
1.0
 15
0.0
 25
0.0
 16
0.0
 26
0.0
 36
1.0
 17
0.0
 27
0.0
 37
0.0
 40
142.138587215195
 41
1.571614583333333
 42
50.0
 43
0.0
 44
0.0
 50
0.0
 51
0.0
 71
     0
 72
   100
 73
     1
 74
     1
 75
     0
 76
     0
 77
     0
 78
     0
281
     0
 65
     1
110
0.0
120
0.0
130
0.0
111
1.0
121
0.0
131
0.0
112
0.0
122
1.0
132
0.0
 79
     0
146
0.0
  0
ENDTAB
  0
TABLE
  2
LTYPE
  5
5
330
0
100
AcDbSymbolTable
 70
    50
  0
LTYPE
  5
13
330
5
100
AcDbSymbolTableRecord
100
AcDbLinetypeTableRecord
  2
ByBlock
 70
     0
  3

 72
    65
 73
     0
 40
0.0
  0
LTYPE
  5
14
330
5
100
AcDbSymbolTableRecord
100
AcDbLinetypeTableRecord
  2
ByLayer
 70
     0
  3

 72
    65
 73
     0
 40
0.0
  0
LTYPE
  5
15
330
5
100
AcDbSymbolTableRecord
100
AcDbLinetypeTableRecord
  2
CONTINUOUS
 70
     0
  3
実線
 72
    65
 73
     0
 40
0.0
  0
LTYPE
  5
22
330
5
100
AcDbSymbolTableRecord
100
AcDbLinetypeTableRecord
  2
DASHED1
 70
     0
  3
--  --  --  --  --  --  --  --  
 72
    65
 73
     2
 40
2.5
 49
1.25
 74
     0
 49
-1.25
 74
     0
  0
LTYPE
  5
23
330
5
100
AcDbSymbolTableRecord
100
AcDbLinetypeTableRecord
  2
DASHED2
 70
     0
  3
----    ----    ----    ----    
 72
    65
 73
     2
 40
5.0
 49
2.5
 74
     0
 49
-2.5
 74
     0
  0
LTYPE
  5
24
330
5
100
AcDbSymbolTableRecord
100
AcDbLinetypeTableRecord
  2
DASHED3
 70
     0
  3
------  ------  ------  ------  
 72
    65
 73
     2
 40
5.0
 49
3.75
 74
     0
 49
-1.25
 74
     0
  0
LTYPE
  5
25
330
5
100
AcDbSymbolTableRecord
100
AcDbLinetypeTableRecord
  2
CENTER1
 70
     0
  3
----- - ----- - ----- - ----- - 
 72
    65
 73
     4
 40
10.0
 49
6.25
 74
     0
 49
-1.25
 74
     0
 49
1.25
 74
     0
 49
-1.25
 74
     0
  0
LTYPE
  5
26
330
5
100
AcDbSymbolTableRecord
100
AcDbLinetypeTableRecord
  2
CENTER2
 70
     0
  3
----------  --  ----------  --  
 72
    65
 73
     4
 40
20.0
 49
12.5
 74
     0
 49
-2.5
 74
     0
 49
2.5
 74
     0
 49
-2.5
 74
     0
  0
LTYPE
  5
27
330
5
100
AcDbSymbolTableRecord
100
AcDbLinetypeTableRecord
  2
PHANTOM1
 70
     0
  3
--- - - --- - - --- - - --- - - 
 72
    65
 73
     6
 40
10.0
 49
3.25
 74
     0
 49
-1.25
 74
     0
 49
1.25
 74
     0
 49
-1.25
 74
     0
 49
1.25
 74
     0
 49
-1.25
 74
     0
  0
LTYPE
  5
28
330
5
100
AcDbSymbolTableRecord
100
AcDbLinetypeTableRecord
  2
PHANTOM2
 70
     0
  3
--------  -  -  --------  -  -  
 72
    65
 73
     6
 40
20.0
 49
10.0
 74
     0
 49
-2.5
 74
     0
 49
1.25
 74
     0
 49
-2.5
 74
     0
 49
1.25
 74
     0
 49
-2.5
 74
     0
  0
LTYPE
  5
29
330
5
100
AcDbSymbolTableRecord
100
AcDbLinetypeTableRecord
  2
DOT
 70
     0
  3
-   -   -   -   -   -   -   -   
 72
    65
 73
     2
 40
2.5
 49
0.625
 74
     0
 49
-1.875
 74
     0
  0
LTYPE
  5
2A
330
5
100
AcDbSymbolTableRecord
100
AcDbLinetypeTableRecord
  2
DUMMY
 70
     0
  3
ダミー
 72
    65
 73
     0
 40
0.0
  0
LTYPE
  5
2B
330
5
100
AcDbSymbolTableRecord
100
AcDbLinetypeTableRecord
  2
RAND1
 70
     0
  3
ランダム線1
 72
    65
 73
     4
 40
10.0
 49
1.0
 74
     0
 49
-2.0
 74
     0
 49
3.0
 74
     0
 49
-4.0
 74
     0
  0
LTYPE
  5
2C
330
5
100
AcDbSymbolTableRecord
100
AcDbLinetypeTableRecord
  2
RAND2
 70
     0
  3
ランダム線2
 72
    65
 73
     4
 40
14.0
 49
2.0
 74
     0
 49
-3.0
 74
     0
 49
4.0
 74
     0
 49
-5.0
 74
     0
  0
LTYPE
  5
2D
330
5
100
AcDbSymbolTableRecord
100
AcDbLinetypeTableRecord
  2
RAND3
 70
     0
  3
ランダム線3
 72
    65
 73
     4
 40
18.0
 49
3.0
 74
     0
 49
-4.0
 74
     0
 49
5.0
 74
     0
 49
-6.0
 74
     0
  0
LTYPE
  5
2E
330
5
100
AcDbSymbolTableRecord
100
AcDbLinetypeTableRecord
  2
RAND4
 70
     0
  3
ランダム線4
 72
    65
 73
     4
 40
22.0
 49
4.0
 74
     0
 49
-5.0
 74
     0
 49
6.0
 74
     0
 49
-7.0
 74
     0
  0
LTYPE
  5
2F
330
5
100
AcDbSymbolTableRecord
100
AcDbLinetypeTableRecord
  2
RAND5
 70
     0
  3
ランダム線5
 72
    65
 73
     4
 40
26.0
 49
5.0
 74
     0
 49
-6.0
 74
     0
 49
7.0
 74
     0
 49
-8.0
 74
     0
  0
LTYPE
  5
30
330
5
100
AcDbSymbolTableRecord
100
AcDbLinetypeTableRecord
  2
LONG1
 70
     0
  3
----------  --  ----------  --  
 72
    65
 73
     4
 40
40.0
 49
32.5
 74
     0
 49
-2.5
 74
     0
 49
2.5
 74
     0
 49
-2.5
 74
     0
  0
LTYPE
  5
31
330
5
100
AcDbSymbolTableRecord
100
AcDbLinetypeTableRecord
  2
LONG2
 70
     0
  3
--------  -  -  --------  -  -  
 72
    65
 73
     6
 40
40.0
 49
30.0
 74
     0
 49
-2.5
 74
     0
 49
1.25
 74
     0
 49
-2.5
 74
     0
 49
1.25
 74
     0
 49
-2.5
 74
     0
  0
LTYPE
  5
32
330
5
100
AcDbSymbolTableRecord
100
AcDbLinetypeTableRecord
  2
LONG3
 70
     0
  3
+++++++++++++++..+++++++++++++++
 72
    65
 73
     2
 40
40.0
 49
37.5
 74
     0
 49
-2.5
 74
     0
  0
LTYPE
  5
33
330
5
100
AcDbSymbolTableRecord
100
AcDbLinetypeTableRecord
  2
LONG4
 70
     0
  3
+++++++++++++++..+++++++++++++++
 72
    65
 73
     2
 40
80.0
 49
75.0
 74
     0
 49
-5.0
 74
     0
  0
LTYPE
  5
34
330
5
100
AcDbSymbolTableRecord
100
AcDbLinetypeTableRecord
  2
LONG5
 70
     0
  3
----------  --  ----------  --  
 72
    65
 73
     4
 40
60.0
 49
37.5
 74
     0
 49
-7.5
 74
     0
 49
7.5
 74
     0
 49
-7.5
 74
     0
  0
LTYPE
  5
35
330
5
100
AcDbSymbolTableRecord
100
AcDbLinetypeTableRecord
  2
DASHED
 70
     0
  3
-------   -------------   ------
 72
    65
 73
     2
 40
7.5
 49
6.0
 74
     0
 49
-1.5
 74
     0
  0
LTYPE
  5
36
330
5
100
AcDbSymbolTableRecord
100
AcDbLinetypeTableRecord
  2
DASHED_SPACED
 70
     0
  3
----        --------        ----
 72
    65
 73
     2
 40
12.0
 49
6.0
 74
     0
 49
-6.0
 74
     0
  0
LTYPE
  5
37
330
5
100
AcDbSymbolTableRecord
100
AcDbLinetypeTableRecord
  2
LONG_DASHED_DOTTED
 70
     0
  3
------------- --- --------------
 72
    65
 73
     4
 40
15.25
 49
12.0
 74
     0
 49
-1.5
 74
     0
 49
0.25
 74
     0
 49
-1.5
 74
     0
  0
LTYPE
  5
38
330
5
100
AcDbSymbolTableRecord
100
AcDbLinetypeTableRecord
  2
LONG_DASHED_DOUBLE-DOTTED
 70
     0
  3
----------- --- --- ------------
 72
    65
 73
     6
 40
17.0
 49
12.0
 74
     0
 49
-1.5
 74
     0
 49
0.25
 74
     0
 49
-1.5
 74
     0
 49
0.25
 74
     0
 49
-1.5
 74
     0
  0
LTYPE
  5
39
330
5
100
AcDbSymbolTableRecord
100
AcDbLinetypeTableRecord
  2
LONG_DASHED_TRIPLICATE-DOTTED
 70
     0
  3
--------- --- --- --- ----------
 72
    65
 73
     8
 40
18.75
 49
12.0
 74
     0
 49
-1.5
 74
     0
 49
0.25
 74
     0
 49
-1.5
 74
     0
 49
0.25
 74
     0
 49
-1.5
 74
     0
 49
0.25
 74
     0
 49
-1.5
 74
     0
  0
LTYPE
  5
3A
330
5
100
AcDbSymbolTableRecord
100
AcDbLinetypeTableRecord
  2
DOTTED
 70
     0
  3
   -       -       -       -    
 72
    65
 73
     2
 40
1.75
 49
0.25
 74
     0
 49
-1.5
 74
     0
  0
LTYPE
  5
3B
330
5
100
AcDbSymbolTableRecord
100
AcDbLinetypeTableRecord
  2
CHAIN
 70
     0
  3
-------------- -- --------------
 72
    65
 73
     4
 40
18.5
 49
12.0
 74
     0
 49
-1.5
 74
     0
 49
3.5
 74
     0
 49
-1.5
 74
     0
  0
LTYPE
  5
3C
330
5
100
AcDbSymbolTableRecord
100
AcDbLinetypeTableRecord
  2
CHAIN_DOUBLE_DASH
 70
     0
  3
------------ -- -- -------------
 72
    65
 73
     6
 40
23.5
 49
12.0
 74
     0
 49
-1.5
 74
     0
 49
3.5
 74
     0
 49
-1.5
 74
     0
 49
3.5
 74
     0
 49
-1.5
 74
     0
  0
LTYPE
  5
3D
330
5
100
AcDbSymbolTableRecord
100
AcDbLinetypeTableRecord
  2
DASHED_DOTTED
 70
     0
  3
-----------     -     ----------
 72
    65
 73
     4
 40
9.25
 49
6.0
 74
     0
 49
-1.5
 74
     0
 49
0.25
 74
     0
 49
-1.5
 74
     0
  0
LTYPE
  5
3E
330
5
100
AcDbSymbolTableRecord
100
AcDbLinetypeTableRecord
  2
DOUBLE-DASHED_DOTTED
 70
     0
  3
------   -----------   -   -----
 72
    65
 73
     6
 40
16.75
 49
6.0
 74
     0
 49
-1.5
 74
     0
 49
6.0
 74
     0
 49
-1.5
 74
     0
 49
0.25
 74
     0
 49
-1.5
 74
     0
  0
LTYPE
  5
3F
330
5
100
AcDbSymbolTableRecord
100
AcDbLinetypeTableRecord
  2
DASHED_DOUBLE-DOTTED
 70
     0
  3
---------    -    -    ---------
 72
    65
 73
     6
 40
11.0
 49
6.0
 74
     0
 49
-1.5
 74
     0
 49
0.25
 74
     0
 49
-1.5
 74
     0
 49
0.25
 74
     0
 49
-1.5
 74
     0
  0
LTYPE
  5
40
330
5
100
AcDbSymbolTableRecord
100
AcDbLinetypeTableRecord
  2
DOUBLE-DASHED_DOUBLE-DOTTED
 70
     0
  3
-----   ---------   -   -   ----
 72
    65
 73
     8
 40
18.5
 49
6.0
 74
     0
 49
-1.5
 74
     0
 49
6.0
 74
     0
 49
-1.5
 74
     0
 49
0.25
 74
     0
 49
-1.5
 74
     0
 49
0.25
 74
     0
 49
-1.5
 74
     0
  0
LTYPE
  5
41
330
5
100
AcDbSymbolTableRecord
100
AcDbLinetypeTableRecord
  2
DASHED_TRIPLICATE-DOTTED
 70
     0
  3
-------    -    -    -    ------
 72
    65
 73
     8
 40
12.75
 49
6.0
 74
     0
 49
-1.5
 74
     0
 49
0.25
 74
     0
 49
-1.5
 74
     0
 49
0.25
 74
     0
 49
-1.5
 74
     0
 49
0.25
 74
     0
 49
-1.5
 74
     0
  0
LTYPE
  5
42
330
5
100
AcDbSymbolTableRecord
100
AcDbLinetypeTableRecord
  2
DOUBLE-DASHED_TRIPLICATE-DOTTED
 70
     0
  3
-----  ---------  -  -  -  -----
 72
    65
 73
    10
 40
20.25
 49
6.0
 74
     0
 49
-1.5
 74
     0
 49
6.0
 74
     0
 49
-1.5
 74
     0
 49
0.25
 74
     0
 49
-1.5
 74
     0
 49
0.25
 74
     0
 49
-1.5
 74
     0
 49
0.25
 74
     0
 49
-1.5
 74
     0
  0
LTYPE
  5
43
330
5
100
AcDbSymbolTableRecord
100
AcDbLinetypeTableRecord
  2
UNDEFINED
 70
     0
  3
--------------------------------
 72
    65
 73
     0
 40
0.0
  0
LTYPE
  5
44
330
5
100
AcDbSymbolTableRecord
100
AcDbLinetypeTableRecord
  2
PLINE2
 70
     0
  3
------     -----------     -----
 72
    65
 73
     2
 40
3.0
 49
2.1
 74
     0
 49
-0.9
 74
     0
  0
LTYPE
  5
45
330
5
100
AcDbSymbolTableRecord
100
AcDbLinetypeTableRecord
  2
PLINE3
 70
     0
  3
------------   ---   -----------
 72
    65
 73
     4
 40
10.0
 49
7.0
 74
     0
 49
-1.0
 74
     0
 49
1.0
 74
     0
 49
-1.0
 74
     0
  0
LTYPE
  5
46
330
5
100
AcDbSymbolTableRecord
100
AcDbLinetypeTableRecord
  2
PLINE4
 70
     0
  3
---------   ---   ---   --------
 72
    65
 73
     6
 40
10.0
 49
5.0
 74
     0
 49
-1.0
 74
     0
 49
1.0
 74
     0
 49
-1.0
 74
     0
 49
1.0
 74
     0
 49
-1.0
 74
     0
  0
LTYPE
  5
47
330
5
100
AcDbSymbolTableRecord
100
AcDbLinetypeTableRecord
  2
PLINE5
 70
     0
  3
------     -----------     -----
 72
    65
 73
     2
 40
5.0
 49
3.5
 74
     0
 49
-1.5
 74
     0
  0
LTYPE
  5
48
330
5
100
AcDbSymbolTableRecord
100
AcDbLinetypeTableRecord
  2
PLINE6
 70
     0
  3
------------   ---   -----------
 72
    65
 73
     4
 40
15.0
 49
10.5
 74
     0
 49
-1.5
 74
     0
 49
1.5
 74
     0
 49
-1.5
 74
     0
  0
LTYPE
  5
49
330
5
100
AcDbSymbolTableRecord
100
AcDbLinetypeTableRecord
  2
PLINE7
 70
     0
  3
---------   ---   ---   --------
 72
    65
 73
     6
 40
15.0
 49
7.5
 74
     0
 49
-1.5
 74
     0
 49
1.5
 74
     0
 49
-1.5
 74
     0
 49
1.5
 74
     0
 49
-1.5
 74
     0
  0
LTYPE
  5
4A
330
5
100
AcDbSymbolTableRecord
100
AcDbLinetypeTableRecord
  2
PLINE8
 70
     0
  3
------     -----------     -----
 72
    65
 73
     2
 40
7.0
 49
4.9
 74
     0
 49
-2.1
 74
     0
  0
LTYPE
  5
4B
330
5
100
AcDbSymbolTableRecord
100
AcDbLinetypeTableRecord
  2
PLINE9
 70
     0
  3
------------   ---   -----------
 72
    65
 73
     4
 40
20.0
 49
14.0
 74
     0
 49
-2.0
 74
     0
 49
2.0
 74
     0
 49
-2.0
 74
     0
  0
LTYPE
  5
4C
330
5
100
AcDbSymbolTableRecord
100
AcDbLinetypeTableRecord
  2
PLINE10
 70
     0
  3
---------   ---   ---   --------
 72
    65
 73
     6
 40
20.0
 49
10.0
 74
     0
 49
-2.0
 74
     0
 49
2.0
 74
     0
 49
-2.0
 74
     0
 49
2.0
 74
     0
 49
-2.0
 74
     0
  0
LTYPE
  5
4D
330
5
100
AcDbSymbolTableRecord
100
AcDbLinetypeTableRecord
  2
PLINE11
 70
     0
  3
------     -----------     -----
 72
    65
 73
     2
 40
9.0
 49
6.299999999999999
 74
     0
 49
-2.7
 74
     0
  0
LTYPE
  5
4E
330
5
100
AcDbSymbolTableRecord
100
AcDbLinetypeTableRecord
  2
PLINE12
 70
     0
  3
------------   ---   -----------
 72
    65
 73
     4
 40
25.0
 49
17.5
 74
     0
 49
-2.5
 74
     0
 49
2.5
 74
     0
 49
-2.5
 74
     0
  0
LTYPE
  5
4F
330
5
100
AcDbSymbolTableRecord
100
AcDbLinetypeTableRecord
  2
PLINE13
 70
     0
  3
---------   ---   ---   --------
 72
    65
 73
     6
 40
25.0
 49
12.5
 74
     0
 49
-2.5
 74
     0
 49
2.5
 74
     0
 49
-2.5
 74
     0
 49
2.5
 74
     0
 49
-2.5
 74
     0
  0
LTYPE
  5
50
330
5
100
AcDbSymbolTableRecord
100
AcDbLinetypeTableRecord
  2
PLINE14
 70
     0
  3
------     -----------     -----
 72
    65
 73
     2
 40
11.0
 49
7.7
 74
     0
 49
-3.299999999999999
 74
     0
  0
LTYPE
  5
51
330
5
100
AcDbSymbolTableRecord
100
AcDbLinetypeTableRecord
  2
PLINE15
 70
     0
  3
------------   ---   -----------
 72
    65
 73
     4
 40
30.0
 49
21.0
 74
     0
 49
-3.0
 74
     0
 49
3.0
 74
     0
 49
-3.0
 74
     0
  0
LTYPE
  5
52
330
5
100
AcDbSymbolTableRecord
100
AcDbLinetypeTableRecord
  2
PLINE16
 70
     0
  3
---------   ---   ---   --------
 72
    65
 73
     6
 40
30.0
 49
15.0
 74
     0
 49
-3.0
 74
     0
 49
3.0
 74
     0
 49
-3.0
 74
     0
 49
3.0
 74
     0
 49
-3.0
 74
     0
  0
ENDTAB
  0
TABLE
  2
LAYER
  5
2
102
{ACAD_XDICTIONARY
360
175
102
}
330
0
100
AcDbSymbolTable
 70
     5
  0
LAYER
  5
10
330
2
100
AcDbSymbolTableRecord
100
AcDbLayerTableRecord
  2
0
 70
     0
 62
     7
  6
CONTINUOUS
370
    -3
390
F
  0
LAYER
  5
128
330
2
100
AcDbSymbolTableRecord
100
AcDbLayerTableRecord
  2
Defpoints
 70
     0
 62
     7
  6
CONTINUOUS
290
     0
370
    -3
390
F
  0
LAYER
  5
179
330
2
100
AcDbSymbolTableRecord
100
AcDbLayerTableRecord
  2
製品
 70
     0
 62
     7
  6
CONTINUOUS
370
    -3
390
F
  0
LAYER
  5
6BA5
330
2
100
AcDbSymbolTableRecord
100
AcDbLayerTableRecord
  2
寸法
 70
     0
 62
     7
  6
CONTINUOUS
370
    -3
390
F
  0
LAYER
  5
6BA6
330
2
100
AcDbSymbolTableRecord
100
AcDbLayerTableRecord
  2
図面枠
 70
     0
 62
     7
  6
CONTINUOUS
370
    -3
390
F
  0
ENDTAB
  0
TABLE
  2
STYLE
  5
3
330
0
100
AcDbSymbolTable
 70
     4
  0
STYLE
  5
11
330
3
100
AcDbSymbolTableRecord
100
AcDbTextStyleTableRecord
  2
STANDARD
 70
     0
 40
0.0
 41
1.0
 50
0.0
 71
     0
 42
0.2
  3
txt
  4
bigfont.shx
  0
STYLE
  5
53
330
3
100
AcDbSymbolTableRecord
100
AcDbTextStyleTableRecord
  2
TATEGAKI
 70
     4
 40
0.0
 41
1.0
 50
0.0
 71
     0
 42
1.0
  3
txt
  4
bigfont.shx
  0
STYLE
  5
123
330
3
100
AcDbSymbolTableRecord
100
AcDbTextStyleTableRecord
  2
ACAD
 70
     0
 40
3.0
 41
0.8
 50
0.0
 71
     0
 42
5.0
  3
romans.shx
  4
extfont.shx
  0
STYLE
  5
3A5F
330
3
100
AcDbSymbolTableRecord
100
AcDbTextStyleTableRecord
  2
VERTXT
 70
     4
 40
0.0
 41
0.8582679999999999
 50
0.0
 71
     0
 42
3.5
  3
txt.shx
  4
BIGFONT
  0
ENDTAB
  0
TABLE
  2
VIEW
  5
6
330
0
100
AcDbSymbolTable
 70
     0
  0
ENDTAB
  0
TABLE
  2
UCS
  5
7
330
0
100
AcDbSymbolTable
 70
     0
  0
ENDTAB
  0
TABLE
  2
APPID
  5
9
330
0
100
AcDbSymbolTable
 70
     1
  0
APPID
  5
12
330
9
100
AcDbSymbolTableRecord
100
AcDbRegAppTableRecord
  2
ACAD
 70
     0
  0
ENDTAB
  0
TABLE
  2
DIMSTYLE
  5
A
330
0
100
AcDbSymbolTable
 70
     3
100
AcDbDimStyleTable
 71
     1
340
126
  0
DIMSTYLE
105
11C
330
A
100
AcDbSymbolTableRecord
100
AcDbDimStyleTableRecord
  2
Standard
 70
     0
340
11
  0
DIMSTYLE
105
126
102
{ACAD_REACTORS
330
6DEA
330
6E04
330
6E11
330
6E1E
330
6E2B
330
6E38
330
6E7B
330
6E88
330
6E95
102
}
330
A
100
AcDbSymbolTableRecord
100
AcDbDimStyleTableRecord
  2
AutoCAD
 70
     0
 41
1.0
 42
3.0
 44
0.0
 73
     0
 77
     1
140
5.0
147
1.0
174
     1
176
     4
177
     4
178
     3
271
     0
272
     0
289
     0
340
123
341
15B0
342
11E
  0
DIMSTYLE
105
2CBB
330
A
100
AcDbSymbolTableRecord
100
AcDbDimStyleTableRecord
  2
111
 70
     0
 41
1.0
 42
0.0
 44
0.0
 73
     0
 77
     1
140
5.0
147
1.0
174
     1
176
     4
177
     4
178
     3
271
     0
272
     0
289
     0
340
123
341
15B0
342
2CB5
  0
ENDTAB
  0
TABLE
  2
BLOCK_RECORD
  5
1
330
0
100
AcDbSymbolTable
 70
    23
  0
BLOCK_RECORD
  5
1E
102
{ACAD_XDICTIONARY
360
28B
102
}
330
1
100
AcDbSymbolTableRecord
100
AcDbBlockTableRecord
  2
*Model_Space
340
21
  0
BLOCK_RECORD
  5
1A
102
{ACAD_XDICTIONARY
360
28D
102
}
330
1
100
AcDbSymbolTableRecord
100
AcDbBlockTableRecord
  2
*Paper_Space
340
1D
  0
BLOCK_RECORD
  5
11E
330
1
100
AcDbSymbolTableRecord
100
AcDbBlockTableRecord
  2
_Dot
340
0
102
{BLKREFS
331
6D81
331
6D82
331
6D88
331
6D89
331
6D8F
331
6D90
331
6D96
331
6D97
331
6D9D
331
6D9E
331
6D1A
331
6D1B
331
6DD2
331
6DD3
331
6DDB
331
6DDC
331
6DE4
331
6DE5
331
6DFC
331
6DFD
331
6E48
331
6E49
331
6E51
331
6E52
331
6E5A
331
6E5B
331
6E63
331
6E64
331
6E6C
331
6E6D
331
6E75
331
6E76
331
6EA5
331
6EA6
331
6EE7
331
6F29
102
}
  0
BLOCK_RECORD
  5
15B0
330
1
100
AcDbSymbolTableRecord
100
AcDbBlockTableRecord
  2
_None
340
0
  0
BLOCK_RECORD
  5
2CB5
330
1
100
AcDbSymbolTableRecord
100
AcDbBlockTableRecord
  2
_Open30
340
0
  0
BLOCK_RECORD
  5
35E3
330
1
100
AcDbSymbolTableRecord
100
AcDbBlockTableRecord
  2
_DotBlank
340
0
  0
BLOCK_RECORD
  5
6DEB
330
1
100
AcDbSymbolTableRecord
100
AcDbBlockTableRecord
  2
*D13
340
0
  0
BLOCK_RECORD
  5
6E05
330
1
100
AcDbSymbolTableRecord
100
AcDbBlockTableRecord
  2
*D15
340
0
  0
BLOCK_RECORD
  5
6E12
330
1
100
AcDbSymbolTableRecord
100
AcDbBlockTableRecord
  2
*D16
340
0
  0
BLOCK_RECORD
  5
6E1F
330
1
100
AcDbSymbolTableRecord
100
AcDbBlockTableRecord
  2
*D17
340
0
  0
BLOCK_RECORD
  5
6E2C
330
1
100
AcDbSymbolTableRecord
100
AcDbBlockTableRecord
  2
*D18
340
0
  0
BLOCK_RECORD
  5
6E39
330
1
100
AcDbSymbolTableRecord
100
AcDbBlockTableRecord
  2
*D19
340
0
  0
BLOCK_RECORD
  5
6E7C
330
1
100
AcDbSymbolTableRecord
100
AcDbBlockTableRecord
  2
*D20
340
0
  0
BLOCK_RECORD
  5
6E89
330
1
100
AcDbSymbolTableRecord
100
AcDbBlockTableRecord
  2
*D21
340
0
  0
BLOCK_RECORD
  5
6E96
330
1
100
AcDbSymbolTableRecord
100
AcDbBlockTableRecord
  2
*D22
340
0
  0
ENDTAB
  0
ENDSEC
  0
SECTION
  2
BLOCKS
  0
BLOCK
  5
1F
330
1E
100
AcDbEntity
  8
0
100
AcDbBlockBegin
  2
*Model_Space
 70
     0
 10
0.0
 20
0.0
 30
0.0
  3
*Model_Space
  1

  0
ENDBLK
  5
20
330
1E
100
AcDbEntity
  8
0
100
AcDbBlockEnd
  0
BLOCK
  5
1B
330
1A
100
AcDbEntity
 67
     1
  8
0
100
AcDbBlockBegin
  2
*Paper_Space
 70
     0
 10
0.0
 20
0.0
 30
0.0
  3
*Paper_Space
  1

  0
ENDBLK
  5
1C
330
1A
100
AcDbEntity
 67
     1
  8
0
100
AcDbBlockEnd
  0
BLOCK
  5
121
330
11E
100
AcDbEntity
  8
0
100
AcDbBlockBegin
  2
_Dot
 70
     0
 10
0.0
 20
0.0
 30
0.0
  3
_Dot
  1

  0
LWPOLYLINE
  5
11F
330
11E
100
AcDbEntity
  8
0
  6
ByBlock
 62
     0
100
AcDbPolyline
 90
        2
 70
     1
 43
0.5
 10
-0.25
 20
0.0
 42
1.0
 10
0.25
 20
0.0
 42
1.0
  0
LINE
  5
120
330
11E
100
AcDbEntity
  8
0
  6
ByBlock
 62
     0
370
    -2
100
AcDbLine
 10
-0.5
 20
0.0
 30
0.0
 11
-1.0
 21
0.0
 31
0.0
  0
ENDBLK
  5
122
330
11E
100
AcDbEntity
  8
0
100
AcDbBlockEnd
  0
BLOCK
  5
15B1
330
15B0
100
AcDbEntity
  8
0
100
AcDbBlockBegin
  2
_None
 70
     0
 10
0.0
 20
0.0
 30
0.0
  3
_None
  1

  0
ENDBLK
  5
15B2
330
15B0
100
AcDbEntity
  8
0
100
AcDbBlockEnd
  0
BLOCK
  5
2CB9
330
2CB5
100
AcDbEntity
  8
0
100
AcDbBlockBegin
  2
_Open30
 70
     0
 10
0.0
 20
0.0
 30
0.0
  3
_Open30
  1

  0
LINE
  5
2CB6
330
2CB5
100
AcDbEntity
  8
0
  6
ByBlock
 62
     0
370
    -2
100
AcDbLine
 10
-1.0
 20
0.26794919
 30
0.0
 11
0.0
 21
0.0
 31
0.0
  0
LINE
  5
2CB7
330
2CB5
100
AcDbEntity
  8
0
  6
ByBlock
 62
     0
370
    -2
100
AcDbLine
 10
0.0
 20
0.0
 30
0.0
 11
-1.0
 21
-0.26794919
 31
0.0
  0
LINE
  5
2CB8
330
2CB5
100
AcDbEntity
  8
0
  6
ByBlock
 62
     0
370
    -2
100
AcDbLine
 10
0.0
 20
0.0
 30
0.0
 11
-1.0
 21
0.0
 31
0.0
  0
ENDBLK
  5
2CBA
330
2CB5
100
AcDbEntity
  8
0
100
AcDbBlockEnd
  0
BLOCK
  5
35E6
330
35E3
100
AcDbEntity
  8
0
100
AcDbBlockBegin
  2
_DotBlank
 70
     0
 10
0.0
 20
0.0
 30
0.0
  3
_DotBlank
  1

  0
CIRCLE
  5
35E4
330
35E3
100
AcDbEntity
  8
0
  6
ByBlock
 62
     0
370
    -2
100
AcDbCircle
 10
0.0
 20
0.0
 30
0.0
 40
0.5
  0
LINE
  5
35E5
330
35E3
100
AcDbEntity
  8
0
  6
ByBlock
 62
     0
370
    -2
100
AcDbLine
 10
-0.5
 20
0.0
 30
0.0
 11
-1.0
 21
0.0
 31
0.0
  0
ENDBLK
  5
35E7
330
35E3
100
AcDbEntity
  8
0
100
AcDbBlockEnd
  0
BLOCK
  5
6DF5
330
6DEB
100
AcDbEntity
  8
0
100
AcDbBlockBegin
  2
*D13
 70
     1
 10
0.0
 20
0.0
 30
0.0
  3
*D13
  1

  0
LINE
  5
6E45
330
6DEB
100
AcDbEntity
  8
寸法
  6
Continuous
 62
     4
370
    -2
100
AcDbLine
 10
106.1332784254097
 20
83.59604889904039
 30
0.0
 11
94.26705338247018
 21
83.59604889904041
 31
0.0
  0
LINE
  5
6E46
330
6DEB
100
AcDbEntity
  8
寸法
  6
Continuous
 62
     4
370
    -2
100
AcDbLine
 10
106.1332784254097
 20
98.59604889904041
 30
0.0
 11
94.26705338247019
 21
98.59604889904041
 31
0.0
  0
LINE
  5
6E47
330
6DEB
100
AcDbEntity
  8
寸法
  6
Continuous
 62
     4
370
    -2
100
AcDbLine
 10
94.26705338247018
 20
84.5960488990404
 30
0.0
 11
94.26705338247019
 21
97.59604889904041
 31
0.0
  0
INSERT
  5
6E48
330
6DEB
100
AcDbEntity
  8
寸法
  6
Continuous
 62
     4
370
    -2
100
AcDbBlockReference
  2
_Dot
 10
94.26705338247018
 20
83.59604889904041
 30
0.0
 50
270.0
  0
INSERT
  5
6E49
330
6DEB
100
AcDbEntity
  8
寸法
  6
Continuous
 62
     4
370
    -2
100
AcDbBlockReference
  2
_Dot
 10
94.26705338247019
 20
98.59604889904041
 30
0.0
 50
90.0
  0
MTEXT
  5
6E4A
330
6DEB
100
AcDbEntity
  8
寸法
  6
Continuous
 62
     3
100
AcDbMText
 10
91.76705338247016
 20
91.09604889904042
 30
0.0
 40
3.0
 41
0.0
 71
     5
 72
     1
  1
\A1;450
  7
ACAD
 11
0.0000000000000001
 21
1.0
 31
0.0
 73
     1
 44
1.0
1001
ACAD
1000
MTEXTBEGIN
1070
    73
1070
     1
1070
    44
1040
1.0
1070
    74
1070
     0
1000
MTEXTEND
  0
POINT
  5
6E4B
330
6DEB
100
AcDbEntity
  8
Defpoints
  6
Continuous
 62
     0
100
AcDbPoint
 10
109.1332784254097
 20
83.59604889904039
 30
0.0
  0
POINT
  5
6E4C
330
6DEB
100
AcDbEntity
  8
Defpoints
  6
Continuous
 62
     0
100
AcDbPoint
 10
109.1332784254097
 20
98.59604889904041
 30
0.0
  0
POINT
  5
6E4D
330
6DEB
100
AcDbEntity
  8
Defpoints
  6
Continuous
 62
     0
100
AcDbPoint
 10
94.26705338247019
 20
98.59604889904041
 30
0.0
  0
ENDBLK
  5
6DF6
330
6DEB
100
AcDbEntity
  8
0
100
AcDbBlockEnd
  0
BLOCK
  5
6E0F
330
6E05
100
AcDbEntity
  8
0
100
AcDbBlockBegin
  2
*D15
 70
     1
 10
0.0
 20
0.0
 30
0.0
  3
*D15
  1

  0
LINE
  5
6E57
330
6E05
100
AcDbEntity
  8
寸法
  6
Continuous
 62
     4
370
    -2
100
AcDbLine
 10
106.1332784254097
 20
68.5960488990404
 30
0.0
 11
94.26705338247018
 21
68.59604889904041
 31
0.0
  0
LINE
  5
6E58
330
6E05
100
AcDbEntity
  8
寸法
  6
Continuous
 62
     4
370
    -2
100
AcDbLine
 10
106.1332784254097
 20
53.5960488990404
 30
0.0
 11
94.26705338247018
 21
53.5960488990404
 31
0.0
  0
LINE
  5
6E59
330
6E05
100
AcDbEntity
  8
寸法
  6
Continuous
 62
     4
370
    -2
100
AcDbLine
 10
94.26705338247018
 20
67.59604889904041
 30
0.0
 11
94.26705338247018
 21
54.59604889904039
 31
0.0
  0
INSERT
  5
6E5A
330
6E05
100
AcDbEntity
  8
寸法
  6
Continuous
 62
     4
370
    -2
100
AcDbBlockReference
  2
_Dot
 10
94.26705338247018
 20
68.59604889904041
 30
0.0
 50
90.0
  0
INSERT
  5
6E5B
330
6E05
100
AcDbEntity
  8
寸法
  6
Continuous
 62
     4
370
    -2
100
AcDbBlockReference
  2
_Dot
 10
94.26705338247018
 20
53.5960488990404
 30
0.0
 50
270.0
  0
MTEXT
  5
6E5C
330
6E05
100
AcDbEntity
  8
寸法
  6
Continuous
 62
     3
100
AcDbMText
 10
91.76705338247016
 20
61.09604889904042
 30
0.0
 40
3.0
 41
0.0
 71
     5
 72
     1
  1
\A1;450
  7
ACAD
 11
0.0000000000000001
 21
1.0
 31
0.0
 73
     1
 44
1.0
1001
ACAD
1000
MTEXTBEGIN
1070
    73
1070
     1
1070
    44
1040
1.0
1070
    74
1070
     0
1000
MTEXTEND
  0
POINT
  5
6E5D
330
6E05
100
AcDbEntity
  8
Defpoints
  6
Continuous
 62
     0
100
AcDbPoint
 10
109.1332784254097
 20
68.5960488990404
 30
0.0
  0
POINT
  5
6E5E
330
6E05
100
AcDbEntity
  8
Defpoints
  6
Continuous
 62
     0
100
AcDbPoint
 10
109.1332784254097
 20
53.5960488990404
 30
0.0
  0
POINT
  5
6E5F
330
6E05
100
AcDbEntity
  8
Defpoints
  6
Continuous
 62
     0
100
AcDbPoint
 10
94.26705338247018
 20
53.5960488990404
 30
0.0
  0
ENDBLK
  5
6E10
330
6E05
100
AcDbEntity
  8
0
100
AcDbBlockEnd
  0
BLOCK
  5
6E1C
330
6E12
100
AcDbEntity
  8
0
100
AcDbBlockBegin
  2
*D16
 70
     1
 10
0.0
 20
0.0
 30
0.0
  3
*D16
  1

  0
LINE
  5
6E60
330
6E12
100
AcDbEntity
  8
寸法
  6
Continuous
 62
     4
370
    -2
100
AcDbLine
 10
106.1332784254097
 20
53.5960488990404
 30
0.0
 11
94.26705338247018
 21
53.5960488990404
 31
0.0
  0
LINE
  5
6E61
330
6E12
100
AcDbEntity
  8
寸法
  6
Continuous
 62
     4
370
    -2
100
AcDbLine
 10
106.1332784254096
 20
38.5960488990404
 30
0.0
 11
94.26705338247018
 21
38.5960488990404
 31
0.0
  0
LINE
  5
6E62
330
6E12
100
AcDbEntity
  8
寸法
  6
Continuous
 62
     4
370
    -2
100
AcDbLine
 10
94.26705338247018
 20
52.59604889904039
 30
0.0
 11
94.26705338247018
 21
39.5960488990404
 31
0.0
  0
INSERT
  5
6E63
330
6E12
100
AcDbEntity
  8
寸法
  6
Continuous
 62
     4
370
    -2
100
AcDbBlockReference
  2
_Dot
 10
94.26705338247018
 20
53.5960488990404
 30
0.0
 50
90.0
  0
INSERT
  5
6E64
330
6E12
100
AcDbEntity
  8
寸法
  6
Continuous
 62
     4
370
    -2
100
AcDbBlockReference
  2
_Dot
 10
94.26705338247018
 20
38.5960488990404
 30
0.0
 50
270.0
  0
MTEXT
  5
6E65
330
6E12
100
AcDbEntity
  8
寸法
  6
Continuous
 62
     3
100
AcDbMText
 10
91.76705338247016
 20
46.09604889904041
 30
0.0
 40
3.0
 41
0.0
 71
     5
 72
     1
  1
\A1;450
  7
ACAD
 11
0.0000000000000001
 21
1.0
 31
0.0
 73
     1
 44
1.0
1001
ACAD
1000
MTEXTBEGIN
1070
    73
1070
     1
1070
    44
1040
1.0
1070
    74
1070
     0
1000
MTEXTEND
  0
POINT
  5
6E66
330
6E12
100
AcDbEntity
  8
Defpoints
  6
Continuous
 62
     0
100
AcDbPoint
 10
109.1332784254097
 20
53.5960488990404
 30
0.0
  0
POINT
  5
6E67
330
6E12
100
AcDbEntity
  8
Defpoints
  6
Continuous
 62
     0
100
AcDbPoint
 10
109.1332784254096
 20
38.5960488990404
 30
0.0
  0
POINT
  5
6E68
330
6E12
100
AcDbEntity
  8
Defpoints
  6
Continuous
 62
     0
100
AcDbPoint
 10
94.26705338247018
 20
38.5960488990404
 30
0.0
  0
ENDBLK
  5
6E1D
330
6E12
100
AcDbEntity
  8
0
100
AcDbBlockEnd
  0
BLOCK
  5
6E29
330
6E1F
100
AcDbEntity
  8
0
100
AcDbBlockBegin
  2
*D17
 70
     1
 10
0.0
 20
0.0
 30
0.0
  3
*D17
  1

  0
LINE
  5
6E69
330
6E1F
100
AcDbEntity
  8
寸法
  6
Continuous
 62
     4
370
    -2
100
AcDbLine
 10
106.1332784254096
 20
38.5960488990404
 30
0.0
 11
94.26705338247018
 21
38.5960488990404
 31
0.0
  0
LINE
  5
6E6A
330
6E1F
100
AcDbEntity
  8
寸法
  6
Continuous
 62
     4
370
    -2
100
AcDbLine
 10
106.1332784254096
 20
23.5960488990404
 30
0.0
 11
94.26705338247016
 21
23.5960488990404
 31
0.0
  0
LINE
  5
6E6B
330
6E1F
100
AcDbEntity
  8
寸法
  6
Continuous
 62
     4
370
    -2
100
AcDbLine
 10
94.26705338247018
 20
37.5960488990404
 30
0.0
 11
94.26705338247016
 21
24.5960488990404
 31
0.0
  0
INSERT
  5
6E6C
330
6E1F
100
AcDbEntity
  8
寸法
  6
Continuous
 62
     4
370
    -2
100
AcDbBlockReference
  2
_Dot
 10
94.26705338247018
 20
38.5960488990404
 30
0.0
 50
90.0
  0
INSERT
  5
6E6D
330
6E1F
100
AcDbEntity
  8
寸法
  6
Continuous
 62
     4
370
    -2
100
AcDbBlockReference
  2
_Dot
 10
94.26705338247016
 20
23.5960488990404
 30
0.0
 50
270.0
  0
MTEXT
  5
6E6E
330
6E1F
100
AcDbEntity
  8
寸法
  6
Continuous
 62
     3
100
AcDbMText
 10
91.76705338247016
 20
31.09604889904041
 30
0.0
 40
3.0
 41
0.0
 71
     5
 72
     1
  1
\A1;450
  7
ACAD
 11
0.0000000000000001
 21
1.0
 31
0.0
 73
     1
 44
1.0
1001
ACAD
1000
MTEXTBEGIN
1070
    73
1070
     1
1070
    44
1040
1.0
1070
    74
1070
     0
1000
MTEXTEND
  0
POINT
  5
6E6F
330
6E1F
100
AcDbEntity
  8
Defpoints
  6
Continuous
 62
     0
100
AcDbPoint
 10
109.1332784254096
 20
38.5960488990404
 30
0.0
  0
POINT
  5
6E70
330
6E1F
100
AcDbEntity
  8
Defpoints
  6
Continuous
 62
     0
100
AcDbPoint
 10
109.1332784254096
 20
23.5960488990404
 30
0.0
  0
POINT
  5
6E71
330
6E1F
100
AcDbEntity
  8
Defpoints
  6
Continuous
 62
     0
100
AcDbPoint
 10
94.26705338247016
 20
23.5960488990404
 30
0.0
  0
ENDBLK
  5
6E2A
330
6E1F
100
AcDbEntity
  8
0
100
AcDbBlockEnd
  0
BLOCK
  5
6E36
330
6E2C
100
AcDbEntity
  8
0
100
AcDbBlockBegin
  2
*D18
 70
     1
 10
0.0
 20
0.0
 30
0.0
  3
*D18
  1

  0
LINE
  5
6E72
330
6E2C
100
AcDbEntity
  8
寸法
  6
Continuous
 62
     4
370
    -2
100
AcDbLine
 10
106.1332784254096
 20
23.5960488990404
 30
0.0
 11
94.26705338247016
 21
23.5960488990404
 31
0.0
  0
LINE
  5
6E73
330
6E2C
100
AcDbEntity
  8
寸法
  6
Continuous
 62
     4
370
    -2
100
AcDbLine
 10
106.1332784254097
 20
8.596048899040399
 30
0.0
 11
94.26705338247016
 21
8.596048899040402
 31
0.0
  0
LINE
  5
6E74
330
6E2C
100
AcDbEntity
  8
寸法
  6
Continuous
 62
     4
370
    -2
100
AcDbLine
 10
94.26705338247016
 20
22.5960488990404
 30
0.0
 11
94.26705338247016
 21
9.596048899040402
 31
0.0
  0
INSERT
  5
6E75
330
6E2C
100
AcDbEntity
  8
寸法
  6
Continuous
 62
     4
370
    -2
100
AcDbBlockReference
  2
_Dot
 10
94.26705338247016
 20
23.5960488990404
 30
0.0
 50
90.0
  0
INSERT
  5
6E76
330
6E2C
100
AcDbEntity
  8
寸法
  6
Continuous
 62
     4
370
    -2
100
AcDbBlockReference
  2
_Dot
 10
94.26705338247016
 20
8.596048899040402
 30
0.0
 50
270.0
  0
MTEXT
  5
6E77
330
6E2C
100
AcDbEntity
  8
寸法
  6
Continuous
 62
     3
100
AcDbMText
 10
91.76705338247016
 20
16.09604889904041
 30
0.0
 40
3.0
 41
0.0
 71
     5
 72
     1
  1
\A1;450
  7
ACAD
 11
0.0000000000000001
 21
1.0
 31
0.0
 73
     1
 44
1.0
1001
ACAD
1000
MTEXTBEGIN
1070
    73
1070
     1
1070
    44
1040
1.0
1070
    74
1070
     0
1000
MTEXTEND
  0
POINT
  5
6E78
330
6E2C
100
AcDbEntity
  8
Defpoints
  6
Continuous
 62
     0
100
AcDbPoint
 10
109.1332784254096
 20
23.5960488990404
 30
0.0
  0
POINT
  5
6E79
330
6E2C
100
AcDbEntity
  8
Defpoints
  6
Continuous
 62
     0
100
AcDbPoint
 10
109.1332784254097
 20
8.596048899040397
 30
0.0
  0
POINT
  5
6E7A
330
6E2C
100
AcDbEntity
  8
Defpoints
  6
Continuous
 62
     0
100
AcDbPoint
 10
94.26705338247016
 20
8.596048899040402
 30
0.0
  0
ENDBLK
  5
6E37
330
6E2C
100
AcDbEntity
  8
0
100
AcDbBlockEnd
  0
BLOCK
  5
6E43
330
6E39
100
AcDbEntity
  8
0
100
AcDbBlockBegin
  2
*D19
 70
     1
 10
0.0
 20
0.0
 30
0.0
  3
*D19
  1

  0
LINE
  5
6E4E
330
6E39
100
AcDbEntity
  8
寸法
  6
Continuous
 62
     4
370
    -2
100
AcDbLine
 10
106.1332784254097
 20
83.59604889904039
 30
0.0
 11
94.26705338247018
 21
83.59604889904041
 31
0.0
  0
LINE
  5
6E4F
330
6E39
100
AcDbEntity
  8
寸法
  6
Continuous
 62
     4
370
    -2
100
AcDbLine
 10
106.1332784254097
 20
68.5960488990404
 30
0.0
 11
94.26705338247018
 21
68.59604889904041
 31
0.0
  0
LINE
  5
6E50
330
6E39
100
AcDbEntity
  8
寸法
  6
Continuous
 62
     4
370
    -2
100
AcDbLine
 10
94.26705338247018
 20
82.59604889904041
 30
0.0
 11
94.26705338247018
 21
69.59604889904041
 31
0.0
  0
INSERT
  5
6E51
330
6E39
100
AcDbEntity
  8
寸法
  6
Continuous
 62
     4
370
    -2
100
AcDbBlockReference
  2
_Dot
 10
94.26705338247018
 20
83.59604889904041
 30
0.0
 50
90.0
  0
INSERT
  5
6E52
330
6E39
100
AcDbEntity
  8
寸法
  6
Continuous
 62
     4
370
    -2
100
AcDbBlockReference
  2
_Dot
 10
94.26705338247018
 20
68.59604889904041
 30
0.0
 50
270.0
  0
MTEXT
  5
6E53
330
6E39
100
AcDbEntity
  8
寸法
  6
Continuous
 62
     3
100
AcDbMText
 10
91.76705338247016
 20
76.09604889904042
 30
0.0
 40
3.0
 41
0.0
 71
     5
 72
     1
  1
\A1;450
  7
ACAD
 11
0.0000000000000001
 21
1.0
 31
0.0
 73
     1
 44
1.0
1001
ACAD
1000
MTEXTBEGIN
1070
    73
1070
     1
1070
    44
1040
1.0
1070
    74
1070
     0
1000
MTEXTEND
  0
POINT
  5
6E54
330
6E39
100
AcDbEntity
  8
Defpoints
  6
Continuous
 62
     0
100
AcDbPoint
 10
109.1332784254097
 20
83.59604889904039
 30
0.0
  0
POINT
  5
6E55
330
6E39
100
AcDbEntity
  8
Defpoints
  6
Continuous
 62
     0
100
AcDbPoint
 10
109.1332784254097
 20
68.5960488990404
 30
0.0
  0
POINT
  5
6E56
330
6E39
100
AcDbEntity
  8
Defpoints
  6
Continuous
 62
     0
100
AcDbPoint
 10
94.26705338247018
 20
68.59604889904041
 30
0.0
  0
ENDBLK
  5
6E44
330
6E39
100
AcDbEntity
  8
0
100
AcDbBlockEnd
  0
BLOCK
  5
6E86
330
6E7C
100
AcDbEntity
  8
0
100
AcDbBlockBegin
  2
*D20
 70
     1
 10
0.0
 20
0.0
 30
0.0
  3
*D20
  1

  0
LINE
  5
6EE5
330
6E7C
100
AcDbEntity
  8
寸法
  6
Continuous
 62
     4
370
    -2
100
AcDbLine
 10
124.1332784254097
 20
109.0960488990404
 30
0.0
 11
124.1332784254097
 21
122.2819072874004
 31
0.0
  0
LINE
  5
6EE6
330
6E7C
100
AcDbEntity
  8
寸法
  6
Continuous
 62
     4
370
    -2
100
AcDbLine
 10
109.1332784254097
 20
122.2819072874004
 30
0.0
 11
123.1332784254097
 21
122.2819072874004
 31
0.0
  0
INSERT
  5
6EE7
330
6E7C
100
AcDbEntity
  8
寸法
  6
Continuous
 62
     4
370
    -2
100
AcDbBlockReference
  2
_Dot
 10
124.1332784254097
 20
122.2819072874004
 30
0.0
  0
MTEXT
  5
6EE8
330
6E7C
100
AcDbEntity
  8
寸法
  6
Continuous
 62
     3
100
AcDbMText
 10
116.1332784254097
 20
124.7819072874003
 30
0.0
 40
3.0
 41
0.0
 71
     5
 72
     1
  1
\A1;900
  7
ACAD
 73
     1
 44
1.0
1001
ACAD
1000
MTEXTBEGIN
1070
    73
1070
     1
1070
    44
1040
1.0
1070
    74
1070
     0
1000
MTEXTEND
  0
POINT
  5
6EE9
330
6E7C
100
AcDbEntity
  8
Defpoints
  6
Continuous
 62
     0
100
AcDbPoint
 10
109.1332784254097
 20
122.2819072874004
 30
0.0
  0
POINT
  5
6EEA
330
6E7C
100
AcDbEntity
  8
Defpoints
  6
Continuous
 62
     0
100
AcDbPoint
 10
124.1332784254097
 20
109.0960488990404
 30
0.0
  0
POINT
  5
6EEB
330
6E7C
100
AcDbEntity
  8
Defpoints
  6
Continuous
 62
     0
100
AcDbPoint
 10
124.1332784254097
 20
122.2819072874004
 30
0.0
  0
ENDBLK
  5
6E87
330
6E7C
100
AcDbEntity
  8
0
100
AcDbBlockEnd
  0
BLOCK
  5
6E93
330
6E89
100
AcDbEntity
  8
0
100
AcDbBlockBegin
  2
*D21
 70
     1
 10
0.0
 20
0.0
 30
0.0
  3
*D21
  1

  0
LINE
  5
6EA2
330
6E89
100
AcDbEntity
  8
寸法
  6
Continuous
 62
     4
370
    -2
100
AcDbLine
 10
124.1332784254097
 20
109.0960488990404
 30
0.0
 11
124.1332784254097
 21
122.2819072874004
 31
0.0
  0
LINE
  5
6EA3
330
6E89
100
AcDbEntity
  8
寸法
  6
Continuous
 62
     4
370
    -2
100
AcDbLine
 10
154.1332784254097
 20
109.0960488990404
 30
0.0
 11
154.1332784254097
 21
122.2819072874004
 31
0.0
  0
LINE
  5
6EA4
330
6E89
100
AcDbEntity
  8
寸法
  6
Continuous
 62
     4
370
    -2
100
AcDbLine
 10
125.1332784254097
 20
122.2819072874004
 30
0.0
 11
153.1332784254097
 21
122.2819072874004
 31
0.0
  0
INSERT
  5
6EA5
330
6E89
100
AcDbEntity
  8
寸法
  6
Continuous
 62
     4
370
    -2
100
AcDbBlockReference
  2
_Dot
 10
124.1332784254097
 20
122.2819072874004
 30
0.0
 50
180.0
  0
INSERT
  5
6EA6
330
6E89
100
AcDbEntity
  8
寸法
  6
Continuous
 62
     4
370
    -2
100
AcDbBlockReference
  2
_Dot
 10
154.1332784254097
 20
122.2819072874004
 30
0.0
  0
MTEXT
  5
6EA7
330
6E89
100
AcDbEntity
  8
寸法
  6
Continuous
 62
     3
100
AcDbMText
 10
139.1332784254097
 20
124.7819072874003
 30
0.0
 40
3.0
 41
0.0
 71
     5
 72
     1
  1
\A1;900
  7
ACAD
 73
     1
 44
1.0
1001
ACAD
1000
MTEXTBEGIN
1070
    73
1070
     1
1070
    44
1040
1.0
1070
    74
1070
     0
1000
MTEXTEND
  0
POINT
  5
6EA8
330
6E89
100
AcDbEntity
  8
Defpoints
  6
Continuous
 62
     0
100
AcDbPoint
 10
124.1332784254097
 20
106.0960488990404
 30
0.0
  0
POINT
  5
6EA9
330
6E89
100
AcDbEntity
  8
Defpoints
  6
Continuous
 62
     0
100
AcDbPoint
 10
154.1332784254097
 20
106.0960488990404
 30
0.0
  0
POINT
  5
6EAA
330
6E89
100
AcDbEntity
  8
Defpoints
  6
Continuous
 62
     0
100
AcDbPoint
 10
154.1332784254097
 20
122.2819072874004
 30
0.0
  0
ENDBLK
  5
6E94
330
6E89
100
AcDbEntity
  8
0
100
AcDbBlockEnd
  0
BLOCK
  5
6EA0
330
6E96
100
AcDbEntity
  8
0
100
AcDbBlockBegin
  2
*D22
 70
     1
 10
0.0
 20
0.0
 30
0.0
  3
*D22
  1

  0
LINE
  5
6F27
330
6E96
100
AcDbEntity
  8
寸法
  6
Continuous
 62
     4
370
    -2
100
AcDbLine
 10
154.1332784254097
 20
109.0960488990404
 30
0.0
 11
154.1332784254097
 21
122.2819072874004
 31
0.0
  0
LINE
  5
6F28
330
6E96
100
AcDbEntity
  8
寸法
  6
Continuous
 62
     4
370
    -2
100
AcDbLine
 10
155.1332784254097
 20
122.2819072874004
 30
0.0
 11
182.4666114254097
 21
122.2819072874004
 31
0.0
  0
INSERT
  5
6F29
330
6E96
100
AcDbEntity
  8
寸法
  6
Continuous
 62
     4
370
    -2
100
AcDbBlockReference
  2
_Dot
 10
154.1332784254097
 20
122.2819072874004
 30
0.0
 50
180.0
  0
MTEXT
  5
6F2A
330
6E96
100
AcDbEntity
  8
寸法
  6
Continuous
 62
     3
100
AcDbMText
 10
168.7999449254097
 20
124.7819072874003
 30
0.0
 40
3.0
 41
0.0
 71
     5
 72
     1
  1
\A1;900
  7
ACAD
 73
     1
 44
1.0
1001
ACAD
1000
MTEXTBEGIN
1070
    73
1070
     1
1070
    44
1040
1.0
1070
    74
1070
     0
1000
MTEXTEND
  0
POINT
  5
6F2B
330
6E96
100
AcDbEntity
  8
Defpoints
  6
Continuous
 62
     0
100
AcDbPoint
 10
154.1332784254097
 20
109.0960488990404
 30
0.0
  0
POINT
  5
6F2C
330
6E96
100
AcDbEntity
  8
Defpoints
  6
Continuous
 62
     0
100
AcDbPoint
 10
182.4666114254097
 20
122.2819072874004
 30
0.0
  0
POINT
  5
6F2D
330
6E96
100
AcDbEntity
  8
Defpoints
  6
Continuous
 62
     0
100
AcDbPoint
 10
182.4666114254097
 20
122.2819072874004
 30
0.0
  0
ENDBLK
  5
6EA1
330
6E96
100
AcDbEntity
  8
0
100
AcDbBlockEnd
  0
ENDSEC
  0
SECTION
  2
ENTITIES
  0
LINE
  5
6C04
330
1E
100
AcDbEntity
  8
図面枠
  6
Continuous
 62
     2
100
AcDbLine
 10
167.1236594254097
 20
113.5960488990404
 30
0.0
 11
212.2736594254098
 21
113.5960488990404
 31
0.0
  0
TEXT
  5
6C05
330
1E
100
AcDbEntity
  8
図面枠
  6
Continuous
 62
     2
100
AcDbText
 10
167.1236764254096
 20
114.5960398990401
 30
0.0
 40
3.0
  1
吊りボルト、ハンガー、野縁受け
 41
0.8
  7
ACAD
100
AcDbText
  0
TEXT
  5
6C06
330
1E
100
AcDbEntity
  8
図面枠
  6
Continuous
 62
     4
100
AcDbText
 10
175.2424204254099
 20
-14.73952210095967
 30
0.0
 40
3.0
  1
（スパンドレル貼用）
 41
0.8
  7
ACAD
100
AcDbText
  0
LINE
  5
6C07
330
1E
100
AcDbEntity
  8
図面枠
  6
Continuous
 62
     2
100
AcDbLine
 10
154.4666114254097
 20
91.67339889904042
 30
0.0
 11
167.1236594254097
 21
113.5960488990404
 31
0.0
  0
LINE
  5
6C08
330
1E
100
AcDbEntity
  8
製品
  6
Continuous
 62
     4
100
AcDbLine
 10
154.3332784254099
 20
65.75335089904001
 30
0.0
 11
154.3332784254099
 21
106.0960488990404
 31
0.0
  0
LINE
  5
6C09
330
1E
100
AcDbEntity
  8
製品
  6
PLINE3
 62
     2
100
AcDbLine
 10
154.1332784254097
 20
106.0960488990404
 30
0.0
 11
154.1332784254097
 21
65.20385489904038
 31
0.0
  0
LINE
  5
6C0A
330
1E
100
AcDbEntity
  8
製品
  6
Continuous
 62
     4
100
AcDbLine
 10
169.1332784254097
 20
106.1793818990404
 30
0.0
 11
169.1332784254097
 21
1.096048899040397
 31
0.0
  0
LINE
  5
6C0B
330
1E
100
AcDbEntity
  8
製品
  6
Continuous
 62
     4
100
AcDbLine
 10
172.4666114254097
 20
47.76271489904002
 30
0.0
 11
172.4666114254097
 21
106.1793818990404
 31
0.0
  0
LINE
  5
6C0C
330
1E
100
AcDbEntity
  8
製品
  6
Continuous
 62
     4
100
AcDbLine
 10
179.1332784254097
 20
47.76271489904002
 30
0.0
 11
179.1332784254097
 21
106.1793818990404
 31
0.0
  0
LINE
  5
6C0D
330
1E
100
AcDbEntity
  8
製品
  6
Continuous
 62
     4
100
AcDbLine
 10
175.7999444254097
 20
106.1793818990404
 30
0.0
 11
175.7999444254097
 21
47.76271489904002
 31
0.0
  0
LINE
  5
6C0E
330
1E
100
AcDbEntity
  8
製品
  6
Continuous
 62
     4
100
AcDbLine
 10
182.4666114254097
 20
47.76271489904002
 30
0.0
 11
182.4666114254097
 21
106.1793818990404
 31
0.0
  0
LINE
  5
6C0F
330
1E
100
AcDbEntity
  8
製品
  6
Continuous
 62
     4
100
AcDbLine
 10
185.7999444254097
 20
106.1793818990404
 30
0.0
 11
185.7999444254097
 21
1.096048899040397
 31
0.0
  0
LINE
  5
6C10
330
1E
100
AcDbEntity
  8
製品
  6
Continuous
 62
     4
100
AcDbLine
 10
189.1332784254096
 20
1.096048899040397
 30
0.0
 11
189.1332784254096
 21
106.1793818990404
 31
0.0
  0
LINE
  5
6C11
330
1E
100
AcDbEntity
  8
製品
  6
Continuous
 62
     4
100
AcDbLine
 10
192.4666114254097
 20
106.1793818990404
 30
0.0
 11
192.4666114254097
 21
1.096048899040397
 31
0.0
  0
LINE
  5
6C12
330
1E
100
AcDbEntity
  8
製品
  6
Continuous
 62
     4
100
AcDbLine
 10
195.7999444254097
 20
1.096048899040397
 30
0.0
 11
195.7999444254097
 21
106.1793818990404
 31
0.0
  0
LINE
  5
6C13
330
1E
100
AcDbEntity
  8
製品
  6
Continuous
 62
     4
100
AcDbLine
 10
153.9332784254098
 20
106.0960488990404
 30
0.0
 11
153.9332784254098
 21
64.65435989904017
 31
0.0
  0
LINE
  5
6C14
330
1E
100
AcDbEntity
  8
製品
  6
Continuous
 62
     4
100
AcDbLine
 10
123.9332784254098
 20
106.0960488990404
 30
0.0
 11
123.9332784254098
 21
1.096048899040397
 31
0.0
  0
LINE
  5
6C15
330
1E
100
AcDbEntity
  8
製品
  6
Continuous
 62
     4
100
AcDbLine
 10
124.3332784254099
 20
1.096048899040397
 30
0.0
 11
124.3332784254099
 21
106.0960488990404
 31
0.0
  0
LINE
  5
6C16
330
1E
100
AcDbEntity
  8
製品
  6
PLINE3
 62
     2
100
AcDbLine
 10
124.1332784254097
 20
106.0960488990404
 30
0.0
 11
124.1332784254097
 21
1.096048899040397
 31
0.0
  0
LINE
  5
6C17
330
1E
100
AcDbEntity
  8
製品
  6
Continuous
 62
     4
100
AcDbLine
 10
169.0168194254098
 20
106.0960488990404
 30
0.0
 11
130.7999444254097
 21
1.096048899040397
 31
0.0
  0
LINE
  5
6C18
330
1E
100
AcDbEntity
  8
製品
  6
Continuous
 62
     4
100
AcDbLine
 10
109.1332784254097
 20
8.179381899040436
 30
0.0
 11
133.37806742541
 21
8.179381899040436
 31
0.0
  0
LINE
  5
6C19
330
1E
100
AcDbEntity
  8
製品
  6
Continuous
 62
     4
100
AcDbLine
 10
109.1332784254097
 20
9.01271489904002
 30
0.0
 11
133.68137542541
 21
9.01271489904002
 31
0.0
  0
LINE
  5
6C1A
330
1E
100
AcDbEntity
  8
製品
  6
PLINE3
 62
     2
100
AcDbLine
 10
109.1332784254097
 20
8.596048899040397
 30
0.0
 11
133.5297214254097
 21
8.596048899040397
 31
0.0
  0
LINE
  5
6C1B
330
1E
100
AcDbEntity
  8
製品
  6
Continuous
 62
     4
100
AcDbLine
 10
109.1332784254097
 20
83.17938189904044
 30
0.0
 11
160.67583442541
 21
83.17938189904044
 31
0.0
  0
LINE
  5
6C1C
330
1E
100
AcDbEntity
  8
製品
  6
Continuous
 62
     4
100
AcDbLine
 10
109.1332784254097
 20
84.01271489904003
 30
0.0
 11
160.9791434254099
 21
84.01271489904003
 31
0.0
  0
LINE
  5
6C1D
330
1E
100
AcDbEntity
  8
製品
  6
PLINE3
 62
     2
100
AcDbLine
 10
109.1332784254097
 20
83.59604889904039
 30
0.0
 11
160.8274894254097
 21
83.59604889904039
 31
0.0
  0
LINE
  5
6C1E
330
1E
100
AcDbEntity
  8
製品
  6
Continuous
 62
     4
100
AcDbLine
 10
109.1332784254097
 20
98.17938189904044
 30
0.0
 11
166.13538842541
 21
98.17938189904044
 31
0.0
  0
LINE
  5
6C1F
330
1E
100
AcDbEntity
  8
製品
  6
Continuous
 62
     4
100
AcDbLine
 10
109.1332784254097
 20
99.01271489904003
 30
0.0
 11
166.4386964254096
 21
99.01271489904003
 31
0.0
  0
LINE
  5
6C20
330
1E
100
AcDbEntity
  8
製品
  6
PLINE3
 62
     2
100
AcDbLine
 10
109.1332784254097
 20
98.59604889904041
 30
0.0
 11
166.2870424254098
 21
98.59604889904041
 31
0.0
  0
LINE
  5
6C21
330
1E
100
AcDbEntity
  8
製品
  6
Continuous
 62
     4
100
AcDbLine
 10
109.1332784254097
 20
68.17938189904044
 30
0.0
 11
155.2162814254099
 21
68.17938189904044
 31
0.0
  0
LINE
  5
6C22
330
1E
100
AcDbEntity
  8
製品
  6
Continuous
 62
     4
100
AcDbLine
 10
109.1332784254097
 20
69.01271489904002
 30
0.0
 11
155.5195894254099
 21
69.01271489904002
 31
0.0
  0
LINE
  5
6C23
330
1E
100
AcDbEntity
  8
製品
  6
PLINE3
 62
     2
100
AcDbLine
 10
109.1332784254097
 20
68.5960488990404
 30
0.0
 11
155.3679354254096
 21
68.5960488990404
 31
0.0
  0
LINE
  5
6C24
330
1E
100
AcDbEntity
  8
製品
  6
Continuous
 62
     4
100
AcDbLine
 10
109.1332784254097
 20
53.17938189904044
 30
0.0
 11
149.7567274254098
 21
53.17938189904044
 31
0.0
  0
LINE
  5
6C25
330
1E
100
AcDbEntity
  8
製品
  6
Continuous
 62
     4
100
AcDbLine
 10
109.1332784254097
 20
54.01271489904002
 30
0.0
 11
150.0600364254097
 21
54.01271489904002
 31
0.0
  0
LINE
  5
6C26
330
1E
100
AcDbEntity
  8
製品
  6
PLINE3
 62
     2
100
AcDbLine
 10
109.1332784254097
 20
53.5960488990404
 30
0.0
 11
149.90838242541
 21
53.5960488990404
 31
0.0
  0
LINE
  5
6C27
330
1E
100
AcDbEntity
  8
製品
  6
Continuous
 62
     4
100
AcDbLine
 10
109.1332784254097
 20
38.17938189904044
 30
0.0
 11
144.2971744254097
 21
38.17938189904044
 31
0.0
  0
LINE
  5
6C28
330
1E
100
AcDbEntity
  8
製品
  6
Continuous
 62
     4
100
AcDbLine
 10
109.1332784254097
 20
39.01271489904002
 30
0.0
 11
144.6004824254097
 21
39.01271489904002
 31
0.0
  0
LINE
  5
6C29
330
1E
100
AcDbEntity
  8
製品
  6
PLINE3
 62
     2
100
AcDbLine
 10
109.1332784254097
 20
38.5960488990404
 30
0.0
 11
144.4488284254099
 21
38.5960488990404
 31
0.0
  0
LINE
  5
6C2A
330
1E
100
AcDbEntity
  8
製品
  6
Continuous
 62
     4
100
AcDbLine
 10
109.1332784254097
 20
23.17938189904044
 30
0.0
 11
138.8376204254097
 21
23.17938189904044
 31
0.0
  0
LINE
  5
6C2B
330
1E
100
AcDbEntity
  8
製品
  6
Continuous
 62
     4
100
AcDbLine
 10
109.1332784254097
 20
24.01271489904002
 30
0.0
 11
139.1409294254096
 21
24.01271489904002
 31
0.0
  0
LINE
  5
6C2C
330
1E
100
AcDbEntity
  8
製品
  6
PLINE3
 62
     2
100
AcDbLine
 10
109.1332784254097
 20
23.5960488990404
 30
0.0
 11
138.9892744254099
 21
23.5960488990404
 31
0.0
  0
TEXT
  5
6C31
330
1E
100
AcDbEntity
  8
図面枠
  6
Continuous
 62
     2
100
AcDbText
 10
106.1293524254098
 20
21.84607389904022
 30
0.0
 40
3.0
  1
Ｓ
 41
0.8
  7
ACAD
100
AcDbText
  0
TEXT
  5
6C32
330
1E
100
AcDbEntity
  8
図面枠
  6
Continuous
 62
     2
100
AcDbText
 10
106.1293524254098
 20
6.846066899040124
 30
0.0
 40
3.0
  1
Ｓ
 41
0.8
  7
ACAD
100
AcDbText
  0
LINE
  5
6C33
330
1E
100
AcDbEntity
  8
製品
  6
Continuous
 62
     4
100
AcDbLine
 10
132.4666114254097
 20
5.675177899040136
 30
0.0
 11
132.4666114254097
 21
1.096048899040397
 31
0.0
  0
TEXT
  5
6C3D
330
1E
100
AcDbEntity
  8
図面枠
  6
Continuous
 62
     2
100
AcDbText
 10
106.1293524254098
 20
96.84603989904008
 30
0.0
 40
3.0
  1
Ｓ
 41
0.8
  7
ACAD
100
AcDbText
  0
CIRCLE
  5
6C3E
330
1E
100
AcDbEntity
  8
製品
  6
Continuous
 62
     2
100
AcDbCircle
 10
124.1332784254097
 20
91.09604889904039
 30
0.0
 40
0.666667
  0
TEXT
  5
6C3F
330
1E
100
AcDbEntity
  8
図面枠
  6
Continuous
 62
     2
100
AcDbText
 10
106.1293524254098
 20
81.84603989904008
 30
0.0
 40
3.0
  1
Ｓ
 41
0.8
  7
ACAD
100
AcDbText
  0
TEXT
  5
6C40
330
1E
100
AcDbEntity
  8
図面枠
  6
Continuous
 62
     2
100
AcDbText
 10
106.1293524254098
 20
66.84603989904008
 30
0.0
 40
3.0
  1
Ｓ
 41
0.8
  7
ACAD
100
AcDbText
  0
CIRCLE
  5
6C41
330
1E
100
AcDbEntity
  8
製品
  6
Continuous
 62
     2
100
AcDbCircle
 10
124.1332784254097
 20
61.0960488990404
 30
0.0
 40
0.666667
  0
TEXT
  5
6C42
330
1E
100
AcDbEntity
  8
図面枠
  6
Continuous
 62
     2
100
AcDbText
 10
106.1293524254098
 20
51.84607089904011
 30
0.0
 40
3.0
  1
Ｓ
 41
0.8
  7
ACAD
100
AcDbText
  0
TEXT
  5
6C43
330
1E
100
AcDbEntity
  8
図面枠
  6
Continuous
 62
     2
100
AcDbText
 10
106.1293524254098
 20
36.84606289904014
 30
0.0
 40
3.0
  1
Ｓ
 41
0.8
  7
ACAD
100
AcDbText
  0
CIRCLE
  5
6C44
330
1E
100
AcDbEntity
  8
製品
  6
Continuous
 62
     2
100
AcDbCircle
 10
124.1332784254097
 20
31.0960488990404
 30
0.0
 40
0.666667
  0
LINE
  5
6C45
330
1E
100
AcDbEntity
  8
製品
  6
Continuous
 62
     4
100
AcDbLine
 10
172.4666114254097
 20
1.096048899040397
 30
0.0
 11
172.4666114254097
 21
44.42938189904043
 31
0.0
  0
LINE
  5
6C46
330
1E
100
AcDbEntity
  8
製品
  6
Continuous
 62
     4
100
AcDbLine
 10
179.1332784254097
 20
1.096048899040397
 30
0.0
 11
179.1332784254097
 21
44.42938189904043
 31
0.0
  0
LINE
  5
6C47
330
1E
100
AcDbEntity
  8
製品
  6
Continuous
 62
     4
100
AcDbLine
 10
175.7999444254097
 20
44.42938189904043
 30
0.0
 11
175.7999444254097
 21
1.096048899040397
 31
0.0
  0
LINE
  5
6C48
330
1E
100
AcDbEntity
  8
製品
  6
Continuous
 62
     4
100
AcDbLine
 10
182.4666114254097
 20
1.096048899040397
 30
0.0
 11
182.4666114254097
 21
44.42938189904043
 31
0.0
  0
LINE
  5
6C49
330
1E
100
AcDbEntity
  8
製品
  6
Continuous
 62
     4
100
AcDbLine
 10
142.4666114254097
 20
33.14995189904039
 30
0.0
 11
142.4666114254097
 21
1.096048899040397
 31
0.0
  0
LINE
  5
6C4A
330
1E
100
AcDbEntity
  8
製品
  6
Continuous
 62
     4
100
AcDbLine
 10
145.7999444254097
 20
42.30820989904032
 30
0.0
 11
145.7999444254097
 21
1.096048899040397
 31
0.0
  0
LINE
  5
6C4B
330
1E
100
AcDbEntity
  8
製品
  6
Continuous
 62
     4
100
AcDbLine
 10
149.1332784254097
 20
51.46646789904025
 30
0.0
 11
149.1332784254097
 21
1.096048899040397
 31
0.0
  0
LINE
  5
6C4C
330
1E
100
AcDbEntity
  8
製品
  6
Continuous
 62
     4
100
AcDbLine
 10
152.4666114254097
 20
60.62472589904018
 30
0.0
 11
152.4666114254097
 21
1.096048899040397
 31
0.0
  0
LINE
  5
6C4D
330
1E
100
AcDbEntity
  8
製品
  6
Continuous
 62
     4
100
AcDbLine
 10
159.1332784254097
 20
78.94124189904005
 30
0.0
 11
159.1332784254097
 21
1.096048899040397
 31
0.0
  0
LINE
  5
6C4E
330
1E
100
AcDbEntity
  8
製品
  6
Continuous
 62
     4
100
AcDbLine
 10
162.4666114254097
 20
1.096048899040397
 30
0.0
 11
162.4666114254097
 21
88.09949989904044
 31
0.0
  0
LINE
  5
6C4F
330
1E
100
AcDbEntity
  8
製品
  6
Continuous
 62
     4
100
AcDbLine
 10
165.7999444254097
 20
1.096048899040397
 30
0.0
 11
165.7999444254097
 21
97.25775789904037
 31
0.0
  0
LINE
  5
6C50
330
1E
100
AcDbEntity
  8
製品
  6
Continuous
 62
     4
100
AcDbLine
 10
155.7999444254097
 20
1.096048899040397
 30
0.0
 11
155.7999444254097
 21
69.78298389904011
 31
0.0
  0
LINE
  5
6C51
330
1E
100
AcDbEntity
  8
製品
  6
Continuous
 62
     4
100
AcDbLine
 10
139.1332784254097
 20
1.096048899040397
 30
0.0
 11
139.1332784254097
 21
23.99169389904046
 31
0.0
  0
LINE
  5
6C52
330
1E
100
AcDbEntity
  8
製品
  6
Continuous
 62
     4
100
AcDbLine
 10
135.7999444254097
 20
14.83343589904007
 30
0.0
 11
135.7999444254097
 21
1.096048899040397
 31
0.0
  0
LINE
  5
6C53
330
1E
100
AcDbEntity
  8
図面枠
  6
Continuous
 62
     2
100
AcDbLine
 10
154.4666114254097
 20
91.67339889904042
 30
0.0
 11
155.0335984254099
 21
93.65544989904037
 31
0.0
  0
LINE
  5
6C54
330
1E
100
AcDbEntity
  8
図面枠
  6
Continuous
 62
     2
100
AcDbLine
 10
154.4666114254097
 20
91.67339889904042
 30
0.0
 11
155.89962442541
 21
93.15544989904038
 31
0.0
  0
CIRCLE
  5
6C55
330
1E
100
AcDbEntity
  8
製品
  6
Continuous
 62
     2
100
AcDbCircle
 10
154.1332784254097
 20
91.09604889904039
 30
0.0
 40
0.666667
  0
TEXT
  5
6C56
330
1E
100
AcDbEntity
  8
図面枠
  6
Continuous
 62
     2
100
AcDbText
 10
169.8593634254099
 20
44.45611689904035
 30
0.0
 40
3.0
  1
スパドレル
 41
0.8
  7
ACAD
100
AcDbText
  0
LINE
  5
6C5C
330
1E
100
AcDbEntity
  8
製品
  6
Continuous
 62
     4
100
AcDbLine
 10
199.1332784254097
 20
1.096048899040397
 30
0.0
 11
199.1332784254097
 21
106.1793818990404
 31
0.0
  0
DIMENSION
  5
6DEA
330
1E
100
AcDbEntity
  8
寸法
  6
Continuous
100
AcDbDimension
  2
*D13
 10
94.26705338247019
 20
98.59604889904041
 30
0.0
 11
91.76705338247016
 21
91.09604889904042
 31
0.0
 70
    32
  1
450
 71
     5
 42
15.0
  3
AutoCAD
100
AcDbAlignedDimension
 13
109.1332784254097
 23
83.59604889904039
 33
0.0
 14
109.1332784254097
 24
98.59604889904041
 34
0.0
 50
90.0
100
AcDbRotatedDimension
  0
DIMENSION
  5
6E04
330
1E
100
AcDbEntity
  8
寸法
  6
Continuous
100
AcDbDimension
  2
*D15
 10
94.26705338247018
 20
53.5960488990404
 30
0.0
 11
91.76705338247016
 21
61.09604889904042
 31
0.0
 70
    32
  1
450
 71
     5
 42
15.00000000000001
  3
AutoCAD
100
AcDbAlignedDimension
 13
109.1332784254097
 23
68.5960488990404
 33
0.0
 14
109.1332784254097
 24
53.5960488990404
 34
0.0
 50
90.0
100
AcDbRotatedDimension
1001
ACAD
1000
DSTYLE
1002
{
1070
   279
1070
     1
1002
}
  0
DIMENSION
  5
6E11
330
1E
100
AcDbEntity
  8
寸法
  6
Continuous
100
AcDbDimension
  2
*D16
 10
94.26705338247018
 20
38.5960488990404
 30
0.0
 11
91.76705338247016
 21
46.09604889904041
 31
0.0
 70
    32
  1
450
 71
     5
 42
15.0
  3
AutoCAD
100
AcDbAlignedDimension
 13
109.1332784254097
 23
53.5960488990404
 33
0.0
 14
109.1332784254096
 24
38.5960488990404
 34
0.0
 50
90.0
100
AcDbRotatedDimension
1001
ACAD
1000
DSTYLE
1002
{
1070
   279
1070
     1
1002
}
  0
DIMENSION
  5
6E1E
330
1E
100
AcDbEntity
  8
寸法
  6
Continuous
100
AcDbDimension
  2
*D17
 10
94.26705338247016
 20
23.5960488990404
 30
0.0
 11
91.76705338247016
 21
31.09604889904041
 31
0.0
 70
    32
  1
450
 71
     5
 42
15.0
  3
AutoCAD
100
AcDbAlignedDimension
 13
109.1332784254096
 23
38.5960488990404
 33
0.0
 14
109.1332784254096
 24
23.5960488990404
 34
0.0
 50
90.0
100
AcDbRotatedDimension
1001
ACAD
1000
DSTYLE
1002
{
1070
   279
1070
     1
1002
}
  0
DIMENSION
  5
6E2B
330
1E
100
AcDbEntity
  8
寸法
  6
Continuous
100
AcDbDimension
  2
*D18
 10
94.26705338247016
 20
8.596048899040402
 30
0.0
 11
91.76705338247016
 21
16.09604889904041
 31
0.0
 70
    32
  1
450
 71
     5
 42
15.0
  3
AutoCAD
100
AcDbAlignedDimension
 13
109.1332784254096
 23
23.5960488990404
 33
0.0
 14
109.1332784254097
 24
8.596048899040397
 34
0.0
 50
90.0
100
AcDbRotatedDimension
1001
ACAD
1000
DSTYLE
1002
{
1070
   279
1070
     1
1002
}
  0
DIMENSION
  5
6E38
330
1E
100
AcDbEntity
  8
寸法
  6
Continuous
100
AcDbDimension
  2
*D19
 10
94.26705338247018
 20
68.59604889904041
 30
0.0
 11
91.76705338247016
 21
76.09604889904042
 31
0.0
 70
    32
  1
450
 71
     5
 42
15.0
  3
AutoCAD
100
AcDbAlignedDimension
 13
109.1332784254097
 23
83.59604889904039
 33
0.0
 14
109.1332784254097
 24
68.5960488990404
 34
0.0
 50
90.0
100
AcDbRotatedDimension
  0
DIMENSION
  5
6E7B
330
1E
100
AcDbEntity
  8
寸法
  6
Continuous
100
AcDbDimension
  2
*D20
 10
124.1332784254097
 20
122.2819072874004
 30
0.0
 11
116.1332784254097
 21
124.7819072874003
 31
0.0
 70
    32
  1
900
 71
     5
 42
15.0
  3
AutoCAD
100
AcDbAlignedDimension
 13
109.1332784254097
 23
122.2819072874004
 33
0.0
 14
124.1332784254097
 24
109.0960488990404
 34
0.0
100
AcDbRotatedDimension
1001
ACAD
1000
DSTYLE
1002
{
1070
   344
1005
11E
1070
   342
1005
0
1070
   173
1070
     1
1070
   343
1005
15B0
1070
    42
1040
0.0
1002
}
  0
DIMENSION
  5
6E88
330
1E
100
AcDbEntity
  8
寸法
  6
Continuous
100
AcDbDimension
  2
*D21
 10
154.1332784254097
 20
122.2819072874004
 30
0.0
 11
139.1332784254097
 21
124.7819072874003
 31
0.0
 70
    32
  1
900
 71
     5
 42
30.0
  3
AutoCAD
100
AcDbAlignedDimension
 13
124.1332784254097
 23
106.0960488990404
 33
0.0
 14
154.1332784254097
 24
106.0960488990404
 34
0.0
100
AcDbRotatedDimension
1001
ACAD
1000
DSTYLE
1002
{
1070
   279
1070
     1
1002
}
  0
DIMENSION
  5
6E95
330
1E
100
AcDbEntity
  8
寸法
  6
Continuous
100
AcDbDimension
  2
*D22
 10
182.4666114254097
 20
122.2819072874004
 30
0.0
 11
168.7999449254097
 21
124.7819072874003
 31
0.0
 70
    32
  1
900
 71
     5
 42
28.33333300000004
  3
AutoCAD
100
AcDbAlignedDimension
 13
154.1332784254097
 23
109.0960488990404
 33
0.0
 14
182.4666114254097
 24
122.2819072874004
 34
0.0
100
AcDbRotatedDimension
1001
ACAD
1000
DSTYLE
1002
{
1070
    42
1040
0.0
1070
   344
1005
15B0
1070
   342
1005
0
1070
   173
1070
     1
1070
   343
1005
11E
1070
   279
1070
     1
1002
}
  0
ENDSEC
  0
SECTION
  2
OBJECTS
  0
DICTIONARY
  5
C
330
0
100
AcDbDictionary
281
     1
  3
ACAD_COLOR
350
6DC7
  3
ACAD_GROUP
350
D
  3
ACAD_LAYOUT
350
19
  3
ACAD_MATERIAL
350
6DB2
  3
ACAD_MLINESTYLE
350
16
  3
ACAD_PLOTSETTINGS
350
18
  3
ACAD_PLOTSTYLENAME
350
E
  3
ACAD_TABLESTYLE
350
6DC8
  3
ACAD_VISUALSTYLE
350
6DB6
  3
AcDbVariableDictionary
350
169
  3
DWGPROPS
350
6F88
  0
DICTIONARY
  5
6F67
330
8
100
AcDbDictionary
280
     1
281
     1
  0
DICTIONARY
  5
175
330
2
100
AcDbDictionary
280
     1
281
     1
  3
ACAD_LAYERFILTERS
360
185
  3
ACAD_LAYERSTATES
360
176
  0
DICTIONARY
  5
28B
330
1E
100
AcDbDictionary
280
     1
281
     1
  3
ACAD_LAYOUTSELFREF
360
6D7A
  0
DICTIONARY
  5
28D
330
1A
100
AcDbDictionary
280
     1
281
     1
  3
ACAD_LAYOUTSELFREF
360
6D79
  0
DICTIONARY
  5
6DC7
102
{ACAD_REACTORS
330
C
102
}
330
C
100
AcDbDictionary
281
     1
  0
DICTIONARY
  5
D
102
{ACAD_REACTORS
330
C
102
}
330
C
100
AcDbDictionary
281
     1
  0
DICTIONARY
  5
19
102
{ACAD_REACTORS
330
C
102
}
330
C
100
AcDbDictionary
281
     1
  3
Model
350
21
  3
ﾚｲｱｳﾄ1
350
1D
  0
DICTIONARY
  5
6DB2
102
{ACAD_REACTORS
330
C
102
}
330
C
100
AcDbDictionary
281
     1
  3
ByBlock
350
6DB4
  3
ByLayer
350
6DB3
  3
Global
350
6DB5
  0
DICTIONARY
  5
16
102
{ACAD_REACTORS
330
C
102
}
330
C
100
AcDbDictionary
281
     1
  3
Standard
350
17
  0
DICTIONARY
  5
18
102
{ACAD_REACTORS
330
C
102
}
330
C
100
AcDbDictionary
281
     1
  0
ACDBDICTIONARYWDFLT
  5
E
102
{ACAD_REACTORS
330
C
102
}
330
C
100
AcDbDictionary
281
     1
  3
Normal
350
F
100
AcDbDictionaryWithDefault
340
F
1001
ACAD
1000
TREAT_AS_HARD
1070
     0
1000
TREAT_AS_HARD
1070
     0
1000
TREAT_AS_HARD
1070
     0
1000
TREAT_AS_HARD
1070
     0
1000
TREAT_AS_HARD
1070
     0
1000
TREAT_AS_HARD
1070
     0
1000
TREAT_AS_HARD
1070
     0
1000
TREAT_AS_HARD
1070
     0
1000
TREAT_AS_HARD
1070
     0
1000
TREAT_AS_HARD
1070
     0
1000
TREAT_AS_HARD
1070
     0
1000
TREAT_AS_HARD
1070
     0
1000
TREAT_AS_HARD
1070
     0
1000
TREAT_AS_HARD
1070
     0
1000
TREAT_AS_HARD
1070
     0
1000
TREAT_AS_HARD
1070
     0
1000
TREAT_AS_HARD
1070
     0
1000
TREAT_AS_HARD
1070
     0
1000
TREAT_AS_HARD
1070
     0
1000
TREAT_AS_HARD
1070
     0
1000
TREAT_AS_HARD
1070
     0
1000
TREAT_AS_HARD
1070
     0
1000
TREAT_AS_HARD
1070
     0
1000
TREAT_AS_HARD
1070
     0
1000
TREAT_AS_HARD
1070
     0
1000
TREAT_AS_HARD
1070
     0
1000
TREAT_AS_HARD
1070
     0
1000
TREAT_AS_HARD
1070
     0
1000
TREAT_AS_HARD
1070
     0
1000
TREAT_AS_HARD
1070
     0
1000
TREAT_AS_HARD
1070
     0
  0
DICTIONARY
  5
6DC8
102
{ACAD_REACTORS
330
C
102
}
330
C
100
AcDbDictionary
281
     1
  3
Standard
350
6DC9
  0
DICTIONARY
  5
6DB6
102
{ACAD_REACTORS
330
C
102
}
330
C
100
AcDbDictionary
281
     1
  3
2dWireframe
350
6DBC
  3
3D Hidden
350
6DBE
  3
3dWireframe
350
6DBD
  3
Basic
350
6DBB
  3
Brighten
350
6DC2
  3
ColorChange
350
6DC6
  3
Conceptual
350
6DBF
  3
Dim
350
6DC1
  3
Facepattern
350
6DC5
  3
Flat
350
6DB7
  3
FlatWithEdges
350
6DB8
  3
Gouraud
350
6DB9
  3
GouraudWithEdges
350
6DBA
  3
Linepattern
350
6DC4
  3
Realistic
350
6DC0
  3
Thicken
350
6DC3
  0
DICTIONARY
  5
169
102
{ACAD_REACTORS
330
C
102
}
330
C
100
AcDbDictionary
281
     1
  3
CTABLESTYLE
350
6F7F
  3
DIMASSOC
350
16A
  3
INDEXCTL
350
6F81
  3
SORTENTS
350
6F80
  0
XRECORD
  5
6F88
102
{ACAD_REACTORS
330
C
102
}
330
C
100
AcDbXrecord
280
     1
  1
DWGPROPS COOKIE
  2

  3

  4

  6

  7

  8
HON1000AV
  9

300
=
301
=
302
=
303
=
304
=
305
=
306
=
307
=
308
=
309
=
 40
0.249204212962963
 41
2454316.693457674
 42
2454735.623277986
  1

 90
        0
  0
DICTIONARY
  5
185
102
{ACAD_REACTORS
330
175
102
}
330
175
100
AcDbDictionary
280
     1
281
     1
  0
DICTIONARY
  5
176
102
{ACAD_REACTORS
330
175
102
}
330
175
100
AcDbDictionary
281
     1
  3
ACAD
350
177
  0
XRECORD
  5
6D7A
102
{ACAD_REACTORS
330
28B
102
}
330
28B
100
AcDbXrecord
280
     1
340
1E
  0
XRECORD
  5
6D79
102
{ACAD_REACTORS
330
28D
102
}
330
28D
100
AcDbXrecord
280
     1
340
1A
  0
LAYOUT
  5
21
102
{ACAD_XDICTIONARY
360
6F8B
102
}
102
{ACAD_REACTORS
330
19
102
}
330
19
100
AcDbPlotSettings
  1

  2
\\MEISEI-1\EPSON Stylus Photo EX3
  4

  6

 40
0.0
 41
0.0
 42
0.0
 43
0.0
 44
0.0
 45
0.0
 46
0.0
 47
0.0
 48
0.0
 49
0.0
140
0.0
141
0.0
142
1.0
143
1.0
 70
  1712
 72
     0
 73
     0
 74
     0
  7

 75
     0
147
1.0
148
0.0
149
0.0
100
AcDbLayout
  1
Model
 70
     1
 71
     0
 10
0.0
 20
0.0
 11
12.0
 21
9.0
 12
0.0
 22
0.0
 32
0.0
 14
0.0
 24
0.0
 34
0.0
 15
0.0
 25
0.0
 35
0.0
146
0.0
 13
0.0
 23
0.0
 33
0.0
 16
1.0
 26
0.0
 36
0.0
 17
0.0
 27
1.0
 37
0.0
 76
     0
330
1E
331
6D35
  0
LAYOUT
  5
1D
102
{ACAD_XDICTIONARY
360
6F89
102
}
102
{ACAD_REACTORS
330
19
102
}
330
19
100
AcDbPlotSettings
  1

  2
\\MEISEI-1\EPSON Stylus Photo EX3
  4

  6

 40
0.0
 41
0.0
 42
0.0
 43
0.0
 44
0.0
 45
0.0
 46
0.0
 47
0.0
 48
0.0
 49
0.0
140
0.0
141
0.0
142
1.0
143
1.0
 70
   688
 72
     0
 73
     0
 74
     5
  7

 75
    16
147
1.0
148
0.0
149
0.0
100
AcDbLayout
  1
ﾚｲｱｳﾄ1
 70
     1
 71
     1
 10
0.0
 20
0.0
 11
12.0
 21
9.0
 12
0.0
 22
0.0
 32
0.0
 14
1.000000000000000E+20
 24
1.000000000000000E+20
 34
1.000000000000000E+20
 15
-1.000000000000000E+20
 25
-1.000000000000000E+20
 35
-1.000000000000000E+20
146
0.0
 13
0.0
 23
0.0
 33
0.0
 16
1.0
 26
0.0
 36
0.0
 17
0.0
 27
1.0
 37
0.0
 76
     0
330
1A
  0
MATERIAL
  5
6DB4
102
{ACAD_XDICTIONARY
360
6F8F
102
}
102
{ACAD_REACTORS
330
6DB2
102
}
330
6DB2
100
AcDbMaterial
  1
ByBlock
  0
MATERIAL
  5
6DB3
102
{ACAD_XDICTIONARY
360
6F8D
102
}
102
{ACAD_REACTORS
330
6DB2
102
}
330
6DB2
100
AcDbMaterial
  1
ByLayer
  0
MATERIAL
  5
6DB5
102
{ACAD_XDICTIONARY
360
6F91
102
}
102
{ACAD_REACTORS
330
6DB2
102
}
330
6DB2
100
AcDbMaterial
  1
Global
  0
MLINESTYLE
  5
17
102
{ACAD_REACTORS
330
16
102
}
330
16
100
AcDbMlineStyle
  2
STANDARD
 70
     0
  3

 62
   256
 51
90.0
 52
90.0
 71
     2
 49
0.5
 62
   256
  6
BYLAYER
 49
-0.5
 62
   256
  6
BYLAYER
  0
ACDBPLACEHOLDER
  5
F
102
{ACAD_REACTORS
330
E
102
}
330
E
  0
TABLESTYLE
  5
6DC9
102
{ACAD_XDICTIONARY
360
6F93
102
}
102
{ACAD_REACTORS
330
6DC8
102
}
330
6DC8
100
AcDbTableStyle
  3
Standard
 70
     0
 71
     0
 40
0.06
 41
0.06
280
     0
281
     0
  7
STANDARD
140
0.18
170
     2
 62
     0
 63
     7
283
     0
274
    -2
284
     1
 64
     0
275
    -2
285
     1
 65
     0
276
    -2
286
     1
 66
     0
277
    -2
287
     1
 67
     0
278
    -2
288
     1
 68
     0
279
    -2
289
     1
 69
     0
  7
STANDARD
140
0.25
170
     5
 62
     0
 63
     7
283
     0
274
    -2
284
     1
 64
     0
275
    -2
285
     1
 65
     0
276
    -2
286
     1
 66
     0
277
    -2
287
     1
 67
     0
278
    -2
288
     1
 68
     0
279
    -2
289
     1
 69
     0
  7
STANDARD
140
0.18
170
     5
 62
     0
 63
     7
283
     0
274
    -2
284
     1
 64
     0
275
    -2
285
     1
 65
     0
276
    -2
286
     1
 66
     0
277
    -2
287
     1
 67
     0
278
    -2
288
     1
 68
     0
279
    -2
289
     1
 69
     0
  0
VISUALSTYLE
  5
6DBC
102
{ACAD_REACTORS
330
6DB6
102
}
330
6DB6
100
AcDbVisualStyle
  2
2dWireframe
 70
     4
 71
     0
 72
     2
 73
     0
 90
        0
 40
-0.6
 41
-30.0
 62
     5
 63
     7
 74
     1
 91
        4
 64
     7
 65
   257
 75
     1
175
     1
 42
1.0
 92
        0
 66
   257
 43
1.0
 76
     1
 77
     6
 78
     2
 67
     7
 79
     5
170
     0
171
     0
290
     0
174
     0
 93
        1
 44
0.0
173
     0
291
     0
 45
0.0
1001
ACAD
1000
AcDbSavedByObjectVersion
1070
     0
  0
VISUALSTYLE
  5
6DBE
102
{ACAD_REACTORS
330
6DB6
102
}
330
6DB6
100
AcDbVisualStyle
  2
3D Hidden
 70
     6
 71
     1
 72
     2
 73
     2
 90
        0
 40
-0.6
 41
-30.0
 62
     5
 63
     7
 74
     2
 91
        2
 64
     7
 65
   257
 75
     2
175
     1
 42
40.0
 92
        0
 66
   257
 43
1.0
 76
     1
 77
     6
 78
     2
 67
     7
 79
     3
170
     0
171
     0
290
     0
174
     0
 93
        1
 44
0.0
173
     0
291
     0
 45
0.0
1001
ACAD
1000
AcDbSavedByObjectVersion
1070
     0
  0
VISUALSTYLE
  5
6DBD
102
{ACAD_REACTORS
330
6DB6
102
}
330
6DB6
100
AcDbVisualStyle
  2
3dWireframe
 70
     5
 71
     0
 72
     2
 73
     0
 90
        0
 40
-0.6
 41
-30.0
 62
     5
 63
     7
 74
     1
 91
        4
 64
     7
 65
   257
 75
     1
175
     1
 42
1.0
 92
        0
 66
   257
 43
1.0
 76
     1
 77
     6
 78
     2
 67
     7
 79
     5
170
     0
171
     0
290
     0
174
     0
 93
        1
 44
0.0
173
     0
291
     0
 45
0.0
1001
ACAD
1000
AcDbSavedByObjectVersion
1070
     0
  0
VISUALSTYLE
  5
6DBB
102
{ACAD_REACTORS
330
6DB6
102
}
330
6DB6
100
AcDbVisualStyle
  2
Basic
 70
     7
 71
     1
 72
     0
 73
     1
 90
        0
 40
-0.6
 41
-30.0
 62
     5
 63
     7
 74
     0
 91
        4
 64
     7
 65
   257
 75
     1
175
     1
 42
1.0
 92
        8
 66
     7
 43
1.0
 76
     1
 77
     6
 78
     2
 67
     7
 79
     5
170
     0
171
     0
290
     0
174
     0
 93
        1
 44
0.0
173
     0
291
     1
 45
0.0
1001
ACAD
1000
AcDbSavedByObjectVersion
1070
     0
  0
VISUALSTYLE
  5
6DC2
102
{ACAD_REACTORS
330
6DB6
102
}
330
6DB6
100
AcDbVisualStyle
  2
Brighten
 70
    12
 71
     2
 72
     2
 73
     0
 90
        0
 40
-0.6
 41
-30.0
 62
     5
 63
     7
 74
     1
 91
        4
 64
     7
 65
   257
 75
     1
175
     1
 42
1.0
 92
        8
 66
     7
 43
1.0
 76
     1
 77
     6
 78
     2
 67
     7
 79
     5
170
     0
171
     0
290
     0
174
     0
 93
        1
 44
50.0
173
     0
291
     1
 45
0.0
1001
ACAD
1000
AcDbSavedByObjectVersion
1070
     0
  0
VISUALSTYLE
  5
6DC6
102
{ACAD_REACTORS
330
6DB6
102
}
330
6DB6
100
AcDbVisualStyle
  2
ColorChange
 70
    16
 71
     2
 72
     2
 73
     3
 90
        0
 40
-0.6
 41
-30.0
 62
     5
 63
     8
 74
     1
 91
        4
 64
     7
 65
   257
 75
     1
175
     1
 42
1.0
 92
        8
 66
     8
 43
1.0
 76
     1
 77
     6
 78
     2
 67
     7
 79
     5
170
     0
171
     0
290
     0
174
     0
 93
        1
 44
0.0
173
     0
291
     1
 45
0.0
1001
ACAD
1000
AcDbSavedByObjectVersion
1070
     0
  0
VISUALSTYLE
  5
6DBF
102
{ACAD_REACTORS
330
6DB6
102
}
330
6DB6
100
AcDbVisualStyle
  2
Conceptual
 70
     9
 71
     3
 72
     2
 73
     0
 90
        0
 40
-0.6
 41
-30.0
 62
     5
 63
     7
 74
     2
 91
        2
 64
     7
 65
   257
 75
     1
175
     1
 42
40.0
 92
        8
 66
     7
 43
1.0
 76
     1
 77
     6
 78
     2
 67
     7
 79
     3
170
     0
171
     0
290
     0
174
     0
 93
        1
 44
0.0
173
     0
291
     0
 45
0.0
1001
ACAD
1000
AcDbSavedByObjectVersion
1070
     0
  0
VISUALSTYLE
  5
6DC1
102
{ACAD_REACTORS
330
6DB6
102
}
330
6DB6
100
AcDbVisualStyle
  2
Dim
 70
    11
 71
     2
 72
     2
 73
     0
 90
        0
 40
-0.6
 41
-30.0
 62
     5
 63
     7
 74
     1
 91
        4
 64
     7
 65
   257
 75
     1
175
     1
 42
1.0
 92
        8
 66
     7
 43
1.0
 76
     1
 77
     6
 78
     2
 67
     7
 79
     5
170
     0
171
     0
290
     0
174
     0
 93
        1
 44
-50.0
173
     0
291
     1
 45
0.0
1001
ACAD
1000
AcDbSavedByObjectVersion
1070
     0
  0
VISUALSTYLE
  5
6DC5
102
{ACAD_REACTORS
330
6DB6
102
}
330
6DB6
100
AcDbVisualStyle
  2
Facepattern
 70
    15
 71
     2
 72
     2
 73
     0
 90
        0
 40
-0.6
 41
-30.0
 62
     5
 63
     7
 74
     1
 91
        4
 64
     7
 65
   257
 75
     1
175
     1
 42
1.0
 92
        8
 66
     7
 43
1.0
 76
     1
 77
     6
 78
     2
 67
     7
 79
     5
170
     0
171
     0
290
     0
174
     0
 93
        1
 44
0.0
173
     0
291
     1
 45
0.0
1001
ACAD
1000
AcDbSavedByObjectVersion
1070
     0
  0
VISUALSTYLE
  5
6DB7
102
{ACAD_REACTORS
330
6DB6
102
}
330
6DB6
100
AcDbVisualStyle
  2
Flat
 70
     0
 71
     2
 72
     1
 73
     1
 90
        2
 40
-0.6
 41
30.0
 62
     5
 63
     7
 74
     0
 91
        4
 64
     7
 65
   257
 75
     1
175
     1
 42
1.0
 92
        8
 66
     7
 43
1.0
 76
     1
 77
     6
 78
     2
 67
     7
 79
     5
170
     0
171
     0
290
     0
174
     0
 93
       13
 44
0.0
173
     0
291
     1
 45
0.0
1001
ACAD
1000
AcDbSavedByObjectVersion
1070
     0
  0
VISUALSTYLE
  5
6DB8
102
{ACAD_REACTORS
330
6DB6
102
}
330
6DB6
100
AcDbVisualStyle
  2
FlatWithEdges
 70
     1
 71
     2
 72
     1
 73
     1
 90
        2
 40
-0.6
 41
30.0
 62
     5
 63
     7
 74
     1
 91
        4
 64
     7
 65
   257
 75
     1
175
     1
 42
1.0
 92
        0
 66
   257
 43
1.0
 76
     1
 77
     6
 78
     2
 67
     7
 79
     5
170
     0
171
     0
290
     0
174
     0
 93
       13
 44
0.0
173
     0
291
     1
 45
0.0
1001
ACAD
1000
AcDbSavedByObjectVersion
1070
     0
  0
VISUALSTYLE
  5
6DB9
102
{ACAD_REACTORS
330
6DB6
102
}
330
6DB6
100
AcDbVisualStyle
  2
Gouraud
 70
     2
 71
     2
 72
     2
 73
     1
 90
        2
 40
-0.6
 41
30.0
 62
     5
 63
     7
 74
     0
 91
        4
 64
     7
 65
   257
 75
     1
175
     1
 42
1.0
 92
        0
 66
     7
 43
1.0
 76
     1
 77
     6
 78
     2
 67
     7
 79
     5
170
     0
171
     0
290
     0
174
     0
 93
       13
 44
0.0
173
     0
291
     1
 45
0.0
1001
ACAD
1000
AcDbSavedByObjectVersion
1070
     0
  0
VISUALSTYLE
  5
6DBA
102
{ACAD_REACTORS
330
6DB6
102
}
330
6DB6
100
AcDbVisualStyle
  2
GouraudWithEdges
 70
     3
 71
     2
 72
     2
 73
     1
 90
        2
 40
-0.6
 41
30.0
 62
     5
 63
     7
 74
     1
 91
        4
 64
     7
 65
   257
 75
     1
175
     1
 42
1.0
 92
        0
 66
   257
 43
1.0
 76
     1
 77
     6
 78
     2
 67
     7
 79
     5
170
     0
171
     0
290
     0
174
     0
 93
       13
 44
0.0
173
     0
291
     1
 45
0.0
1001
ACAD
1000
AcDbSavedByObjectVersion
1070
     0
  0
VISUALSTYLE
  5
6DC4
102
{ACAD_REACTORS
330
6DB6
102
}
330
6DB6
100
AcDbVisualStyle
  2
Linepattern
 70
    14
 71
     2
 72
     2
 73
     0
 90
        0
 40
-0.6
 41
-30.0
 62
     5
 63
     7
 74
     1
 91
        4
 64
     7
 65
   257
 75
     7
175
     7
 42
1.0
 92
        8
 66
     7
 43
1.0
 76
     1
 77
     6
 78
     2
 67
     7
 79
     5
170
     0
171
     0
290
     0
174
     0
 93
        1
 44
0.0
173
     0
291
     1
 45
0.0
1001
ACAD
1000
AcDbSavedByObjectVersion
1070
     0
  0
VISUALSTYLE
  5
6DC0
102
{ACAD_REACTORS
330
6DB6
102
}
330
6DB6
100
AcDbVisualStyle
  2
Realistic
 70
     8
 71
     2
 72
     2
 73
     0
 90
        0
 40
-0.6
 41
-30.0
 62
     5
 63
     7
 74
     1
 91
        0
 64
     7
 65
   257
 75
     1
175
     1
 42
1.0
 92
        8
 66
     8
 43
1.0
 76
     1
 77
     6
 78
     2
 67
     7
 79
     5
170
     0
171
     0
290
     0
174
     0
 93
       13
 44
0.0
173
     0
291
     0
 45
0.0
1001
ACAD
1000
AcDbSavedByObjectVersion
1070
     0
  0
VISUALSTYLE
  5
6DC3
102
{ACAD_REACTORS
330
6DB6
102
}
330
6DB6
100
AcDbVisualStyle
  2
Thicken
 70
    13
 71
     2
 72
     2
 73
     0
 90
        0
 40
-0.6
 41
-30.0
 62
     5
 63
     7
 74
     1
 91
        4
 64
     7
 65
   257
 75
     1
175
     1
 42
1.0
 92
       12
 66
     7
 43
1.0
 76
     1
 77
     6
 78
     2
 67
     7
 79
     5
170
     0
171
     0
290
     0
174
     0
 93
        1
 44
0.0
173
     0
291
     1
 45
0.0
1001
ACAD
1000
AcDbSavedByObjectVersion
1070
     0
  0
DICTIONARYVAR
  5
6F7F
102
{ACAD_REACTORS
330
169
102
}
330
169
100
DictionaryVariables
280
     0
  1
STANDARD
  0
DICTIONARYVAR
  5
16A
102
{ACAD_REACTORS
330
169
102
}
330
169
100
DictionaryVariables
280
     0
  1
1
  0
DICTIONARYVAR
  5
6F81
102
{ACAD_REACTORS
330
169
102
}
330
169
100
DictionaryVariables
280
     0
  1
0
  0
DICTIONARYVAR
  5
6F80
102
{ACAD_REACTORS
330
169
102
}
330
169
100
DictionaryVariables
280
     0
  1
127
  0
XRECORD
  5
177
102
{ACAD_REACTORS
330
176
102
}
330
176
100
AcDbXrecord
280
     1
 91
      476
330
179
 90
        8
 62
     7
370
    -3
331
15
  1
Color_7
330
128
 90
        0
 62
     7
370
    -3
331
15
  1
Color_7
330
10
 90
        8
 62
     7
370
    -3
331
15
  1
Color_7
  0
DICTIONARY
  5
6F8B
330
21
100
AcDbDictionary
280
     1
281
     1
  3
ACAD_XREC_ROUNDTRIP
360
6F8C
  0
DICTIONARY
  5
6F89
330
1D
100
AcDbDictionary
280
     1
281
     1
  3
ACAD_XREC_ROUNDTRIP
360
6F8A
  0
DICTIONARY
  5
6F8F
330
6DB4
100
AcDbDictionary
280
     1
281
     1
  3
ACAD_XREC_ROUNDTRIP
360
6F90
  0
DICTIONARY
  5
6F8D
330
6DB3
100
AcDbDictionary
280
     1
281
     1
  3
ACAD_XREC_ROUNDTRIP
360
6F8E
  0
DICTIONARY
  5
6F91
330
6DB5
100
AcDbDictionary
280
     1
281
     1
  3
ACAD_XREC_ROUNDTRIP
360
6F92
  0
DICTIONARY
  5
6F93
330
6DC9
100
AcDbDictionary
280
     1
281
     1
  3
ACAD_XREC_ROUNDTRIP
360
6F94
  0
XRECORD
  5
6F8C
102
{ACAD_REACTORS
330
6F8B
102
}
330
6F8B
100
AcDbXrecord
280
     1
102
SHADEPLOT
 70
     0
102
SHADEPLOTRESLEVEL
 70
     2
102
SHADEPLOTCUSTOMDPI
 70
   300
  0
XRECORD
  5
6F8A
102
{ACAD_REACTORS
330
6F89
102
}
330
6F89
100
AcDbXrecord
280
     1
102
SHADEPLOT
 70
     0
102
SHADEPLOTRESLEVEL
 70
     2
102
SHADEPLOTCUSTOMDPI
 70
   300
  0
XRECORD
  5
6F90
102
{ACAD_REACTORS
330
6F8F
102
}
330
6F8F
100
AcDbXrecord
280
     1
102
MATERIAL
148
0.0
149
0.0
149
0.0
 93
        0
 94
       63
282
     0
 72
     1
 77
     1
171
     1
175
     1
179
     1
273
     0
  0
XRECORD
  5
6F8E
102
{ACAD_REACTORS
330
6F8D
102
}
330
6F8D
100
AcDbXrecord
280
     1
102
MATERIAL
148
0.0
149
0.0
149
0.0
 93
        0
 94
       63
282
     0
 72
     1
 77
     1
171
     1
175
     1
179
     1
273
     0
  0
XRECORD
  5
6F92
102
{ACAD_REACTORS
330
6F91
102
}
330
6F91
100
AcDbXrecord
280
     1
102
MATERIAL
148
0.0
149
0.0
149
0.0
 93
        0
 94
       63
282
     0
 72
     1
 77
     1
171
     1
175
     1
179
     1
273
     0
  0
XRECORD
  5
6F94
102
{ACAD_REACTORS
330
6F93
102
}
330
6F93
100
AcDbXrecord
280
     1
102
ACAD_ROUNDTRIP_PRE2007_TABLESTYLE
 90
      512
 91
        0
  1

 92
      512
 93
        0
  2

 94
      512
 95
        0
  3

  0
ENDSEC
  0
EOF
