  0
SECTION
  2
HEADER
  9
$ACADVER
  1
AC1015
  9
$ACADMAINTVER
 70
    20
  9
$DWGCODEPAGE
  3
ANSI_932
  9
$INSBASE
 10
0.0
 20
0.0
 30
0.0
  9
$EXTMIN
 10
135.0905906672092
 20
71.18152493468604
 30
0.0
  9
$EXTMAX
 10
280.067695667209
 20
236.3600199346861
 30
0.0
  9
$LIMMIN
 10
0.0
 20
0.0
  9
$LIMMAX
 10
420.0
 20
297.0
  9
$ORTHOMODE
 70
     0
  9
$REGENMODE
 70
     1
  9
$FILLMODE
 70
     1
  9
$QTEXTMODE
 70
     0
  9
$MIRRTEXT
 70
     1
  9
$LTSCALE
 40
1.0
  9
$ATTMODE
 70
     1
  9
$TEXTSIZE
 40
5.0
  9
$TRACEWID
 40
0.05
  9
$TEXTSTYLE
  7
ACAD
  9
$CLAYER
  8
寸法
  9
$CELTYPE
  6
CONTINUOUS
  9
$CECOLOR
 62
   256
  9
$CELTSCALE
 40
1.0
  9
$DISPSILH
 70
     0
  9
$DIMSCALE
 40
1.0
  9
$DIMASZ
 40
1.0
  9
$DIMEXO
 40
3.0
  9
$DIMDLI
 40
0.38
  9
$DIMRND
 40
0.0
  9
$DIMDLE
 40
0.0
  9
$DIMEXE
 40
0.0
  9
$DIMTP
 40
0.0
  9
$DIMTM
 40
0.0
  9
$DIMTXT
 40
5.0
  9
$DIMCEN
 40
0.09
  9
$DIMTSZ
 40
0.0
  9
$DIMTOL
 70
     0
  9
$DIMLIM
 70
     0
  9
$DIMTIH
 70
     0
  9
$DIMTOH
 70
     1
  9
$DIMSE1
 70
     0
  9
$DIMSE2
 70
     0
  9
$DIMTAD
 70
     1
  9
$DIMZIN
 70
     0
  9
$DIMBLK
  1
Dot
  9
$DIMASO
 70
     1
  9
$DIMSHO
 70
     1
  9
$DIMPOST
  1

  9
$DIMAPOST
  1

  9
$DIMALT
 70
     0
  9
$DIMALTD
 70
     2
  9
$DIMALTF
 40
25.4
  9
$DIMLFAC
 40
1.0
  9
$DIMTOFL
 70
     0
  9
$DIMTVP
 40
0.0
  9
$DIMTIX
 70
     1
  9
$DIMSOXD
 70
     0
  9
$DIMSAH
 70
     0
  9
$DIMBLK1
  1

  9
$DIMBLK2
  1

  9
$DIMSTYLE
  2
AutoCAD
  9
$DIMCLRD
 70
     4
  9
$DIMCLRE
 70
     4
  9
$DIMCLRT
 70
     3
  9
$DIMTFAC
 40
1.0
  9
$DIMGAP
 40
1.0
  9
$DIMJUST
 70
     0
  9
$DIMSD1
 70
     0
  9
$DIMSD2
 70
     0
  9
$DIMTOLJ
 70
     1
  9
$DIMTZIN
 70
     0
  9
$DIMALTZ
 70
     0
  9
$DIMALTTZ
 70
     0
  9
$DIMUPT
 70
     0
  9
$DIMDEC
 70
     0
  9
$DIMTDEC
 70
     0
  9
$DIMALTU
 70
     2
  9
$DIMALTTD
 70
     2
  9
$DIMTXSTY
  7
ACAD
  9
$DIMAUNIT
 70
     0
  9
$DIMADEC
 70
     0
  9
$DIMALTRND
 40
0.0
  9
$DIMAZIN
 70
     0
  9
$DIMDSEP
 70
    46
  9
$DIMATFIT
 70
     0
  9
$DIMFRAC
 70
     0
  9
$DIMLDRBLK
  1
None
  9
$DIMLUNIT
 70
     2
  9
$DIMLWD
 70
    -2
  9
$DIMLWE
 70
    -2
  9
$DIMTMOVE
 70
     0
  9
$LUNITS
 70
     2
  9
$LUPREC
 70
     4
  9
$SKETCHINC
 40
0.1
  9
$FILLETRAD
 40
0.0
  9
$AUNITS
 70
     0
  9
$AUPREC
 70
     0
  9
$MENU
  1
.
  9
$ELEVATION
 40
0.0
  9
$PELEVATION
 40
0.0
  9
$THICKNESS
 40
0.0
  9
$LIMCHECK
 70
     0
  9
$CHAMFERA
 40
0.0
  9
$CHAMFERB
 40
0.0
  9
$CHAMFERC
 40
0.0
  9
$CHAMFERD
 40
0.0
  9
$SKPOLY
 70
     0
  9
$TDCREATE
 40
2454316.693457674
  9
$TDUCREATE
 40
2454316.318457674
  9
$TDUPDATE
 40
2454735.622192558
  9
$TDUUPDATE
 40
2454735.247192558
  9
$TDINDWG
 40
0.2780647106
  9
$TDUSRTIMER
 40
0.2780647106
  9
$USRTIMER
 70
     1
  9
$ANGBASE
 50
0.0
  9
$ANGDIR
 70
     0
  9
$PDMODE
 70
     0
  9
$PDSIZE
 40
0.0
  9
$PLINEWID
 40
0.0
  9
$SPLFRAME
 70
     0
  9
$SPLINETYPE
 70
     6
  9
$SPLINESEGS
 70
     8
  9
$HANDSEED
  5
7790
  9
$SURFTAB1
 70
     6
  9
$SURFTAB2
 70
     6
  9
$SURFTYPE
 70
     6
  9
$SURFU
 70
     6
  9
$SURFV
 70
     6
  9
$UCSBASE
  2

  9
$UCSNAME
  2

  9
$UCSORG
 10
0.0
 20
0.0
 30
0.0
  9
$UCSXDIR
 10
1.0
 20
0.0
 30
0.0
  9
$UCSYDIR
 10
0.0
 20
1.0
 30
0.0
  9
$UCSORTHOREF
  2

  9
$UCSORTHOVIEW
 70
     0
  9
$UCSORGTOP
 10
0.0
 20
0.0
 30
0.0
  9
$UCSORGBOTTOM
 10
0.0
 20
0.0
 30
0.0
  9
$UCSORGLEFT
 10
0.0
 20
0.0
 30
0.0
  9
$UCSORGRIGHT
 10
0.0
 20
0.0
 30
0.0
  9
$UCSORGFRONT
 10
0.0
 20
0.0
 30
0.0
  9
$UCSORGBACK
 10
0.0
 20
0.0
 30
0.0
  9
$PUCSBASE
  2

  9
$PUCSNAME
  2

  9
$PUCSORG
 10
0.0
 20
0.0
 30
0.0
  9
$PUCSXDIR
 10
1.0
 20
0.0
 30
0.0
  9
$PUCSYDIR
 10
0.0
 20
1.0
 30
0.0
  9
$PUCSORTHOREF
  2

  9
$PUCSORTHOVIEW
 70
     0
  9
$PUCSORGTOP
 10
0.0
 20
0.0
 30
0.0
  9
$PUCSORGBOTTOM
 10
0.0
 20
0.0
 30
0.0
  9
$PUCSORGLEFT
 10
0.0
 20
0.0
 30
0.0
  9
$PUCSORGRIGHT
 10
0.0
 20
0.0
 30
0.0
  9
$PUCSORGFRONT
 10
0.0
 20
0.0
 30
0.0
  9
$PUCSORGBACK
 10
0.0
 20
0.0
 30
0.0
  9
$USERI1
 70
     0
  9
$USERI2
 70
     0
  9
$USERI3
 70
     0
  9
$USERI4
 70
     0
  9
$USERI5
 70
     0
  9
$USERR1
 40
0.0
  9
$USERR2
 40
0.0
  9
$USERR3
 40
0.0
  9
$USERR4
 40
0.0
  9
$USERR5
 40
0.0
  9
$WORLDVIEW
 70
     1
  9
$SHADEDGE
 70
     3
  9
$SHADEDIF
 70
    70
  9
$TILEMODE
 70
     1
  9
$MAXACTVP
 70
    48
  9
$PINSBASE
 10
0.0
 20
0.0
 30
0.0
  9
$PLIMCHECK
 70
     0
  9
$PEXTMIN
 10
1.000000000000000E+20
 20
1.000000000000000E+20
 30
1.000000000000000E+20
  9
$PEXTMAX
 10
-1.000000000000000E+20
 20
-1.000000000000000E+20
 30
-1.000000000000000E+20
  9
$PLIMMIN
 10
0.0
 20
0.0
  9
$PLIMMAX
 10
12.0
 20
9.0
  9
$UNITMODE
 70
     0
  9
$VISRETAIN
 70
     0
  9
$PLINEGEN
 70
     0
  9
$PSLTSCALE
 70
     1
  9
$TREEDEPTH
 70
  3020
  9
$CMLSTYLE
  2
Standard
  9
$CMLJUST
 70
     0
  9
$CMLSCALE
 40
1.0
  9
$PROXYGRAPHICS
 70
     1
  9
$MEASUREMENT
 70
     0
  9
$CELWEIGHT
370
    -1
  9
$ENDCAPS
280
     0
  9
$JOINSTYLE
280
     0
  9
$LWDISPLAY
290
     0
  9
$INSUNITS
 70
     0
  9
$HYPERLINKBASE
  1

  9
$STYLESHEET
  1

  9
$XEDIT
290
     1
  9
$CEPSNTYPE
380
     0
  9
$PSTYLEMODE
290
     1
  9
$FINGERPRINTGUID
  2
{CC7D6DEE-A9F1-4F3E-AC95-C84B62CCA3FD}
  9
$VERSIONGUID
  2
{8017C755-D236-4420-8EC8-2C62AD2997FE}
  9
$EXTNAMES
290
     1
  9
$PSVPSCALE
 40
0.0
  9
$OLESTARTUP
290
     0
  0
ENDSEC
  0
SECTION
  2
CLASSES
  0
CLASS
  1
ACDBDICTIONARYWDFLT
  2
AcDbDictionaryWithDefault
  3
ObjectDBX Classes
 90
        0
280
     0
281
     0
  0
CLASS
  1
ACDBPLACEHOLDER
  2
AcDbPlaceHolder
  3
ObjectDBX Classes
 90
        0
280
     0
281
     0
  0
CLASS
  1
LAYOUT
  2
AcDbLayout
  3
ObjectDBX Classes
 90
        0
280
     0
281
     0
  0
CLASS
  1
DICTIONARYVAR
  2
AcDbDictionaryVar
  3
ObjectDBX Classes
 90
        0
280
     0
281
     0
  0
CLASS
  1
MATERIAL
  2
AcDbMaterial
  3
ObjectDBX Classes
 90
     1153
280
     0
281
     0
  0
CLASS
  1
VISUALSTYLE
  2
AcDbVisualStyle
  3
ObjectDBX Classes
 90
     4095
280
     0
281
     0
  0
CLASS
  1
TABLESTYLE
  2
AcDbTableStyle
  3
ObjectDBX Classes
 90
     4095
280
     0
281
     0
  0
ENDSEC
  0
SECTION
  2
TABLES
  0
TABLE
  2
VPORT
  5
8
102
{ACAD_XDICTIONARY
360
7760
102
}
330
0
100
AcDbSymbolTable
 70
     1
  0
VPORT
  5
6F8F
330
8
100
AcDbSymbolTableRecord
100
AcDbViewportTableRecord
  2
*Active
 70
     0
 10
0.0
 20
0.0
 11
1.0
 21
1.0
 12
198.2964100792604
 22
151.1368780104985
 13
0.0
 23
0.0
 14
1.0
 24
1.0
 15
0.0
 25
0.0
 16
0.0
 26
0.0
 36
1.0
 17
0.0
 27
0.0
 37
0.0
 40
234.9094616226907
 41
1.571614583333333
 42
50.0
 43
0.0
 44
0.0
 50
0.0
 51
0.0
 71
     0
 72
   100
 73
     1
 74
     1
 75
     0
 76
     0
 77
     0
 78
     0
281
     0
 65
     1
110
0.0
120
0.0
130
0.0
111
1.0
121
0.0
131
0.0
112
0.0
122
1.0
132
0.0
 79
     0
146
0.0
  0
ENDTAB
  0
TABLE
  2
LTYPE
  5
5
330
0
100
AcDbSymbolTable
 70
    50
  0
LTYPE
  5
13
330
5
100
AcDbSymbolTableRecord
100
AcDbLinetypeTableRecord
  2
ByBlock
 70
     0
  3

 72
    65
 73
     0
 40
0.0
  0
LTYPE
  5
14
330
5
100
AcDbSymbolTableRecord
100
AcDbLinetypeTableRecord
  2
ByLayer
 70
     0
  3

 72
    65
 73
     0
 40
0.0
  0
LTYPE
  5
15
330
5
100
AcDbSymbolTableRecord
100
AcDbLinetypeTableRecord
  2
CONTINUOUS
 70
     0
  3
実線
 72
    65
 73
     0
 40
0.0
  0
LTYPE
  5
22
330
5
100
AcDbSymbolTableRecord
100
AcDbLinetypeTableRecord
  2
DASHED1
 70
     0
  3
--  --  --  --  --  --  --  --  
 72
    65
 73
     2
 40
2.5
 49
1.25
 74
     0
 49
-1.25
 74
     0
  0
LTYPE
  5
23
330
5
100
AcDbSymbolTableRecord
100
AcDbLinetypeTableRecord
  2
DASHED2
 70
     0
  3
----    ----    ----    ----    
 72
    65
 73
     2
 40
5.0
 49
2.5
 74
     0
 49
-2.5
 74
     0
  0
LTYPE
  5
24
330
5
100
AcDbSymbolTableRecord
100
AcDbLinetypeTableRecord
  2
DASHED3
 70
     0
  3
------  ------  ------  ------  
 72
    65
 73
     2
 40
5.0
 49
3.75
 74
     0
 49
-1.25
 74
     0
  0
LTYPE
  5
25
330
5
100
AcDbSymbolTableRecord
100
AcDbLinetypeTableRecord
  2
CENTER1
 70
     0
  3
----- - ----- - ----- - ----- - 
 72
    65
 73
     4
 40
10.0
 49
6.25
 74
     0
 49
-1.25
 74
     0
 49
1.25
 74
     0
 49
-1.25
 74
     0
  0
LTYPE
  5
26
330
5
100
AcDbSymbolTableRecord
100
AcDbLinetypeTableRecord
  2
CENTER2
 70
     0
  3
----------  --  ----------  --  
 72
    65
 73
     4
 40
20.0
 49
12.5
 74
     0
 49
-2.5
 74
     0
 49
2.5
 74
     0
 49
-2.5
 74
     0
  0
LTYPE
  5
27
330
5
100
AcDbSymbolTableRecord
100
AcDbLinetypeTableRecord
  2
PHANTOM1
 70
     0
  3
--- - - --- - - --- - - --- - - 
 72
    65
 73
     6
 40
10.0
 49
3.25
 74
     0
 49
-1.25
 74
     0
 49
1.25
 74
     0
 49
-1.25
 74
     0
 49
1.25
 74
     0
 49
-1.25
 74
     0
  0
LTYPE
  5
28
330
5
100
AcDbSymbolTableRecord
100
AcDbLinetypeTableRecord
  2
PHANTOM2
 70
     0
  3
--------  -  -  --------  -  -  
 72
    65
 73
     6
 40
20.0
 49
10.0
 74
     0
 49
-2.5
 74
     0
 49
1.25
 74
     0
 49
-2.5
 74
     0
 49
1.25
 74
     0
 49
-2.5
 74
     0
  0
LTYPE
  5
29
330
5
100
AcDbSymbolTableRecord
100
AcDbLinetypeTableRecord
  2
DOT
 70
     0
  3
-   -   -   -   -   -   -   -   
 72
    65
 73
     2
 40
2.5
 49
0.625
 74
     0
 49
-1.875
 74
     0
  0
LTYPE
  5
2A
330
5
100
AcDbSymbolTableRecord
100
AcDbLinetypeTableRecord
  2
DUMMY
 70
     0
  3
ダミー
 72
    65
 73
     0
 40
0.0
  0
LTYPE
  5
2B
330
5
100
AcDbSymbolTableRecord
100
AcDbLinetypeTableRecord
  2
RAND1
 70
     0
  3
ランダム線1
 72
    65
 73
     4
 40
10.0
 49
1.0
 74
     0
 49
-2.0
 74
     0
 49
3.0
 74
     0
 49
-4.0
 74
     0
  0
LTYPE
  5
2C
330
5
100
AcDbSymbolTableRecord
100
AcDbLinetypeTableRecord
  2
RAND2
 70
     0
  3
ランダム線2
 72
    65
 73
     4
 40
14.0
 49
2.0
 74
     0
 49
-3.0
 74
     0
 49
4.0
 74
     0
 49
-5.0
 74
     0
  0
LTYPE
  5
2D
330
5
100
AcDbSymbolTableRecord
100
AcDbLinetypeTableRecord
  2
RAND3
 70
     0
  3
ランダム線3
 72
    65
 73
     4
 40
18.0
 49
3.0
 74
     0
 49
-4.0
 74
     0
 49
5.0
 74
     0
 49
-6.0
 74
     0
  0
LTYPE
  5
2E
330
5
100
AcDbSymbolTableRecord
100
AcDbLinetypeTableRecord
  2
RAND4
 70
     0
  3
ランダム線4
 72
    65
 73
     4
 40
22.0
 49
4.0
 74
     0
 49
-5.0
 74
     0
 49
6.0
 74
     0
 49
-7.0
 74
     0
  0
LTYPE
  5
2F
330
5
100
AcDbSymbolTableRecord
100
AcDbLinetypeTableRecord
  2
RAND5
 70
     0
  3
ランダム線5
 72
    65
 73
     4
 40
26.0
 49
5.0
 74
     0
 49
-6.0
 74
     0
 49
7.0
 74
     0
 49
-8.0
 74
     0
  0
LTYPE
  5
30
330
5
100
AcDbSymbolTableRecord
100
AcDbLinetypeTableRecord
  2
LONG1
 70
     0
  3
----------  --  ----------  --  
 72
    65
 73
     4
 40
40.0
 49
32.5
 74
     0
 49
-2.5
 74
     0
 49
2.5
 74
     0
 49
-2.5
 74
     0
  0
LTYPE
  5
31
330
5
100
AcDbSymbolTableRecord
100
AcDbLinetypeTableRecord
  2
LONG2
 70
     0
  3
--------  -  -  --------  -  -  
 72
    65
 73
     6
 40
40.0
 49
30.0
 74
     0
 49
-2.5
 74
     0
 49
1.25
 74
     0
 49
-2.5
 74
     0
 49
1.25
 74
     0
 49
-2.5
 74
     0
  0
LTYPE
  5
32
330
5
100
AcDbSymbolTableRecord
100
AcDbLinetypeTableRecord
  2
LONG3
 70
     0
  3
+++++++++++++++..+++++++++++++++
 72
    65
 73
     2
 40
40.0
 49
37.5
 74
     0
 49
-2.5
 74
     0
  0
LTYPE
  5
33
330
5
100
AcDbSymbolTableRecord
100
AcDbLinetypeTableRecord
  2
LONG4
 70
     0
  3
+++++++++++++++..+++++++++++++++
 72
    65
 73
     2
 40
80.0
 49
75.0
 74
     0
 49
-5.0
 74
     0
  0
LTYPE
  5
34
330
5
100
AcDbSymbolTableRecord
100
AcDbLinetypeTableRecord
  2
LONG5
 70
     0
  3
----------  --  ----------  --  
 72
    65
 73
     4
 40
60.0
 49
37.5
 74
     0
 49
-7.5
 74
     0
 49
7.5
 74
     0
 49
-7.5
 74
     0
  0
LTYPE
  5
35
330
5
100
AcDbSymbolTableRecord
100
AcDbLinetypeTableRecord
  2
DASHED
 70
     0
  3
-------   -------------   ------
 72
    65
 73
     2
 40
7.5
 49
6.0
 74
     0
 49
-1.5
 74
     0
  0
LTYPE
  5
36
330
5
100
AcDbSymbolTableRecord
100
AcDbLinetypeTableRecord
  2
DASHED_SPACED
 70
     0
  3
----        --------        ----
 72
    65
 73
     2
 40
12.0
 49
6.0
 74
     0
 49
-6.0
 74
     0
  0
LTYPE
  5
37
330
5
100
AcDbSymbolTableRecord
100
AcDbLinetypeTableRecord
  2
LONG_DASHED_DOTTED
 70
     0
  3
------------- --- --------------
 72
    65
 73
     4
 40
15.25
 49
12.0
 74
     0
 49
-1.5
 74
     0
 49
0.25
 74
     0
 49
-1.5
 74
     0
  0
LTYPE
  5
38
330
5
100
AcDbSymbolTableRecord
100
AcDbLinetypeTableRecord
  2
LONG_DASHED_DOUBLE-DOTTED
 70
     0
  3
----------- --- --- ------------
 72
    65
 73
     6
 40
17.0
 49
12.0
 74
     0
 49
-1.5
 74
     0
 49
0.25
 74
     0
 49
-1.5
 74
     0
 49
0.25
 74
     0
 49
-1.5
 74
     0
  0
LTYPE
  5
39
330
5
100
AcDbSymbolTableRecord
100
AcDbLinetypeTableRecord
  2
LONG_DASHED_TRIPLICATE-DOTTED
 70
     0
  3
--------- --- --- --- ----------
 72
    65
 73
     8
 40
18.75
 49
12.0
 74
     0
 49
-1.5
 74
     0
 49
0.25
 74
     0
 49
-1.5
 74
     0
 49
0.25
 74
     0
 49
-1.5
 74
     0
 49
0.25
 74
     0
 49
-1.5
 74
     0
  0
LTYPE
  5
3A
330
5
100
AcDbSymbolTableRecord
100
AcDbLinetypeTableRecord
  2
DOTTED
 70
     0
  3
   -       -       -       -    
 72
    65
 73
     2
 40
1.75
 49
0.25
 74
     0
 49
-1.5
 74
     0
  0
LTYPE
  5
3B
330
5
100
AcDbSymbolTableRecord
100
AcDbLinetypeTableRecord
  2
CHAIN
 70
     0
  3
-------------- -- --------------
 72
    65
 73
     4
 40
18.5
 49
12.0
 74
     0
 49
-1.5
 74
     0
 49
3.5
 74
     0
 49
-1.5
 74
     0
  0
LTYPE
  5
3C
330
5
100
AcDbSymbolTableRecord
100
AcDbLinetypeTableRecord
  2
CHAIN_DOUBLE_DASH
 70
     0
  3
------------ -- -- -------------
 72
    65
 73
     6
 40
23.5
 49
12.0
 74
     0
 49
-1.5
 74
     0
 49
3.5
 74
     0
 49
-1.5
 74
     0
 49
3.5
 74
     0
 49
-1.5
 74
     0
  0
LTYPE
  5
3D
330
5
100
AcDbSymbolTableRecord
100
AcDbLinetypeTableRecord
  2
DASHED_DOTTED
 70
     0
  3
-----------     -     ----------
 72
    65
 73
     4
 40
9.25
 49
6.0
 74
     0
 49
-1.5
 74
     0
 49
0.25
 74
     0
 49
-1.5
 74
     0
  0
LTYPE
  5
3E
330
5
100
AcDbSymbolTableRecord
100
AcDbLinetypeTableRecord
  2
DOUBLE-DASHED_DOTTED
 70
     0
  3
------   -----------   -   -----
 72
    65
 73
     6
 40
16.75
 49
6.0
 74
     0
 49
-1.5
 74
     0
 49
6.0
 74
     0
 49
-1.5
 74
     0
 49
0.25
 74
     0
 49
-1.5
 74
     0
  0
LTYPE
  5
3F
330
5
100
AcDbSymbolTableRecord
100
AcDbLinetypeTableRecord
  2
DASHED_DOUBLE-DOTTED
 70
     0
  3
---------    -    -    ---------
 72
    65
 73
     6
 40
11.0
 49
6.0
 74
     0
 49
-1.5
 74
     0
 49
0.25
 74
     0
 49
-1.5
 74
     0
 49
0.25
 74
     0
 49
-1.5
 74
     0
  0
LTYPE
  5
40
330
5
100
AcDbSymbolTableRecord
100
AcDbLinetypeTableRecord
  2
DOUBLE-DASHED_DOUBLE-DOTTED
 70
     0
  3
-----   ---------   -   -   ----
 72
    65
 73
     8
 40
18.5
 49
6.0
 74
     0
 49
-1.5
 74
     0
 49
6.0
 74
     0
 49
-1.5
 74
     0
 49
0.25
 74
     0
 49
-1.5
 74
     0
 49
0.25
 74
     0
 49
-1.5
 74
     0
  0
LTYPE
  5
41
330
5
100
AcDbSymbolTableRecord
100
AcDbLinetypeTableRecord
  2
DASHED_TRIPLICATE-DOTTED
 70
     0
  3
-------    -    -    -    ------
 72
    65
 73
     8
 40
12.75
 49
6.0
 74
     0
 49
-1.5
 74
     0
 49
0.25
 74
     0
 49
-1.5
 74
     0
 49
0.25
 74
     0
 49
-1.5
 74
     0
 49
0.25
 74
     0
 49
-1.5
 74
     0
  0
LTYPE
  5
42
330
5
100
AcDbSymbolTableRecord
100
AcDbLinetypeTableRecord
  2
DOUBLE-DASHED_TRIPLICATE-DOTTED
 70
     0
  3
-----  ---------  -  -  -  -----
 72
    65
 73
    10
 40
20.25
 49
6.0
 74
     0
 49
-1.5
 74
     0
 49
6.0
 74
     0
 49
-1.5
 74
     0
 49
0.25
 74
     0
 49
-1.5
 74
     0
 49
0.25
 74
     0
 49
-1.5
 74
     0
 49
0.25
 74
     0
 49
-1.5
 74
     0
  0
LTYPE
  5
43
330
5
100
AcDbSymbolTableRecord
100
AcDbLinetypeTableRecord
  2
UNDEFINED
 70
     0
  3
--------------------------------
 72
    65
 73
     0
 40
0.0
  0
LTYPE
  5
44
330
5
100
AcDbSymbolTableRecord
100
AcDbLinetypeTableRecord
  2
PLINE2
 70
     0
  3
------     -----------     -----
 72
    65
 73
     2
 40
3.0
 49
2.1
 74
     0
 49
-0.9
 74
     0
  0
LTYPE
  5
45
330
5
100
AcDbSymbolTableRecord
100
AcDbLinetypeTableRecord
  2
PLINE3
 70
     0
  3
------------   ---   -----------
 72
    65
 73
     4
 40
10.0
 49
7.0
 74
     0
 49
-1.0
 74
     0
 49
1.0
 74
     0
 49
-1.0
 74
     0
  0
LTYPE
  5
46
330
5
100
AcDbSymbolTableRecord
100
AcDbLinetypeTableRecord
  2
PLINE4
 70
     0
  3
---------   ---   ---   --------
 72
    65
 73
     6
 40
10.0
 49
5.0
 74
     0
 49
-1.0
 74
     0
 49
1.0
 74
     0
 49
-1.0
 74
     0
 49
1.0
 74
     0
 49
-1.0
 74
     0
  0
LTYPE
  5
47
330
5
100
AcDbSymbolTableRecord
100
AcDbLinetypeTableRecord
  2
PLINE5
 70
     0
  3
------     -----------     -----
 72
    65
 73
     2
 40
5.0
 49
3.5
 74
     0
 49
-1.5
 74
     0
  0
LTYPE
  5
48
330
5
100
AcDbSymbolTableRecord
100
AcDbLinetypeTableRecord
  2
PLINE6
 70
     0
  3
------------   ---   -----------
 72
    65
 73
     4
 40
15.0
 49
10.5
 74
     0
 49
-1.5
 74
     0
 49
1.5
 74
     0
 49
-1.5
 74
     0
  0
LTYPE
  5
49
330
5
100
AcDbSymbolTableRecord
100
AcDbLinetypeTableRecord
  2
PLINE7
 70
     0
  3
---------   ---   ---   --------
 72
    65
 73
     6
 40
15.0
 49
7.5
 74
     0
 49
-1.5
 74
     0
 49
1.5
 74
     0
 49
-1.5
 74
     0
 49
1.5
 74
     0
 49
-1.5
 74
     0
  0
LTYPE
  5
4A
330
5
100
AcDbSymbolTableRecord
100
AcDbLinetypeTableRecord
  2
PLINE8
 70
     0
  3
------     -----------     -----
 72
    65
 73
     2
 40
7.0
 49
4.9
 74
     0
 49
-2.1
 74
     0
  0
LTYPE
  5
4B
330
5
100
AcDbSymbolTableRecord
100
AcDbLinetypeTableRecord
  2
PLINE9
 70
     0
  3
------------   ---   -----------
 72
    65
 73
     4
 40
20.0
 49
14.0
 74
     0
 49
-2.0
 74
     0
 49
2.0
 74
     0
 49
-2.0
 74
     0
  0
LTYPE
  5
4C
330
5
100
AcDbSymbolTableRecord
100
AcDbLinetypeTableRecord
  2
PLINE10
 70
     0
  3
---------   ---   ---   --------
 72
    65
 73
     6
 40
20.0
 49
10.0
 74
     0
 49
-2.0
 74
     0
 49
2.0
 74
     0
 49
-2.0
 74
     0
 49
2.0
 74
     0
 49
-2.0
 74
     0
  0
LTYPE
  5
4D
330
5
100
AcDbSymbolTableRecord
100
AcDbLinetypeTableRecord
  2
PLINE11
 70
     0
  3
------     -----------     -----
 72
    65
 73
     2
 40
9.0
 49
6.299999999999999
 74
     0
 49
-2.7
 74
     0
  0
LTYPE
  5
4E
330
5
100
AcDbSymbolTableRecord
100
AcDbLinetypeTableRecord
  2
PLINE12
 70
     0
  3
------------   ---   -----------
 72
    65
 73
     4
 40
25.0
 49
17.5
 74
     0
 49
-2.5
 74
     0
 49
2.5
 74
     0
 49
-2.5
 74
     0
  0
LTYPE
  5
4F
330
5
100
AcDbSymbolTableRecord
100
AcDbLinetypeTableRecord
  2
PLINE13
 70
     0
  3
---------   ---   ---   --------
 72
    65
 73
     6
 40
25.0
 49
12.5
 74
     0
 49
-2.5
 74
     0
 49
2.5
 74
     0
 49
-2.5
 74
     0
 49
2.5
 74
     0
 49
-2.5
 74
     0
  0
LTYPE
  5
50
330
5
100
AcDbSymbolTableRecord
100
AcDbLinetypeTableRecord
  2
PLINE14
 70
     0
  3
------     -----------     -----
 72
    65
 73
     2
 40
11.0
 49
7.7
 74
     0
 49
-3.299999999999999
 74
     0
  0
LTYPE
  5
51
330
5
100
AcDbSymbolTableRecord
100
AcDbLinetypeTableRecord
  2
PLINE15
 70
     0
  3
------------   ---   -----------
 72
    65
 73
     4
 40
30.0
 49
21.0
 74
     0
 49
-3.0
 74
     0
 49
3.0
 74
     0
 49
-3.0
 74
     0
  0
LTYPE
  5
52
330
5
100
AcDbSymbolTableRecord
100
AcDbLinetypeTableRecord
  2
PLINE16
 70
     0
  3
---------   ---   ---   --------
 72
    65
 73
     6
 40
30.0
 49
15.0
 74
     0
 49
-3.0
 74
     0
 49
3.0
 74
     0
 49
-3.0
 74
     0
 49
3.0
 74
     0
 49
-3.0
 74
     0
  0
ENDTAB
  0
TABLE
  2
LAYER
  5
2
102
{ACAD_XDICTIONARY
360
175
102
}
330
0
100
AcDbSymbolTable
 70
     5
  0
LAYER
  5
10
330
2
100
AcDbSymbolTableRecord
100
AcDbLayerTableRecord
  2
0
 70
     0
 62
     7
  6
CONTINUOUS
370
    -3
390
F
  0
LAYER
  5
128
330
2
100
AcDbSymbolTableRecord
100
AcDbLayerTableRecord
  2
Defpoints
 70
     0
 62
     7
  6
CONTINUOUS
290
     0
370
    -3
390
F
  0
LAYER
  5
179
330
2
100
AcDbSymbolTableRecord
100
AcDbLayerTableRecord
  2
製品
 70
     0
 62
     7
  6
CONTINUOUS
370
    -3
390
F
  0
LAYER
  5
6BEB
330
2
100
AcDbSymbolTableRecord
100
AcDbLayerTableRecord
  2
寸法
 70
     0
 62
     7
  6
CONTINUOUS
370
    -3
390
F
  0
LAYER
  5
6BEC
330
2
100
AcDbSymbolTableRecord
100
AcDbLayerTableRecord
  2
図面枠
 70
     0
 62
     7
  6
CONTINUOUS
370
    -3
390
F
  0
ENDTAB
  0
TABLE
  2
STYLE
  5
3
330
0
100
AcDbSymbolTable
 70
     4
  0
STYLE
  5
11
330
3
100
AcDbSymbolTableRecord
100
AcDbTextStyleTableRecord
  2
STANDARD
 70
     0
 40
0.0
 41
1.0
 50
0.0
 71
     0
 42
0.2
  3
txt
  4
bigfont.shx
  0
STYLE
  5
53
330
3
100
AcDbSymbolTableRecord
100
AcDbTextStyleTableRecord
  2
TATEGAKI
 70
     4
 40
0.0
 41
1.0
 50
0.0
 71
     0
 42
1.0
  3
txt
  4
bigfont.shx
  0
STYLE
  5
123
330
3
100
AcDbSymbolTableRecord
100
AcDbTextStyleTableRecord
  2
ACAD
 70
     0
 40
3.0
 41
0.8
 50
0.0
 71
     0
 42
5.0
  3
romans.shx
  4
extfont.shx
  0
STYLE
  5
3A5F
330
3
100
AcDbSymbolTableRecord
100
AcDbTextStyleTableRecord
  2
VERTXT
 70
     4
 40
0.0
 41
0.8582679999999999
 50
0.0
 71
     0
 42
3.5
  3
txt.shx
  4
BIGFONT
  0
ENDTAB
  0
TABLE
  2
VIEW
  5
6
330
0
100
AcDbSymbolTable
 70
     0
  0
ENDTAB
  0
TABLE
  2
UCS
  5
7
330
0
100
AcDbSymbolTable
 70
     0
  0
ENDTAB
  0
TABLE
  2
APPID
  5
9
330
0
100
AcDbSymbolTable
 70
     2
  0
APPID
  5
12
330
9
100
AcDbSymbolTableRecord
100
AcDbRegAppTableRecord
  2
ACAD
 70
     0
  0
APPID
  5
7768
330
9
100
AcDbSymbolTableRecord
100
AcDbRegAppTableRecord
  2
ACAD_DSTYLE_DIMEXT_LENGTH
 70
     0
  0
ENDTAB
  0
TABLE
  2
DIMSTYLE
  5
A
330
0
100
AcDbSymbolTable
 70
     3
100
AcDbDimStyleTable
 71
     1
340
126
  0
DIMSTYLE
105
11C
330
A
100
AcDbSymbolTableRecord
100
AcDbDimStyleTableRecord
  2
Standard
 70
     0
340
11
  0
DIMSTYLE
105
126
102
{ACAD_REACTORS
330
6C60
330
73D7
330
73ED
330
7403
330
7419
330
74BD
330
74CA
330
74D7
330
74FF
330
750C
330
7597
330
75B6
330
75CC
330
763C
330
7688
330
76AD
102
}
330
A
100
AcDbSymbolTableRecord
100
AcDbDimStyleTableRecord
  2
AutoCAD
 70
     0
 41
1.0
 42
3.0
 44
0.0
 73
     0
 77
     1
140
5.0
147
1.0
174
     1
176
     4
177
     4
178
     3
271
     0
272
     0
289
     0
340
123
341
15B0
342
11E
1001
ACAD_DSTYLE_DIMEXT_LENGTH
1070
   378
1040
1.004999999999999
  0
DIMSTYLE
105
2CBB
330
A
100
AcDbSymbolTableRecord
100
AcDbDimStyleTableRecord
  2
111
 70
     0
 41
1.0
 42
0.0
 44
0.0
 73
     0
 77
     1
140
5.0
147
1.0
174
     1
176
     4
177
     4
178
     3
271
     0
272
     0
289
     0
340
123
341
15B0
342
2CB5
  0
ENDTAB
  0
TABLE
  2
BLOCK_RECORD
  5
1
330
0
100
AcDbSymbolTable
 70
    36
  0
BLOCK_RECORD
  5
1E
102
{ACAD_XDICTIONARY
360
28B
102
}
330
1
100
AcDbSymbolTableRecord
100
AcDbBlockTableRecord
  2
*Model_Space
340
21
  0
BLOCK_RECORD
  5
1A
102
{ACAD_XDICTIONARY
360
28D
102
}
330
1
100
AcDbSymbolTableRecord
100
AcDbBlockTableRecord
  2
*Paper_Space
340
1D
  0
BLOCK_RECORD
  5
11E
330
1
100
AcDbSymbolTableRecord
100
AcDbBlockTableRecord
  2
_Dot
340
0
102
{BLKREFS
331
733D
331
733E
331
7353
331
7354
331
735C
331
735D
331
7365
331
7366
331
736E
331
736F
331
7377
331
7378
331
7380
331
7381
331
7389
331
738A
331
7392
331
7393
331
739B
331
739C
331
73A4
331
73A5
331
73AD
331
73AE
331
73B6
331
73B7
331
73BF
331
73C0
331
73D1
331
73D2
331
7549
331
754A
331
7552
331
7553
331
755B
331
755C
331
7564
331
7565
331
756D
331
756E
331
7576
331
7577
331
757F
331
7580
331
7588
331
7589
331
762D
331
762E
331
7683
331
76A8
331
76D4
331
76F4
331
770A
331
772F
331
7758
102
}
  0
BLOCK_RECORD
  5
15B0
330
1
100
AcDbSymbolTableRecord
100
AcDbBlockTableRecord
  2
_None
340
0
  0
BLOCK_RECORD
  5
2CB5
330
1
100
AcDbSymbolTableRecord
100
AcDbBlockTableRecord
  2
_Open30
340
0
  0
BLOCK_RECORD
  5
35E3
330
1
100
AcDbSymbolTableRecord
100
AcDbBlockTableRecord
  2
_DotBlank
340
0
  0
BLOCK_RECORD
  5
6CD7
330
1
100
AcDbSymbolTableRecord
100
AcDbBlockTableRecord
  2
*D5
340
0
  0
BLOCK_RECORD
  5
73D8
330
1
100
AcDbSymbolTableRecord
100
AcDbBlockTableRecord
  2
*D20
340
0
  0
BLOCK_RECORD
  5
73EE
330
1
100
AcDbSymbolTableRecord
100
AcDbBlockTableRecord
  2
*D21
340
0
  0
BLOCK_RECORD
  5
7404
330
1
100
AcDbSymbolTableRecord
100
AcDbBlockTableRecord
  2
*D22
340
0
  0
BLOCK_RECORD
  5
741A
330
1
100
AcDbSymbolTableRecord
100
AcDbBlockTableRecord
  2
*D23
340
0
  0
BLOCK_RECORD
  5
74BE
330
1
100
AcDbSymbolTableRecord
100
AcDbBlockTableRecord
  2
*D24
340
0
  0
BLOCK_RECORD
  5
74CB
330
1
100
AcDbSymbolTableRecord
100
AcDbBlockTableRecord
  2
*D25
340
0
  0
BLOCK_RECORD
  5
74D8
330
1
100
AcDbSymbolTableRecord
100
AcDbBlockTableRecord
  2
*D26
340
0
  0
BLOCK_RECORD
  5
7500
330
1
100
AcDbSymbolTableRecord
100
AcDbBlockTableRecord
  2
*D27
340
0
  0
BLOCK_RECORD
  5
750D
330
1
100
AcDbSymbolTableRecord
100
AcDbBlockTableRecord
  2
*D28
340
0
  0
BLOCK_RECORD
  5
7598
330
1
100
AcDbSymbolTableRecord
100
AcDbBlockTableRecord
  2
*D29
340
0
  0
BLOCK_RECORD
  5
75B7
330
1
100
AcDbSymbolTableRecord
100
AcDbBlockTableRecord
  2
*D30
340
0
  0
BLOCK_RECORD
  5
75CD
330
1
100
AcDbSymbolTableRecord
100
AcDbBlockTableRecord
  2
*D31
340
0
  0
BLOCK_RECORD
  5
763D
330
1
100
AcDbSymbolTableRecord
100
AcDbBlockTableRecord
  2
*D32
340
0
  0
BLOCK_RECORD
  5
7689
330
1
100
AcDbSymbolTableRecord
100
AcDbBlockTableRecord
  2
*D33
340
0
  0
BLOCK_RECORD
  5
76AE
330
1
100
AcDbSymbolTableRecord
100
AcDbBlockTableRecord
  2
*D34
340
0
  0
BLOCK_RECORD
  5
770F
330
1
100
AcDbSymbolTableRecord
100
AcDbBlockTableRecord
  2
_Integral
340
0
  0
ENDTAB
  0
ENDSEC
  0
SECTION
  2
BLOCKS
  0
BLOCK
  5
1F
330
1E
100
AcDbEntity
  8
0
100
AcDbBlockBegin
  2
*Model_Space
 70
     0
 10
0.0
 20
0.0
 30
0.0
  3
*Model_Space
  1

  0
ENDBLK
  5
20
330
1E
100
AcDbEntity
  8
0
100
AcDbBlockEnd
  0
BLOCK
  5
1B
330
1A
100
AcDbEntity
 67
     1
  8
0
100
AcDbBlockBegin
  2
*Paper_Space
 70
     0
 10
0.0
 20
0.0
 30
0.0
  3
*Paper_Space
  1

  0
ENDBLK
  5
1C
330
1A
100
AcDbEntity
 67
     1
  8
0
100
AcDbBlockEnd
  0
BLOCK
  5
121
330
11E
100
AcDbEntity
  8
0
100
AcDbBlockBegin
  2
_Dot
 70
     0
 10
0.0
 20
0.0
 30
0.0
  3
_Dot
  1

  0
LWPOLYLINE
  5
11F
330
11E
100
AcDbEntity
  8
0
  6
ByBlock
 62
     0
100
AcDbPolyline
 90
        2
 70
     1
 43
0.5
 10
-0.25
 20
0.0
 42
1.0
 10
0.25
 20
0.0
 42
1.0
  0
LINE
  5
120
330
11E
100
AcDbEntity
  8
0
  6
ByBlock
 62
     0
370
    -2
100
AcDbLine
 10
-0.5
 20
0.0
 30
0.0
 11
-1.0
 21
0.0
 31
0.0
  0
ENDBLK
  5
122
330
11E
100
AcDbEntity
  8
0
100
AcDbBlockEnd
  0
BLOCK
  5
15B1
330
15B0
100
AcDbEntity
  8
0
100
AcDbBlockBegin
  2
_None
 70
     0
 10
0.0
 20
0.0
 30
0.0
  3
_None
  1

  0
ENDBLK
  5
15B2
330
15B0
100
AcDbEntity
  8
0
100
AcDbBlockEnd
  0
BLOCK
  5
2CB9
330
2CB5
100
AcDbEntity
  8
0
100
AcDbBlockBegin
  2
_Open30
 70
     0
 10
0.0
 20
0.0
 30
0.0
  3
_Open30
  1

  0
LINE
  5
2CB6
330
2CB5
100
AcDbEntity
  8
0
  6
ByBlock
 62
     0
370
    -2
100
AcDbLine
 10
-1.0
 20
0.26794919
 30
0.0
 11
0.0
 21
0.0
 31
0.0
  0
LINE
  5
2CB7
330
2CB5
100
AcDbEntity
  8
0
  6
ByBlock
 62
     0
370
    -2
100
AcDbLine
 10
0.0
 20
0.0
 30
0.0
 11
-1.0
 21
-0.26794919
 31
0.0
  0
LINE
  5
2CB8
330
2CB5
100
AcDbEntity
  8
0
  6
ByBlock
 62
     0
370
    -2
100
AcDbLine
 10
0.0
 20
0.0
 30
0.0
 11
-1.0
 21
0.0
 31
0.0
  0
ENDBLK
  5
2CBA
330
2CB5
100
AcDbEntity
  8
0
100
AcDbBlockEnd
  0
BLOCK
  5
35E6
330
35E3
100
AcDbEntity
  8
0
100
AcDbBlockBegin
  2
_DotBlank
 70
     0
 10
0.0
 20
0.0
 30
0.0
  3
_DotBlank
  1

  0
CIRCLE
  5
35E4
330
35E3
100
AcDbEntity
  8
0
  6
ByBlock
 62
     0
370
    -2
100
AcDbCircle
 10
0.0
 20
0.0
 30
0.0
 40
0.5
  0
LINE
  5
35E5
330
35E3
100
AcDbEntity
  8
0
  6
ByBlock
 62
     0
370
    -2
100
AcDbLine
 10
-0.5
 20
0.0
 30
0.0
 11
-1.0
 21
0.0
 31
0.0
  0
ENDBLK
  5
35E7
330
35E3
100
AcDbEntity
  8
0
100
AcDbBlockEnd
  0
BLOCK
  5
6CE0
330
6CD7
100
AcDbEntity
  8
0
100
AcDbBlockBegin
  2
*D5
 70
     1
 10
0.0
 20
0.0
 30
0.0
  3
*D5
  1

  0
LINE
  5
76F2
330
6CD7
100
AcDbEntity
  8
寸法
  6
Continuous
 62
     4
370
    -2
100
AcDbLine
 10
148.8905906672093
 20
207.3600199346861
 30
0.0
 11
148.8905906672093
 21
198.3600199346861
 31
0.0
  0
MTEXT
  5
76F3
330
6CD7
100
AcDbEntity
  8
寸法
  6
Continuous
 62
     3
100
AcDbMText
 10
146.5905906672092
 20
202.3600199346861
 30
0.0
 40
3.0
 41
0.0
 71
     5
 72
     1
  1
\A1;364
  7
ACAD
 11
0.0000000000000001
 21
1.0
 31
0.0
 73
     1
 44
1.0
1001
ACAD
1000
MTEXTBEGIN
1070
    73
1070
     1
1070
    44
1040
1.0
1070
    74
1070
     0
1000
MTEXTEND
  0
INSERT
  5
76F4
330
6CD7
100
AcDbEntity
  8
寸法
  6
Continuous
 62
     4
370
    -2
100
AcDbBlockReference
  2
_Dot
 10
148.8905906672093
 20
197.3600199346861
 30
0.0
 50
270.0
  0
POINT
  5
76F5
330
6CD7
100
AcDbEntity
  8
Defpoints
  6
Continuous
 62
     0
100
AcDbPoint
 10
148.8905906672092
 20
207.3600199346861
 30
0.0
  0
POINT
  5
76F6
330
6CD7
100
AcDbEntity
  8
Defpoints
  6
Continuous
 62
     0
100
AcDbPoint
 10
148.8905906672092
 20
197.3600199346861
 30
0.0
  0
POINT
  5
76F7
330
6CD7
100
AcDbEntity
  8
Defpoints
  6
Continuous
 62
     0
100
AcDbPoint
 10
148.8905906672093
 20
197.3600199346861
 30
0.0
  0
ENDBLK
  5
6CE1
330
6CD7
100
AcDbEntity
  8
0
100
AcDbBlockEnd
  0
BLOCK
  5
73E2
330
73D8
100
AcDbEntity
  8
0
100
AcDbBlockBegin
  2
*D20
 70
     1
 10
0.0
 20
0.0
 30
0.0
  3
*D20
  1

  0
LINE
  5
7546
330
73D8
100
AcDbEntity
  8
寸法
  6
Continuous
 62
     4
370
    -2
100
AcDbLine
 10
155.7475436672097
 20
185.226685934686
 30
0.0
 11
148.8905906672093
 21
185.226685934686
 31
0.0
  0
LINE
  5
7547
330
73D8
100
AcDbEntity
  8
寸法
  6
Continuous
 62
     4
370
    -2
100
AcDbLine
 10
155.7475436672097
 20
197.3600199346861
 30
0.0
 11
148.8905906672093
 21
197.3600199346861
 31
0.0
  0
LINE
  5
7548
330
73D8
100
AcDbEntity
  8
寸法
  6
Continuous
 62
     4
370
    -2
100
AcDbLine
 10
148.8905906672093
 20
186.226685934686
 30
0.0
 11
148.8905906672093
 21
196.3600199346861
 31
0.0
  0
INSERT
  5
7549
330
73D8
100
AcDbEntity
  8
寸法
  6
Continuous
 62
     4
370
    -2
100
AcDbBlockReference
  2
_Dot
 10
148.8905906672093
 20
185.226685934686
 30
0.0
 50
270.0
  0
INSERT
  5
754A
330
73D8
100
AcDbEntity
  8
寸法
  6
Continuous
 62
     4
370
    -2
100
AcDbBlockReference
  2
_Dot
 10
148.8905906672093
 20
197.3600199346861
 30
0.0
 50
90.0
  0
MTEXT
  5
754B
330
73D8
100
AcDbEntity
  8
寸法
  6
Continuous
 62
     3
100
AcDbMText
 10
146.5905906672092
 20
191.293352934686
 30
0.0
 40
3.0
 41
0.0
 71
     5
 72
     1
  1
\A1;364
  7
ACAD
 11
0.0000000000000001
 21
1.0
 31
0.0
 73
     1
 44
1.0
1001
ACAD
1000
MTEXTBEGIN
1070
    73
1070
     1
1070
    44
1040
1.0
1070
    74
1070
     0
1000
MTEXTEND
  0
POINT
  5
754C
330
73D8
100
AcDbEntity
  8
Defpoints
  6
Continuous
 62
     0
100
AcDbPoint
 10
158.7475436672097
 20
185.226685934686
 30
0.0
  0
POINT
  5
754D
330
73D8
100
AcDbEntity
  8
Defpoints
  6
Continuous
 62
     0
100
AcDbPoint
 10
158.7475436672097
 20
197.3600199346861
 30
0.0
  0
POINT
  5
754E
330
73D8
100
AcDbEntity
  8
Defpoints
  6
Continuous
 62
     0
100
AcDbPoint
 10
148.8905906672093
 20
197.3600199346861
 30
0.0
  0
ENDBLK
  5
73E3
330
73D8
100
AcDbEntity
  8
0
100
AcDbBlockEnd
  0
BLOCK
  5
73F8
330
73EE
100
AcDbEntity
  8
0
100
AcDbBlockBegin
  2
*D21
 70
     1
 10
0.0
 20
0.0
 30
0.0
  3
*D21
  1

  0
LINE
  5
754F
330
73EE
100
AcDbEntity
  8
寸法
  6
Continuous
 62
     4
370
    -2
100
AcDbLine
 10
155.7475436672097
 20
173.0933529346862
 30
0.0
 11
148.8905906672093
 21
173.0933529346862
 31
0.0
  0
LINE
  5
7550
330
73EE
100
AcDbEntity
  8
寸法
  6
Continuous
 62
     4
370
    -2
100
AcDbLine
 10
155.7475436672097
 20
185.226685934686
 30
0.0
 11
148.8905906672093
 21
185.226685934686
 31
0.0
  0
LINE
  5
7551
330
73EE
100
AcDbEntity
  8
寸法
  6
Continuous
 62
     4
370
    -2
100
AcDbLine
 10
148.8905906672093
 20
174.0933529346862
 30
0.0
 11
148.8905906672093
 21
184.226685934686
 31
0.0
  0
INSERT
  5
7552
330
73EE
100
AcDbEntity
  8
寸法
  6
Continuous
 62
     4
370
    -2
100
AcDbBlockReference
  2
_Dot
 10
148.8905906672093
 20
173.0933529346862
 30
0.0
 50
270.0
  0
INSERT
  5
7553
330
73EE
100
AcDbEntity
  8
寸法
  6
Continuous
 62
     4
370
    -2
100
AcDbBlockReference
  2
_Dot
 10
148.8905906672093
 20
185.226685934686
 30
0.0
 50
90.0
  0
MTEXT
  5
7554
330
73EE
100
AcDbEntity
  8
寸法
  6
Continuous
 62
     3
100
AcDbMText
 10
146.5905906672092
 20
179.1600194346861
 30
0.0
 40
3.0
 41
0.0
 71
     5
 72
     1
  1
\A1;364
  7
ACAD
 11
0.0000000000000001
 21
1.0
 31
0.0
 73
     1
 44
1.0
1001
ACAD
1000
MTEXTBEGIN
1070
    73
1070
     1
1070
    44
1040
1.0
1070
    74
1070
     0
1000
MTEXTEND
  0
POINT
  5
7555
330
73EE
100
AcDbEntity
  8
Defpoints
  6
Continuous
 62
     0
100
AcDbPoint
 10
158.7475436672097
 20
173.0933529346862
 30
0.0
  0
POINT
  5
7556
330
73EE
100
AcDbEntity
  8
Defpoints
  6
Continuous
 62
     0
100
AcDbPoint
 10
158.7475436672097
 20
185.226685934686
 30
0.0
  0
POINT
  5
7557
330
73EE
100
AcDbEntity
  8
Defpoints
  6
Continuous
 62
     0
100
AcDbPoint
 10
148.8905906672093
 20
185.226685934686
 30
0.0
  0
ENDBLK
  5
73F9
330
73EE
100
AcDbEntity
  8
0
100
AcDbBlockEnd
  0
BLOCK
  5
740E
330
7404
100
AcDbEntity
  8
0
100
AcDbBlockBegin
  2
*D22
 70
     1
 10
0.0
 20
0.0
 30
0.0
  3
*D22
  1

  0
LINE
  5
7558
330
7404
100
AcDbEntity
  8
寸法
  6
Continuous
 62
     4
370
    -2
100
AcDbLine
 10
155.7475436672097
 20
160.960019934686
 30
0.0
 11
148.8905906672093
 21
160.960019934686
 31
0.0
  0
LINE
  5
7559
330
7404
100
AcDbEntity
  8
寸法
  6
Continuous
 62
     4
370
    -2
100
AcDbLine
 10
155.7475436672097
 20
173.0933529346862
 30
0.0
 11
148.8905906672093
 21
173.0933529346862
 31
0.0
  0
LINE
  5
755A
330
7404
100
AcDbEntity
  8
寸法
  6
Continuous
 62
     4
370
    -2
100
AcDbLine
 10
148.8905906672093
 20
161.960019934686
 30
0.0
 11
148.8905906672093
 21
172.0933529346862
 31
0.0
  0
INSERT
  5
755B
330
7404
100
AcDbEntity
  8
寸法
  6
Continuous
 62
     4
370
    -2
100
AcDbBlockReference
  2
_Dot
 10
148.8905906672093
 20
160.960019934686
 30
0.0
 50
270.0
  0
INSERT
  5
755C
330
7404
100
AcDbEntity
  8
寸法
  6
Continuous
 62
     4
370
    -2
100
AcDbBlockReference
  2
_Dot
 10
148.8905906672093
 20
173.0933529346862
 30
0.0
 50
90.0
  0
MTEXT
  5
755D
330
7404
100
AcDbEntity
  8
寸法
  6
Continuous
 62
     3
100
AcDbMText
 10
146.5905906672092
 20
167.0266864346861
 30
0.0
 40
3.0
 41
0.0
 71
     5
 72
     1
  1
\A1;364
  7
ACAD
 11
0.0000000000000001
 21
1.0
 31
0.0
 73
     1
 44
1.0
1001
ACAD
1000
MTEXTBEGIN
1070
    73
1070
     1
1070
    44
1040
1.0
1070
    74
1070
     0
1000
MTEXTEND
  0
POINT
  5
755E
330
7404
100
AcDbEntity
  8
Defpoints
  6
Continuous
 62
     0
100
AcDbPoint
 10
158.7475436672097
 20
160.960019934686
 30
0.0
  0
POINT
  5
755F
330
7404
100
AcDbEntity
  8
Defpoints
  6
Continuous
 62
     0
100
AcDbPoint
 10
158.7475436672097
 20
173.0933529346862
 30
0.0
  0
POINT
  5
7560
330
7404
100
AcDbEntity
  8
Defpoints
  6
Continuous
 62
     0
100
AcDbPoint
 10
148.8905906672093
 20
173.0933529346862
 30
0.0
  0
ENDBLK
  5
740F
330
7404
100
AcDbEntity
  8
0
100
AcDbBlockEnd
  0
BLOCK
  5
7424
330
741A
100
AcDbEntity
  8
0
100
AcDbBlockBegin
  2
*D23
 70
     1
 10
0.0
 20
0.0
 30
0.0
  3
*D23
  1

  0
LINE
  5
7561
330
741A
100
AcDbEntity
  8
寸法
  6
Continuous
 62
     4
370
    -2
100
AcDbLine
 10
155.7475436672097
 20
148.8266859346863
 30
0.0
 11
148.8905906672093
 21
148.8266859346863
 31
0.0
  0
LINE
  5
7562
330
741A
100
AcDbEntity
  8
寸法
  6
Continuous
 62
     4
370
    -2
100
AcDbLine
 10
155.7475436672097
 20
160.960019934686
 30
0.0
 11
148.8905906672093
 21
160.960019934686
 31
0.0
  0
LINE
  5
7563
330
741A
100
AcDbEntity
  8
寸法
  6
Continuous
 62
     4
370
    -2
100
AcDbLine
 10
148.8905906672093
 20
149.8266859346863
 30
0.0
 11
148.8905906672093
 21
159.960019934686
 31
0.0
  0
INSERT
  5
7564
330
741A
100
AcDbEntity
  8
寸法
  6
Continuous
 62
     4
370
    -2
100
AcDbBlockReference
  2
_Dot
 10
148.8905906672093
 20
148.8266859346863
 30
0.0
 50
270.0
  0
INSERT
  5
7565
330
741A
100
AcDbEntity
  8
寸法
  6
Continuous
 62
     4
370
    -2
100
AcDbBlockReference
  2
_Dot
 10
148.8905906672093
 20
160.960019934686
 30
0.0
 50
90.0
  0
MTEXT
  5
7566
330
741A
100
AcDbEntity
  8
寸法
  6
Continuous
 62
     3
100
AcDbMText
 10
146.5905906672092
 20
154.8933529346862
 30
0.0
 40
3.0
 41
0.0
 71
     5
 72
     1
  1
\A1;364
  7
ACAD
 11
0.0000000000000001
 21
1.0
 31
0.0
 73
     1
 44
1.0
1001
ACAD
1000
MTEXTBEGIN
1070
    73
1070
     1
1070
    44
1040
1.0
1070
    74
1070
     0
1000
MTEXTEND
  0
POINT
  5
7567
330
741A
100
AcDbEntity
  8
Defpoints
  6
Continuous
 62
     0
100
AcDbPoint
 10
158.7475436672097
 20
148.8266859346863
 30
0.0
  0
POINT
  5
7568
330
741A
100
AcDbEntity
  8
Defpoints
  6
Continuous
 62
     0
100
AcDbPoint
 10
158.7475436672097
 20
160.960019934686
 30
0.0
  0
POINT
  5
7569
330
741A
100
AcDbEntity
  8
Defpoints
  6
Continuous
 62
     0
100
AcDbPoint
 10
148.8905906672093
 20
160.960019934686
 30
0.0
  0
ENDBLK
  5
7425
330
741A
100
AcDbEntity
  8
0
100
AcDbBlockEnd
  0
BLOCK
  5
74C8
330
74BE
100
AcDbEntity
  8
0
100
AcDbBlockBegin
  2
*D24
 70
     1
 10
0.0
 20
0.0
 30
0.0
  3
*D24
  1

  0
LINE
  5
756A
330
74BE
100
AcDbEntity
  8
寸法
  6
Continuous
 62
     4
370
    -2
100
AcDbLine
 10
155.7475436672097
 20
148.8266859346863
 30
0.0
 11
148.8905906672093
 21
148.8266859346863
 31
0.0
  0
LINE
  5
756B
330
74BE
100
AcDbEntity
  8
寸法
  6
Continuous
 62
     4
370
    -2
100
AcDbLine
 10
155.7475436672097
 20
136.6933529346861
 30
0.0
 11
148.8905906672093
 21
136.6933529346861
 31
0.0
  0
LINE
  5
756C
330
74BE
100
AcDbEntity
  8
寸法
  6
Continuous
 62
     4
370
    -2
100
AcDbLine
 10
148.8905906672093
 20
147.8266859346863
 30
0.0
 11
148.8905906672093
 21
137.6933529346861
 31
0.0
  0
INSERT
  5
756D
330
74BE
100
AcDbEntity
  8
寸法
  6
Continuous
 62
     4
370
    -2
100
AcDbBlockReference
  2
_Dot
 10
148.8905906672093
 20
148.8266859346863
 30
0.0
 50
90.0
  0
INSERT
  5
756E
330
74BE
100
AcDbEntity
  8
寸法
  6
Continuous
 62
     4
370
    -2
100
AcDbBlockReference
  2
_Dot
 10
148.8905906672093
 20
136.6933529346861
 30
0.0
 50
270.0
  0
MTEXT
  5
756F
330
74BE
100
AcDbEntity
  8
寸法
  6
Continuous
 62
     3
100
AcDbMText
 10
146.5905906672092
 20
142.7600194346862
 30
0.0
 40
3.0
 41
0.0
 71
     5
 72
     1
  1
\A1;364
  7
ACAD
 11
0.0000000000000001
 21
1.0
 31
0.0
 73
     1
 44
1.0
1001
ACAD
1000
MTEXTBEGIN
1070
    73
1070
     1
1070
    44
1040
1.0
1070
    74
1070
     0
1000
MTEXTEND
  0
POINT
  5
7570
330
74BE
100
AcDbEntity
  8
Defpoints
  6
Continuous
 62
     0
100
AcDbPoint
 10
158.7475436672097
 20
148.8266859346863
 30
0.0
  0
POINT
  5
7571
330
74BE
100
AcDbEntity
  8
Defpoints
  6
Continuous
 62
     0
100
AcDbPoint
 10
158.7475436672097
 20
136.6933529346861
 30
0.0
  0
POINT
  5
7572
330
74BE
100
AcDbEntity
  8
Defpoints
  6
Continuous
 62
     0
100
AcDbPoint
 10
148.8905906672093
 20
136.6933529346861
 30
0.0
  0
ENDBLK
  5
74C9
330
74BE
100
AcDbEntity
  8
0
100
AcDbBlockEnd
  0
BLOCK
  5
74D5
330
74CB
100
AcDbEntity
  8
0
100
AcDbBlockBegin
  2
*D25
 70
     1
 10
0.0
 20
0.0
 30
0.0
  3
*D25
  1

  0
LINE
  5
7573
330
74CB
100
AcDbEntity
  8
寸法
  6
Continuous
 62
     4
370
    -2
100
AcDbLine
 10
155.7475436672097
 20
136.6933529346861
 30
0.0
 11
148.8905906672093
 21
136.6933529346861
 31
0.0
  0
LINE
  5
7574
330
74CB
100
AcDbEntity
  8
寸法
  6
Continuous
 62
     4
370
    -2
100
AcDbLine
 10
155.7475436672097
 20
124.5600199346863
 30
0.0
 11
148.8905906672093
 21
124.5600199346863
 31
0.0
  0
LINE
  5
7575
330
74CB
100
AcDbEntity
  8
寸法
  6
Continuous
 62
     4
370
    -2
100
AcDbLine
 10
148.8905906672093
 20
135.6933529346861
 30
0.0
 11
148.8905906672093
 21
125.5600199346863
 31
0.0
  0
INSERT
  5
7576
330
74CB
100
AcDbEntity
  8
寸法
  6
Continuous
 62
     4
370
    -2
100
AcDbBlockReference
  2
_Dot
 10
148.8905906672093
 20
136.6933529346861
 30
0.0
 50
90.0
  0
INSERT
  5
7577
330
74CB
100
AcDbEntity
  8
寸法
  6
Continuous
 62
     4
370
    -2
100
AcDbBlockReference
  2
_Dot
 10
148.8905906672093
 20
124.5600199346863
 30
0.0
 50
270.0
  0
MTEXT
  5
7578
330
74CB
100
AcDbEntity
  8
寸法
  6
Continuous
 62
     3
100
AcDbMText
 10
146.5905906672092
 20
130.6266864346862
 30
0.0
 40
3.0
 41
0.0
 71
     5
 72
     1
  1
\A1;364
  7
ACAD
 11
0.0000000000000001
 21
1.0
 31
0.0
 73
     1
 44
1.0
1001
ACAD
1000
MTEXTBEGIN
1070
    73
1070
     1
1070
    44
1040
1.0
1070
    74
1070
     0
1000
MTEXTEND
  0
POINT
  5
7579
330
74CB
100
AcDbEntity
  8
Defpoints
  6
Continuous
 62
     0
100
AcDbPoint
 10
158.7475436672097
 20
136.6933529346861
 30
0.0
  0
POINT
  5
757A
330
74CB
100
AcDbEntity
  8
Defpoints
  6
Continuous
 62
     0
100
AcDbPoint
 10
158.7475436672097
 20
124.5600199346863
 30
0.0
  0
POINT
  5
757B
330
74CB
100
AcDbEntity
  8
Defpoints
  6
Continuous
 62
     0
100
AcDbPoint
 10
148.8905906672093
 20
124.5600199346863
 30
0.0
  0
ENDBLK
  5
74D6
330
74CB
100
AcDbEntity
  8
0
100
AcDbBlockEnd
  0
BLOCK
  5
74E2
330
74D8
100
AcDbEntity
  8
0
100
AcDbBlockBegin
  2
*D26
 70
     1
 10
0.0
 20
0.0
 30
0.0
  3
*D26
  1

  0
LINE
  5
757C
330
74D8
100
AcDbEntity
  8
寸法
  6
Continuous
 62
     4
370
    -2
100
AcDbLine
 10
155.7475436672097
 20
124.5600199346863
 30
0.0
 11
148.8905906672093
 21
124.5600199346863
 31
0.0
  0
LINE
  5
757D
330
74D8
100
AcDbEntity
  8
寸法
  6
Continuous
 62
     4
370
    -2
100
AcDbLine
 10
155.7475436672097
 20
112.4266859346862
 30
0.0
 11
148.8905906672093
 21
112.4266859346862
 31
0.0
  0
LINE
  5
757E
330
74D8
100
AcDbEntity
  8
寸法
  6
Continuous
 62
     4
370
    -2
100
AcDbLine
 10
148.8905906672093
 20
123.5600199346863
 30
0.0
 11
148.8905906672093
 21
113.4266859346862
 31
0.0
  0
INSERT
  5
757F
330
74D8
100
AcDbEntity
  8
寸法
  6
Continuous
 62
     4
370
    -2
100
AcDbBlockReference
  2
_Dot
 10
148.8905906672093
 20
124.5600199346863
 30
0.0
 50
90.0
  0
INSERT
  5
7580
330
74D8
100
AcDbEntity
  8
寸法
  6
Continuous
 62
     4
370
    -2
100
AcDbBlockReference
  2
_Dot
 10
148.8905906672093
 20
112.4266859346862
 30
0.0
 50
270.0
  0
MTEXT
  5
7581
330
74D8
100
AcDbEntity
  8
寸法
  6
Continuous
 62
     3
100
AcDbMText
 10
146.5905906672092
 20
118.4933529346863
 30
0.0
 40
3.0
 41
0.0
 71
     5
 72
     1
  1
\A1;364
  7
ACAD
 11
0.0000000000000001
 21
1.0
 31
0.0
 73
     1
 44
1.0
1001
ACAD
1000
MTEXTBEGIN
1070
    73
1070
     1
1070
    44
1040
1.0
1070
    74
1070
     0
1000
MTEXTEND
  0
POINT
  5
7582
330
74D8
100
AcDbEntity
  8
Defpoints
  6
Continuous
 62
     0
100
AcDbPoint
 10
158.7475436672097
 20
124.5600199346863
 30
0.0
  0
POINT
  5
7583
330
74D8
100
AcDbEntity
  8
Defpoints
  6
Continuous
 62
     0
100
AcDbPoint
 10
158.7475436672097
 20
112.4266859346862
 30
0.0
  0
POINT
  5
7584
330
74D8
100
AcDbEntity
  8
Defpoints
  6
Continuous
 62
     0
100
AcDbPoint
 10
148.8905906672093
 20
112.4266859346862
 30
0.0
  0
ENDBLK
  5
74E3
330
74D8
100
AcDbEntity
  8
0
100
AcDbBlockEnd
  0
BLOCK
  5
750A
330
7500
100
AcDbEntity
  8
0
100
AcDbBlockBegin
  2
*D27
 70
     1
 10
0.0
 20
0.0
 30
0.0
  3
*D27
  1

  0
LINE
  5
7585
330
7500
100
AcDbEntity
  8
寸法
  6
Continuous
 62
     4
370
    -2
100
AcDbLine
 10
155.7475436672097
 20
112.4266859346862
 30
0.0
 11
148.8905906672093
 21
112.4266859346862
 31
0.0
  0
LINE
  5
7586
330
7500
100
AcDbEntity
  8
寸法
  6
Continuous
 62
     4
370
    -2
100
AcDbLine
 10
155.7475436672097
 20
100.293352934686
 30
0.0
 11
148.8905906672093
 21
100.293352934686
 31
0.0
  0
LINE
  5
7587
330
7500
100
AcDbEntity
  8
寸法
  6
Continuous
 62
     4
370
    -2
100
AcDbLine
 10
148.8905906672093
 20
111.4266859346862
 30
0.0
 11
148.8905906672093
 21
101.293352934686
 31
0.0
  0
INSERT
  5
7588
330
7500
100
AcDbEntity
  8
寸法
  6
Continuous
 62
     4
370
    -2
100
AcDbBlockReference
  2
_Dot
 10
148.8905906672093
 20
112.4266859346862
 30
0.0
 50
90.0
  0
INSERT
  5
7589
330
7500
100
AcDbEntity
  8
寸法
  6
Continuous
 62
     4
370
    -2
100
AcDbBlockReference
  2
_Dot
 10
148.8905906672093
 20
100.293352934686
 30
0.0
 50
270.0
  0
MTEXT
  5
758A
330
7500
100
AcDbEntity
  8
寸法
  6
Continuous
 62
     3
100
AcDbMText
 10
146.5905906672092
 20
106.3600194346861
 30
0.0
 40
3.0
 41
0.0
 71
     5
 72
     1
  1
\A1;364
  7
ACAD
 11
0.0000000000000001
 21
1.0
 31
0.0
 73
     1
 44
1.0
1001
ACAD
1000
MTEXTBEGIN
1070
    73
1070
     1
1070
    44
1040
1.0
1070
    74
1070
     0
1000
MTEXTEND
  0
POINT
  5
758B
330
7500
100
AcDbEntity
  8
Defpoints
  6
Continuous
 62
     0
100
AcDbPoint
 10
158.7475436672097
 20
112.4266859346862
 30
0.0
  0
POINT
  5
758C
330
7500
100
AcDbEntity
  8
Defpoints
  6
Continuous
 62
     0
100
AcDbPoint
 10
158.7475436672097
 20
100.293352934686
 30
0.0
  0
POINT
  5
758D
330
7500
100
AcDbEntity
  8
Defpoints
  6
Continuous
 62
     0
100
AcDbPoint
 10
148.8905906672093
 20
100.293352934686
 30
0.0
  0
ENDBLK
  5
750B
330
7500
100
AcDbEntity
  8
0
100
AcDbBlockEnd
  0
BLOCK
  5
7517
330
750D
100
AcDbEntity
  8
0
100
AcDbBlockBegin
  2
*D28
 70
     1
 10
0.0
 20
0.0
 30
0.0
  3
*D28
  1

  0
LINE
  5
772D
330
750D
100
AcDbEntity
  8
寸法
  6
Continuous
 62
     4
370
    -2
100
AcDbLine
 10
158.7475436672097
 20
100.293352934686
 30
0.0
 11
148.8905906672093
 21
100.293352934686
 31
0.0
  0
LINE
  5
772E
330
750D
100
AcDbEntity
  8
寸法
  6
Continuous
 62
     4
370
    -2
100
AcDbLine
 10
148.8905906672093
 20
99.29335293468604
 30
0.0
 11
148.8905906672093
 21
90.29335293468603
 31
0.0
  0
INSERT
  5
772F
330
750D
100
AcDbEntity
  8
寸法
  6
Continuous
 62
     4
370
    -2
100
AcDbBlockReference
  2
_Dot
 10
148.8905906672093
 20
100.293352934686
 30
0.0
 50
90.0
  0
MTEXT
  5
7730
330
750D
100
AcDbEntity
  8
寸法
  6
Continuous
 62
     3
100
AcDbMText
 10
146.5905906672092
 20
94.79335293468604
 30
0.0
 40
3.0
 41
0.0
 71
     5
 72
     1
  1
\A1;364
  7
ACAD
 11
0.0000000000000001
 21
1.0
 31
0.0
 73
     1
 44
1.0
1001
ACAD
1000
MTEXTBEGIN
1070
    73
1070
     1
1070
    44
1040
1.0
1070
    74
1070
     0
1000
MTEXTEND
  0
POINT
  5
7731
330
750D
100
AcDbEntity
  8
Defpoints
  6
Continuous
 62
     0
100
AcDbPoint
 10
158.7475436672097
 20
100.293352934686
 30
0.0
  0
POINT
  5
7732
330
750D
100
AcDbEntity
  8
Defpoints
  6
Continuous
 62
     0
100
AcDbPoint
 10
148.8905906672093
 20
90.29335293468603
 30
0.0
  0
POINT
  5
7733
330
750D
100
AcDbEntity
  8
Defpoints
  6
Continuous
 62
     0
100
AcDbPoint
 10
148.8905906672093
 20
90.29335293468603
 30
0.0
  0
ENDBLK
  5
7518
330
750D
100
AcDbEntity
  8
0
100
AcDbBlockEnd
  0
BLOCK
  5
75A2
330
7598
100
AcDbEntity
  8
0
100
AcDbBlockBegin
  2
*D29
 70
     1
 10
0.0
 20
0.0
 30
0.0
  3
*D29
  1

  0
LINE
  5
7708
330
7598
100
AcDbEntity
  8
寸法
  6
Continuous
 62
     4
370
    -2
100
AcDbLine
 10
148.8905906672093
 20
173.0933529346862
 30
0.0
 11
138.8905906672093
 21
173.0933529346862
 31
0.0
  0
LINE
  5
7709
330
7598
100
AcDbEntity
  8
寸法
  6
Continuous
 62
     4
370
    -2
100
AcDbLine
 10
138.8905906672093
 20
207.3600199346861
 30
0.0
 11
138.8905906672093
 21
174.0933529346862
 31
0.0
  0
INSERT
  5
770A
330
7598
100
AcDbEntity
  8
寸法
  6
Continuous
 62
     4
370
    -2
100
AcDbBlockReference
  2
_Dot
 10
138.8905906672093
 20
173.0933529346862
 30
0.0
 50
270.0
  0
MTEXT
  5
770B
330
7598
100
AcDbEntity
  8
寸法
  6
Continuous
 62
     3
100
AcDbMText
 10
136.5905906672092
 20
190.7266864346862
 30
0.0
 40
3.0
 41
0.0
 71
     5
 72
     1
  1
\A1;1820
  7
ACAD
 11
0.0000000000000001
 21
1.0
 31
0.0
 73
     1
 44
1.0
1001
ACAD
1000
MTEXTBEGIN
1070
    73
1070
     1
1070
    44
1040
1.0
1070
    74
1070
     0
1000
MTEXTEND
  0
POINT
  5
770C
330
7598
100
AcDbEntity
  8
Defpoints
  6
Continuous
 62
     0
100
AcDbPoint
 10
138.8905906672093
 20
207.3600199346861
 30
0.0
  0
POINT
  5
770D
330
7598
100
AcDbEntity
  8
Defpoints
  6
Continuous
 62
     0
100
AcDbPoint
 10
148.8905906672093
 20
173.0933529346862
 30
0.0
  0
POINT
  5
770E
330
7598
100
AcDbEntity
  8
Defpoints
  6
Continuous
 62
     0
100
AcDbPoint
 10
138.8905906672093
 20
173.0933529346862
 30
0.0
  0
ENDBLK
  5
75A3
330
7598
100
AcDbEntity
  8
0
100
AcDbBlockEnd
  0
BLOCK
  5
75C1
330
75B7
100
AcDbEntity
  8
0
100
AcDbBlockBegin
  2
*D30
 70
     1
 10
0.0
 20
0.0
 30
0.0
  3
*D30
  1

  0
LINE
  5
762A
330
75B7
100
AcDbEntity
  8
寸法
  6
Continuous
 62
     4
370
    -2
100
AcDbLine
 10
145.8905906672093
 20
173.0933529346862
 30
0.0
 11
138.8905906672093
 21
173.0933529346862
 31
0.0
  0
LINE
  5
762B
330
75B7
100
AcDbEntity
  8
寸法
  6
Continuous
 62
     4
370
    -2
100
AcDbLine
 10
145.8905906672093
 20
112.4266859346862
 30
0.0
 11
138.8905906672093
 21
112.4266859346862
 31
0.0
  0
LINE
  5
762C
330
75B7
100
AcDbEntity
  8
寸法
  6
Continuous
 62
     4
370
    -2
100
AcDbLine
 10
138.8905906672093
 20
172.0933529346862
 30
0.0
 11
138.8905906672093
 21
113.4266859346862
 31
0.0
  0
INSERT
  5
762D
330
75B7
100
AcDbEntity
  8
寸法
  6
Continuous
 62
     4
370
    -2
100
AcDbBlockReference
  2
_Dot
 10
138.8905906672093
 20
173.0933529346862
 30
0.0
 50
90.0
  0
INSERT
  5
762E
330
75B7
100
AcDbEntity
  8
寸法
  6
Continuous
 62
     4
370
    -2
100
AcDbBlockReference
  2
_Dot
 10
138.8905906672093
 20
112.4266859346862
 30
0.0
 50
270.0
  0
MTEXT
  5
762F
330
75B7
100
AcDbEntity
  8
寸法
  6
Continuous
 62
     3
100
AcDbMText
 10
136.5905906672092
 20
142.7600194346862
 30
0.0
 40
3.0
 41
0.0
 71
     5
 72
     1
  1
\A1;1820
  7
ACAD
 11
0.0000000000000001
 21
1.0
 31
0.0
 73
     1
 44
1.0
1001
ACAD
1000
MTEXTBEGIN
1070
    73
1070
     1
1070
    44
1040
1.0
1070
    74
1070
     0
1000
MTEXTEND
  0
POINT
  5
7630
330
75B7
100
AcDbEntity
  8
Defpoints
  6
Continuous
 62
     0
100
AcDbPoint
 10
148.8905906672093
 20
173.0933529346862
 30
0.0
  0
POINT
  5
7631
330
75B7
100
AcDbEntity
  8
Defpoints
  6
Continuous
 62
     0
100
AcDbPoint
 10
148.8905906672093
 20
112.4266859346862
 30
0.0
  0
POINT
  5
7632
330
75B7
100
AcDbEntity
  8
Defpoints
  6
Continuous
 62
     0
100
AcDbPoint
 10
138.8905906672093
 20
112.4266859346862
 30
0.0
  0
ENDBLK
  5
75C2
330
75B7
100
AcDbEntity
  8
0
100
AcDbBlockEnd
  0
BLOCK
  5
75D7
330
75CD
100
AcDbEntity
  8
0
100
AcDbBlockBegin
  2
*D31
 70
     1
 10
0.0
 20
0.0
 30
0.0
  3
*D31
  1

  0
LINE
  5
7756
330
75CD
100
AcDbEntity
  8
寸法
  6
Continuous
 62
     4
370
    -2
100
AcDbLine
 10
148.8905906672093
 20
112.4266859346862
 30
0.0
 11
138.8905906672093
 21
112.4266859346862
 31
0.0
  0
LINE
  5
7757
330
75CD
100
AcDbEntity
  8
寸法
  6
Continuous
 62
     4
370
    -2
100
AcDbLine
 10
138.8905906672093
 20
111.4266859346862
 30
0.0
 11
138.8905906672093
 21
90.29335293468603
 31
0.0
  0
INSERT
  5
7758
330
75CD
100
AcDbEntity
  8
寸法
  6
Continuous
 62
     4
370
    -2
100
AcDbBlockReference
  2
_Dot
 10
138.8905906672093
 20
112.4266859346862
 30
0.0
 50
90.0
  0
MTEXT
  5
7759
330
75CD
100
AcDbEntity
  8
寸法
  6
Continuous
 62
     3
100
AcDbMText
 10
136.5905906672092
 20
100.8600194346861
 30
0.0
 40
3.0
 41
0.0
 71
     5
 72
     1
  1
\A1;1820
  7
ACAD
 11
0.0000000000000001
 21
1.0
 31
0.0
 73
     1
 44
1.0
1001
ACAD
1000
MTEXTBEGIN
1070
    73
1070
     1
1070
    44
1040
1.0
1070
    74
1070
     0
1000
MTEXTEND
  0
POINT
  5
775A
330
75CD
100
AcDbEntity
  8
Defpoints
  6
Continuous
 62
     0
100
AcDbPoint
 10
148.8905906672093
 20
112.4266859346862
 30
0.0
  0
POINT
  5
775B
330
75CD
100
AcDbEntity
  8
Defpoints
  6
Continuous
 62
     0
100
AcDbPoint
 10
138.8905906672093
 20
90.29335293468603
 30
0.0
  0
POINT
  5
775C
330
75CD
100
AcDbEntity
  8
Defpoints
  6
Continuous
 62
     0
100
AcDbPoint
 10
138.8905906672093
 20
90.29335293468603
 30
0.0
  0
ENDBLK
  5
75D8
330
75CD
100
AcDbEntity
  8
0
100
AcDbBlockEnd
  0
BLOCK
  5
7647
330
763D
100
AcDbEntity
  8
0
100
AcDbBlockBegin
  2
*D32
 70
     1
 10
0.0
 20
0.0
 30
0.0
  3
*D32
  1

  0
LINE
  5
7681
330
763D
100
AcDbEntity
  8
寸法
  6
Continuous
 62
     4
370
    -2
100
AcDbLine
 10
173.7475436672097
 20
209.5937707334264
 30
0.0
 11
173.7475436672097
 21
232.3600199346861
 31
0.0
  0
LINE
  5
7682
330
763D
100
AcDbEntity
  8
寸法
  6
Continuous
 62
     4
370
    -2
100
AcDbLine
 10
158.7475436672097
 20
232.3600199346861
 30
0.0
 11
172.7475436672097
 21
232.3600199346861
 31
0.0
  0
INSERT
  5
7683
330
763D
100
AcDbEntity
  8
寸法
  6
Continuous
 62
     4
370
    -2
100
AcDbBlockReference
  2
_Dot
 10
173.7475436672097
 20
232.3600199346861
 30
0.0
  0
MTEXT
  5
7684
330
763D
100
AcDbEntity
  8
寸法
  6
Continuous
 62
     3
100
AcDbMText
 10
165.7475436672097
 20
234.6600199346861
 30
0.0
 40
3.0
 41
0.0
 71
     5
 72
     1
  1
\A1;900
  7
ACAD
 73
     1
 44
1.0
1001
ACAD
1000
MTEXTBEGIN
1070
    73
1070
     1
1070
    44
1040
1.0
1070
    74
1070
     0
1000
MTEXTEND
  0
POINT
  5
7685
330
763D
100
AcDbEntity
  8
Defpoints
  6
Continuous
 62
     0
100
AcDbPoint
 10
158.7475436672097
 20
232.3600199346861
 30
0.0
  0
POINT
  5
7686
330
763D
100
AcDbEntity
  8
Defpoints
  6
Continuous
 62
     0
100
AcDbPoint
 10
173.7475436672097
 20
209.5937707334264
 30
0.0
  0
POINT
  5
7687
330
763D
100
AcDbEntity
  8
Defpoints
  6
Continuous
 62
     0
100
AcDbPoint
 10
173.7475436672097
 20
232.3600199346861
 30
0.0
  0
ENDBLK
  5
7648
330
763D
100
AcDbEntity
  8
0
100
AcDbBlockEnd
  0
BLOCK
  5
7693
330
7689
100
AcDbEntity
  8
0
100
AcDbBlockBegin
  2
*D33
 70
     1
 10
0.0
 20
0.0
 30
0.0
  3
*D33
  1

  0
LINE
  5
76A5
330
7689
100
AcDbEntity
  8
寸法
  6
Continuous
 62
     4
370
    -2
100
AcDbLine
 10
173.7475436672097
 20
209.5937707334264
 30
0.0
 11
173.7475436672097
 21
232.3600199346861
 31
0.0
  0
LINE
  5
76A6
330
7689
100
AcDbEntity
  8
寸法
  6
Continuous
 62
     4
370
    -2
100
AcDbLine
 10
203.7475436672097
 20
209.5937707334264
 30
0.0
 11
203.7475436672097
 21
232.3600199346861
 31
0.0
  0
LINE
  5
76A7
330
7689
100
AcDbEntity
  8
寸法
  6
Continuous
 62
     4
370
    -2
100
AcDbLine
 10
173.7475436672097
 20
232.3600199346861
 30
0.0
 11
202.7475436672097
 21
232.3600199346861
 31
0.0
  0
INSERT
  5
76A8
330
7689
100
AcDbEntity
  8
寸法
  6
Continuous
 62
     4
370
    -2
100
AcDbBlockReference
  2
_Dot
 10
203.7475436672097
 20
232.3600199346861
 30
0.0
  0
MTEXT
  5
76A9
330
7689
100
AcDbEntity
  8
寸法
  6
Continuous
 62
     3
100
AcDbMText
 10
188.2475436672097
 20
234.6600199346861
 30
0.0
 40
3.0
 41
0.0
 71
     5
 72
     1
  1
\A1;900
  7
ACAD
 73
     1
 44
1.0
1001
ACAD
1000
MTEXTBEGIN
1070
    73
1070
     1
1070
    44
1040
1.0
1070
    74
1070
     0
1000
MTEXTEND
  0
POINT
  5
76AA
330
7689
100
AcDbEntity
  8
Defpoints
  6
Continuous
 62
     0
100
AcDbPoint
 10
173.7475436672097
 20
209.5937707334264
 30
0.0
  0
POINT
  5
76AB
330
7689
100
AcDbEntity
  8
Defpoints
  6
Continuous
 62
     0
100
AcDbPoint
 10
203.7475436672097
 20
209.5937707334264
 30
0.0
  0
POINT
  5
76AC
330
7689
100
AcDbEntity
  8
Defpoints
  6
Continuous
 62
     0
100
AcDbPoint
 10
203.7475436672097
 20
232.3600199346861
 30
0.0
  0
ENDBLK
  5
7694
330
7689
100
AcDbEntity
  8
0
100
AcDbBlockEnd
  0
BLOCK
  5
76B8
330
76AE
100
AcDbEntity
  8
0
100
AcDbBlockBegin
  2
*D34
 70
     1
 10
0.0
 20
0.0
 30
0.0
  3
*D34
  1

  0
LINE
  5
76D2
330
76AE
100
AcDbEntity
  8
寸法
  6
Continuous
 62
     4
370
    -2
100
AcDbLine
 10
203.7475436672097
 20
207.3600199346861
 30
0.0
 11
203.7475436672097
 21
232.3600199346861
 31
0.0
  0
LINE
  5
76D3
330
76AE
100
AcDbEntity
  8
寸法
  6
Continuous
 62
     4
370
    -2
100
AcDbLine
 10
204.7475436672097
 20
232.3600199346861
 30
0.0
 11
233.0195448968474
 21
232.3600199346861
 31
0.0
  0
INSERT
  5
76D4
330
76AE
100
AcDbEntity
  8
寸法
  6
Continuous
 62
     4
370
    -2
100
AcDbBlockReference
  2
_Dot
 10
203.7475436672097
 20
232.3600199346861
 30
0.0
 50
180.0
  0
MTEXT
  5
76D5
330
76AE
100
AcDbEntity
  8
寸法
  6
Continuous
 62
     3
100
AcDbMText
 10
218.8835442820285
 20
234.8600199346861
 30
0.0
 40
3.0
 41
0.0
 71
     5
 72
     1
  1
\A1;900
  7
ACAD
 73
     1
 44
1.0
1001
ACAD
1000
MTEXTBEGIN
1070
    73
1070
     1
1070
    44
1040
1.0
1070
    74
1070
     0
1000
MTEXTEND
  0
POINT
  5
76D6
330
76AE
100
AcDbEntity
  8
Defpoints
  6
Continuous
 62
     0
100
AcDbPoint
 10
203.7475436672097
 20
207.3600199346861
 30
0.0
  0
POINT
  5
76D7
330
76AE
100
AcDbEntity
  8
Defpoints
  6
Continuous
 62
     0
100
AcDbPoint
 10
233.0195448968474
 20
232.3600199346861
 30
0.0
  0
POINT
  5
76D8
330
76AE
100
AcDbEntity
  8
Defpoints
  6
Continuous
 62
     0
100
AcDbPoint
 10
233.0195448968474
 20
232.3600199346861
 30
0.0
  0
ENDBLK
  5
76B9
330
76AE
100
AcDbEntity
  8
0
100
AcDbBlockEnd
  0
BLOCK
  5
7712
330
770F
100
AcDbEntity
  8
0
100
AcDbBlockBegin
  2
_Integral
 70
     0
 10
0.0
 20
0.0
 30
0.0
  3
_Integral
  1

  0
ARC
  5
7710
330
770F
100
AcDbEntity
  8
0
  6
ByBlock
 62
     0
370
    -2
100
AcDbCircle
 10
0.44488802
 20
-0.09133463
 30
0.0
 40
0.4541666700000001
100
AcDbArc
 50
101.9999999980395
 51
167.9999999799193
  0
ARC
  5
7711
330
770F
100
AcDbEntity
  8
0
  6
ByBlock
 62
     0
370
    -2
100
AcDbCircle
 10
-0.44488802
 20
0.09133463
 30
0.0
 40
0.4541666700000001
100
AcDbArc
 50
282.0000000215427
 51
348.0000000034225
  0
ENDBLK
  5
7713
330
770F
100
AcDbEntity
  8
0
100
AcDbBlockEnd
  0
ENDSEC
  0
SECTION
  2
ENTITIES
  0
DIMENSION
  5
6C60
330
1E
100
AcDbEntity
  8
寸法
  6
Continuous
100
AcDbDimension
  2
*D5
 10
148.8905906672093
 20
197.3600199346861
 30
0.0
 11
148.8905906672092
 21
202.3600199346861
 31
0.0
 70
   160
  1
364
 71
     5
 42
10.0
  3
AutoCAD
100
AcDbAlignedDimension
 13
148.8905906672092
 23
207.3600199346861
 33
0.0
 14
148.8905906672092
 24
197.3600199346861
 34
0.0
 50
90.0
100
AcDbRotatedDimension
1001
ACAD
1000
DSTYLE
1002
{
1070
    42
1040
0.0
1070
   344
1005
11E
1070
   342
1005
0
1070
   173
1070
     1
1070
   343
1005
15B0
1070
   140
1040
10.0
1070
   147
1040
0.8
1070
   279
1070
     1
1070
   289
1070
     3
1002
}
  0
LINE
  5
6C61
330
1E
100
AcDbEntity
  8
製品
  6
Continuous
 62
     4
100
AcDbLine
 10
248.7475436672097
 20
153.1119249346861
 30
0.0
 11
248.7475436672097
 21
207.3600199346861
 31
0.0
  0
LINE
  5
6C62
330
1E
100
AcDbEntity
  8
図面枠
  6
Continuous
 62
     2
100
AcDbLine
 10
204.0808766672093
 20
191.870702934686
 30
0.0
 11
221.6838926672093
 21
222.3600199346861
 31
0.0
  0
LINE
  5
6C63
330
1E
100
AcDbEntity
  8
製品
  6
Continuous
 62
     4
100
AcDbLine
 10
203.9475436672095
 20
166.4487159346863
 30
0.0
 11
203.9475436672095
 21
207.3600199346861
 31
0.0
  0
LINE
  5
6C64
330
1E
100
AcDbEntity
  8
製品
  6
Continuous
 62
     4
100
AcDbLine
 10
203.5475436672099
 20
207.3600199346861
 30
0.0
 11
203.5475436672099
 21
165.7558959346861
 31
0.0
  0
LINE
  5
6C65
330
1E
100
AcDbEntity
  8
製品
  6
PLINE3
 62
     2
100
AcDbLine
 10
203.7475436672097
 20
207.3600199346861
 30
0.0
 11
203.7475436672097
 21
166.1023059346862
 31
0.0
  0
LINE
  5
6C66
330
1E
100
AcDbEntity
  8
図面枠
  6
Continuous
 62
     2
100
AcDbLine
 10
203.9475436672095
 20
179.1600199346862
 30
0.0
 11
223.1155726672099
 21
212.3600199346861
 31
0.0
  0
LINE
  5
6C67
330
1E
100
AcDbEntity
  8
製品
  6
Continuous
 62
     4
100
AcDbLine
 10
227.567695667209
 20
207.3600199346861
 30
0.0
 11
159.9792246672099
 21
90.29335293468603
 31
0.0
  0
LINE
  5
6C68
330
1E
100
AcDbEntity
  8
製品
  6
Continuous
 62
     4
100
AcDbLine
 10
173.9475436672095
 20
114.487191934686
 30
0.0
 11
173.9475436672095
 21
207.3600199346861
 31
0.0
  0
LINE
  5
6C69
330
1E
100
AcDbEntity
  8
製品
  6
Continuous
 62
     4
100
AcDbLine
 10
173.5475436672099
 20
207.3600199346861
 30
0.0
 11
173.5475436672099
 21
113.7943719346863
 31
0.0
  0
LINE
  5
6C6A
330
1E
100
AcDbEntity
  8
製品
  6
PLINE3
 62
     2
100
AcDbLine
 10
173.7475436672097
 20
207.3600199346861
 30
0.0
 11
173.7475436672097
 21
114.1407819346859
 31
0.0
  0
LINE
  5
6C6B
330
1E
100
AcDbEntity
  8
製品
  6
Continuous
 62
     4
100
AcDbLine
 10
280.067695667209
 20
207.3600199346861
 30
0.0
 11
212.4792246672099
 21
90.29335293468603
 31
0.0
  0
LINE
  5
6C6C
330
1E
100
AcDbEntity
  8
製品
  6
Continuous
 62
     4
100
AcDbLine
 10
158.7475436672097
 20
196.9433529346861
 30
0.0
 11
221.5536306672096
 21
196.9433529346861
 31
0.0
  0
LINE
  5
6C6D
330
1E
100
AcDbEntity
  8
製品
  6
Continuous
 62
     4
100
AcDbLine
 10
158.7475436672097
 20
197.7766859346861
 30
0.0
 11
222.0347556672099
 21
197.7766859346861
 31
0.0
  0
LINE
  5
6C6E
330
1E
100
AcDbEntity
  8
製品
  6
PLINE3
 62
     2
100
AcDbLine
 10
158.7475436672097
 20
197.3600199346861
 30
0.0
 11
221.794193667209
 21
197.3600199346861
 31
0.0
  0
LINE
  5
6C6F
330
1E
100
AcDbEntity
  8
製品
  6
Continuous
 62
     4
100
AcDbLine
 10
158.7475436672097
 20
184.8100199346863
 30
0.0
 11
214.5484476672094
 21
184.8100199346863
 31
0.0
  0
LINE
  5
6C70
330
1E
100
AcDbEntity
  8
製品
  6
Continuous
 62
     4
100
AcDbLine
 10
158.7475436672097
 20
185.6433529346859
 30
0.0
 11
215.0295726672097
 21
185.6433529346859
 31
0.0
  0
LINE
  5
6C71
330
1E
100
AcDbEntity
  8
製品
  6
PLINE3
 62
     2
100
AcDbLine
 10
158.7475436672097
 20
185.226685934686
 30
0.0
 11
214.7890096672094
 21
185.226685934686
 31
0.0
  0
LINE
  5
6C72
330
1E
100
AcDbEntity
  8
製品
  6
Continuous
 62
     4
100
AcDbLine
 10
158.7475436672097
 20
172.2600199346862
 30
0.0
 11
207.3027016672098
 21
172.2600199346862
 31
0.0
  0
LINE
  5
6C73
330
1E
100
AcDbEntity
  8
製品
  6
Continuous
 62
     4
100
AcDbLine
 10
158.7475436672097
 20
173.9266859346862
 30
0.0
 11
208.2649516672094
 21
173.9266859346862
 31
0.0
  0
LINE
  5
6C74
330
1E
100
AcDbEntity
  8
製品
  6
PLINE3
 62
     2
100
AcDbLine
 10
158.7475436672097
 20
173.0933529346862
 30
0.0
 11
207.7838266672091
 21
173.0933529346862
 31
0.0
  0
TEXT
  5
6C75
330
1E
100
AcDbEntity
  8
図面枠
  6
Continuous
 62
     2
100
AcDbText
 10
195.1648756672097
 20
135.0266859346861
 30
0.0
 40
3.0
  1
捨て板ボード
 41
0.8
  7
ACAD
100
AcDbText
  0
LINE
  5
6C76
330
1E
100
AcDbEntity
  8
製品
  6
Continuous
 62
     4
100
AcDbLine
 10
172.7579106672095
 20
112.4266859346862
 30
0.0
 11
225.2579106672095
 21
112.4266859346862
 31
0.0
  0
LINE
  5
6C77
330
1E
100
AcDbEntity
  8
製品
  6
Continuous
 62
     4
100
AcDbLine
 10
158.7475436672097
 20
160.543352934686
 30
0.0
 11
200.5380806672095
 21
160.543352934686
 31
0.0
  0
LINE
  5
6C78
330
1E
100
AcDbEntity
  8
製品
  6
Continuous
 62
     4
100
AcDbLine
 10
158.7475436672097
 20
161.376685934686
 30
0.0
 11
201.0192056672098
 21
161.376685934686
 31
0.0
  0
LINE
  5
6C79
330
1E
100
AcDbEntity
  8
製品
  6
PLINE3
 62
     2
100
AcDbLine
 10
158.7475436672097
 20
160.960019934686
 30
0.0
 11
200.7786436672098
 21
160.960019934686
 31
0.0
  0
LINE
  5
6C7C
330
1E
100
AcDbEntity
  8
製品
  6
Continuous
 62
     4
100
AcDbLine
 10
188.7475436672097
 20
140.1215439346861
 30
0.0
 11
188.7475436672097
 21
90.29335293468603
 31
0.0
  0
CIRCLE
  5
6C81
330
1E
100
AcDbEntity
  8
製品
  6
Continuous
 62
     2
100
AcDbCircle
 10
173.7475436672097
 20
118.4933529346863
 30
0.0
 40
0.666667
  0
TEXT
  5
6C82
330
1E
100
AcDbEntity
  8
図面枠
  6
Continuous
 62
     2
100
AcDbText
 10
155.8866546672092
 20
110.7600229346862
 30
0.0
 40
3.0
  1
Ｗ
 41
0.8
  7
ACAD
100
AcDbText
  0
TEXT
  5
6C83
330
1E
100
AcDbEntity
  8
図面枠
  6
Continuous
 62
     2
100
AcDbText
 10
155.8866546672092
 20
98.62669193468628
 30
0.0
 40
3.0
  1
Ｓ
 41
0.8
  7
ACAD
100
AcDbText
  0
LINE
  5
6C84
330
1E
100
AcDbEntity
  8
製品
  6
Continuous
 62
     4
100
AcDbLine
 10
158.7475436672097
 20
99.87668593468606
 30
0.0
 11
165.512164667209
 21
99.87668593468606
 31
0.0
  0
LINE
  5
6C85
330
1E
100
AcDbEntity
  8
製品
  6
Continuous
 62
     4
100
AcDbLine
 10
158.7475436672097
 20
100.710019934686
 30
0.0
 11
165.9932896672093
 21
100.710019934686
 31
0.0
  0
LINE
  5
6C86
330
1E
100
AcDbEntity
  8
製品
  6
PLINE3
 62
     2
100
AcDbLine
 10
158.7475436672097
 20
100.293352934686
 30
0.0
 11
165.7527266672099
 21
100.293352934686
 31
0.0
  0
LINE
  5
6C89
330
1E
100
AcDbEntity
  8
製品
  6
Continuous
 62
     4
100
AcDbLine
 10
158.7475436672097
 20
111.5933529346862
 30
0.0
 11
172.2767846672098
 21
111.5933529346862
 31
0.0
  0
LINE
  5
6C8A
330
1E
100
AcDbEntity
  8
製品
  6
Continuous
 62
     4
100
AcDbLine
 10
158.7475436672097
 20
113.2600199346861
 30
0.0
 11
173.2390356672098
 21
113.2600199346861
 31
0.0
  0
LINE
  5
6C8B
330
1E
100
AcDbEntity
  8
製品
  6
PLINE3
 62
     2
100
AcDbLine
 10
158.7475436672097
 20
112.4266859346862
 30
0.0
 11
172.7579106672095
 21
112.4266859346862
 31
0.0
  0
CIRCLE
  5
6C93
330
1E
100
AcDbEntity
  8
製品
  6
Continuous
 62
     2
100
AcDbCircle
 10
173.7475436672097
 20
191.293352934686
 30
0.0
 40
0.666667
  0
TEXT
  5
6C94
330
1E
100
AcDbEntity
  8
図面枠
  6
Continuous
 62
     2
100
AcDbText
 10
155.8866546672092
 20
195.6933579346859
 30
0.0
 40
3.0
  1
Ｓ
 41
0.8
  7
ACAD
100
AcDbText
  0
TEXT
  5
6C95
330
1E
100
AcDbEntity
  8
図面枠
  6
Continuous
 62
     2
100
AcDbText
 10
155.8866546672092
 20
183.560026934686
 30
0.0
 40
3.0
  1
Ｓ
 41
0.8
  7
ACAD
100
AcDbText
  0
TEXT
  5
6C98
330
1E
100
AcDbEntity
  8
図面枠
  6
Continuous
 62
     2
100
AcDbText
 10
155.8866546672092
 20
171.4266949346861
 30
0.0
 40
3.0
  1
Ｗ
 41
0.8
  7
ACAD
100
AcDbText
  0
CIRCLE
  5
6C9A
330
1E
100
AcDbEntity
  8
製品
  6
Continuous
 62
     2
100
AcDbCircle
 10
173.7475436672097
 20
154.8933529346859
 30
0.0
 40
0.666667
  0
TEXT
  5
6C9B
330
1E
100
AcDbEntity
  8
図面枠
  6
Continuous
 62
     2
100
AcDbText
 10
155.8866546672092
 20
147.1600169346861
 30
0.0
 40
3.0
  1
Ｓ
 41
0.8
  7
ACAD
100
AcDbText
  0
TEXT
  5
6C9E
330
1E
100
AcDbEntity
  8
図面枠
  6
Continuous
 62
     2
100
AcDbText
 10
155.8866546672092
 20
135.0266859346861
 30
0.0
 40
3.0
  1
Ｓ
 41
0.8
  7
ACAD
100
AcDbText
  0
TEXT
  5
6C9F
330
1E
100
AcDbEntity
  8
図面枠
  6
Continuous
 62
     2
100
AcDbText
 10
155.8866546672092
 20
122.8933549346861
 30
0.0
 40
3.0
  1
Ｓ
 41
0.8
  7
ACAD
100
AcDbText
  0
LINE
  5
6CA2
330
1E
100
AcDbEntity
  8
製品
  6
Continuous
 62
     4
100
AcDbLine
 10
158.7475436672097
 20
124.1433529346859
 30
0.0
 11
179.5225306672095
 21
124.1433529346859
 31
0.0
  0
LINE
  5
6CA3
330
1E
100
AcDbEntity
  8
製品
  6
Continuous
 62
     4
100
AcDbLine
 10
158.7475436672097
 20
124.976685934686
 30
0.0
 11
180.0036566672091
 21
124.976685934686
 31
0.0
  0
LINE
  5
6CA4
330
1E
100
AcDbEntity
  8
製品
  6
PLINE3
 62
     2
100
AcDbLine
 10
158.7475436672097
 20
124.5600199346863
 30
0.0
 11
179.7630936672097
 21
124.5600199346863
 31
0.0
  0
LINE
  5
6CA5
330
1E
100
AcDbEntity
  8
製品
  6
Continuous
 62
     4
100
AcDbLine
 10
158.7475436672097
 20
136.2766859346861
 30
0.0
 11
186.5277146672091
 21
136.2766859346861
 31
0.0
  0
LINE
  5
6CA6
330
1E
100
AcDbEntity
  8
製品
  6
Continuous
 62
     4
100
AcDbLine
 10
158.7475436672097
 20
137.1100199346861
 30
0.0
 11
187.0088396672094
 21
137.1100199346861
 31
0.0
  0
LINE
  5
6CA7
330
1E
100
AcDbEntity
  8
製品
  6
PLINE3
 62
     2
100
AcDbLine
 10
158.7475436672097
 20
136.6933529346861
 30
0.0
 11
186.7682766672091
 21
136.6933529346861
 31
0.0
  0
LINE
  5
6CA8
330
1E
100
AcDbEntity
  8
製品
  6
Continuous
 62
     4
100
AcDbLine
 10
158.7475436672097
 20
148.4100199346862
 30
0.0
 11
193.5328976672093
 21
148.4100199346862
 31
0.0
  0
LINE
  5
6CA9
330
1E
100
AcDbEntity
  8
製品
  6
Continuous
 62
     4
100
AcDbLine
 10
158.7475436672097
 20
149.2433529346863
 30
0.0
 11
194.0140226672096
 21
149.2433529346863
 31
0.0
  0
LINE
  5
6CAA
330
1E
100
AcDbEntity
  8
製品
  6
PLINE3
 62
     2
100
AcDbLine
 10
158.7475436672097
 20
148.8266859346863
 30
0.0
 11
193.7734596672093
 21
148.8266859346863
 31
0.0
  0
TEXT
  5
6CAB
330
1E
100
AcDbEntity
  8
図面枠
  6
Continuous
 62
     2
100
AcDbText
 10
155.8866546672092
 20
159.293348934686
 30
0.0
 40
3.0
  1
Ｓ
 41
0.8
  7
ACAD
100
AcDbText
  0
LINE
  5
6CAC
330
1E
100
AcDbEntity
  8
製品
  6
Continuous
 62
     4
100
AcDbLine
 10
242.0808766672093
 20
130.0266859346861
 30
0.0
 11
242.0808766672093
 21
117.8933529346859
 31
0.0
  0
LINE
  5
6CAD
330
1E
100
AcDbEntity
  8
製品
  6
Continuous
 62
     4
100
AcDbLine
 10
218.7475436672097
 20
101.1504009346863
 30
0.0
 11
218.7475436672097
 21
192.0830679346863
 31
0.0
  0
TEXT
  5
6CAE
330
1E
100
AcDbEntity
  8
図面枠
  6
Continuous
 62
     4
100
AcDbText
 10
241.6036726672095
 20
71.18152493468596
 30
0.0
 40
3.0
  1
（９１０×１８２０直貼用）
 41
0.8
  7
ACAD
100
AcDbText
  0
LINE
  5
6CAF
330
1E
100
AcDbEntity
  8
製品
  6
Continuous
 62
     4
100
AcDbLine
 10
214.4037256672094
 20
93.62668593468606
 30
0.0
 11
278.7475436672097
 21
93.62668593468606
 31
0.0
  0
LINE
  5
6CB0
330
1E
100
AcDbEntity
  8
製品
  6
Continuous
 62
     4
100
AcDbLine
 10
221.4089086672096
 20
105.7600199346862
 30
0.0
 11
278.7475436672097
 21
105.7600199346862
 31
0.0
  0
LINE
  5
6CB1
330
1E
100
AcDbEntity
  8
製品
  6
Continuous
 62
     4
100
AcDbLine
 10
228.4140916672098
 20
117.8933529346859
 30
0.0
 11
278.7475436672097
 21
117.8933529346859
 31
0.0
  0
LINE
  5
6CB2
330
1E
100
AcDbEntity
  8
製品
  6
Continuous
 62
     4
100
AcDbLine
 10
242.0808766672093
 20
105.7600199346862
 30
0.0
 11
242.0808766672093
 21
93.62668593468606
 31
0.0
  0
LINE
  5
6CB3
330
1E
100
AcDbEntity
  8
製品
  6
Continuous
 62
     4
100
AcDbLine
 10
272.0808766672093
 20
105.7600199346862
 30
0.0
 11
272.0808766672093
 21
117.8933529346859
 31
0.0
  0
TEXT
  5
6CB4
330
1E
100
AcDbEntity
  8
図面枠
  6
Continuous
 62
     2
100
AcDbText
 10
250.1648446672092
 20
122.293348934686
 30
0.0
 40
3.0
  1
仕上げ材ボード
 41
0.8
  7
ACAD
100
AcDbText
  0
LINE
  5
6CB5
330
1E
100
AcDbEntity
  8
製品
  6
Continuous
 62
     4
100
AcDbLine
 10
235.4192746672091
 20
130.0266859346861
 30
0.0
 11
278.7475436672097
 21
130.0266859346861
 31
0.0
  0
LINE
  5
6CB6
330
1E
100
AcDbEntity
  8
製品
  6
Continuous
 62
     4
100
AcDbLine
 10
242.4244586672097
 20
142.1600199346862
 30
0.0
 11
278.7475436672097
 21
142.1600199346862
 31
0.0
  0
LINE
  5
6CB7
330
1E
100
AcDbEntity
  8
製品
  6
Continuous
 62
     4
100
AcDbLine
 10
249.4296416672099
 20
154.293352934686
 30
0.0
 11
278.7475436672097
 21
154.293352934686
 31
0.0
  0
LINE
  5
6CB8
330
1E
100
AcDbEntity
  8
製品
  6
Continuous
 62
     4
100
AcDbLine
 10
207.7838266672091
 20
173.0933529346862
 30
0.0
 11
260.2838266672092
 21
173.0933529346862
 31
0.0
  0
CIRCLE
  5
6CB9
330
1E
100
AcDbEntity
  8
製品
  6
Continuous
 62
     2
100
AcDbCircle
 10
203.7475436672097
 20
191.293352934686
 30
0.0
 40
0.666667
  0
LINE
  5
6CBA
330
1E
100
AcDbEntity
  8
図面枠
  6
Continuous
 62
     2
100
AcDbLine
 10
204.0808766672093
 20
191.870702934686
 30
0.0
 11
204.6478646672098
 21
193.852753934686
 31
0.0
  0
LINE
  5
6CBB
330
1E
100
AcDbEntity
  8
図面枠
  6
Continuous
 62
     2
100
AcDbLine
 10
204.0808766672093
 20
191.870702934686
 30
0.0
 11
205.5138896672091
 21
193.352753934686
 31
0.0
  0
LINE
  5
6CBC
330
1E
100
AcDbEntity
  8
図面枠
  6
Continuous
 62
     2
100
AcDbLine
 10
203.9475436672095
 20
179.1600199346862
 30
0.0
 11
204.5145306672097
 21
181.1420709346862
 31
0.0
  0
LINE
  5
6CBD
330
1E
100
AcDbEntity
  8
図面枠
  6
Continuous
 62
     2
100
AcDbLine
 10
203.9475436672095
 20
179.1600199346862
 30
0.0
 11
205.3805566672094
 21
180.6420709346862
 31
0.0
  0
LINE
  5
6CBE
330
1E
100
AcDbEntity
  8
製品
  6
Continuous
 62
     4
100
AcDbLine
 10
270.4451916672091
 20
190.6933529346861
 30
0.0
 11
278.7475436672097
 21
190.6933529346861
 31
0.0
  0
LINE
  5
6CBF
330
1E
100
AcDbEntity
  8
製品
  6
Continuous
 62
     4
100
AcDbLine
 10
263.4400076672094
 20
178.5600199346863
 30
0.0
 11
278.7475436672097
 21
178.5600199346863
 31
0.0
  0
LINE
  5
6CC0
330
1E
100
AcDbEntity
  8
製品
  6
Continuous
 62
     4
100
AcDbLine
 10
272.0808766672093
 20
178.5600199346863
 30
0.0
 11
272.0808766672093
 21
190.6933529346861
 31
0.0
  0
LINE
  5
6CC1
330
1E
100
AcDbEntity
  8
製品
  6
Continuous
 62
     4
100
AcDbLine
 10
256.4348246672092
 20
166.4266859346862
 30
0.0
 11
278.7475436672097
 21
166.4266859346862
 31
0.0
  0
LINE
  5
6CC2
330
1E
100
AcDbEntity
  8
製品
  6
Continuous
 62
     4
100
AcDbLine
 10
272.0808766672093
 20
130.0266859346861
 30
0.0
 11
272.0808766672093
 21
142.1600199346862
 31
0.0
  0
LINE
  5
6CC3
330
1E
100
AcDbEntity
  8
製品
  6
Continuous
 62
     4
100
AcDbLine
 10
272.0808766672093
 20
154.293352934686
 30
0.0
 11
272.0808766672093
 21
166.4266859346862
 31
0.0
  0
LINE
  5
6CC9
330
1E
100
AcDbEntity
  8
図面枠
  6
Continuous
 62
     2
100
AcDbLine
 10
221.6838926672093
 20
222.3600199346861
 30
0.0
 11
250.3505586672094
 21
222.3600199346861
 31
0.0
  0
TEXT
  5
6CCA
330
1E
100
AcDbEntity
  8
図面枠
  6
Continuous
 62
     2
100
AcDbText
 10
221.6838726672098
 20
223.0266859346861
 30
0.0
 40
3.0
  1
吊りボルト・ハンガー
 41
0.8
  7
ACAD
100
AcDbText
  0
LINE
  5
6CCB
330
1E
100
AcDbEntity
  8
図面枠
  6
Continuous
 62
     2
100
AcDbLine
 10
223.1155726672099
 20
212.3600199346861
 30
0.0
 11
234.5822396672096
 21
212.3600199346861
 31
0.0
  0
TEXT
  5
6CCC
330
1E
100
AcDbEntity
  8
図面枠
  6
Continuous
 62
     2
100
AcDbText
 10
223.1155746672097
 20
213.0266859346861
 30
0.0
 40
3.0
  1
野縁受け
 41
0.8
  7
ACAD
100
AcDbText
  0
DIMENSION
  5
73D7
330
1E
100
AcDbEntity
  8
寸法
  6
Continuous
100
AcDbDimension
  2
*D20
 10
148.8905906672093
 20
197.3600199346861
 30
0.0
 11
146.5905906672092
 21
191.293352934686
 31
0.0
 70
    32
  1
364
 71
     5
 42
12.1333340000001
  3
AutoCAD
100
AcDbAlignedDimension
 13
158.7475436672097
 23
185.226685934686
 33
0.0
 14
158.7475436672097
 24
197.3600199346861
 34
0.0
 50
90.0
100
AcDbRotatedDimension
1001
ACAD
1000
DSTYLE
1002
{
1070
   140
1040
10.0
1070
   147
1040
0.8
1070
   279
1070
     1
1070
   289
1070
     3
1002
}
  0
DIMENSION
  5
73ED
330
1E
100
AcDbEntity
  8
寸法
  6
Continuous
100
AcDbDimension
  2
*D21
 10
148.8905906672093
 20
185.226685934686
 30
0.0
 11
146.5905906672092
 21
179.1600194346861
 31
0.0
 70
    32
  1
364
 71
     5
 42
12.13333299999976
  3
AutoCAD
100
AcDbAlignedDimension
 13
158.7475436672097
 23
173.0933529346862
 33
0.0
 14
158.7475436672097
 24
185.226685934686
 34
0.0
 50
90.0
100
AcDbRotatedDimension
1001
ACAD
1000
DSTYLE
1002
{
1070
   140
1040
10.0
1070
   147
1040
0.8
1070
   279
1070
     1
1070
   289
1070
     3
1002
}
  0
DIMENSION
  5
7403
330
1E
100
AcDbEntity
  8
寸法
  6
Continuous
100
AcDbDimension
  2
*D22
 10
148.8905906672093
 20
173.0933529346862
 30
0.0
 11
146.5905906672092
 21
167.0266864346861
 31
0.0
 70
    32
  1
364
 71
     5
 42
12.13333300000022
  3
AutoCAD
100
AcDbAlignedDimension
 13
158.7475436672097
 23
160.960019934686
 33
0.0
 14
158.7475436672097
 24
173.0933529346862
 34
0.0
 50
90.0
100
AcDbRotatedDimension
1001
ACAD
1000
DSTYLE
1002
{
1070
   140
1040
10.0
1070
   147
1040
0.8
1070
   279
1070
     1
1070
   289
1070
     3
1002
}
  0
DIMENSION
  5
7419
330
1E
100
AcDbEntity
  8
寸法
  6
Continuous
100
AcDbDimension
  2
*D23
 10
148.8905906672093
 20
160.960019934686
 30
0.0
 11
146.5905906672092
 21
154.8933529346862
 31
0.0
 70
    32
  1
364
 71
     5
 42
12.13333399999965
  3
AutoCAD
100
AcDbAlignedDimension
 13
158.7475436672097
 23
148.8266859346863
 33
0.0
 14
158.7475436672097
 24
160.960019934686
 34
0.0
 50
90.0
100
AcDbRotatedDimension
1001
ACAD
1000
DSTYLE
1002
{
1070
   140
1040
10.0
1070
   147
1040
0.8
1070
   279
1070
     1
1070
   289
1070
     3
1002
}
  0
DIMENSION
  5
74BD
330
1E
100
AcDbEntity
  8
寸法
  6
Continuous
100
AcDbDimension
  2
*D24
 10
148.8905906672093
 20
136.6933529346861
 30
0.0
 11
146.5905906672092
 21
142.7600194346862
 31
0.0
 70
    32
  1
364
 71
     5
 42
12.13333300000022
  3
AutoCAD
100
AcDbAlignedDimension
 13
158.7475436672097
 23
148.8266859346863
 33
0.0
 14
158.7475436672097
 24
136.6933529346861
 34
0.0
 50
90.0
100
AcDbRotatedDimension
1001
ACAD
1000
DSTYLE
1002
{
1070
   140
1040
10.0
1070
   147
1040
0.8
1070
   279
1070
     1
1070
   289
1070
     3
1002
}
  0
DIMENSION
  5
74CA
330
1E
100
AcDbEntity
  8
寸法
  6
Continuous
100
AcDbDimension
  2
*D25
 10
148.8905906672093
 20
124.5600199346863
 30
0.0
 11
146.5905906672092
 21
130.6266864346862
 31
0.0
 70
    32
  1
364
 71
     5
 42
12.13333299999975
  3
AutoCAD
100
AcDbAlignedDimension
 13
158.7475436672097
 23
136.6933529346861
 33
0.0
 14
158.7475436672097
 24
124.5600199346863
 34
0.0
 50
90.0
100
AcDbRotatedDimension
1001
ACAD
1000
DSTYLE
1002
{
1070
   140
1040
10.0
1070
   147
1040
0.8
1070
   279
1070
     1
1070
   289
1070
     3
1002
}
  0
DIMENSION
  5
74D7
330
1E
100
AcDbEntity
  8
寸法
  6
Continuous
100
AcDbDimension
  2
*D26
 10
148.8905906672093
 20
112.4266859346862
 30
0.0
 11
146.5905906672092
 21
118.4933529346863
 31
0.0
 70
    32
  1
364
 71
     5
 42
12.13333400000012
  3
AutoCAD
100
AcDbAlignedDimension
 13
158.7475436672097
 23
124.5600199346863
 33
0.0
 14
158.7475436672097
 24
112.4266859346862
 34
0.0
 50
90.0
100
AcDbRotatedDimension
1001
ACAD
1000
DSTYLE
1002
{
1070
   140
1040
10.0
1070
   147
1040
0.8
1070
   279
1070
     1
1070
   289
1070
     3
1002
}
  0
DIMENSION
  5
74FF
330
1E
100
AcDbEntity
  8
寸法
  6
Continuous
100
AcDbDimension
  2
*D27
 10
148.8905906672093
 20
100.293352934686
 30
0.0
 11
146.5905906672092
 21
106.3600194346861
 31
0.0
 70
    32
  1
364
 71
     5
 42
12.13333300000022
  3
AutoCAD
100
AcDbAlignedDimension
 13
158.7475436672097
 23
112.4266859346862
 33
0.0
 14
158.7475436672097
 24
100.293352934686
 34
0.0
 50
90.0
100
AcDbRotatedDimension
1001
ACAD
1000
DSTYLE
1002
{
1070
   140
1040
10.0
1070
   147
1040
0.8
1070
   279
1070
     1
1070
   289
1070
     3
1002
}
  0
DIMENSION
  5
750C
330
1E
100
AcDbEntity
  8
寸法
  6
Continuous
100
AcDbDimension
  2
*D28
 10
148.8905906672093
 20
90.29335293468603
 30
0.0
 11
146.5905906672092
 21
94.79335293468604
 31
0.0
 70
    32
  1
364
 71
     5
 42
10.0
  3
AutoCAD
100
AcDbAlignedDimension
 13
158.7475436672097
 23
100.293352934686
 33
0.0
 14
148.8905906672093
 24
90.29335293468603
 34
0.0
 50
90.0
100
AcDbRotatedDimension
1001
ACAD
1000
DSTYLE
1002
{
1070
    42
1040
0.0
1070
   344
1005
15B0
1070
   342
1005
0
1070
   173
1070
     1
1070
   343
1005
11E
1070
   140
1040
10.0
1070
   147
1040
0.8
1070
   279
1070
     1
1070
   289
1070
     3
1002
}
  0
DIMENSION
  5
7597
330
1E
100
AcDbEntity
  8
寸法
  6
Continuous
100
AcDbDimension
  2
*D29
 10
138.8905906672093
 20
173.0933529346862
 30
0.0
 11
136.5905906672092
 21
190.7266864346862
 31
0.0
 70
    32
  1
1820
 71
     5
 42
34.26666699999987
  3
AutoCAD
100
AcDbAlignedDimension
 13
138.8905906672093
 23
207.3600199346861
 33
0.0
 14
148.8905906672093
 24
173.0933529346862
 34
0.0
 50
90.0
100
AcDbRotatedDimension
1001
ACAD
1000
DSTYLE
1002
{
1070
    42
1040
0.0
1070
   343
1005
15B0
1070
   342
1005
0
1070
   173
1070
     1
1070
   344
1005
11E
1070
   140
1040
10.0
1070
   147
1040
0.8
1070
   279
1070
     1
1070
   289
1070
     3
1002
}
  0
DIMENSION
  5
75B6
330
1E
100
AcDbEntity
  8
寸法
  6
Continuous
100
AcDbDimension
  2
*D30
 10
138.8905906672093
 20
112.4266859346862
 30
0.0
 11
136.5905906672092
 21
142.7600194346862
 31
0.0
 70
    32
  1
1820
 71
     5
 42
60.66666699999996
  3
AutoCAD
100
AcDbAlignedDimension
 13
148.8905906672093
 23
173.0933529346862
 33
0.0
 14
148.8905906672093
 24
112.4266859346862
 34
0.0
 50
90.0
100
AcDbRotatedDimension
1001
ACAD
1000
DSTYLE
1002
{
1070
   140
1040
10.0
1070
   147
1040
0.8
1070
   279
1070
     1
1070
   289
1070
     3
1002
}
  0
DIMENSION
  5
75CC
330
1E
100
AcDbEntity
  8
寸法
  6
Continuous
100
AcDbDimension
  2
*D31
 10
138.8905906672093
 20
90.29335293468603
 30
0.0
 11
136.5905906672092
 21
100.8600194346861
 31
0.0
 70
    32
  1
1820
 71
     5
 42
22.13333300000022
  3
AutoCAD
100
AcDbAlignedDimension
 13
148.8905906672093
 23
112.4266859346862
 33
0.0
 14
138.8905906672093
 24
90.29335293468603
 34
0.0
 50
90.0
100
AcDbRotatedDimension
1001
ACAD
1000
DSTYLE
1002
{
1070
   343
1005
11E
1070
   342
1005
0
1070
   173
1070
     1
1070
   344
1005
15B0
1070
    42
1040
0.0
1070
   140
1040
10.0
1070
   147
1040
0.8
1070
   279
1070
     1
1070
   289
1070
     3
1002
}
  0
DIMENSION
  5
763C
330
1E
100
AcDbEntity
  8
寸法
  6
Continuous
100
AcDbDimension
  2
*D32
 10
173.7475436672097
 20
232.3600199346861
 30
0.0
 11
165.7475436672097
 21
234.6600199346861
 31
0.0
 70
    32
  1
900
 71
     5
 42
15.0
  3
AutoCAD
100
AcDbAlignedDimension
 13
158.7475436672097
 23
232.3600199346861
 33
0.0
 14
173.7475436672097
 24
209.5937707334264
 34
0.0
100
AcDbRotatedDimension
1001
ACAD
1000
DSTYLE
1002
{
1070
   343
1005
15B0
1070
   342
1005
0
1070
   173
1070
     1
1070
   344
1005
11E
1070
    42
1040
0.0
1070
   140
1040
10.0
1070
   147
1040
0.8
1070
   279
1070
     1
1070
   289
1070
     3
1002
}
  0
DIMENSION
  5
7688
330
1E
100
AcDbEntity
  8
寸法
  6
Continuous
100
AcDbDimension
  2
*D33
 10
203.7475436672097
 20
232.3600199346861
 30
0.0
 11
188.2475436672097
 21
234.6600199346861
 31
0.0
 70
    32
  1
900
 71
     5
 42
30.0
  3
AutoCAD
100
AcDbAlignedDimension
 13
173.7475436672097
 23
209.5937707334264
 33
0.0
 14
203.7475436672097
 24
209.5937707334264
 34
0.0
100
AcDbRotatedDimension
1001
ACAD
1000
DSTYLE
1002
{
1070
    42
1040
0.0
1070
   140
1040
10.0
1070
   147
1040
0.8
1070
   173
1070
     1
1070
   279
1070
     1
1070
   289
1070
     3
1070
   342
1005
0
1070
   343
1005
15B0
1070
   344
1005
11E
1002
}
  0
DIMENSION
  5
76AD
330
1E
100
AcDbEntity
  8
寸法
  6
Continuous
100
AcDbDimension
  2
*D34
 10
233.0195448968474
 20
232.3600199346861
 30
0.0
 11
218.8835442820285
 21
234.8600199346861
 31
0.0
 70
    32
  1
900
 71
     5
 42
29.27200122963768
  3
AutoCAD
100
AcDbAlignedDimension
 13
203.7475436672097
 23
207.3600199346861
 33
0.0
 14
233.0195448968474
 24
232.3600199346861
 34
0.0
100
AcDbRotatedDimension
1001
ACAD
1000
DSTYLE
1002
{
1070
    42
1040
0.0
1070
   344
1005
15B0
1070
   342
1005
0
1070
   173
1070
     1
1070
   343
1005
11E
1002
}
  0
ENDSEC
  0
SECTION
  2
OBJECTS
  0
DICTIONARY
  5
C
330
0
100
AcDbDictionary
281
     1
  3
ACAD_2007HEADERVARS_RT
350
7782
  3
ACAD_COLOR
350
7044
  3
ACAD_GROUP
350
D
  3
ACAD_LAYOUT
350
19
  3
ACAD_MATERIAL
350
702F
  3
ACAD_MLINESTYLE
350
16
  3
ACAD_PLOTSETTINGS
350
18
  3
ACAD_PLOTSTYLENAME
350
E
  3
ACAD_TABLESTYLE
350
7045
  3
ACAD_VISUALSTYLE
350
7033
  3
AcDbVariableDictionary
350
169
  3
DWGPROPS
350
7781
  0
DICTIONARY
  5
7760
330
8
100
AcDbDictionary
280
     1
281
     1
  0
DICTIONARY
  5
175
330
2
100
AcDbDictionary
280
     1
281
     1
  3
ACAD_LAYERFILTERS
360
185
  3
ACAD_LAYERSTATES
360
176
  0
DICTIONARY
  5
28B
330
1E
100
AcDbDictionary
280
     1
281
     1
  3
ACAD_LAYOUTSELFREF
360
6FD4
  0
DICTIONARY
  5
28D
330
1A
100
AcDbDictionary
280
     1
281
     1
  3
ACAD_LAYOUTSELFREF
360
6FD3
  0
DICTIONARY
  5
7782
102
{ACAD_REACTORS
330
C
102
}
330
C
100
AcDbDictionary
281
     1
  3
DIMFXL
350
7783
  0
DICTIONARY
  5
7044
102
{ACAD_REACTORS
330
C
102
}
330
C
100
AcDbDictionary
281
     1
  0
DICTIONARY
  5
D
102
{ACAD_REACTORS
330
C
102
}
330
C
100
AcDbDictionary
281
     1
  0
DICTIONARY
  5
19
102
{ACAD_REACTORS
330
C
102
}
330
C
100
AcDbDictionary
281
     1
  3
Model
350
21
  3
ﾚｲｱｳﾄ1
350
1D
  0
DICTIONARY
  5
702F
102
{ACAD_REACTORS
330
C
102
}
330
C
100
AcDbDictionary
281
     1
  3
ByBlock
350
7031
  3
ByLayer
350
7030
  3
Global
350
7032
  0
DICTIONARY
  5
16
102
{ACAD_REACTORS
330
C
102
}
330
C
100
AcDbDictionary
281
     1
  3
Standard
350
17
  0
DICTIONARY
  5
18
102
{ACAD_REACTORS
330
C
102
}
330
C
100
AcDbDictionary
281
     1
  0
ACDBDICTIONARYWDFLT
  5
E
102
{ACAD_REACTORS
330
C
102
}
330
C
100
AcDbDictionary
281
     1
  3
Normal
350
F
100
AcDbDictionaryWithDefault
340
F
1001
ACAD
1000
TREAT_AS_HARD
1070
     0
1000
TREAT_AS_HARD
1070
     0
1000
TREAT_AS_HARD
1070
     0
1000
TREAT_AS_HARD
1070
     0
1000
TREAT_AS_HARD
1070
     0
1000
TREAT_AS_HARD
1070
     0
1000
TREAT_AS_HARD
1070
     0
1000
TREAT_AS_HARD
1070
     0
1000
TREAT_AS_HARD
1070
     0
1000
TREAT_AS_HARD
1070
     0
1000
TREAT_AS_HARD
1070
     0
1000
TREAT_AS_HARD
1070
     0
1000
TREAT_AS_HARD
1070
     0
1000
TREAT_AS_HARD
1070
     0
1000
TREAT_AS_HARD
1070
     0
1000
TREAT_AS_HARD
1070
     0
1000
TREAT_AS_HARD
1070
     0
1000
TREAT_AS_HARD
1070
     0
1000
TREAT_AS_HARD
1070
     0
1000
TREAT_AS_HARD
1070
     0
1000
TREAT_AS_HARD
1070
     0
1000
TREAT_AS_HARD
1070
     0
1000
TREAT_AS_HARD
1070
     0
1000
TREAT_AS_HARD
1070
     0
1000
TREAT_AS_HARD
1070
     0
1000
TREAT_AS_HARD
1070
     0
1000
TREAT_AS_HARD
1070
     0
1000
TREAT_AS_HARD
1070
     0
1000
TREAT_AS_HARD
1070
     0
1000
TREAT_AS_HARD
1070
     0
1000
TREAT_AS_HARD
1070
     0
  0
DICTIONARY
  5
7045
102
{ACAD_REACTORS
330
C
102
}
330
C
100
AcDbDictionary
281
     1
  3
Standard
350
7046
  0
DICTIONARY
  5
7033
102
{ACAD_REACTORS
330
C
102
}
330
C
100
AcDbDictionary
281
     1
  3
2dWireframe
350
7039
  3
3D Hidden
350
703B
  3
3dWireframe
350
703A
  3
Basic
350
7038
  3
Brighten
350
703F
  3
ColorChange
350
7043
  3
Conceptual
350
703C
  3
Dim
350
703E
  3
Facepattern
350
7042
  3
Flat
350
7034
  3
FlatWithEdges
350
7035
  3
Gouraud
350
7036
  3
GouraudWithEdges
350
7037
  3
Linepattern
350
7041
  3
Realistic
350
703D
  3
Thicken
350
7040
  0
DICTIONARY
  5
169
102
{ACAD_REACTORS
330
C
102
}
330
C
100
AcDbDictionary
281
     1
  3
CTABLESTYLE
350
71B2
  3
DIMASSOC
350
16A
  3
INDEXCTL
350
777A
  3
SORTENTS
350
7779
  0
XRECORD
  5
7781
102
{ACAD_REACTORS
330
C
102
}
330
C
100
AcDbXrecord
280
     1
  1
DWGPROPS COOKIE
  2

  3

  4

  6

  7

  8
HON1000AV
  9

300
=
301
=
302
=
303
=
304
=
305
=
306
=
307
=
308
=
309
=
 40
0.2780641782407407
 41
2454316.693457674
 42
2454735.622192558
  1

 90
        0
  0
DICTIONARY
  5
185
102
{ACAD_REACTORS
330
175
102
}
330
175
100
AcDbDictionary
280
     1
281
     1
  0
DICTIONARY
  5
176
102
{ACAD_REACTORS
330
175
102
}
330
175
100
AcDbDictionary
281
     1
  3
ACAD
350
177
  0
XRECORD
  5
6FD4
102
{ACAD_REACTORS
330
28B
102
}
330
28B
100
AcDbXrecord
280
     1
340
1E
  0
XRECORD
  5
6FD3
102
{ACAD_REACTORS
330
28D
102
}
330
28D
100
AcDbXrecord
280
     1
340
1A
  0
XRECORD
  5
7783
102
{ACAD_REACTORS
330
7782
102
}
330
7782
100
AcDbXrecord
280
     1
 40
1.004999999999999
  0
LAYOUT
  5
21
102
{ACAD_XDICTIONARY
360
7786
102
}
102
{ACAD_REACTORS
330
19
102
}
330
19
100
AcDbPlotSettings
  1

  2
\\MEISEI-1\EPSON Stylus Photo EX3
  4

  6

 40
0.0
 41
0.0
 42
0.0
 43
0.0
 44
0.0
 45
0.0
 46
0.0
 47
0.0
 48
0.0
 49
0.0
140
0.0
141
0.0
142
1.0
143
1.0
 70
  1712
 72
     0
 73
     0
 74
     0
  7

 75
     0
147
1.0
148
0.0
149
0.0
100
AcDbLayout
  1
Model
 70
     1
 71
     0
 10
0.0
 20
0.0
 11
12.0
 21
9.0
 12
0.0
 22
0.0
 32
0.0
 14
0.0
 24
0.0
 34
0.0
 15
0.0
 25
0.0
 35
0.0
146
0.0
 13
0.0
 23
0.0
 33
0.0
 16
1.0
 26
0.0
 36
0.0
 17
0.0
 27
1.0
 37
0.0
 76
     0
330
1E
331
6F8F
  0
LAYOUT
  5
1D
102
{ACAD_XDICTIONARY
360
7784
102
}
102
{ACAD_REACTORS
330
19
102
}
330
19
100
AcDbPlotSettings
  1

  2
\\MEISEI-1\EPSON Stylus Photo EX3
  4

  6

 40
0.0
 41
0.0
 42
0.0
 43
0.0
 44
0.0
 45
0.0
 46
0.0
 47
0.0
 48
0.0
 49
0.0
140
0.0
141
0.0
142
1.0
143
1.0
 70
   688
 72
     0
 73
     0
 74
     5
  7

 75
    16
147
1.0
148
0.0
149
0.0
100
AcDbLayout
  1
ﾚｲｱｳﾄ1
 70
     1
 71
     1
 10
0.0
 20
0.0
 11
12.0
 21
9.0
 12
0.0
 22
0.0
 32
0.0
 14
1.000000000000000E+20
 24
1.000000000000000E+20
 34
1.000000000000000E+20
 15
-1.000000000000000E+20
 25
-1.000000000000000E+20
 35
-1.000000000000000E+20
146
0.0
 13
0.0
 23
0.0
 33
0.0
 16
1.0
 26
0.0
 36
0.0
 17
0.0
 27
1.0
 37
0.0
 76
     0
330
1A
  0
MATERIAL
  5
7031
102
{ACAD_XDICTIONARY
360
778A
102
}
102
{ACAD_REACTORS
330
702F
102
}
330
702F
100
AcDbMaterial
  1
ByBlock
  0
MATERIAL
  5
7030
102
{ACAD_XDICTIONARY
360
7788
102
}
102
{ACAD_REACTORS
330
702F
102
}
330
702F
100
AcDbMaterial
  1
ByLayer
  0
MATERIAL
  5
7032
102
{ACAD_XDICTIONARY
360
778C
102
}
102
{ACAD_REACTORS
330
702F
102
}
330
702F
100
AcDbMaterial
  1
Global
  0
MLINESTYLE
  5
17
102
{ACAD_REACTORS
330
16
102
}
330
16
100
AcDbMlineStyle
  2
STANDARD
 70
     0
  3

 62
   256
 51
90.0
 52
90.0
 71
     2
 49
0.5
 62
   256
  6
BYLAYER
 49
-0.5
 62
   256
  6
BYLAYER
  0
ACDBPLACEHOLDER
  5
F
102
{ACAD_REACTORS
330
E
102
}
330
E
  0
TABLESTYLE
  5
7046
102
{ACAD_XDICTIONARY
360
778E
102
}
102
{ACAD_REACTORS
330
7045
102
}
330
7045
100
AcDbTableStyle
  3
Standard
 70
     0
 71
     0
 40
0.06
 41
0.06
280
     0
281
     0
  7
STANDARD
140
0.18
170
     2
 62
     0
 63
     7
283
     0
274
    -2
284
     1
 64
     0
275
    -2
285
     1
 65
     0
276
    -2
286
     1
 66
     0
277
    -2
287
     1
 67
     0
278
    -2
288
     1
 68
     0
279
    -2
289
     1
 69
     0
  7
STANDARD
140
0.25
170
     5
 62
     0
 63
     7
283
     0
274
    -2
284
     1
 64
     0
275
    -2
285
     1
 65
     0
276
    -2
286
     1
 66
     0
277
    -2
287
     1
 67
     0
278
    -2
288
     1
 68
     0
279
    -2
289
     1
 69
     0
  7
STANDARD
140
0.18
170
     5
 62
     0
 63
     7
283
     0
274
    -2
284
     1
 64
     0
275
    -2
285
     1
 65
     0
276
    -2
286
     1
 66
     0
277
    -2
287
     1
 67
     0
278
    -2
288
     1
 68
     0
279
    -2
289
     1
 69
     0
  0
VISUALSTYLE
  5
7039
102
{ACAD_REACTORS
330
7033
102
}
330
7033
100
AcDbVisualStyle
  2
2dWireframe
 70
     4
 71
     0
 72
     2
 73
     0
 90
        0
 40
-0.6
 41
-30.0
 62
     5
 63
     7
 74
     1
 91
        4
 64
     7
 65
   257
 75
     1
175
     1
 42
1.0
 92
        0
 66
   257
 43
1.0
 76
     1
 77
     6
 78
     2
 67
     7
 79
     5
170
     0
171
     0
290
     0
174
     0
 93
        1
 44
0.0
173
     0
291
     0
 45
0.0
1001
ACAD
1000
AcDbSavedByObjectVersion
1070
     0
  0
VISUALSTYLE
  5
703B
102
{ACAD_REACTORS
330
7033
102
}
330
7033
100
AcDbVisualStyle
  2
3D Hidden
 70
     6
 71
     1
 72
     2
 73
     2
 90
        0
 40
-0.6
 41
-30.0
 62
     5
 63
     7
 74
     2
 91
        2
 64
     7
 65
   257
 75
     2
175
     1
 42
40.0
 92
        0
 66
   257
 43
1.0
 76
     1
 77
     6
 78
     2
 67
     7
 79
     3
170
     0
171
     0
290
     0
174
     0
 93
        1
 44
0.0
173
     0
291
     0
 45
0.0
1001
ACAD
1000
AcDbSavedByObjectVersion
1070
     0
  0
VISUALSTYLE
  5
703A
102
{ACAD_REACTORS
330
7033
102
}
330
7033
100
AcDbVisualStyle
  2
3dWireframe
 70
     5
 71
     0
 72
     2
 73
     0
 90
        0
 40
-0.6
 41
-30.0
 62
     5
 63
     7
 74
     1
 91
        4
 64
     7
 65
   257
 75
     1
175
     1
 42
1.0
 92
        0
 66
   257
 43
1.0
 76
     1
 77
     6
 78
     2
 67
     7
 79
     5
170
     0
171
     0
290
     0
174
     0
 93
        1
 44
0.0
173
     0
291
     0
 45
0.0
1001
ACAD
1000
AcDbSavedByObjectVersion
1070
     0
  0
VISUALSTYLE
  5
7038
102
{ACAD_REACTORS
330
7033
102
}
330
7033
100
AcDbVisualStyle
  2
Basic
 70
     7
 71
     1
 72
     0
 73
     1
 90
        0
 40
-0.6
 41
-30.0
 62
     5
 63
     7
 74
     0
 91
        4
 64
     7
 65
   257
 75
     1
175
     1
 42
1.0
 92
        8
 66
     7
 43
1.0
 76
     1
 77
     6
 78
     2
 67
     7
 79
     5
170
     0
171
     0
290
     0
174
     0
 93
        1
 44
0.0
173
     0
291
     1
 45
0.0
1001
ACAD
1000
AcDbSavedByObjectVersion
1070
     0
  0
VISUALSTYLE
  5
703F
102
{ACAD_REACTORS
330
7033
102
}
330
7033
100
AcDbVisualStyle
  2
Brighten
 70
    12
 71
     2
 72
     2
 73
     0
 90
        0
 40
-0.6
 41
-30.0
 62
     5
 63
     7
 74
     1
 91
        4
 64
     7
 65
   257
 75
     1
175
     1
 42
1.0
 92
        8
 66
     7
 43
1.0
 76
     1
 77
     6
 78
     2
 67
     7
 79
     5
170
     0
171
     0
290
     0
174
     0
 93
        1
 44
50.0
173
     0
291
     1
 45
0.0
1001
ACAD
1000
AcDbSavedByObjectVersion
1070
     0
  0
VISUALSTYLE
  5
7043
102
{ACAD_REACTORS
330
7033
102
}
330
7033
100
AcDbVisualStyle
  2
ColorChange
 70
    16
 71
     2
 72
     2
 73
     3
 90
        0
 40
-0.6
 41
-30.0
 62
     5
 63
     8
 74
     1
 91
        4
 64
     7
 65
   257
 75
     1
175
     1
 42
1.0
 92
        8
 66
     8
 43
1.0
 76
     1
 77
     6
 78
     2
 67
     7
 79
     5
170
     0
171
     0
290
     0
174
     0
 93
        1
 44
0.0
173
     0
291
     1
 45
0.0
1001
ACAD
1000
AcDbSavedByObjectVersion
1070
     0
  0
VISUALSTYLE
  5
703C
102
{ACAD_REACTORS
330
7033
102
}
330
7033
100
AcDbVisualStyle
  2
Conceptual
 70
     9
 71
     3
 72
     2
 73
     0
 90
        0
 40
-0.6
 41
-30.0
 62
     5
 63
     7
 74
     2
 91
        2
 64
     7
 65
   257
 75
     1
175
     1
 42
40.0
 92
        8
 66
     7
 43
1.0
 76
     1
 77
     6
 78
     2
 67
     7
 79
     3
170
     0
171
     0
290
     0
174
     0
 93
        1
 44
0.0
173
     0
291
     0
 45
0.0
1001
ACAD
1000
AcDbSavedByObjectVersion
1070
     0
  0
VISUALSTYLE
  5
703E
102
{ACAD_REACTORS
330
7033
102
}
330
7033
100
AcDbVisualStyle
  2
Dim
 70
    11
 71
     2
 72
     2
 73
     0
 90
        0
 40
-0.6
 41
-30.0
 62
     5
 63
     7
 74
     1
 91
        4
 64
     7
 65
   257
 75
     1
175
     1
 42
1.0
 92
        8
 66
     7
 43
1.0
 76
     1
 77
     6
 78
     2
 67
     7
 79
     5
170
     0
171
     0
290
     0
174
     0
 93
        1
 44
-50.0
173
     0
291
     1
 45
0.0
1001
ACAD
1000
AcDbSavedByObjectVersion
1070
     0
  0
VISUALSTYLE
  5
7042
102
{ACAD_REACTORS
330
7033
102
}
330
7033
100
AcDbVisualStyle
  2
Facepattern
 70
    15
 71
     2
 72
     2
 73
     0
 90
        0
 40
-0.6
 41
-30.0
 62
     5
 63
     7
 74
     1
 91
        4
 64
     7
 65
   257
 75
     1
175
     1
 42
1.0
 92
        8
 66
     7
 43
1.0
 76
     1
 77
     6
 78
     2
 67
     7
 79
     5
170
     0
171
     0
290
     0
174
     0
 93
        1
 44
0.0
173
     0
291
     1
 45
0.0
1001
ACAD
1000
AcDbSavedByObjectVersion
1070
     0
  0
VISUALSTYLE
  5
7034
102
{ACAD_REACTORS
330
7033
102
}
330
7033
100
AcDbVisualStyle
  2
Flat
 70
     0
 71
     2
 72
     1
 73
     1
 90
        2
 40
-0.6
 41
30.0
 62
     5
 63
     7
 74
     0
 91
        4
 64
     7
 65
   257
 75
     1
175
     1
 42
1.0
 92
        8
 66
     7
 43
1.0
 76
     1
 77
     6
 78
     2
 67
     7
 79
     5
170
     0
171
     0
290
     0
174
     0
 93
       13
 44
0.0
173
     0
291
     1
 45
0.0
1001
ACAD
1000
AcDbSavedByObjectVersion
1070
     0
  0
VISUALSTYLE
  5
7035
102
{ACAD_REACTORS
330
7033
102
}
330
7033
100
AcDbVisualStyle
  2
FlatWithEdges
 70
     1
 71
     2
 72
     1
 73
     1
 90
        2
 40
-0.6
 41
30.0
 62
     5
 63
     7
 74
     1
 91
        4
 64
     7
 65
   257
 75
     1
175
     1
 42
1.0
 92
        0
 66
   257
 43
1.0
 76
     1
 77
     6
 78
     2
 67
     7
 79
     5
170
     0
171
     0
290
     0
174
     0
 93
       13
 44
0.0
173
     0
291
     1
 45
0.0
1001
ACAD
1000
AcDbSavedByObjectVersion
1070
     0
  0
VISUALSTYLE
  5
7036
102
{ACAD_REACTORS
330
7033
102
}
330
7033
100
AcDbVisualStyle
  2
Gouraud
 70
     2
 71
     2
 72
     2
 73
     1
 90
        2
 40
-0.6
 41
30.0
 62
     5
 63
     7
 74
     0
 91
        4
 64
     7
 65
   257
 75
     1
175
     1
 42
1.0
 92
        0
 66
     7
 43
1.0
 76
     1
 77
     6
 78
     2
 67
     7
 79
     5
170
     0
171
     0
290
     0
174
     0
 93
       13
 44
0.0
173
     0
291
     1
 45
0.0
1001
ACAD
1000
AcDbSavedByObjectVersion
1070
     0
  0
VISUALSTYLE
  5
7037
102
{ACAD_REACTORS
330
7033
102
}
330
7033
100
AcDbVisualStyle
  2
GouraudWithEdges
 70
     3
 71
     2
 72
     2
 73
     1
 90
        2
 40
-0.6
 41
30.0
 62
     5
 63
     7
 74
     1
 91
        4
 64
     7
 65
   257
 75
     1
175
     1
 42
1.0
 92
        0
 66
   257
 43
1.0
 76
     1
 77
     6
 78
     2
 67
     7
 79
     5
170
     0
171
     0
290
     0
174
     0
 93
       13
 44
0.0
173
     0
291
     1
 45
0.0
1001
ACAD
1000
AcDbSavedByObjectVersion
1070
     0
  0
VISUALSTYLE
  5
7041
102
{ACAD_REACTORS
330
7033
102
}
330
7033
100
AcDbVisualStyle
  2
Linepattern
 70
    14
 71
     2
 72
     2
 73
     0
 90
        0
 40
-0.6
 41
-30.0
 62
     5
 63
     7
 74
     1
 91
        4
 64
     7
 65
   257
 75
     7
175
     7
 42
1.0
 92
        8
 66
     7
 43
1.0
 76
     1
 77
     6
 78
     2
 67
     7
 79
     5
170
     0
171
     0
290
     0
174
     0
 93
        1
 44
0.0
173
     0
291
     1
 45
0.0
1001
ACAD
1000
AcDbSavedByObjectVersion
1070
     0
  0
VISUALSTYLE
  5
703D
102
{ACAD_REACTORS
330
7033
102
}
330
7033
100
AcDbVisualStyle
  2
Realistic
 70
     8
 71
     2
 72
     2
 73
     0
 90
        0
 40
-0.6
 41
-30.0
 62
     5
 63
     7
 74
     1
 91
        0
 64
     7
 65
   257
 75
     1
175
     1
 42
1.0
 92
        8
 66
     8
 43
1.0
 76
     1
 77
     6
 78
     2
 67
     7
 79
     5
170
     0
171
     0
290
     0
174
     0
 93
       13
 44
0.0
173
     0
291
     0
 45
0.0
1001
ACAD
1000
AcDbSavedByObjectVersion
1070
     0
  0
VISUALSTYLE
  5
7040
102
{ACAD_REACTORS
330
7033
102
}
330
7033
100
AcDbVisualStyle
  2
Thicken
 70
    13
 71
     2
 72
     2
 73
     0
 90
        0
 40
-0.6
 41
-30.0
 62
     5
 63
     7
 74
     1
 91
        4
 64
     7
 65
   257
 75
     1
175
     1
 42
1.0
 92
       12
 66
     7
 43
1.0
 76
     1
 77
     6
 78
     2
 67
     7
 79
     5
170
     0
171
     0
290
     0
174
     0
 93
        1
 44
0.0
173
     0
291
     1
 45
0.0
1001
ACAD
1000
AcDbSavedByObjectVersion
1070
     0
  0
DICTIONARYVAR
  5
71B2
102
{ACAD_REACTORS
330
169
102
}
330
169
100
DictionaryVariables
280
     0
  1
STANDARD
  0
DICTIONARYVAR
  5
16A
102
{ACAD_REACTORS
330
169
102
}
330
169
100
DictionaryVariables
280
     0
  1
1
  0
DICTIONARYVAR
  5
777A
102
{ACAD_REACTORS
330
169
102
}
330
169
100
DictionaryVariables
280
     0
  1
0
  0
DICTIONARYVAR
  5
7779
102
{ACAD_REACTORS
330
169
102
}
330
169
100
DictionaryVariables
280
     0
  1
127
  0
XRECORD
  5
177
102
{ACAD_REACTORS
330
176
102
}
330
176
100
AcDbXrecord
280
     1
 91
      476
330
179
 90
        8
 62
     7
370
    -3
331
15
  1
Color_7
330
128
 90
        0
 62
     7
370
    -3
331
15
  1
Color_7
330
10
 90
        8
 62
     7
370
    -3
331
15
  1
Color_7
  0
DICTIONARY
  5
7786
330
21
100
AcDbDictionary
280
     1
281
     1
  3
ACAD_XREC_ROUNDTRIP
360
7787
  0
DICTIONARY
  5
7784
330
1D
100
AcDbDictionary
280
     1
281
     1
  3
ACAD_XREC_ROUNDTRIP
360
7785
  0
DICTIONARY
  5
778A
330
7031
100
AcDbDictionary
280
     1
281
     1
  3
ACAD_XREC_ROUNDTRIP
360
778B
  0
DICTIONARY
  5
7788
330
7030
100
AcDbDictionary
280
     1
281
     1
  3
ACAD_XREC_ROUNDTRIP
360
7789
  0
DICTIONARY
  5
778C
330
7032
100
AcDbDictionary
280
     1
281
     1
  3
ACAD_XREC_ROUNDTRIP
360
778D
  0
DICTIONARY
  5
778E
330
7046
100
AcDbDictionary
280
     1
281
     1
  3
ACAD_XREC_ROUNDTRIP
360
778F
  0
XRECORD
  5
7787
102
{ACAD_REACTORS
330
7786
102
}
330
7786
100
AcDbXrecord
280
     1
102
SHADEPLOT
 70
     0
102
SHADEPLOTRESLEVEL
 70
     2
102
SHADEPLOTCUSTOMDPI
 70
   300
  0
XRECORD
  5
7785
102
{ACAD_REACTORS
330
7784
102
}
330
7784
100
AcDbXrecord
280
     1
102
SHADEPLOT
 70
     0
102
SHADEPLOTRESLEVEL
 70
     2
102
SHADEPLOTCUSTOMDPI
 70
   300
  0
XRECORD
  5
778B
102
{ACAD_REACTORS
330
778A
102
}
330
778A
100
AcDbXrecord
280
     1
102
MATERIAL
148
0.0
149
0.0
149
0.0
 93
        0
 94
       63
282
     0
 72
     1
 77
     1
171
     1
175
     1
179
     1
273
     0
  0
XRECORD
  5
7789
102
{ACAD_REACTORS
330
7788
102
}
330
7788
100
AcDbXrecord
280
     1
102
MATERIAL
148
0.0
149
0.0
149
0.0
 93
        0
 94
       63
282
     0
 72
     1
 77
     1
171
     1
175
     1
179
     1
273
     0
  0
XRECORD
  5
778D
102
{ACAD_REACTORS
330
778C
102
}
330
778C
100
AcDbXrecord
280
     1
102
MATERIAL
148
0.0
149
0.0
149
0.0
 93
        0
 94
       63
282
     0
 72
     1
 77
     1
171
     1
175
     1
179
     1
273
     0
  0
XRECORD
  5
778F
102
{ACAD_REACTORS
330
778E
102
}
330
778E
100
AcDbXrecord
280
     1
102
ACAD_ROUNDTRIP_PRE2007_TABLESTYLE
 90
      512
 91
        0
  1

 92
      512
 93
        0
  2

 94
      512
 95
        0
  3

  0
ENDSEC
  0
EOF
