  0
SECTION
  2
HEADER
  9
$ACADVER
  1
AC1015
  9
$ACADMAINTVER
 70
    20
  9
$DWGCODEPAGE
  3
ANSI_932
  9
$INSBASE
 10
0.0
 20
0.0
 30
0.0
  9
$EXTMIN
 10
164.7467224381145
 20
76.389505228429
 30
0.0
  9
$EXTMAX
 10
473.6008784381148
 20
307.5108682284288
 30
0.0
  9
$LIMMIN
 10
0.0
 20
0.0
  9
$LIMMAX
 10
420.0
 20
297.0
  9
$ORTHOMODE
 70
     0
  9
$REGENMODE
 70
     1
  9
$FILLMODE
 70
     1
  9
$QTEXTMODE
 70
     0
  9
$MIRRTEXT
 70
     1
  9
$LTSCALE
 40
1.0
  9
$ATTMODE
 70
     1
  9
$TEXTSIZE
 40
5.0
  9
$TRACEWID
 40
0.05
  9
$TEXTSTYLE
  7
ACAD
  9
$CLAYER
  8
0
  9
$CELTYPE
  6
CONTINUOUS
  9
$CECOLOR
 62
   256
  9
$CELTSCALE
 40
1.0
  9
$DISPSILH
 70
     0
  9
$DIMSCALE
 40
1.0
  9
$DIMASZ
 40
1.0
  9
$DIMEXO
 40
0.0
  9
$DIMDLI
 40
0.38
  9
$DIMRND
 40
0.0
  9
$DIMDLE
 40
0.0
  9
$DIMEXE
 40
0.0
  9
$DIMTP
 40
0.0
  9
$DIMTM
 40
0.0
  9
$DIMTXT
 40
3.0
  9
$DIMCEN
 40
0.09
  9
$DIMTSZ
 40
0.0
  9
$DIMTOL
 70
     0
  9
$DIMLIM
 70
     0
  9
$DIMTIH
 70
     0
  9
$DIMTOH
 70
     1
  9
$DIMSE1
 70
     0
  9
$DIMSE2
 70
     0
  9
$DIMTAD
 70
     1
  9
$DIMZIN
 70
     0
  9
$DIMBLK
  1
Dot
  9
$DIMASO
 70
     1
  9
$DIMSHO
 70
     1
  9
$DIMPOST
  1

  9
$DIMAPOST
  1

  9
$DIMALT
 70
     0
  9
$DIMALTD
 70
     2
  9
$DIMALTF
 40
25.4
  9
$DIMLFAC
 40
1.0
  9
$DIMTOFL
 70
     0
  9
$DIMTVP
 40
0.0
  9
$DIMTIX
 70
     1
  9
$DIMSOXD
 70
     0
  9
$DIMSAH
 70
     0
  9
$DIMBLK1
  1

  9
$DIMBLK2
  1

  9
$DIMSTYLE
  2
AutoCAD
  9
$DIMCLRD
 70
     4
  9
$DIMCLRE
 70
     4
  9
$DIMCLRT
 70
     3
  9
$DIMTFAC
 40
1.0
  9
$DIMGAP
 40
1.0
  9
$DIMJUST
 70
     0
  9
$DIMSD1
 70
     0
  9
$DIMSD2
 70
     0
  9
$DIMTOLJ
 70
     1
  9
$DIMTZIN
 70
     0
  9
$DIMALTZ
 70
     0
  9
$DIMALTTZ
 70
     0
  9
$DIMUPT
 70
     0
  9
$DIMDEC
 70
     0
  9
$DIMTDEC
 70
     0
  9
$DIMALTU
 70
     2
  9
$DIMALTTD
 70
     2
  9
$DIMTXSTY
  7
ACAD
  9
$DIMAUNIT
 70
     0
  9
$DIMADEC
 70
     0
  9
$DIMALTRND
 40
0.0
  9
$DIMAZIN
 70
     0
  9
$DIMDSEP
 70
    46
  9
$DIMATFIT
 70
     0
  9
$DIMFRAC
 70
     0
  9
$DIMLDRBLK
  1
None
  9
$DIMLUNIT
 70
     2
  9
$DIMLWD
 70
    -2
  9
$DIMLWE
 70
    -2
  9
$DIMTMOVE
 70
     0
  9
$LUNITS
 70
     2
  9
$LUPREC
 70
     4
  9
$SKETCHINC
 40
0.1
  9
$FILLETRAD
 40
0.0
  9
$AUNITS
 70
     0
  9
$AUPREC
 70
     0
  9
$MENU
  1
.
  9
$ELEVATION
 40
0.0
  9
$PELEVATION
 40
0.0
  9
$THICKNESS
 40
0.0
  9
$LIMCHECK
 70
     0
  9
$CHAMFERA
 40
0.0
  9
$CHAMFERB
 40
0.0
  9
$CHAMFERC
 40
0.0
  9
$CHAMFERD
 40
0.0
  9
$SKPOLY
 70
     0
  9
$TDCREATE
 40
2454316.693457674
  9
$TDUCREATE
 40
2454316.318457674
  9
$TDUPDATE
 40
2454735.621784386
  9
$TDUUPDATE
 40
2454735.246784387
  9
$TDINDWG
 40
0.2446838194
  9
$TDUSRTIMER
 40
0.2446838194
  9
$USRTIMER
 70
     1
  9
$ANGBASE
 50
0.0
  9
$ANGDIR
 70
     0
  9
$PDMODE
 70
     0
  9
$PDSIZE
 40
0.0
  9
$PLINEWID
 40
0.0
  9
$SPLFRAME
 70
     0
  9
$SPLINETYPE
 70
     6
  9
$SPLINESEGS
 70
     8
  9
$HANDSEED
  5
78D3
  9
$SURFTAB1
 70
     6
  9
$SURFTAB2
 70
     6
  9
$SURFTYPE
 70
     6
  9
$SURFU
 70
     6
  9
$SURFV
 70
     6
  9
$UCSBASE
  2

  9
$UCSNAME
  2

  9
$UCSORG
 10
0.0
 20
0.0
 30
0.0
  9
$UCSXDIR
 10
1.0
 20
0.0
 30
0.0
  9
$UCSYDIR
 10
0.0
 20
1.0
 30
0.0
  9
$UCSORTHOREF
  2

  9
$UCSORTHOVIEW
 70
     0
  9
$UCSORGTOP
 10
0.0
 20
0.0
 30
0.0
  9
$UCSORGBOTTOM
 10
0.0
 20
0.0
 30
0.0
  9
$UCSORGLEFT
 10
0.0
 20
0.0
 30
0.0
  9
$UCSORGRIGHT
 10
0.0
 20
0.0
 30
0.0
  9
$UCSORGFRONT
 10
0.0
 20
0.0
 30
0.0
  9
$UCSORGBACK
 10
0.0
 20
0.0
 30
0.0
  9
$PUCSBASE
  2

  9
$PUCSNAME
  2

  9
$PUCSORG
 10
0.0
 20
0.0
 30
0.0
  9
$PUCSXDIR
 10
1.0
 20
0.0
 30
0.0
  9
$PUCSYDIR
 10
0.0
 20
1.0
 30
0.0
  9
$PUCSORTHOREF
  2

  9
$PUCSORTHOVIEW
 70
     0
  9
$PUCSORGTOP
 10
0.0
 20
0.0
 30
0.0
  9
$PUCSORGBOTTOM
 10
0.0
 20
0.0
 30
0.0
  9
$PUCSORGLEFT
 10
0.0
 20
0.0
 30
0.0
  9
$PUCSORGRIGHT
 10
0.0
 20
0.0
 30
0.0
  9
$PUCSORGFRONT
 10
0.0
 20
0.0
 30
0.0
  9
$PUCSORGBACK
 10
0.0
 20
0.0
 30
0.0
  9
$USERI1
 70
     0
  9
$USERI2
 70
     0
  9
$USERI3
 70
     0
  9
$USERI4
 70
     0
  9
$USERI5
 70
     0
  9
$USERR1
 40
0.0
  9
$USERR2
 40
0.0
  9
$USERR3
 40
0.0
  9
$USERR4
 40
0.0
  9
$USERR5
 40
0.0
  9
$WORLDVIEW
 70
     1
  9
$SHADEDGE
 70
     3
  9
$SHADEDIF
 70
    70
  9
$TILEMODE
 70
     1
  9
$MAXACTVP
 70
    48
  9
$PINSBASE
 10
0.0
 20
0.0
 30
0.0
  9
$PLIMCHECK
 70
     0
  9
$PEXTMIN
 10
1.000000000000000E+20
 20
1.000000000000000E+20
 30
1.000000000000000E+20
  9
$PEXTMAX
 10
-1.000000000000000E+20
 20
-1.000000000000000E+20
 30
-1.000000000000000E+20
  9
$PLIMMIN
 10
0.0
 20
0.0
  9
$PLIMMAX
 10
12.0
 20
9.0
  9
$UNITMODE
 70
     0
  9
$VISRETAIN
 70
     0
  9
$PLINEGEN
 70
     0
  9
$PSLTSCALE
 70
     1
  9
$TREEDEPTH
 70
  3020
  9
$CMLSTYLE
  2
Standard
  9
$CMLJUST
 70
     0
  9
$CMLSCALE
 40
1.0
  9
$PROXYGRAPHICS
 70
     1
  9
$MEASUREMENT
 70
     0
  9
$CELWEIGHT
370
    -1
  9
$ENDCAPS
280
     0
  9
$JOINSTYLE
280
     0
  9
$LWDISPLAY
290
     0
  9
$INSUNITS
 70
     0
  9
$HYPERLINKBASE
  1

  9
$STYLESHEET
  1

  9
$XEDIT
290
     1
  9
$CEPSNTYPE
380
     0
  9
$PSTYLEMODE
290
     1
  9
$FINGERPRINTGUID
  2
{CC7D6DEE-A9F1-4F3E-AC95-C84B62CCA3FD}
  9
$VERSIONGUID
  2
{56155C93-DE36-4717-B9D8-411C5E6AF07B}
  9
$EXTNAMES
290
     1
  9
$PSVPSCALE
 40
0.0
  9
$OLESTARTUP
290
     0
  0
ENDSEC
  0
SECTION
  2
CLASSES
  0
CLASS
  1
ACDBDICTIONARYWDFLT
  2
AcDbDictionaryWithDefault
  3
ObjectDBX Classes
 90
        0
280
     0
281
     0
  0
CLASS
  1
ACDBPLACEHOLDER
  2
AcDbPlaceHolder
  3
ObjectDBX Classes
 90
        0
280
     0
281
     0
  0
CLASS
  1
LAYOUT
  2
AcDbLayout
  3
ObjectDBX Classes
 90
        0
280
     0
281
     0
  0
CLASS
  1
DICTIONARYVAR
  2
AcDbDictionaryVar
  3
ObjectDBX Classes
 90
        0
280
     0
281
     0
  0
CLASS
  1
MATERIAL
  2
AcDbMaterial
  3
ObjectDBX Classes
 90
     1153
280
     0
281
     0
  0
CLASS
  1
VISUALSTYLE
  2
AcDbVisualStyle
  3
ObjectDBX Classes
 90
     4095
280
     0
281
     0
  0
CLASS
  1
TABLESTYLE
  2
AcDbTableStyle
  3
ObjectDBX Classes
 90
     4095
280
     0
281
     0
  0
ENDSEC
  0
SECTION
  2
TABLES
  0
TABLE
  2
VPORT
  5
8
102
{ACAD_XDICTIONARY
360
78A5
102
}
330
0
100
AcDbSymbolTable
 70
     1
  0
VPORT
  5
76FF
330
8
100
AcDbSymbolTableRecord
100
AcDbViewportTableRecord
  2
*Active
 70
     0
 10
0.0
 20
0.0
 11
1.0
 21
1.0
 12
343.0212082194032
 22
178.0847347982267
 13
0.0
 23
0.0
 14
1.0
 24
1.0
 15
0.0
 25
0.0
 16
0.0
 26
0.0
 36
1.0
 17
0.0
 27
0.0
 37
0.0
 40
288.4567750670854
 41
1.571614583333333
 42
50.0
 43
0.0
 44
0.0
 50
0.0
 51
0.0
 71
     0
 72
   100
 73
     1
 74
     1
 75
     0
 76
     0
 77
     0
 78
     0
281
     0
 65
     1
110
0.0
120
0.0
130
0.0
111
1.0
121
0.0
131
0.0
112
0.0
122
1.0
132
0.0
 79
     0
146
0.0
  0
ENDTAB
  0
TABLE
  2
LTYPE
  5
5
330
0
100
AcDbSymbolTable
 70
    50
  0
LTYPE
  5
13
330
5
100
AcDbSymbolTableRecord
100
AcDbLinetypeTableRecord
  2
ByBlock
 70
     0
  3

 72
    65
 73
     0
 40
0.0
  0
LTYPE
  5
14
330
5
100
AcDbSymbolTableRecord
100
AcDbLinetypeTableRecord
  2
ByLayer
 70
     0
  3

 72
    65
 73
     0
 40
0.0
  0
LTYPE
  5
15
330
5
100
AcDbSymbolTableRecord
100
AcDbLinetypeTableRecord
  2
CONTINUOUS
 70
     0
  3
実線
 72
    65
 73
     0
 40
0.0
  0
LTYPE
  5
22
330
5
100
AcDbSymbolTableRecord
100
AcDbLinetypeTableRecord
  2
DASHED1
 70
     0
  3
--  --  --  --  --  --  --  --  
 72
    65
 73
     2
 40
2.5
 49
1.25
 74
     0
 49
-1.25
 74
     0
  0
LTYPE
  5
23
330
5
100
AcDbSymbolTableRecord
100
AcDbLinetypeTableRecord
  2
DASHED2
 70
     0
  3
----    ----    ----    ----    
 72
    65
 73
     2
 40
5.0
 49
2.5
 74
     0
 49
-2.5
 74
     0
  0
LTYPE
  5
24
330
5
100
AcDbSymbolTableRecord
100
AcDbLinetypeTableRecord
  2
DASHED3
 70
     0
  3
------  ------  ------  ------  
 72
    65
 73
     2
 40
5.0
 49
3.75
 74
     0
 49
-1.25
 74
     0
  0
LTYPE
  5
25
330
5
100
AcDbSymbolTableRecord
100
AcDbLinetypeTableRecord
  2
CENTER1
 70
     0
  3
----- - ----- - ----- - ----- - 
 72
    65
 73
     4
 40
10.0
 49
6.25
 74
     0
 49
-1.25
 74
     0
 49
1.25
 74
     0
 49
-1.25
 74
     0
  0
LTYPE
  5
26
330
5
100
AcDbSymbolTableRecord
100
AcDbLinetypeTableRecord
  2
CENTER2
 70
     0
  3
----------  --  ----------  --  
 72
    65
 73
     4
 40
20.0
 49
12.5
 74
     0
 49
-2.5
 74
     0
 49
2.5
 74
     0
 49
-2.5
 74
     0
  0
LTYPE
  5
27
330
5
100
AcDbSymbolTableRecord
100
AcDbLinetypeTableRecord
  2
PHANTOM1
 70
     0
  3
--- - - --- - - --- - - --- - - 
 72
    65
 73
     6
 40
10.0
 49
3.25
 74
     0
 49
-1.25
 74
     0
 49
1.25
 74
     0
 49
-1.25
 74
     0
 49
1.25
 74
     0
 49
-1.25
 74
     0
  0
LTYPE
  5
28
330
5
100
AcDbSymbolTableRecord
100
AcDbLinetypeTableRecord
  2
PHANTOM2
 70
     0
  3
--------  -  -  --------  -  -  
 72
    65
 73
     6
 40
20.0
 49
10.0
 74
     0
 49
-2.5
 74
     0
 49
1.25
 74
     0
 49
-2.5
 74
     0
 49
1.25
 74
     0
 49
-2.5
 74
     0
  0
LTYPE
  5
29
330
5
100
AcDbSymbolTableRecord
100
AcDbLinetypeTableRecord
  2
DOT
 70
     0
  3
-   -   -   -   -   -   -   -   
 72
    65
 73
     2
 40
2.5
 49
0.625
 74
     0
 49
-1.875
 74
     0
  0
LTYPE
  5
2A
330
5
100
AcDbSymbolTableRecord
100
AcDbLinetypeTableRecord
  2
DUMMY
 70
     0
  3
ダミー
 72
    65
 73
     0
 40
0.0
  0
LTYPE
  5
2B
330
5
100
AcDbSymbolTableRecord
100
AcDbLinetypeTableRecord
  2
RAND1
 70
     0
  3
ランダム線1
 72
    65
 73
     4
 40
10.0
 49
1.0
 74
     0
 49
-2.0
 74
     0
 49
3.0
 74
     0
 49
-4.0
 74
     0
  0
LTYPE
  5
2C
330
5
100
AcDbSymbolTableRecord
100
AcDbLinetypeTableRecord
  2
RAND2
 70
     0
  3
ランダム線2
 72
    65
 73
     4
 40
14.0
 49
2.0
 74
     0
 49
-3.0
 74
     0
 49
4.0
 74
     0
 49
-5.0
 74
     0
  0
LTYPE
  5
2D
330
5
100
AcDbSymbolTableRecord
100
AcDbLinetypeTableRecord
  2
RAND3
 70
     0
  3
ランダム線3
 72
    65
 73
     4
 40
18.0
 49
3.0
 74
     0
 49
-4.0
 74
     0
 49
5.0
 74
     0
 49
-6.0
 74
     0
  0
LTYPE
  5
2E
330
5
100
AcDbSymbolTableRecord
100
AcDbLinetypeTableRecord
  2
RAND4
 70
     0
  3
ランダム線4
 72
    65
 73
     4
 40
22.0
 49
4.0
 74
     0
 49
-5.0
 74
     0
 49
6.0
 74
     0
 49
-7.0
 74
     0
  0
LTYPE
  5
2F
330
5
100
AcDbSymbolTableRecord
100
AcDbLinetypeTableRecord
  2
RAND5
 70
     0
  3
ランダム線5
 72
    65
 73
     4
 40
26.0
 49
5.0
 74
     0
 49
-6.0
 74
     0
 49
7.0
 74
     0
 49
-8.0
 74
     0
  0
LTYPE
  5
30
330
5
100
AcDbSymbolTableRecord
100
AcDbLinetypeTableRecord
  2
LONG1
 70
     0
  3
----------  --  ----------  --  
 72
    65
 73
     4
 40
40.0
 49
32.5
 74
     0
 49
-2.5
 74
     0
 49
2.5
 74
     0
 49
-2.5
 74
     0
  0
LTYPE
  5
31
330
5
100
AcDbSymbolTableRecord
100
AcDbLinetypeTableRecord
  2
LONG2
 70
     0
  3
--------  -  -  --------  -  -  
 72
    65
 73
     6
 40
40.0
 49
30.0
 74
     0
 49
-2.5
 74
     0
 49
1.25
 74
     0
 49
-2.5
 74
     0
 49
1.25
 74
     0
 49
-2.5
 74
     0
  0
LTYPE
  5
32
330
5
100
AcDbSymbolTableRecord
100
AcDbLinetypeTableRecord
  2
LONG3
 70
     0
  3
+++++++++++++++..+++++++++++++++
 72
    65
 73
     2
 40
40.0
 49
37.5
 74
     0
 49
-2.5
 74
     0
  0
LTYPE
  5
33
330
5
100
AcDbSymbolTableRecord
100
AcDbLinetypeTableRecord
  2
LONG4
 70
     0
  3
+++++++++++++++..+++++++++++++++
 72
    65
 73
     2
 40
80.0
 49
75.0
 74
     0
 49
-5.0
 74
     0
  0
LTYPE
  5
34
330
5
100
AcDbSymbolTableRecord
100
AcDbLinetypeTableRecord
  2
LONG5
 70
     0
  3
----------  --  ----------  --  
 72
    65
 73
     4
 40
60.0
 49
37.5
 74
     0
 49
-7.5
 74
     0
 49
7.5
 74
     0
 49
-7.5
 74
     0
  0
LTYPE
  5
35
330
5
100
AcDbSymbolTableRecord
100
AcDbLinetypeTableRecord
  2
DASHED
 70
     0
  3
-------   -------------   ------
 72
    65
 73
     2
 40
7.5
 49
6.0
 74
     0
 49
-1.5
 74
     0
  0
LTYPE
  5
36
330
5
100
AcDbSymbolTableRecord
100
AcDbLinetypeTableRecord
  2
DASHED_SPACED
 70
     0
  3
----        --------        ----
 72
    65
 73
     2
 40
12.0
 49
6.0
 74
     0
 49
-6.0
 74
     0
  0
LTYPE
  5
37
330
5
100
AcDbSymbolTableRecord
100
AcDbLinetypeTableRecord
  2
LONG_DASHED_DOTTED
 70
     0
  3
------------- --- --------------
 72
    65
 73
     4
 40
15.25
 49
12.0
 74
     0
 49
-1.5
 74
     0
 49
0.25
 74
     0
 49
-1.5
 74
     0
  0
LTYPE
  5
38
330
5
100
AcDbSymbolTableRecord
100
AcDbLinetypeTableRecord
  2
LONG_DASHED_DOUBLE-DOTTED
 70
     0
  3
----------- --- --- ------------
 72
    65
 73
     6
 40
17.0
 49
12.0
 74
     0
 49
-1.5
 74
     0
 49
0.25
 74
     0
 49
-1.5
 74
     0
 49
0.25
 74
     0
 49
-1.5
 74
     0
  0
LTYPE
  5
39
330
5
100
AcDbSymbolTableRecord
100
AcDbLinetypeTableRecord
  2
LONG_DASHED_TRIPLICATE-DOTTED
 70
     0
  3
--------- --- --- --- ----------
 72
    65
 73
     8
 40
18.75
 49
12.0
 74
     0
 49
-1.5
 74
     0
 49
0.25
 74
     0
 49
-1.5
 74
     0
 49
0.25
 74
     0
 49
-1.5
 74
     0
 49
0.25
 74
     0
 49
-1.5
 74
     0
  0
LTYPE
  5
3A
330
5
100
AcDbSymbolTableRecord
100
AcDbLinetypeTableRecord
  2
DOTTED
 70
     0
  3
   -       -       -       -    
 72
    65
 73
     2
 40
1.75
 49
0.25
 74
     0
 49
-1.5
 74
     0
  0
LTYPE
  5
3B
330
5
100
AcDbSymbolTableRecord
100
AcDbLinetypeTableRecord
  2
CHAIN
 70
     0
  3
-------------- -- --------------
 72
    65
 73
     4
 40
18.5
 49
12.0
 74
     0
 49
-1.5
 74
     0
 49
3.5
 74
     0
 49
-1.5
 74
     0
  0
LTYPE
  5
3C
330
5
100
AcDbSymbolTableRecord
100
AcDbLinetypeTableRecord
  2
CHAIN_DOUBLE_DASH
 70
     0
  3
------------ -- -- -------------
 72
    65
 73
     6
 40
23.5
 49
12.0
 74
     0
 49
-1.5
 74
     0
 49
3.5
 74
     0
 49
-1.5
 74
     0
 49
3.5
 74
     0
 49
-1.5
 74
     0
  0
LTYPE
  5
3D
330
5
100
AcDbSymbolTableRecord
100
AcDbLinetypeTableRecord
  2
DASHED_DOTTED
 70
     0
  3
-----------     -     ----------
 72
    65
 73
     4
 40
9.25
 49
6.0
 74
     0
 49
-1.5
 74
     0
 49
0.25
 74
     0
 49
-1.5
 74
     0
  0
LTYPE
  5
3E
330
5
100
AcDbSymbolTableRecord
100
AcDbLinetypeTableRecord
  2
DOUBLE-DASHED_DOTTED
 70
     0
  3
------   -----------   -   -----
 72
    65
 73
     6
 40
16.75
 49
6.0
 74
     0
 49
-1.5
 74
     0
 49
6.0
 74
     0
 49
-1.5
 74
     0
 49
0.25
 74
     0
 49
-1.5
 74
     0
  0
LTYPE
  5
3F
330
5
100
AcDbSymbolTableRecord
100
AcDbLinetypeTableRecord
  2
DASHED_DOUBLE-DOTTED
 70
     0
  3
---------    -    -    ---------
 72
    65
 73
     6
 40
11.0
 49
6.0
 74
     0
 49
-1.5
 74
     0
 49
0.25
 74
     0
 49
-1.5
 74
     0
 49
0.25
 74
     0
 49
-1.5
 74
     0
  0
LTYPE
  5
40
330
5
100
AcDbSymbolTableRecord
100
AcDbLinetypeTableRecord
  2
DOUBLE-DASHED_DOUBLE-DOTTED
 70
     0
  3
-----   ---------   -   -   ----
 72
    65
 73
     8
 40
18.5
 49
6.0
 74
     0
 49
-1.5
 74
     0
 49
6.0
 74
     0
 49
-1.5
 74
     0
 49
0.25
 74
     0
 49
-1.5
 74
     0
 49
0.25
 74
     0
 49
-1.5
 74
     0
  0
LTYPE
  5
41
330
5
100
AcDbSymbolTableRecord
100
AcDbLinetypeTableRecord
  2
DASHED_TRIPLICATE-DOTTED
 70
     0
  3
-------    -    -    -    ------
 72
    65
 73
     8
 40
12.75
 49
6.0
 74
     0
 49
-1.5
 74
     0
 49
0.25
 74
     0
 49
-1.5
 74
     0
 49
0.25
 74
     0
 49
-1.5
 74
     0
 49
0.25
 74
     0
 49
-1.5
 74
     0
  0
LTYPE
  5
42
330
5
100
AcDbSymbolTableRecord
100
AcDbLinetypeTableRecord
  2
DOUBLE-DASHED_TRIPLICATE-DOTTED
 70
     0
  3
-----  ---------  -  -  -  -----
 72
    65
 73
    10
 40
20.25
 49
6.0
 74
     0
 49
-1.5
 74
     0
 49
6.0
 74
     0
 49
-1.5
 74
     0
 49
0.25
 74
     0
 49
-1.5
 74
     0
 49
0.25
 74
     0
 49
-1.5
 74
     0
 49
0.25
 74
     0
 49
-1.5
 74
     0
  0
LTYPE
  5
43
330
5
100
AcDbSymbolTableRecord
100
AcDbLinetypeTableRecord
  2
UNDEFINED
 70
     0
  3
--------------------------------
 72
    65
 73
     0
 40
0.0
  0
LTYPE
  5
44
330
5
100
AcDbSymbolTableRecord
100
AcDbLinetypeTableRecord
  2
PLINE2
 70
     0
  3
------     -----------     -----
 72
    65
 73
     2
 40
3.0
 49
2.1
 74
     0
 49
-0.9
 74
     0
  0
LTYPE
  5
45
330
5
100
AcDbSymbolTableRecord
100
AcDbLinetypeTableRecord
  2
PLINE3
 70
     0
  3
------------   ---   -----------
 72
    65
 73
     4
 40
10.0
 49
7.0
 74
     0
 49
-1.0
 74
     0
 49
1.0
 74
     0
 49
-1.0
 74
     0
  0
LTYPE
  5
46
330
5
100
AcDbSymbolTableRecord
100
AcDbLinetypeTableRecord
  2
PLINE4
 70
     0
  3
---------   ---   ---   --------
 72
    65
 73
     6
 40
10.0
 49
5.0
 74
     0
 49
-1.0
 74
     0
 49
1.0
 74
     0
 49
-1.0
 74
     0
 49
1.0
 74
     0
 49
-1.0
 74
     0
  0
LTYPE
  5
47
330
5
100
AcDbSymbolTableRecord
100
AcDbLinetypeTableRecord
  2
PLINE5
 70
     0
  3
------     -----------     -----
 72
    65
 73
     2
 40
5.0
 49
3.5
 74
     0
 49
-1.5
 74
     0
  0
LTYPE
  5
48
330
5
100
AcDbSymbolTableRecord
100
AcDbLinetypeTableRecord
  2
PLINE6
 70
     0
  3
------------   ---   -----------
 72
    65
 73
     4
 40
15.0
 49
10.5
 74
     0
 49
-1.5
 74
     0
 49
1.5
 74
     0
 49
-1.5
 74
     0
  0
LTYPE
  5
49
330
5
100
AcDbSymbolTableRecord
100
AcDbLinetypeTableRecord
  2
PLINE7
 70
     0
  3
---------   ---   ---   --------
 72
    65
 73
     6
 40
15.0
 49
7.5
 74
     0
 49
-1.5
 74
     0
 49
1.5
 74
     0
 49
-1.5
 74
     0
 49
1.5
 74
     0
 49
-1.5
 74
     0
  0
LTYPE
  5
4A
330
5
100
AcDbSymbolTableRecord
100
AcDbLinetypeTableRecord
  2
PLINE8
 70
     0
  3
------     -----------     -----
 72
    65
 73
     2
 40
7.0
 49
4.9
 74
     0
 49
-2.1
 74
     0
  0
LTYPE
  5
4B
330
5
100
AcDbSymbolTableRecord
100
AcDbLinetypeTableRecord
  2
PLINE9
 70
     0
  3
------------   ---   -----------
 72
    65
 73
     4
 40
20.0
 49
14.0
 74
     0
 49
-2.0
 74
     0
 49
2.0
 74
     0
 49
-2.0
 74
     0
  0
LTYPE
  5
4C
330
5
100
AcDbSymbolTableRecord
100
AcDbLinetypeTableRecord
  2
PLINE10
 70
     0
  3
---------   ---   ---   --------
 72
    65
 73
     6
 40
20.0
 49
10.0
 74
     0
 49
-2.0
 74
     0
 49
2.0
 74
     0
 49
-2.0
 74
     0
 49
2.0
 74
     0
 49
-2.0
 74
     0
  0
LTYPE
  5
4D
330
5
100
AcDbSymbolTableRecord
100
AcDbLinetypeTableRecord
  2
PLINE11
 70
     0
  3
------     -----------     -----
 72
    65
 73
     2
 40
9.0
 49
6.299999999999999
 74
     0
 49
-2.7
 74
     0
  0
LTYPE
  5
4E
330
5
100
AcDbSymbolTableRecord
100
AcDbLinetypeTableRecord
  2
PLINE12
 70
     0
  3
------------   ---   -----------
 72
    65
 73
     4
 40
25.0
 49
17.5
 74
     0
 49
-2.5
 74
     0
 49
2.5
 74
     0
 49
-2.5
 74
     0
  0
LTYPE
  5
4F
330
5
100
AcDbSymbolTableRecord
100
AcDbLinetypeTableRecord
  2
PLINE13
 70
     0
  3
---------   ---   ---   --------
 72
    65
 73
     6
 40
25.0
 49
12.5
 74
     0
 49
-2.5
 74
     0
 49
2.5
 74
     0
 49
-2.5
 74
     0
 49
2.5
 74
     0
 49
-2.5
 74
     0
  0
LTYPE
  5
50
330
5
100
AcDbSymbolTableRecord
100
AcDbLinetypeTableRecord
  2
PLINE14
 70
     0
  3
------     -----------     -----
 72
    65
 73
     2
 40
11.0
 49
7.7
 74
     0
 49
-3.299999999999999
 74
     0
  0
LTYPE
  5
51
330
5
100
AcDbSymbolTableRecord
100
AcDbLinetypeTableRecord
  2
PLINE15
 70
     0
  3
------------   ---   -----------
 72
    65
 73
     4
 40
30.0
 49
21.0
 74
     0
 49
-3.0
 74
     0
 49
3.0
 74
     0
 49
-3.0
 74
     0
  0
LTYPE
  5
52
330
5
100
AcDbSymbolTableRecord
100
AcDbLinetypeTableRecord
  2
PLINE16
 70
     0
  3
---------   ---   ---   --------
 72
    65
 73
     6
 40
30.0
 49
15.0
 74
     0
 49
-3.0
 74
     0
 49
3.0
 74
     0
 49
-3.0
 74
     0
 49
3.0
 74
     0
 49
-3.0
 74
     0
  0
ENDTAB
  0
TABLE
  2
LAYER
  5
2
102
{ACAD_XDICTIONARY
360
175
102
}
330
0
100
AcDbSymbolTable
 70
     5
  0
LAYER
  5
10
330
2
100
AcDbSymbolTableRecord
100
AcDbLayerTableRecord
  2
0
 70
     0
 62
     7
  6
CONTINUOUS
370
    -3
390
F
  0
LAYER
  5
128
330
2
100
AcDbSymbolTableRecord
100
AcDbLayerTableRecord
  2
Defpoints
 70
     0
 62
     7
  6
CONTINUOUS
290
     0
370
    -3
390
F
  0
LAYER
  5
179
330
2
100
AcDbSymbolTableRecord
100
AcDbLayerTableRecord
  2
製品
 70
     0
 62
     7
  6
CONTINUOUS
370
    -3
390
F
  0
LAYER
  5
6B9F
330
2
100
AcDbSymbolTableRecord
100
AcDbLayerTableRecord
  2
寸法
 70
     0
 62
     7
  6
CONTINUOUS
370
    -3
390
F
  0
LAYER
  5
6BA0
330
2
100
AcDbSymbolTableRecord
100
AcDbLayerTableRecord
  2
図面枠
 70
     0
 62
     7
  6
CONTINUOUS
370
    -3
390
F
  0
ENDTAB
  0
TABLE
  2
STYLE
  5
3
330
0
100
AcDbSymbolTable
 70
     5
  0
STYLE
  5
11
330
3
100
AcDbSymbolTableRecord
100
AcDbTextStyleTableRecord
  2
STANDARD
 70
     0
 40
0.0
 41
1.0
 50
0.0
 71
     0
 42
0.2
  3
txt
  4
bigfont.shx
  0
STYLE
  5
53
330
3
100
AcDbSymbolTableRecord
100
AcDbTextStyleTableRecord
  2
TATEGAKI
 70
     4
 40
0.0
 41
1.0
 50
0.0
 71
     0
 42
1.0
  3
txt
  4
bigfont.shx
  0
STYLE
  5
123
330
3
100
AcDbSymbolTableRecord
100
AcDbTextStyleTableRecord
  2
ACAD
 70
     0
 40
3.0
 41
0.8
 50
0.0
 71
     0
 42
5.0
  3
romans.shx
  4
extfont.shx
  0
STYLE
  5
3A5F
330
3
100
AcDbSymbolTableRecord
100
AcDbTextStyleTableRecord
  2
VERTXT
 70
     4
 40
0.0
 41
0.8582679999999999
 50
0.0
 71
     0
 42
3.5
  3
txt.shx
  4
BIGFONT
  0
STYLE
  5
6BA1
330
3
100
AcDbSymbolTableRecord
100
AcDbTextStyleTableRecord
  2
STANDARD2
 70
     0
 40
0.0
 41
0.8582679999999999
 50
0.0
 71
     0
 42
3.5
  3
txt.shx
  4
EXTFONT
  0
ENDTAB
  0
TABLE
  2
VIEW
  5
6
330
0
100
AcDbSymbolTable
 70
     0
  0
ENDTAB
  0
TABLE
  2
UCS
  5
7
330
0
100
AcDbSymbolTable
 70
     0
  0
ENDTAB
  0
TABLE
  2
APPID
  5
9
330
0
100
AcDbSymbolTable
 70
     1
  0
APPID
  5
12
330
9
100
AcDbSymbolTableRecord
100
AcDbRegAppTableRecord
  2
ACAD
 70
     0
  0
ENDTAB
  0
TABLE
  2
DIMSTYLE
  5
A
330
0
100
AcDbSymbolTable
 70
     3
100
AcDbDimStyleTable
 71
     1
340
126
  0
DIMSTYLE
105
11C
330
A
100
AcDbSymbolTableRecord
100
AcDbDimStyleTableRecord
  2
Standard
 70
     0
340
11
  0
DIMSTYLE
105
126
102
{ACAD_REACTORS
330
702B
330
702C
330
7040
330
7132
330
71AE
330
71B2
330
71BB
102
}
330
A
100
AcDbSymbolTableRecord
100
AcDbDimStyleTableRecord
  2
AutoCAD
 70
     0
 41
1.0
 42
0.0
 44
0.0
 73
     0
 77
     1
140
3.0
147
1.0
174
     1
176
     4
177
     4
178
     3
271
     0
272
     0
289
     0
340
123
341
15B0
342
11E
  0
DIMSTYLE
105
2CBB
330
A
100
AcDbSymbolTableRecord
100
AcDbDimStyleTableRecord
  2
111
 70
     0
 41
1.0
 42
0.0
 44
0.0
 73
     0
 77
     1
140
5.0
147
1.0
174
     1
176
     4
177
     4
178
     3
271
     0
272
     0
289
     0
340
123
341
15B0
342
2CB5
  0
ENDTAB
  0
TABLE
  2
BLOCK_RECORD
  5
1
330
0
100
AcDbSymbolTable
 70
    11
  0
BLOCK_RECORD
  5
1E
102
{ACAD_XDICTIONARY
360
28B
102
}
330
1
100
AcDbSymbolTableRecord
100
AcDbBlockTableRecord
  2
*Model_Space
340
21
  0
BLOCK_RECORD
  5
1A
102
{ACAD_XDICTIONARY
360
28D
102
}
330
1
100
AcDbSymbolTableRecord
100
AcDbBlockTableRecord
  2
*Paper_Space
340
1D
  0
BLOCK_RECORD
  5
11E
330
1
100
AcDbSymbolTableRecord
100
AcDbBlockTableRecord
  2
_Dot
340
0
102
{BLKREFS
331
784C
331
784D
331
7855
331
7856
331
785E
331
785F
331
7867
331
7868
331
7870
331
7871
331
7879
331
787A
331
7882
331
7883
102
}
  0
BLOCK_RECORD
  5
15B0
330
1
100
AcDbSymbolTableRecord
100
AcDbBlockTableRecord
  2
_None
340
0
  0
BLOCK_RECORD
  5
2CB5
330
1
100
AcDbSymbolTableRecord
100
AcDbBlockTableRecord
  2
_Open30
340
0
  0
BLOCK_RECORD
  5
35E3
330
1
100
AcDbSymbolTableRecord
100
AcDbBlockTableRecord
  2
_DotBlank
340
0
  0
BLOCK_RECORD
  5
74B0
330
1
100
AcDbSymbolTableRecord
100
AcDbBlockTableRecord
  2
*D4
340
0
  0
BLOCK_RECORD
  5
74BC
330
1
100
AcDbSymbolTableRecord
100
AcDbBlockTableRecord
  2
*D5
340
0
  0
BLOCK_RECORD
  5
74C8
330
1
100
AcDbSymbolTableRecord
100
AcDbBlockTableRecord
  2
*D6
340
0
  0
BLOCK_RECORD
  5
74D4
330
1
100
AcDbSymbolTableRecord
100
AcDbBlockTableRecord
  2
*D7
340
0
  0
BLOCK_RECORD
  5
74E0
330
1
100
AcDbSymbolTableRecord
100
AcDbBlockTableRecord
  2
*D8
340
0
  0
BLOCK_RECORD
  5
74EC
330
1
100
AcDbSymbolTableRecord
100
AcDbBlockTableRecord
  2
*D9
340
0
  0
BLOCK_RECORD
  5
74F8
330
1
100
AcDbSymbolTableRecord
100
AcDbBlockTableRecord
  2
*D10
340
0
  0
ENDTAB
  0
ENDSEC
  0
SECTION
  2
BLOCKS
  0
BLOCK
  5
1F
330
1E
100
AcDbEntity
  8
0
100
AcDbBlockBegin
  2
*Model_Space
 70
     0
 10
0.0
 20
0.0
 30
0.0
  3
*Model_Space
  1

  0
ENDBLK
  5
20
330
1E
100
AcDbEntity
  8
0
100
AcDbBlockEnd
  0
BLOCK
  5
1B
330
1A
100
AcDbEntity
 67
     1
  8
0
100
AcDbBlockBegin
  2
*Paper_Space
 70
     0
 10
0.0
 20
0.0
 30
0.0
  3
*Paper_Space
  1

  0
ENDBLK
  5
1C
330
1A
100
AcDbEntity
 67
     1
  8
0
100
AcDbBlockEnd
  0
BLOCK
  5
121
330
11E
100
AcDbEntity
  8
0
100
AcDbBlockBegin
  2
_Dot
 70
     0
 10
0.0
 20
0.0
 30
0.0
  3
_Dot
  1

  0
LWPOLYLINE
  5
11F
330
11E
100
AcDbEntity
  8
0
  6
ByBlock
 62
     0
100
AcDbPolyline
 90
        2
 70
     1
 43
0.5
 10
-0.25
 20
0.0
 42
1.0
 10
0.25
 20
0.0
 42
1.0
  0
LINE
  5
120
330
11E
100
AcDbEntity
  8
0
  6
ByBlock
 62
     0
370
    -2
100
AcDbLine
 10
-0.5
 20
0.0
 30
0.0
 11
-1.0
 21
0.0
 31
0.0
  0
ENDBLK
  5
122
330
11E
100
AcDbEntity
  8
0
100
AcDbBlockEnd
  0
BLOCK
  5
15B1
330
15B0
100
AcDbEntity
  8
0
100
AcDbBlockBegin
  2
_None
 70
     0
 10
0.0
 20
0.0
 30
0.0
  3
_None
  1

  0
ENDBLK
  5
15B2
330
15B0
100
AcDbEntity
  8
0
100
AcDbBlockEnd
  0
BLOCK
  5
2CB9
330
2CB5
100
AcDbEntity
  8
0
100
AcDbBlockBegin
  2
_Open30
 70
     0
 10
0.0
 20
0.0
 30
0.0
  3
_Open30
  1

  0
LINE
  5
2CB6
330
2CB5
100
AcDbEntity
  8
0
  6
ByBlock
 62
     0
370
    -2
100
AcDbLine
 10
-1.0
 20
0.26794919
 30
0.0
 11
0.0
 21
0.0
 31
0.0
  0
LINE
  5
2CB7
330
2CB5
100
AcDbEntity
  8
0
  6
ByBlock
 62
     0
370
    -2
100
AcDbLine
 10
0.0
 20
0.0
 30
0.0
 11
-1.0
 21
-0.26794919
 31
0.0
  0
LINE
  5
2CB8
330
2CB5
100
AcDbEntity
  8
0
  6
ByBlock
 62
     0
370
    -2
100
AcDbLine
 10
0.0
 20
0.0
 30
0.0
 11
-1.0
 21
0.0
 31
0.0
  0
ENDBLK
  5
2CBA
330
2CB5
100
AcDbEntity
  8
0
100
AcDbBlockEnd
  0
BLOCK
  5
35E6
330
35E3
100
AcDbEntity
  8
0
100
AcDbBlockBegin
  2
_DotBlank
 70
     0
 10
0.0
 20
0.0
 30
0.0
  3
_DotBlank
  1

  0
CIRCLE
  5
35E4
330
35E3
100
AcDbEntity
  8
0
  6
ByBlock
 62
     0
370
    -2
100
AcDbCircle
 10
0.0
 20
0.0
 30
0.0
 40
0.5
  0
LINE
  5
35E5
330
35E3
100
AcDbEntity
  8
0
  6
ByBlock
 62
     0
370
    -2
100
AcDbLine
 10
-0.5
 20
0.0
 30
0.0
 11
-1.0
 21
0.0
 31
0.0
  0
ENDBLK
  5
35E7
330
35E3
100
AcDbEntity
  8
0
100
AcDbBlockEnd
  0
BLOCK
  5
74BA
330
74B0
100
AcDbEntity
  8
0
100
AcDbBlockBegin
  2
*D4
 70
     1
 10
0.0
 20
0.0
 30
0.0
  3
*D4
  1

  0
LINE
  5
7849
330
74B0
100
AcDbEntity
  8
寸法
  6
Continuous
 62
     4
370
    -2
100
AcDbLine
 10
262.4361414381148
 20
137.352295228429
 30
0.0
 11
262.4361414381148
 21
111.3611342284291
 31
0.0
  0
LINE
  5
784A
330
74B0
100
AcDbEntity
  8
寸法
  6
Continuous
 62
     4
370
    -2
100
AcDbLine
 10
412.4364684381145
 20
137.352295228429
 30
0.0
 11
412.4364684381145
 21
111.3611342284291
 31
0.0
  0
LINE
  5
784B
330
74B0
100
AcDbEntity
  8
寸法
  6
Continuous
 62
     4
370
    -2
100
AcDbLine
 10
263.4361414381148
 20
111.3611342284291
 30
0.0
 11
411.4364684381144
 21
111.3611342284291
 31
0.0
  0
INSERT
  5
784C
330
74B0
100
AcDbEntity
  8
寸法
  6
Continuous
 62
     4
370
    -2
100
AcDbBlockReference
  2
_Dot
 10
262.4361414381148
 20
111.3611342284291
 30
0.0
 50
180.0
  0
INSERT
  5
784D
330
74B0
100
AcDbEntity
  8
寸法
  6
Continuous
 62
     4
370
    -2
100
AcDbBlockReference
  2
_Dot
 10
412.4364684381145
 20
111.3611342284291
 30
0.0
  0
MTEXT
  5
784E
330
74B0
100
AcDbEntity
  8
寸法
  6
Continuous
 62
     3
100
AcDbMText
 10
337.4363049381146
 20
113.6611342284291
 30
0.0
 40
3.0
 41
0.0
 71
     5
 72
     1
  1
\A1;750
  7
ACAD
 73
     1
 44
1.0
1001
ACAD
1000
MTEXTBEGIN
1070
    73
1070
     1
1070
    44
1040
1.0
1070
    74
1070
     0
1000
MTEXTEND
  0
POINT
  5
784F
330
74B0
100
AcDbEntity
  8
Defpoints
  6
Continuous
 62
     0
100
AcDbPoint
 10
262.4361414381148
 20
137.352295228429
 30
0.0
  0
POINT
  5
7850
330
74B0
100
AcDbEntity
  8
Defpoints
  6
Continuous
 62
     0
100
AcDbPoint
 10
412.4364684381145
 20
137.352295228429
 30
0.0
  0
POINT
  5
7851
330
74B0
100
AcDbEntity
  8
Defpoints
  6
Continuous
 62
     0
100
AcDbPoint
 10
412.4364684381145
 20
111.3611342284291
 30
0.0
  0
ENDBLK
  5
74BB
330
74B0
100
AcDbEntity
  8
0
100
AcDbBlockEnd
  0
BLOCK
  5
74C6
330
74BC
100
AcDbEntity
  8
0
100
AcDbBlockBegin
  2
*D5
 70
     1
 10
0.0
 20
0.0
 30
0.0
  3
*D5
  1

  0
LINE
  5
7852
330
74BC
100
AcDbEntity
  8
寸法
  6
Continuous
 62
     4
370
    -2
100
AcDbLine
 10
216.2502474381146
 20
139.2313712284287
 30
0.0
 11
216.2502474381146
 21
120.030905228429
 31
0.0
  0
LINE
  5
7853
330
74BC
100
AcDbEntity
  8
寸法
  6
Continuous
 62
     4
370
    -2
100
AcDbLine
 10
276.8503804381145
 20
139.2313712284287
 30
0.0
 11
276.8503804381145
 21
120.030905228429
 31
0.0
  0
LINE
  5
7854
330
74BC
100
AcDbEntity
  8
寸法
  6
Continuous
 62
     4
370
    -2
100
AcDbLine
 10
217.2502474381146
 20
120.030905228429
 30
0.0
 11
275.8503804381145
 21
120.030905228429
 31
0.0
  0
INSERT
  5
7855
330
74BC
100
AcDbEntity
  8
寸法
  6
Continuous
 62
     4
370
    -2
100
AcDbBlockReference
  2
_Dot
 10
216.2502474381146
 20
120.030905228429
 30
0.0
 50
180.0
  0
INSERT
  5
7856
330
74BC
100
AcDbEntity
  8
寸法
  6
Continuous
 62
     4
370
    -2
100
AcDbBlockReference
  2
_Dot
 10
276.8503804381145
 20
120.030905228429
 30
0.0
  0
MTEXT
  5
7857
330
74BC
100
AcDbEntity
  8
寸法
  6
Continuous
 62
     3
100
AcDbMText
 10
246.5503139381145
 20
122.330905228429
 30
0.0
 40
3.0
 41
0.0
 71
     5
 72
     1
  1
\A1;303
  7
ACAD
 73
     1
 44
1.0
1001
ACAD
1000
MTEXTBEGIN
1070
    73
1070
     1
1070
    44
1040
1.0
1070
    74
1070
     0
1000
MTEXTEND
  0
POINT
  5
7858
330
74BC
100
AcDbEntity
  8
Defpoints
  6
Continuous
 62
     0
100
AcDbPoint
 10
216.2502474381146
 20
139.2313712284287
 30
0.0
  0
POINT
  5
7859
330
74BC
100
AcDbEntity
  8
Defpoints
  6
Continuous
 62
     0
100
AcDbPoint
 10
276.8503804381145
 20
139.2313712284287
 30
0.0
  0
POINT
  5
785A
330
74BC
100
AcDbEntity
  8
Defpoints
  6
Continuous
 62
     0
100
AcDbPoint
 10
276.8503804381145
 20
120.030905228429
 30
0.0
  0
ENDBLK
  5
74C7
330
74BC
100
AcDbEntity
  8
0
100
AcDbBlockEnd
  0
BLOCK
  5
74D2
330
74C8
100
AcDbEntity
  8
0
100
AcDbBlockBegin
  2
*D6
 70
     1
 10
0.0
 20
0.0
 30
0.0
  3
*D6
  1

  0
LINE
  5
785B
330
74C8
100
AcDbEntity
  8
寸法
  6
Continuous
 62
     4
370
    -2
100
AcDbLine
 10
200.5415984381149
 20
239.1834052284291
 30
0.0
 11
168.5467224381147
 21
239.1834052284292
 31
0.0
  0
LINE
  5
785C
330
74C8
100
AcDbEntity
  8
寸法
  6
Continuous
 62
     4
370
    -2
100
AcDbLine
 10
200.5415984381149
 20
147.8228552284288
 30
0.0
 11
168.5467224381147
 21
147.8228552284288
 31
0.0
  0
LINE
  5
785D
330
74C8
100
AcDbEntity
  8
寸法
  6
Continuous
 62
     4
370
    -2
100
AcDbLine
 10
168.5467224381147
 20
238.1834052284292
 30
0.0
 11
168.5467224381147
 21
148.8228552284288
 31
0.0
  0
INSERT
  5
785E
330
74C8
100
AcDbEntity
  8
寸法
  6
Continuous
 62
     4
370
    -2
100
AcDbBlockReference
  2
_Dot
 10
168.5467224381147
 20
239.1834052284292
 30
0.0
 50
90.0
  0
INSERT
  5
785F
330
74C8
100
AcDbEntity
  8
寸法
  6
Continuous
 62
     4
370
    -2
100
AcDbBlockReference
  2
_Dot
 10
168.5467224381147
 20
147.8228552284288
 30
0.0
 50
270.0
  0
MTEXT
  5
7860
330
74C8
100
AcDbEntity
  8
寸法
  6
Continuous
 62
     3
100
AcDbMText
 10
166.2467224381146
 20
193.503130228429
 30
0.0
 40
3.0
 41
0.0
 71
     5
 72
     1
  1
\A1;500以内
  7
ACAD
 11
0.0000000000000001
 21
1.0
 31
0.0
 73
     1
 44
1.0
1001
ACAD
1000
MTEXTBEGIN
1070
    73
1070
     1
1070
    44
1040
1.0
1070
    74
1070
     0
1000
MTEXTEND
  0
POINT
  5
7861
330
74C8
100
AcDbEntity
  8
Defpoints
  6
Continuous
 62
     0
100
AcDbPoint
 10
200.5415984381149
 20
239.1834052284291
 30
0.0
  0
POINT
  5
7862
330
74C8
100
AcDbEntity
  8
Defpoints
  6
Continuous
 62
     0
100
AcDbPoint
 10
200.5415984381149
 20
147.8228552284288
 30
0.0
  0
POINT
  5
7863
330
74C8
100
AcDbEntity
  8
Defpoints
  6
Continuous
 62
     0
100
AcDbPoint
 10
168.5467224381147
 20
147.8228552284288
 30
0.0
  0
ENDBLK
  5
74D3
330
74C8
100
AcDbEntity
  8
0
100
AcDbBlockEnd
  0
BLOCK
  5
74DE
330
74D4
100
AcDbEntity
  8
0
100
AcDbBlockBegin
  2
*D7
 70
     1
 10
0.0
 20
0.0
 30
0.0
  3
*D7
  1

  0
LINE
  5
7864
330
74D4
100
AcDbEntity
  8
寸法
  6
Continuous
 62
     4
370
    -2
100
AcDbLine
 10
200.5415984381149
 20
296.136073228429
 30
0.0
 11
168.5467224381147
 21
296.136073228429
 31
0.0
  0
LINE
  5
7865
330
74D4
100
AcDbEntity
  8
寸法
  6
Continuous
 62
     4
370
    -2
100
AcDbLine
 10
200.5415984381149
 20
239.1834052284291
 30
0.0
 11
168.5467224381147
 21
239.1834052284292
 31
0.0
  0
LINE
  5
7866
330
74D4
100
AcDbEntity
  8
寸法
  6
Continuous
 62
     4
370
    -2
100
AcDbLine
 10
168.5467224381147
 20
295.136073228429
 30
0.0
 11
168.5467224381147
 21
240.1834052284292
 31
0.0
  0
INSERT
  5
7867
330
74D4
100
AcDbEntity
  8
寸法
  6
Continuous
 62
     4
370
    -2
100
AcDbBlockReference
  2
_Dot
 10
168.5467224381147
 20
296.136073228429
 30
0.0
 50
90.0
  0
INSERT
  5
7868
330
74D4
100
AcDbEntity
  8
寸法
  6
Continuous
 62
     4
370
    -2
100
AcDbBlockReference
  2
_Dot
 10
168.5467224381147
 20
239.1834052284292
 30
0.0
 50
270.0
  0
MTEXT
  5
7869
330
74D4
100
AcDbEntity
  8
寸法
  6
Continuous
 62
     3
100
AcDbMText
 10
166.2467224381146
 20
267.6597392284291
 30
0.0
 40
3.0
 41
0.0
 71
     5
 72
     1
  1
\A1;500以内
  7
ACAD
 11
0.0000000000000001
 21
1.0
 31
0.0
 73
     1
 44
1.0
1001
ACAD
1000
MTEXTBEGIN
1070
    73
1070
     1
1070
    44
1040
1.0
1070
    74
1070
     0
1000
MTEXTEND
  0
POINT
  5
786A
330
74D4
100
AcDbEntity
  8
Defpoints
  6
Continuous
 62
     0
100
AcDbPoint
 10
200.5415984381149
 20
296.136073228429
 30
0.0
  0
POINT
  5
786B
330
74D4
100
AcDbEntity
  8
Defpoints
  6
Continuous
 62
     0
100
AcDbPoint
 10
200.5415984381149
 20
239.1834052284291
 30
0.0
  0
POINT
  5
786C
330
74D4
100
AcDbEntity
  8
Defpoints
  6
Continuous
 62
     0
100
AcDbPoint
 10
168.5467224381147
 20
239.1834052284292
 30
0.0
  0
ENDBLK
  5
74DF
330
74D4
100
AcDbEntity
  8
0
100
AcDbBlockEnd
  0
BLOCK
  5
74EA
330
74E0
100
AcDbEntity
  8
0
100
AcDbBlockBegin
  2
*D8
 70
     1
 10
0.0
 20
0.0
 30
0.0
  3
*D8
  1

  0
LINE
  5
786D
330
74E0
100
AcDbEntity
  8
寸法
  6
Continuous
 62
     4
370
    -2
100
AcDbLine
 10
398.0506444381146
 20
139.2313712284287
 30
0.0
 11
398.0506444381146
 21
120.030905228429
 31
0.0
  0
LINE
  5
786E
330
74E0
100
AcDbEntity
  8
寸法
  6
Continuous
 62
     4
370
    -2
100
AcDbLine
 10
458.6507774381145
 20
139.2313712284287
 30
0.0
 11
458.6507774381145
 21
120.030905228429
 31
0.0
  0
LINE
  5
786F
330
74E0
100
AcDbEntity
  8
寸法
  6
Continuous
 62
     4
370
    -2
100
AcDbLine
 10
399.0506444381145
 20
120.030905228429
 30
0.0
 11
457.6507774381144
 21
120.030905228429
 31
0.0
  0
INSERT
  5
7870
330
74E0
100
AcDbEntity
  8
寸法
  6
Continuous
 62
     4
370
    -2
100
AcDbBlockReference
  2
_Dot
 10
398.0506444381146
 20
120.030905228429
 30
0.0
 50
180.0
  0
INSERT
  5
7871
330
74E0
100
AcDbEntity
  8
寸法
  6
Continuous
 62
     4
370
    -2
100
AcDbBlockReference
  2
_Dot
 10
458.6507774381145
 20
120.030905228429
 30
0.0
  0
MTEXT
  5
7872
330
74E0
100
AcDbEntity
  8
寸法
  6
Continuous
 62
     3
100
AcDbMText
 10
428.3507109381145
 20
122.330905228429
 30
0.0
 40
3.0
 41
0.0
 71
     5
 72
     1
  1
\A1;303
  7
ACAD
 73
     1
 44
1.0
1001
ACAD
1000
MTEXTBEGIN
1070
    73
1070
     1
1070
    44
1040
1.0
1070
    74
1070
     0
1000
MTEXTEND
  0
POINT
  5
7873
330
74E0
100
AcDbEntity
  8
Defpoints
  6
Continuous
 62
     0
100
AcDbPoint
 10
398.0506444381146
 20
139.2313712284287
 30
0.0
  0
POINT
  5
7874
330
74E0
100
AcDbEntity
  8
Defpoints
  6
Continuous
 62
     0
100
AcDbPoint
 10
458.6507774381145
 20
139.2313712284287
 30
0.0
  0
POINT
  5
7875
330
74E0
100
AcDbEntity
  8
Defpoints
  6
Continuous
 62
     0
100
AcDbPoint
 10
458.6507774381145
 20
120.030905228429
 30
0.0
  0
ENDBLK
  5
74EB
330
74E0
100
AcDbEntity
  8
0
100
AcDbBlockEnd
  0
BLOCK
  5
74F6
330
74EC
100
AcDbEntity
  8
0
100
AcDbBlockBegin
  2
*D9
 70
     1
 10
0.0
 20
0.0
 30
0.0
  3
*D9
  1

  0
LINE
  5
7876
330
74EC
100
AcDbEntity
  8
寸法
  6
Continuous
 62
     4
370
    -2
100
AcDbLine
 10
337.4505124381145
 20
139.2313712284287
 30
0.0
 11
337.4505124381145
 21
120.030905228429
 31
0.0
  0
LINE
  5
7877
330
74EC
100
AcDbEntity
  8
寸法
  6
Continuous
 62
     4
370
    -2
100
AcDbLine
 10
398.0506444381146
 20
139.2313712284287
 30
0.0
 11
398.0506444381146
 21
120.030905228429
 31
0.0
  0
LINE
  5
7878
330
74EC
100
AcDbEntity
  8
寸法
  6
Continuous
 62
     4
370
    -2
100
AcDbLine
 10
338.4505124381145
 20
120.030905228429
 30
0.0
 11
397.0506444381145
 21
120.030905228429
 31
0.0
  0
INSERT
  5
7879
330
74EC
100
AcDbEntity
  8
寸法
  6
Continuous
 62
     4
370
    -2
100
AcDbBlockReference
  2
_Dot
 10
337.4505124381145
 20
120.030905228429
 30
0.0
 50
180.0
  0
INSERT
  5
787A
330
74EC
100
AcDbEntity
  8
寸法
  6
Continuous
 62
     4
370
    -2
100
AcDbBlockReference
  2
_Dot
 10
398.0506444381146
 20
120.030905228429
 30
0.0
  0
MTEXT
  5
787B
330
74EC
100
AcDbEntity
  8
寸法
  6
Continuous
 62
     3
100
AcDbMText
 10
367.7505784381145
 20
122.330905228429
 30
0.0
 40
3.0
 41
0.0
 71
     5
 72
     1
  1
\A1;303
  7
ACAD
 73
     1
 44
1.0
1001
ACAD
1000
MTEXTBEGIN
1070
    73
1070
     1
1070
    44
1040
1.0
1070
    74
1070
     0
1000
MTEXTEND
  0
POINT
  5
787C
330
74EC
100
AcDbEntity
  8
Defpoints
  6
Continuous
 62
     0
100
AcDbPoint
 10
337.4505124381145
 20
139.2313712284287
 30
0.0
  0
POINT
  5
787D
330
74EC
100
AcDbEntity
  8
Defpoints
  6
Continuous
 62
     0
100
AcDbPoint
 10
398.0506444381146
 20
139.2313712284287
 30
0.0
  0
POINT
  5
787E
330
74EC
100
AcDbEntity
  8
Defpoints
  6
Continuous
 62
     0
100
AcDbPoint
 10
398.0506444381146
 20
120.030905228429
 30
0.0
  0
ENDBLK
  5
74F7
330
74EC
100
AcDbEntity
  8
0
100
AcDbBlockEnd
  0
BLOCK
  5
7502
330
74F8
100
AcDbEntity
  8
0
100
AcDbBlockBegin
  2
*D10
 70
     1
 10
0.0
 20
0.0
 30
0.0
  3
*D10
  1

  0
LINE
  5
787F
330
74F8
100
AcDbEntity
  8
寸法
  6
Continuous
 62
     4
370
    -2
100
AcDbLine
 10
276.8503804381145
 20
139.2313712284287
 30
0.0
 11
276.8503804381145
 21
120.030905228429
 31
0.0
  0
LINE
  5
7880
330
74F8
100
AcDbEntity
  8
寸法
  6
Continuous
 62
     4
370
    -2
100
AcDbLine
 10
337.4505124381145
 20
139.2313712284287
 30
0.0
 11
337.4505124381145
 21
120.030905228429
 31
0.0
  0
LINE
  5
7881
330
74F8
100
AcDbEntity
  8
寸法
  6
Continuous
 62
     4
370
    -2
100
AcDbLine
 10
277.8503804381145
 20
120.030905228429
 30
0.0
 11
336.4505124381145
 21
120.030905228429
 31
0.0
  0
INSERT
  5
7882
330
74F8
100
AcDbEntity
  8
寸法
  6
Continuous
 62
     4
370
    -2
100
AcDbBlockReference
  2
_Dot
 10
276.8503804381145
 20
120.030905228429
 30
0.0
 50
180.0
  0
INSERT
  5
7883
330
74F8
100
AcDbEntity
  8
寸法
  6
Continuous
 62
     4
370
    -2
100
AcDbBlockReference
  2
_Dot
 10
337.4505124381145
 20
120.030905228429
 30
0.0
  0
MTEXT
  5
7884
330
74F8
100
AcDbEntity
  8
寸法
  6
Continuous
 62
     3
100
AcDbMText
 10
307.1504464381145
 20
122.330905228429
 30
0.0
 40
3.0
 41
0.0
 71
     5
 72
     1
  1
\A1;303
  7
ACAD
 73
     1
 44
1.0
1001
ACAD
1000
MTEXTBEGIN
1070
    73
1070
     1
1070
    44
1040
1.0
1070
    74
1070
     0
1000
MTEXTEND
  0
POINT
  5
7885
330
74F8
100
AcDbEntity
  8
Defpoints
  6
Continuous
 62
     0
100
AcDbPoint
 10
276.8503804381145
 20
139.2313712284287
 30
0.0
  0
POINT
  5
7886
330
74F8
100
AcDbEntity
  8
Defpoints
  6
Continuous
 62
     0
100
AcDbPoint
 10
337.4505124381145
 20
139.2313712284287
 30
0.0
  0
POINT
  5
7887
330
74F8
100
AcDbEntity
  8
Defpoints
  6
Continuous
 62
     0
100
AcDbPoint
 10
337.4505124381145
 20
120.030905228429
 30
0.0
  0
ENDBLK
  5
7503
330
74F8
100
AcDbEntity
  8
0
100
AcDbBlockEnd
  0
ENDSEC
  0
SECTION
  2
ENTITIES
  0
DIMENSION
  5
702B
330
1E
100
AcDbEntity
  8
寸法
  6
Continuous
100
AcDbDimension
  2
*D4
 10
412.4364684381145
 20
111.3611342284291
 30
0.0
 11
337.4363049381146
 21
113.6611342284291
 31
0.0
 70
    32
  1
750
 71
     5
 42
150.0003269999997
  3
AutoCAD
100
AcDbAlignedDimension
 13
262.4361414381148
 23
137.352295228429
 33
0.0
 14
412.4364684381145
 24
137.352295228429
 34
0.0
100
AcDbRotatedDimension
1001
ACAD
1000
DSTYLE
1002
{
1070
   147
1040
0.8
1070
   140
1040
10.0
1002
}
  0
DIMENSION
  5
702C
330
1E
100
AcDbEntity
  8
寸法
  6
Continuous
100
AcDbDimension
  2
*D5
 10
276.8503804381145
 20
120.030905228429
 30
0.0
 11
246.5503139381145
 21
122.330905228429
 31
0.0
 70
    32
  1
303
 71
     5
 42
60.60013299999991
  3
AutoCAD
100
AcDbAlignedDimension
 13
216.2502474381146
 23
139.2313712284287
 33
0.0
 14
276.8503804381145
 24
139.2313712284287
 34
0.0
100
AcDbRotatedDimension
1001
ACAD
1000
DSTYLE
1002
{
1070
   147
1040
0.8
1070
   140
1040
10.0
1002
}
  0
TEXT
  5
702D
330
1E
100
AcDbEntity
  8
図面枠
  6
Continuous
 62
     3
100
AcDbText
 10
253.8528814381149
 20
298.9134842284291
 30
0.0
 40
3.0
  1
インサ－ト　１／２
 41
0.8
  7
ACAD
100
AcDbText
  0
LINE
  5
702E
330
1E
100
AcDbEntity
  8
図面枠
  6
Continuous
 62
     3
100
AcDbLine
 10
271.6881384381146
 20
207.4133522284289
 30
0.0
 11
294.5615844381147
 21
207.4133522284289
 31
0.0
  0
TEXT
  5
702F
330
1E
100
AcDbEntity
  8
図面枠
  6
Continuous
 62
     3
100
AcDbText
 10
271.6827154381145
 20
208.413332228429
 30
0.0
 40
3.0
  1
吊りボルト　１／２
 41
0.8
  7
ACAD
100
AcDbText
  0
ARC
  5
7030
330
1E
100
AcDbEntity
  8
製品
  6
Continuous
 62
     3
100
AcDbCircle
 10
272.8986864381146
 20
162.8206882284291
 30
0.0
 40
1.0
100
AcDbArc
 50
90.0
 51
180.0
  0
LINE
  5
7031
330
1E
100
AcDbEntity
  8
製品
  6
Continuous
 62
     3
100
AcDbLine
 10
272.4586864381146
 20
158.020688228429
 30
0.0
 11
271.8986864381146
 21
158.020688228429
 31
0.0
  0
ARC
  5
7032
330
1E
100
AcDbEntity
  8
製品
  6
Continuous
 62
     2
100
AcDbCircle
 10
272.1986864381148
 20
152.520688228429
 30
0.0
 40
0.3
100
AcDbArc
 50
90.0
 51
180.0
  0
ARC
  5
7033
330
1E
100
AcDbEntity
  8
製品
  6
Continuous
 62
     2
100
AcDbCircle
 10
272.1986864381148
 20
152.520688228429
 30
0.0
 40
0.3
100
AcDbArc
 50
90.0
 51
180.0
  0
LINE
  5
7034
330
1E
100
AcDbEntity
  8
製品
  6
Continuous
 62
     4
100
AcDbLine
 10
273.0986864381149
 20
152.8206882284291
 30
0.0
 11
265.0442634381148
 21
152.8206882284291
 31
0.0
  0
LINE
  5
7035
330
1E
100
AcDbEntity
  8
製品
  6
Continuous
 62
     3
100
AcDbLine
 10
271.8986864381146
 20
160.8206882284291
 30
0.0
 11
281.8986864381146
 21
160.8206882284291
 31
0.0
  0
LINE
  5
7036
330
1E
100
AcDbEntity
  8
図面枠
  6
Continuous
 62
     3
100
AcDbLine
 10
264.7319884381146
 20
170.6859912284287
 30
0.0
 11
274.2344374381147
 21
179.7606492284287
 31
0.0
  0
ARC
  5
7037
330
1E
100
AcDbEntity
  8
製品
  6
Continuous
 62
     2
100
AcDbCircle
 10
272.4986864381145
 20
148.420688228429
 30
0.0
 40
0.5
100
AcDbArc
 50
180.0
 51
270.0
  0
ARC
  5
7038
330
1E
100
AcDbEntity
  8
製品
  6
Continuous
 62
     2
100
AcDbCircle
 10
272.4986864381145
 20
148.420688228429
 30
0.0
 40
0.6
100
AcDbArc
 50
180.0
 51
270.0
  0
LINE
  5
7039
330
1E
100
AcDbEntity
  8
製品
  6
Continuous
 62
     7
100
AcDbLine
 10
203.0415984381149
 20
296.136073228429
 30
0.0
 11
464.0890614381147
 21
296.136073228429
 31
0.0
  0
LINE
  5
703A
330
1E
100
AcDbEntity
  8
製品
  6
Continuous
 62
     3
100
AcDbLine
 10
427.4985544381144
 20
239.1834052284291
 30
0.0
 11
247.4985544381149
 21
239.1834052284291
 31
0.0
  0
LINE
  5
703B
330
1E
100
AcDbEntity
  8
製品
  6
Continuous
 62
     3
100
AcDbLine
 10
247.4985544381149
 20
246.1434052284292
 30
0.0
 11
427.4985544381144
 21
246.1434052284292
 31
0.0
  0
LINE
  5
703C
330
1E
100
AcDbEntity
  8
製品
  6
Continuous
 62
     3
100
AcDbLine
 10
247.4985544381149
 20
238.863405228429
 30
0.0
 11
427.4985544381144
 21
238.863405228429
 31
0.0
  0
LINE
  5
703D
330
1E
100
AcDbEntity
  8
製品
  6
Continuous
 62
     3
100
AcDbLine
 10
247.4985544381149
 20
246.4634052284289
 30
0.0
 11
427.4985544381144
 21
246.4634052284289
 31
0.0
  0
LINE
  5
703E
330
1E
100
AcDbEntity
  8
製品
  6
Continuous
 62
     4
100
AcDbLine
 10
473.6008784381148
 20
145.9228552284292
 30
0.0
 11
203.0415984381149
 21
145.9228552284292
 31
0.0
  0
LINE
  5
703F
330
1E
100
AcDbEntity
  8
製品
  6
Continuous
 62
     4
100
AcDbLine
 10
473.6008784381148
 20
147.8228552284288
 30
0.0
 11
203.0415984381149
 21
147.8228552284288
 31
0.0
  0
DIMENSION
  5
7040
330
1E
100
AcDbEntity
  8
寸法
  6
Continuous
100
AcDbDimension
  2
*D6
 10
168.5467224381147
 20
147.8228552284288
 30
0.0
 11
166.2467224381146
 21
193.503130228429
 31
0.0
 70
    32
  1
500以内
 71
     5
 42
91.36055000000032
  3
AutoCAD
100
AcDbAlignedDimension
 13
200.5415984381149
 23
239.1834052284291
 33
0.0
 14
200.5415984381149
 24
147.8228552284288
 34
0.0
 50
90.0
100
AcDbRotatedDimension
1001
ACAD
1000
DSTYLE
1002
{
1070
   140
1040
10.0
1070
   147
1040
0.8
1070
   279
1070
     1
1070
   289
1070
     3
1002
}
  0
LINE
  5
7041
330
1E
100
AcDbEntity
  8
製品
  6
Continuous
 62
     4
100
AcDbLine
 10
263.4442634381145
 20
176.288688228429
 30
0.0
 11
263.4442634381145
 21
225.279308228429
 31
0.0
  0
LINE
  5
7042
330
1E
100
AcDbEntity
  8
製品
  6
Continuous
 62
     4
100
AcDbLine
 10
261.6442634381148
 20
225.279308228429
 30
0.0
 11
261.6442634381148
 21
176.288688228429
 31
0.0
  0
LINE
  5
7043
330
1E
100
AcDbEntity
  8
製品
  6
Continuous
 62
     7
100
AcDbLine
 10
203.0415984381149
 20
296.136073228429
 30
0.0
 11
203.0415984381149
 21
89.98210322842874
 31
0.0
  0
LINE
  5
7044
330
1E
100
AcDbEntity
  8
製品
  6
Continuous
 62
     4
100
AcDbLine
 10
203.0415984381149
 20
159.6206882284289
 30
0.0
 11
211.2985544381146
 21
159.6206882284289
 31
0.0
  0
LINE
  5
7045
330
1E
100
AcDbEntity
  8
製品
  6
Continuous
 62
     4
100
AcDbLine
 10
211.2985544381146
 20
153.6206882284289
 30
0.0
 11
203.0415984381149
 21
153.6206882284289
 31
0.0
  0
LINE
  5
7046
330
1E
100
AcDbEntity
  8
製品
  6
Continuous
 62
     4
100
AcDbLine
 10
212.4985544381149
 20
152.8206882284291
 30
0.0
 11
203.0415984381149
 21
152.8206882284291
 31
0.0
  0
LINE
  5
7047
330
1E
100
AcDbEntity
  8
製品
  6
Continuous
 62
     4
100
AcDbLine
 10
203.0415984381149
 20
160.420688228429
 30
0.0
 11
211.2985544381146
 21
160.420688228429
 31
0.0
  0
LINE
  5
7048
330
1E
100
AcDbEntity
  8
製品
  6
PLINE3
 62
     3
100
AcDbLine
 10
199.2544164381148
 20
156.6206882284289
 30
0.0
 11
206.8689674381145
 21
156.6206882284289
 31
0.0
  0
LINE
  5
7049
330
1E
100
AcDbEntity
  8
製品
  6
Continuous
 62
     4
100
AcDbLine
 10
203.0415984381149
 20
153.6206882284289
 30
0.0
 11
203.0415984381149
 21
159.6206882284289
 31
0.0
  0
LINE
  5
704A
330
1E
100
AcDbEntity
  8
製品
  6
Continuous
 62
     4
100
AcDbLine
 10
260.0442634381149
 20
152.8206882284291
 30
0.0
 11
220.0985544381148
 21
152.8206882284291
 31
0.0
  0
LINE
  5
704B
330
1E
100
AcDbEntity
  8
製品
  6
Continuous
 62
     4
100
AcDbLine
 10
221.2985544381146
 20
160.420688228429
 30
0.0
 11
260.0442634381149
 21
160.420688228429
 31
0.0
  0
ARC
  5
704C
330
1E
100
AcDbEntity
  8
製品
  6
Continuous
 62
     3
100
AcDbCircle
 10
220.2985544381146
 20
162.8206882284291
 30
0.0
 40
1.0
100
AcDbArc
 50
0.0
 51
90.0
  0
LINE
  5
704D
330
1E
100
AcDbEntity
  8
製品
  6
Continuous
 62
     3
100
AcDbLine
 10
221.2985544381146
 20
158.020688228429
 30
0.0
 11
220.7385544381146
 21
158.020688228429
 31
0.0
  0
LINE
  5
704E
330
1E
100
AcDbEntity
  8
製品
  6
Continuous
 62
     3
100
AcDbLine
 10
220.6985544381147
 20
152.693893228429
 30
0.0
 11
221.0185544381149
 21
152.7196852284289
 31
0.0
  0
LINE
  5
704F
330
1E
100
AcDbEntity
  8
製品
  6
Continuous
 62
     3
100
AcDbLine
 10
221.0185544381149
 20
152.7196852284289
 30
0.0
 11
221.0185544381149
 21
152.3406882284291
 31
0.0
  0
ARC
  5
7050
330
1E
100
AcDbEntity
  8
製品
  6
Continuous
 62
     2
100
AcDbCircle
 10
220.9985544381149
 20
152.520688228429
 30
0.0
 40
0.2
100
AcDbArc
 50
0.0
 51
90.0
  0
LINE
  5
7051
330
1E
100
AcDbEntity
  8
製品
  6
Continuous
 62
     2
100
AcDbLine
 10
220.9985544381149
 20
152.7206882284288
 30
0.0
 11
220.7985544381146
 21
152.7206882284288
 31
0.0
  0
ARC
  5
7052
330
1E
100
AcDbEntity
  8
製品
  6
Continuous
 62
     2
100
AcDbCircle
 10
220.7985544381146
 20
152.520688228429
 30
0.0
 40
0.2
100
AcDbArc
 50
90.0
 51
180.0
  0
LINE
  5
7053
330
1E
100
AcDbEntity
  8
製品
  6
Continuous
 62
     2
100
AcDbLine
 10
220.5985544381148
 20
152.520688228429
 30
0.0
 11
220.5985544381148
 21
152.2206882284288
 31
0.0
  0
LINE
  5
7054
330
1E
100
AcDbEntity
  8
製品
  6
Continuous
 62
     2
100
AcDbLine
 10
220.5985544381148
 20
152.2206882284288
 30
0.0
 11
220.4985544381149
 21
152.2206882284288
 31
0.0
  0
LINE
  5
7055
330
1E
100
AcDbEntity
  8
製品
  6
Continuous
 62
     2
100
AcDbLine
 10
220.4985544381149
 20
152.2206882284288
 30
0.0
 11
220.4985544381149
 21
152.520688228429
 31
0.0
  0
ARC
  5
7056
330
1E
100
AcDbEntity
  8
製品
  6
Continuous
 62
     2
100
AcDbCircle
 10
220.7985544381146
 20
152.520688228429
 30
0.0
 40
0.3
100
AcDbArc
 50
90.0
 51
180.0
  0
LINE
  5
7057
330
1E
100
AcDbEntity
  8
製品
  6
Continuous
 62
     2
100
AcDbLine
 10
220.7985544381146
 20
152.8206882284291
 30
0.0
 11
220.9985544381149
 21
152.8206882284291
 31
0.0
  0
ARC
  5
7058
330
1E
100
AcDbEntity
  8
製品
  6
Continuous
 62
     2
100
AcDbCircle
 10
220.9985544381149
 20
152.520688228429
 30
0.0
 40
0.3
100
AcDbArc
 50
0.0
 51
90.0
  0
ARC
  5
7059
330
1E
100
AcDbEntity
  8
製品
  6
Continuous
 62
     2
100
AcDbCircle
 10
220.9985544381149
 20
152.520688228429
 30
0.0
 40
0.2
100
AcDbArc
 50
0.0
 51
90.0
  0
LINE
  5
705A
330
1E
100
AcDbEntity
  8
製品
  6
Continuous
 62
     2
100
AcDbLine
 10
220.9985544381149
 20
152.7206882284288
 30
0.0
 11
220.7985544381146
 21
152.7206882284288
 31
0.0
  0
ARC
  5
705B
330
1E
100
AcDbEntity
  8
製品
  6
Continuous
 62
     2
100
AcDbCircle
 10
220.7985544381146
 20
152.520688228429
 30
0.0
 40
0.2
100
AcDbArc
 50
90.0
 51
180.0
  0
LINE
  5
705C
330
1E
100
AcDbEntity
  8
製品
  6
Continuous
 62
     2
100
AcDbLine
 10
220.5985544381148
 20
152.520688228429
 30
0.0
 11
220.5985544381148
 21
152.2206882284288
 31
0.0
  0
LINE
  5
705D
330
1E
100
AcDbEntity
  8
製品
  6
Continuous
 62
     2
100
AcDbLine
 10
220.5985544381148
 20
152.2206882284288
 30
0.0
 11
220.4985544381149
 21
152.2206882284288
 31
0.0
  0
LINE
  5
705E
330
1E
100
AcDbEntity
  8
製品
  6
Continuous
 62
     2
100
AcDbLine
 10
220.4985544381149
 20
152.2206882284288
 30
0.0
 11
220.4985544381149
 21
152.520688228429
 31
0.0
  0
ARC
  5
705F
330
1E
100
AcDbEntity
  8
製品
  6
Continuous
 62
     2
100
AcDbCircle
 10
220.7985544381146
 20
152.520688228429
 30
0.0
 40
0.3
100
AcDbArc
 50
90.0
 51
180.0
  0
LINE
  5
7060
330
1E
100
AcDbEntity
  8
製品
  6
Continuous
 62
     2
100
AcDbLine
 10
220.7985544381146
 20
152.8206882284291
 30
0.0
 11
220.9985544381149
 21
152.8206882284291
 31
0.0
  0
ARC
  5
7061
330
1E
100
AcDbEntity
  8
製品
  6
Continuous
 62
     2
100
AcDbCircle
 10
220.9985544381149
 20
152.520688228429
 30
0.0
 40
0.3
100
AcDbArc
 50
0.0
 51
90.0
  0
LINE
  5
7062
330
1E
100
AcDbEntity
  8
製品
  6
Continuous
 62
     3
100
AcDbLine
 10
220.6985544381147
 20
152.3406882284291
 30
0.0
 11
220.6985544381147
 21
152.693893228429
 31
0.0
  0
ARC
  5
7063
330
1E
100
AcDbEntity
  8
製品
  6
Continuous
 62
     3
100
AcDbCircle
 10
220.7385544381146
 20
157.3806882284291
 30
0.0
 40
0.6400000000000001
100
AcDbArc
 50
90.0
 51
180.0
  0
LINE
  5
7064
330
1E
100
AcDbEntity
  8
製品
  6
Continuous
 62
     3
100
AcDbLine
 10
221.2985544381146
 20
158.020688228429
 30
0.0
 11
221.2985544381146
 21
162.8206882284291
 31
0.0
  0
LINE
  5
7065
330
1E
100
AcDbEntity
  8
製品
  6
Continuous
 62
     3
100
AcDbLine
 10
216.7639304381147
 20
163.6206882284289
 30
0.0
 11
215.5639304381149
 21
163.6206882284289
 31
0.0
  0
LINE
  5
7066
330
1E
100
AcDbEntity
  8
製品
  6
Continuous
 62
     3
100
AcDbLine
 10
216.0639304381149
 20
163.4006882284291
 30
0.0
 11
216.2639304381147
 21
163.4006882284291
 31
0.0
  0
LINE
  5
7067
330
1E
100
AcDbEntity
  8
製品
  6
Continuous
 62
     3
100
AcDbLine
 10
216.2639304381147
 20
163.4006882284291
 30
0.0
 11
216.2639304381147
 21
163.020688228429
 31
0.0
  0
LINE
  5
7068
330
1E
100
AcDbEntity
  8
製品
  6
Continuous
 62
     3
100
AcDbLine
 10
216.0639304381149
 20
163.4006882284291
 30
0.0
 11
216.0639304381149
 21
163.020688228429
 31
0.0
  0
LINE
  5
7069
330
1E
100
AcDbEntity
  8
製品
  6
Continuous
 62
     3
100
AcDbLine
 10
215.4039304381146
 20
162.7206882284288
 30
0.0
 11
215.7639304381147
 21
162.7206882284288
 31
0.0
  0
LINE
  5
706A
330
1E
100
AcDbEntity
  8
製品
  6
Continuous
 62
     3
100
AcDbLine
 10
216.9239304381146
 20
162.7206882284288
 30
0.0
 11
216.5639304381149
 21
162.7206882284288
 31
0.0
  0
ARC
  5
706B
330
1E
100
AcDbEntity
  8
製品
  6
Continuous
 62
     3
100
AcDbCircle
 10
212.2985544381146
 20
162.8206882284291
 30
0.0
 40
1.0
100
AcDbArc
 50
90.0
 51
180.0
  0
LINE
  5
706C
330
1E
100
AcDbEntity
  8
製品
  6
Continuous
 62
     3
100
AcDbLine
 10
215.0139304381147
 20
162.6206882284289
 30
0.0
 11
215.5639304381149
 21
161.6206882284289
 31
0.0
  0
LINE
  5
706D
330
1E
100
AcDbEntity
  8
製品
  6
Continuous
 62
     3
100
AcDbLine
 10
215.5639304381149
 20
161.6206882284289
 30
0.0
 11
216.7639304381147
 21
161.6206882284289
 31
0.0
  0
LINE
  5
706E
330
1E
100
AcDbEntity
  8
製品
  6
Continuous
 62
     3
100
AcDbLine
 10
216.7639304381147
 20
161.6206882284289
 30
0.0
 11
217.3139304381149
 21
162.6206882284289
 31
0.0
  0
LINE
  5
706F
330
1E
100
AcDbEntity
  8
製品
  6
Continuous
 62
     3
100
AcDbLine
 10
216.0639304381149
 20
161.7906882284289
 30
0.0
 11
216.2639304381147
 21
161.7906882284289
 31
0.0
  0
LINE
  5
7070
330
1E
100
AcDbEntity
  8
製品
  6
Continuous
 62
     3
100
AcDbLine
 10
216.2639304381147
 20
161.8406882284291
 30
0.0
 11
216.2639304381147
 21
162.2206882284288
 31
0.0
  0
ARC
  5
7071
330
1E
100
AcDbEntity
  8
製品
  6
Continuous
 62
     3
100
AcDbCircle
 10
215.7639304381147
 20
162.2206882284288
 30
0.0
 40
0.3
100
AcDbArc
 50
0.0
 51
90.0
  0
LINE
  5
7072
330
1E
100
AcDbEntity
  8
製品
  6
Continuous
 62
     3
100
AcDbLine
 10
216.0639304381149
 20
161.8406882284291
 30
0.0
 11
216.0639304381149
 21
162.2206882284288
 31
0.0
  0
LINE
  5
7073
330
1E
100
AcDbEntity
  8
製品
  6
Continuous
 62
     3
100
AcDbLine
 10
215.4039304381146
 20
162.5206882284289
 30
0.0
 11
215.7639304381147
 21
162.5206882284289
 31
0.0
  0
ARC
  5
7074
330
1E
100
AcDbEntity
  8
製品
  6
Continuous
 62
     3
100
AcDbCircle
 10
216.5639304381149
 20
162.2206882284288
 30
0.0
 40
0.3
100
AcDbArc
 50
90.0
 51
180.0
  0
LINE
  5
7075
330
1E
100
AcDbEntity
  8
製品
  6
Continuous
 62
     3
100
AcDbLine
 10
216.9239304381146
 20
162.5206882284289
 30
0.0
 11
216.5639304381149
 21
162.5206882284289
 31
0.0
  0
LINE
  5
7076
330
1E
100
AcDbEntity
  8
製品
  6
Continuous
 62
     3
100
AcDbLine
 10
216.0639304381149
 20
161.8406882284291
 30
0.0
 11
216.2639304381147
 21
161.8406882284291
 31
0.0
  0
LINE
  5
7077
330
1E
100
AcDbEntity
  8
製品
  6
Continuous
 62
     3
100
AcDbLine
 10
211.8585544381145
 20
158.020688228429
 30
0.0
 11
211.2985544381146
 21
158.020688228429
 31
0.0
  0
ARC
  5
7078
330
1E
100
AcDbEntity
  8
製品
  6
Continuous
 62
     2
100
AcDbCircle
 10
211.5985544381148
 20
152.520688228429
 30
0.0
 40
0.2
100
AcDbArc
 50
90.0
 51
180.0
  0
LINE
  5
7079
330
1E
100
AcDbEntity
  8
製品
  6
Continuous
 62
     2
100
AcDbLine
 10
211.5985544381148
 20
152.7206882284288
 30
0.0
 11
211.7985544381146
 21
152.7206882284288
 31
0.0
  0
ARC
  5
707A
330
1E
100
AcDbEntity
  8
製品
  6
Continuous
 62
     2
100
AcDbCircle
 10
211.7985544381146
 20
152.520688228429
 30
0.0
 40
0.2
100
AcDbArc
 50
0.0
 51
90.0
  0
LINE
  5
707B
330
1E
100
AcDbEntity
  8
製品
  6
Continuous
 62
     2
100
AcDbLine
 10
211.9985544381149
 20
152.520688228429
 30
0.0
 11
211.9985544381149
 21
152.2206882284288
 31
0.0
  0
LINE
  5
707C
330
1E
100
AcDbEntity
  8
製品
  6
Continuous
 62
     2
100
AcDbLine
 10
211.9985544381149
 20
152.2206882284288
 30
0.0
 11
212.0985544381148
 21
152.2206882284288
 31
0.0
  0
LINE
  5
707D
330
1E
100
AcDbEntity
  8
製品
  6
Continuous
 62
     2
100
AcDbLine
 10
212.0985544381148
 20
152.2206882284288
 30
0.0
 11
212.0985544381148
 21
152.520688228429
 31
0.0
  0
ARC
  5
707E
330
1E
100
AcDbEntity
  8
製品
  6
Continuous
 62
     2
100
AcDbCircle
 10
211.7985544381146
 20
152.520688228429
 30
0.0
 40
0.3
100
AcDbArc
 50
0.0
 51
90.0
  0
LINE
  5
707F
330
1E
100
AcDbEntity
  8
製品
  6
Continuous
 62
     2
100
AcDbLine
 10
211.7985544381146
 20
152.8206882284291
 30
0.0
 11
211.5985544381148
 21
152.8206882284291
 31
0.0
  0
ARC
  5
7080
330
1E
100
AcDbEntity
  8
製品
  6
Continuous
 62
     2
100
AcDbCircle
 10
211.5985544381148
 20
152.520688228429
 30
0.0
 40
0.3
100
AcDbArc
 50
90.0
 51
180.0
  0
LINE
  5
7081
330
1E
100
AcDbEntity
  8
製品
  6
Continuous
 62
     3
100
AcDbLine
 10
211.5785544381148
 20
152.3406882284291
 30
0.0
 11
211.5785544381148
 21
152.7196852284289
 31
0.0
  0
LINE
  5
7082
330
1E
100
AcDbEntity
  8
製品
  6
Continuous
 62
     3
100
AcDbLine
 10
211.5785544381148
 20
152.7196852284289
 30
0.0
 11
211.8985544381145
 21
152.693893228429
 31
0.0
  0
LINE
  5
7083
330
1E
100
AcDbEntity
  8
製品
  6
Continuous
 62
     3
100
AcDbLine
 10
211.8985544381145
 20
152.693893228429
 30
0.0
 11
211.8985544381145
 21
152.3406882284291
 31
0.0
  0
ARC
  5
7084
330
1E
100
AcDbEntity
  8
製品
  6
Continuous
 62
     2
100
AcDbCircle
 10
211.5985544381148
 20
152.520688228429
 30
0.0
 40
0.2
100
AcDbArc
 50
90.0
 51
180.0
  0
LINE
  5
7085
330
1E
100
AcDbEntity
  8
製品
  6
Continuous
 62
     2
100
AcDbLine
 10
211.5985544381148
 20
152.7206882284288
 30
0.0
 11
211.7985544381146
 21
152.7206882284288
 31
0.0
  0
ARC
  5
7086
330
1E
100
AcDbEntity
  8
製品
  6
Continuous
 62
     2
100
AcDbCircle
 10
211.7985544381146
 20
152.520688228429
 30
0.0
 40
0.2
100
AcDbArc
 50
0.0
 51
90.0
  0
LINE
  5
7087
330
1E
100
AcDbEntity
  8
製品
  6
Continuous
 62
     2
100
AcDbLine
 10
211.9985544381149
 20
152.520688228429
 30
0.0
 11
211.9985544381149
 21
152.2206882284288
 31
0.0
  0
LINE
  5
7088
330
1E
100
AcDbEntity
  8
製品
  6
Continuous
 62
     2
100
AcDbLine
 10
211.9985544381149
 20
152.2206882284288
 30
0.0
 11
212.0985544381148
 21
152.2206882284288
 31
0.0
  0
LINE
  5
7089
330
1E
100
AcDbEntity
  8
製品
  6
Continuous
 62
     2
100
AcDbLine
 10
212.0985544381148
 20
152.2206882284288
 30
0.0
 11
212.0985544381148
 21
152.520688228429
 31
0.0
  0
ARC
  5
708A
330
1E
100
AcDbEntity
  8
製品
  6
Continuous
 62
     2
100
AcDbCircle
 10
211.7985544381146
 20
152.520688228429
 30
0.0
 40
0.3
100
AcDbArc
 50
0.0
 51
90.0
  0
LINE
  5
708B
330
1E
100
AcDbEntity
  8
製品
  6
Continuous
 62
     2
100
AcDbLine
 10
211.7985544381146
 20
152.8206882284291
 30
0.0
 11
211.5985544381148
 21
152.8206882284291
 31
0.0
  0
ARC
  5
708C
330
1E
100
AcDbEntity
  8
製品
  6
Continuous
 62
     2
100
AcDbCircle
 10
211.5985544381148
 20
152.520688228429
 30
0.0
 40
0.3
100
AcDbArc
 50
90.0
 51
180.0
  0
LINE
  5
708D
330
1E
100
AcDbEntity
  8
製品
  6
Continuous
 62
     4
100
AcDbLine
 10
211.2985544381146
 20
159.6206882284289
 30
0.0
 11
211.2985544381146
 21
153.6206882284289
 31
0.0
  0
ARC
  5
708E
330
1E
100
AcDbEntity
  8
製品
  6
Continuous
 62
     3
100
AcDbCircle
 10
211.8585544381145
 20
157.3806882284291
 30
0.0
 40
0.6400000000000001
100
AcDbArc
 50
0.0
 51
90.0
  0
LINE
  5
708F
330
1E
100
AcDbEntity
  8
製品
  6
Continuous
 62
     3
100
AcDbLine
 10
203.8415984381146
 20
157.6206882284289
 30
0.0
 11
204.6415984381148
 21
157.6206882284289
 31
0.0
  0
CIRCLE
  5
7090
330
1E
100
AcDbEntity
  8
図面枠
  6
Continuous
 62
     3
100
AcDbCircle
 10
206.8877524381147
 20
158.656531228429
 30
0.0
 40
0.3
  0
LINE
  5
7091
330
1E
100
AcDbEntity
  8
製品
  6
Continuous
 62
     3
100
AcDbLine
 10
204.8415984381146
 20
157.420688228429
 30
0.0
 11
204.8415984381146
 21
155.8206882284291
 31
0.0
  0
LINE
  5
7092
330
1E
100
AcDbEntity
  8
製品
  6
Continuous
 62
     3
100
AcDbLine
 10
204.6415984381148
 20
155.6206882284289
 30
0.0
 11
203.8415984381146
 21
155.6206882284289
 31
0.0
  0
LINE
  5
7093
330
1E
100
AcDbEntity
  8
製品
  6
Continuous
 62
     3
100
AcDbLine
 10
203.8415984381146
 20
156.020688228429
 30
0.0
 11
204.6415984381148
 21
156.020688228429
 31
0.0
  0
LINE
  5
7094
330
1E
100
AcDbEntity
  8
製品
  6
Continuous
 62
     3
100
AcDbLine
 10
203.8415984381146
 20
157.2206882284288
 30
0.0
 11
204.6415984381148
 21
157.2206882284288
 31
0.0
  0
ARC
  5
7095
330
1E
100
AcDbEntity
  8
製品
  6
Continuous
 62
     3
100
AcDbCircle
 10
204.6415984381148
 20
155.8206882284291
 30
0.0
 40
0.2
100
AcDbArc
 50
270.0
 51
90.0
  0
ARC
  5
7096
330
1E
100
AcDbEntity
  8
製品
  6
Continuous
 62
     3
100
AcDbCircle
 10
203.8415984381146
 20
156.6206882284289
 30
0.0
 40
1.0
100
AcDbArc
 50
323.1301020000049
 51
36.86989799999509
  0
LINE
  5
7097
330
1E
100
AcDbEntity
  8
製品
  6
Continuous
 62
     3
100
AcDbLine
 10
203.8415984381146
 20
157.2206882284288
 30
0.0
 11
203.8415984381146
 21
156.020688228429
 31
0.0
  0
LINE
  5
7098
330
1E
100
AcDbEntity
  8
製品
  6
Continuous
 62
     3
100
AcDbLine
 10
203.8415984381146
 20
155.6206882284289
 30
0.0
 11
203.8415984381146
 21
156.020688228429
 31
0.0
  0
LINE
  5
7099
330
1E
100
AcDbEntity
  8
製品
  6
Continuous
 62
     4
100
AcDbLine
 10
203.8415984381146
 20
159.6206882284289
 30
0.0
 11
203.8415984381146
 21
153.6206882284289
 31
0.0
  0
ARC
  5
709A
330
1E
100
AcDbEntity
  8
製品
  6
Continuous
 62
     3
100
AcDbCircle
 10
204.6415984381148
 20
157.420688228429
 30
0.0
 40
0.2
100
AcDbArc
 50
270.0
 51
90.0
  0
LINE
  5
709B
330
1E
100
AcDbEntity
  8
製品
  6
Continuous
 62
     3
100
AcDbLine
 10
203.8415984381146
 20
157.2206882284288
 30
0.0
 11
203.8415984381146
 21
157.6206882284289
 31
0.0
  0
LINE
  5
709C
330
1E
100
AcDbEntity
  8
製品
  6
Continuous
 62
     3
100
AcDbLine
 10
211.2985544381146
 20
158.020688228429
 30
0.0
 11
211.2985544381146
 21
162.8206882284291
 31
0.0
  0
LINE
  5
709D
330
1E
100
AcDbEntity
  8
図面枠
  6
Continuous
 62
     3
100
AcDbLine
 10
206.8877524381147
 20
158.656531228429
 30
0.0
 11
215.3983904381145
 21
171.6679882284291
 31
0.0
  0
LINE
  5
709E
330
1E
100
AcDbEntity
  8
製品
  6
Continuous
 62
     3
100
AcDbLine
 10
215.5639304381149
 20
163.6206882284289
 30
0.0
 11
215.0139304381147
 21
162.6206882284289
 31
0.0
  0
LINE
  5
709F
330
1E
100
AcDbEntity
  8
製品
  6
Continuous
 62
     3
100
AcDbLine
 10
217.3139304381149
 20
162.6206882284289
 30
0.0
 11
216.7639304381147
 21
163.6206882284289
 31
0.0
  0
CIRCLE
  5
70A0
330
1E
100
AcDbEntity
  8
製品
  6
Continuous
 62
     3
100
AcDbCircle
 10
216.1639304381148
 20
162.6206882284289
 30
0.0
 40
1.0
  0
ARC
  5
70A1
330
1E
100
AcDbEntity
  8
製品
  6
Continuous
 62
     3
100
AcDbCircle
 10
215.7639304381147
 20
163.020688228429
 30
0.0
 40
0.3
100
AcDbArc
 50
270.0
 51
0.0
  0
LINE
  5
70A2
330
1E
100
AcDbEntity
  8
製品
  6
Continuous
 62
     3
100
AcDbLine
 10
216.9239304381146
 20
162.7206882284288
 30
0.0
 11
216.9239304381146
 21
162.5206882284289
 31
0.0
  0
ARC
  5
70A3
330
1E
100
AcDbEntity
  8
製品
  6
Continuous
 62
     3
100
AcDbCircle
 10
216.5639304381149
 20
163.020688228429
 30
0.0
 40
0.3
100
AcDbArc
 50
180.0
 51
270.0
  0
LINE
  5
70A4
330
1E
100
AcDbEntity
  8
製品
  6
Continuous
 62
     3
100
AcDbLine
 10
215.4039304381146
 20
162.7206882284288
 30
0.0
 11
215.4039304381146
 21
162.5206882284289
 31
0.0
  0
LINE
  5
70A5
330
1E
100
AcDbEntity
  8
製品
  6
Continuous
 62
     3
100
AcDbLine
 10
211.2985544381146
 20
160.8206882284291
 30
0.0
 11
221.2985544381146
 21
160.8206882284291
 31
0.0
  0
LINE
  5
70A6
330
1E
100
AcDbEntity
  8
製品
  6
Continuous
 62
     3
100
AcDbLine
 10
212.2985544381146
 20
163.8206882284291
 30
0.0
 11
220.2985544381146
 21
163.8206882284291
 31
0.0
  0
LINE
  5
70A7
330
1E
100
AcDbEntity
  8
図面枠
  6
Continuous
 62
     3
100
AcDbLine
 10
215.3983904381145
 20
171.6679882284291
 30
0.0
 11
236.0383904381148
 21
171.6679882284291
 31
0.0
  0
TEXT
  5
70A8
330
1E
100
AcDbEntity
  8
図面枠
  6
Continuous
 62
     3
100
AcDbText
 10
215.3983904381145
 20
172.6679932284289
 30
0.0
 40
3.0
  1
Ｌ金具　溶接止め
 41
0.8
  7
ACAD
100
AcDbText
  0
LINE
  5
70A9
330
1E
100
AcDbEntity
  8
製品
  6
Continuous
 62
     2
100
AcDbLine
 10
220.0985544381148
 20
147.8206882284291
 30
0.0
 11
219.8985544381145
 21
147.920688228429
 31
0.0
  0
LINE
  5
70AA
330
1E
100
AcDbEntity
  8
製品
  6
Continuous
 62
     2
100
AcDbLine
 10
219.8985544381145
 20
147.920688228429
 30
0.0
 11
219.5985544381148
 21
147.8206882284291
 31
0.0
  0
LINE
  5
70AB
330
1E
100
AcDbEntity
  8
製品
  6
Continuous
 62
     2
100
AcDbLine
 10
219.5985544381148
 20
147.8206882284291
 30
0.0
 11
219.2985544381146
 21
147.920688228429
 31
0.0
  0
LINE
  5
70AC
330
1E
100
AcDbEntity
  8
製品
  6
Continuous
 62
     2
100
AcDbLine
 10
219.2985544381146
 20
147.920688228429
 30
0.0
 11
218.9985544381149
 21
147.8206882284291
 31
0.0
  0
LINE
  5
70AD
330
1E
100
AcDbEntity
  8
製品
  6
Continuous
 62
     2
100
AcDbLine
 10
218.9985544381149
 20
147.8206882284291
 30
0.0
 11
218.6985544381147
 21
147.920688228429
 31
0.0
  0
LINE
  5
70AE
330
1E
100
AcDbEntity
  8
製品
  6
Continuous
 62
     2
100
AcDbLine
 10
218.6985544381147
 20
147.920688228429
 30
0.0
 11
218.3985544381145
 21
147.8206882284291
 31
0.0
  0
LINE
  5
70AF
330
1E
100
AcDbEntity
  8
製品
  6
Continuous
 62
     2
100
AcDbLine
 10
220.0985544381148
 20
147.920688228429
 30
0.0
 11
219.8985544381145
 21
148.0206882284289
 31
0.0
  0
LINE
  5
70B0
330
1E
100
AcDbEntity
  8
製品
  6
Continuous
 62
     2
100
AcDbLine
 10
219.8985544381145
 20
148.0206882284289
 30
0.0
 11
219.5985544381148
 21
147.920688228429
 31
0.0
  0
LINE
  5
70B1
330
1E
100
AcDbEntity
  8
製品
  6
Continuous
 62
     2
100
AcDbLine
 10
219.5985544381148
 20
147.920688228429
 30
0.0
 11
219.2985544381146
 21
148.0206882284289
 31
0.0
  0
LINE
  5
70B2
330
1E
100
AcDbEntity
  8
製品
  6
Continuous
 62
     2
100
AcDbLine
 10
219.2985544381146
 20
148.0206882284289
 30
0.0
 11
218.9985544381149
 21
147.920688228429
 31
0.0
  0
LINE
  5
70B3
330
1E
100
AcDbEntity
  8
製品
  6
Continuous
 62
     2
100
AcDbLine
 10
218.9985544381149
 20
147.920688228429
 30
0.0
 11
218.6985544381147
 21
148.0206882284289
 31
0.0
  0
LINE
  5
70B4
330
1E
100
AcDbEntity
  8
製品
  6
Continuous
 62
     2
100
AcDbLine
 10
218.6985544381147
 20
148.0206882284289
 30
0.0
 11
218.3985544381145
 21
147.920688228429
 31
0.0
  0
ARC
  5
70B5
330
1E
100
AcDbEntity
  8
製品
  6
Continuous
 62
     2
100
AcDbCircle
 10
220.6985544381147
 20
148.420688228429
 30
0.0
 40
0.5
100
AcDbArc
 50
270.0
 51
0.0
  0
LINE
  5
70B6
330
1E
100
AcDbEntity
  8
製品
  6
Continuous
 62
     2
100
AcDbLine
 10
220.6985544381147
 20
147.920688228429
 30
0.0
 11
220.0985544381148
 21
147.920688228429
 31
0.0
  0
ARC
  5
70B7
330
1E
100
AcDbEntity
  8
製品
  6
Continuous
 62
     2
100
AcDbCircle
 10
220.6985544381147
 20
148.420688228429
 30
0.0
 40
0.6
100
AcDbArc
 50
270.0
 51
0.0
  0
LINE
  5
70B8
330
1E
100
AcDbEntity
  8
製品
  6
Continuous
 62
     2
100
AcDbLine
 10
220.6985544381147
 20
147.8206882284291
 30
0.0
 11
220.0985544381148
 21
147.8206882284291
 31
0.0
  0
LINE
  5
70B9
330
1E
100
AcDbEntity
  8
製品
  6
Continuous
 62
     2
100
AcDbLine
 10
221.1985544381147
 20
148.420688228429
 30
0.0
 11
221.1985544381147
 21
150.5027452284291
 31
0.0
  0
LINE
  5
70BA
330
1E
100
AcDbEntity
  8
製品
  6
Continuous
 62
     2
100
AcDbLine
 10
221.2985544381146
 20
148.420688228429
 30
0.0
 11
221.2985544381146
 21
150.5027452284291
 31
0.0
  0
LINE
  5
70BB
330
1E
100
AcDbEntity
  8
製品
  6
Continuous
 62
     3
100
AcDbLine
 10
220.0985544381148
 20
152.020688228429
 30
0.0
 11
220.3785544381145
 21
152.020688228429
 31
0.0
  0
LINE
  5
70BC
330
1E
100
AcDbEntity
  8
製品
  6
Continuous
 62
     2
100
AcDbLine
 10
215.2985544381146
 20
147.8206882284291
 30
0.0
 11
216.0985544381148
 21
147.8206882284291
 31
0.0
  0
LINE
  5
70BD
330
1E
100
AcDbEntity
  8
製品
  6
Continuous
 62
     2
100
AcDbLine
 10
216.0985544381148
 20
147.8206882284291
 30
0.0
 11
216.2985544381146
 21
147.920688228429
 31
0.0
  0
LINE
  5
70BE
330
1E
100
AcDbEntity
  8
製品
  6
Continuous
 62
     2
100
AcDbLine
 10
215.2985544381146
 20
147.920688228429
 30
0.0
 11
216.0985544381148
 21
147.920688228429
 31
0.0
  0
LINE
  5
70BF
330
1E
100
AcDbEntity
  8
製品
  6
Continuous
 62
     2
100
AcDbLine
 10
216.0985544381148
 20
147.920688228429
 30
0.0
 11
216.2985544381146
 21
148.0206882284289
 31
0.0
  0
LINE
  5
70C0
330
1E
100
AcDbEntity
  8
製品
  6
Continuous
 62
     2
100
AcDbLine
 10
218.0985544381148
 20
147.920688228429
 30
0.0
 11
217.7985544381146
 21
147.8206882284291
 31
0.0
  0
LINE
  5
70C1
330
1E
100
AcDbEntity
  8
製品
  6
Continuous
 62
     2
100
AcDbLine
 10
217.7985544381146
 20
147.8206882284291
 30
0.0
 11
217.4985544381148
 21
147.920688228429
 31
0.0
  0
LINE
  5
70C2
330
1E
100
AcDbEntity
  8
製品
  6
Continuous
 62
     2
100
AcDbLine
 10
217.4985544381148
 20
147.920688228429
 30
0.0
 11
217.2985544381146
 21
147.8206882284291
 31
0.0
  0
LINE
  5
70C3
330
1E
100
AcDbEntity
  8
製品
  6
Continuous
 62
     2
100
AcDbLine
 10
217.2985544381146
 20
147.8206882284291
 30
0.0
 11
216.4985544381149
 21
147.8206882284291
 31
0.0
  0
LINE
  5
70C4
330
1E
100
AcDbEntity
  8
製品
  6
Continuous
 62
     2
100
AcDbLine
 10
216.4985544381149
 20
147.8206882284291
 30
0.0
 11
216.2985544381146
 21
147.920688228429
 31
0.0
  0
LINE
  5
70C5
330
1E
100
AcDbEntity
  8
製品
  6
Continuous
 62
     2
100
AcDbLine
 10
218.0985544381148
 20
148.0206882284289
 30
0.0
 11
217.7985544381146
 21
147.920688228429
 31
0.0
  0
LINE
  5
70C6
330
1E
100
AcDbEntity
  8
製品
  6
Continuous
 62
     2
100
AcDbLine
 10
217.7985544381146
 20
147.920688228429
 30
0.0
 11
217.4985544381148
 21
148.0206882284289
 31
0.0
  0
LINE
  5
70C7
330
1E
100
AcDbEntity
  8
製品
  6
Continuous
 62
     2
100
AcDbLine
 10
217.4985544381148
 20
148.0206882284289
 30
0.0
 11
217.2985544381146
 21
147.920688228429
 31
0.0
  0
LINE
  5
70C8
330
1E
100
AcDbEntity
  8
製品
  6
Continuous
 62
     2
100
AcDbLine
 10
217.2985544381146
 20
147.920688228429
 30
0.0
 11
216.4985544381149
 21
147.920688228429
 31
0.0
  0
LINE
  5
70C9
330
1E
100
AcDbEntity
  8
製品
  6
Continuous
 62
     2
100
AcDbLine
 10
216.4985544381149
 20
147.920688228429
 30
0.0
 11
216.2985544381146
 21
148.0206882284289
 31
0.0
  0
LINE
  5
70CA
330
1E
100
AcDbEntity
  8
製品
  6
Continuous
 62
     2
100
AcDbLine
 10
214.7985544381146
 20
147.8206882284291
 30
0.0
 11
214.4985544381149
 21
147.920688228429
 31
0.0
  0
LINE
  5
70CB
330
1E
100
AcDbEntity
  8
製品
  6
Continuous
 62
     2
100
AcDbLine
 10
215.0985544381148
 20
147.920688228429
 30
0.0
 11
214.7985544381146
 21
147.8206882284291
 31
0.0
  0
LINE
  5
70CC
330
1E
100
AcDbEntity
  8
製品
  6
Continuous
 62
     2
100
AcDbLine
 10
215.2985544381146
 20
147.8206882284291
 30
0.0
 11
215.0985544381148
 21
147.920688228429
 31
0.0
  0
LINE
  5
70CD
330
1E
100
AcDbEntity
  8
製品
  6
Continuous
 62
     2
100
AcDbLine
 10
214.7985544381146
 20
147.920688228429
 30
0.0
 11
214.4985544381149
 21
148.0206882284289
 31
0.0
  0
LINE
  5
70CE
330
1E
100
AcDbEntity
  8
製品
  6
Continuous
 62
     2
100
AcDbLine
 10
215.0985544381148
 20
148.0206882284289
 30
0.0
 11
214.7985544381146
 21
147.920688228429
 31
0.0
  0
LINE
  5
70CF
330
1E
100
AcDbEntity
  8
製品
  6
Continuous
 62
     2
100
AcDbLine
 10
215.2985544381146
 20
147.920688228429
 30
0.0
 11
215.0985544381148
 21
148.0206882284289
 31
0.0
  0
LINE
  5
70D0
330
1E
100
AcDbEntity
  8
製品
  6
Continuous
 62
     2
100
AcDbLine
 10
211.2985544381146
 20
148.420688228429
 30
0.0
 11
211.2985544381146
 21
150.5027452284291
 31
0.0
  0
LINE
  5
70D1
330
1E
100
AcDbEntity
  8
製品
  6
Continuous
 62
     2
100
AcDbLine
 10
211.3985544381145
 20
148.420688228429
 30
0.0
 11
211.3985544381145
 21
150.5027452284291
 31
0.0
  0
LINE
  5
70D2
330
1E
100
AcDbEntity
  8
製品
  6
Continuous
 62
     2
100
AcDbLine
 10
212.6985544381147
 20
147.920688228429
 30
0.0
 11
212.4985544381149
 21
147.8206882284291
 31
0.0
  0
LINE
  5
70D3
330
1E
100
AcDbEntity
  8
製品
  6
Continuous
 62
     2
100
AcDbLine
 10
212.9985544381149
 20
147.8206882284291
 30
0.0
 11
212.6985544381147
 21
147.920688228429
 31
0.0
  0
LINE
  5
70D4
330
1E
100
AcDbEntity
  8
製品
  6
Continuous
 62
     2
100
AcDbLine
 10
213.2985544381146
 20
147.920688228429
 30
0.0
 11
212.9985544381149
 21
147.8206882284291
 31
0.0
  0
LINE
  5
70D5
330
1E
100
AcDbEntity
  8
製品
  6
Continuous
 62
     2
100
AcDbLine
 10
213.5985544381148
 20
147.8206882284291
 30
0.0
 11
213.2985544381146
 21
147.920688228429
 31
0.0
  0
LINE
  5
70D6
330
1E
100
AcDbEntity
  8
製品
  6
Continuous
 62
     2
100
AcDbLine
 10
213.8985544381145
 20
147.920688228429
 30
0.0
 11
213.5985544381148
 21
147.8206882284291
 31
0.0
  0
LINE
  5
70D7
330
1E
100
AcDbEntity
  8
製品
  6
Continuous
 62
     2
100
AcDbLine
 10
214.1985544381147
 20
147.8206882284291
 30
0.0
 11
213.8985544381145
 21
147.920688228429
 31
0.0
  0
LINE
  5
70D8
330
1E
100
AcDbEntity
  8
製品
  6
Continuous
 62
     2
100
AcDbLine
 10
212.6985544381147
 20
148.0206882284289
 30
0.0
 11
212.4985544381149
 21
147.920688228429
 31
0.0
  0
LINE
  5
70D9
330
1E
100
AcDbEntity
  8
製品
  6
Continuous
 62
     2
100
AcDbLine
 10
212.9985544381149
 20
147.920688228429
 30
0.0
 11
212.6985544381147
 21
148.0206882284289
 31
0.0
  0
LINE
  5
70DA
330
1E
100
AcDbEntity
  8
製品
  6
Continuous
 62
     2
100
AcDbLine
 10
213.2985544381146
 20
148.0206882284289
 30
0.0
 11
212.9985544381149
 21
147.920688228429
 31
0.0
  0
LINE
  5
70DB
330
1E
100
AcDbEntity
  8
製品
  6
Continuous
 62
     2
100
AcDbLine
 10
213.5985544381148
 20
147.920688228429
 30
0.0
 11
213.2985544381146
 21
148.0206882284289
 31
0.0
  0
LINE
  5
70DC
330
1E
100
AcDbEntity
  8
製品
  6
Continuous
 62
     2
100
AcDbLine
 10
213.8985544381145
 20
148.0206882284289
 30
0.0
 11
213.5985544381148
 21
147.920688228429
 31
0.0
  0
LINE
  5
70DD
330
1E
100
AcDbEntity
  8
製品
  6
Continuous
 62
     2
100
AcDbLine
 10
214.1985544381147
 20
147.920688228429
 30
0.0
 11
213.8985544381145
 21
148.0206882284289
 31
0.0
  0
ARC
  5
70DE
330
1E
100
AcDbEntity
  8
製品
  6
Continuous
 62
     2
100
AcDbCircle
 10
211.8985544381145
 20
148.420688228429
 30
0.0
 40
0.5
100
AcDbArc
 50
180.0
 51
270.0
  0
LINE
  5
70DF
330
1E
100
AcDbEntity
  8
製品
  6
Continuous
 62
     2
100
AcDbLine
 10
211.8985544381145
 20
147.920688228429
 30
0.0
 11
212.4985544381149
 21
147.920688228429
 31
0.0
  0
ARC
  5
70E0
330
1E
100
AcDbEntity
  8
製品
  6
Continuous
 62
     2
100
AcDbCircle
 10
211.8985544381145
 20
148.420688228429
 30
0.0
 40
0.6
100
AcDbArc
 50
180.0
 51
270.0
  0
LINE
  5
70E1
330
1E
100
AcDbEntity
  8
製品
  6
Continuous
 62
     2
100
AcDbLine
 10
211.8985544381145
 20
147.8206882284291
 30
0.0
 11
212.4985544381149
 21
147.8206882284291
 31
0.0
  0
LINE
  5
70E2
330
1E
100
AcDbEntity
  8
製品
  6
Continuous
 62
     2
100
AcDbLine
 10
214.4985544381149
 20
147.920688228429
 30
0.0
 11
214.1985544381147
 21
147.8206882284291
 31
0.0
  0
LINE
  5
70E3
330
1E
100
AcDbEntity
  8
製品
  6
Continuous
 62
     2
100
AcDbLine
 10
214.4985544381149
 20
148.0206882284289
 30
0.0
 11
214.1985544381147
 21
147.920688228429
 31
0.0
  0
LINE
  5
70E4
330
1E
100
AcDbEntity
  8
製品
  6
Continuous
 62
     2
100
AcDbLine
 10
218.3985544381145
 20
147.8206882284291
 30
0.0
 11
218.0985544381148
 21
147.920688228429
 31
0.0
  0
LINE
  5
70E5
330
1E
100
AcDbEntity
  8
製品
  6
Continuous
 62
     2
100
AcDbLine
 10
218.3985544381145
 20
147.920688228429
 30
0.0
 11
218.0985544381148
 21
148.0206882284289
 31
0.0
  0
LINE
  5
70E6
330
1E
100
AcDbEntity
  8
製品
  6
Continuous
 62
     3
100
AcDbLine
 10
220.3785544381145
 20
151.7006882284288
 30
0.0
 11
212.2185544381147
 21
151.7006882284288
 31
0.0
  0
LINE
  5
70E7
330
1E
100
AcDbEntity
  8
製品
  6
Continuous
 62
     3
100
AcDbLine
 10
212.2185544381147
 20
152.020688228429
 30
0.0
 11
220.0985544381148
 21
152.020688228429
 31
0.0
  0
LINE
  5
70E8
330
1E
100
AcDbEntity
  8
製品
  6
Continuous
 62
     2
100
AcDbLine
 10
211.3985544381145
 20
150.5027452284291
 30
0.0
 11
211.3985544381145
 21
152.520688228429
 31
0.0
  0
LINE
  5
70E9
330
1E
100
AcDbEntity
  8
製品
  6
Continuous
 62
     2
100
AcDbLine
 10
211.2985544381146
 20
150.5027452284291
 30
0.0
 11
211.2985544381146
 21
152.520688228429
 31
0.0
  0
ARC
  5
70EA
330
1E
100
AcDbEntity
  8
製品
  6
Continuous
 62
     3
100
AcDbCircle
 10
220.3785544381145
 20
152.3406882284291
 30
0.0
 40
0.6400000000000001
100
AcDbArc
 50
270.0
 51
0.0
  0
ARC
  5
70EB
330
1E
100
AcDbEntity
  8
製品
  6
Continuous
 62
     3
100
AcDbCircle
 10
212.2185544381147
 20
152.3406882284291
 30
0.0
 40
0.6400000000000001
100
AcDbArc
 50
180.0
 51
270.0
  0
ARC
  5
70EC
330
1E
100
AcDbEntity
  8
製品
  6
Continuous
 62
     3
100
AcDbCircle
 10
212.2185544381147
 20
152.3406882284291
 30
0.0
 40
0.32
100
AcDbArc
 50
180.0
 51
270.0
  0
LINE
  5
70ED
330
1E
100
AcDbEntity
  8
製品
  6
Continuous
 62
     2
100
AcDbLine
 10
221.1985544381147
 20
150.5027452284291
 30
0.0
 11
221.1985544381147
 21
152.520688228429
 31
0.0
  0
LINE
  5
70EE
330
1E
100
AcDbEntity
  8
製品
  6
Continuous
 62
     2
100
AcDbLine
 10
221.2985544381146
 20
150.5027452284291
 30
0.0
 11
221.2985544381146
 21
152.520688228429
 31
0.0
  0
LINE
  5
70EF
330
1E
100
AcDbEntity
  8
製品
  6
Continuous
 62
     3
100
AcDbLine
 10
212.4985544381149
 20
152.020688228429
 30
0.0
 11
212.4985544381149
 21
157.3806882284291
 31
0.0
  0
LINE
  5
70F0
330
1E
100
AcDbEntity
  8
製品
  6
Continuous
 62
     3
100
AcDbLine
 10
220.0985544381148
 20
157.3806882284291
 30
0.0
 11
220.0985544381148
 21
152.020688228429
 31
0.0
  0
ARC
  5
70F1
330
1E
100
AcDbEntity
  8
製品
  6
Continuous
 62
     3
100
AcDbCircle
 10
220.3785544381145
 20
152.3406882284291
 30
0.0
 40
0.32
100
AcDbArc
 50
270.0
 51
0.0
  0
LINE
  5
70F2
330
1E
100
AcDbEntity
  8
製品
  6
Continuous
 62
     4
100
AcDbLine
 10
264.4679944381147
 20
174.7206882284288
 30
0.0
 11
264.4679944381147
 21
175.8950532284291
 31
0.0
  0
CIRCLE
  5
70F3
330
1E
100
AcDbEntity
  8
図面枠
  6
Continuous
 62
     3
100
AcDbCircle
 10
264.7319884381146
 20
170.6859912284287
 30
0.0
 40
0.3
  0
LINE
  5
70F4
330
1E
100
AcDbEntity
  8
製品
  6
Continuous
 62
     4
100
AcDbLine
 10
265.0442634381148
 20
160.420688228429
 30
0.0
 11
271.8986864381146
 21
160.420688228429
 31
0.0
  0
LINE
  5
70F5
330
1E
100
AcDbEntity
  8
製品
  6
Continuous
 62
     3
100
AcDbLine
 10
271.8986864381146
 20
158.020688228429
 30
0.0
 11
271.8986864381146
 21
162.8206882284291
 31
0.0
  0
LINE
  5
70F6
330
1E
100
AcDbEntity
  8
製品
  6
Continuous
 62
     3
100
AcDbLine
 10
265.0442634381148
 20
152.3206882284291
 30
0.0
 11
265.0442634381148
 21
174.7206882284288
 31
0.0
  0
LINE
  5
70F7
330
1E
100
AcDbEntity
  8
製品
  6
Continuous
 62
     4
100
AcDbLine
 10
264.4679944381147
 20
174.3206882284291
 30
0.0
 11
264.4679944381147
 21
173.1463232284288
 31
0.0
  0
LINE
  5
70F8
330
1E
100
AcDbEntity
  8
製品
  6
Continuous
 62
     2
100
AcDbLine
 10
271.8986864381146
 20
148.420688228429
 30
0.0
 11
271.8986864381146
 21
150.5027452284291
 31
0.0
  0
LINE
  5
70F9
330
1E
100
AcDbEntity
  8
製品
  6
Continuous
 62
     2
100
AcDbLine
 10
271.8986864381146
 20
150.5027452284291
 30
0.0
 11
271.8986864381146
 21
152.520688228429
 31
0.0
  0
LINE
  5
70FA
330
1E
100
AcDbEntity
  8
製品
  6
Continuous
 62
     4
100
AcDbLine
 10
263.5061284381146
 20
174.7206882284288
 30
0.0
 11
263.5061284381146
 21
175.8950532284291
 31
0.0
  0
LINE
  5
70FB
330
1E
100
AcDbEntity
  8
製品
  6
Continuous
 62
     4
100
AcDbLine
 10
261.5823974381147
 20
174.7206882284288
 30
0.0
 11
261.5823974381147
 21
175.8950532284291
 31
0.0
  0
ARC
  5
70FC
330
1E
100
AcDbEntity
  8
製品
  6
Continuous
 62
     4
100
AcDbCircle
 10
261.1014644381145
 20
175.798075228429
 30
0.0
 40
0.490613
100
AcDbArc
 50
11.40060199999222
 51
168.5993980000078
  0
LINE
  5
70FD
330
1E
100
AcDbEntity
  8
製品
  6
Continuous
 62
     4
100
AcDbLine
 10
260.6205324381146
 20
175.8950532284291
 30
0.0
 11
260.6205324381146
 21
174.7206882284288
 31
0.0
  0
ARC
  5
70FE
330
1E
100
AcDbEntity
  8
製品
  6
Continuous
 62
     4
100
AcDbCircle
 10
262.5442634381148
 20
174.9166882284291
 30
0.0
 40
1.371999999999999
100
AcDbArc
 50
45.48723199999867
 51
134.5127680000013
  0
LINE
  5
70FF
330
1E
100
AcDbEntity
  8
製品
  6
PLINE2
 62
     4
100
AcDbLine
 10
263.6542634381145
 20
174.7206882284288
 30
0.0
 11
263.6542634381145
 21
174.3206882284291
 31
0.0
  0
LINE
  5
7100
330
1E
100
AcDbEntity
  8
製品
  6
PLINE2
 62
     4
100
AcDbLine
 10
261.4342634381147
 20
174.7206882284288
 30
0.0
 11
261.4342634381147
 21
174.3206882284291
 31
0.0
  0
ARC
  5
7101
330
1E
100
AcDbEntity
  8
製品
  6
Continuous
 62
     4
100
AcDbCircle
 10
261.1014644381145
 20
173.2433012284289
 30
0.0
 40
0.490613
100
AcDbArc
 50
191.4006019999922
 51
348.5993980000078
  0
ARC
  5
7102
330
1E
100
AcDbEntity
  8
製品
  6
Continuous
 62
     4
100
AcDbCircle
 10
262.5442634381148
 20
174.1246882284288
 30
0.0
 40
1.371999999999999
100
AcDbArc
 50
225.4872319999987
 51
314.5127680000013
  0
LINE
  5
7103
330
1E
100
AcDbEntity
  8
製品
  6
Continuous
 62
     4
100
AcDbLine
 10
261.6442634381148
 20
165.9396732284287
 30
0.0
 11
263.4442634381145
 21
165.9396732284287
 31
0.0
  0
LINE
  5
7104
330
1E
100
AcDbEntity
  8
製品
  6
Continuous
 62
     4
100
AcDbLine
 10
263.4442634381145
 20
165.9396732284287
 30
0.0
 11
263.4442634381145
 21
172.7526882284289
 31
0.0
  0
LINE
  5
7105
330
1E
100
AcDbEntity
  8
製品
  6
Continuous
 62
     4
100
AcDbLine
 10
261.6442634381148
 20
172.7526882284289
 30
0.0
 11
261.6442634381148
 21
165.9396732284287
 31
0.0
  0
LINE
  5
7106
330
1E
100
AcDbEntity
  8
製品
  6
Continuous
 62
     3
100
AcDbLine
 10
263.1442634381148
 20
162.5206882284289
 30
0.0
 11
261.9442634381145
 21
162.5206882284289
 31
0.0
  0
LINE
  5
7107
330
1E
100
AcDbEntity
  8
製品
  6
Continuous
 62
     3
100
AcDbLine
 10
261.9442634381145
 20
162.5206882284289
 30
0.0
 11
261.3942634381148
 21
161.5206882284289
 31
0.0
  0
LINE
  5
7108
330
1E
100
AcDbEntity
  8
製品
  6
Continuous
 62
     3
100
AcDbLine
 10
261.3942634381148
 20
161.5206882284289
 30
0.0
 11
261.9442634381145
 21
160.5206882284289
 31
0.0
  0
LINE
  5
7109
330
1E
100
AcDbEntity
  8
製品
  6
Continuous
 62
     3
100
AcDbLine
 10
261.9442634381145
 20
160.5206882284289
 30
0.0
 11
263.1442634381148
 21
160.5206882284289
 31
0.0
  0
LINE
  5
710A
330
1E
100
AcDbEntity
  8
製品
  6
Continuous
 62
     3
100
AcDbLine
 10
263.1442634381148
 20
160.5206882284289
 30
0.0
 11
263.6942634381145
 21
161.5206882284289
 31
0.0
  0
LINE
  5
710B
330
1E
100
AcDbEntity
  8
製品
  6
Continuous
 62
     3
100
AcDbLine
 10
263.6942634381145
 20
161.5206882284289
 30
0.0
 11
263.1442634381148
 21
162.5206882284289
 31
0.0
  0
CIRCLE
  5
710C
330
1E
100
AcDbEntity
  8
製品
  6
Continuous
 62
     3
100
AcDbCircle
 10
262.5442634381148
 20
161.5206882284289
 30
0.0
 40
1.0
  0
LINE
  5
710D
330
1E
100
AcDbEntity
  8
製品
  6
Continuous
 62
     3
100
AcDbLine
 10
262.4442634381145
 20
162.3006882284287
 30
0.0
 11
262.6442634381148
 21
162.3006882284287
 31
0.0
  0
LINE
  5
710E
330
1E
100
AcDbEntity
  8
製品
  6
Continuous
 62
     3
100
AcDbLine
 10
262.6442634381148
 20
162.3006882284287
 30
0.0
 11
262.6442634381148
 21
161.920688228429
 31
0.0
  0
ARC
  5
710F
330
1E
100
AcDbEntity
  8
製品
  6
Continuous
 62
     3
100
AcDbCircle
 10
262.1442634381148
 20
161.920688228429
 30
0.0
 40
0.3
100
AcDbArc
 50
270.0
 51
0.0
  0
LINE
  5
7110
330
1E
100
AcDbEntity
  8
製品
  6
Continuous
 62
     3
100
AcDbLine
 10
262.4442634381145
 20
162.3006882284287
 30
0.0
 11
262.4442634381145
 21
161.920688228429
 31
0.0
  0
LINE
  5
7111
330
1E
100
AcDbEntity
  8
製品
  6
Continuous
 62
     3
100
AcDbLine
 10
261.7842634381146
 20
161.6206882284289
 30
0.0
 11
262.1442634381148
 21
161.6206882284289
 31
0.0
  0
LINE
  5
7112
330
1E
100
AcDbEntity
  8
製品
  6
Continuous
 62
     3
100
AcDbLine
 10
263.3042634381146
 20
161.6206882284289
 30
0.0
 11
263.3042634381146
 21
161.4206882284291
 31
0.0
  0
ARC
  5
7113
330
1E
100
AcDbEntity
  8
製品
  6
Continuous
 62
     3
100
AcDbCircle
 10
262.9442634381145
 20
161.920688228429
 30
0.0
 40
0.3
100
AcDbArc
 50
180.0
 51
270.0
  0
LINE
  5
7114
330
1E
100
AcDbEntity
  8
製品
  6
Continuous
 62
     3
100
AcDbLine
 10
263.3042634381146
 20
161.6206882284289
 30
0.0
 11
262.9442634381145
 21
161.6206882284289
 31
0.0
  0
LINE
  5
7115
330
1E
100
AcDbEntity
  8
製品
  6
Continuous
 62
     3
100
AcDbLine
 10
262.4442634381145
 20
160.690688228429
 30
0.0
 11
262.6442634381148
 21
160.690688228429
 31
0.0
  0
LINE
  5
7116
330
1E
100
AcDbEntity
  8
製品
  6
Continuous
 62
     3
100
AcDbLine
 10
262.6442634381148
 20
160.7406882284287
 30
0.0
 11
262.6442634381148
 21
161.1206882284289
 31
0.0
  0
ARC
  5
7117
330
1E
100
AcDbEntity
  8
製品
  6
Continuous
 62
     3
100
AcDbCircle
 10
262.1442634381148
 20
161.1206882284289
 30
0.0
 40
0.3
100
AcDbArc
 50
0.0
 51
90.0
  0
LINE
  5
7118
330
1E
100
AcDbEntity
  8
製品
  6
Continuous
 62
     3
100
AcDbLine
 10
262.4442634381145
 20
160.7406882284287
 30
0.0
 11
262.4442634381145
 21
161.1206882284289
 31
0.0
  0
LINE
  5
7119
330
1E
100
AcDbEntity
  8
製品
  6
Continuous
 62
     3
100
AcDbLine
 10
261.7842634381146
 20
161.4206882284291
 30
0.0
 11
262.1442634381148
 21
161.4206882284291
 31
0.0
  0
ARC
  5
711A
330
1E
100
AcDbEntity
  8
製品
  6
Continuous
 62
     3
100
AcDbCircle
 10
262.9442634381145
 20
161.1206882284289
 30
0.0
 40
0.3
100
AcDbArc
 50
90.0
 51
180.0
  0
LINE
  5
711B
330
1E
100
AcDbEntity
  8
製品
  6
Continuous
 62
     3
100
AcDbLine
 10
263.3042634381146
 20
161.4206882284291
 30
0.0
 11
262.9442634381145
 21
161.4206882284291
 31
0.0
  0
LINE
  5
711C
330
1E
100
AcDbEntity
  8
製品
  6
Continuous
 62
     3
100
AcDbLine
 10
262.4442634381145
 20
160.7406882284287
 30
0.0
 11
262.6442634381148
 21
160.7406882284287
 31
0.0
  0
LINE
  5
711D
330
1E
100
AcDbEntity
  8
製品
  6
Continuous
 62
     3
100
AcDbLine
 10
261.7842634381146
 20
161.6206882284289
 30
0.0
 11
261.7842634381146
 21
161.4206882284291
 31
0.0
  0
LINE
  5
711E
330
1E
100
AcDbEntity
  8
製品
  6
Continuous
 62
     3
100
AcDbLine
 10
260.0442634381149
 20
174.7206882284288
 30
0.0
 11
260.0442634381149
 21
152.3206882284291
 31
0.0
  0
LINE
  5
711F
330
1E
100
AcDbEntity
  8
製品
  6
Continuous
 62
     4
100
AcDbLine
 10
260.6205324381146
 20
173.1463232284288
 30
0.0
 11
260.6205324381146
 21
174.3206882284291
 31
0.0
  0
LINE
  5
7120
330
1E
100
AcDbEntity
  8
製品
  6
Continuous
 62
     4
100
AcDbLine
 10
263.5061284381146
 20
174.3206882284291
 30
0.0
 11
263.5061284381146
 21
173.1463232284288
 31
0.0
  0
LINE
  5
7121
330
1E
100
AcDbEntity
  8
製品
  6
Continuous
 62
     4
100
AcDbLine
 10
261.5823974381147
 20
174.3206882284291
 30
0.0
 11
261.5823974381147
 21
173.1463232284288
 31
0.0
  0
LINE
  5
7122
330
1E
100
AcDbEntity
  8
製品
  6
Continuous
 62
     3
100
AcDbLine
 10
260.0442634381149
 20
152.3206882284291
 30
0.0
 11
265.0442634381148
 21
152.3206882284291
 31
0.0
  0
LINE
  5
7123
330
1E
100
AcDbEntity
  8
製品
  6
Continuous
 62
     3
100
AcDbLine
 10
265.0442634381148
 20
174.7206882284288
 30
0.0
 11
260.0442634381149
 21
174.7206882284288
 31
0.0
  0
ARC
  5
7124
330
1E
100
AcDbEntity
  8
製品
  6
Continuous
 62
     4
100
AcDbCircle
 10
263.9870614381144
 20
173.2433012284289
 30
0.0
 40
0.490613
100
AcDbArc
 50
191.4006019999922
 51
348.5993980000078
  0
LINE
  5
7125
330
1E
100
AcDbEntity
  8
製品
  6
Continuous
 62
     4
100
AcDbLine
 10
263.9870614381144
 20
172.7526882284289
 30
0.0
 11
261.1014644381145
 21
172.7526882284289
 31
0.0
  0
LINE
  5
7126
330
1E
100
AcDbEntity
  8
製品
  6
Continuous
 62
     4
100
AcDbLine
 10
260.6205324381146
 20
174.3206882284291
 30
0.0
 11
264.4679944381147
 21
174.3206882284291
 31
0.0
  0
ARC
  5
7127
330
1E
100
AcDbEntity
  8
製品
  6
Continuous
 62
     4
100
AcDbCircle
 10
263.9870614381144
 20
175.798075228429
 30
0.0
 40
0.490613
100
AcDbArc
 50
11.40060199999222
 51
168.5993980000078
  0
LINE
  5
7128
330
1E
100
AcDbEntity
  8
製品
  6
Continuous
 62
     4
100
AcDbLine
 10
263.9870614381144
 20
176.288688228429
 30
0.0
 11
261.1014644381145
 21
176.288688228429
 31
0.0
  0
LINE
  5
7129
330
1E
100
AcDbEntity
  8
製品
  6
Continuous
 62
     4
100
AcDbLine
 10
260.6205324381146
 20
174.7206882284288
 30
0.0
 11
264.4679944381147
 21
174.7206882284288
 31
0.0
  0
LINE
  5
712A
330
1E
100
AcDbEntity
  8
製品
  6
Continuous
 62
     3
100
AcDbLine
 10
260.0442634381149
 20
174.3206882284291
 30
0.0
 11
265.0442634381148
 21
174.3206882284291
 31
0.0
  0
LINE
  5
712B
330
1E
100
AcDbEntity
  8
製品
  6
Continuous
 62
     4
100
AcDbLine
 10
211.2985544381146
 20
239.6634052284292
 30
0.0
 11
203.0415984381149
 21
239.6634052284292
 31
0.0
  0
LINE
  5
712C
330
1E
100
AcDbEntity
  8
製品
  6
Continuous
 62
     4
100
AcDbLine
 10
203.0415984381149
 20
245.6634052284292
 30
0.0
 11
211.2985544381146
 21
245.6634052284292
 31
0.0
  0
LINE
  5
712D
330
1E
100
AcDbEntity
  8
製品
  6
Continuous
 62
     3
100
AcDbLine
 10
203.0415984381149
 20
239.1834052284291
 30
0.0
 11
259.7442634381147
 21
239.1834052284291
 31
0.0
  0
LINE
  5
712E
330
1E
100
AcDbEntity
  8
製品
  6
Continuous
 62
     3
100
AcDbLine
 10
203.0415984381149
 20
238.863405228429
 30
0.0
 11
259.7442634381147
 21
238.863405228429
 31
0.0
  0
LINE
  5
712F
330
1E
100
AcDbEntity
  8
製品
  6
Continuous
 62
     3
100
AcDbLine
 10
203.0415984381149
 20
246.1434052284292
 30
0.0
 11
259.7442634381147
 21
246.1434052284292
 31
0.0
  0
LINE
  5
7130
330
1E
100
AcDbEntity
  8
製品
  6
Continuous
 62
     3
100
AcDbLine
 10
203.0415984381149
 20
246.4634052284289
 30
0.0
 11
259.7442634381147
 21
246.4634052284289
 31
0.0
  0
LINE
  5
7131
330
1E
100
AcDbEntity
  8
製品
  6
PLINE3
 62
     3
100
AcDbLine
 10
199.2563654381148
 20
242.6634052284291
 30
0.0
 11
206.4364674381146
 21
242.6634052284291
 31
0.0
  0
DIMENSION
  5
7132
330
1E
100
AcDbEntity
  8
寸法
  6
Continuous
100
AcDbDimension
  2
*D7
 10
168.5467224381147
 20
239.1834052284292
 30
0.0
 11
166.2467224381146
 21
267.6597392284291
 31
0.0
 70
    32
  1
500以内
 71
     5
 42
56.9526679999999
  3
AutoCAD
100
AcDbAlignedDimension
 13
200.5415984381149
 23
296.136073228429
 33
0.0
 14
200.5415984381149
 24
239.1834052284291
 34
0.0
 50
90.0
100
AcDbRotatedDimension
1001
ACAD
1000
DSTYLE
1002
{
1070
   147
1040
0.8
1070
   140
1040
10.0
1002
}
  0
LINE
  5
7133
330
1E
100
AcDbEntity
  8
製品
  6
Continuous
 62
     4
100
AcDbLine
 10
203.0415984381149
 20
239.6634052284292
 30
0.0
 11
203.0415984381149
 21
245.6634052284292
 31
0.0
  0
LINE
  5
7134
330
1E
100
AcDbEntity
  8
製品
  6
Continuous
 62
     4
100
AcDbLine
 10
263.4442634381145
 20
234.1993082284291
 30
0.0
 11
263.4442634381145
 21
296.136073228429
 31
0.0
  0
LINE
  5
7135
330
1E
100
AcDbEntity
  8
製品
  6
Continuous
 62
     4
100
AcDbLine
 10
261.6442634381148
 20
296.136073228429
 30
0.0
 11
261.6442634381148
 21
234.1993082284291
 31
0.0
  0
LINE
  5
7136
330
1E
100
AcDbEntity
  8
図面枠
  6
Continuous
 62
     3
100
AcDbLine
 10
252.2829454381145
 20
217.222079228429
 30
0.0
 11
229.4633274381145
 21
217.222079228429
 31
0.0
  0
TEXT
  5
7137
330
1E
100
AcDbEntity
  8
図面枠
  6
Continuous
 62
     3
100
AcDbText
 10
229.1230914381146
 20
218.494615228429
 30
0.0
 40
3.0
  1
チャンネルホルダ－
 41
0.8
  7
ACAD
100
AcDbText
  0
LINE
  5
7138
330
1E
100
AcDbEntity
  8
製品
  6
Continuous
 62
     4
100
AcDbLine
 10
211.2985544381146
 20
245.6634052284292
 30
0.0
 11
211.2985544381146
 21
239.6634052284292
 31
0.0
  0
ARC
  5
7139
330
1E
100
AcDbEntity
  8
製品
  6
Continuous
 62
     3
100
AcDbCircle
 10
203.8415984381146
 20
242.6634052284291
 30
0.0
 40
1.0
100
AcDbArc
 50
323.1301020000049
 51
36.86989799999509
  0
ARC
  5
713A
330
1E
100
AcDbEntity
  8
製品
  6
Continuous
 62
     3
100
AcDbCircle
 10
204.6415984381148
 20
243.4634052284289
 30
0.0
 40
0.2
100
AcDbArc
 50
270.0
 51
90.0
  0
LINE
  5
713B
330
1E
100
AcDbEntity
  8
製品
  6
Continuous
 62
     3
100
AcDbLine
 10
203.8415984381146
 20
243.2634052284291
 30
0.0
 11
203.8415984381146
 21
242.0634052284288
 31
0.0
  0
LINE
  5
713C
330
1E
100
AcDbEntity
  8
製品
  6
Continuous
 62
     3
100
AcDbLine
 10
203.8415984381146
 20
243.2634052284291
 30
0.0
 11
203.8415984381146
 21
243.6634052284292
 31
0.0
  0
LINE
  5
713D
330
1E
100
AcDbEntity
  8
製品
  6
Continuous
 62
     3
100
AcDbLine
 10
203.8415984381146
 20
243.6634052284292
 30
0.0
 11
204.6415984381148
 21
243.6634052284292
 31
0.0
  0
LINE
  5
713E
330
1E
100
AcDbEntity
  8
製品
  6
Continuous
 62
     3
100
AcDbLine
 10
204.8415984381146
 20
243.4634052284289
 30
0.0
 11
204.8415984381146
 21
241.863405228429
 31
0.0
  0
LINE
  5
713F
330
1E
100
AcDbEntity
  8
製品
  6
Continuous
 62
     3
100
AcDbLine
 10
203.8415984381146
 20
242.0634052284288
 30
0.0
 11
204.6415984381148
 21
242.0634052284288
 31
0.0
  0
LINE
  5
7140
330
1E
100
AcDbEntity
  8
製品
  6
Continuous
 62
     3
100
AcDbLine
 10
203.8415984381146
 20
243.2634052284291
 30
0.0
 11
204.6415984381148
 21
243.2634052284291
 31
0.0
  0
CIRCLE
  5
7141
330
1E
100
AcDbEntity
  8
図面枠
  6
Continuous
 62
     3
100
AcDbCircle
 10
207.2668614381147
 20
241.321875228429
 30
0.0
 40
0.3
  0
LINE
  5
7142
330
1E
100
AcDbEntity
  8
製品
  6
Continuous
 62
     3
100
AcDbLine
 10
204.6415984381148
 20
241.6634052284292
 30
0.0
 11
203.8415984381146
 21
241.6634052284292
 31
0.0
  0
LINE
  5
7143
330
1E
100
AcDbEntity
  8
製品
  6
Continuous
 62
     3
100
AcDbLine
 10
203.8415984381146
 20
241.6634052284292
 30
0.0
 11
203.8415984381146
 21
242.0634052284288
 31
0.0
  0
LINE
  5
7144
330
1E
100
AcDbEntity
  8
製品
  6
Continuous
 62
     4
100
AcDbLine
 10
203.8415984381146
 20
245.6634052284292
 30
0.0
 11
203.8415984381146
 21
239.6634052284292
 31
0.0
  0
ARC
  5
7145
330
1E
100
AcDbEntity
  8
製品
  6
Continuous
 62
     3
100
AcDbCircle
 10
204.6415984381148
 20
241.863405228429
 30
0.0
 40
0.2
100
AcDbArc
 50
270.0
 51
90.0
  0
LINE
  5
7146
330
1E
100
AcDbEntity
  8
図面枠
  6
Continuous
 62
     3
100
AcDbLine
 10
210.3954444381149
 20
232.2469812284292
 30
0.0
 11
228.4554334381147
 21
232.2661932284288
 31
0.0
  0
TEXT
  5
7147
330
1E
100
AcDbEntity
  8
図面枠
  6
Continuous
 62
     3
100
AcDbText
 10
210.3943854381147
 20
233.2469652284288
 30
0.0
 40
3.0
  1
Ｌ金具 溶接止め
 41
0.8
  7
ACAD
100
AcDbText
  0
LINE
  5
7148
330
1E
100
AcDbEntity
  8
図面枠
  6
Continuous
 62
     3
100
AcDbLine
 10
207.2668614381147
 20
241.321875228429
 30
0.0
 11
210.3954444381149
 21
232.2469812284292
 31
0.0
  0
LINE
  5
7149
330
1E
100
AcDbEntity
  8
製品
  6
Continuous
 62
     3
100
AcDbLine
 10
265.3442634381146
 20
238.863405228429
 30
0.0
 11
265.3442634381146
 21
238.2034052284291
 31
0.0
  0
LINE
  5
714A
330
1E
100
AcDbEntity
  8
製品
  6
PLINE2
 62
     3
100
AcDbLine
 10
265.3442634381146
 20
246.4634052284289
 30
0.0
 11
265.3442634381146
 21
238.863405228429
 31
0.0
  0
LINE
  5
714B
330
1E
100
AcDbEntity
  8
製品
  6
Continuous
 62
     3
100
AcDbLine
 10
265.3442634381146
 20
247.1234052284287
 30
0.0
 11
265.3442634381146
 21
246.4634052284289
 31
0.0
  0
ARC
  5
714C
330
1E
100
AcDbEntity
  8
製品
  6
Continuous
 62
     3
100
AcDbCircle
 10
265.3842634381145
 20
233.2793082284291
 30
0.0
 40
0.9200000000000001
100
AcDbArc
 50
0.0
 51
90.0
  0
ARC
  5
714D
330
1E
100
AcDbEntity
  8
製品
  6
Continuous
 62
     3
100
AcDbCircle
 10
265.1442634381147
 20
232.839308228429
 30
0.0
 40
0.38
100
AcDbArc
 50
0.0
 51
90.0
  0
ARC
  5
714E
330
1E
100
AcDbEntity
  8
製品
  6
Continuous
 62
     3
100
AcDbCircle
 10
265.1442634381147
 20
232.839308228429
 30
0.0
 40
0.7
100
AcDbArc
 50
0.0
 51
90.0
  0
ARC
  5
714F
330
1E
100
AcDbEntity
  8
製品
  6
Continuous
 62
     3
100
AcDbCircle
 10
265.1442634381147
 20
232.839308228429
 30
0.0
 40
0.38
100
AcDbArc
 50
0.0
 51
90.0
  0
ARC
  5
7150
330
1E
100
AcDbEntity
  8
製品
  6
Continuous
 62
     3
100
AcDbCircle
 10
265.1442634381147
 20
232.839308228429
 30
0.0
 40
0.7
100
AcDbArc
 50
0.0
 51
90.0
  0
ARC
  5
7151
330
1E
100
AcDbEntity
  8
製品
  6
Continuous
 62
     3
100
AcDbCircle
 10
265.3842634381145
 20
233.2793082284291
 30
0.0
 40
0.4600000000000001
100
AcDbArc
 50
0.0
 51
90.0
  0
LINE
  5
7152
330
1E
100
AcDbEntity
  8
製品
  6
Continuous
 62
     3
100
AcDbLine
 10
269.0860694381146
 20
230.7393082284291
 30
0.0
 11
269.8860694381147
 21
230.7393082284291
 31
0.0
  0
LINE
  5
7153
330
1E
100
AcDbEntity
  8
製品
  6
Continuous
 62
     3
100
AcDbLine
 10
270.0860694381146
 20
230.5393082284288
 30
0.0
 11
270.0860694381146
 21
228.9393082284289
 31
0.0
  0
LINE
  5
7154
330
1E
100
AcDbEntity
  8
製品
  6
Continuous
 62
     3
100
AcDbLine
 10
269.8860694381147
 20
228.7393082284291
 30
0.0
 11
269.0860694381146
 21
228.7393082284291
 31
0.0
  0
LINE
  5
7155
330
1E
100
AcDbEntity
  8
製品
  6
Continuous
 62
     3
100
AcDbLine
 10
269.0860694381146
 20
229.1393082284292
 30
0.0
 11
269.8860694381147
 21
229.1393082284292
 31
0.0
  0
LINE
  5
7156
330
1E
100
AcDbEntity
  8
製品
  6
Continuous
 62
     3
100
AcDbLine
 10
269.0860694381146
 20
230.339308228429
 30
0.0
 11
269.8860694381147
 21
230.339308228429
 31
0.0
  0
ARC
  5
7157
330
1E
100
AcDbEntity
  8
製品
  6
Continuous
 62
     3
100
AcDbCircle
 10
269.8860694381147
 20
228.9393082284289
 30
0.0
 40
0.2
100
AcDbArc
 50
270.0
 51
90.0
  0
ARC
  5
7158
330
1E
100
AcDbEntity
  8
製品
  6
Continuous
 62
     3
100
AcDbCircle
 10
269.0860694381146
 20
229.7393082284291
 30
0.0
 40
1.0
100
AcDbArc
 50
323.1301020000049
 51
36.86989799999509
  0
ARC
  5
7159
330
1E
100
AcDbEntity
  8
製品
  6
Continuous
 62
     3
100
AcDbCircle
 10
269.8860694381147
 20
230.5393082284288
 30
0.0
 40
0.2
100
AcDbArc
 50
270.0
 51
90.0
  0
LINE
  5
715A
330
1E
100
AcDbEntity
  8
製品
  6
Continuous
 62
     3
100
AcDbLine
 10
269.0860694381146
 20
230.339308228429
 30
0.0
 11
269.0860694381146
 21
229.1393082284292
 31
0.0
  0
LINE
  5
715B
330
1E
100
AcDbEntity
  8
製品
  6
Continuous
 62
     3
100
AcDbLine
 10
269.0860694381146
 20
230.339308228429
 30
0.0
 11
269.0860694381146
 21
230.7393082284291
 31
0.0
  0
LINE
  5
715C
330
1E
100
AcDbEntity
  8
製品
  6
Continuous
 62
     3
100
AcDbLine
 10
269.0860694381146
 20
228.7393082284291
 30
0.0
 11
269.0860694381146
 21
229.1393082284292
 31
0.0
  0
ARC
  5
715D
330
1E
100
AcDbEntity
  8
製品
  6
Continuous
 62
     3
100
AcDbCircle
 10
267.1042634381148
 20
228.9393082284289
 30
0.0
 40
0.2
100
AcDbArc
 50
270.0
 51
90.0
  0
LINE
  5
715E
330
1E
100
AcDbEntity
  8
製品
  6
Continuous
 62
     3
100
AcDbLine
 10
267.1042634381148
 20
228.7393082284291
 30
0.0
 11
266.3042634381146
 21
228.7393082284291
 31
0.0
  0
LINE
  5
715F
330
1E
100
AcDbEntity
  8
製品
  6
Continuous
 62
     3
100
AcDbLine
 10
267.3042634381146
 20
230.5393082284288
 30
0.0
 11
267.3042634381146
 21
228.9393082284289
 31
0.0
  0
ARC
  5
7160
330
1E
100
AcDbEntity
  8
製品
  6
Continuous
 62
     3
100
AcDbCircle
 10
267.1042634381148
 20
228.9393082284289
 30
0.0
 40
0.2
100
AcDbArc
 50
270.0
 51
0.0
  0
LINE
  5
7161
330
1E
100
AcDbEntity
  8
製品
  6
Continuous
 62
     3
100
AcDbLine
 10
266.3042634381146
 20
230.7393082284291
 30
0.0
 11
267.1042634381148
 21
230.7393082284291
 31
0.0
  0
ARC
  5
7162
330
1E
100
AcDbEntity
  8
製品
  6
Continuous
 62
     3
100
AcDbCircle
 10
266.3042634381146
 20
229.7393082284291
 30
0.0
 40
1.0
100
AcDbArc
 50
323.1301020000049
 51
36.86989799999509
  0
ARC
  5
7163
330
1E
100
AcDbEntity
  8
製品
  6
Continuous
 62
     3
100
AcDbCircle
 10
267.1042634381148
 20
230.5393082284288
 30
0.0
 40
0.2
100
AcDbArc
 50
270.0
 51
90.0
  0
LINE
  5
7164
330
1E
100
AcDbEntity
  8
製品
  6
Continuous
 62
     3
100
AcDbLine
 10
266.3042634381146
 20
229.1393082284292
 30
0.0
 11
267.1042634381148
 21
229.1393082284292
 31
0.0
  0
LINE
  5
7165
330
1E
100
AcDbEntity
  8
製品
  6
Continuous
 62
     3
100
AcDbLine
 10
266.3042634381146
 20
230.339308228429
 30
0.0
 11
267.1042634381148
 21
230.339308228429
 31
0.0
  0
ARC
  5
7166
330
1E
100
AcDbEntity
  8
製品
  6
Continuous
 62
     3
100
AcDbCircle
 10
265.1442634381147
 20
226.6393082284292
 30
0.0
 40
0.38
100
AcDbArc
 50
270.0
 51
0.0
  0
LINE
  5
7167
330
1E
100
AcDbEntity
  8
製品
  6
Continuous
 62
     3
100
AcDbLine
 10
265.8442634381146
 20
226.6393082284292
 30
0.0
 11
265.8442634381146
 21
229.7393082284291
 31
0.0
  0
ARC
  5
7168
330
1E
100
AcDbEntity
  8
製品
  6
Continuous
 62
     3
100
AcDbCircle
 10
265.1442634381147
 20
226.6393082284292
 30
0.0
 40
0.38
100
AcDbArc
 50
270.0
 51
0.0
  0
LINE
  5
7169
330
1E
100
AcDbEntity
  8
製品
  6
Continuous
 62
     3
100
AcDbLine
 10
265.8442634381146
 20
226.6393082284292
 30
0.0
 11
265.8442634381146
 21
229.7393082284291
 31
0.0
  0
LINE
  5
716A
330
1E
100
AcDbEntity
  8
製品
  6
Continuous
 62
     3
100
AcDbLine
 10
267.3042634381146
 20
229.2393082284291
 30
0.0
 11
269.0860694381146
 21
229.2393082284291
 31
0.0
  0
LINE
  5
716B
330
1E
100
AcDbEntity
  8
製品
  6
Continuous
 62
     3
100
AcDbLine
 10
267.3042634381146
 20
230.2393082284291
 30
0.0
 11
269.0860694381146
 21
230.2393082284291
 31
0.0
  0
LINE
  5
716C
330
1E
100
AcDbEntity
  8
製品
  6
Continuous
 62
     3
100
AcDbLine
 10
267.3042634381146
 20
230.339308228429
 30
0.0
 11
269.0860694381146
 21
230.339308228429
 31
0.0
  0
LINE
  5
716D
330
1E
100
AcDbEntity
  8
製品
  6
Continuous
 62
     3
100
AcDbLine
 10
269.0860694381146
 20
229.1393082284292
 30
0.0
 11
267.3042634381146
 21
229.1393082284292
 31
0.0
  0
LINE
  5
716E
330
1E
100
AcDbEntity
  8
製品
  6
Continuous
 62
     3
100
AcDbLine
 10
265.8442634381146
 20
233.2793082284291
 30
0.0
 11
265.8442634381146
 21
226.1993082284291
 31
0.0
  0
LINE
  5
716F
330
1E
100
AcDbEntity
  8
製品
  6
Continuous
 62
     3
100
AcDbLine
 10
266.3042634381146
 20
226.1993082284291
 30
0.0
 11
266.3042634381146
 21
233.2793082284291
 31
0.0
  0
LINE
  5
7170
330
1E
100
AcDbEntity
  8
製品
  6
Continuous
 62
     3
100
AcDbLine
 10
265.5242634381149
 20
232.839308228429
 30
0.0
 11
265.5242634381149
 21
226.6393082284292
 31
0.0
  0
LINE
  5
7171
330
1E
100
AcDbEntity
  8
製品
  6
Continuous
 62
     3
100
AcDbLine
 10
265.8442634381146
 20
232.839308228429
 30
0.0
 11
265.8442634381146
 21
229.7393082284291
 31
0.0
  0
LINE
  5
7172
330
1E
100
AcDbEntity
  8
製品
  6
Continuous
 62
     3
100
AcDbLine
 10
265.5242634381149
 20
232.839308228429
 30
0.0
 11
265.5242634381149
 21
226.6393082284292
 31
0.0
  0
LINE
  5
7173
330
1E
100
AcDbEntity
  8
製品
  6
Continuous
 62
     3
100
AcDbLine
 10
265.8442634381146
 20
232.839308228429
 30
0.0
 11
265.8442634381146
 21
229.7393082284291
 31
0.0
  0
CIRCLE
  5
7174
330
1E
100
AcDbEntity
  8
製品
  6
Continuous
 62
     3
100
AcDbCircle
 10
265.8442634381146
 20
225.9393082284289
 30
0.0
 40
0.3
  0
CIRCLE
  5
7175
330
1E
100
AcDbEntity
  8
製品
  6
Continuous
 62
     3
100
AcDbCircle
 10
265.8442634381146
 20
225.9393082284289
 30
0.0
 40
0.3
  0
CIRCLE
  5
7176
330
1E
100
AcDbEntity
  8
製品
  6
Continuous
 62
     3
100
AcDbCircle
 10
265.8442634381146
 20
225.9393082284289
 30
0.0
 40
0.3
  0
CIRCLE
  5
7177
330
1E
100
AcDbEntity
  8
製品
  6
Continuous
 62
     3
100
AcDbCircle
 10
265.8442634381146
 20
225.9393082284289
 30
0.0
 40
0.3
  0
ARC
  5
7178
330
1E
100
AcDbEntity
  8
製品
  6
Continuous
 62
     3
100
AcDbCircle
 10
265.3842634381145
 20
226.1993082284291
 30
0.0
 40
0.4600000000000001
100
AcDbArc
 50
270.0
 51
0.0
  0
ARC
  5
7179
330
1E
100
AcDbEntity
  8
製品
  6
Continuous
 62
     3
100
AcDbCircle
 10
265.3842634381145
 20
226.1993082284291
 30
0.0
 40
0.9200000000000001
100
AcDbArc
 50
270.0
 51
0.0
  0
ARC
  5
717A
330
1E
100
AcDbEntity
  8
製品
  6
Continuous
 62
     3
100
AcDbCircle
 10
265.1442634381147
 20
226.6393082284292
 30
0.0
 40
0.7
100
AcDbArc
 50
270.0
 51
0.0
  0
ARC
  5
717B
330
1E
100
AcDbEntity
  8
製品
  6
Continuous
 62
     3
100
AcDbCircle
 10
265.1442634381147
 20
226.6393082284292
 30
0.0
 40
0.7
100
AcDbArc
 50
270.0
 51
0.0
  0
LINE
  5
717C
330
1E
100
AcDbEntity
  8
製品
  6
Continuous
 62
     3
100
AcDbLine
 10
259.7442634381147
 20
247.1234052284287
 30
0.0
 11
261.6442634381148
 21
247.1234052284287
 31
0.0
  0
LINE
  5
717D
330
1E
100
AcDbEntity
  8
製品
  6
Continuous
 62
     3
100
AcDbLine
 10
259.7442634381147
 20
246.6634052284292
 30
0.0
 11
261.6442634381148
 21
246.6634052284292
 31
0.0
  0
LINE
  5
717E
330
1E
100
AcDbEntity
  8
製品
  6
Continuous
 62
     3
100
AcDbLine
 10
259.7442634381147
 20
238.863405228429
 30
0.0
 11
259.7442634381147
 21
238.2034052284291
 31
0.0
  0
LINE
  5
717F
330
1E
100
AcDbEntity
  8
製品
  6
Continuous
 62
     3
100
AcDbLine
 10
259.7442634381147
 20
238.2034052284291
 30
0.0
 11
261.6442634381148
 21
238.2034052284291
 31
0.0
  0
LINE
  5
7180
330
1E
100
AcDbEntity
  8
製品
  6
Continuous
 62
     3
100
AcDbLine
 10
259.7442634381147
 20
238.6634052284291
 30
0.0
 11
261.6442634381148
 21
238.6634052284291
 31
0.0
  0
LINE
  5
7181
330
1E
100
AcDbEntity
  8
製品
  6
PLINE2
 62
     3
100
AcDbLine
 10
259.7442634381147
 20
246.4634052284289
 30
0.0
 11
259.7442634381147
 21
238.863405228429
 31
0.0
  0
LINE
  5
7182
330
1E
100
AcDbEntity
  8
製品
  6
Continuous
 62
     3
100
AcDbLine
 10
259.7442634381147
 20
247.1234052284287
 30
0.0
 11
259.7442634381147
 21
246.4634052284289
 31
0.0
  0
LINE
  5
7183
330
1E
100
AcDbEntity
  8
製品
  6
Continuous
 62
     3
100
AcDbLine
 10
263.4442634381145
 20
233.5393082284288
 30
0.0
 11
263.4442634381145
 21
233.2193082284291
 31
0.0
  0
LINE
  5
7184
330
1E
100
AcDbEntity
  8
製品
  6
Continuous
 62
     3
100
AcDbLine
 10
263.4442634381145
 20
233.5393082284288
 30
0.0
 11
263.4442634381145
 21
233.2193082284291
 31
0.0
  0
LINE
  5
7185
330
1E
100
AcDbEntity
  8
製品
  6
Continuous
 62
     3
100
AcDbLine
 10
259.7442634381147
 20
234.1993082284291
 30
0.0
 11
259.7442634381147
 21
233.7393082284291
 31
0.0
  0
LINE
  5
7186
330
1E
100
AcDbEntity
  8
製品
  6
Continuous
 62
     3
100
AcDbLine
 10
261.6442634381148
 20
234.1993082284291
 30
0.0
 11
259.7442634381147
 21
234.1993082284291
 31
0.0
  0
LINE
  5
7187
330
1E
100
AcDbEntity
  8
製品
  6
Continuous
 62
     3
100
AcDbLine
 10
259.7442634381147
 20
233.7393082284291
 30
0.0
 11
261.6442634381148
 21
233.7393082284291
 31
0.0
  0
CIRCLE
  5
7188
330
1E
100
AcDbEntity
  8
図面枠
  6
Continuous
 62
     3
100
AcDbCircle
 10
260.7203404381145
 20
225.1362252284291
 30
0.0
 40
0.3
  0
LINE
  5
7189
330
1E
100
AcDbEntity
  8
製品
  6
Continuous
 62
     3
100
AcDbLine
 10
259.7442634381147
 20
225.7393082284291
 30
0.0
 11
259.7442634381147
 21
225.279308228429
 31
0.0
  0
LINE
  5
718A
330
1E
100
AcDbEntity
  8
製品
  6
Continuous
 62
     3
100
AcDbLine
 10
261.6442634381148
 20
225.7393082284291
 30
0.0
 11
259.7442634381147
 21
225.7393082284291
 31
0.0
  0
LINE
  5
718B
330
1E
100
AcDbEntity
  8
製品
  6
Continuous
 62
     3
100
AcDbLine
 10
259.7442634381147
 20
225.279308228429
 30
0.0
 11
261.6442634381148
 21
225.279308228429
 31
0.0
  0
LINE
  5
718C
330
1E
100
AcDbEntity
  8
図面枠
  6
Continuous
 62
     3
100
AcDbLine
 10
260.7203404381145
 20
225.1362252284291
 30
0.0
 11
252.2829454381145
 21
217.222079228429
 31
0.0
  0
LINE
  5
718D
330
1E
100
AcDbEntity
  8
製品
  6
Continuous
 62
     4
100
AcDbLine
 10
263.4442634381145
 20
225.7393082284291
 30
0.0
 11
263.4442634381145
 21
233.7393082284291
 31
0.0
  0
LINE
  5
718E
330
1E
100
AcDbEntity
  8
製品
  6
Continuous
 62
     4
100
AcDbLine
 10
261.6442634381148
 20
233.7393082284291
 30
0.0
 11
261.6442634381148
 21
225.7393082284291
 31
0.0
  0
LINE
  5
718F
330
1E
100
AcDbEntity
  8
製品
  6
Continuous
 62
     4
100
AcDbLine
 10
263.4442634381145
 20
225.7393082284291
 30
0.0
 11
263.4442634381145
 21
233.7393082284291
 31
0.0
  0
LINE
  5
7190
330
1E
100
AcDbEntity
  8
製品
  6
Continuous
 62
     4
100
AcDbLine
 10
261.6442634381148
 20
233.7393082284291
 30
0.0
 11
261.6442634381148
 21
225.7393082284291
 31
0.0
  0
LINE
  5
7191
330
1E
100
AcDbEntity
  8
製品
  6
Continuous
 62
     3
100
AcDbLine
 10
263.4442634381145
 20
225.9393082284289
 30
0.0
 11
263.4442634381145
 21
226.2593082284291
 31
0.0
  0
LINE
  5
7192
330
1E
100
AcDbEntity
  8
製品
  6
Continuous
 62
     3
100
AcDbLine
 10
263.4442634381145
 20
225.9393082284289
 30
0.0
 11
263.4442634381145
 21
226.2593082284291
 31
0.0
  0
CIRCLE
  5
7193
330
1E
100
AcDbEntity
  8
図面枠
  6
Continuous
 62
     3
100
AcDbCircle
 10
263.6321194381145
 20
198.6036642284291
 30
0.0
 40
0.3
  0
LINE
  5
7194
330
1E
100
AcDbEntity
  8
製品
  6
PLINE3
 62
     3
100
AcDbLine
 10
258.1937464381145
 20
229.7393082284291
 30
0.0
 11
270.2457114381147
 21
229.7393082284291
 31
0.0
  0
LINE
  5
7195
330
1E
100
AcDbEntity
  8
製品
  6
Continuous
 62
     3
100
AcDbLine
 10
263.4442634381145
 20
238.2034052284291
 30
0.0
 11
265.3442634381146
 21
238.2034052284291
 31
0.0
  0
LINE
  5
7196
330
1E
100
AcDbEntity
  8
製品
  6
Continuous
 62
     3
100
AcDbLine
 10
263.4442634381145
 20
238.6634052284291
 30
0.0
 11
265.3442634381146
 21
238.6634052284291
 31
0.0
  0
LINE
  5
7197
330
1E
100
AcDbEntity
  8
製品
  6
Continuous
 62
     3
100
AcDbLine
 10
263.4442634381145
 20
246.6634052284292
 30
0.0
 11
265.3442634381146
 21
246.6634052284292
 31
0.0
  0
LINE
  5
7198
330
1E
100
AcDbEntity
  8
製品
  6
Continuous
 62
     3
100
AcDbLine
 10
263.4442634381145
 20
247.1234052284287
 30
0.0
 11
265.3442634381146
 21
247.1234052284287
 31
0.0
  0
LINE
  5
7199
330
1E
100
AcDbEntity
  8
製品
  6
Continuous
 62
     3
100
AcDbLine
 10
263.4442634381145
 20
233.2193082284291
 30
0.0
 11
265.1442634381147
 21
233.2193082284291
 31
0.0
  0
LINE
  5
719A
330
1E
100
AcDbEntity
  8
製品
  6
Continuous
 62
     3
100
AcDbLine
 10
265.1442634381147
 20
226.2593082284291
 30
0.0
 11
263.4442634381145
 21
226.2593082284291
 31
0.0
  0
LINE
  5
719B
330
1E
100
AcDbEntity
  8
製品
  6
Continuous
 62
     3
100
AcDbLine
 10
265.1442634381147
 20
225.9393082284289
 30
0.0
 11
263.4442634381145
 21
225.9393082284289
 31
0.0
  0
LINE
  5
719C
330
1E
100
AcDbEntity
  8
製品
  6
Continuous
 62
     3
100
AcDbLine
 10
265.1442634381147
 20
233.5393082284288
 30
0.0
 11
263.4442634381145
 21
233.5393082284288
 31
0.0
  0
LINE
  5
719D
330
1E
100
AcDbEntity
  8
製品
  6
Continuous
 62
     3
100
AcDbLine
 10
263.4442634381145
 20
233.2193082284291
 30
0.0
 11
265.1442634381147
 21
233.2193082284291
 31
0.0
  0
LINE
  5
719E
330
1E
100
AcDbEntity
  8
製品
  6
Continuous
 62
     3
100
AcDbLine
 10
265.1442634381147
 20
226.2593082284291
 30
0.0
 11
263.4442634381145
 21
226.2593082284291
 31
0.0
  0
LINE
  5
719F
330
1E
100
AcDbEntity
  8
製品
  6
Continuous
 62
     3
100
AcDbLine
 10
265.1442634381147
 20
225.9393082284289
 30
0.0
 11
263.4442634381145
 21
225.9393082284289
 31
0.0
  0
LINE
  5
71A0
330
1E
100
AcDbEntity
  8
製品
  6
Continuous
 62
     3
100
AcDbLine
 10
265.1442634381147
 20
233.5393082284288
 30
0.0
 11
263.4442634381145
 21
233.5393082284288
 31
0.0
  0
LINE
  5
71A1
330
1E
100
AcDbEntity
  8
製品
  6
Continuous
 62
     3
100
AcDbLine
 10
261.6442634381148
 20
225.279308228429
 30
0.0
 11
265.3842634381145
 21
225.279308228429
 31
0.0
  0
LINE
  5
71A2
330
1E
100
AcDbEntity
  8
製品
  6
Continuous
 62
     3
100
AcDbLine
 10
265.3842634381145
 20
225.7393082284291
 30
0.0
 11
261.6442634381148
 21
225.7393082284291
 31
0.0
  0
LINE
  5
71A3
330
1E
100
AcDbEntity
  8
製品
  6
Continuous
 62
     3
100
AcDbLine
 10
261.6442634381148
 20
233.7393082284291
 30
0.0
 11
265.3842634381145
 21
233.7393082284291
 31
0.0
  0
LINE
  5
71A4
330
1E
100
AcDbEntity
  8
製品
  6
Continuous
 62
     3
100
AcDbLine
 10
265.3842634381145
 20
234.1993082284291
 30
0.0
 11
261.6442634381148
 21
234.1993082284291
 31
0.0
  0
LINE
  5
71A5
330
1E
100
AcDbEntity
  8
図面枠
  6
Continuous
 62
     3
100
AcDbLine
 10
263.6321194381145
 20
198.6036642284291
 30
0.0
 11
271.6881384381146
 21
207.4133522284289
 31
0.0
  0
LINE
  5
71A6
330
1E
100
AcDbEntity
  8
製品
  6
Continuous
 62
     4
100
AcDbLine
 10
232.8518834381149
 20
296.136073228429
 30
0.0
 11
244.2266794381145
 21
307.5108682284288
 31
0.0
  0
LINE
  5
71A7
330
1E
100
AcDbEntity
  8
製品
  6
Continuous
 62
     4
100
AcDbLine
 10
242.8124654381146
 20
307.5108682284288
 30
0.0
 11
231.4376704381149
 21
296.136073228429
 31
0.0
  0
LINE
  5
71A8
330
1E
100
AcDbEntity
  8
製品
  6
Continuous
 62
     4
100
AcDbLine
 10
230.0234564381145
 20
296.136073228429
 30
0.0
 11
241.3982524381146
 21
307.5108682284288
 31
0.0
  0
LINE
  5
71A9
330
1E
100
AcDbEntity
  8
製品
  6
Continuous
 62
     4
100
AcDbLine
 10
261.6561524381146
 20
297.5655572284288
 30
0.0
 11
262.4814654381145
 21
296.136073228429
 31
0.0
  0
LINE
  5
71AA
330
1E
100
AcDbEntity
  8
製品
  6
Continuous
 62
     4
100
AcDbLine
 10
262.4814654381145
 20
296.136073228429
 30
0.0
 11
263.3067784381148
 21
297.5655572284288
 31
0.0
  0
LINE
  5
71AB
330
1E
100
AcDbEntity
  8
製品
  6
Continuous
 62
     4
100
AcDbLine
 10
263.3067784381148
 20
297.5655572284288
 30
0.0
 11
261.6561524381146
 21
297.5655572284288
 31
0.0
  0
LINE
  5
71AC
330
1E
100
AcDbEntity
  8
製品
  6
Continuous
 62
     4
100
AcDbLine
 10
413.4445904381147
 20
176.288688228429
 30
0.0
 11
413.4445904381147
 21
225.279308228429
 31
0.0
  0
LINE
  5
71AD
330
1E
100
AcDbEntity
  8
製品
  6
Continuous
 62
     4
100
AcDbLine
 10
411.6445904381144
 20
225.279308228429
 30
0.0
 11
411.6445904381144
 21
176.288688228429
 31
0.0
  0
DIMENSION
  5
71AE
330
1E
100
AcDbEntity
  8
寸法
  6
Continuous
100
AcDbDimension
  2
*D8
 10
458.6507774381145
 20
120.030905228429
 30
0.0
 11
428.3507109381145
 21
122.330905228429
 31
0.0
 70
    32
  1
303
 71
     5
 42
60.60013299999991
  3
AutoCAD
100
AcDbAlignedDimension
 13
398.0506444381146
 23
139.2313712284287
 33
0.0
 14
458.6507774381145
 24
139.2313712284287
 34
0.0
100
AcDbRotatedDimension
1001
ACAD
1000
DSTYLE
1002
{
1070
   140
1040
10.0
1070
   147
1040
0.8
1070
   279
1070
     1
1070
   289
1070
     3
1002
}
  0
LINE
  5
71AF
330
1E
100
AcDbEntity
  8
製品
  6
Continuous
 62
     4
100
AcDbLine
 10
410.0445904381145
 20
152.8206882284291
 30
0.0
 11
401.8985544381145
 21
152.8206882284291
 31
0.0
  0
LINE
  5
71B0
330
1E
100
AcDbEntity
  8
製品
  6
Continuous
 62
     4
100
AcDbLine
 10
403.0985544381147
 20
160.420688228429
 30
0.0
 11
410.0445904381145
 21
160.420688228429
 31
0.0
  0
LINE
  5
71B1
330
1E
100
AcDbEntity
  8
図面枠
  6
Continuous
 62
     3
100
AcDbLine
 10
403.0721024381147
 20
150.4584792284288
 30
0.0
 11
411.0099094381145
 21
140.7203452284291
 31
0.0
  0
DIMENSION
  5
71B2
330
1E
100
AcDbEntity
  8
寸法
  6
Continuous
100
AcDbDimension
  2
*D9
 10
398.0506444381146
 20
120.030905228429
 30
0.0
 11
367.7505784381145
 21
122.330905228429
 31
0.0
 70
    32
  1
303
 71
     5
 42
60.60013200000003
  3
AutoCAD
100
AcDbAlignedDimension
 13
337.4505124381145
 23
139.2313712284287
 33
0.0
 14
398.0506444381146
 24
139.2313712284287
 34
0.0
100
AcDbRotatedDimension
1001
ACAD
1000
DSTYLE
1002
{
1070
   140
1040
10.0
1070
   147
1040
0.8
1070
   279
1070
     1
1070
   289
1070
     3
1002
}
  0
LINE
  5
71B3
330
1E
100
AcDbEntity
  8
製品
  6
Continuous
 62
     3
100
AcDbLine
 10
332.4988184381147
 20
160.8206882284291
 30
0.0
 11
342.4988184381147
 21
160.8206882284291
 31
0.0
  0
LINE
  5
71B4
330
1E
100
AcDbEntity
  8
製品
  6
Continuous
 62
     3
100
AcDbLine
 10
333.4988184381146
 20
163.8206882284291
 30
0.0
 11
341.4988184381146
 21
163.8206882284291
 31
0.0
  0
LINE
  5
71B5
330
1E
100
AcDbEntity
  8
製品
  6
Continuous
 62
     2
100
AcDbLine
 10
340.4988184381147
 20
147.920688228429
 30
0.0
 11
340.1988184381145
 21
147.8206882284291
 31
0.0
  0
LINE
  5
71B6
330
1E
100
AcDbEntity
  8
製品
  6
Continuous
 62
     2
100
AcDbLine
 10
340.4988184381147
 20
148.0206882284289
 30
0.0
 11
340.1988184381145
 21
147.920688228429
 31
0.0
  0
LINE
  5
71B7
330
1E
100
AcDbEntity
  8
製品
  6
Continuous
 62
     3
100
AcDbLine
 10
341.5788184381146
 20
151.7006882284288
 30
0.0
 11
333.4188184381147
 21
151.7006882284288
 31
0.0
  0
LINE
  5
71B8
330
1E
100
AcDbEntity
  8
製品
  6
Continuous
 62
     3
100
AcDbLine
 10
333.4188184381147
 20
152.020688228429
 30
0.0
 11
341.2988184381148
 21
152.020688228429
 31
0.0
  0
LINE
  5
71B9
330
1E
100
AcDbEntity
  8
図面枠
  6
Continuous
 62
     3
100
AcDbLine
 10
316.4715854381149
 20
173.2303132284289
 30
0.0
 11
347.6643784381146
 21
173.2303132284289
 31
0.0
  0
TEXT
  5
71BA
330
1E
100
AcDbEntity
  8
図面枠
  6
Continuous
 62
     3
100
AcDbText
 10
316.4772704381145
 20
174.2303022284288
 30
0.0
 40
3.0
  1
野縁受け　Ｃ－３８×１．６
 41
0.8
  7
ACAD
100
AcDbText
  0
DIMENSION
  5
71BB
330
1E
100
AcDbEntity
  8
寸法
  6
Continuous
100
AcDbDimension
  2
*D10
 10
337.4505124381145
 20
120.030905228429
 30
0.0
 11
307.1504464381145
 21
122.330905228429
 31
0.0
 70
    32
  1
303
 71
     5
 42
60.60013200000003
  3
AutoCAD
100
AcDbAlignedDimension
 13
276.8503804381145
 23
139.2313712284287
 33
0.0
 14
337.4505124381145
 24
139.2313712284287
 34
0.0
100
AcDbRotatedDimension
1001
ACAD
1000
DSTYLE
1002
{
1070
   140
1040
10.0
1070
   147
1040
0.8
1070
   279
1070
     1
1070
   289
1070
     3
1002
}
  0
TEXT
  5
71BC
330
1E
100
AcDbEntity
  8
図面枠
  6
Continuous
 62
     3
100
AcDbText
 10
312.2793184381145
 20
76.38950522842901
 30
0.0
 40
5.0
  1
耐風圧２型
 41
0.8
  7
ACAD
100
AcDbText
  0
LINE
  5
71BD
330
1E
100
AcDbEntity
  8
図面枠
  6
Continuous
 62
     3
100
AcDbLine
 10
304.6483834381148
 20
158.7797332284288
 30
0.0
 11
316.4715854381149
 21
173.2303132284289
 31
0.0
  0
LINE
  5
71BE
330
1E
100
AcDbEntity
  8
製品
  6
Continuous
 62
     4
100
AcDbLine
 10
281.8986864381146
 20
160.420688228429
 30
0.0
 11
332.4988184381147
 21
160.420688228429
 31
0.0
  0
LINE
  5
71BF
330
1E
100
AcDbEntity
  8
製品
  6
Continuous
 62
     4
100
AcDbLine
 10
333.6988184381145
 20
152.8206882284291
 30
0.0
 11
280.6986864381148
 21
152.8206882284291
 31
0.0
  0
CIRCLE
  5
71C0
330
1E
100
AcDbEntity
  8
図面枠
  6
Continuous
 62
     3
100
AcDbCircle
 10
304.6483834381148
 20
158.7797332284288
 30
0.0
 40
0.3
  0
ARC
  5
71C1
330
1E
100
AcDbEntity
  8
製品
  6
Continuous
 62
     3
100
AcDbCircle
 10
280.8986864381146
 20
162.8206882284291
 30
0.0
 40
1.0
100
AcDbArc
 50
0.0
 51
90.0
  0
LINE
  5
71C2
330
1E
100
AcDbEntity
  8
製品
  6
Continuous
 62
     3
100
AcDbLine
 10
281.8986864381146
 20
158.020688228429
 30
0.0
 11
281.3386864381147
 21
158.020688228429
 31
0.0
  0
LINE
  5
71C3
330
1E
100
AcDbEntity
  8
製品
  6
Continuous
 62
     2
100
AcDbLine
 10
281.1986864381148
 20
152.2206882284288
 30
0.0
 11
281.0986864381149
 21
152.2206882284288
 31
0.0
  0
LINE
  5
71C4
330
1E
100
AcDbEntity
  8
製品
  6
Continuous
 62
     2
100
AcDbLine
 10
281.0986864381149
 20
152.2206882284288
 30
0.0
 11
281.0986864381149
 21
152.520688228429
 31
0.0
  0
ARC
  5
71C5
330
1E
100
AcDbEntity
  8
製品
  6
Continuous
 62
     2
100
AcDbCircle
 10
281.3986864381146
 20
152.520688228429
 30
0.0
 40
0.3
100
AcDbArc
 50
90.0
 51
180.0
  0
LINE
  5
71C6
330
1E
100
AcDbEntity
  8
製品
  6
Continuous
 62
     2
100
AcDbLine
 10
281.3986864381146
 20
152.8206882284291
 30
0.0
 11
281.5986864381149
 21
152.8206882284291
 31
0.0
  0
ARC
  5
71C7
330
1E
100
AcDbEntity
  8
製品
  6
Continuous
 62
     2
100
AcDbCircle
 10
281.5986864381149
 20
152.520688228429
 30
0.0
 40
0.3
100
AcDbArc
 50
0.0
 51
90.0
  0
LINE
  5
71C8
330
1E
100
AcDbEntity
  8
製品
  6
Continuous
 62
     3
100
AcDbLine
 10
281.2986864381147
 20
152.3406882284291
 30
0.0
 11
281.2986864381147
 21
152.693893228429
 31
0.0
  0
LINE
  5
71C9
330
1E
100
AcDbEntity
  8
製品
  6
Continuous
 62
     3
100
AcDbLine
 10
281.2986864381147
 20
152.693893228429
 30
0.0
 11
281.6186864381149
 21
152.7196852284289
 31
0.0
  0
LINE
  5
71CA
330
1E
100
AcDbEntity
  8
製品
  6
Continuous
 62
     3
100
AcDbLine
 10
281.6186864381149
 20
152.7196852284289
 30
0.0
 11
281.6186864381149
 21
152.3406882284291
 31
0.0
  0
ARC
  5
71CB
330
1E
100
AcDbEntity
  8
製品
  6
Continuous
 62
     2
100
AcDbCircle
 10
281.5986864381149
 20
152.520688228429
 30
0.0
 40
0.2
100
AcDbArc
 50
0.0
 51
90.0
  0
LINE
  5
71CC
330
1E
100
AcDbEntity
  8
製品
  6
Continuous
 62
     2
100
AcDbLine
 10
281.5986864381149
 20
152.7206882284288
 30
0.0
 11
281.3986864381146
 21
152.7206882284288
 31
0.0
  0
ARC
  5
71CD
330
1E
100
AcDbEntity
  8
製品
  6
Continuous
 62
     2
100
AcDbCircle
 10
281.3986864381146
 20
152.520688228429
 30
0.0
 40
0.2
100
AcDbArc
 50
90.0
 51
180.0
  0
LINE
  5
71CE
330
1E
100
AcDbEntity
  8
製品
  6
Continuous
 62
     2
100
AcDbLine
 10
281.1986864381148
 20
152.520688228429
 30
0.0
 11
281.1986864381148
 21
152.2206882284288
 31
0.0
  0
LINE
  5
71CF
330
1E
100
AcDbEntity
  8
製品
  6
Continuous
 62
     2
100
AcDbLine
 10
281.1986864381148
 20
152.2206882284288
 30
0.0
 11
281.0986864381149
 21
152.2206882284288
 31
0.0
  0
LINE
  5
71D0
330
1E
100
AcDbEntity
  8
製品
  6
Continuous
 62
     2
100
AcDbLine
 10
281.0986864381149
 20
152.2206882284288
 30
0.0
 11
281.0986864381149
 21
152.520688228429
 31
0.0
  0
ARC
  5
71D1
330
1E
100
AcDbEntity
  8
製品
  6
Continuous
 62
     2
100
AcDbCircle
 10
281.3986864381146
 20
152.520688228429
 30
0.0
 40
0.3
100
AcDbArc
 50
90.0
 51
180.0
  0
LINE
  5
71D2
330
1E
100
AcDbEntity
  8
製品
  6
Continuous
 62
     2
100
AcDbLine
 10
281.3986864381146
 20
152.8206882284291
 30
0.0
 11
281.5986864381149
 21
152.8206882284291
 31
0.0
  0
ARC
  5
71D3
330
1E
100
AcDbEntity
  8
製品
  6
Continuous
 62
     2
100
AcDbCircle
 10
281.5986864381149
 20
152.520688228429
 30
0.0
 40
0.3
100
AcDbArc
 50
0.0
 51
90.0
  0
ARC
  5
71D4
330
1E
100
AcDbEntity
  8
製品
  6
Continuous
 62
     2
100
AcDbCircle
 10
281.5986864381149
 20
152.520688228429
 30
0.0
 40
0.2
100
AcDbArc
 50
0.0
 51
90.0
  0
LINE
  5
71D5
330
1E
100
AcDbEntity
  8
製品
  6
Continuous
 62
     2
100
AcDbLine
 10
281.5986864381149
 20
152.7206882284288
 30
0.0
 11
281.3986864381146
 21
152.7206882284288
 31
0.0
  0
ARC
  5
71D6
330
1E
100
AcDbEntity
  8
製品
  6
Continuous
 62
     2
100
AcDbCircle
 10
281.3986864381146
 20
152.520688228429
 30
0.0
 40
0.2
100
AcDbArc
 50
90.0
 51
180.0
  0
LINE
  5
71D7
330
1E
100
AcDbEntity
  8
製品
  6
Continuous
 62
     2
100
AcDbLine
 10
281.1986864381148
 20
152.520688228429
 30
0.0
 11
281.1986864381148
 21
152.2206882284288
 31
0.0
  0
ARC
  5
71D8
330
1E
100
AcDbEntity
  8
製品
  6
Continuous
 62
     3
100
AcDbCircle
 10
281.3386864381147
 20
157.3806882284291
 30
0.0
 40
0.6400000000000001
100
AcDbArc
 50
90.0
 51
180.0
  0
LINE
  5
71D9
330
1E
100
AcDbEntity
  8
製品
  6
Continuous
 62
     3
100
AcDbLine
 10
281.8986864381146
 20
158.020688228429
 30
0.0
 11
281.8986864381146
 21
162.8206882284291
 31
0.0
  0
LINE
  5
71DA
330
1E
100
AcDbEntity
  8
製品
  6
Continuous
 62
     3
100
AcDbLine
 10
277.3640634381146
 20
163.2206882284288
 30
0.0
 11
276.1640634381148
 21
163.2206882284288
 31
0.0
  0
LINE
  5
71DB
330
1E
100
AcDbEntity
  8
製品
  6
Continuous
 62
     3
100
AcDbLine
 10
276.6640634381148
 20
163.000688228429
 30
0.0
 11
276.8640634381146
 21
163.000688228429
 31
0.0
  0
LINE
  5
71DC
330
1E
100
AcDbEntity
  8
製品
  6
Continuous
 62
     3
100
AcDbLine
 10
275.6140634381146
 20
162.2206882284288
 30
0.0
 11
276.1640634381148
 21
161.2206882284288
 31
0.0
  0
LINE
  5
71DD
330
1E
100
AcDbEntity
  8
製品
  6
Continuous
 62
     3
100
AcDbLine
 10
276.1640634381148
 20
161.2206882284288
 30
0.0
 11
277.3640634381146
 21
161.2206882284288
 31
0.0
  0
LINE
  5
71DE
330
1E
100
AcDbEntity
  8
製品
  6
Continuous
 62
     3
100
AcDbLine
 10
277.3640634381146
 20
161.2206882284288
 30
0.0
 11
277.9140634381148
 21
162.2206882284288
 31
0.0
  0
ARC
  5
71DF
330
1E
100
AcDbEntity
  8
製品
  6
Continuous
 62
     3
100
AcDbCircle
 10
276.3640634381146
 20
162.6206882284289
 30
0.0
 40
0.3
100
AcDbArc
 50
270.0
 51
0.0
  0
LINE
  5
71E0
330
1E
100
AcDbEntity
  8
製品
  6
Continuous
 62
     3
100
AcDbLine
 10
276.0040634381145
 20
162.3206882284291
 30
0.0
 11
276.3640634381146
 21
162.3206882284291
 31
0.0
  0
LINE
  5
71E1
330
1E
100
AcDbEntity
  8
製品
  6
Continuous
 62
     3
100
AcDbLine
 10
277.5240634381145
 20
162.3206882284291
 30
0.0
 11
277.5240634381145
 21
162.1206882284289
 31
0.0
  0
ARC
  5
71E2
330
1E
100
AcDbEntity
  8
製品
  6
Continuous
 62
     3
100
AcDbCircle
 10
277.1640634381148
 20
162.6206882284289
 30
0.0
 40
0.3
100
AcDbArc
 50
180.0
 51
270.0
  0
LINE
  5
71E3
330
1E
100
AcDbEntity
  8
製品
  6
Continuous
 62
     3
100
AcDbLine
 10
277.5240634381145
 20
162.3206882284291
 30
0.0
 11
277.1640634381148
 21
162.3206882284291
 31
0.0
  0
LINE
  5
71E4
330
1E
100
AcDbEntity
  8
製品
  6
Continuous
 62
     3
100
AcDbLine
 10
276.6640634381148
 20
161.3906882284289
 30
0.0
 11
276.8640634381146
 21
161.3906882284289
 31
0.0
  0
LINE
  5
71E5
330
1E
100
AcDbEntity
  8
製品
  6
Continuous
 62
     3
100
AcDbLine
 10
276.8640634381146
 20
161.440688228429
 30
0.0
 11
276.8640634381146
 21
161.8206882284291
 31
0.0
  0
ARC
  5
71E6
330
1E
100
AcDbEntity
  8
製品
  6
Continuous
 62
     3
100
AcDbCircle
 10
276.3640634381146
 20
161.8206882284291
 30
0.0
 40
0.3
100
AcDbArc
 50
0.0
 51
90.0
  0
LINE
  5
71E7
330
1E
100
AcDbEntity
  8
製品
  6
Continuous
 62
     3
100
AcDbLine
 10
276.6640634381148
 20
161.440688228429
 30
0.0
 11
276.6640634381148
 21
161.8206882284291
 31
0.0
  0
LINE
  5
71E8
330
1E
100
AcDbEntity
  8
製品
  6
Continuous
 62
     3
100
AcDbLine
 10
276.0040634381145
 20
162.1206882284289
 30
0.0
 11
276.3640634381146
 21
162.1206882284289
 31
0.0
  0
ARC
  5
71E9
330
1E
100
AcDbEntity
  8
製品
  6
Continuous
 62
     3
100
AcDbCircle
 10
277.1640634381148
 20
161.8206882284291
 30
0.0
 40
0.3
100
AcDbArc
 50
90.0
 51
180.0
  0
LINE
  5
71EA
330
1E
100
AcDbEntity
  8
製品
  6
Continuous
 62
     3
100
AcDbLine
 10
277.5240634381145
 20
162.1206882284289
 30
0.0
 11
277.1640634381148
 21
162.1206882284289
 31
0.0
  0
LINE
  5
71EB
330
1E
100
AcDbEntity
  8
製品
  6
Continuous
 62
     3
100
AcDbLine
 10
276.6640634381148
 20
161.440688228429
 30
0.0
 11
276.8640634381146
 21
161.440688228429
 31
0.0
  0
LINE
  5
71EC
330
1E
100
AcDbEntity
  8
製品
  6
Continuous
 62
     3
100
AcDbLine
 10
276.0040634381145
 20
162.3206882284291
 30
0.0
 11
276.0040634381145
 21
162.1206882284289
 31
0.0
  0
ARC
  5
71ED
330
1E
100
AcDbEntity
  8
製品
  6
Continuous
 62
     2
100
AcDbCircle
 10
272.1986864381148
 20
152.520688228429
 30
0.0
 40
0.2
100
AcDbArc
 50
90.0
 51
180.0
  0
LINE
  5
71EE
330
1E
100
AcDbEntity
  8
製品
  6
Continuous
 62
     2
100
AcDbLine
 10
272.1986864381148
 20
152.7206882284288
 30
0.0
 11
272.3986864381146
 21
152.7206882284288
 31
0.0
  0
ARC
  5
71EF
330
1E
100
AcDbEntity
  8
製品
  6
Continuous
 62
     2
100
AcDbCircle
 10
272.3986864381146
 20
152.520688228429
 30
0.0
 40
0.2
100
AcDbArc
 50
0.0
 51
90.0
  0
LINE
  5
71F0
330
1E
100
AcDbEntity
  8
製品
  6
Continuous
 62
     2
100
AcDbLine
 10
272.5986864381149
 20
152.520688228429
 30
0.0
 11
272.5986864381149
 21
152.2206882284288
 31
0.0
  0
LINE
  5
71F1
330
1E
100
AcDbEntity
  8
製品
  6
Continuous
 62
     2
100
AcDbLine
 10
272.5986864381149
 20
152.2206882284288
 30
0.0
 11
272.6986864381148
 21
152.2206882284288
 31
0.0
  0
LINE
  5
71F2
330
1E
100
AcDbEntity
  8
製品
  6
Continuous
 62
     2
100
AcDbLine
 10
272.6986864381148
 20
152.2206882284288
 30
0.0
 11
272.6986864381148
 21
152.520688228429
 31
0.0
  0
ARC
  5
71F3
330
1E
100
AcDbEntity
  8
製品
  6
Continuous
 62
     2
100
AcDbCircle
 10
272.3986864381146
 20
152.520688228429
 30
0.0
 40
0.3
100
AcDbArc
 50
0.0
 51
90.0
  0
LINE
  5
71F4
330
1E
100
AcDbEntity
  8
製品
  6
Continuous
 62
     2
100
AcDbLine
 10
272.3986864381146
 20
152.8206882284291
 30
0.0
 11
272.1986864381148
 21
152.8206882284291
 31
0.0
  0
ARC
  5
71F5
330
1E
100
AcDbEntity
  8
製品
  6
Continuous
 62
     2
100
AcDbCircle
 10
272.1986864381148
 20
152.520688228429
 30
0.0
 40
0.2
100
AcDbArc
 50
90.0
 51
180.0
  0
LINE
  5
71F6
330
1E
100
AcDbEntity
  8
製品
  6
Continuous
 62
     2
100
AcDbLine
 10
272.1986864381148
 20
152.7206882284288
 30
0.0
 11
272.3986864381146
 21
152.7206882284288
 31
0.0
  0
ARC
  5
71F7
330
1E
100
AcDbEntity
  8
製品
  6
Continuous
 62
     2
100
AcDbCircle
 10
272.3986864381146
 20
152.520688228429
 30
0.0
 40
0.2
100
AcDbArc
 50
0.0
 51
90.0
  0
LINE
  5
71F8
330
1E
100
AcDbEntity
  8
製品
  6
Continuous
 62
     2
100
AcDbLine
 10
272.5986864381149
 20
152.520688228429
 30
0.0
 11
272.5986864381149
 21
152.2206882284288
 31
0.0
  0
LINE
  5
71F9
330
1E
100
AcDbEntity
  8
製品
  6
Continuous
 62
     2
100
AcDbLine
 10
272.5986864381149
 20
152.2206882284288
 30
0.0
 11
272.6986864381148
 21
152.2206882284288
 31
0.0
  0
LINE
  5
71FA
330
1E
100
AcDbEntity
  8
製品
  6
Continuous
 62
     2
100
AcDbLine
 10
272.6986864381148
 20
152.2206882284288
 30
0.0
 11
272.6986864381148
 21
152.520688228429
 31
0.0
  0
ARC
  5
71FB
330
1E
100
AcDbEntity
  8
製品
  6
Continuous
 62
     2
100
AcDbCircle
 10
272.3986864381146
 20
152.520688228429
 30
0.0
 40
0.3
100
AcDbArc
 50
0.0
 51
90.0
  0
LINE
  5
71FC
330
1E
100
AcDbEntity
  8
製品
  6
Continuous
 62
     2
100
AcDbLine
 10
272.3986864381146
 20
152.8206882284291
 30
0.0
 11
272.1986864381148
 21
152.8206882284291
 31
0.0
  0
LINE
  5
71FD
330
1E
100
AcDbEntity
  8
製品
  6
Continuous
 62
     3
100
AcDbLine
 10
272.1786864381148
 20
152.3406882284291
 30
0.0
 11
272.1786864381148
 21
152.7196852284289
 31
0.0
  0
LINE
  5
71FE
330
1E
100
AcDbEntity
  8
製品
  6
Continuous
 62
     3
100
AcDbLine
 10
272.1786864381148
 20
152.7196852284289
 30
0.0
 11
272.4986864381145
 21
152.693893228429
 31
0.0
  0
LINE
  5
71FF
330
1E
100
AcDbEntity
  8
製品
  6
Continuous
 62
     3
100
AcDbLine
 10
272.4986864381145
 20
152.693893228429
 30
0.0
 11
272.4986864381145
 21
152.3406882284291
 31
0.0
  0
ARC
  5
7200
330
1E
100
AcDbEntity
  8
製品
  6
Continuous
 62
     3
100
AcDbCircle
 10
272.4586864381146
 20
157.3806882284291
 30
0.0
 40
0.6400000000000001
100
AcDbArc
 50
0.0
 51
90.0
  0
LINE
  5
7201
330
1E
100
AcDbEntity
  8
製品
  6
Continuous
 62
     3
100
AcDbLine
 10
276.1640634381148
 20
163.2206882284288
 30
0.0
 11
275.6140634381146
 21
162.2206882284288
 31
0.0
  0
LINE
  5
7202
330
1E
100
AcDbEntity
  8
製品
  6
Continuous
 62
     3
100
AcDbLine
 10
277.9140634381148
 20
162.2206882284288
 30
0.0
 11
277.3640634381146
 21
163.2206882284288
 31
0.0
  0
CIRCLE
  5
7203
330
1E
100
AcDbEntity
  8
製品
  6
Continuous
 62
     3
100
AcDbCircle
 10
276.7640634381147
 20
162.2206882284288
 30
0.0
 40
1.0
  0
LINE
  5
7204
330
1E
100
AcDbEntity
  8
製品
  6
Continuous
 62
     3
100
AcDbLine
 10
276.8640634381146
 20
163.000688228429
 30
0.0
 11
276.8640634381146
 21
162.6206882284289
 31
0.0
  0
LINE
  5
7205
330
1E
100
AcDbEntity
  8
製品
  6
Continuous
 62
     3
100
AcDbLine
 10
276.6640634381148
 20
163.000688228429
 30
0.0
 11
276.6640634381148
 21
162.6206882284289
 31
0.0
  0
LINE
  5
7206
330
1E
100
AcDbEntity
  8
製品
  6
Continuous
 62
     3
100
AcDbLine
 10
272.8986864381146
 20
163.8206882284291
 30
0.0
 11
280.8986864381146
 21
163.8206882284291
 31
0.0
  0
LINE
  5
7207
330
1E
100
AcDbEntity
  8
図面枠
  6
Continuous
 62
     3
100
AcDbLine
 10
274.2344374381147
 20
179.7606492284287
 30
0.0
 11
294.4653654381146
 21
179.7606492284287
 31
0.0
  0
TEXT
  5
7208
330
1E
100
AcDbEntity
  8
図面枠
  6
Continuous
 62
     3
100
AcDbText
 10
274.2273474381146
 20
180.7606222284291
 30
0.0
 40
3.0
  1
ビス付きハンガ－
 41
0.8
  7
ACAD
100
AcDbText
  0
LINE
  5
7209
330
1E
100
AcDbEntity
  8
製品
  6
Continuous
 62
     2
100
AcDbLine
 10
280.6986864381148
 20
147.920688228429
 30
0.0
 11
280.4986864381145
 21
148.0206882284289
 31
0.0
  0
LINE
  5
720A
330
1E
100
AcDbEntity
  8
製品
  6
Continuous
 62
     2
100
AcDbLine
 10
280.4986864381145
 20
148.0206882284289
 30
0.0
 11
280.1986864381148
 21
147.920688228429
 31
0.0
  0
LINE
  5
720B
330
1E
100
AcDbEntity
  8
製品
  6
Continuous
 62
     2
100
AcDbLine
 10
280.1986864381148
 20
147.920688228429
 30
0.0
 11
279.8986864381146
 21
148.0206882284289
 31
0.0
  0
LINE
  5
720C
330
1E
100
AcDbEntity
  8
製品
  6
Continuous
 62
     2
100
AcDbLine
 10
279.8986864381146
 20
148.0206882284289
 30
0.0
 11
279.5986864381149
 21
147.920688228429
 31
0.0
  0
LINE
  5
720D
330
1E
100
AcDbEntity
  8
製品
  6
Continuous
 62
     2
100
AcDbLine
 10
279.5986864381149
 20
147.920688228429
 30
0.0
 11
279.2986864381147
 21
148.0206882284289
 31
0.0
  0
LINE
  5
720E
330
1E
100
AcDbEntity
  8
製品
  6
Continuous
 62
     2
100
AcDbLine
 10
280.6986864381148
 20
147.8206882284291
 30
0.0
 11
280.4986864381145
 21
147.920688228429
 31
0.0
  0
LINE
  5
720F
330
1E
100
AcDbEntity
  8
製品
  6
Continuous
 62
     2
100
AcDbLine
 10
280.4986864381145
 20
147.920688228429
 30
0.0
 11
280.1986864381148
 21
147.8206882284291
 31
0.0
  0
LINE
  5
7210
330
1E
100
AcDbEntity
  8
製品
  6
Continuous
 62
     2
100
AcDbLine
 10
280.1986864381148
 20
147.8206882284291
 30
0.0
 11
279.8986864381146
 21
147.920688228429
 31
0.0
  0
LINE
  5
7211
330
1E
100
AcDbEntity
  8
製品
  6
Continuous
 62
     2
100
AcDbLine
 10
279.8986864381146
 20
147.920688228429
 30
0.0
 11
279.5986864381149
 21
147.8206882284291
 31
0.0
  0
LINE
  5
7212
330
1E
100
AcDbEntity
  8
製品
  6
Continuous
 62
     2
100
AcDbLine
 10
279.5986864381149
 20
147.8206882284291
 30
0.0
 11
279.2986864381147
 21
147.920688228429
 31
0.0
  0
LINE
  5
7213
330
1E
100
AcDbEntity
  8
製品
  6
Continuous
 62
     3
100
AcDbLine
 10
280.6986864381148
 20
152.020688228429
 30
0.0
 11
280.9786864381146
 21
152.020688228429
 31
0.0
  0
ARC
  5
7214
330
1E
100
AcDbEntity
  8
製品
  6
Continuous
 62
     2
100
AcDbCircle
 10
281.2986864381147
 20
148.420688228429
 30
0.0
 40
0.5
100
AcDbArc
 50
270.0
 51
0.0
  0
LINE
  5
7215
330
1E
100
AcDbEntity
  8
製品
  6
Continuous
 62
     2
100
AcDbLine
 10
281.2986864381147
 20
147.920688228429
 30
0.0
 11
280.6986864381148
 21
147.920688228429
 31
0.0
  0
ARC
  5
7216
330
1E
100
AcDbEntity
  8
製品
  6
Continuous
 62
     2
100
AcDbCircle
 10
281.2986864381147
 20
148.420688228429
 30
0.0
 40
0.6
100
AcDbArc
 50
270.0
 51
0.0
  0
LINE
  5
7217
330
1E
100
AcDbEntity
  8
製品
  6
Continuous
 62
     2
100
AcDbLine
 10
281.2986864381147
 20
147.8206882284291
 30
0.0
 11
280.6986864381148
 21
147.8206882284291
 31
0.0
  0
LINE
  5
7218
330
1E
100
AcDbEntity
  8
製品
  6
Continuous
 62
     2
100
AcDbLine
 10
281.7986864381147
 20
148.420688228429
 30
0.0
 11
281.7986864381147
 21
150.5027452284291
 31
0.0
  0
LINE
  5
7219
330
1E
100
AcDbEntity
  8
製品
  6
Continuous
 62
     2
100
AcDbLine
 10
281.8986864381146
 20
148.420688228429
 30
0.0
 11
281.8986864381146
 21
150.5027452284291
 31
0.0
  0
LINE
  5
721A
330
1E
100
AcDbEntity
  8
製品
  6
Continuous
 62
     2
100
AcDbLine
 10
277.0986864381149
 20
147.8206882284291
 30
0.0
 11
276.8986864381146
 21
147.920688228429
 31
0.0
  0
LINE
  5
721B
330
1E
100
AcDbEntity
  8
製品
  6
Continuous
 62
     2
100
AcDbLine
 10
278.9986864381145
 20
147.920688228429
 30
0.0
 11
278.6986864381148
 21
148.0206882284289
 31
0.0
  0
LINE
  5
721C
330
1E
100
AcDbEntity
  8
製品
  6
Continuous
 62
     2
100
AcDbLine
 10
278.6986864381148
 20
148.0206882284289
 30
0.0
 11
278.3986864381146
 21
147.920688228429
 31
0.0
  0
LINE
  5
721D
330
1E
100
AcDbEntity
  8
製品
  6
Continuous
 62
     2
100
AcDbLine
 10
278.3986864381146
 20
147.920688228429
 30
0.0
 11
278.0986864381149
 21
148.0206882284289
 31
0.0
  0
LINE
  5
721E
330
1E
100
AcDbEntity
  8
製品
  6
Continuous
 62
     2
100
AcDbLine
 10
278.0986864381149
 20
148.0206882284289
 30
0.0
 11
277.8986864381146
 21
147.920688228429
 31
0.0
  0
LINE
  5
721F
330
1E
100
AcDbEntity
  8
製品
  6
Continuous
 62
     2
100
AcDbLine
 10
277.8986864381146
 20
147.920688228429
 30
0.0
 11
277.0986864381149
 21
147.920688228429
 31
0.0
  0
LINE
  5
7220
330
1E
100
AcDbEntity
  8
製品
  6
Continuous
 62
     2
100
AcDbLine
 10
277.0986864381149
 20
147.920688228429
 30
0.0
 11
276.8986864381146
 21
148.0206882284289
 31
0.0
  0
LINE
  5
7221
330
1E
100
AcDbEntity
  8
製品
  6
Continuous
 62
     2
100
AcDbLine
 10
275.6986864381148
 20
147.920688228429
 30
0.0
 11
275.3986864381146
 21
147.8206882284291
 31
0.0
  0
LINE
  5
7222
330
1E
100
AcDbEntity
  8
製品
  6
Continuous
 62
     2
100
AcDbLine
 10
275.8986864381146
 20
147.8206882284291
 30
0.0
 11
275.6986864381148
 21
147.920688228429
 31
0.0
  0
LINE
  5
7223
330
1E
100
AcDbEntity
  8
製品
  6
Continuous
 62
     2
100
AcDbLine
 10
275.6986864381148
 20
148.0206882284289
 30
0.0
 11
275.3986864381146
 21
147.920688228429
 31
0.0
  0
LINE
  5
7224
330
1E
100
AcDbEntity
  8
製品
  6
Continuous
 62
     2
100
AcDbLine
 10
275.8986864381146
 20
147.920688228429
 30
0.0
 11
275.6986864381148
 21
148.0206882284289
 31
0.0
  0
LINE
  5
7225
330
1E
100
AcDbEntity
  8
製品
  6
Continuous
 62
     2
100
AcDbLine
 10
275.8986864381146
 20
147.8206882284291
 30
0.0
 11
276.6986864381148
 21
147.8206882284291
 31
0.0
  0
LINE
  5
7226
330
1E
100
AcDbEntity
  8
製品
  6
Continuous
 62
     2
100
AcDbLine
 10
276.6986864381148
 20
147.8206882284291
 30
0.0
 11
276.8986864381146
 21
147.920688228429
 31
0.0
  0
LINE
  5
7227
330
1E
100
AcDbEntity
  8
製品
  6
Continuous
 62
     2
100
AcDbLine
 10
275.8986864381146
 20
147.920688228429
 30
0.0
 11
276.6986864381148
 21
147.920688228429
 31
0.0
  0
LINE
  5
7228
330
1E
100
AcDbEntity
  8
製品
  6
Continuous
 62
     2
100
AcDbLine
 10
276.6986864381148
 20
147.920688228429
 30
0.0
 11
276.8986864381146
 21
148.0206882284289
 31
0.0
  0
LINE
  5
7229
330
1E
100
AcDbEntity
  8
製品
  6
Continuous
 62
     2
100
AcDbLine
 10
278.9986864381145
 20
147.8206882284291
 30
0.0
 11
278.6986864381148
 21
147.920688228429
 31
0.0
  0
LINE
  5
722A
330
1E
100
AcDbEntity
  8
製品
  6
Continuous
 62
     2
100
AcDbLine
 10
278.6986864381148
 20
147.920688228429
 30
0.0
 11
278.3986864381146
 21
147.8206882284291
 31
0.0
  0
LINE
  5
722B
330
1E
100
AcDbEntity
  8
製品
  6
Continuous
 62
     2
100
AcDbLine
 10
278.3986864381146
 20
147.8206882284291
 30
0.0
 11
278.0986864381149
 21
147.920688228429
 31
0.0
  0
LINE
  5
722C
330
1E
100
AcDbEntity
  8
製品
  6
Continuous
 62
     2
100
AcDbLine
 10
278.0986864381149
 20
147.920688228429
 30
0.0
 11
277.8986864381146
 21
147.8206882284291
 31
0.0
  0
LINE
  5
722D
330
1E
100
AcDbEntity
  8
製品
  6
Continuous
 62
     2
100
AcDbLine
 10
277.8986864381146
 20
147.8206882284291
 30
0.0
 11
277.0986864381149
 21
147.8206882284291
 31
0.0
  0
LINE
  5
722E
330
1E
100
AcDbEntity
  8
製品
  6
Continuous
 62
     2
100
AcDbLine
 10
273.5986864381149
 20
147.8206882284291
 30
0.0
 11
273.2986864381147
 21
147.920688228429
 31
0.0
  0
LINE
  5
722F
330
1E
100
AcDbEntity
  8
製品
  6
Continuous
 62
     2
100
AcDbLine
 10
273.8986864381146
 20
147.920688228429
 30
0.0
 11
273.5986864381149
 21
147.8206882284291
 31
0.0
  0
LINE
  5
7230
330
1E
100
AcDbEntity
  8
製品
  6
Continuous
 62
     2
100
AcDbLine
 10
274.1986864381148
 20
147.8206882284291
 30
0.0
 11
273.8986864381146
 21
147.920688228429
 31
0.0
  0
LINE
  5
7231
330
1E
100
AcDbEntity
  8
製品
  6
Continuous
 62
     2
100
AcDbLine
 10
274.4986864381145
 20
147.920688228429
 30
0.0
 11
274.1986864381148
 21
147.8206882284291
 31
0.0
  0
LINE
  5
7232
330
1E
100
AcDbEntity
  8
製品
  6
Continuous
 62
     2
100
AcDbLine
 10
274.7986864381147
 20
147.8206882284291
 30
0.0
 11
274.4986864381145
 21
147.920688228429
 31
0.0
  0
LINE
  5
7233
330
1E
100
AcDbEntity
  8
製品
  6
Continuous
 62
     2
100
AcDbLine
 10
275.0986864381149
 20
147.920688228429
 30
0.0
 11
274.7986864381147
 21
147.8206882284291
 31
0.0
  0
LINE
  5
7234
330
1E
100
AcDbEntity
  8
製品
  6
Continuous
 62
     2
100
AcDbLine
 10
273.2986864381147
 20
148.0206882284289
 30
0.0
 11
273.0986864381149
 21
147.920688228429
 31
0.0
  0
LINE
  5
7235
330
1E
100
AcDbEntity
  8
製品
  6
Continuous
 62
     2
100
AcDbLine
 10
273.5986864381149
 20
147.920688228429
 30
0.0
 11
273.2986864381147
 21
148.0206882284289
 31
0.0
  0
LINE
  5
7236
330
1E
100
AcDbEntity
  8
製品
  6
Continuous
 62
     2
100
AcDbLine
 10
273.8986864381146
 20
148.0206882284289
 30
0.0
 11
273.5986864381149
 21
147.920688228429
 31
0.0
  0
LINE
  5
7237
330
1E
100
AcDbEntity
  8
製品
  6
Continuous
 62
     2
100
AcDbLine
 10
274.1986864381148
 20
147.920688228429
 30
0.0
 11
273.8986864381146
 21
148.0206882284289
 31
0.0
  0
LINE
  5
7238
330
1E
100
AcDbEntity
  8
製品
  6
Continuous
 62
     2
100
AcDbLine
 10
274.4986864381145
 20
148.0206882284289
 30
0.0
 11
274.1986864381148
 21
147.920688228429
 31
0.0
  0
LINE
  5
7239
330
1E
100
AcDbEntity
  8
製品
  6
Continuous
 62
     2
100
AcDbLine
 10
274.7986864381147
 20
147.920688228429
 30
0.0
 11
274.4986864381145
 21
148.0206882284289
 31
0.0
  0
LINE
  5
723A
330
1E
100
AcDbEntity
  8
製品
  6
Continuous
 62
     2
100
AcDbLine
 10
275.0986864381149
 20
148.0206882284289
 30
0.0
 11
274.7986864381147
 21
147.920688228429
 31
0.0
  0
LINE
  5
723B
330
1E
100
AcDbEntity
  8
製品
  6
Continuous
 62
     2
100
AcDbLine
 10
272.4986864381145
 20
147.920688228429
 30
0.0
 11
273.0986864381149
 21
147.920688228429
 31
0.0
  0
LINE
  5
723C
330
1E
100
AcDbEntity
  8
製品
  6
Continuous
 62
     2
100
AcDbLine
 10
272.4986864381145
 20
147.8206882284291
 30
0.0
 11
273.0986864381149
 21
147.8206882284291
 31
0.0
  0
LINE
  5
723D
330
1E
100
AcDbEntity
  8
製品
  6
Continuous
 62
     2
100
AcDbLine
 10
271.9986864381145
 20
148.420688228429
 30
0.0
 11
271.9986864381145
 21
150.5027452284291
 31
0.0
  0
LINE
  5
723E
330
1E
100
AcDbEntity
  8
製品
  6
Continuous
 62
     2
100
AcDbLine
 10
273.2986864381147
 20
147.920688228429
 30
0.0
 11
273.0986864381149
 21
147.8206882284291
 31
0.0
  0
LINE
  5
723F
330
1E
100
AcDbEntity
  8
製品
  6
Continuous
 62
     2
100
AcDbLine
 10
275.3986864381146
 20
147.8206882284291
 30
0.0
 11
275.0986864381149
 21
147.920688228429
 31
0.0
  0
LINE
  5
7240
330
1E
100
AcDbEntity
  8
製品
  6
Continuous
 62
     2
100
AcDbLine
 10
275.3986864381146
 20
147.920688228429
 30
0.0
 11
275.0986864381149
 21
148.0206882284289
 31
0.0
  0
LINE
  5
7241
330
1E
100
AcDbEntity
  8
製品
  6
Continuous
 62
     2
100
AcDbLine
 10
279.2986864381147
 20
148.0206882284289
 30
0.0
 11
278.9986864381145
 21
147.920688228429
 31
0.0
  0
LINE
  5
7242
330
1E
100
AcDbEntity
  8
製品
  6
Continuous
 62
     2
100
AcDbLine
 10
279.2986864381147
 20
147.920688228429
 30
0.0
 11
278.9986864381145
 21
147.8206882284291
 31
0.0
  0
LINE
  5
7243
330
1E
100
AcDbEntity
  8
製品
  6
Continuous
 62
     3
100
AcDbLine
 10
280.9786864381146
 20
151.7006882284288
 30
0.0
 11
272.8186864381147
 21
151.7006882284288
 31
0.0
  0
LINE
  5
7244
330
1E
100
AcDbEntity
  8
製品
  6
Continuous
 62
     3
100
AcDbLine
 10
272.8186864381147
 20
152.020688228429
 30
0.0
 11
280.6986864381148
 21
152.020688228429
 31
0.0
  0
LINE
  5
7245
330
1E
100
AcDbEntity
  8
製品
  6
Continuous
 62
     2
100
AcDbLine
 10
271.9986864381145
 20
150.5027452284291
 30
0.0
 11
271.9986864381145
 21
152.520688228429
 31
0.0
  0
LINE
  5
7246
330
1E
100
AcDbEntity
  8
製品
  6
Continuous
 62
     3
100
AcDbLine
 10
273.0986864381149
 20
152.020688228429
 30
0.0
 11
273.0986864381149
 21
157.3806882284291
 31
0.0
  0
LINE
  5
7247
330
1E
100
AcDbEntity
  8
製品
  6
Continuous
 62
     3
100
AcDbLine
 10
280.6986864381148
 20
157.3806882284291
 30
0.0
 11
280.6986864381148
 21
152.020688228429
 31
0.0
  0
ARC
  5
7248
330
1E
100
AcDbEntity
  8
製品
  6
Continuous
 62
     3
100
AcDbCircle
 10
280.9786864381146
 20
152.3406882284291
 30
0.0
 40
0.32
100
AcDbArc
 50
270.0
 51
0.0
  0
ARC
  5
7249
330
1E
100
AcDbEntity
  8
製品
  6
Continuous
 62
     3
100
AcDbCircle
 10
280.9786864381146
 20
152.3406882284291
 30
0.0
 40
0.6400000000000001
100
AcDbArc
 50
270.0
 51
0.0
  0
ARC
  5
724A
330
1E
100
AcDbEntity
  8
製品
  6
Continuous
 62
     3
100
AcDbCircle
 10
272.8186864381147
 20
152.3406882284291
 30
0.0
 40
0.6400000000000001
100
AcDbArc
 50
180.0
 51
270.0
  0
ARC
  5
724B
330
1E
100
AcDbEntity
  8
製品
  6
Continuous
 62
     3
100
AcDbCircle
 10
272.8186864381147
 20
152.3406882284291
 30
0.0
 40
0.32
100
AcDbArc
 50
180.0
 51
270.0
  0
LINE
  5
724C
330
1E
100
AcDbEntity
  8
製品
  6
Continuous
 62
     2
100
AcDbLine
 10
281.7986864381147
 20
150.5027452284291
 30
0.0
 11
281.7986864381147
 21
152.520688228429
 31
0.0
  0
LINE
  5
724D
330
1E
100
AcDbEntity
  8
製品
  6
Continuous
 62
     2
100
AcDbLine
 10
281.8986864381146
 20
150.5027452284291
 30
0.0
 11
281.8986864381146
 21
152.520688228429
 31
0.0
  0
LINE
  5
724E
330
1E
100
AcDbEntity
  8
製品
  6
Continuous
 62
     3
100
AcDbLine
 10
337.9641954381146
 20
163.2206882284288
 30
0.0
 11
336.7641954381148
 21
163.2206882284288
 31
0.0
  0
LINE
  5
724F
330
1E
100
AcDbEntity
  8
製品
  6
Continuous
 62
     3
100
AcDbLine
 10
337.2641954381148
 20
163.000688228429
 30
0.0
 11
337.4641954381147
 21
163.000688228429
 31
0.0
  0
ARC
  5
7250
330
1E
100
AcDbEntity
  8
製品
  6
Continuous
 62
     3
100
AcDbCircle
 10
333.4988184381146
 20
162.8206882284291
 30
0.0
 40
1.0
100
AcDbArc
 50
90.0
 51
180.0
  0
LINE
  5
7251
330
1E
100
AcDbEntity
  8
製品
  6
Continuous
 62
     3
100
AcDbLine
 10
336.7641954381148
 20
161.2206882284288
 30
0.0
 11
337.9641954381146
 21
161.2206882284288
 31
0.0
  0
LINE
  5
7252
330
1E
100
AcDbEntity
  8
製品
  6
Continuous
 62
     3
100
AcDbLine
 10
337.9641954381146
 20
161.2206882284288
 30
0.0
 11
338.5141954381148
 21
162.2206882284288
 31
0.0
  0
ARC
  5
7253
330
1E
100
AcDbEntity
  8
製品
  6
Continuous
 62
     3
100
AcDbCircle
 10
336.9641954381147
 20
162.6206882284289
 30
0.0
 40
0.3
100
AcDbArc
 50
270.0
 51
0.0
  0
LINE
  5
7254
330
1E
100
AcDbEntity
  8
製品
  6
Continuous
 62
     3
100
AcDbLine
 10
336.6041954381145
 20
162.3206882284291
 30
0.0
 11
336.9641954381147
 21
162.3206882284291
 31
0.0
  0
LINE
  5
7255
330
1E
100
AcDbEntity
  8
製品
  6
Continuous
 62
     3
100
AcDbLine
 10
338.1241954381145
 20
162.3206882284291
 30
0.0
 11
338.1241954381145
 21
162.1206882284289
 31
0.0
  0
ARC
  5
7256
330
1E
100
AcDbEntity
  8
製品
  6
Continuous
 62
     3
100
AcDbCircle
 10
337.7641954381148
 20
162.6206882284289
 30
0.0
 40
0.3
100
AcDbArc
 50
180.0
 51
270.0
  0
LINE
  5
7257
330
1E
100
AcDbEntity
  8
製品
  6
Continuous
 62
     3
100
AcDbLine
 10
338.1241954381145
 20
162.3206882284291
 30
0.0
 11
337.7641954381148
 21
162.3206882284291
 31
0.0
  0
LINE
  5
7258
330
1E
100
AcDbEntity
  8
製品
  6
Continuous
 62
     3
100
AcDbLine
 10
337.2641954381148
 20
161.3906882284289
 30
0.0
 11
337.4641954381147
 21
161.3906882284289
 31
0.0
  0
LINE
  5
7259
330
1E
100
AcDbEntity
  8
製品
  6
Continuous
 62
     3
100
AcDbLine
 10
337.4641954381147
 20
161.440688228429
 30
0.0
 11
337.4641954381147
 21
161.8206882284291
 31
0.0
  0
ARC
  5
725A
330
1E
100
AcDbEntity
  8
製品
  6
Continuous
 62
     3
100
AcDbCircle
 10
336.9641954381147
 20
161.8206882284291
 30
0.0
 40
0.3
100
AcDbArc
 50
0.0
 51
90.0
  0
LINE
  5
725B
330
1E
100
AcDbEntity
  8
製品
  6
Continuous
 62
     3
100
AcDbLine
 10
337.2641954381148
 20
161.440688228429
 30
0.0
 11
337.2641954381148
 21
161.8206882284291
 31
0.0
  0
LINE
  5
725C
330
1E
100
AcDbEntity
  8
製品
  6
Continuous
 62
     3
100
AcDbLine
 10
336.6041954381145
 20
162.1206882284289
 30
0.0
 11
336.9641954381147
 21
162.1206882284289
 31
0.0
  0
ARC
  5
725D
330
1E
100
AcDbEntity
  8
製品
  6
Continuous
 62
     3
100
AcDbCircle
 10
337.7641954381148
 20
161.8206882284291
 30
0.0
 40
0.3
100
AcDbArc
 50
90.0
 51
180.0
  0
LINE
  5
725E
330
1E
100
AcDbEntity
  8
製品
  6
Continuous
 62
     3
100
AcDbLine
 10
338.1241954381145
 20
162.1206882284289
 30
0.0
 11
337.7641954381148
 21
162.1206882284289
 31
0.0
  0
LINE
  5
725F
330
1E
100
AcDbEntity
  8
製品
  6
Continuous
 62
     3
100
AcDbLine
 10
337.2641954381148
 20
161.440688228429
 30
0.0
 11
337.4641954381147
 21
161.440688228429
 31
0.0
  0
LINE
  5
7260
330
1E
100
AcDbEntity
  8
製品
  6
Continuous
 62
     3
100
AcDbLine
 10
336.6041954381145
 20
162.3206882284291
 30
0.0
 11
336.6041954381145
 21
162.1206882284289
 31
0.0
  0
LINE
  5
7261
330
1E
100
AcDbEntity
  8
製品
  6
Continuous
 62
     3
100
AcDbLine
 10
336.2141954381146
 20
162.2206882284288
 30
0.0
 11
336.7641954381148
 21
161.2206882284288
 31
0.0
  0
ARC
  5
7262
330
1E
100
AcDbEntity
  8
製品
  6
Continuous
 62
     2
100
AcDbCircle
 10
332.7988184381148
 20
152.520688228429
 30
0.0
 40
0.2
100
AcDbArc
 50
90.0
 51
180.0
  0
LINE
  5
7263
330
1E
100
AcDbEntity
  8
製品
  6
Continuous
 62
     2
100
AcDbLine
 10
332.7988184381148
 20
152.7206882284288
 30
0.0
 11
332.9988184381146
 21
152.7206882284288
 31
0.0
  0
ARC
  5
7264
330
1E
100
AcDbEntity
  8
製品
  6
Continuous
 62
     2
100
AcDbCircle
 10
332.9988184381146
 20
152.520688228429
 30
0.0
 40
0.2
100
AcDbArc
 50
0.0
 51
90.0
  0
LINE
  5
7265
330
1E
100
AcDbEntity
  8
製品
  6
Continuous
 62
     2
100
AcDbLine
 10
333.1988184381145
 20
152.520688228429
 30
0.0
 11
333.1988184381145
 21
152.2206882284288
 31
0.0
  0
LINE
  5
7266
330
1E
100
AcDbEntity
  8
製品
  6
Continuous
 62
     2
100
AcDbLine
 10
333.1988184381145
 20
152.2206882284288
 30
0.0
 11
333.2988184381148
 21
152.2206882284288
 31
0.0
  0
LINE
  5
7267
330
1E
100
AcDbEntity
  8
製品
  6
Continuous
 62
     2
100
AcDbLine
 10
333.2988184381148
 20
152.2206882284288
 30
0.0
 11
333.2988184381148
 21
152.520688228429
 31
0.0
  0
ARC
  5
7268
330
1E
100
AcDbEntity
  8
製品
  6
Continuous
 62
     2
100
AcDbCircle
 10
332.9988184381146
 20
152.520688228429
 30
0.0
 40
0.3
100
AcDbArc
 50
0.0
 51
90.0
  0
LINE
  5
7269
330
1E
100
AcDbEntity
  8
製品
  6
Continuous
 62
     2
100
AcDbLine
 10
332.9988184381146
 20
152.8206882284291
 30
0.0
 11
332.7988184381148
 21
152.8206882284291
 31
0.0
  0
LINE
  5
726A
330
1E
100
AcDbEntity
  8
製品
  6
Continuous
 62
     3
100
AcDbLine
 10
332.7788184381148
 20
152.3406882284291
 30
0.0
 11
332.7788184381148
 21
152.7196852284289
 31
0.0
  0
LINE
  5
726B
330
1E
100
AcDbEntity
  8
製品
  6
Continuous
 62
     3
100
AcDbLine
 10
332.7788184381148
 20
152.7196852284289
 30
0.0
 11
333.0988184381145
 21
152.693893228429
 31
0.0
  0
LINE
  5
726C
330
1E
100
AcDbEntity
  8
製品
  6
Continuous
 62
     3
100
AcDbLine
 10
333.0988184381145
 20
152.693893228429
 30
0.0
 11
333.0988184381145
 21
152.3406882284291
 31
0.0
  0
ARC
  5
726D
330
1E
100
AcDbEntity
  8
製品
  6
Continuous
 62
     2
100
AcDbCircle
 10
332.7988184381148
 20
152.520688228429
 30
0.0
 40
0.2
100
AcDbArc
 50
90.0
 51
180.0
  0
LINE
  5
726E
330
1E
100
AcDbEntity
  8
製品
  6
Continuous
 62
     2
100
AcDbLine
 10
332.7988184381148
 20
152.7206882284288
 30
0.0
 11
332.9988184381146
 21
152.7206882284288
 31
0.0
  0
ARC
  5
726F
330
1E
100
AcDbEntity
  8
製品
  6
Continuous
 62
     2
100
AcDbCircle
 10
332.9988184381146
 20
152.520688228429
 30
0.0
 40
0.2
100
AcDbArc
 50
0.0
 51
90.0
  0
LINE
  5
7270
330
1E
100
AcDbEntity
  8
製品
  6
Continuous
 62
     2
100
AcDbLine
 10
333.1988184381145
 20
152.520688228429
 30
0.0
 11
333.1988184381145
 21
152.2206882284288
 31
0.0
  0
LINE
  5
7271
330
1E
100
AcDbEntity
  8
製品
  6
Continuous
 62
     2
100
AcDbLine
 10
333.1988184381145
 20
152.2206882284288
 30
0.0
 11
333.2988184381148
 21
152.2206882284288
 31
0.0
  0
LINE
  5
7272
330
1E
100
AcDbEntity
  8
製品
  6
Continuous
 62
     2
100
AcDbLine
 10
333.2988184381148
 20
152.2206882284288
 30
0.0
 11
333.2988184381148
 21
152.520688228429
 31
0.0
  0
ARC
  5
7273
330
1E
100
AcDbEntity
  8
製品
  6
Continuous
 62
     2
100
AcDbCircle
 10
332.9988184381146
 20
152.520688228429
 30
0.0
 40
0.3
100
AcDbArc
 50
0.0
 51
90.0
  0
LINE
  5
7274
330
1E
100
AcDbEntity
  8
製品
  6
Continuous
 62
     2
100
AcDbLine
 10
332.9988184381146
 20
152.8206882284291
 30
0.0
 11
332.7988184381148
 21
152.8206882284291
 31
0.0
  0
ARC
  5
7275
330
1E
100
AcDbEntity
  8
製品
  6
Continuous
 62
     3
100
AcDbCircle
 10
333.0588184381146
 20
157.3806882284291
 30
0.0
 40
0.6400000000000001
100
AcDbArc
 50
0.0
 51
90.0
  0
ARC
  5
7276
330
1E
100
AcDbEntity
  8
製品
  6
Continuous
 62
     2
100
AcDbCircle
 10
332.7988184381148
 20
152.520688228429
 30
0.0
 40
0.3
100
AcDbArc
 50
90.0
 51
180.0
  0
ARC
  5
7277
330
1E
100
AcDbEntity
  8
製品
  6
Continuous
 62
     2
100
AcDbCircle
 10
332.7988184381148
 20
152.520688228429
 30
0.0
 40
0.3
100
AcDbArc
 50
90.0
 51
180.0
  0
LINE
  5
7278
330
1E
100
AcDbEntity
  8
製品
  6
Continuous
 62
     3
100
AcDbLine
 10
333.0588184381146
 20
158.020688228429
 30
0.0
 11
332.4988184381147
 21
158.020688228429
 31
0.0
  0
LINE
  5
7279
330
1E
100
AcDbEntity
  8
製品
  6
Continuous
 62
     3
100
AcDbLine
 10
332.4988184381147
 20
158.020688228429
 30
0.0
 11
332.4988184381147
 21
162.8206882284291
 31
0.0
  0
LINE
  5
727A
330
1E
100
AcDbEntity
  8
製品
  6
Continuous
 62
     3
100
AcDbLine
 10
336.7641954381148
 20
163.2206882284288
 30
0.0
 11
336.2141954381146
 21
162.2206882284288
 31
0.0
  0
LINE
  5
727B
330
1E
100
AcDbEntity
  8
製品
  6
Continuous
 62
     3
100
AcDbLine
 10
338.5141954381148
 20
162.2206882284288
 30
0.0
 11
337.9641954381146
 21
163.2206882284288
 31
0.0
  0
CIRCLE
  5
727C
330
1E
100
AcDbEntity
  8
製品
  6
Continuous
 62
     3
100
AcDbCircle
 10
337.3641954381148
 20
162.2206882284288
 30
0.0
 40
1.0
  0
LINE
  5
727D
330
1E
100
AcDbEntity
  8
製品
  6
Continuous
 62
     3
100
AcDbLine
 10
337.4641954381147
 20
163.000688228429
 30
0.0
 11
337.4641954381147
 21
162.6206882284289
 31
0.0
  0
LINE
  5
727E
330
1E
100
AcDbEntity
  8
製品
  6
Continuous
 62
     3
100
AcDbLine
 10
337.2641954381148
 20
163.000688228429
 30
0.0
 11
337.2641954381148
 21
162.6206882284289
 31
0.0
  0
LINE
  5
727F
330
1E
100
AcDbEntity
  8
製品
  6
Continuous
 62
     2
100
AcDbLine
 10
336.4988184381147
 20
147.920688228429
 30
0.0
 11
337.2988184381148
 21
147.920688228429
 31
0.0
  0
LINE
  5
7280
330
1E
100
AcDbEntity
  8
製品
  6
Continuous
 62
     2
100
AcDbLine
 10
337.2988184381148
 20
147.920688228429
 30
0.0
 11
337.4988184381146
 21
148.0206882284289
 31
0.0
  0
LINE
  5
7281
330
1E
100
AcDbEntity
  8
製品
  6
Continuous
 62
     2
100
AcDbLine
 10
339.8988184381147
 20
147.920688228429
 30
0.0
 11
339.5988184381146
 21
147.8206882284291
 31
0.0
  0
LINE
  5
7282
330
1E
100
AcDbEntity
  8
製品
  6
Continuous
 62
     2
100
AcDbLine
 10
339.5988184381146
 20
147.8206882284291
 30
0.0
 11
339.2988184381148
 21
147.920688228429
 31
0.0
  0
LINE
  5
7283
330
1E
100
AcDbEntity
  8
製品
  6
Continuous
 62
     2
100
AcDbLine
 10
339.2988184381148
 20
147.920688228429
 30
0.0
 11
338.9988184381147
 21
147.8206882284291
 31
0.0
  0
LINE
  5
7284
330
1E
100
AcDbEntity
  8
製品
  6
Continuous
 62
     2
100
AcDbLine
 10
338.9988184381147
 20
147.8206882284291
 30
0.0
 11
338.6988184381145
 21
147.920688228429
 31
0.0
  0
LINE
  5
7285
330
1E
100
AcDbEntity
  8
製品
  6
Continuous
 62
     2
100
AcDbLine
 10
338.6988184381145
 20
147.920688228429
 30
0.0
 11
338.4988184381147
 21
147.8206882284291
 31
0.0
  0
LINE
  5
7286
330
1E
100
AcDbEntity
  8
製品
  6
Continuous
 62
     2
100
AcDbLine
 10
338.4988184381147
 20
147.8206882284291
 30
0.0
 11
337.6988184381145
 21
147.8206882284291
 31
0.0
  0
LINE
  5
7287
330
1E
100
AcDbEntity
  8
製品
  6
Continuous
 62
     2
100
AcDbLine
 10
337.6988184381145
 20
147.8206882284291
 30
0.0
 11
337.4988184381146
 21
147.920688228429
 31
0.0
  0
LINE
  5
7288
330
1E
100
AcDbEntity
  8
製品
  6
Continuous
 62
     2
100
AcDbLine
 10
339.8988184381147
 20
148.0206882284289
 30
0.0
 11
339.5988184381146
 21
147.920688228429
 31
0.0
  0
LINE
  5
7289
330
1E
100
AcDbEntity
  8
製品
  6
Continuous
 62
     2
100
AcDbLine
 10
339.5988184381146
 20
147.920688228429
 30
0.0
 11
339.2988184381148
 21
148.0206882284289
 31
0.0
  0
LINE
  5
728A
330
1E
100
AcDbEntity
  8
製品
  6
Continuous
 62
     2
100
AcDbLine
 10
339.2988184381148
 20
148.0206882284289
 30
0.0
 11
338.9988184381147
 21
147.920688228429
 31
0.0
  0
LINE
  5
728B
330
1E
100
AcDbEntity
  8
製品
  6
Continuous
 62
     2
100
AcDbLine
 10
338.9988184381147
 20
147.920688228429
 30
0.0
 11
338.6988184381145
 21
148.0206882284289
 31
0.0
  0
LINE
  5
728C
330
1E
100
AcDbEntity
  8
製品
  6
Continuous
 62
     2
100
AcDbLine
 10
338.6988184381145
 20
148.0206882284289
 30
0.0
 11
338.4988184381147
 21
147.920688228429
 31
0.0
  0
LINE
  5
728D
330
1E
100
AcDbEntity
  8
製品
  6
Continuous
 62
     2
100
AcDbLine
 10
338.4988184381147
 20
147.920688228429
 30
0.0
 11
337.6988184381145
 21
147.920688228429
 31
0.0
  0
LINE
  5
728E
330
1E
100
AcDbEntity
  8
製品
  6
Continuous
 62
     2
100
AcDbLine
 10
337.6988184381145
 20
147.920688228429
 30
0.0
 11
337.4988184381146
 21
148.0206882284289
 31
0.0
  0
LINE
  5
728F
330
1E
100
AcDbEntity
  8
製品
  6
Continuous
 62
     2
100
AcDbLine
 10
336.4988184381147
 20
147.8206882284291
 30
0.0
 11
337.2988184381148
 21
147.8206882284291
 31
0.0
  0
LINE
  5
7290
330
1E
100
AcDbEntity
  8
製品
  6
Continuous
 62
     2
100
AcDbLine
 10
337.2988184381148
 20
147.8206882284291
 30
0.0
 11
337.4988184381146
 21
147.920688228429
 31
0.0
  0
LINE
  5
7291
330
1E
100
AcDbEntity
  8
製品
  6
Continuous
 62
     2
100
AcDbLine
 10
332.5988184381146
 20
148.420688228429
 30
0.0
 11
332.5988184381146
 21
150.5027452284291
 31
0.0
  0
LINE
  5
7292
330
1E
100
AcDbEntity
  8
製品
  6
Continuous
 62
     2
100
AcDbLine
 10
333.8988184381147
 20
147.920688228429
 30
0.0
 11
333.6988184381145
 21
147.8206882284291
 31
0.0
  0
LINE
  5
7293
330
1E
100
AcDbEntity
  8
製品
  6
Continuous
 62
     2
100
AcDbLine
 10
334.1988184381145
 20
147.8206882284291
 30
0.0
 11
333.8988184381147
 21
147.920688228429
 31
0.0
  0
LINE
  5
7294
330
1E
100
AcDbEntity
  8
製品
  6
Continuous
 62
     2
100
AcDbLine
 10
334.4988184381147
 20
147.920688228429
 30
0.0
 11
334.1988184381145
 21
147.8206882284291
 31
0.0
  0
LINE
  5
7295
330
1E
100
AcDbEntity
  8
製品
  6
Continuous
 62
     2
100
AcDbLine
 10
334.7988184381148
 20
147.8206882284291
 30
0.0
 11
334.4988184381147
 21
147.920688228429
 31
0.0
  0
LINE
  5
7296
330
1E
100
AcDbEntity
  8
製品
  6
Continuous
 62
     2
100
AcDbLine
 10
335.0988184381145
 20
147.920688228429
 30
0.0
 11
334.7988184381148
 21
147.8206882284291
 31
0.0
  0
LINE
  5
7297
330
1E
100
AcDbEntity
  8
製品
  6
Continuous
 62
     2
100
AcDbLine
 10
335.3988184381147
 20
147.8206882284291
 30
0.0
 11
335.0988184381145
 21
147.920688228429
 31
0.0
  0
LINE
  5
7298
330
1E
100
AcDbEntity
  8
製品
  6
Continuous
 62
     2
100
AcDbLine
 10
335.6988184381145
 20
147.920688228429
 30
0.0
 11
335.3988184381147
 21
147.8206882284291
 31
0.0
  0
LINE
  5
7299
330
1E
100
AcDbEntity
  8
製品
  6
Continuous
 62
     2
100
AcDbLine
 10
335.9988184381147
 20
147.8206882284291
 30
0.0
 11
335.6988184381145
 21
147.920688228429
 31
0.0
  0
LINE
  5
729A
330
1E
100
AcDbEntity
  8
製品
  6
Continuous
 62
     2
100
AcDbLine
 10
336.2988184381148
 20
147.920688228429
 30
0.0
 11
335.9988184381147
 21
147.8206882284291
 31
0.0
  0
LINE
  5
729B
330
1E
100
AcDbEntity
  8
製品
  6
Continuous
 62
     2
100
AcDbLine
 10
333.8988184381147
 20
148.0206882284289
 30
0.0
 11
333.6988184381145
 21
147.920688228429
 31
0.0
  0
LINE
  5
729C
330
1E
100
AcDbEntity
  8
製品
  6
Continuous
 62
     2
100
AcDbLine
 10
334.1988184381145
 20
147.920688228429
 30
0.0
 11
333.8988184381147
 21
148.0206882284289
 31
0.0
  0
LINE
  5
729D
330
1E
100
AcDbEntity
  8
製品
  6
Continuous
 62
     2
100
AcDbLine
 10
334.4988184381147
 20
148.0206882284289
 30
0.0
 11
334.1988184381145
 21
147.920688228429
 31
0.0
  0
LINE
  5
729E
330
1E
100
AcDbEntity
  8
製品
  6
Continuous
 62
     2
100
AcDbLine
 10
334.7988184381148
 20
147.920688228429
 30
0.0
 11
334.4988184381147
 21
148.0206882284289
 31
0.0
  0
LINE
  5
729F
330
1E
100
AcDbEntity
  8
製品
  6
Continuous
 62
     2
100
AcDbLine
 10
335.0988184381145
 20
148.0206882284289
 30
0.0
 11
334.7988184381148
 21
147.920688228429
 31
0.0
  0
LINE
  5
72A0
330
1E
100
AcDbEntity
  8
製品
  6
Continuous
 62
     2
100
AcDbLine
 10
335.3988184381147
 20
147.920688228429
 30
0.0
 11
335.0988184381145
 21
148.0206882284289
 31
0.0
  0
LINE
  5
72A1
330
1E
100
AcDbEntity
  8
製品
  6
Continuous
 62
     2
100
AcDbLine
 10
335.6988184381145
 20
148.0206882284289
 30
0.0
 11
335.3988184381147
 21
147.920688228429
 31
0.0
  0
LINE
  5
72A2
330
1E
100
AcDbEntity
  8
製品
  6
Continuous
 62
     2
100
AcDbLine
 10
335.9988184381147
 20
147.920688228429
 30
0.0
 11
335.6988184381145
 21
148.0206882284289
 31
0.0
  0
LINE
  5
72A3
330
1E
100
AcDbEntity
  8
製品
  6
Continuous
 62
     2
100
AcDbLine
 10
336.2988184381148
 20
148.0206882284289
 30
0.0
 11
335.9988184381147
 21
147.920688228429
 31
0.0
  0
LINE
  5
72A4
330
1E
100
AcDbEntity
  8
製品
  6
Continuous
 62
     2
100
AcDbLine
 10
333.0988184381145
 20
147.920688228429
 30
0.0
 11
333.6988184381145
 21
147.920688228429
 31
0.0
  0
LINE
  5
72A5
330
1E
100
AcDbEntity
  8
製品
  6
Continuous
 62
     2
100
AcDbLine
 10
333.0988184381145
 20
147.8206882284291
 30
0.0
 11
333.6988184381145
 21
147.8206882284291
 31
0.0
  0
LINE
  5
72A6
330
1E
100
AcDbEntity
  8
製品
  6
Continuous
 62
     2
100
AcDbLine
 10
336.4988184381147
 20
147.8206882284291
 30
0.0
 11
336.2988184381148
 21
147.920688228429
 31
0.0
  0
LINE
  5
72A7
330
1E
100
AcDbEntity
  8
製品
  6
Continuous
 62
     2
100
AcDbLine
 10
336.4988184381147
 20
147.920688228429
 30
0.0
 11
336.2988184381148
 21
148.0206882284289
 31
0.0
  0
LINE
  5
72A8
330
1E
100
AcDbEntity
  8
製品
  6
Continuous
 62
     2
100
AcDbLine
 10
332.4988184381147
 20
148.420688228429
 30
0.0
 11
332.4988184381147
 21
150.5027452284291
 31
0.0
  0
ARC
  5
72A9
330
1E
100
AcDbEntity
  8
製品
  6
Continuous
 62
     2
100
AcDbCircle
 10
333.0988184381145
 20
148.420688228429
 30
0.0
 40
0.5
100
AcDbArc
 50
180.0
 51
270.0
  0
ARC
  5
72AA
330
1E
100
AcDbEntity
  8
製品
  6
Continuous
 62
     2
100
AcDbCircle
 10
333.0988184381145
 20
148.420688228429
 30
0.0
 40
0.6
100
AcDbArc
 50
180.0
 51
270.0
  0
LINE
  5
72AB
330
1E
100
AcDbEntity
  8
製品
  6
Continuous
 62
     2
100
AcDbLine
 10
340.1988184381145
 20
147.8206882284291
 30
0.0
 11
339.8988184381147
 21
147.920688228429
 31
0.0
  0
LINE
  5
72AC
330
1E
100
AcDbEntity
  8
製品
  6
Continuous
 62
     2
100
AcDbLine
 10
340.1988184381145
 20
147.920688228429
 30
0.0
 11
339.8988184381147
 21
148.0206882284289
 31
0.0
  0
LINE
  5
72AD
330
1E
100
AcDbEntity
  8
製品
  6
Continuous
 62
     2
100
AcDbLine
 10
332.5988184381146
 20
150.5027452284291
 30
0.0
 11
332.5988184381146
 21
152.520688228429
 31
0.0
  0
LINE
  5
72AE
330
1E
100
AcDbEntity
  8
製品
  6
Continuous
 62
     2
100
AcDbLine
 10
332.4988184381147
 20
150.5027452284291
 30
0.0
 11
332.4988184381147
 21
152.520688228429
 31
0.0
  0
ARC
  5
72AF
330
1E
100
AcDbEntity
  8
製品
  6
Continuous
 62
     3
100
AcDbCircle
 10
333.4188184381147
 20
152.3406882284291
 30
0.0
 40
0.6400000000000001
100
AcDbArc
 50
180.0
 51
270.0
  0
ARC
  5
72B0
330
1E
100
AcDbEntity
  8
製品
  6
Continuous
 62
     3
100
AcDbCircle
 10
333.4188184381147
 20
152.3406882284291
 30
0.0
 40
0.32
100
AcDbArc
 50
180.0
 51
270.0
  0
LINE
  5
72B1
330
1E
100
AcDbEntity
  8
製品
  6
Continuous
 62
     3
100
AcDbLine
 10
333.6988184381145
 20
152.020688228429
 30
0.0
 11
333.6988184381145
 21
157.3806882284291
 31
0.0
  0
CIRCLE
  5
72B2
330
1E
100
AcDbEntity
  8
図面枠
  6
Continuous
 62
     3
100
AcDbCircle
 10
312.4524004381147
 20
146.9544032284291
 30
0.0
 40
0.3
  0
LINE
  5
72B3
330
1E
100
AcDbEntity
  8
図面枠
  6
Continuous
 62
     3
100
AcDbLine
 10
312.4524004381147
 20
146.9544032284291
 30
0.0
 11
317.1168844381146
 21
137.7072672284291
 31
0.0
  0
LINE
  5
72B4
330
1E
100
AcDbEntity
  8
図面枠
  6
Continuous
 62
     3
100
AcDbLine
 10
317.1168844381146
 20
137.7072672284291
 30
0.0
 11
327.5428924381146
 21
137.7072672284291
 31
0.0
  0
TEXT
  5
72B5
330
1E
100
AcDbEntity
  8
図面枠
  6
Continuous
 62
     3
100
AcDbText
 10
317.1257694381148
 20
138.7072312284288
 30
0.0
 40
3.0
  1
仕上げ材
 41
0.8
  7
ACAD
100
AcDbText
  0
TEXT
  5
72B6
330
1E
100
AcDbEntity
  8
図面枠
  6
Continuous
 62
     3
100
AcDbText
 10
371.4994414381146
 20
170.9747862284291
 30
0.0
 40
3.0
  1
Ｗ用
 41
0.8
  7
ACAD
100
AcDbText
  0
LINE
  5
72B7
330
1E
100
AcDbEntity
  8
製品
  6
Continuous
 62
     4
100
AcDbLine
 10
394.2985544381146
 20
152.8206882284291
 30
0.0
 11
341.2988184381148
 21
152.8206882284291
 31
0.0
  0
LINE
  5
72B8
330
1E
100
AcDbEntity
  8
図面枠
  6
Continuous
 62
     3
100
AcDbLine
 10
387.5387214381145
 20
175.0664352284291
 30
0.0
 11
366.2266214381144
 21
175.0664352284291
 31
0.0
  0
TEXT
  5
72B9
330
1E
100
AcDbEntity
  8
図面枠
  6
Continuous
 62
     3
100
AcDbText
 10
366.9375824381146
 20
176.008897228429
 30
0.0
 40
3.0
  1
耐風圧用クリップ
 41
0.8
  7
ACAD
100
AcDbText
  0
LINE
  5
72BA
330
1E
100
AcDbEntity
  8
製品
  6
Continuous
 62
     4
100
AcDbLine
 10
342.4988184381147
 20
160.420688228429
 30
0.0
 11
393.0985544381148
 21
160.420688228429
 31
0.0
  0
ARC
  5
72BB
330
1E
100
AcDbEntity
  8
製品
  6
Continuous
 62
     3
100
AcDbCircle
 10
341.4988184381146
 20
162.8206882284291
 30
0.0
 40
1.0
100
AcDbArc
 50
0.0
 51
90.0
  0
LINE
  5
72BC
330
1E
100
AcDbEntity
  8
製品
  6
Continuous
 62
     3
100
AcDbLine
 10
342.4988184381147
 20
158.020688228429
 30
0.0
 11
341.9388184381147
 21
158.020688228429
 31
0.0
  0
ARC
  5
72BD
330
1E
100
AcDbEntity
  8
製品
  6
Continuous
 62
     2
100
AcDbCircle
 10
342.1988184381145
 20
152.520688228429
 30
0.0
 40
0.2
100
AcDbArc
 50
0.0
 51
90.0
  0
LINE
  5
72BE
330
1E
100
AcDbEntity
  8
製品
  6
Continuous
 62
     2
100
AcDbLine
 10
342.1988184381145
 20
152.7206882284288
 30
0.0
 11
341.9988184381147
 21
152.7206882284288
 31
0.0
  0
ARC
  5
72BF
330
1E
100
AcDbEntity
  8
製品
  6
Continuous
 62
     2
100
AcDbCircle
 10
341.9988184381147
 20
152.520688228429
 30
0.0
 40
0.2
100
AcDbArc
 50
90.0
 51
180.0
  0
LINE
  5
72C0
330
1E
100
AcDbEntity
  8
製品
  6
Continuous
 62
     2
100
AcDbLine
 10
341.7988184381148
 20
152.520688228429
 30
0.0
 11
341.7988184381148
 21
152.2206882284288
 31
0.0
  0
LINE
  5
72C1
330
1E
100
AcDbEntity
  8
製品
  6
Continuous
 62
     2
100
AcDbLine
 10
341.7988184381148
 20
152.2206882284288
 30
0.0
 11
341.6988184381145
 21
152.2206882284288
 31
0.0
  0
LINE
  5
72C2
330
1E
100
AcDbEntity
  8
製品
  6
Continuous
 62
     2
100
AcDbLine
 10
341.6988184381145
 20
152.2206882284288
 30
0.0
 11
341.6988184381145
 21
152.520688228429
 31
0.0
  0
ARC
  5
72C3
330
1E
100
AcDbEntity
  8
製品
  6
Continuous
 62
     2
100
AcDbCircle
 10
341.9988184381147
 20
152.520688228429
 30
0.0
 40
0.3
100
AcDbArc
 50
90.0
 51
180.0
  0
LINE
  5
72C4
330
1E
100
AcDbEntity
  8
製品
  6
Continuous
 62
     2
100
AcDbLine
 10
341.9988184381147
 20
152.8206882284291
 30
0.0
 11
342.1988184381145
 21
152.8206882284291
 31
0.0
  0
ARC
  5
72C5
330
1E
100
AcDbEntity
  8
製品
  6
Continuous
 62
     2
100
AcDbCircle
 10
342.1988184381145
 20
152.520688228429
 30
0.0
 40
0.3
100
AcDbArc
 50
0.0
 51
90.0
  0
ARC
  5
72C6
330
1E
100
AcDbEntity
  8
製品
  6
Continuous
 62
     2
100
AcDbCircle
 10
342.1988184381145
 20
152.520688228429
 30
0.0
 40
0.2
100
AcDbArc
 50
0.0
 51
90.0
  0
LINE
  5
72C7
330
1E
100
AcDbEntity
  8
製品
  6
Continuous
 62
     2
100
AcDbLine
 10
342.1988184381145
 20
152.7206882284288
 30
0.0
 11
341.9988184381147
 21
152.7206882284288
 31
0.0
  0
ARC
  5
72C8
330
1E
100
AcDbEntity
  8
製品
  6
Continuous
 62
     2
100
AcDbCircle
 10
341.9988184381147
 20
152.520688228429
 30
0.0
 40
0.2
100
AcDbArc
 50
90.0
 51
180.0
  0
LINE
  5
72C9
330
1E
100
AcDbEntity
  8
製品
  6
Continuous
 62
     2
100
AcDbLine
 10
341.7988184381148
 20
152.520688228429
 30
0.0
 11
341.7988184381148
 21
152.2206882284288
 31
0.0
  0
LINE
  5
72CA
330
1E
100
AcDbEntity
  8
製品
  6
Continuous
 62
     2
100
AcDbLine
 10
341.7988184381148
 20
152.2206882284288
 30
0.0
 11
341.6988184381145
 21
152.2206882284288
 31
0.0
  0
LINE
  5
72CB
330
1E
100
AcDbEntity
  8
製品
  6
Continuous
 62
     2
100
AcDbLine
 10
341.6988184381145
 20
152.2206882284288
 30
0.0
 11
341.6988184381145
 21
152.520688228429
 31
0.0
  0
ARC
  5
72CC
330
1E
100
AcDbEntity
  8
製品
  6
Continuous
 62
     2
100
AcDbCircle
 10
341.9988184381147
 20
152.520688228429
 30
0.0
 40
0.3
100
AcDbArc
 50
90.0
 51
180.0
  0
LINE
  5
72CD
330
1E
100
AcDbEntity
  8
製品
  6
Continuous
 62
     2
100
AcDbLine
 10
341.9988184381147
 20
152.8206882284291
 30
0.0
 11
342.1988184381145
 21
152.8206882284291
 31
0.0
  0
ARC
  5
72CE
330
1E
100
AcDbEntity
  8
製品
  6
Continuous
 62
     2
100
AcDbCircle
 10
342.1988184381145
 20
152.520688228429
 30
0.0
 40
0.3
100
AcDbArc
 50
0.0
 51
90.0
  0
LINE
  5
72CF
330
1E
100
AcDbEntity
  8
製品
  6
Continuous
 62
     3
100
AcDbLine
 10
341.8988184381147
 20
152.3406882284291
 30
0.0
 11
341.8988184381147
 21
152.693893228429
 31
0.0
  0
LINE
  5
72D0
330
1E
100
AcDbEntity
  8
製品
  6
Continuous
 62
     3
100
AcDbLine
 10
341.8988184381147
 20
152.693893228429
 30
0.0
 11
342.2188184381149
 21
152.7196852284289
 31
0.0
  0
LINE
  5
72D1
330
1E
100
AcDbEntity
  8
製品
  6
Continuous
 62
     3
100
AcDbLine
 10
342.2188184381149
 20
152.7196852284289
 30
0.0
 11
342.2188184381149
 21
152.3406882284291
 31
0.0
  0
ARC
  5
72D2
330
1E
100
AcDbEntity
  8
製品
  6
Continuous
 62
     3
100
AcDbCircle
 10
341.9388184381147
 20
157.3806882284291
 30
0.0
 40
0.6400000000000001
100
AcDbArc
 50
90.0
 51
180.0
  0
LINE
  5
72D3
330
1E
100
AcDbEntity
  8
製品
  6
Continuous
 62
     3
100
AcDbLine
 10
342.4988184381147
 20
158.020688228429
 30
0.0
 11
342.4988184381147
 21
162.8206882284291
 31
0.0
  0
LINE
  5
72D4
330
1E
100
AcDbEntity
  8
製品
  6
Continuous
 62
     2
100
AcDbLine
 10
341.2988184381148
 20
147.8206882284291
 30
0.0
 11
341.0988184381146
 21
147.920688228429
 31
0.0
  0
LINE
  5
72D5
330
1E
100
AcDbEntity
  8
製品
  6
Continuous
 62
     2
100
AcDbLine
 10
341.0988184381146
 20
147.920688228429
 30
0.0
 11
340.7988184381149
 21
147.8206882284291
 31
0.0
  0
LINE
  5
72D6
330
1E
100
AcDbEntity
  8
製品
  6
Continuous
 62
     2
100
AcDbLine
 10
340.7988184381149
 20
147.8206882284291
 30
0.0
 11
340.4988184381147
 21
147.920688228429
 31
0.0
  0
LINE
  5
72D7
330
1E
100
AcDbEntity
  8
製品
  6
Continuous
 62
     2
100
AcDbLine
 10
341.2988184381148
 20
147.920688228429
 30
0.0
 11
341.0988184381146
 21
148.0206882284289
 31
0.0
  0
LINE
  5
72D8
330
1E
100
AcDbEntity
  8
製品
  6
Continuous
 62
     2
100
AcDbLine
 10
341.0988184381146
 20
148.0206882284289
 30
0.0
 11
340.7988184381149
 21
147.920688228429
 31
0.0
  0
LINE
  5
72D9
330
1E
100
AcDbEntity
  8
製品
  6
Continuous
 62
     2
100
AcDbLine
 10
340.7988184381149
 20
147.920688228429
 30
0.0
 11
340.4988184381147
 21
148.0206882284289
 31
0.0
  0
ARC
  5
72DA
330
1E
100
AcDbEntity
  8
製品
  6
Continuous
 62
     2
100
AcDbCircle
 10
341.8988184381147
 20
148.420688228429
 30
0.0
 40
0.5
100
AcDbArc
 50
270.0
 51
0.0
  0
LINE
  5
72DB
330
1E
100
AcDbEntity
  8
製品
  6
Continuous
 62
     2
100
AcDbLine
 10
341.8988184381147
 20
147.920688228429
 30
0.0
 11
341.2988184381148
 21
147.920688228429
 31
0.0
  0
ARC
  5
72DC
330
1E
100
AcDbEntity
  8
製品
  6
Continuous
 62
     2
100
AcDbCircle
 10
341.8988184381147
 20
148.420688228429
 30
0.0
 40
0.6
100
AcDbArc
 50
270.0
 51
0.0
  0
LINE
  5
72DD
330
1E
100
AcDbEntity
  8
製品
  6
Continuous
 62
     2
100
AcDbLine
 10
341.8988184381147
 20
147.8206882284291
 30
0.0
 11
341.2988184381148
 21
147.8206882284291
 31
0.0
  0
LINE
  5
72DE
330
1E
100
AcDbEntity
  8
製品
  6
Continuous
 62
     2
100
AcDbLine
 10
342.3988184381148
 20
148.420688228429
 30
0.0
 11
342.3988184381148
 21
150.5027452284291
 31
0.0
  0
LINE
  5
72DF
330
1E
100
AcDbEntity
  8
製品
  6
Continuous
 62
     2
100
AcDbLine
 10
342.4988184381147
 20
148.420688228429
 30
0.0
 11
342.4988184381147
 21
150.5027452284291
 31
0.0
  0
LINE
  5
72E0
330
1E
100
AcDbEntity
  8
製品
  6
Continuous
 62
     3
100
AcDbLine
 10
341.2988184381148
 20
152.020688228429
 30
0.0
 11
341.5788184381146
 21
152.020688228429
 31
0.0
  0
ARC
  5
72E1
330
1E
100
AcDbEntity
  8
製品
  6
Continuous
 62
     3
100
AcDbCircle
 10
341.5788184381146
 20
152.3406882284291
 30
0.0
 40
0.6400000000000001
100
AcDbArc
 50
270.0
 51
0.0
  0
LINE
  5
72E2
330
1E
100
AcDbEntity
  8
製品
  6
Continuous
 62
     2
100
AcDbLine
 10
342.3988184381148
 20
150.5027452284291
 30
0.0
 11
342.3988184381148
 21
152.520688228429
 31
0.0
  0
LINE
  5
72E3
330
1E
100
AcDbEntity
  8
製品
  6
Continuous
 62
     2
100
AcDbLine
 10
342.4988184381147
 20
150.5027452284291
 30
0.0
 11
342.4988184381147
 21
152.520688228429
 31
0.0
  0
LINE
  5
72E4
330
1E
100
AcDbEntity
  8
製品
  6
Continuous
 62
     3
100
AcDbLine
 10
341.2988184381148
 20
157.3806882284291
 30
0.0
 11
341.2988184381148
 21
152.020688228429
 31
0.0
  0
ARC
  5
72E5
330
1E
100
AcDbEntity
  8
製品
  6
Continuous
 62
     3
100
AcDbCircle
 10
341.5788184381146
 20
152.3406882284291
 30
0.0
 40
0.32
100
AcDbArc
 50
270.0
 51
0.0
  0
ARC
  5
72E6
330
1E
100
AcDbEntity
  8
製品
  6
Continuous
 62
     3
100
AcDbCircle
 10
402.0985544381147
 20
162.8206882284291
 30
0.0
 40
1.0
100
AcDbArc
 50
0.0
 51
90.0
  0
LINE
  5
72E7
330
1E
100
AcDbEntity
  8
製品
  6
Continuous
 62
     3
100
AcDbLine
 10
403.0985544381147
 20
158.020688228429
 30
0.0
 11
402.5385544381148
 21
158.020688228429
 31
0.0
  0
LINE
  5
72E8
330
1E
100
AcDbEntity
  8
製品
  6
Continuous
 62
     3
100
AcDbLine
 10
402.4985544381143
 20
152.3406882284291
 30
0.0
 11
402.4985544381143
 21
152.693893228429
 31
0.0
  0
LINE
  5
72E9
330
1E
100
AcDbEntity
  8
製品
  6
Continuous
 62
     3
100
AcDbLine
 10
402.4985544381143
 20
152.693893228429
 30
0.0
 11
402.8185544381146
 21
152.7196852284289
 31
0.0
  0
LINE
  5
72EA
330
1E
100
AcDbEntity
  8
製品
  6
Continuous
 62
     3
100
AcDbLine
 10
402.8185544381146
 20
152.7196852284289
 30
0.0
 11
402.8185544381146
 21
152.3406882284291
 31
0.0
  0
ARC
  5
72EB
330
1E
100
AcDbEntity
  8
製品
  6
Continuous
 62
     2
100
AcDbCircle
 10
402.7985544381145
 20
152.520688228429
 30
0.0
 40
0.3
100
AcDbArc
 50
0.0
 51
90.0
  0
ARC
  5
72EC
330
1E
100
AcDbEntity
  8
製品
  6
Continuous
 62
     2
100
AcDbCircle
 10
402.7985544381145
 20
152.520688228429
 30
0.0
 40
0.2
100
AcDbArc
 50
0.0
 51
90.0
  0
LINE
  5
72ED
330
1E
100
AcDbEntity
  8
製品
  6
Continuous
 62
     2
100
AcDbLine
 10
402.7985544381145
 20
152.7206882284288
 30
0.0
 11
402.5985544381147
 21
152.7206882284288
 31
0.0
  0
ARC
  5
72EE
330
1E
100
AcDbEntity
  8
製品
  6
Continuous
 62
     2
100
AcDbCircle
 10
402.5985544381147
 20
152.520688228429
 30
0.0
 40
0.2
100
AcDbArc
 50
90.0
 51
180.0
  0
LINE
  5
72EF
330
1E
100
AcDbEntity
  8
製品
  6
Continuous
 62
     2
100
AcDbLine
 10
402.3985544381145
 20
152.520688228429
 30
0.0
 11
402.3985544381145
 21
152.2206882284288
 31
0.0
  0
LINE
  5
72F0
330
1E
100
AcDbEntity
  8
製品
  6
Continuous
 62
     2
100
AcDbLine
 10
402.3985544381145
 20
152.2206882284288
 30
0.0
 11
402.2985544381145
 21
152.2206882284288
 31
0.0
  0
LINE
  5
72F1
330
1E
100
AcDbEntity
  8
製品
  6
Continuous
 62
     2
100
AcDbLine
 10
402.2985544381145
 20
152.2206882284288
 30
0.0
 11
402.2985544381145
 21
152.520688228429
 31
0.0
  0
ARC
  5
72F2
330
1E
100
AcDbEntity
  8
製品
  6
Continuous
 62
     2
100
AcDbCircle
 10
402.5985544381147
 20
152.520688228429
 30
0.0
 40
0.3
100
AcDbArc
 50
90.0
 51
180.0
  0
LINE
  5
72F3
330
1E
100
AcDbEntity
  8
製品
  6
Continuous
 62
     2
100
AcDbLine
 10
402.5985544381147
 20
152.8206882284291
 30
0.0
 11
402.7985544381145
 21
152.8206882284291
 31
0.0
  0
ARC
  5
72F4
330
1E
100
AcDbEntity
  8
製品
  6
Continuous
 62
     3
100
AcDbCircle
 10
402.5385544381148
 20
157.3806882284291
 30
0.0
 40
0.6400000000000001
100
AcDbArc
 50
90.0
 51
180.0
  0
LINE
  5
72F5
330
1E
100
AcDbEntity
  8
製品
  6
Continuous
 62
     3
100
AcDbLine
 10
403.0985544381147
 20
158.020688228429
 30
0.0
 11
403.0985544381147
 21
162.8206882284291
 31
0.0
  0
LINE
  5
72F6
330
1E
100
AcDbEntity
  8
製品
  6
Continuous
 62
     3
100
AcDbLine
 10
398.5639304381149
 20
163.2206882284288
 30
0.0
 11
397.3639304381146
 21
163.2206882284288
 31
0.0
  0
LINE
  5
72F7
330
1E
100
AcDbEntity
  8
製品
  6
Continuous
 62
     3
100
AcDbLine
 10
397.8639304381146
 20
163.000688228429
 30
0.0
 11
398.0639304381149
 21
163.000688228429
 31
0.0
  0
ARC
  5
72F8
330
1E
100
AcDbEntity
  8
製品
  6
Continuous
 62
     3
100
AcDbCircle
 10
394.0985544381148
 20
162.8206882284291
 30
0.0
 40
1.0
100
AcDbArc
 50
90.0
 51
180.0
  0
LINE
  5
72F9
330
1E
100
AcDbEntity
  8
製品
  6
Continuous
 62
     3
100
AcDbLine
 10
397.3639304381146
 20
161.2206882284288
 30
0.0
 11
398.5639304381149
 21
161.2206882284288
 31
0.0
  0
LINE
  5
72FA
330
1E
100
AcDbEntity
  8
製品
  6
Continuous
 62
     3
100
AcDbLine
 10
398.5639304381149
 20
161.2206882284288
 30
0.0
 11
399.1139304381146
 21
162.2206882284288
 31
0.0
  0
ARC
  5
72FB
330
1E
100
AcDbEntity
  8
製品
  6
Continuous
 62
     3
100
AcDbCircle
 10
397.5639304381149
 20
162.6206882284289
 30
0.0
 40
0.3
100
AcDbArc
 50
270.0
 51
0.0
  0
LINE
  5
72FC
330
1E
100
AcDbEntity
  8
製品
  6
Continuous
 62
     3
100
AcDbLine
 10
398.7239304381148
 20
162.3206882284291
 30
0.0
 11
398.7239304381148
 21
162.1206882284289
 31
0.0
  0
ARC
  5
72FD
330
1E
100
AcDbEntity
  8
製品
  6
Continuous
 62
     3
100
AcDbCircle
 10
398.3639304381146
 20
162.6206882284289
 30
0.0
 40
0.3
100
AcDbArc
 50
180.0
 51
270.0
  0
LINE
  5
72FE
330
1E
100
AcDbEntity
  8
製品
  6
Continuous
 62
     3
100
AcDbLine
 10
398.7239304381148
 20
162.3206882284291
 30
0.0
 11
398.3639304381146
 21
162.3206882284291
 31
0.0
  0
LINE
  5
72FF
330
1E
100
AcDbEntity
  8
製品
  6
Continuous
 62
     3
100
AcDbLine
 10
397.8639304381146
 20
161.3906882284289
 30
0.0
 11
398.0639304381149
 21
161.3906882284289
 31
0.0
  0
LINE
  5
7300
330
1E
100
AcDbEntity
  8
製品
  6
Continuous
 62
     3
100
AcDbLine
 10
398.0639304381149
 20
161.440688228429
 30
0.0
 11
398.0639304381149
 21
161.8206882284291
 31
0.0
  0
ARC
  5
7301
330
1E
100
AcDbEntity
  8
製品
  6
Continuous
 62
     3
100
AcDbCircle
 10
397.5639304381149
 20
161.8206882284291
 30
0.0
 40
0.3
100
AcDbArc
 50
0.0
 51
90.0
  0
LINE
  5
7302
330
1E
100
AcDbEntity
  8
製品
  6
Continuous
 62
     3
100
AcDbLine
 10
397.8639304381146
 20
161.440688228429
 30
0.0
 11
397.8639304381146
 21
161.8206882284291
 31
0.0
  0
ARC
  5
7303
330
1E
100
AcDbEntity
  8
製品
  6
Continuous
 62
     3
100
AcDbCircle
 10
398.3639304381146
 20
161.8206882284291
 30
0.0
 40
0.3
100
AcDbArc
 50
90.0
 51
180.0
  0
LINE
  5
7304
330
1E
100
AcDbEntity
  8
製品
  6
Continuous
 62
     3
100
AcDbLine
 10
398.7239304381148
 20
162.1206882284289
 30
0.0
 11
398.3639304381146
 21
162.1206882284289
 31
0.0
  0
LINE
  5
7305
330
1E
100
AcDbEntity
  8
製品
  6
Continuous
 62
     3
100
AcDbLine
 10
397.8639304381146
 20
161.440688228429
 30
0.0
 11
398.0639304381149
 21
161.440688228429
 31
0.0
  0
LINE
  5
7306
330
1E
100
AcDbEntity
  8
製品
  6
Continuous
 62
     3
100
AcDbLine
 10
397.2039304381148
 20
162.3206882284291
 30
0.0
 11
397.2039304381148
 21
162.1206882284289
 31
0.0
  0
LINE
  5
7307
330
1E
100
AcDbEntity
  8
製品
  6
Continuous
 62
     3
100
AcDbLine
 10
396.8139304381149
 20
162.2206882284288
 30
0.0
 11
397.3639304381146
 21
161.2206882284288
 31
0.0
  0
LINE
  5
7308
330
1E
100
AcDbEntity
  8
製品
  6
Continuous
 62
     3
100
AcDbLine
 10
397.2039304381148
 20
162.3206882284291
 30
0.0
 11
397.5639304381149
 21
162.3206882284291
 31
0.0
  0
LINE
  5
7309
330
1E
100
AcDbEntity
  8
製品
  6
Continuous
 62
     3
100
AcDbLine
 10
397.2039304381148
 20
162.1206882284289
 30
0.0
 11
397.5639304381149
 21
162.1206882284289
 31
0.0
  0
LINE
  5
730A
330
1E
100
AcDbEntity
  8
製品
  6
Continuous
 62
     3
100
AcDbLine
 10
393.6985544381147
 20
152.693893228429
 30
0.0
 11
393.6985544381147
 21
152.3406882284291
 31
0.0
  0
ARC
  5
730B
330
1E
100
AcDbEntity
  8
製品
  6
Continuous
 62
     2
100
AcDbCircle
 10
393.5985544381148
 20
152.520688228429
 30
0.0
 40
0.2
100
AcDbArc
 50
0.0
 51
90.0
  0
LINE
  5
730C
330
1E
100
AcDbEntity
  8
製品
  6
Continuous
 62
     2
100
AcDbLine
 10
393.7985544381146
 20
152.520688228429
 30
0.0
 11
393.7985544381146
 21
152.2206882284288
 31
0.0
  0
LINE
  5
730D
330
1E
100
AcDbEntity
  8
製品
  6
Continuous
 62
     2
100
AcDbLine
 10
393.7985544381146
 20
152.2206882284288
 30
0.0
 11
393.8985544381145
 21
152.2206882284288
 31
0.0
  0
LINE
  5
730E
330
1E
100
AcDbEntity
  8
製品
  6
Continuous
 62
     2
100
AcDbLine
 10
393.8985544381145
 20
152.2206882284288
 30
0.0
 11
393.8985544381145
 21
152.520688228429
 31
0.0
  0
ARC
  5
730F
330
1E
100
AcDbEntity
  8
製品
  6
Continuous
 62
     2
100
AcDbCircle
 10
393.5985544381148
 20
152.520688228429
 30
0.0
 40
0.3
100
AcDbArc
 50
0.0
 51
90.0
  0
ARC
  5
7310
330
1E
100
AcDbEntity
  8
製品
  6
Continuous
 62
     3
100
AcDbCircle
 10
393.6585544381147
 20
157.3806882284291
 30
0.0
 40
0.6400000000000001
100
AcDbArc
 50
0.0
 51
90.0
  0
LINE
  5
7311
330
1E
100
AcDbEntity
  8
製品
  6
Continuous
 62
     3
100
AcDbLine
 10
393.3785544381145
 20
152.3406882284291
 30
0.0
 11
393.3785544381145
 21
152.7196852284289
 31
0.0
  0
ARC
  5
7312
330
1E
100
AcDbEntity
  8
製品
  6
Continuous
 62
     2
100
AcDbCircle
 10
393.3985544381145
 20
152.520688228429
 30
0.0
 40
0.2
100
AcDbArc
 50
90.0
 51
180.0
  0
ARC
  5
7313
330
1E
100
AcDbEntity
  8
製品
  6
Continuous
 62
     2
100
AcDbCircle
 10
393.3985544381145
 20
152.520688228429
 30
0.0
 40
0.3
100
AcDbArc
 50
90.0
 51
180.0
  0
LINE
  5
7314
330
1E
100
AcDbEntity
  8
製品
  6
Continuous
 62
     3
100
AcDbLine
 10
393.6585544381147
 20
158.020688228429
 30
0.0
 11
393.0985544381148
 21
158.020688228429
 31
0.0
  0
LINE
  5
7315
330
1E
100
AcDbEntity
  8
製品
  6
Continuous
 62
     3
100
AcDbLine
 10
393.3785544381145
 20
152.7196852284289
 30
0.0
 11
393.6985544381147
 21
152.693893228429
 31
0.0
  0
LINE
  5
7316
330
1E
100
AcDbEntity
  8
製品
  6
Continuous
 62
     2
100
AcDbLine
 10
393.3985544381145
 20
152.7206882284288
 30
0.0
 11
393.5985544381148
 21
152.7206882284288
 31
0.0
  0
LINE
  5
7317
330
1E
100
AcDbEntity
  8
製品
  6
Continuous
 62
     2
100
AcDbLine
 10
393.5985544381148
 20
152.8206882284291
 30
0.0
 11
393.3985544381145
 21
152.8206882284291
 31
0.0
  0
LINE
  5
7318
330
1E
100
AcDbEntity
  8
製品
  6
Continuous
 62
     3
100
AcDbLine
 10
393.0985544381148
 20
158.020688228429
 30
0.0
 11
393.0985544381148
 21
162.8206882284291
 31
0.0
  0
CIRCLE
  5
7319
330
1E
100
AcDbEntity
  8
図面枠
  6
Continuous
 62
     3
100
AcDbCircle
 10
394.5309604381147
 20
162.8300172284291
 30
0.0
 40
0.3
  0
LINE
  5
731A
330
1E
100
AcDbEntity
  8
製品
  6
Continuous
 62
     3
100
AcDbLine
 10
397.3639304381146
 20
163.2206882284288
 30
0.0
 11
396.8139304381149
 21
162.2206882284288
 31
0.0
  0
LINE
  5
731B
330
1E
100
AcDbEntity
  8
製品
  6
Continuous
 62
     3
100
AcDbLine
 10
399.1139304381146
 20
162.2206882284288
 30
0.0
 11
398.5639304381149
 21
163.2206882284288
 31
0.0
  0
CIRCLE
  5
731C
330
1E
100
AcDbEntity
  8
製品
  6
Continuous
 62
     3
100
AcDbCircle
 10
397.9639304381145
 20
162.2206882284288
 30
0.0
 40
1.0
  0
LINE
  5
731D
330
1E
100
AcDbEntity
  8
製品
  6
Continuous
 62
     3
100
AcDbLine
 10
398.0639304381149
 20
163.000688228429
 30
0.0
 11
398.0639304381149
 21
162.6206882284289
 31
0.0
  0
LINE
  5
731E
330
1E
100
AcDbEntity
  8
製品
  6
Continuous
 62
     3
100
AcDbLine
 10
397.8639304381146
 20
163.000688228429
 30
0.0
 11
397.8639304381146
 21
162.6206882284289
 31
0.0
  0
LINE
  5
731F
330
1E
100
AcDbEntity
  8
製品
  6
Continuous
 62
     3
100
AcDbLine
 10
393.0985544381148
 20
160.8206882284291
 30
0.0
 11
403.0985544381147
 21
160.8206882284291
 31
0.0
  0
LINE
  5
7320
330
1E
100
AcDbEntity
  8
製品
  6
Continuous
 62
     3
100
AcDbLine
 10
394.0985544381148
 20
163.8206882284291
 30
0.0
 11
402.0985544381147
 21
163.8206882284291
 31
0.0
  0
LINE
  5
7321
330
1E
100
AcDbEntity
  8
図面枠
  6
Continuous
 62
     3
100
AcDbLine
 10
394.5309604381147
 20
162.8300172284291
 30
0.0
 11
387.5387214381145
 21
175.0664352284291
 31
0.0
  0
LINE
  5
7322
330
1E
100
AcDbEntity
  8
製品
  6
Continuous
 62
     2
100
AcDbLine
 10
401.8985544381145
 20
147.920688228429
 30
0.0
 11
401.6985544381147
 21
148.0206882284289
 31
0.0
  0
LINE
  5
7323
330
1E
100
AcDbEntity
  8
製品
  6
Continuous
 62
     2
100
AcDbLine
 10
401.6985544381147
 20
148.0206882284289
 30
0.0
 11
401.3985544381145
 21
147.920688228429
 31
0.0
  0
LINE
  5
7324
330
1E
100
AcDbEntity
  8
製品
  6
Continuous
 62
     2
100
AcDbLine
 10
401.3985544381145
 20
147.920688228429
 30
0.0
 11
401.0985544381147
 21
148.0206882284289
 31
0.0
  0
CIRCLE
  5
7325
330
1E
100
AcDbEntity
  8
図面枠
  6
Continuous
 62
     3
100
AcDbCircle
 10
403.0721024381147
 20
150.4584792284288
 30
0.0
 40
0.3
  0
LINE
  5
7326
330
1E
100
AcDbEntity
  8
製品
  6
Continuous
 62
     3
100
AcDbLine
 10
401.8985544381145
 20
152.020688228429
 30
0.0
 11
402.1785544381146
 21
152.020688228429
 31
0.0
  0
LINE
  5
7327
330
1E
100
AcDbEntity
  8
製品
  6
Continuous
 62
     2
100
AcDbLine
 10
402.9985544381144
 20
148.420688228429
 30
0.0
 11
402.9985544381144
 21
150.5027452284291
 31
0.0
  0
LINE
  5
7328
330
1E
100
AcDbEntity
  8
製品
  6
Continuous
 62
     2
100
AcDbLine
 10
403.0985544381147
 20
148.420688228429
 30
0.0
 11
403.0985544381147
 21
150.5027452284291
 31
0.0
  0
LINE
  5
7329
330
1E
100
AcDbEntity
  8
製品
  6
Continuous
 62
     2
100
AcDbLine
 10
401.8985544381145
 20
147.8206882284291
 30
0.0
 11
401.6985544381147
 21
147.920688228429
 31
0.0
  0
LINE
  5
732A
330
1E
100
AcDbEntity
  8
製品
  6
Continuous
 62
     2
100
AcDbLine
 10
401.6985544381147
 20
147.920688228429
 30
0.0
 11
401.3985544381145
 21
147.8206882284291
 31
0.0
  0
LINE
  5
732B
330
1E
100
AcDbEntity
  8
製品
  6
Continuous
 62
     2
100
AcDbLine
 10
401.3985544381145
 20
147.8206882284291
 30
0.0
 11
401.0985544381147
 21
147.920688228429
 31
0.0
  0
ARC
  5
732C
330
1E
100
AcDbEntity
  8
製品
  6
Continuous
 62
     2
100
AcDbCircle
 10
402.4985544381143
 20
148.420688228429
 30
0.0
 40
0.5
100
AcDbArc
 50
270.0
 51
0.0
  0
LINE
  5
732D
330
1E
100
AcDbEntity
  8
製品
  6
Continuous
 62
     2
100
AcDbLine
 10
402.4985544381143
 20
147.920688228429
 30
0.0
 11
401.8985544381145
 21
147.920688228429
 31
0.0
  0
ARC
  5
732E
330
1E
100
AcDbEntity
  8
製品
  6
Continuous
 62
     2
100
AcDbCircle
 10
402.4985544381143
 20
148.420688228429
 30
0.0
 40
0.6
100
AcDbArc
 50
270.0
 51
0.0
  0
LINE
  5
732F
330
1E
100
AcDbEntity
  8
製品
  6
Continuous
 62
     2
100
AcDbLine
 10
402.4985544381143
 20
147.8206882284291
 30
0.0
 11
401.8985544381145
 21
147.8206882284291
 31
0.0
  0
LINE
  5
7330
330
1E
100
AcDbEntity
  8
製品
  6
Continuous
 62
     2
100
AcDbLine
 10
400.4985544381144
 20
147.920688228429
 30
0.0
 11
400.1985544381146
 21
147.8206882284291
 31
0.0
  0
LINE
  5
7331
330
1E
100
AcDbEntity
  8
製品
  6
Continuous
 62
     2
100
AcDbLine
 10
400.1985544381146
 20
147.8206882284291
 30
0.0
 11
399.8985544381145
 21
147.920688228429
 31
0.0
  0
LINE
  5
7332
330
1E
100
AcDbEntity
  8
製品
  6
Continuous
 62
     2
100
AcDbLine
 10
399.8985544381145
 20
147.920688228429
 30
0.0
 11
399.5985544381148
 21
147.8206882284291
 31
0.0
  0
LINE
  5
7333
330
1E
100
AcDbEntity
  8
製品
  6
Continuous
 62
     2
100
AcDbLine
 10
399.5985544381148
 20
147.8206882284291
 30
0.0
 11
399.2985544381146
 21
147.920688228429
 31
0.0
  0
LINE
  5
7334
330
1E
100
AcDbEntity
  8
製品
  6
Continuous
 62
     2
100
AcDbLine
 10
399.2985544381146
 20
147.920688228429
 30
0.0
 11
399.0985544381148
 21
147.8206882284291
 31
0.0
  0
LINE
  5
7335
330
1E
100
AcDbEntity
  8
製品
  6
Continuous
 62
     2
100
AcDbLine
 10
399.0985544381148
 20
147.8206882284291
 30
0.0
 11
398.2985544381146
 21
147.8206882284291
 31
0.0
  0
LINE
  5
7336
330
1E
100
AcDbEntity
  8
製品
  6
Continuous
 62
     2
100
AcDbLine
 10
398.2985544381146
 20
147.8206882284291
 30
0.0
 11
398.0985544381148
 21
147.920688228429
 31
0.0
  0
LINE
  5
7337
330
1E
100
AcDbEntity
  8
製品
  6
Continuous
 62
     2
100
AcDbLine
 10
400.7985544381146
 20
147.920688228429
 30
0.0
 11
400.4985544381144
 21
148.0206882284289
 31
0.0
  0
LINE
  5
7338
330
1E
100
AcDbEntity
  8
製品
  6
Continuous
 62
     2
100
AcDbLine
 10
400.4985544381144
 20
148.0206882284289
 30
0.0
 11
400.1985544381146
 21
147.920688228429
 31
0.0
  0
LINE
  5
7339
330
1E
100
AcDbEntity
  8
製品
  6
Continuous
 62
     2
100
AcDbLine
 10
400.1985544381146
 20
147.920688228429
 30
0.0
 11
399.8985544381145
 21
148.0206882284289
 31
0.0
  0
LINE
  5
733A
330
1E
100
AcDbEntity
  8
製品
  6
Continuous
 62
     2
100
AcDbLine
 10
399.8985544381145
 20
148.0206882284289
 30
0.0
 11
399.5985544381148
 21
147.920688228429
 31
0.0
  0
LINE
  5
733B
330
1E
100
AcDbEntity
  8
製品
  6
Continuous
 62
     2
100
AcDbLine
 10
399.5985544381148
 20
147.920688228429
 30
0.0
 11
399.2985544381146
 21
148.0206882284289
 31
0.0
  0
LINE
  5
733C
330
1E
100
AcDbEntity
  8
製品
  6
Continuous
 62
     2
100
AcDbLine
 10
399.2985544381146
 20
148.0206882284289
 30
0.0
 11
399.0985544381148
 21
147.920688228429
 31
0.0
  0
LINE
  5
733D
330
1E
100
AcDbEntity
  8
製品
  6
Continuous
 62
     2
100
AcDbLine
 10
399.0985544381148
 20
147.920688228429
 30
0.0
 11
398.2985544381146
 21
147.920688228429
 31
0.0
  0
LINE
  5
733E
330
1E
100
AcDbEntity
  8
製品
  6
Continuous
 62
     2
100
AcDbLine
 10
398.2985544381146
 20
147.920688228429
 30
0.0
 11
398.0985544381148
 21
148.0206882284289
 31
0.0
  0
LINE
  5
733F
330
1E
100
AcDbEntity
  8
製品
  6
Continuous
 62
     2
100
AcDbLine
 10
397.8985544381145
 20
147.8206882284291
 30
0.0
 11
398.0985544381148
 21
147.920688228429
 31
0.0
  0
LINE
  5
7340
330
1E
100
AcDbEntity
  8
製品
  6
Continuous
 62
     2
100
AcDbLine
 10
397.8985544381145
 20
147.920688228429
 30
0.0
 11
398.0985544381148
 21
148.0206882284289
 31
0.0
  0
LINE
  5
7341
330
1E
100
AcDbEntity
  8
製品
  6
Continuous
 62
     2
100
AcDbLine
 10
400.7985544381146
 20
147.8206882284291
 30
0.0
 11
400.4985544381144
 21
147.920688228429
 31
0.0
  0
LINE
  5
7342
330
1E
100
AcDbEntity
  8
製品
  6
Continuous
 62
     2
100
AcDbLine
 10
394.4985544381144
 20
147.920688228429
 30
0.0
 11
394.2985544381146
 21
147.8206882284291
 31
0.0
  0
LINE
  5
7343
330
1E
100
AcDbEntity
  8
製品
  6
Continuous
 62
     2
100
AcDbLine
 10
394.7985544381146
 20
147.8206882284291
 30
0.0
 11
394.4985544381144
 21
147.920688228429
 31
0.0
  0
LINE
  5
7344
330
1E
100
AcDbEntity
  8
製品
  6
Continuous
 62
     2
100
AcDbLine
 10
395.0985544381148
 20
147.920688228429
 30
0.0
 11
394.7985544381146
 21
147.8206882284291
 31
0.0
  0
LINE
  5
7345
330
1E
100
AcDbEntity
  8
製品
  6
Continuous
 62
     2
100
AcDbLine
 10
395.3985544381145
 20
147.8206882284291
 30
0.0
 11
395.0985544381148
 21
147.920688228429
 31
0.0
  0
LINE
  5
7346
330
1E
100
AcDbEntity
  8
製品
  6
Continuous
 62
     2
100
AcDbLine
 10
395.6985544381147
 20
147.920688228429
 30
0.0
 11
395.3985544381145
 21
147.8206882284291
 31
0.0
  0
LINE
  5
7347
330
1E
100
AcDbEntity
  8
製品
  6
Continuous
 62
     2
100
AcDbLine
 10
395.9985544381144
 20
147.8206882284291
 30
0.0
 11
395.6985544381147
 21
147.920688228429
 31
0.0
  0
LINE
  5
7348
330
1E
100
AcDbEntity
  8
製品
  6
Continuous
 62
     2
100
AcDbLine
 10
396.2985544381146
 20
147.920688228429
 30
0.0
 11
395.9985544381144
 21
147.8206882284291
 31
0.0
  0
LINE
  5
7349
330
1E
100
AcDbEntity
  8
製品
  6
Continuous
 62
     2
100
AcDbLine
 10
396.5985544381148
 20
147.8206882284291
 30
0.0
 11
396.2985544381146
 21
147.920688228429
 31
0.0
  0
LINE
  5
734A
330
1E
100
AcDbEntity
  8
製品
  6
Continuous
 62
     2
100
AcDbLine
 10
396.8985544381145
 20
147.920688228429
 30
0.0
 11
396.5985544381148
 21
147.8206882284291
 31
0.0
  0
LINE
  5
734B
330
1E
100
AcDbEntity
  8
製品
  6
Continuous
 62
     2
100
AcDbLine
 10
397.0985544381148
 20
147.8206882284291
 30
0.0
 11
396.8985544381145
 21
147.920688228429
 31
0.0
  0
LINE
  5
734C
330
1E
100
AcDbEntity
  8
製品
  6
Continuous
 62
     2
100
AcDbLine
 10
394.4985544381144
 20
148.0206882284289
 30
0.0
 11
394.2985544381146
 21
147.920688228429
 31
0.0
  0
LINE
  5
734D
330
1E
100
AcDbEntity
  8
製品
  6
Continuous
 62
     2
100
AcDbLine
 10
394.7985544381146
 20
147.920688228429
 30
0.0
 11
394.4985544381144
 21
148.0206882284289
 31
0.0
  0
LINE
  5
734E
330
1E
100
AcDbEntity
  8
製品
  6
Continuous
 62
     2
100
AcDbLine
 10
395.0985544381148
 20
148.0206882284289
 30
0.0
 11
394.7985544381146
 21
147.920688228429
 31
0.0
  0
LINE
  5
734F
330
1E
100
AcDbEntity
  8
製品
  6
Continuous
 62
     2
100
AcDbLine
 10
395.3985544381145
 20
147.920688228429
 30
0.0
 11
395.0985544381148
 21
148.0206882284289
 31
0.0
  0
LINE
  5
7350
330
1E
100
AcDbEntity
  8
製品
  6
Continuous
 62
     2
100
AcDbLine
 10
395.6985544381147
 20
148.0206882284289
 30
0.0
 11
395.3985544381145
 21
147.920688228429
 31
0.0
  0
LINE
  5
7351
330
1E
100
AcDbEntity
  8
製品
  6
Continuous
 62
     2
100
AcDbLine
 10
395.9985544381144
 20
147.920688228429
 30
0.0
 11
395.6985544381147
 21
148.0206882284289
 31
0.0
  0
LINE
  5
7352
330
1E
100
AcDbEntity
  8
製品
  6
Continuous
 62
     2
100
AcDbLine
 10
396.2985544381146
 20
148.0206882284289
 30
0.0
 11
395.9985544381144
 21
147.920688228429
 31
0.0
  0
LINE
  5
7353
330
1E
100
AcDbEntity
  8
製品
  6
Continuous
 62
     2
100
AcDbLine
 10
396.5985544381148
 20
147.920688228429
 30
0.0
 11
396.2985544381146
 21
148.0206882284289
 31
0.0
  0
LINE
  5
7354
330
1E
100
AcDbEntity
  8
製品
  6
Continuous
 62
     2
100
AcDbLine
 10
396.8985544381145
 20
148.0206882284289
 30
0.0
 11
396.5985544381148
 21
147.920688228429
 31
0.0
  0
LINE
  5
7355
330
1E
100
AcDbEntity
  8
製品
  6
Continuous
 62
     2
100
AcDbLine
 10
397.0985544381148
 20
147.920688228429
 30
0.0
 11
396.8985544381145
 21
148.0206882284289
 31
0.0
  0
LINE
  5
7356
330
1E
100
AcDbEntity
  8
製品
  6
Continuous
 62
     2
100
AcDbLine
 10
393.6985544381147
 20
147.920688228429
 30
0.0
 11
394.2985544381146
 21
147.920688228429
 31
0.0
  0
LINE
  5
7357
330
1E
100
AcDbEntity
  8
製品
  6
Continuous
 62
     2
100
AcDbLine
 10
393.6985544381147
 20
147.8206882284291
 30
0.0
 11
394.2985544381146
 21
147.8206882284291
 31
0.0
  0
LINE
  5
7358
330
1E
100
AcDbEntity
  8
製品
  6
Continuous
 62
     2
100
AcDbLine
 10
397.0985544381148
 20
147.8206882284291
 30
0.0
 11
397.8985544381145
 21
147.8206882284291
 31
0.0
  0
LINE
  5
7359
330
1E
100
AcDbEntity
  8
製品
  6
Continuous
 62
     2
100
AcDbLine
 10
397.0985544381148
 20
147.920688228429
 30
0.0
 11
397.8985544381145
 21
147.920688228429
 31
0.0
  0
LINE
  5
735A
330
1E
100
AcDbEntity
  8
製品
  6
Continuous
 62
     2
100
AcDbLine
 10
393.0985544381148
 20
148.420688228429
 30
0.0
 11
393.0985544381148
 21
150.5027452284291
 31
0.0
  0
LINE
  5
735B
330
1E
100
AcDbEntity
  8
製品
  6
Continuous
 62
     2
100
AcDbLine
 10
393.1985544381147
 20
148.420688228429
 30
0.0
 11
393.1985544381147
 21
150.5027452284291
 31
0.0
  0
ARC
  5
735C
330
1E
100
AcDbEntity
  8
製品
  6
Continuous
 62
     2
100
AcDbCircle
 10
393.6985544381147
 20
148.420688228429
 30
0.0
 40
0.5
100
AcDbArc
 50
180.0
 51
270.0
  0
ARC
  5
735D
330
1E
100
AcDbEntity
  8
製品
  6
Continuous
 62
     2
100
AcDbCircle
 10
393.6985544381147
 20
148.420688228429
 30
0.0
 40
0.6
100
AcDbArc
 50
180.0
 51
270.0
  0
LINE
  5
735E
330
1E
100
AcDbEntity
  8
製品
  6
Continuous
 62
     2
100
AcDbLine
 10
401.0985544381147
 20
148.0206882284289
 30
0.0
 11
400.7985544381146
 21
147.920688228429
 31
0.0
  0
LINE
  5
735F
330
1E
100
AcDbEntity
  8
製品
  6
Continuous
 62
     3
100
AcDbLine
 10
402.1785544381146
 20
151.7006882284288
 30
0.0
 11
394.0185544381149
 21
151.7006882284288
 31
0.0
  0
LINE
  5
7360
330
1E
100
AcDbEntity
  8
製品
  6
Continuous
 62
     3
100
AcDbLine
 10
394.0185544381149
 20
152.020688228429
 30
0.0
 11
401.8985544381145
 21
152.020688228429
 31
0.0
  0
LINE
  5
7361
330
1E
100
AcDbEntity
  8
製品
  6
Continuous
 62
     2
100
AcDbLine
 10
401.0985544381147
 20
147.920688228429
 30
0.0
 11
400.7985544381146
 21
147.8206882284291
 31
0.0
  0
LINE
  5
7362
330
1E
100
AcDbEntity
  8
製品
  6
Continuous
 62
     3
100
AcDbLine
 10
394.2985544381146
 20
152.020688228429
 30
0.0
 11
394.2985544381146
 21
157.3806882284291
 31
0.0
  0
LINE
  5
7363
330
1E
100
AcDbEntity
  8
製品
  6
Continuous
 62
     3
100
AcDbLine
 10
401.8985544381145
 20
157.3806882284291
 30
0.0
 11
401.8985544381145
 21
152.020688228429
 31
0.0
  0
ARC
  5
7364
330
1E
100
AcDbEntity
  8
製品
  6
Continuous
 62
     3
100
AcDbCircle
 10
402.1785544381146
 20
152.3406882284291
 30
0.0
 40
0.32
100
AcDbArc
 50
270.0
 51
0.0
  0
ARC
  5
7365
330
1E
100
AcDbEntity
  8
製品
  6
Continuous
 62
     3
100
AcDbCircle
 10
402.1785544381146
 20
152.3406882284291
 30
0.0
 40
0.6400000000000001
100
AcDbArc
 50
270.0
 51
0.0
  0
ARC
  5
7366
330
1E
100
AcDbEntity
  8
製品
  6
Continuous
 62
     3
100
AcDbCircle
 10
394.0185544381149
 20
152.3406882284291
 30
0.0
 40
0.6400000000000001
100
AcDbArc
 50
180.0
 51
270.0
  0
ARC
  5
7367
330
1E
100
AcDbEntity
  8
製品
  6
Continuous
 62
     3
100
AcDbCircle
 10
394.0185544381149
 20
152.3406882284291
 30
0.0
 40
0.32
100
AcDbArc
 50
180.0
 51
270.0
  0
LINE
  5
7368
330
1E
100
AcDbEntity
  8
製品
  6
Continuous
 62
     2
100
AcDbLine
 10
402.9985544381144
 20
150.5027452284291
 30
0.0
 11
402.9985544381144
 21
152.520688228429
 31
0.0
  0
LINE
  5
7369
330
1E
100
AcDbEntity
  8
製品
  6
Continuous
 62
     2
100
AcDbLine
 10
403.0985544381147
 20
150.5027452284291
 30
0.0
 11
403.0985544381147
 21
152.520688228429
 31
0.0
  0
LINE
  5
736A
330
1E
100
AcDbEntity
  8
製品
  6
Continuous
 62
     2
100
AcDbLine
 10
393.1985544381147
 20
150.5027452284291
 30
0.0
 11
393.1985544381147
 21
152.520688228429
 31
0.0
  0
LINE
  5
736B
330
1E
100
AcDbEntity
  8
製品
  6
Continuous
 62
     2
100
AcDbLine
 10
393.0985544381148
 20
150.5027452284291
 30
0.0
 11
393.0985544381148
 21
152.520688228429
 31
0.0
  0
LINE
  5
736C
330
1E
100
AcDbEntity
  8
製品
  6
Continuous
 62
     4
100
AcDbLine
 10
454.8990834381148
 20
152.8206882284291
 30
0.0
 11
415.0445904381146
 21
152.8206882284291
 31
0.0
  0
LINE
  5
736D
330
1E
100
AcDbEntity
  8
製品
  6
Continuous
 62
     4
100
AcDbLine
 10
415.0445904381146
 20
160.420688228429
 30
0.0
 11
453.6990834381145
 21
160.420688228429
 31
0.0
  0
LINE
  5
736E
330
1E
100
AcDbEntity
  8
製品
  6
Continuous
 62
     4
100
AcDbLine
 10
413.5064564381147
 20
174.7206882284288
 30
0.0
 11
413.5064564381147
 21
175.8950532284291
 31
0.0
  0
ARC
  5
736F
330
1E
100
AcDbEntity
  8
製品
  6
Continuous
 62
     4
100
AcDbCircle
 10
413.9873894381144
 20
175.798075228429
 30
0.0
 40
0.490613
100
AcDbArc
 50
11.40060199999222
 51
168.5993980000078
  0
LINE
  5
7370
330
1E
100
AcDbEntity
  8
製品
  6
Continuous
 62
     4
100
AcDbLine
 10
414.4683214381148
 20
174.7206882284288
 30
0.0
 11
414.4683214381148
 21
175.8950532284291
 31
0.0
  0
LINE
  5
7371
330
1E
100
AcDbEntity
  8
製品
  6
PLINE2
 62
     4
100
AcDbLine
 10
413.6545904381147
 20
174.7206882284288
 30
0.0
 11
413.6545904381147
 21
174.3206882284291
 31
0.0
  0
LINE
  5
7372
330
1E
100
AcDbEntity
  8
製品
  6
Continuous
 62
     4
100
AcDbLine
 10
411.5827254381148
 20
174.7206882284288
 30
0.0
 11
411.5827254381148
 21
175.8950532284291
 31
0.0
  0
ARC
  5
7373
330
1E
100
AcDbEntity
  8
製品
  6
Continuous
 62
     4
100
AcDbCircle
 10
411.1017924381145
 20
175.798075228429
 30
0.0
 40
0.490613
100
AcDbArc
 50
11.40060199999222
 51
168.5993980000078
  0
LINE
  5
7374
330
1E
100
AcDbEntity
  8
製品
  6
Continuous
 62
     4
100
AcDbLine
 10
410.6208594381147
 20
175.8950532284291
 30
0.0
 11
410.6208594381147
 21
174.7206882284288
 31
0.0
  0
LINE
  5
7375
330
1E
100
AcDbEntity
  8
製品
  6
PLINE2
 62
     4
100
AcDbLine
 10
411.4345904381144
 20
174.7206882284288
 30
0.0
 11
411.4345904381144
 21
174.3206882284291
 31
0.0
  0
LINE
  5
7376
330
1E
100
AcDbEntity
  8
製品
  6
Continuous
 62
     3
100
AcDbLine
 10
415.0445904381146
 20
174.7206882284288
 30
0.0
 11
410.0445904381145
 21
174.7206882284288
 31
0.0
  0
LINE
  5
7377
330
1E
100
AcDbEntity
  8
製品
  6
Continuous
 62
     4
100
AcDbLine
 10
410.6208594381147
 20
174.3206882284291
 30
0.0
 11
414.4683214381148
 21
174.3206882284291
 31
0.0
  0
LINE
  5
7378
330
1E
100
AcDbEntity
  8
製品
  6
Continuous
 62
     4
100
AcDbLine
 10
413.9873894381144
 20
176.288688228429
 30
0.0
 11
411.1017924381145
 21
176.288688228429
 31
0.0
  0
LINE
  5
7379
330
1E
100
AcDbEntity
  8
製品
  6
Continuous
 62
     4
100
AcDbLine
 10
410.6208594381147
 20
174.7206882284288
 30
0.0
 11
414.4683214381148
 21
174.7206882284288
 31
0.0
  0
ARC
  5
737A
330
1E
100
AcDbEntity
  8
製品
  6
Continuous
 62
     4
100
AcDbCircle
 10
412.5445904381146
 20
174.9166882284291
 30
0.0
 40
1.371999999999999
100
AcDbArc
 50
45.48723199999867
 51
134.5127680000013
  0
LINE
  5
737B
330
1E
100
AcDbEntity
  8
製品
  6
Continuous
 62
     3
100
AcDbLine
 10
410.0445904381145
 20
174.3206882284291
 30
0.0
 11
415.0445904381146
 21
174.3206882284291
 31
0.0
  0
ARC
  5
737C
330
1E
100
AcDbEntity
  8
製品
  6
Continuous
 62
     4
100
AcDbCircle
 10
413.9873894381144
 20
173.2433012284289
 30
0.0
 40
0.490613
100
AcDbArc
 50
191.4006019999922
 51
348.5993980000078
  0
ARC
  5
737D
330
1E
100
AcDbEntity
  8
製品
  6
Continuous
 62
     4
100
AcDbCircle
 10
411.1017924381145
 20
173.2433012284289
 30
0.0
 40
0.490613
100
AcDbArc
 50
191.4006019999922
 51
348.5993980000078
  0
LINE
  5
737E
330
1E
100
AcDbEntity
  8
製品
  6
Continuous
 62
     4
100
AcDbLine
 10
413.9873894381144
 20
172.7526882284289
 30
0.0
 11
411.1017924381145
 21
172.7526882284289
 31
0.0
  0
ARC
  5
737F
330
1E
100
AcDbEntity
  8
製品
  6
Continuous
 62
     4
100
AcDbCircle
 10
412.5445904381146
 20
174.1246882284288
 30
0.0
 40
1.371999999999999
100
AcDbArc
 50
225.4872319999987
 51
314.5127680000013
  0
LINE
  5
7380
330
1E
100
AcDbEntity
  8
製品
  6
Continuous
 62
     4
100
AcDbLine
 10
411.6445904381144
 20
165.9396732284287
 30
0.0
 11
413.4445904381147
 21
165.9396732284287
 31
0.0
  0
LINE
  5
7381
330
1E
100
AcDbEntity
  8
製品
  6
Continuous
 62
     4
100
AcDbLine
 10
413.4445904381147
 20
165.9396732284287
 30
0.0
 11
413.4445904381147
 21
172.7526882284289
 31
0.0
  0
LINE
  5
7382
330
1E
100
AcDbEntity
  8
製品
  6
Continuous
 62
     4
100
AcDbLine
 10
411.6445904381144
 20
172.7526882284289
 30
0.0
 11
411.6445904381144
 21
165.9396732284287
 31
0.0
  0
LINE
  5
7383
330
1E
100
AcDbEntity
  8
製品
  6
Continuous
 62
     3
100
AcDbLine
 10
413.1445904381145
 20
160.5206882284289
 30
0.0
 11
413.6945904381146
 21
161.5206882284289
 31
0.0
  0
LINE
  5
7384
330
1E
100
AcDbEntity
  8
製品
  6
Continuous
 62
     3
100
AcDbLine
 10
413.6945904381146
 20
161.5206882284289
 30
0.0
 11
413.1445904381145
 21
162.5206882284289
 31
0.0
  0
LINE
  5
7385
330
1E
100
AcDbEntity
  8
製品
  6
Continuous
 62
     3
100
AcDbLine
 10
412.6445904381145
 20
162.3006882284287
 30
0.0
 11
412.6445904381145
 21
161.920688228429
 31
0.0
  0
LINE
  5
7386
330
1E
100
AcDbEntity
  8
製品
  6
Continuous
 62
     3
100
AcDbLine
 10
413.3045904381147
 20
161.6206882284289
 30
0.0
 11
413.3045904381147
 21
161.4206882284291
 31
0.0
  0
ARC
  5
7387
330
1E
100
AcDbEntity
  8
製品
  6
Continuous
 62
     3
100
AcDbCircle
 10
412.9445904381147
 20
161.920688228429
 30
0.0
 40
0.3
100
AcDbArc
 50
180.0
 51
270.0
  0
LINE
  5
7388
330
1E
100
AcDbEntity
  8
製品
  6
Continuous
 62
     3
100
AcDbLine
 10
413.3045904381147
 20
161.6206882284289
 30
0.0
 11
412.9445904381147
 21
161.6206882284289
 31
0.0
  0
LINE
  5
7389
330
1E
100
AcDbEntity
  8
製品
  6
Continuous
 62
     3
100
AcDbLine
 10
412.6445904381145
 20
160.7406882284287
 30
0.0
 11
412.6445904381145
 21
161.1206882284289
 31
0.0
  0
ARC
  5
738A
330
1E
100
AcDbEntity
  8
製品
  6
Continuous
 62
     3
100
AcDbCircle
 10
412.9445904381147
 20
161.1206882284289
 30
0.0
 40
0.3
100
AcDbArc
 50
90.0
 51
180.0
  0
LINE
  5
738B
330
1E
100
AcDbEntity
  8
製品
  6
Continuous
 62
     3
100
AcDbLine
 10
413.3045904381147
 20
161.4206882284291
 30
0.0
 11
412.9445904381147
 21
161.4206882284291
 31
0.0
  0
LINE
  5
738C
330
1E
100
AcDbEntity
  8
製品
  6
Continuous
 62
     3
100
AcDbLine
 10
411.9445904381146
 20
162.5206882284289
 30
0.0
 11
411.3945904381145
 21
161.5206882284289
 31
0.0
  0
LINE
  5
738D
330
1E
100
AcDbEntity
  8
製品
  6
Continuous
 62
     3
100
AcDbLine
 10
411.3945904381145
 20
161.5206882284289
 30
0.0
 11
411.9445904381146
 21
160.5206882284289
 31
0.0
  0
LINE
  5
738E
330
1E
100
AcDbEntity
  8
製品
  6
Continuous
 62
     3
100
AcDbLine
 10
412.4445904381146
 20
162.3006882284287
 30
0.0
 11
412.4445904381146
 21
161.920688228429
 31
0.0
  0
LINE
  5
738F
330
1E
100
AcDbEntity
  8
製品
  6
Continuous
 62
     3
100
AcDbLine
 10
411.7845904381148
 20
161.6206882284289
 30
0.0
 11
412.1445904381145
 21
161.6206882284289
 31
0.0
  0
LINE
  5
7390
330
1E
100
AcDbEntity
  8
製品
  6
Continuous
 62
     3
100
AcDbLine
 10
412.4445904381146
 20
160.7406882284287
 30
0.0
 11
412.4445904381146
 21
161.1206882284289
 31
0.0
  0
LINE
  5
7391
330
1E
100
AcDbEntity
  8
製品
  6
Continuous
 62
     3
100
AcDbLine
 10
411.7845904381148
 20
161.4206882284291
 30
0.0
 11
412.1445904381145
 21
161.4206882284291
 31
0.0
  0
LINE
  5
7392
330
1E
100
AcDbEntity
  8
製品
  6
Continuous
 62
     3
100
AcDbLine
 10
411.7845904381148
 20
161.6206882284289
 30
0.0
 11
411.7845904381148
 21
161.4206882284291
 31
0.0
  0
LINE
  5
7393
330
1E
100
AcDbEntity
  8
製品
  6
Continuous
 62
     3
100
AcDbLine
 10
413.1445904381145
 20
162.5206882284289
 30
0.0
 11
411.9445904381146
 21
162.5206882284289
 31
0.0
  0
LINE
  5
7394
330
1E
100
AcDbEntity
  8
製品
  6
Continuous
 62
     3
100
AcDbLine
 10
411.9445904381146
 20
160.5206882284289
 30
0.0
 11
413.1445904381145
 21
160.5206882284289
 31
0.0
  0
CIRCLE
  5
7395
330
1E
100
AcDbEntity
  8
製品
  6
Continuous
 62
     3
100
AcDbCircle
 10
412.5445904381146
 20
161.5206882284289
 30
0.0
 40
1.0
  0
LINE
  5
7396
330
1E
100
AcDbEntity
  8
製品
  6
Continuous
 62
     3
100
AcDbLine
 10
412.4445904381146
 20
162.3006882284287
 30
0.0
 11
412.6445904381145
 21
162.3006882284287
 31
0.0
  0
ARC
  5
7397
330
1E
100
AcDbEntity
  8
製品
  6
Continuous
 62
     3
100
AcDbCircle
 10
412.1445904381145
 20
161.920688228429
 30
0.0
 40
0.3
100
AcDbArc
 50
270.0
 51
0.0
  0
LINE
  5
7398
330
1E
100
AcDbEntity
  8
製品
  6
Continuous
 62
     3
100
AcDbLine
 10
412.4445904381146
 20
160.690688228429
 30
0.0
 11
412.6445904381145
 21
160.690688228429
 31
0.0
  0
ARC
  5
7399
330
1E
100
AcDbEntity
  8
製品
  6
Continuous
 62
     3
100
AcDbCircle
 10
412.1445904381145
 20
161.1206882284289
 30
0.0
 40
0.3
100
AcDbArc
 50
0.0
 51
90.0
  0
LINE
  5
739A
330
1E
100
AcDbEntity
  8
製品
  6
Continuous
 62
     3
100
AcDbLine
 10
412.4445904381146
 20
160.7406882284287
 30
0.0
 11
412.6445904381145
 21
160.7406882284287
 31
0.0
  0
LINE
  5
739B
330
1E
100
AcDbEntity
  8
製品
  6
Continuous
 62
     3
100
AcDbLine
 10
410.0445904381145
 20
152.3206882284291
 30
0.0
 11
415.0445904381146
 21
152.3206882284291
 31
0.0
  0
LINE
  5
739C
330
1E
100
AcDbEntity
  8
製品
  6
Continuous
 62
     3
100
AcDbLine
 10
410.0445904381145
 20
174.7206882284288
 30
0.0
 11
410.0445904381145
 21
152.3206882284291
 31
0.0
  0
LINE
  5
739D
330
1E
100
AcDbEntity
  8
製品
  6
Continuous
 62
     3
100
AcDbLine
 10
415.0445904381146
 20
152.3206882284291
 30
0.0
 11
415.0445904381146
 21
174.7206882284288
 31
0.0
  0
LINE
  5
739E
330
1E
100
AcDbEntity
  8
製品
  6
Continuous
 62
     4
100
AcDbLine
 10
413.5064564381147
 20
174.3206882284291
 30
0.0
 11
413.5064564381147
 21
173.1463232284288
 31
0.0
  0
LINE
  5
739F
330
1E
100
AcDbEntity
  8
製品
  6
Continuous
 62
     4
100
AcDbLine
 10
411.5827254381148
 20
174.3206882284291
 30
0.0
 11
411.5827254381148
 21
173.1463232284288
 31
0.0
  0
LINE
  5
73A0
330
1E
100
AcDbEntity
  8
製品
  6
Continuous
 62
     4
100
AcDbLine
 10
414.4683214381148
 20
174.3206882284291
 30
0.0
 11
414.4683214381148
 21
173.1463232284288
 31
0.0
  0
LINE
  5
73A1
330
1E
100
AcDbEntity
  8
製品
  6
Continuous
 62
     4
100
AcDbLine
 10
410.6208594381147
 20
173.1463232284288
 30
0.0
 11
410.6208594381147
 21
174.3206882284291
 31
0.0
  0
LINE
  5
73A2
330
1E
100
AcDbEntity
  8
図面枠
  6
Continuous
 62
     3
100
AcDbLine
 10
411.0099094381145
 20
140.7203452284291
 30
0.0
 11
426.2981584381146
 21
140.7203452284291
 31
0.0
  0
TEXT
  5
73A3
330
1E
100
AcDbEntity
  8
図面枠
  6
Continuous
 62
     3
100
AcDbText
 10
411.0128394381145
 20
141.7203462284289
 30
0.0
 40
3.0
  1
Ｗバ－２５型
 41
0.8
  7
ACAD
100
AcDbText
  0
ARC
  5
73A4
330
1E
100
AcDbEntity
  8
製品
  6
Continuous
 62
     3
100
AcDbCircle
 10
462.6990834381145
 20
162.8206882284291
 30
0.0
 40
1.0
100
AcDbArc
 50
0.0
 51
90.0
  0
LINE
  5
73A5
330
1E
100
AcDbEntity
  8
製品
  6
Continuous
 62
     3
100
AcDbLine
 10
463.6990834381146
 20
158.020688228429
 30
0.0
 11
463.1390834381146
 21
158.020688228429
 31
0.0
  0
LINE
  5
73A6
330
1E
100
AcDbEntity
  8
製品
  6
Continuous
 62
     2
100
AcDbLine
 10
462.8990834381148
 20
152.2206882284288
 30
0.0
 11
462.8990834381148
 21
152.520688228429
 31
0.0
  0
ARC
  5
73A7
330
1E
100
AcDbEntity
  8
製品
  6
Continuous
 62
     2
100
AcDbCircle
 10
463.1990834381146
 20
152.520688228429
 30
0.0
 40
0.3
100
AcDbArc
 50
90.0
 51
180.0
  0
LINE
  5
73A8
330
1E
100
AcDbEntity
  8
製品
  6
Continuous
 62
     2
100
AcDbLine
 10
463.1990834381146
 20
152.8206882284291
 30
0.0
 11
463.3990834381148
 21
152.8206882284291
 31
0.0
  0
ARC
  5
73A9
330
1E
100
AcDbEntity
  8
製品
  6
Continuous
 62
     2
100
AcDbCircle
 10
463.3990834381148
 20
152.520688228429
 30
0.0
 40
0.3
100
AcDbArc
 50
0.0
 51
90.0
  0
ARC
  5
73AA
330
1E
100
AcDbEntity
  8
製品
  6
Continuous
 62
     2
100
AcDbCircle
 10
463.3990834381148
 20
152.520688228429
 30
0.0
 40
0.2
100
AcDbArc
 50
0.0
 51
90.0
  0
LINE
  5
73AB
330
1E
100
AcDbEntity
  8
製品
  6
Continuous
 62
     2
100
AcDbLine
 10
463.3990834381148
 20
152.7206882284288
 30
0.0
 11
463.1990834381146
 21
152.7206882284288
 31
0.0
  0
ARC
  5
73AC
330
1E
100
AcDbEntity
  8
製品
  6
Continuous
 62
     2
100
AcDbCircle
 10
463.1990834381146
 20
152.520688228429
 30
0.0
 40
0.2
100
AcDbArc
 50
90.0
 51
180.0
  0
LINE
  5
73AD
330
1E
100
AcDbEntity
  8
製品
  6
Continuous
 62
     2
100
AcDbLine
 10
462.9990834381147
 20
152.520688228429
 30
0.0
 11
462.9990834381147
 21
152.2206882284288
 31
0.0
  0
LINE
  5
73AE
330
1E
100
AcDbEntity
  8
製品
  6
Continuous
 62
     2
100
AcDbLine
 10
462.9990834381147
 20
152.2206882284288
 30
0.0
 11
462.8990834381148
 21
152.2206882284288
 31
0.0
  0
LINE
  5
73AF
330
1E
100
AcDbEntity
  8
製品
  6
Continuous
 62
     2
100
AcDbLine
 10
462.8990834381148
 20
152.2206882284288
 30
0.0
 11
462.8990834381148
 21
152.520688228429
 31
0.0
  0
ARC
  5
73B0
330
1E
100
AcDbEntity
  8
製品
  6
Continuous
 62
     2
100
AcDbCircle
 10
463.1990834381146
 20
152.520688228429
 30
0.0
 40
0.3
100
AcDbArc
 50
90.0
 51
180.0
  0
LINE
  5
73B1
330
1E
100
AcDbEntity
  8
製品
  6
Continuous
 62
     2
100
AcDbLine
 10
463.1990834381146
 20
152.8206882284291
 30
0.0
 11
463.3990834381148
 21
152.8206882284291
 31
0.0
  0
ARC
  5
73B2
330
1E
100
AcDbEntity
  8
製品
  6
Continuous
 62
     2
100
AcDbCircle
 10
463.3990834381148
 20
152.520688228429
 30
0.0
 40
0.3
100
AcDbArc
 50
0.0
 51
90.0
  0
LINE
  5
73B3
330
1E
100
AcDbEntity
  8
製品
  6
Continuous
 62
     3
100
AcDbLine
 10
463.0990834381147
 20
152.3406882284291
 30
0.0
 11
463.0990834381147
 21
152.693893228429
 31
0.0
  0
LINE
  5
73B4
330
1E
100
AcDbEntity
  8
製品
  6
Continuous
 62
     3
100
AcDbLine
 10
463.0990834381147
 20
152.693893228429
 30
0.0
 11
463.4190834381148
 21
152.7196852284289
 31
0.0
  0
LINE
  5
73B5
330
1E
100
AcDbEntity
  8
製品
  6
Continuous
 62
     3
100
AcDbLine
 10
463.4190834381148
 20
152.7196852284289
 30
0.0
 11
463.4190834381148
 21
152.3406882284291
 31
0.0
  0
ARC
  5
73B6
330
1E
100
AcDbEntity
  8
製品
  6
Continuous
 62
     2
100
AcDbCircle
 10
463.3990834381148
 20
152.520688228429
 30
0.0
 40
0.2
100
AcDbArc
 50
0.0
 51
90.0
  0
LINE
  5
73B7
330
1E
100
AcDbEntity
  8
製品
  6
Continuous
 62
     2
100
AcDbLine
 10
463.3990834381148
 20
152.7206882284288
 30
0.0
 11
463.1990834381146
 21
152.7206882284288
 31
0.0
  0
ARC
  5
73B8
330
1E
100
AcDbEntity
  8
製品
  6
Continuous
 62
     2
100
AcDbCircle
 10
463.1990834381146
 20
152.520688228429
 30
0.0
 40
0.2
100
AcDbArc
 50
90.0
 51
180.0
  0
LINE
  5
73B9
330
1E
100
AcDbEntity
  8
製品
  6
Continuous
 62
     2
100
AcDbLine
 10
462.9990834381147
 20
152.520688228429
 30
0.0
 11
462.9990834381147
 21
152.2206882284288
 31
0.0
  0
LINE
  5
73BA
330
1E
100
AcDbEntity
  8
製品
  6
Continuous
 62
     2
100
AcDbLine
 10
462.9990834381147
 20
152.2206882284288
 30
0.0
 11
462.8990834381148
 21
152.2206882284288
 31
0.0
  0
ARC
  5
73BB
330
1E
100
AcDbEntity
  8
製品
  6
Continuous
 62
     3
100
AcDbCircle
 10
463.1390834381146
 20
157.3806882284291
 30
0.0
 40
0.6400000000000001
100
AcDbArc
 50
90.0
 51
180.0
  0
LINE
  5
73BC
330
1E
100
AcDbEntity
  8
製品
  6
Continuous
 62
     4
100
AcDbLine
 10
473.6008784381148
 20
152.8206882284291
 30
0.0
 11
462.4990834381147
 21
152.8206882284291
 31
0.0
  0
LINE
  5
73BD
330
1E
100
AcDbEntity
  8
製品
  6
Continuous
 62
     4
100
AcDbLine
 10
473.6008784381148
 20
160.420688228429
 30
0.0
 11
463.6990834381146
 21
160.420688228429
 31
0.0
  0
LINE
  5
73BE
330
1E
100
AcDbEntity
  8
製品
  6
Continuous
 62
     3
100
AcDbLine
 10
463.6990834381146
 20
158.020688228429
 30
0.0
 11
463.6990834381146
 21
162.8206882284291
 31
0.0
  0
LINE
  5
73BF
330
1E
100
AcDbEntity
  8
製品
  6
Continuous
 62
     3
100
AcDbLine
 10
458.4644604381147
 20
163.000688228429
 30
0.0
 11
458.6644604381145
 21
163.000688228429
 31
0.0
  0
LINE
  5
73C0
330
1E
100
AcDbEntity
  8
製品
  6
Continuous
 62
     3
100
AcDbLine
 10
459.1644604381145
 20
163.2206882284288
 30
0.0
 11
457.9644604381147
 21
163.2206882284288
 31
0.0
  0
ARC
  5
73C1
330
1E
100
AcDbEntity
  8
製品
  6
Continuous
 62
     3
100
AcDbCircle
 10
454.6990834381146
 20
162.8206882284291
 30
0.0
 40
1.0
100
AcDbArc
 50
90.0
 51
180.0
  0
LINE
  5
73C2
330
1E
100
AcDbEntity
  8
製品
  6
Continuous
 62
     3
100
AcDbLine
 10
459.1644604381145
 20
161.2206882284288
 30
0.0
 11
459.7144604381147
 21
162.2206882284288
 31
0.0
  0
LINE
  5
73C3
330
1E
100
AcDbEntity
  8
製品
  6
Continuous
 62
     3
100
AcDbLine
 10
459.3244604381144
 20
162.3206882284291
 30
0.0
 11
459.3244604381144
 21
162.1206882284289
 31
0.0
  0
ARC
  5
73C4
330
1E
100
AcDbEntity
  8
製品
  6
Continuous
 62
     3
100
AcDbCircle
 10
458.9644604381147
 20
162.6206882284289
 30
0.0
 40
0.3
100
AcDbArc
 50
180.0
 51
270.0
  0
LINE
  5
73C5
330
1E
100
AcDbEntity
  8
製品
  6
Continuous
 62
     3
100
AcDbLine
 10
459.3244604381144
 20
162.3206882284291
 30
0.0
 11
458.9644604381147
 21
162.3206882284291
 31
0.0
  0
LINE
  5
73C6
330
1E
100
AcDbEntity
  8
製品
  6
Continuous
 62
     3
100
AcDbLine
 10
458.4644604381147
 20
161.3906882284289
 30
0.0
 11
458.6644604381145
 21
161.3906882284289
 31
0.0
  0
LINE
  5
73C7
330
1E
100
AcDbEntity
  8
製品
  6
Continuous
 62
     3
100
AcDbLine
 10
458.6644604381145
 20
161.440688228429
 30
0.0
 11
458.6644604381145
 21
161.8206882284291
 31
0.0
  0
LINE
  5
73C8
330
1E
100
AcDbEntity
  8
製品
  6
Continuous
 62
     3
100
AcDbLine
 10
458.4644604381147
 20
161.440688228429
 30
0.0
 11
458.4644604381147
 21
161.8206882284291
 31
0.0
  0
ARC
  5
73C9
330
1E
100
AcDbEntity
  8
製品
  6
Continuous
 62
     3
100
AcDbCircle
 10
458.9644604381147
 20
161.8206882284291
 30
0.0
 40
0.3
100
AcDbArc
 50
90.0
 51
180.0
  0
LINE
  5
73CA
330
1E
100
AcDbEntity
  8
製品
  6
Continuous
 62
     3
100
AcDbLine
 10
459.3244604381144
 20
162.1206882284289
 30
0.0
 11
458.9644604381147
 21
162.1206882284289
 31
0.0
  0
LINE
  5
73CB
330
1E
100
AcDbEntity
  8
製品
  6
Continuous
 62
     3
100
AcDbLine
 10
458.4644604381147
 20
161.440688228429
 30
0.0
 11
458.6644604381145
 21
161.440688228429
 31
0.0
  0
LINE
  5
73CC
330
1E
100
AcDbEntity
  8
製品
  6
Continuous
 62
     3
100
AcDbLine
 10
457.4144604381145
 20
162.2206882284288
 30
0.0
 11
457.9644604381147
 21
161.2206882284288
 31
0.0
  0
LINE
  5
73CD
330
1E
100
AcDbEntity
  8
製品
  6
Continuous
 62
     3
100
AcDbLine
 10
457.8044604381148
 20
162.3206882284291
 30
0.0
 11
458.1644604381145
 21
162.3206882284291
 31
0.0
  0
LINE
  5
73CE
330
1E
100
AcDbEntity
  8
製品
  6
Continuous
 62
     3
100
AcDbLine
 10
457.8044604381148
 20
162.1206882284289
 30
0.0
 11
458.1644604381145
 21
162.1206882284289
 31
0.0
  0
LINE
  5
73CF
330
1E
100
AcDbEntity
  8
製品
  6
Continuous
 62
     3
100
AcDbLine
 10
457.8044604381148
 20
162.3206882284291
 30
0.0
 11
457.8044604381148
 21
162.1206882284289
 31
0.0
  0
LINE
  5
73D0
330
1E
100
AcDbEntity
  8
製品
  6
Continuous
 62
     3
100
AcDbLine
 10
457.9644604381147
 20
161.2206882284288
 30
0.0
 11
459.1644604381145
 21
161.2206882284288
 31
0.0
  0
ARC
  5
73D1
330
1E
100
AcDbEntity
  8
製品
  6
Continuous
 62
     3
100
AcDbCircle
 10
458.1644604381145
 20
162.6206882284289
 30
0.0
 40
0.3
100
AcDbArc
 50
270.0
 51
0.0
  0
ARC
  5
73D2
330
1E
100
AcDbEntity
  8
製品
  6
Continuous
 62
     3
100
AcDbCircle
 10
458.1644604381145
 20
161.8206882284291
 30
0.0
 40
0.3
100
AcDbArc
 50
0.0
 51
90.0
  0
LINE
  5
73D3
330
1E
100
AcDbEntity
  8
製品
  6
Continuous
 62
     2
100
AcDbLine
 10
454.3990834381149
 20
152.520688228429
 30
0.0
 11
454.3990834381149
 21
152.2206882284288
 31
0.0
  0
LINE
  5
73D4
330
1E
100
AcDbEntity
  8
製品
  6
Continuous
 62
     2
100
AcDbLine
 10
454.3990834381149
 20
152.2206882284288
 30
0.0
 11
454.4990834381147
 21
152.2206882284288
 31
0.0
  0
LINE
  5
73D5
330
1E
100
AcDbEntity
  8
製品
  6
Continuous
 62
     2
100
AcDbLine
 10
454.4990834381147
 20
152.2206882284288
 30
0.0
 11
454.4990834381147
 21
152.520688228429
 31
0.0
  0
LINE
  5
73D6
330
1E
100
AcDbEntity
  8
製品
  6
Continuous
 62
     2
100
AcDbLine
 10
454.3990834381149
 20
152.520688228429
 30
0.0
 11
454.3990834381149
 21
152.2206882284288
 31
0.0
  0
LINE
  5
73D7
330
1E
100
AcDbEntity
  8
製品
  6
Continuous
 62
     2
100
AcDbLine
 10
454.3990834381149
 20
152.2206882284288
 30
0.0
 11
454.4990834381147
 21
152.2206882284288
 31
0.0
  0
LINE
  5
73D8
330
1E
100
AcDbEntity
  8
製品
  6
Continuous
 62
     2
100
AcDbLine
 10
454.4990834381147
 20
152.2206882284288
 30
0.0
 11
454.4990834381147
 21
152.520688228429
 31
0.0
  0
LINE
  5
73D9
330
1E
100
AcDbEntity
  8
製品
  6
Continuous
 62
     3
100
AcDbLine
 10
454.2590834381145
 20
158.020688228429
 30
0.0
 11
453.6990834381145
 21
158.020688228429
 31
0.0
  0
ARC
  5
73DA
330
1E
100
AcDbEntity
  8
製品
  6
Continuous
 62
     2
100
AcDbCircle
 10
453.9990834381147
 20
152.520688228429
 30
0.0
 40
0.2
100
AcDbArc
 50
90.0
 51
180.0
  0
LINE
  5
73DB
330
1E
100
AcDbEntity
  8
製品
  6
Continuous
 62
     2
100
AcDbLine
 10
453.9990834381147
 20
152.7206882284288
 30
0.0
 11
454.1990834381145
 21
152.7206882284288
 31
0.0
  0
LINE
  5
73DC
330
1E
100
AcDbEntity
  8
製品
  6
Continuous
 62
     2
100
AcDbLine
 10
454.1990834381145
 20
152.8206882284291
 30
0.0
 11
453.9990834381147
 21
152.8206882284291
 31
0.0
  0
ARC
  5
73DD
330
1E
100
AcDbEntity
  8
製品
  6
Continuous
 62
     2
100
AcDbCircle
 10
453.9990834381147
 20
152.520688228429
 30
0.0
 40
0.3
100
AcDbArc
 50
90.0
 51
180.0
  0
ARC
  5
73DE
330
1E
100
AcDbEntity
  8
製品
  6
Continuous
 62
     2
100
AcDbCircle
 10
453.9990834381147
 20
152.520688228429
 30
0.0
 40
0.2
100
AcDbArc
 50
90.0
 51
180.0
  0
LINE
  5
73DF
330
1E
100
AcDbEntity
  8
製品
  6
Continuous
 62
     2
100
AcDbLine
 10
453.9990834381147
 20
152.7206882284288
 30
0.0
 11
454.1990834381145
 21
152.7206882284288
 31
0.0
  0
LINE
  5
73E0
330
1E
100
AcDbEntity
  8
製品
  6
Continuous
 62
     2
100
AcDbLine
 10
454.1990834381145
 20
152.8206882284291
 30
0.0
 11
453.9990834381147
 21
152.8206882284291
 31
0.0
  0
ARC
  5
73E1
330
1E
100
AcDbEntity
  8
製品
  6
Continuous
 62
     2
100
AcDbCircle
 10
453.9990834381147
 20
152.520688228429
 30
0.0
 40
0.3
100
AcDbArc
 50
90.0
 51
180.0
  0
LINE
  5
73E2
330
1E
100
AcDbEntity
  8
製品
  6
Continuous
 62
     3
100
AcDbLine
 10
453.9790834381148
 20
152.3406882284291
 30
0.0
 11
453.9790834381148
 21
152.7196852284289
 31
0.0
  0
LINE
  5
73E3
330
1E
100
AcDbEntity
  8
製品
  6
Continuous
 62
     3
100
AcDbLine
 10
453.9790834381148
 20
152.7196852284289
 30
0.0
 11
454.2990834381145
 21
152.693893228429
 31
0.0
  0
LINE
  5
73E4
330
1E
100
AcDbEntity
  8
製品
  6
Continuous
 62
     3
100
AcDbLine
 10
454.2990834381145
 20
152.693893228429
 30
0.0
 11
454.2990834381145
 21
152.3406882284291
 31
0.0
  0
ARC
  5
73E5
330
1E
100
AcDbEntity
  8
製品
  6
Continuous
 62
     2
100
AcDbCircle
 10
454.1990834381145
 20
152.520688228429
 30
0.0
 40
0.2
100
AcDbArc
 50
0.0
 51
90.0
  0
ARC
  5
73E6
330
1E
100
AcDbEntity
  8
製品
  6
Continuous
 62
     2
100
AcDbCircle
 10
454.1990834381145
 20
152.520688228429
 30
0.0
 40
0.3
100
AcDbArc
 50
0.0
 51
90.0
  0
ARC
  5
73E7
330
1E
100
AcDbEntity
  8
製品
  6
Continuous
 62
     2
100
AcDbCircle
 10
454.1990834381145
 20
152.520688228429
 30
0.0
 40
0.2
100
AcDbArc
 50
0.0
 51
90.0
  0
ARC
  5
73E8
330
1E
100
AcDbEntity
  8
製品
  6
Continuous
 62
     2
100
AcDbCircle
 10
454.1990834381145
 20
152.520688228429
 30
0.0
 40
0.3
100
AcDbArc
 50
0.0
 51
90.0
  0
ARC
  5
73E9
330
1E
100
AcDbEntity
  8
製品
  6
Continuous
 62
     3
100
AcDbCircle
 10
454.2590834381145
 20
157.3806882284291
 30
0.0
 40
0.6400000000000001
100
AcDbArc
 50
0.0
 51
90.0
  0
LINE
  5
73EA
330
1E
100
AcDbEntity
  8
製品
  6
Continuous
 62
     3
100
AcDbLine
 10
453.6990834381145
 20
158.020688228429
 30
0.0
 11
453.6990834381145
 21
162.8206882284291
 31
0.0
  0
LINE
  5
73EB
330
1E
100
AcDbEntity
  8
製品
  6
Continuous
 62
     3
100
AcDbLine
 10
457.9644604381147
 20
163.2206882284288
 30
0.0
 11
457.4144604381145
 21
162.2206882284288
 31
0.0
  0
LINE
  5
73EC
330
1E
100
AcDbEntity
  8
製品
  6
Continuous
 62
     3
100
AcDbLine
 10
459.7144604381147
 20
162.2206882284288
 30
0.0
 11
459.1644604381145
 21
163.2206882284288
 31
0.0
  0
CIRCLE
  5
73ED
330
1E
100
AcDbEntity
  8
製品
  6
Continuous
 62
     3
100
AcDbCircle
 10
458.5644604381147
 20
162.2206882284288
 30
0.0
 40
1.0
  0
LINE
  5
73EE
330
1E
100
AcDbEntity
  8
製品
  6
Continuous
 62
     3
100
AcDbLine
 10
458.6644604381145
 20
163.000688228429
 30
0.0
 11
458.6644604381145
 21
162.6206882284289
 31
0.0
  0
LINE
  5
73EF
330
1E
100
AcDbEntity
  8
製品
  6
Continuous
 62
     3
100
AcDbLine
 10
458.4644604381147
 20
163.000688228429
 30
0.0
 11
458.4644604381147
 21
162.6206882284289
 31
0.0
  0
LINE
  5
73F0
330
1E
100
AcDbEntity
  8
製品
  6
Continuous
 62
     3
100
AcDbLine
 10
453.6990834381145
 20
160.8206882284291
 30
0.0
 11
463.6990834381146
 21
160.8206882284291
 31
0.0
  0
LINE
  5
73F1
330
1E
100
AcDbEntity
  8
製品
  6
Continuous
 62
     3
100
AcDbLine
 10
454.6990834381146
 20
163.8206882284291
 30
0.0
 11
462.6990834381145
 21
163.8206882284291
 31
0.0
  0
LINE
  5
73F2
330
1E
100
AcDbEntity
  8
製品
  6
Continuous
 62
     2
100
AcDbLine
 10
462.4990834381147
 20
147.920688228429
 30
0.0
 11
462.2990834381145
 21
148.0206882284289
 31
0.0
  0
LINE
  5
73F3
330
1E
100
AcDbEntity
  8
製品
  6
Continuous
 62
     2
100
AcDbLine
 10
463.5990834381146
 20
148.420688228429
 30
0.0
 11
463.5990834381146
 21
150.5027452284291
 31
0.0
  0
LINE
  5
73F4
330
1E
100
AcDbEntity
  8
製品
  6
Continuous
 62
     2
100
AcDbLine
 10
463.6990834381146
 20
148.420688228429
 30
0.0
 11
463.6990834381146
 21
150.5027452284291
 31
0.0
  0
LINE
  5
73F5
330
1E
100
AcDbEntity
  8
製品
  6
Continuous
 62
     2
100
AcDbLine
 10
462.4990834381147
 20
147.8206882284291
 30
0.0
 11
462.2990834381145
 21
147.920688228429
 31
0.0
  0
LINE
  5
73F6
330
1E
100
AcDbEntity
  8
製品
  6
Continuous
 62
     3
100
AcDbLine
 10
462.4990834381147
 20
152.020688228429
 30
0.0
 11
462.7790834381145
 21
152.020688228429
 31
0.0
  0
ARC
  5
73F7
330
1E
100
AcDbEntity
  8
製品
  6
Continuous
 62
     2
100
AcDbCircle
 10
463.0990834381147
 20
148.420688228429
 30
0.0
 40
0.5
100
AcDbArc
 50
270.0
 51
0.0
  0
LINE
  5
73F8
330
1E
100
AcDbEntity
  8
製品
  6
Continuous
 62
     2
100
AcDbLine
 10
463.0990834381147
 20
147.920688228429
 30
0.0
 11
462.4990834381147
 21
147.920688228429
 31
0.0
  0
ARC
  5
73F9
330
1E
100
AcDbEntity
  8
製品
  6
Continuous
 62
     2
100
AcDbCircle
 10
463.0990834381147
 20
148.420688228429
 30
0.0
 40
0.6
100
AcDbArc
 50
270.0
 51
0.0
  0
LINE
  5
73FA
330
1E
100
AcDbEntity
  8
製品
  6
Continuous
 62
     2
100
AcDbLine
 10
463.0990834381147
 20
147.8206882284291
 30
0.0
 11
462.4990834381147
 21
147.8206882284291
 31
0.0
  0
LINE
  5
73FB
330
1E
100
AcDbEntity
  8
製品
  6
Continuous
 62
     2
100
AcDbLine
 10
461.9990834381147
 20
147.8206882284291
 30
0.0
 11
461.6990834381145
 21
147.920688228429
 31
0.0
  0
LINE
  5
73FC
330
1E
100
AcDbEntity
  8
製品
  6
Continuous
 62
     2
100
AcDbLine
 10
461.6990834381145
 20
147.920688228429
 30
0.0
 11
461.3990834381148
 21
147.8206882284291
 31
0.0
  0
LINE
  5
73FD
330
1E
100
AcDbEntity
  8
製品
  6
Continuous
 62
     2
100
AcDbLine
 10
461.3990834381148
 20
147.8206882284291
 30
0.0
 11
461.0990834381147
 21
147.920688228429
 31
0.0
  0
LINE
  5
73FE
330
1E
100
AcDbEntity
  8
製品
  6
Continuous
 62
     2
100
AcDbLine
 10
461.0990834381147
 20
147.920688228429
 30
0.0
 11
460.7990834381145
 21
147.8206882284291
 31
0.0
  0
LINE
  5
73FF
330
1E
100
AcDbEntity
  8
製品
  6
Continuous
 62
     2
100
AcDbLine
 10
460.7990834381145
 20
147.8206882284291
 30
0.0
 11
460.4990834381148
 21
147.920688228429
 31
0.0
  0
LINE
  5
7400
330
1E
100
AcDbEntity
  8
製品
  6
Continuous
 62
     2
100
AcDbLine
 10
460.4990834381148
 20
147.920688228429
 30
0.0
 11
460.1990834381146
 21
147.8206882284291
 31
0.0
  0
LINE
  5
7401
330
1E
100
AcDbEntity
  8
製品
  6
Continuous
 62
     2
100
AcDbLine
 10
460.1990834381146
 20
147.8206882284291
 30
0.0
 11
459.8990834381148
 21
147.920688228429
 31
0.0
  0
LINE
  5
7402
330
1E
100
AcDbEntity
  8
製品
  6
Continuous
 62
     2
100
AcDbLine
 10
459.8990834381148
 20
147.920688228429
 30
0.0
 11
459.6990834381146
 21
147.8206882284291
 31
0.0
  0
LINE
  5
7403
330
1E
100
AcDbEntity
  8
製品
  6
Continuous
 62
     2
100
AcDbLine
 10
459.6990834381146
 20
147.8206882284291
 30
0.0
 11
458.8990834381148
 21
147.8206882284291
 31
0.0
  0
LINE
  5
7404
330
1E
100
AcDbEntity
  8
製品
  6
Continuous
 62
     2
100
AcDbLine
 10
458.8990834381148
 20
147.8206882284291
 30
0.0
 11
458.6990834381146
 21
147.920688228429
 31
0.0
  0
LINE
  5
7405
330
1E
100
AcDbEntity
  8
製品
  6
Continuous
 62
     2
100
AcDbLine
 10
461.9990834381147
 20
147.920688228429
 30
0.0
 11
461.6990834381145
 21
148.0206882284289
 31
0.0
  0
LINE
  5
7406
330
1E
100
AcDbEntity
  8
製品
  6
Continuous
 62
     2
100
AcDbLine
 10
461.6990834381145
 20
148.0206882284289
 30
0.0
 11
461.3990834381148
 21
147.920688228429
 31
0.0
  0
LINE
  5
7407
330
1E
100
AcDbEntity
  8
製品
  6
Continuous
 62
     2
100
AcDbLine
 10
461.3990834381148
 20
147.920688228429
 30
0.0
 11
461.0990834381147
 21
148.0206882284289
 31
0.0
  0
LINE
  5
7408
330
1E
100
AcDbEntity
  8
製品
  6
Continuous
 62
     2
100
AcDbLine
 10
461.0990834381147
 20
148.0206882284289
 30
0.0
 11
460.7990834381145
 21
147.920688228429
 31
0.0
  0
LINE
  5
7409
330
1E
100
AcDbEntity
  8
製品
  6
Continuous
 62
     2
100
AcDbLine
 10
460.7990834381145
 20
147.920688228429
 30
0.0
 11
460.4990834381148
 21
148.0206882284289
 31
0.0
  0
LINE
  5
740A
330
1E
100
AcDbEntity
  8
製品
  6
Continuous
 62
     2
100
AcDbLine
 10
460.4990834381148
 20
148.0206882284289
 30
0.0
 11
460.1990834381146
 21
147.920688228429
 31
0.0
  0
LINE
  5
740B
330
1E
100
AcDbEntity
  8
製品
  6
Continuous
 62
     2
100
AcDbLine
 10
460.1990834381146
 20
147.920688228429
 30
0.0
 11
459.8990834381148
 21
148.0206882284289
 31
0.0
  0
LINE
  5
740C
330
1E
100
AcDbEntity
  8
製品
  6
Continuous
 62
     2
100
AcDbLine
 10
459.8990834381148
 20
148.0206882284289
 30
0.0
 11
459.6990834381146
 21
147.920688228429
 31
0.0
  0
LINE
  5
740D
330
1E
100
AcDbEntity
  8
製品
  6
Continuous
 62
     2
100
AcDbLine
 10
459.6990834381146
 20
147.920688228429
 30
0.0
 11
458.8990834381148
 21
147.920688228429
 31
0.0
  0
LINE
  5
740E
330
1E
100
AcDbEntity
  8
製品
  6
Continuous
 62
     2
100
AcDbLine
 10
458.8990834381148
 20
147.920688228429
 30
0.0
 11
458.6990834381146
 21
148.0206882284289
 31
0.0
  0
LINE
  5
740F
330
1E
100
AcDbEntity
  8
製品
  6
Continuous
 62
     2
100
AcDbLine
 10
458.4990834381147
 20
147.8206882284291
 30
0.0
 11
458.6990834381146
 21
147.920688228429
 31
0.0
  0
LINE
  5
7410
330
1E
100
AcDbEntity
  8
製品
  6
Continuous
 62
     2
100
AcDbLine
 10
458.4990834381147
 20
147.920688228429
 30
0.0
 11
458.6990834381146
 21
148.0206882284289
 31
0.0
  0
LINE
  5
7411
330
1E
100
AcDbEntity
  8
製品
  6
Continuous
 62
     2
100
AcDbLine
 10
455.0990834381146
 20
147.920688228429
 30
0.0
 11
454.8990834381148
 21
147.8206882284291
 31
0.0
  0
LINE
  5
7412
330
1E
100
AcDbEntity
  8
製品
  6
Continuous
 62
     2
100
AcDbLine
 10
455.3990834381148
 20
147.8206882284291
 30
0.0
 11
455.0990834381146
 21
147.920688228429
 31
0.0
  0
LINE
  5
7413
330
1E
100
AcDbEntity
  8
製品
  6
Continuous
 62
     2
100
AcDbLine
 10
455.6990834381146
 20
147.920688228429
 30
0.0
 11
455.3990834381148
 21
147.8206882284291
 31
0.0
  0
LINE
  5
7414
330
1E
100
AcDbEntity
  8
製品
  6
Continuous
 62
     2
100
AcDbLine
 10
455.9990834381148
 20
147.8206882284291
 30
0.0
 11
455.6990834381146
 21
147.920688228429
 31
0.0
  0
LINE
  5
7415
330
1E
100
AcDbEntity
  8
製品
  6
Continuous
 62
     2
100
AcDbLine
 10
456.2990834381145
 20
147.920688228429
 30
0.0
 11
455.9990834381148
 21
147.8206882284291
 31
0.0
  0
LINE
  5
7416
330
1E
100
AcDbEntity
  8
製品
  6
Continuous
 62
     2
100
AcDbLine
 10
456.5990834381146
 20
147.8206882284291
 30
0.0
 11
456.2990834381145
 21
147.920688228429
 31
0.0
  0
LINE
  5
7417
330
1E
100
AcDbEntity
  8
製品
  6
Continuous
 62
     2
100
AcDbLine
 10
456.8990834381148
 20
147.920688228429
 30
0.0
 11
456.5990834381146
 21
147.8206882284291
 31
0.0
  0
LINE
  5
7418
330
1E
100
AcDbEntity
  8
製品
  6
Continuous
 62
     2
100
AcDbLine
 10
457.1990834381145
 20
147.8206882284291
 30
0.0
 11
456.8990834381148
 21
147.920688228429
 31
0.0
  0
LINE
  5
7419
330
1E
100
AcDbEntity
  8
製品
  6
Continuous
 62
     2
100
AcDbLine
 10
457.4990834381147
 20
147.920688228429
 30
0.0
 11
457.1990834381145
 21
147.8206882284291
 31
0.0
  0
LINE
  5
741A
330
1E
100
AcDbEntity
  8
製品
  6
Continuous
 62
     2
100
AcDbLine
 10
457.6990834381145
 20
147.8206882284291
 30
0.0
 11
457.4990834381147
 21
147.920688228429
 31
0.0
  0
LINE
  5
741B
330
1E
100
AcDbEntity
  8
製品
  6
Continuous
 62
     2
100
AcDbLine
 10
455.0990834381146
 20
148.0206882284289
 30
0.0
 11
454.8990834381148
 21
147.920688228429
 31
0.0
  0
LINE
  5
741C
330
1E
100
AcDbEntity
  8
製品
  6
Continuous
 62
     2
100
AcDbLine
 10
455.3990834381148
 20
147.920688228429
 30
0.0
 11
455.0990834381146
 21
148.0206882284289
 31
0.0
  0
LINE
  5
741D
330
1E
100
AcDbEntity
  8
製品
  6
Continuous
 62
     2
100
AcDbLine
 10
455.6990834381146
 20
148.0206882284289
 30
0.0
 11
455.3990834381148
 21
147.920688228429
 31
0.0
  0
LINE
  5
741E
330
1E
100
AcDbEntity
  8
製品
  6
Continuous
 62
     2
100
AcDbLine
 10
455.9990834381148
 20
147.920688228429
 30
0.0
 11
455.6990834381146
 21
148.0206882284289
 31
0.0
  0
LINE
  5
741F
330
1E
100
AcDbEntity
  8
製品
  6
Continuous
 62
     2
100
AcDbLine
 10
456.2990834381145
 20
148.0206882284289
 30
0.0
 11
455.9990834381148
 21
147.920688228429
 31
0.0
  0
LINE
  5
7420
330
1E
100
AcDbEntity
  8
製品
  6
Continuous
 62
     2
100
AcDbLine
 10
456.5990834381146
 20
147.920688228429
 30
0.0
 11
456.2990834381145
 21
148.0206882284289
 31
0.0
  0
LINE
  5
7421
330
1E
100
AcDbEntity
  8
製品
  6
Continuous
 62
     2
100
AcDbLine
 10
456.8990834381148
 20
148.0206882284289
 30
0.0
 11
456.5990834381146
 21
147.920688228429
 31
0.0
  0
LINE
  5
7422
330
1E
100
AcDbEntity
  8
製品
  6
Continuous
 62
     2
100
AcDbLine
 10
457.1990834381145
 20
147.920688228429
 30
0.0
 11
456.8990834381148
 21
148.0206882284289
 31
0.0
  0
LINE
  5
7423
330
1E
100
AcDbEntity
  8
製品
  6
Continuous
 62
     2
100
AcDbLine
 10
457.4990834381147
 20
148.0206882284289
 30
0.0
 11
457.1990834381145
 21
147.920688228429
 31
0.0
  0
LINE
  5
7424
330
1E
100
AcDbEntity
  8
製品
  6
Continuous
 62
     2
100
AcDbLine
 10
457.6990834381145
 20
147.920688228429
 30
0.0
 11
457.4990834381147
 21
148.0206882284289
 31
0.0
  0
LINE
  5
7425
330
1E
100
AcDbEntity
  8
製品
  6
Continuous
 62
     2
100
AcDbLine
 10
457.6990834381145
 20
147.8206882284291
 30
0.0
 11
458.4990834381147
 21
147.8206882284291
 31
0.0
  0
LINE
  5
7426
330
1E
100
AcDbEntity
  8
製品
  6
Continuous
 62
     2
100
AcDbLine
 10
457.6990834381145
 20
147.920688228429
 30
0.0
 11
458.4990834381147
 21
147.920688228429
 31
0.0
  0
ARC
  5
7427
330
1E
100
AcDbEntity
  8
製品
  6
Continuous
 62
     2
100
AcDbCircle
 10
454.2990834381145
 20
148.420688228429
 30
0.0
 40
0.5
100
AcDbArc
 50
180.0
 51
270.0
  0
ARC
  5
7428
330
1E
100
AcDbEntity
  8
製品
  6
Continuous
 62
     2
100
AcDbCircle
 10
454.2990834381145
 20
148.420688228429
 30
0.0
 40
0.6
100
AcDbArc
 50
180.0
 51
270.0
  0
LINE
  5
7429
330
1E
100
AcDbEntity
  8
製品
  6
Continuous
 62
     2
100
AcDbLine
 10
453.6990834381145
 20
148.420688228429
 30
0.0
 11
453.6990834381145
 21
150.5027452284291
 31
0.0
  0
LINE
  5
742A
330
1E
100
AcDbEntity
  8
製品
  6
Continuous
 62
     2
100
AcDbLine
 10
453.7990834381145
 20
148.420688228429
 30
0.0
 11
453.7990834381145
 21
150.5027452284291
 31
0.0
  0
LINE
  5
742B
330
1E
100
AcDbEntity
  8
製品
  6
Continuous
 62
     2
100
AcDbLine
 10
454.2990834381145
 20
147.920688228429
 30
0.0
 11
454.8990834381148
 21
147.920688228429
 31
0.0
  0
LINE
  5
742C
330
1E
100
AcDbEntity
  8
製品
  6
Continuous
 62
     2
100
AcDbLine
 10
454.2990834381145
 20
147.8206882284291
 30
0.0
 11
454.8990834381148
 21
147.8206882284291
 31
0.0
  0
LINE
  5
742D
330
1E
100
AcDbEntity
  8
製品
  6
Continuous
 62
     2
100
AcDbLine
 10
462.2990834381145
 20
148.0206882284289
 30
0.0
 11
461.9990834381147
 21
147.920688228429
 31
0.0
  0
LINE
  5
742E
330
1E
100
AcDbEntity
  8
製品
  6
Continuous
 62
     2
100
AcDbLine
 10
462.2990834381145
 20
147.920688228429
 30
0.0
 11
461.9990834381147
 21
147.8206882284291
 31
0.0
  0
LINE
  5
742F
330
1E
100
AcDbEntity
  8
製品
  6
Continuous
 62
     3
100
AcDbLine
 10
462.7790834381145
 20
151.7006882284288
 30
0.0
 11
454.6190834381146
 21
151.7006882284288
 31
0.0
  0
LINE
  5
7430
330
1E
100
AcDbEntity
  8
製品
  6
Continuous
 62
     3
100
AcDbLine
 10
454.6190834381146
 20
152.020688228429
 30
0.0
 11
462.4990834381147
 21
152.020688228429
 31
0.0
  0
LINE
  5
7431
330
1E
100
AcDbEntity
  8
製品
  6
Continuous
 62
     2
100
AcDbLine
 10
463.5990834381146
 20
150.5027452284291
 30
0.0
 11
463.5990834381146
 21
152.520688228429
 31
0.0
  0
LINE
  5
7432
330
1E
100
AcDbEntity
  8
製品
  6
Continuous
 62
     2
100
AcDbLine
 10
463.6990834381146
 20
150.5027452284291
 30
0.0
 11
463.6990834381146
 21
152.520688228429
 31
0.0
  0
LINE
  5
7433
330
1E
100
AcDbEntity
  8
製品
  6
Continuous
 62
     2
100
AcDbLine
 10
453.7990834381145
 20
150.5027452284291
 30
0.0
 11
453.7990834381145
 21
152.520688228429
 31
0.0
  0
LINE
  5
7434
330
1E
100
AcDbEntity
  8
製品
  6
Continuous
 62
     2
100
AcDbLine
 10
453.6990834381145
 20
150.5027452284291
 30
0.0
 11
453.6990834381145
 21
152.520688228429
 31
0.0
  0
LINE
  5
7435
330
1E
100
AcDbEntity
  8
製品
  6
Continuous
 62
     3
100
AcDbLine
 10
454.8990834381148
 20
152.020688228429
 30
0.0
 11
454.8990834381148
 21
157.3806882284291
 31
0.0
  0
LINE
  5
7436
330
1E
100
AcDbEntity
  8
製品
  6
Continuous
 62
     3
100
AcDbLine
 10
462.4990834381147
 20
157.3806882284291
 30
0.0
 11
462.4990834381147
 21
152.020688228429
 31
0.0
  0
ARC
  5
7437
330
1E
100
AcDbEntity
  8
製品
  6
Continuous
 62
     3
100
AcDbCircle
 10
462.7790834381145
 20
152.3406882284291
 30
0.0
 40
0.32
100
AcDbArc
 50
270.0
 51
0.0
  0
ARC
  5
7438
330
1E
100
AcDbEntity
  8
製品
  6
Continuous
 62
     3
100
AcDbCircle
 10
462.7790834381145
 20
152.3406882284291
 30
0.0
 40
0.6400000000000001
100
AcDbArc
 50
270.0
 51
0.0
  0
ARC
  5
7439
330
1E
100
AcDbEntity
  8
製品
  6
Continuous
 62
     3
100
AcDbCircle
 10
454.6190834381146
 20
152.3406882284291
 30
0.0
 40
0.6400000000000001
100
AcDbArc
 50
180.0
 51
270.0
  0
ARC
  5
743A
330
1E
100
AcDbEntity
  8
製品
  6
Continuous
 62
     3
100
AcDbCircle
 10
454.6190834381146
 20
152.3406882284291
 30
0.0
 40
0.32
100
AcDbArc
 50
180.0
 51
270.0
  0
TEXT
  5
743B
330
1E
100
AcDbEntity
  8
図面枠
  6
Continuous
 62
     3
100
AcDbText
 10
401.2252714381149
 20
298.7942522284291
 30
0.0
 40
3.0
  1
インサ－ト　１／２
 41
0.8
  7
ACAD
100
AcDbText
  0
LINE
  5
743C
330
1E
100
AcDbEntity
  8
製品
  6
PLINE3
 62
     3
100
AcDbLine
 10
408.1940744381146
 20
229.7393082284291
 30
0.0
 11
420.2460384381148
 21
229.7393082284291
 31
0.0
  0
LINE
  5
743D
330
1E
100
AcDbEntity
  8
製品
  6
Continuous
 62
     4
100
AcDbLine
 10
326.7962374381146
 20
296.136073228429
 30
0.0
 11
338.1710324381148
 21
307.5108682284288
 31
0.0
  0
LINE
  5
743E
330
1E
100
AcDbEntity
  8
製品
  6
Continuous
 62
     4
100
AcDbLine
 10
336.7568194381148
 20
307.5108682284288
 30
0.0
 11
325.3820234381147
 21
296.136073228429
 31
0.0
  0
LINE
  5
743F
330
1E
100
AcDbEntity
  8
製品
  6
Continuous
 62
     4
100
AcDbLine
 10
323.9678104381147
 20
296.136073228429
 30
0.0
 11
335.3426054381145
 21
307.5108682284288
 31
0.0
  0
LINE
  5
7440
330
1E
100
AcDbEntity
  8
図面枠
  6
Continuous
 62
     3
100
AcDbLine
 10
364.8501054381146
 20
254.9542482284289
 30
0.0
 11
385.4901054381145
 21
254.9542482284289
 31
0.0
  0
TEXT
  5
7441
330
1E
100
AcDbEntity
  8
図面枠
  6
Continuous
 62
     3
100
AcDbText
 10
364.8501344381149
 20
255.9542562284289
 30
0.0
 40
3.0
  1
補強用チャンネル
 41
0.8
  7
ACAD
100
AcDbText
  0
CIRCLE
  5
7442
330
1E
100
AcDbEntity
  8
図面枠
  6
Continuous
 62
     3
100
AcDbCircle
 10
358.0334154381145
 20
243.844747228429
 30
0.0
 40
0.3
  0
LINE
  5
7443
330
1E
100
AcDbEntity
  8
図面枠
  6
Continuous
 62
     3
100
AcDbLine
 10
358.0334154381145
 20
243.844747228429
 30
0.0
 11
364.8501054381146
 21
254.9542482284289
 31
0.0
  0
LINE
  5
7444
330
1E
100
AcDbEntity
  8
製品
  6
Continuous
 62
     4
100
AcDbLine
 10
413.4445904381147
 20
234.1993082284291
 30
0.0
 11
413.4445904381147
 21
296.136073228429
 31
0.0
  0
LINE
  5
7445
330
1E
100
AcDbEntity
  8
製品
  6
Continuous
 62
     4
100
AcDbLine
 10
411.6445904381144
 20
296.136073228429
 30
0.0
 11
411.6445904381144
 21
234.1993082284291
 31
0.0
  0
LINE
  5
7446
330
1E
100
AcDbEntity
  8
図面枠
  6
Continuous
 62
     3
100
AcDbLine
 10
420.5658934381146
 20
253.7541962284288
 30
0.0
 11
443.1733874381144
 21
253.7541962284288
 31
0.0
  0
TEXT
  5
7447
330
1E
100
AcDbEntity
  8
図面枠
  6
Continuous
 62
     3
100
AcDbText
 10
420.5693574381148
 20
254.754198228429
 30
0.0
 40
3.0
  1
チャンネルホルダ－
 41
0.8
  7
ACAD
100
AcDbText
  0
LINE
  5
7448
330
1E
100
AcDbEntity
  8
図面枠
  6
Continuous
 62
     3
100
AcDbLine
 10
422.0568064381146
 20
213.8139702284291
 30
0.0
 11
446.3277514381144
 21
213.8139702284291
 31
0.0
  0
TEXT
  5
7449
330
1E
100
AcDbEntity
  8
図面枠
  6
Continuous
 62
     3
100
AcDbText
 10
422.0540684381145
 20
214.8139662284291
 30
0.0
 40
3.0
  1
吊りボルト　１／２
 41
0.8
  7
ACAD
100
AcDbText
  0
LINE
  5
744A
330
1E
100
AcDbEntity
  8
製品
  6
Continuous
 62
     3
100
AcDbLine
 10
415.3445904381148
 20
246.4634052284289
 30
0.0
 11
464.0890614381147
 21
246.4634052284289
 31
0.0
  0
LINE
  5
744B
330
1E
100
AcDbEntity
  8
製品
  6
Continuous
 62
     3
100
AcDbLine
 10
415.3445904381148
 20
246.1434052284292
 30
0.0
 11
464.0890614381147
 21
246.1434052284292
 31
0.0
  0
LINE
  5
744C
330
1E
100
AcDbEntity
  8
製品
  6
Continuous
 62
     3
100
AcDbLine
 10
464.0890614381147
 20
239.1834052284291
 30
0.0
 11
415.3445904381148
 21
239.1834052284291
 31
0.0
  0
LINE
  5
744D
330
1E
100
AcDbEntity
  8
製品
  6
Continuous
 62
     3
100
AcDbLine
 10
415.3445904381148
 20
238.863405228429
 30
0.0
 11
464.0890614381147
 21
238.863405228429
 31
0.0
  0
LINE
  5
744E
330
1E
100
AcDbEntity
  8
製品
  6
Continuous
 62
     3
100
AcDbLine
 10
413.4445904381147
 20
247.1234052284287
 30
0.0
 11
415.3445904381148
 21
247.1234052284287
 31
0.0
  0
LINE
  5
744F
330
1E
100
AcDbEntity
  8
製品
  6
Continuous
 62
     3
100
AcDbLine
 10
409.7445904381149
 20
247.1234052284287
 30
0.0
 11
411.6445904381144
 21
247.1234052284287
 31
0.0
  0
LINE
  5
7450
330
1E
100
AcDbEntity
  8
製品
  6
Continuous
 62
     3
100
AcDbLine
 10
413.4445904381147
 20
246.6634052284292
 30
0.0
 11
415.3445904381148
 21
246.6634052284292
 31
0.0
  0
LINE
  5
7451
330
1E
100
AcDbEntity
  8
製品
  6
Continuous
 62
     3
100
AcDbLine
 10
409.7445904381149
 20
246.6634052284292
 30
0.0
 11
411.6445904381144
 21
246.6634052284292
 31
0.0
  0
LINE
  5
7452
330
1E
100
AcDbEntity
  8
製品
  6
Continuous
 62
     3
100
AcDbLine
 10
413.4445904381147
 20
238.2034052284291
 30
0.0
 11
415.3445904381148
 21
238.2034052284291
 31
0.0
  0
LINE
  5
7453
330
1E
100
AcDbEntity
  8
製品
  6
Continuous
 62
     3
100
AcDbLine
 10
413.4445904381147
 20
238.6634052284291
 30
0.0
 11
415.3445904381148
 21
238.6634052284291
 31
0.0
  0
LINE
  5
7454
330
1E
100
AcDbEntity
  8
製品
  6
Continuous
 62
     3
100
AcDbLine
 10
415.3445904381148
 20
238.863405228429
 30
0.0
 11
415.3445904381148
 21
238.2034052284291
 31
0.0
  0
LINE
  5
7455
330
1E
100
AcDbEntity
  8
製品
  6
Continuous
 62
     3
100
AcDbLine
 10
409.7445904381149
 20
238.2034052284291
 30
0.0
 11
411.6445904381144
 21
238.2034052284291
 31
0.0
  0
LINE
  5
7456
330
1E
100
AcDbEntity
  8
製品
  6
Continuous
 62
     3
100
AcDbLine
 10
409.7445904381149
 20
238.6634052284291
 30
0.0
 11
411.6445904381144
 21
238.6634052284291
 31
0.0
  0
LINE
  5
7457
330
1E
100
AcDbEntity
  8
製品
  6
Continuous
 62
     3
100
AcDbLine
 10
409.7445904381149
 20
238.863405228429
 30
0.0
 11
409.7445904381149
 21
238.2034052284291
 31
0.0
  0
LINE
  5
7458
330
1E
100
AcDbEntity
  8
製品
  6
PLINE2
 62
     3
100
AcDbLine
 10
415.3445904381148
 20
246.4634052284289
 30
0.0
 11
415.3445904381148
 21
238.863405228429
 31
0.0
  0
LINE
  5
7459
330
1E
100
AcDbEntity
  8
製品
  6
PLINE2
 62
     3
100
AcDbLine
 10
409.7445904381149
 20
246.4634052284289
 30
0.0
 11
409.7445904381149
 21
238.863405228429
 31
0.0
  0
LINE
  5
745A
330
1E
100
AcDbEntity
  8
製品
  6
Continuous
 62
     3
100
AcDbLine
 10
409.7445904381149
 20
247.1234052284287
 30
0.0
 11
409.7445904381149
 21
246.4634052284289
 31
0.0
  0
LINE
  5
745B
330
1E
100
AcDbEntity
  8
製品
  6
Continuous
 62
     3
100
AcDbLine
 10
415.3445904381148
 20
247.1234052284287
 30
0.0
 11
415.3445904381148
 21
246.4634052284289
 31
0.0
  0
CIRCLE
  5
745C
330
1E
100
AcDbEntity
  8
図面枠
  6
Continuous
 62
     3
100
AcDbCircle
 10
415.4000284381146
 20
247.183829228429
 30
0.0
 40
0.3
  0
LINE
  5
745D
330
1E
100
AcDbEntity
  8
図面枠
  6
Continuous
 62
     3
100
AcDbLine
 10
415.4000284381146
 20
247.183829228429
 30
0.0
 11
420.5658934381146
 21
253.7541962284288
 31
0.0
  0
LINE
  5
745E
330
1E
100
AcDbEntity
  8
製品
  6
Continuous
 62
     3
100
AcDbLine
 10
417.3045904381147
 20
229.2393082284291
 30
0.0
 11
419.0863964381147
 21
229.2393082284291
 31
0.0
  0
LINE
  5
745F
330
1E
100
AcDbEntity
  8
製品
  6
Continuous
 62
     3
100
AcDbLine
 10
417.3045904381147
 20
230.2393082284291
 30
0.0
 11
419.0863964381147
 21
230.2393082284291
 31
0.0
  0
LINE
  5
7460
330
1E
100
AcDbEntity
  8
製品
  6
Continuous
 62
     3
100
AcDbLine
 10
419.0863964381147
 20
230.7393082284291
 30
0.0
 11
419.8863964381144
 21
230.7393082284291
 31
0.0
  0
LINE
  5
7461
330
1E
100
AcDbEntity
  8
製品
  6
Continuous
 62
     3
100
AcDbLine
 10
420.0863964381147
 20
230.5393082284288
 30
0.0
 11
420.0863964381147
 21
228.9393082284289
 31
0.0
  0
LINE
  5
7462
330
1E
100
AcDbEntity
  8
製品
  6
Continuous
 62
     3
100
AcDbLine
 10
419.8863964381144
 20
228.7393082284291
 30
0.0
 11
419.0863964381147
 21
228.7393082284291
 31
0.0
  0
LINE
  5
7463
330
1E
100
AcDbEntity
  8
製品
  6
Continuous
 62
     3
100
AcDbLine
 10
419.0863964381147
 20
229.1393082284292
 30
0.0
 11
419.8863964381144
 21
229.1393082284292
 31
0.0
  0
LINE
  5
7464
330
1E
100
AcDbEntity
  8
製品
  6
Continuous
 62
     3
100
AcDbLine
 10
419.0863964381147
 20
230.339308228429
 30
0.0
 11
419.8863964381144
 21
230.339308228429
 31
0.0
  0
ARC
  5
7465
330
1E
100
AcDbEntity
  8
製品
  6
Continuous
 62
     3
100
AcDbCircle
 10
417.1045904381145
 20
228.9393082284289
 30
0.0
 40
0.2
100
AcDbArc
 50
270.0
 51
90.0
  0
LINE
  5
7466
330
1E
100
AcDbEntity
  8
製品
  6
Continuous
 62
     3
100
AcDbLine
 10
417.1045904381145
 20
228.7393082284291
 30
0.0
 11
416.3045904381148
 21
228.7393082284291
 31
0.0
  0
LINE
  5
7467
330
1E
100
AcDbEntity
  8
製品
  6
Continuous
 62
     3
100
AcDbLine
 10
417.3045904381147
 20
230.5393082284288
 30
0.0
 11
417.3045904381147
 21
228.9393082284289
 31
0.0
  0
ARC
  5
7468
330
1E
100
AcDbEntity
  8
製品
  6
Continuous
 62
     3
100
AcDbCircle
 10
417.1045904381145
 20
228.9393082284289
 30
0.0
 40
0.2
100
AcDbArc
 50
270.0
 51
0.0
  0
LINE
  5
7469
330
1E
100
AcDbEntity
  8
製品
  6
Continuous
 62
     3
100
AcDbLine
 10
416.3045904381148
 20
230.7393082284291
 30
0.0
 11
417.1045904381145
 21
230.7393082284291
 31
0.0
  0
ARC
  5
746A
330
1E
100
AcDbEntity
  8
製品
  6
Continuous
 62
     3
100
AcDbCircle
 10
419.8863964381144
 20
228.9393082284289
 30
0.0
 40
0.2
100
AcDbArc
 50
270.0
 51
90.0
  0
ARC
  5
746B
330
1E
100
AcDbEntity
  8
製品
  6
Continuous
 62
     3
100
AcDbCircle
 10
419.0863964381147
 20
229.7393082284291
 30
0.0
 40
1.0
100
AcDbArc
 50
323.1301020000049
 51
36.86989799999509
  0
ARC
  5
746C
330
1E
100
AcDbEntity
  8
製品
  6
Continuous
 62
     3
100
AcDbCircle
 10
419.8863964381144
 20
230.5393082284288
 30
0.0
 40
0.2
100
AcDbArc
 50
270.0
 51
90.0
  0
ARC
  5
746D
330
1E
100
AcDbEntity
  8
製品
  6
Continuous
 62
     3
100
AcDbCircle
 10
416.3045904381148
 20
229.7393082284291
 30
0.0
 40
1.0
100
AcDbArc
 50
323.1301020000049
 51
36.86989799999509
  0
ARC
  5
746E
330
1E
100
AcDbEntity
  8
製品
  6
Continuous
 62
     3
100
AcDbCircle
 10
417.1045904381145
 20
230.5393082284288
 30
0.0
 40
0.2
100
AcDbArc
 50
270.0
 51
90.0
  0
LINE
  5
746F
330
1E
100
AcDbEntity
  8
製品
  6
Continuous
 62
     3
100
AcDbLine
 10
419.0863964381147
 20
230.339308228429
 30
0.0
 11
419.0863964381147
 21
229.1393082284292
 31
0.0
  0
LINE
  5
7470
330
1E
100
AcDbEntity
  8
製品
  6
Continuous
 62
     3
100
AcDbLine
 10
417.3045904381147
 20
230.339308228429
 30
0.0
 11
419.0863964381147
 21
230.339308228429
 31
0.0
  0
LINE
  5
7471
330
1E
100
AcDbEntity
  8
製品
  6
Continuous
 62
     3
100
AcDbLine
 10
419.0863964381147
 20
230.339308228429
 30
0.0
 11
419.0863964381147
 21
230.7393082284291
 31
0.0
  0
LINE
  5
7472
330
1E
100
AcDbEntity
  8
製品
  6
Continuous
 62
     3
100
AcDbLine
 10
419.0863964381147
 20
228.7393082284291
 30
0.0
 11
419.0863964381147
 21
229.1393082284292
 31
0.0
  0
LINE
  5
7473
330
1E
100
AcDbEntity
  8
製品
  6
Continuous
 62
     3
100
AcDbLine
 10
419.0863964381147
 20
229.1393082284292
 30
0.0
 11
417.3045904381147
 21
229.1393082284292
 31
0.0
  0
LINE
  5
7474
330
1E
100
AcDbEntity
  8
製品
  6
Continuous
 62
     3
100
AcDbLine
 10
416.3045904381148
 20
229.1393082284292
 30
0.0
 11
417.1045904381145
 21
229.1393082284292
 31
0.0
  0
LINE
  5
7475
330
1E
100
AcDbEntity
  8
製品
  6
Continuous
 62
     3
100
AcDbLine
 10
416.3045904381148
 20
230.339308228429
 30
0.0
 11
417.1045904381145
 21
230.339308228429
 31
0.0
  0
LINE
  5
7476
330
1E
100
AcDbEntity
  8
製品
  6
Continuous
 62
     3
100
AcDbLine
 10
416.3045904381148
 20
226.1993082284291
 30
0.0
 11
416.3045904381148
 21
233.2793082284291
 31
0.0
  0
LINE
  5
7477
330
1E
100
AcDbEntity
  8
製品
  6
Continuous
 62
     3
100
AcDbLine
 10
413.4445904381147
 20
233.5393082284288
 30
0.0
 11
413.4445904381147
 21
233.2193082284291
 31
0.0
  0
ARC
  5
7478
330
1E
100
AcDbEntity
  8
製品
  6
Continuous
 62
     3
100
AcDbCircle
 10
415.3845904381147
 20
233.2793082284291
 30
0.0
 40
0.4600000000000001
100
AcDbArc
 50
0.0
 51
90.0
  0
LINE
  5
7479
330
1E
100
AcDbEntity
  8
製品
  6
Continuous
 62
     3
100
AcDbLine
 10
413.4445904381147
 20
233.2193082284291
 30
0.0
 11
415.1445904381144
 21
233.2193082284291
 31
0.0
  0
ARC
  5
747A
330
1E
100
AcDbEntity
  8
製品
  6
Continuous
 62
     3
100
AcDbCircle
 10
415.1445904381144
 20
232.839308228429
 30
0.0
 40
0.38
100
AcDbArc
 50
0.0
 51
90.0
  0
LINE
  5
747B
330
1E
100
AcDbEntity
  8
製品
  6
Continuous
 62
     3
100
AcDbLine
 10
415.1445904381144
 20
233.5393082284288
 30
0.0
 11
413.4445904381147
 21
233.5393082284288
 31
0.0
  0
ARC
  5
747C
330
1E
100
AcDbEntity
  8
製品
  6
Continuous
 62
     3
100
AcDbCircle
 10
415.1445904381144
 20
232.839308228429
 30
0.0
 40
0.7
100
AcDbArc
 50
0.0
 51
90.0
  0
LINE
  5
747D
330
1E
100
AcDbEntity
  8
製品
  6
Continuous
 62
     3
100
AcDbLine
 10
413.4445904381147
 20
233.2193082284291
 30
0.0
 11
415.1445904381144
 21
233.2193082284291
 31
0.0
  0
ARC
  5
747E
330
1E
100
AcDbEntity
  8
製品
  6
Continuous
 62
     3
100
AcDbCircle
 10
415.1445904381144
 20
232.839308228429
 30
0.0
 40
0.38
100
AcDbArc
 50
0.0
 51
90.0
  0
LINE
  5
747F
330
1E
100
AcDbEntity
  8
製品
  6
Continuous
 62
     3
100
AcDbLine
 10
415.1445904381144
 20
233.5393082284288
 30
0.0
 11
413.4445904381147
 21
233.5393082284288
 31
0.0
  0
ARC
  5
7480
330
1E
100
AcDbEntity
  8
製品
  6
Continuous
 62
     3
100
AcDbCircle
 10
415.1445904381144
 20
232.839308228429
 30
0.0
 40
0.7
100
AcDbArc
 50
0.0
 51
90.0
  0
LINE
  5
7481
330
1E
100
AcDbEntity
  8
製品
  6
Continuous
 62
     3
100
AcDbLine
 10
413.4445904381147
 20
233.5393082284288
 30
0.0
 11
413.4445904381147
 21
233.2193082284291
 31
0.0
  0
LINE
  5
7482
330
1E
100
AcDbEntity
  8
製品
  6
Continuous
 62
     3
100
AcDbLine
 10
409.7445904381149
 20
234.1993082284291
 30
0.0
 11
409.7445904381149
 21
233.7393082284291
 31
0.0
  0
LINE
  5
7483
330
1E
100
AcDbEntity
  8
製品
  6
Continuous
 62
     3
100
AcDbLine
 10
409.7445904381149
 20
233.7393082284291
 30
0.0
 11
411.6445904381144
 21
233.7393082284291
 31
0.0
  0
LINE
  5
7484
330
1E
100
AcDbEntity
  8
製品
  6
Continuous
 62
     3
100
AcDbLine
 10
411.6445904381144
 20
234.1993082284291
 30
0.0
 11
409.7445904381149
 21
234.1993082284291
 31
0.0
  0
LINE
  5
7485
330
1E
100
AcDbEntity
  8
製品
  6
Continuous
 62
     3
100
AcDbLine
 10
415.3845904381147
 20
234.1993082284291
 30
0.0
 11
411.6445904381144
 21
234.1993082284291
 31
0.0
  0
LINE
  5
7486
330
1E
100
AcDbEntity
  8
製品
  6
Continuous
 62
     3
100
AcDbLine
 10
411.6445904381144
 20
233.7393082284291
 30
0.0
 11
415.3845904381147
 21
233.7393082284291
 31
0.0
  0
ARC
  5
7487
330
1E
100
AcDbEntity
  8
製品
  6
Continuous
 62
     3
100
AcDbCircle
 10
415.1445904381144
 20
226.6393082284292
 30
0.0
 40
0.38
100
AcDbArc
 50
270.0
 51
0.0
  0
LINE
  5
7488
330
1E
100
AcDbEntity
  8
製品
  6
Continuous
 62
     3
100
AcDbLine
 10
415.1445904381144
 20
226.2593082284291
 30
0.0
 11
413.4445904381147
 21
226.2593082284291
 31
0.0
  0
LINE
  5
7489
330
1E
100
AcDbEntity
  8
製品
  6
Continuous
 62
     3
100
AcDbLine
 10
415.8445904381148
 20
226.6393082284292
 30
0.0
 11
415.8445904381148
 21
229.7393082284291
 31
0.0
  0
ARC
  5
748A
330
1E
100
AcDbEntity
  8
製品
  6
Continuous
 62
     3
100
AcDbCircle
 10
415.1445904381144
 20
226.6393082284292
 30
0.0
 40
0.38
100
AcDbArc
 50
270.0
 51
0.0
  0
LINE
  5
748B
330
1E
100
AcDbEntity
  8
製品
  6
Continuous
 62
     3
100
AcDbLine
 10
415.1445904381144
 20
226.2593082284291
 30
0.0
 11
413.4445904381147
 21
226.2593082284291
 31
0.0
  0
LINE
  5
748C
330
1E
100
AcDbEntity
  8
製品
  6
Continuous
 62
     3
100
AcDbLine
 10
415.8445904381148
 20
226.6393082284292
 30
0.0
 11
415.8445904381148
 21
229.7393082284291
 31
0.0
  0
LINE
  5
748D
330
1E
100
AcDbEntity
  8
製品
  6
Continuous
 62
     3
100
AcDbLine
 10
415.8445904381148
 20
233.2793082284291
 30
0.0
 11
415.8445904381148
 21
226.1993082284291
 31
0.0
  0
LINE
  5
748E
330
1E
100
AcDbEntity
  8
製品
  6
Continuous
 62
     3
100
AcDbLine
 10
415.5245904381145
 20
232.839308228429
 30
0.0
 11
415.5245904381145
 21
226.6393082284292
 31
0.0
  0
LINE
  5
748F
330
1E
100
AcDbEntity
  8
製品
  6
Continuous
 62
     3
100
AcDbLine
 10
415.8445904381148
 20
232.839308228429
 30
0.0
 11
415.8445904381148
 21
229.7393082284291
 31
0.0
  0
LINE
  5
7490
330
1E
100
AcDbEntity
  8
製品
  6
Continuous
 62
     3
100
AcDbLine
 10
415.5245904381145
 20
232.839308228429
 30
0.0
 11
415.5245904381145
 21
226.6393082284292
 31
0.0
  0
LINE
  5
7491
330
1E
100
AcDbEntity
  8
製品
  6
Continuous
 62
     3
100
AcDbLine
 10
415.8445904381148
 20
232.839308228429
 30
0.0
 11
415.8445904381148
 21
229.7393082284291
 31
0.0
  0
LINE
  5
7492
330
1E
100
AcDbEntity
  8
製品
  6
Continuous
 62
     3
100
AcDbLine
 10
415.1445904381144
 20
225.9393082284289
 30
0.0
 11
413.4445904381147
 21
225.9393082284289
 31
0.0
  0
LINE
  5
7493
330
1E
100
AcDbEntity
  8
製品
  6
Continuous
 62
     3
100
AcDbLine
 10
415.1445904381144
 20
225.9393082284289
 30
0.0
 11
413.4445904381147
 21
225.9393082284289
 31
0.0
  0
LINE
  5
7494
330
1E
100
AcDbEntity
  8
製品
  6
Continuous
 62
     3
100
AcDbLine
 10
411.6445904381144
 20
225.7393082284291
 30
0.0
 11
409.7445904381149
 21
225.7393082284291
 31
0.0
  0
LINE
  5
7495
330
1E
100
AcDbEntity
  8
製品
  6
Continuous
 62
     3
100
AcDbLine
 10
409.7445904381149
 20
225.7393082284291
 30
0.0
 11
409.7445904381149
 21
225.279308228429
 31
0.0
  0
LINE
  5
7496
330
1E
100
AcDbEntity
  8
製品
  6
Continuous
 62
     3
100
AcDbLine
 10
409.7445904381149
 20
225.279308228429
 30
0.0
 11
411.6445904381144
 21
225.279308228429
 31
0.0
  0
LINE
  5
7497
330
1E
100
AcDbEntity
  8
製品
  6
Continuous
 62
     3
100
AcDbLine
 10
411.6445904381144
 20
225.279308228429
 30
0.0
 11
415.3845904381147
 21
225.279308228429
 31
0.0
  0
LINE
  5
7498
330
1E
100
AcDbEntity
  8
製品
  6
Continuous
 62
     3
100
AcDbLine
 10
415.3845904381147
 20
225.7393082284291
 30
0.0
 11
411.6445904381144
 21
225.7393082284291
 31
0.0
  0
CIRCLE
  5
7499
330
1E
100
AcDbEntity
  8
製品
  6
Continuous
 62
     3
100
AcDbCircle
 10
415.8445904381148
 20
225.9393082284289
 30
0.0
 40
0.3
  0
CIRCLE
  5
749A
330
1E
100
AcDbEntity
  8
製品
  6
Continuous
 62
     3
100
AcDbCircle
 10
415.8445904381148
 20
225.9393082284289
 30
0.0
 40
0.3
  0
CIRCLE
  5
749B
330
1E
100
AcDbEntity
  8
製品
  6
Continuous
 62
     3
100
AcDbCircle
 10
415.8445904381148
 20
225.9393082284289
 30
0.0
 40
0.3
  0
CIRCLE
  5
749C
330
1E
100
AcDbEntity
  8
製品
  6
Continuous
 62
     3
100
AcDbCircle
 10
415.8445904381148
 20
225.9393082284289
 30
0.0
 40
0.3
  0
LINE
  5
749D
330
1E
100
AcDbEntity
  8
製品
  6
Continuous
 62
     4
100
AcDbLine
 10
413.4445904381147
 20
225.7393082284291
 30
0.0
 11
413.4445904381147
 21
233.7393082284291
 31
0.0
  0
LINE
  5
749E
330
1E
100
AcDbEntity
  8
製品
  6
Continuous
 62
     4
100
AcDbLine
 10
411.6445904381144
 20
233.7393082284291
 30
0.0
 11
411.6445904381144
 21
225.7393082284291
 31
0.0
  0
ARC
  5
749F
330
1E
100
AcDbEntity
  8
製品
  6
Continuous
 62
     3
100
AcDbCircle
 10
415.3845904381147
 20
226.1993082284291
 30
0.0
 40
0.4600000000000001
100
AcDbArc
 50
270.0
 51
0.0
  0
LINE
  5
74A0
330
1E
100
AcDbEntity
  8
製品
  6
Continuous
 62
     4
100
AcDbLine
 10
413.4445904381147
 20
225.7393082284291
 30
0.0
 11
413.4445904381147
 21
233.7393082284291
 31
0.0
  0
LINE
  5
74A1
330
1E
100
AcDbEntity
  8
製品
  6
Continuous
 62
     4
100
AcDbLine
 10
411.6445904381144
 20
233.7393082284291
 30
0.0
 11
411.6445904381144
 21
225.7393082284291
 31
0.0
  0
ARC
  5
74A2
330
1E
100
AcDbEntity
  8
製品
  6
Continuous
 62
     3
100
AcDbCircle
 10
415.1445904381144
 20
226.6393082284292
 30
0.0
 40
0.7
100
AcDbArc
 50
270.0
 51
0.0
  0
LINE
  5
74A3
330
1E
100
AcDbEntity
  8
製品
  6
Continuous
 62
     3
100
AcDbLine
 10
413.4445904381147
 20
225.9393082284289
 30
0.0
 11
413.4445904381147
 21
226.2593082284291
 31
0.0
  0
ARC
  5
74A4
330
1E
100
AcDbEntity
  8
製品
  6
Continuous
 62
     3
100
AcDbCircle
 10
415.1445904381144
 20
226.6393082284292
 30
0.0
 40
0.7
100
AcDbArc
 50
270.0
 51
0.0
  0
LINE
  5
74A5
330
1E
100
AcDbEntity
  8
製品
  6
Continuous
 62
     3
100
AcDbLine
 10
413.4445904381147
 20
225.9393082284289
 30
0.0
 11
413.4445904381147
 21
226.2593082284291
 31
0.0
  0
CIRCLE
  5
74A6
330
1E
100
AcDbEntity
  8
製品
  6
Continuous
 62
     3
100
AcDbCircle
 10
412.7425154381145
 20
203.3683892284291
 30
0.0
 40
0.3
  0
ARC
  5
74A7
330
1E
100
AcDbEntity
  8
製品
  6
Continuous
 62
     3
100
AcDbCircle
 10
415.3845904381147
 20
226.1993082284291
 30
0.0
 40
0.9200000000000001
100
AcDbArc
 50
270.0
 51
0.0
  0
ARC
  5
74A8
330
1E
100
AcDbEntity
  8
製品
  6
Continuous
 62
     3
100
AcDbCircle
 10
415.3845904381147
 20
233.2793082284291
 30
0.0
 40
0.9200000000000001
100
AcDbArc
 50
0.0
 51
90.0
  0
LINE
  5
74A9
330
1E
100
AcDbEntity
  8
図面枠
  6
Continuous
 62
     3
100
AcDbLine
 10
412.7425154381145
 20
203.3683892284291
 30
0.0
 11
422.0568064381146
 21
213.8139702284291
 31
0.0
  0
LINE
  5
74AA
330
1E
100
AcDbEntity
  8
製品
  6
Continuous
 62
     4
100
AcDbLine
 10
446.4131204381147
 20
307.5108682284288
 30
0.0
 11
435.0383254381146
 21
296.136073228429
 31
0.0
  0
LINE
  5
74AB
330
1E
100
AcDbEntity
  8
製品
  6
Continuous
 62
     4
100
AcDbLine
 10
433.6241114381147
 20
296.136073228429
 30
0.0
 11
444.9989064381144
 21
307.5108682284288
 31
0.0
  0
LINE
  5
74AC
330
1E
100
AcDbEntity
  8
製品
  6
Continuous
 62
     4
100
AcDbLine
 10
436.4525384381146
 20
296.136073228429
 30
0.0
 11
447.8273334381148
 21
307.5108682284288
 31
0.0
  0
LINE
  5
74AD
330
1E
100
AcDbEntity
  8
製品
  6
Continuous
 62
     4
100
AcDbLine
 10
411.6564794381148
 20
297.5655572284288
 30
0.0
 11
412.4817924381146
 21
296.136073228429
 31
0.0
  0
LINE
  5
74AE
330
1E
100
AcDbEntity
  8
製品
  6
Continuous
 62
     4
100
AcDbLine
 10
412.4817924381146
 20
296.136073228429
 30
0.0
 11
413.3071054381145
 21
297.5655572284288
 31
0.0
  0
LINE
  5
74AF
330
1E
100
AcDbEntity
  8
製品
  6
Continuous
 62
     4
100
AcDbLine
 10
413.3071054381145
 20
297.5655572284288
 30
0.0
 11
411.6564794381148
 21
297.5655572284288
 31
0.0
  0
ENDSEC
  0
SECTION
  2
OBJECTS
  0
DICTIONARY
  5
C
330
0
100
AcDbDictionary
281
     1
  3
ACAD_COLOR
350
7784
  3
ACAD_GROUP
350
D
  3
ACAD_LAYOUT
350
19
  3
ACAD_MATERIAL
350
776F
  3
ACAD_MLINESTYLE
350
16
  3
ACAD_PLOTSETTINGS
350
18
  3
ACAD_PLOTSTYLENAME
350
E
  3
ACAD_TABLESTYLE
350
7785
  3
ACAD_VISUALSTYLE
350
7773
  3
AcDbVariableDictionary
350
169
  3
DWGPROPS
350
78C6
  0
DICTIONARY
  5
78A5
330
8
100
AcDbDictionary
280
     1
281
     1
  0
DICTIONARY
  5
175
330
2
100
AcDbDictionary
280
     1
281
     1
  3
ACAD_LAYERFILTERS
360
185
  3
ACAD_LAYERSTATES
360
176
  0
DICTIONARY
  5
28B
330
1E
100
AcDbDictionary
280
     1
281
     1
  3
ACAD_LAYOUTSELFREF
360
7744
  0
DICTIONARY
  5
28D
330
1A
100
AcDbDictionary
280
     1
281
     1
  3
ACAD_LAYOUTSELFREF
360
7743
  0
DICTIONARY
  5
7784
102
{ACAD_REACTORS
330
C
102
}
330
C
100
AcDbDictionary
281
     1
  0
DICTIONARY
  5
D
102
{ACAD_REACTORS
330
C
102
}
330
C
100
AcDbDictionary
281
     1
  0
DICTIONARY
  5
19
102
{ACAD_REACTORS
330
C
102
}
330
C
100
AcDbDictionary
281
     1
  3
Model
350
21
  3
ﾚｲｱｳﾄ1
350
1D
  0
DICTIONARY
  5
776F
102
{ACAD_REACTORS
330
C
102
}
330
C
100
AcDbDictionary
281
     1
  3
ByBlock
350
7771
  3
ByLayer
350
7770
  3
Global
350
7772
  0
DICTIONARY
  5
16
102
{ACAD_REACTORS
330
C
102
}
330
C
100
AcDbDictionary
281
     1
  3
Standard
350
17
  0
DICTIONARY
  5
18
102
{ACAD_REACTORS
330
C
102
}
330
C
100
AcDbDictionary
281
     1
  0
ACDBDICTIONARYWDFLT
  5
E
102
{ACAD_REACTORS
330
C
102
}
330
C
100
AcDbDictionary
281
     1
  3
Normal
350
F
100
AcDbDictionaryWithDefault
340
F
1001
ACAD
1000
TREAT_AS_HARD
1070
     0
1000
TREAT_AS_HARD
1070
     0
1000
TREAT_AS_HARD
1070
     0
1000
TREAT_AS_HARD
1070
     0
1000
TREAT_AS_HARD
1070
     0
1000
TREAT_AS_HARD
1070
     0
1000
TREAT_AS_HARD
1070
     0
1000
TREAT_AS_HARD
1070
     0
1000
TREAT_AS_HARD
1070
     0
1000
TREAT_AS_HARD
1070
     0
1000
TREAT_AS_HARD
1070
     0
1000
TREAT_AS_HARD
1070
     0
1000
TREAT_AS_HARD
1070
     0
1000
TREAT_AS_HARD
1070
     0
1000
TREAT_AS_HARD
1070
     0
1000
TREAT_AS_HARD
1070
     0
1000
TREAT_AS_HARD
1070
     0
1000
TREAT_AS_HARD
1070
     0
1000
TREAT_AS_HARD
1070
     0
1000
TREAT_AS_HARD
1070
     0
1000
TREAT_AS_HARD
1070
     0
1000
TREAT_AS_HARD
1070
     0
1000
TREAT_AS_HARD
1070
     0
1000
TREAT_AS_HARD
1070
     0
1000
TREAT_AS_HARD
1070
     0
1000
TREAT_AS_HARD
1070
     0
1000
TREAT_AS_HARD
1070
     0
1000
TREAT_AS_HARD
1070
     0
1000
TREAT_AS_HARD
1070
     0
1000
TREAT_AS_HARD
1070
     0
1000
TREAT_AS_HARD
1070
     0
  0
DICTIONARY
  5
7785
102
{ACAD_REACTORS
330
C
102
}
330
C
100
AcDbDictionary
281
     1
  3
Standard
350
7786
  0
DICTIONARY
  5
7773
102
{ACAD_REACTORS
330
C
102
}
330
C
100
AcDbDictionary
281
     1
  3
2dWireframe
350
7779
  3
3D Hidden
350
777B
  3
3dWireframe
350
777A
  3
Basic
350
7778
  3
Brighten
350
777F
  3
ColorChange
350
7783
  3
Conceptual
350
777C
  3
Dim
350
777E
  3
Facepattern
350
7782
  3
Flat
350
7774
  3
FlatWithEdges
350
7775
  3
Gouraud
350
7776
  3
GouraudWithEdges
350
7777
  3
Linepattern
350
7781
  3
Realistic
350
777D
  3
Thicken
350
7780
  0
DICTIONARY
  5
169
102
{ACAD_REACTORS
330
C
102
}
330
C
100
AcDbDictionary
281
     1
  3
CTABLESTYLE
350
78BD
  3
DIMASSOC
350
16A
  3
INDEXCTL
350
78BF
  3
SORTENTS
350
78BE
  0
XRECORD
  5
78C6
102
{ACAD_REACTORS
330
C
102
}
330
C
100
AcDbXrecord
280
     1
  1
DWGPROPS COOKIE
  2

  3

  4

  6

  7

  8
HON1000AV
  9

300
=
301
=
302
=
303
=
304
=
305
=
306
=
307
=
308
=
309
=
 40
0.2446838194444445
 41
2454316.693457674
 42
2454735.621784386
  1

 90
        0
  0
DICTIONARY
  5
185
102
{ACAD_REACTORS
330
175
102
}
330
175
100
AcDbDictionary
280
     1
281
     1
  0
DICTIONARY
  5
176
102
{ACAD_REACTORS
330
175
102
}
330
175
100
AcDbDictionary
281
     1
  3
ACAD
350
177
  0
XRECORD
  5
7744
102
{ACAD_REACTORS
330
28B
102
}
330
28B
100
AcDbXrecord
280
     1
340
1E
  0
XRECORD
  5
7743
102
{ACAD_REACTORS
330
28D
102
}
330
28D
100
AcDbXrecord
280
     1
340
1A
  0
LAYOUT
  5
21
102
{ACAD_XDICTIONARY
360
78C9
102
}
102
{ACAD_REACTORS
330
19
102
}
330
19
100
AcDbPlotSettings
  1

  2
\\MEISEI-1\EPSON Stylus Photo EX3
  4

  6

 40
0.0
 41
0.0
 42
0.0
 43
0.0
 44
0.0
 45
0.0
 46
0.0
 47
0.0
 48
0.0
 49
0.0
140
0.0
141
0.0
142
1.0
143
1.0
 70
  1712
 72
     0
 73
     0
 74
     0
  7

 75
     0
147
1.0
148
0.0
149
0.0
100
AcDbLayout
  1
Model
 70
     1
 71
     0
 10
0.0
 20
0.0
 11
12.0
 21
9.0
 12
0.0
 22
0.0
 32
0.0
 14
0.0
 24
0.0
 34
0.0
 15
0.0
 25
0.0
 35
0.0
146
0.0
 13
0.0
 23
0.0
 33
0.0
 16
1.0
 26
0.0
 36
0.0
 17
0.0
 27
1.0
 37
0.0
 76
     0
330
1E
331
76FF
  0
LAYOUT
  5
1D
102
{ACAD_XDICTIONARY
360
78C7
102
}
102
{ACAD_REACTORS
330
19
102
}
330
19
100
AcDbPlotSettings
  1

  2
\\MEISEI-1\EPSON Stylus Photo EX3
  4

  6

 40
0.0
 41
0.0
 42
0.0
 43
0.0
 44
0.0
 45
0.0
 46
0.0
 47
0.0
 48
0.0
 49
0.0
140
0.0
141
0.0
142
1.0
143
1.0
 70
   688
 72
     0
 73
     0
 74
     5
  7

 75
    16
147
1.0
148
0.0
149
0.0
100
AcDbLayout
  1
ﾚｲｱｳﾄ1
 70
     1
 71
     1
 10
0.0
 20
0.0
 11
12.0
 21
9.0
 12
0.0
 22
0.0
 32
0.0
 14
1.000000000000000E+20
 24
1.000000000000000E+20
 34
1.000000000000000E+20
 15
-1.000000000000000E+20
 25
-1.000000000000000E+20
 35
-1.000000000000000E+20
146
0.0
 13
0.0
 23
0.0
 33
0.0
 16
1.0
 26
0.0
 36
0.0
 17
0.0
 27
1.0
 37
0.0
 76
     0
330
1A
  0
MATERIAL
  5
7771
102
{ACAD_XDICTIONARY
360
78CD
102
}
102
{ACAD_REACTORS
330
776F
102
}
330
776F
100
AcDbMaterial
  1
ByBlock
  0
MATERIAL
  5
7770
102
{ACAD_XDICTIONARY
360
78CB
102
}
102
{ACAD_REACTORS
330
776F
102
}
330
776F
100
AcDbMaterial
  1
ByLayer
  0
MATERIAL
  5
7772
102
{ACAD_XDICTIONARY
360
78CF
102
}
102
{ACAD_REACTORS
330
776F
102
}
330
776F
100
AcDbMaterial
  1
Global
  0
MLINESTYLE
  5
17
102
{ACAD_REACTORS
330
16
102
}
330
16
100
AcDbMlineStyle
  2
STANDARD
 70
     0
  3

 62
   256
 51
90.0
 52
90.0
 71
     2
 49
0.5
 62
   256
  6
BYLAYER
 49
-0.5
 62
   256
  6
BYLAYER
  0
ACDBPLACEHOLDER
  5
F
102
{ACAD_REACTORS
330
E
102
}
330
E
  0
TABLESTYLE
  5
7786
102
{ACAD_XDICTIONARY
360
78D1
102
}
102
{ACAD_REACTORS
330
7785
102
}
330
7785
100
AcDbTableStyle
  3
Standard
 70
     0
 71
     0
 40
0.06
 41
0.06
280
     0
281
     0
  7
STANDARD
140
0.18
170
     2
 62
     0
 63
     7
283
     0
274
    -2
284
     1
 64
     0
275
    -2
285
     1
 65
     0
276
    -2
286
     1
 66
     0
277
    -2
287
     1
 67
     0
278
    -2
288
     1
 68
     0
279
    -2
289
     1
 69
     0
  7
STANDARD
140
0.25
170
     5
 62
     0
 63
     7
283
     0
274
    -2
284
     1
 64
     0
275
    -2
285
     1
 65
     0
276
    -2
286
     1
 66
     0
277
    -2
287
     1
 67
     0
278
    -2
288
     1
 68
     0
279
    -2
289
     1
 69
     0
  7
STANDARD
140
0.18
170
     5
 62
     0
 63
     7
283
     0
274
    -2
284
     1
 64
     0
275
    -2
285
     1
 65
     0
276
    -2
286
     1
 66
     0
277
    -2
287
     1
 67
     0
278
    -2
288
     1
 68
     0
279
    -2
289
     1
 69
     0
  0
VISUALSTYLE
  5
7779
102
{ACAD_REACTORS
330
7773
102
}
330
7773
100
AcDbVisualStyle
  2
2dWireframe
 70
     4
 71
     0
 72
     2
 73
     0
 90
        0
 40
-0.6
 41
-30.0
 62
     5
 63
     7
 74
     1
 91
        4
 64
     7
 65
   257
 75
     1
175
     1
 42
1.0
 92
        0
 66
   257
 43
1.0
 76
     1
 77
     6
 78
     2
 67
     7
 79
     5
170
     0
171
     0
290
     0
174
     0
 93
        1
 44
0.0
173
     0
291
     0
 45
0.0
1001
ACAD
1000
AcDbSavedByObjectVersion
1070
     0
  0
VISUALSTYLE
  5
777B
102
{ACAD_REACTORS
330
7773
102
}
330
7773
100
AcDbVisualStyle
  2
3D Hidden
 70
     6
 71
     1
 72
     2
 73
     2
 90
        0
 40
-0.6
 41
-30.0
 62
     5
 63
     7
 74
     2
 91
        2
 64
     7
 65
   257
 75
     2
175
     1
 42
40.0
 92
        0
 66
   257
 43
1.0
 76
     1
 77
     6
 78
     2
 67
     7
 79
     3
170
     0
171
     0
290
     0
174
     0
 93
        1
 44
0.0
173
     0
291
     0
 45
0.0
1001
ACAD
1000
AcDbSavedByObjectVersion
1070
     0
  0
VISUALSTYLE
  5
777A
102
{ACAD_REACTORS
330
7773
102
}
330
7773
100
AcDbVisualStyle
  2
3dWireframe
 70
     5
 71
     0
 72
     2
 73
     0
 90
        0
 40
-0.6
 41
-30.0
 62
     5
 63
     7
 74
     1
 91
        4
 64
     7
 65
   257
 75
     1
175
     1
 42
1.0
 92
        0
 66
   257
 43
1.0
 76
     1
 77
     6
 78
     2
 67
     7
 79
     5
170
     0
171
     0
290
     0
174
     0
 93
        1
 44
0.0
173
     0
291
     0
 45
0.0
1001
ACAD
1000
AcDbSavedByObjectVersion
1070
     0
  0
VISUALSTYLE
  5
7778
102
{ACAD_REACTORS
330
7773
102
}
330
7773
100
AcDbVisualStyle
  2
Basic
 70
     7
 71
     1
 72
     0
 73
     1
 90
        0
 40
-0.6
 41
-30.0
 62
     5
 63
     7
 74
     0
 91
        4
 64
     7
 65
   257
 75
     1
175
     1
 42
1.0
 92
        8
 66
     7
 43
1.0
 76
     1
 77
     6
 78
     2
 67
     7
 79
     5
170
     0
171
     0
290
     0
174
     0
 93
        1
 44
0.0
173
     0
291
     1
 45
0.0
1001
ACAD
1000
AcDbSavedByObjectVersion
1070
     0
  0
VISUALSTYLE
  5
777F
102
{ACAD_REACTORS
330
7773
102
}
330
7773
100
AcDbVisualStyle
  2
Brighten
 70
    12
 71
     2
 72
     2
 73
     0
 90
        0
 40
-0.6
 41
-30.0
 62
     5
 63
     7
 74
     1
 91
        4
 64
     7
 65
   257
 75
     1
175
     1
 42
1.0
 92
        8
 66
     7
 43
1.0
 76
     1
 77
     6
 78
     2
 67
     7
 79
     5
170
     0
171
     0
290
     0
174
     0
 93
        1
 44
50.0
173
     0
291
     1
 45
0.0
1001
ACAD
1000
AcDbSavedByObjectVersion
1070
     0
  0
VISUALSTYLE
  5
7783
102
{ACAD_REACTORS
330
7773
102
}
330
7773
100
AcDbVisualStyle
  2
ColorChange
 70
    16
 71
     2
 72
     2
 73
     3
 90
        0
 40
-0.6
 41
-30.0
 62
     5
 63
     8
 74
     1
 91
        4
 64
     7
 65
   257
 75
     1
175
     1
 42
1.0
 92
        8
 66
     8
 43
1.0
 76
     1
 77
     6
 78
     2
 67
     7
 79
     5
170
     0
171
     0
290
     0
174
     0
 93
        1
 44
0.0
173
     0
291
     1
 45
0.0
1001
ACAD
1000
AcDbSavedByObjectVersion
1070
     0
  0
VISUALSTYLE
  5
777C
102
{ACAD_REACTORS
330
7773
102
}
330
7773
100
AcDbVisualStyle
  2
Conceptual
 70
     9
 71
     3
 72
     2
 73
     0
 90
        0
 40
-0.6
 41
-30.0
 62
     5
 63
     7
 74
     2
 91
        2
 64
     7
 65
   257
 75
     1
175
     1
 42
40.0
 92
        8
 66
     7
 43
1.0
 76
     1
 77
     6
 78
     2
 67
     7
 79
     3
170
     0
171
     0
290
     0
174
     0
 93
        1
 44
0.0
173
     0
291
     0
 45
0.0
1001
ACAD
1000
AcDbSavedByObjectVersion
1070
     0
  0
VISUALSTYLE
  5
777E
102
{ACAD_REACTORS
330
7773
102
}
330
7773
100
AcDbVisualStyle
  2
Dim
 70
    11
 71
     2
 72
     2
 73
     0
 90
        0
 40
-0.6
 41
-30.0
 62
     5
 63
     7
 74
     1
 91
        4
 64
     7
 65
   257
 75
     1
175
     1
 42
1.0
 92
        8
 66
     7
 43
1.0
 76
     1
 77
     6
 78
     2
 67
     7
 79
     5
170
     0
171
     0
290
     0
174
     0
 93
        1
 44
-50.0
173
     0
291
     1
 45
0.0
1001
ACAD
1000
AcDbSavedByObjectVersion
1070
     0
  0
VISUALSTYLE
  5
7782
102
{ACAD_REACTORS
330
7773
102
}
330
7773
100
AcDbVisualStyle
  2
Facepattern
 70
    15
 71
     2
 72
     2
 73
     0
 90
        0
 40
-0.6
 41
-30.0
 62
     5
 63
     7
 74
     1
 91
        4
 64
     7
 65
   257
 75
     1
175
     1
 42
1.0
 92
        8
 66
     7
 43
1.0
 76
     1
 77
     6
 78
     2
 67
     7
 79
     5
170
     0
171
     0
290
     0
174
     0
 93
        1
 44
0.0
173
     0
291
     1
 45
0.0
1001
ACAD
1000
AcDbSavedByObjectVersion
1070
     0
  0
VISUALSTYLE
  5
7774
102
{ACAD_REACTORS
330
7773
102
}
330
7773
100
AcDbVisualStyle
  2
Flat
 70
     0
 71
     2
 72
     1
 73
     1
 90
        2
 40
-0.6
 41
30.0
 62
     5
 63
     7
 74
     0
 91
        4
 64
     7
 65
   257
 75
     1
175
     1
 42
1.0
 92
        8
 66
     7
 43
1.0
 76
     1
 77
     6
 78
     2
 67
     7
 79
     5
170
     0
171
     0
290
     0
174
     0
 93
       13
 44
0.0
173
     0
291
     1
 45
0.0
1001
ACAD
1000
AcDbSavedByObjectVersion
1070
     0
  0
VISUALSTYLE
  5
7775
102
{ACAD_REACTORS
330
7773
102
}
330
7773
100
AcDbVisualStyle
  2
FlatWithEdges
 70
     1
 71
     2
 72
     1
 73
     1
 90
        2
 40
-0.6
 41
30.0
 62
     5
 63
     7
 74
     1
 91
        4
 64
     7
 65
   257
 75
     1
175
     1
 42
1.0
 92
        0
 66
   257
 43
1.0
 76
     1
 77
     6
 78
     2
 67
     7
 79
     5
170
     0
171
     0
290
     0
174
     0
 93
       13
 44
0.0
173
     0
291
     1
 45
0.0
1001
ACAD
1000
AcDbSavedByObjectVersion
1070
     0
  0
VISUALSTYLE
  5
7776
102
{ACAD_REACTORS
330
7773
102
}
330
7773
100
AcDbVisualStyle
  2
Gouraud
 70
     2
 71
     2
 72
     2
 73
     1
 90
        2
 40
-0.6
 41
30.0
 62
     5
 63
     7
 74
     0
 91
        4
 64
     7
 65
   257
 75
     1
175
     1
 42
1.0
 92
        0
 66
     7
 43
1.0
 76
     1
 77
     6
 78
     2
 67
     7
 79
     5
170
     0
171
     0
290
     0
174
     0
 93
       13
 44
0.0
173
     0
291
     1
 45
0.0
1001
ACAD
1000
AcDbSavedByObjectVersion
1070
     0
  0
VISUALSTYLE
  5
7777
102
{ACAD_REACTORS
330
7773
102
}
330
7773
100
AcDbVisualStyle
  2
GouraudWithEdges
 70
     3
 71
     2
 72
     2
 73
     1
 90
        2
 40
-0.6
 41
30.0
 62
     5
 63
     7
 74
     1
 91
        4
 64
     7
 65
   257
 75
     1
175
     1
 42
1.0
 92
        0
 66
   257
 43
1.0
 76
     1
 77
     6
 78
     2
 67
     7
 79
     5
170
     0
171
     0
290
     0
174
     0
 93
       13
 44
0.0
173
     0
291
     1
 45
0.0
1001
ACAD
1000
AcDbSavedByObjectVersion
1070
     0
  0
VISUALSTYLE
  5
7781
102
{ACAD_REACTORS
330
7773
102
}
330
7773
100
AcDbVisualStyle
  2
Linepattern
 70
    14
 71
     2
 72
     2
 73
     0
 90
        0
 40
-0.6
 41
-30.0
 62
     5
 63
     7
 74
     1
 91
        4
 64
     7
 65
   257
 75
     7
175
     7
 42
1.0
 92
        8
 66
     7
 43
1.0
 76
     1
 77
     6
 78
     2
 67
     7
 79
     5
170
     0
171
     0
290
     0
174
     0
 93
        1
 44
0.0
173
     0
291
     1
 45
0.0
1001
ACAD
1000
AcDbSavedByObjectVersion
1070
     0
  0
VISUALSTYLE
  5
777D
102
{ACAD_REACTORS
330
7773
102
}
330
7773
100
AcDbVisualStyle
  2
Realistic
 70
     8
 71
     2
 72
     2
 73
     0
 90
        0
 40
-0.6
 41
-30.0
 62
     5
 63
     7
 74
     1
 91
        0
 64
     7
 65
   257
 75
     1
175
     1
 42
1.0
 92
        8
 66
     8
 43
1.0
 76
     1
 77
     6
 78
     2
 67
     7
 79
     5
170
     0
171
     0
290
     0
174
     0
 93
       13
 44
0.0
173
     0
291
     0
 45
0.0
1001
ACAD
1000
AcDbSavedByObjectVersion
1070
     0
  0
VISUALSTYLE
  5
7780
102
{ACAD_REACTORS
330
7773
102
}
330
7773
100
AcDbVisualStyle
  2
Thicken
 70
    13
 71
     2
 72
     2
 73
     0
 90
        0
 40
-0.6
 41
-30.0
 62
     5
 63
     7
 74
     1
 91
        4
 64
     7
 65
   257
 75
     1
175
     1
 42
1.0
 92
       12
 66
     7
 43
1.0
 76
     1
 77
     6
 78
     2
 67
     7
 79
     5
170
     0
171
     0
290
     0
174
     0
 93
        1
 44
0.0
173
     0
291
     1
 45
0.0
1001
ACAD
1000
AcDbSavedByObjectVersion
1070
     0
  0
DICTIONARYVAR
  5
78BD
102
{ACAD_REACTORS
330
169
102
}
330
169
100
DictionaryVariables
280
     0
  1
STANDARD
  0
DICTIONARYVAR
  5
16A
102
{ACAD_REACTORS
330
169
102
}
330
169
100
DictionaryVariables
280
     0
  1
1
  0
DICTIONARYVAR
  5
78BF
102
{ACAD_REACTORS
330
169
102
}
330
169
100
DictionaryVariables
280
     0
  1
0
  0
DICTIONARYVAR
  5
78BE
102
{ACAD_REACTORS
330
169
102
}
330
169
100
DictionaryVariables
280
     0
  1
127
  0
XRECORD
  5
177
102
{ACAD_REACTORS
330
176
102
}
330
176
100
AcDbXrecord
280
     1
 91
      476
330
179
 90
        8
 62
     7
370
    -3
331
15
  1
Color_7
330
128
 90
        0
 62
     7
370
    -3
331
15
  1
Color_7
330
10
 90
        8
 62
     7
370
    -3
331
15
  1
Color_7
  0
DICTIONARY
  5
78C9
330
21
100
AcDbDictionary
280
     1
281
     1
  3
ACAD_XREC_ROUNDTRIP
360
78CA
  0
DICTIONARY
  5
78C7
330
1D
100
AcDbDictionary
280
     1
281
     1
  3
ACAD_XREC_ROUNDTRIP
360
78C8
  0
DICTIONARY
  5
78CD
330
7771
100
AcDbDictionary
280
     1
281
     1
  3
ACAD_XREC_ROUNDTRIP
360
78CE
  0
DICTIONARY
  5
78CB
330
7770
100
AcDbDictionary
280
     1
281
     1
  3
ACAD_XREC_ROUNDTRIP
360
78CC
  0
DICTIONARY
  5
78CF
330
7772
100
AcDbDictionary
280
     1
281
     1
  3
ACAD_XREC_ROUNDTRIP
360
78D0
  0
DICTIONARY
  5
78D1
330
7786
100
AcDbDictionary
280
     1
281
     1
  3
ACAD_XREC_ROUNDTRIP
360
78D2
  0
XRECORD
  5
78CA
102
{ACAD_REACTORS
330
78C9
102
}
330
78C9
100
AcDbXrecord
280
     1
102
SHADEPLOT
 70
     0
102
SHADEPLOTRESLEVEL
 70
     2
102
SHADEPLOTCUSTOMDPI
 70
   300
  0
XRECORD
  5
78C8
102
{ACAD_REACTORS
330
78C7
102
}
330
78C7
100
AcDbXrecord
280
     1
102
SHADEPLOT
 70
     0
102
SHADEPLOTRESLEVEL
 70
     2
102
SHADEPLOTCUSTOMDPI
 70
   300
  0
XRECORD
  5
78CE
102
{ACAD_REACTORS
330
78CD
102
}
330
78CD
100
AcDbXrecord
280
     1
102
MATERIAL
148
0.0
149
0.0
149
0.0
 93
        0
 94
       63
282
     0
 72
     1
 77
     1
171
     1
175
     1
179
     1
273
     0
  0
XRECORD
  5
78CC
102
{ACAD_REACTORS
330
78CB
102
}
330
78CB
100
AcDbXrecord
280
     1
102
MATERIAL
148
0.0
149
0.0
149
0.0
 93
        0
 94
       63
282
     0
 72
     1
 77
     1
171
     1
175
     1
179
     1
273
     0
  0
XRECORD
  5
78D0
102
{ACAD_REACTORS
330
78CF
102
}
330
78CF
100
AcDbXrecord
280
     1
102
MATERIAL
148
0.0
149
0.0
149
0.0
 93
        0
 94
       63
282
     0
 72
     1
 77
     1
171
     1
175
     1
179
     1
273
     0
  0
XRECORD
  5
78D2
102
{ACAD_REACTORS
330
78D1
102
}
330
78D1
100
AcDbXrecord
280
     1
102
ACAD_ROUNDTRIP_PRE2007_TABLESTYLE
 90
      512
 91
        0
  1

 92
      512
 93
        0
  2

 94
      512
 95
        0
  3

  0
ENDSEC
  0
EOF
