  0
SECTION
  2
HEADER
  9
$ACADVER
  1
AC1015
  9
$ACADMAINTVER
 70
    20
  9
$DWGCODEPAGE
  3
ANSI_932
  9
$INSBASE
 10
0.0
 20
0.0
 30
0.0
  9
$EXTMIN
 10
76.90604060145473
 20
150.7757300161014
 30
0.0
  9
$EXTMAX
 10
383.7820406014548
 20
381.8970920161014
 30
0.0
  9
$LIMMIN
 10
0.0
 20
0.0
  9
$LIMMAX
 10
420.0
 20
297.0
  9
$ORTHOMODE
 70
     0
  9
$REGENMODE
 70
     1
  9
$FILLMODE
 70
     1
  9
$QTEXTMODE
 70
     0
  9
$MIRRTEXT
 70
     1
  9
$LTSCALE
 40
1.0
  9
$ATTMODE
 70
     1
  9
$TEXTSIZE
 40
5.0
  9
$TRACEWID
 40
0.05
  9
$TEXTSTYLE
  7
ACAD
  9
$CLAYER
  8
0
  9
$CELTYPE
  6
CONTINUOUS
  9
$CECOLOR
 62
   256
  9
$CELTSCALE
 40
1.0
  9
$DISPSILH
 70
     0
  9
$DIMSCALE
 40
1.0
  9
$DIMASZ
 40
1.0
  9
$DIMEXO
 40
0.0
  9
$DIMDLI
 40
0.38
  9
$DIMRND
 40
0.0
  9
$DIMDLE
 40
0.0
  9
$DIMEXE
 40
0.0
  9
$DIMTP
 40
0.0
  9
$DIMTM
 40
0.0
  9
$DIMTXT
 40
3.0
  9
$DIMCEN
 40
0.09
  9
$DIMTSZ
 40
0.0
  9
$DIMTOL
 70
     0
  9
$DIMLIM
 70
     0
  9
$DIMTIH
 70
     0
  9
$DIMTOH
 70
     1
  9
$DIMSE1
 70
     0
  9
$DIMSE2
 70
     0
  9
$DIMTAD
 70
     1
  9
$DIMZIN
 70
     0
  9
$DIMBLK
  1
Dot
  9
$DIMASO
 70
     1
  9
$DIMSHO
 70
     1
  9
$DIMPOST
  1

  9
$DIMAPOST
  1

  9
$DIMALT
 70
     0
  9
$DIMALTD
 70
     2
  9
$DIMALTF
 40
25.4
  9
$DIMLFAC
 40
1.0
  9
$DIMTOFL
 70
     0
  9
$DIMTVP
 40
0.0
  9
$DIMTIX
 70
     1
  9
$DIMSOXD
 70
     0
  9
$DIMSAH
 70
     0
  9
$DIMBLK1
  1

  9
$DIMBLK2
  1

  9
$DIMSTYLE
  2
AutoCAD
  9
$DIMCLRD
 70
     4
  9
$DIMCLRE
 70
     4
  9
$DIMCLRT
 70
     3
  9
$DIMTFAC
 40
1.0
  9
$DIMGAP
 40
1.0
  9
$DIMJUST
 70
     0
  9
$DIMSD1
 70
     0
  9
$DIMSD2
 70
     0
  9
$DIMTOLJ
 70
     1
  9
$DIMTZIN
 70
     0
  9
$DIMALTZ
 70
     0
  9
$DIMALTTZ
 70
     0
  9
$DIMUPT
 70
     0
  9
$DIMDEC
 70
     0
  9
$DIMTDEC
 70
     0
  9
$DIMALTU
 70
     2
  9
$DIMALTTD
 70
     2
  9
$DIMTXSTY
  7
ACAD
  9
$DIMAUNIT
 70
     0
  9
$DIMADEC
 70
     0
  9
$DIMALTRND
 40
0.0
  9
$DIMAZIN
 70
     0
  9
$DIMDSEP
 70
    46
  9
$DIMATFIT
 70
     0
  9
$DIMFRAC
 70
     0
  9
$DIMLDRBLK
  1
None
  9
$DIMLUNIT
 70
     2
  9
$DIMLWD
 70
    -2
  9
$DIMLWE
 70
    -2
  9
$DIMTMOVE
 70
     0
  9
$LUNITS
 70
     2
  9
$LUPREC
 70
     4
  9
$SKETCHINC
 40
0.1
  9
$FILLETRAD
 40
0.0
  9
$AUNITS
 70
     0
  9
$AUPREC
 70
     0
  9
$MENU
  1
.
  9
$ELEVATION
 40
0.0
  9
$PELEVATION
 40
0.0
  9
$THICKNESS
 40
0.0
  9
$LIMCHECK
 70
     0
  9
$CHAMFERA
 40
0.0
  9
$CHAMFERB
 40
0.0
  9
$CHAMFERC
 40
0.0
  9
$CHAMFERD
 40
0.0
  9
$SKPOLY
 70
     0
  9
$TDCREATE
 40
2454316.693457674
  9
$TDUCREATE
 40
2454316.318457674
  9
$TDUPDATE
 40
2454735.621386169
  9
$TDUUPDATE
 40
2454735.246386169
  9
$TDINDWG
 40
0.2801621296
  9
$TDUSRTIMER
 40
0.2801621296
  9
$USRTIMER
 70
     1
  9
$ANGBASE
 50
0.0
  9
$ANGDIR
 70
     0
  9
$PDMODE
 70
     0
  9
$PDSIZE
 40
0.0
  9
$PLINEWID
 40
0.0
  9
$SPLFRAME
 70
     0
  9
$SPLINETYPE
 70
     6
  9
$SPLINESEGS
 70
     8
  9
$HANDSEED
  5
788D
  9
$SURFTAB1
 70
     6
  9
$SURFTAB2
 70
     6
  9
$SURFTYPE
 70
     6
  9
$SURFU
 70
     6
  9
$SURFV
 70
     6
  9
$UCSBASE
  2

  9
$UCSNAME
  2

  9
$UCSORG
 10
0.0
 20
0.0
 30
0.0
  9
$UCSXDIR
 10
1.0
 20
0.0
 30
0.0
  9
$UCSYDIR
 10
0.0
 20
1.0
 30
0.0
  9
$UCSORTHOREF
  2

  9
$UCSORTHOVIEW
 70
     0
  9
$UCSORGTOP
 10
0.0
 20
0.0
 30
0.0
  9
$UCSORGBOTTOM
 10
0.0
 20
0.0
 30
0.0
  9
$UCSORGLEFT
 10
0.0
 20
0.0
 30
0.0
  9
$UCSORGRIGHT
 10
0.0
 20
0.0
 30
0.0
  9
$UCSORGFRONT
 10
0.0
 20
0.0
 30
0.0
  9
$UCSORGBACK
 10
0.0
 20
0.0
 30
0.0
  9
$PUCSBASE
  2

  9
$PUCSNAME
  2

  9
$PUCSORG
 10
0.0
 20
0.0
 30
0.0
  9
$PUCSXDIR
 10
1.0
 20
0.0
 30
0.0
  9
$PUCSYDIR
 10
0.0
 20
1.0
 30
0.0
  9
$PUCSORTHOREF
  2

  9
$PUCSORTHOVIEW
 70
     0
  9
$PUCSORGTOP
 10
0.0
 20
0.0
 30
0.0
  9
$PUCSORGBOTTOM
 10
0.0
 20
0.0
 30
0.0
  9
$PUCSORGLEFT
 10
0.0
 20
0.0
 30
0.0
  9
$PUCSORGRIGHT
 10
0.0
 20
0.0
 30
0.0
  9
$PUCSORGFRONT
 10
0.0
 20
0.0
 30
0.0
  9
$PUCSORGBACK
 10
0.0
 20
0.0
 30
0.0
  9
$USERI1
 70
     0
  9
$USERI2
 70
     0
  9
$USERI3
 70
     0
  9
$USERI4
 70
     0
  9
$USERI5
 70
     0
  9
$USERR1
 40
0.0
  9
$USERR2
 40
0.0
  9
$USERR3
 40
0.0
  9
$USERR4
 40
0.0
  9
$USERR5
 40
0.0
  9
$WORLDVIEW
 70
     1
  9
$SHADEDGE
 70
     3
  9
$SHADEDIF
 70
    70
  9
$TILEMODE
 70
     1
  9
$MAXACTVP
 70
    48
  9
$PINSBASE
 10
0.0
 20
0.0
 30
0.0
  9
$PLIMCHECK
 70
     0
  9
$PEXTMIN
 10
1.000000000000000E+20
 20
1.000000000000000E+20
 30
1.000000000000000E+20
  9
$PEXTMAX
 10
-1.000000000000000E+20
 20
-1.000000000000000E+20
 30
-1.000000000000000E+20
  9
$PLIMMIN
 10
0.0
 20
0.0
  9
$PLIMMAX
 10
12.0
 20
9.0
  9
$UNITMODE
 70
     0
  9
$VISRETAIN
 70
     0
  9
$PLINEGEN
 70
     0
  9
$PSLTSCALE
 70
     1
  9
$TREEDEPTH
 70
  3020
  9
$CMLSTYLE
  2
Standard
  9
$CMLJUST
 70
     0
  9
$CMLSCALE
 40
1.0
  9
$PROXYGRAPHICS
 70
     1
  9
$MEASUREMENT
 70
     0
  9
$CELWEIGHT
370
    -1
  9
$ENDCAPS
280
     0
  9
$JOINSTYLE
280
     0
  9
$LWDISPLAY
290
     0
  9
$INSUNITS
 70
     0
  9
$HYPERLINKBASE
  1

  9
$STYLESHEET
  1

  9
$XEDIT
290
     1
  9
$CEPSNTYPE
380
     0
  9
$PSTYLEMODE
290
     1
  9
$FINGERPRINTGUID
  2
{CC7D6DEE-A9F1-4F3E-AC95-C84B62CCA3FD}
  9
$VERSIONGUID
  2
{A6A33E4A-3472-4589-90F6-4D5076F92323}
  9
$EXTNAMES
290
     1
  9
$PSVPSCALE
 40
0.0
  9
$OLESTARTUP
290
     0
  0
ENDSEC
  0
SECTION
  2
CLASSES
  0
CLASS
  1
ACDBDICTIONARYWDFLT
  2
AcDbDictionaryWithDefault
  3
ObjectDBX Classes
 90
        0
280
     0
281
     0
  0
CLASS
  1
ACDBPLACEHOLDER
  2
AcDbPlaceHolder
  3
ObjectDBX Classes
 90
        0
280
     0
281
     0
  0
CLASS
  1
LAYOUT
  2
AcDbLayout
  3
ObjectDBX Classes
 90
        0
280
     0
281
     0
  0
CLASS
  1
DICTIONARYVAR
  2
AcDbDictionaryVar
  3
ObjectDBX Classes
 90
        0
280
     0
281
     0
  0
CLASS
  1
MATERIAL
  2
AcDbMaterial
  3
ObjectDBX Classes
 90
     1153
280
     0
281
     0
  0
CLASS
  1
VISUALSTYLE
  2
AcDbVisualStyle
  3
ObjectDBX Classes
 90
     4095
280
     0
281
     0
  0
CLASS
  1
TABLESTYLE
  2
AcDbTableStyle
  3
ObjectDBX Classes
 90
     4095
280
     0
281
     0
  0
ENDSEC
  0
SECTION
  2
TABLES
  0
TABLE
  2
VPORT
  5
8
102
{ACAD_XDICTIONARY
360
760A
102
}
330
0
100
AcDbSymbolTable
 70
     1
  0
VPORT
  5
7585
330
8
100
AcDbSymbolTableRecord
100
AcDbViewportTableRecord
  2
*Active
 70
     0
 10
0.0
 20
0.0
 11
1.0
 21
1.0
 12
255.2887824223619
 22
252.5456077946667
 13
0.0
 23
0.0
 14
1.0
 24
1.0
 15
0.0
 25
0.0
 16
0.0
 26
0.0
 36
1.0
 17
0.0
 27
0.0
 37
0.0
 40
301.3859213505621
 41
1.571614583333333
 42
50.0
 43
0.0
 44
0.0
 50
0.0
 51
0.0
 71
     0
 72
   100
 73
     1
 74
     1
 75
     0
 76
     0
 77
     0
 78
     0
281
     0
 65
     1
110
0.0
120
0.0
130
0.0
111
1.0
121
0.0
131
0.0
112
0.0
122
1.0
132
0.0
 79
     0
146
0.0
  0
ENDTAB
  0
TABLE
  2
LTYPE
  5
5
330
0
100
AcDbSymbolTable
 70
    50
  0
LTYPE
  5
13
330
5
100
AcDbSymbolTableRecord
100
AcDbLinetypeTableRecord
  2
ByBlock
 70
     0
  3

 72
    65
 73
     0
 40
0.0
  0
LTYPE
  5
14
330
5
100
AcDbSymbolTableRecord
100
AcDbLinetypeTableRecord
  2
ByLayer
 70
     0
  3

 72
    65
 73
     0
 40
0.0
  0
LTYPE
  5
15
330
5
100
AcDbSymbolTableRecord
100
AcDbLinetypeTableRecord
  2
CONTINUOUS
 70
     0
  3
実線
 72
    65
 73
     0
 40
0.0
  0
LTYPE
  5
22
330
5
100
AcDbSymbolTableRecord
100
AcDbLinetypeTableRecord
  2
DASHED1
 70
     0
  3
--  --  --  --  --  --  --  --  
 72
    65
 73
     2
 40
2.5
 49
1.25
 74
     0
 49
-1.25
 74
     0
  0
LTYPE
  5
23
330
5
100
AcDbSymbolTableRecord
100
AcDbLinetypeTableRecord
  2
DASHED2
 70
     0
  3
----    ----    ----    ----    
 72
    65
 73
     2
 40
5.0
 49
2.5
 74
     0
 49
-2.5
 74
     0
  0
LTYPE
  5
24
330
5
100
AcDbSymbolTableRecord
100
AcDbLinetypeTableRecord
  2
DASHED3
 70
     0
  3
------  ------  ------  ------  
 72
    65
 73
     2
 40
5.0
 49
3.75
 74
     0
 49
-1.25
 74
     0
  0
LTYPE
  5
25
330
5
100
AcDbSymbolTableRecord
100
AcDbLinetypeTableRecord
  2
CENTER1
 70
     0
  3
----- - ----- - ----- - ----- - 
 72
    65
 73
     4
 40
10.0
 49
6.25
 74
     0
 49
-1.25
 74
     0
 49
1.25
 74
     0
 49
-1.25
 74
     0
  0
LTYPE
  5
26
330
5
100
AcDbSymbolTableRecord
100
AcDbLinetypeTableRecord
  2
CENTER2
 70
     0
  3
----------  --  ----------  --  
 72
    65
 73
     4
 40
20.0
 49
12.5
 74
     0
 49
-2.5
 74
     0
 49
2.5
 74
     0
 49
-2.5
 74
     0
  0
LTYPE
  5
27
330
5
100
AcDbSymbolTableRecord
100
AcDbLinetypeTableRecord
  2
PHANTOM1
 70
     0
  3
--- - - --- - - --- - - --- - - 
 72
    65
 73
     6
 40
10.0
 49
3.25
 74
     0
 49
-1.25
 74
     0
 49
1.25
 74
     0
 49
-1.25
 74
     0
 49
1.25
 74
     0
 49
-1.25
 74
     0
  0
LTYPE
  5
28
330
5
100
AcDbSymbolTableRecord
100
AcDbLinetypeTableRecord
  2
PHANTOM2
 70
     0
  3
--------  -  -  --------  -  -  
 72
    65
 73
     6
 40
20.0
 49
10.0
 74
     0
 49
-2.5
 74
     0
 49
1.25
 74
     0
 49
-2.5
 74
     0
 49
1.25
 74
     0
 49
-2.5
 74
     0
  0
LTYPE
  5
29
330
5
100
AcDbSymbolTableRecord
100
AcDbLinetypeTableRecord
  2
DOT
 70
     0
  3
-   -   -   -   -   -   -   -   
 72
    65
 73
     2
 40
2.5
 49
0.625
 74
     0
 49
-1.875
 74
     0
  0
LTYPE
  5
2A
330
5
100
AcDbSymbolTableRecord
100
AcDbLinetypeTableRecord
  2
DUMMY
 70
     0
  3
ダミー
 72
    65
 73
     0
 40
0.0
  0
LTYPE
  5
2B
330
5
100
AcDbSymbolTableRecord
100
AcDbLinetypeTableRecord
  2
RAND1
 70
     0
  3
ランダム線1
 72
    65
 73
     4
 40
10.0
 49
1.0
 74
     0
 49
-2.0
 74
     0
 49
3.0
 74
     0
 49
-4.0
 74
     0
  0
LTYPE
  5
2C
330
5
100
AcDbSymbolTableRecord
100
AcDbLinetypeTableRecord
  2
RAND2
 70
     0
  3
ランダム線2
 72
    65
 73
     4
 40
14.0
 49
2.0
 74
     0
 49
-3.0
 74
     0
 49
4.0
 74
     0
 49
-5.0
 74
     0
  0
LTYPE
  5
2D
330
5
100
AcDbSymbolTableRecord
100
AcDbLinetypeTableRecord
  2
RAND3
 70
     0
  3
ランダム線3
 72
    65
 73
     4
 40
18.0
 49
3.0
 74
     0
 49
-4.0
 74
     0
 49
5.0
 74
     0
 49
-6.0
 74
     0
  0
LTYPE
  5
2E
330
5
100
AcDbSymbolTableRecord
100
AcDbLinetypeTableRecord
  2
RAND4
 70
     0
  3
ランダム線4
 72
    65
 73
     4
 40
22.0
 49
4.0
 74
     0
 49
-5.0
 74
     0
 49
6.0
 74
     0
 49
-7.0
 74
     0
  0
LTYPE
  5
2F
330
5
100
AcDbSymbolTableRecord
100
AcDbLinetypeTableRecord
  2
RAND5
 70
     0
  3
ランダム線5
 72
    65
 73
     4
 40
26.0
 49
5.0
 74
     0
 49
-6.0
 74
     0
 49
7.0
 74
     0
 49
-8.0
 74
     0
  0
LTYPE
  5
30
330
5
100
AcDbSymbolTableRecord
100
AcDbLinetypeTableRecord
  2
LONG1
 70
     0
  3
----------  --  ----------  --  
 72
    65
 73
     4
 40
40.0
 49
32.5
 74
     0
 49
-2.5
 74
     0
 49
2.5
 74
     0
 49
-2.5
 74
     0
  0
LTYPE
  5
31
330
5
100
AcDbSymbolTableRecord
100
AcDbLinetypeTableRecord
  2
LONG2
 70
     0
  3
--------  -  -  --------  -  -  
 72
    65
 73
     6
 40
40.0
 49
30.0
 74
     0
 49
-2.5
 74
     0
 49
1.25
 74
     0
 49
-2.5
 74
     0
 49
1.25
 74
     0
 49
-2.5
 74
     0
  0
LTYPE
  5
32
330
5
100
AcDbSymbolTableRecord
100
AcDbLinetypeTableRecord
  2
LONG3
 70
     0
  3
+++++++++++++++..+++++++++++++++
 72
    65
 73
     2
 40
40.0
 49
37.5
 74
     0
 49
-2.5
 74
     0
  0
LTYPE
  5
33
330
5
100
AcDbSymbolTableRecord
100
AcDbLinetypeTableRecord
  2
LONG4
 70
     0
  3
+++++++++++++++..+++++++++++++++
 72
    65
 73
     2
 40
80.0
 49
75.0
 74
     0
 49
-5.0
 74
     0
  0
LTYPE
  5
34
330
5
100
AcDbSymbolTableRecord
100
AcDbLinetypeTableRecord
  2
LONG5
 70
     0
  3
----------  --  ----------  --  
 72
    65
 73
     4
 40
60.0
 49
37.5
 74
     0
 49
-7.5
 74
     0
 49
7.5
 74
     0
 49
-7.5
 74
     0
  0
LTYPE
  5
35
330
5
100
AcDbSymbolTableRecord
100
AcDbLinetypeTableRecord
  2
DASHED
 70
     0
  3
-------   -------------   ------
 72
    65
 73
     2
 40
7.5
 49
6.0
 74
     0
 49
-1.5
 74
     0
  0
LTYPE
  5
36
330
5
100
AcDbSymbolTableRecord
100
AcDbLinetypeTableRecord
  2
DASHED_SPACED
 70
     0
  3
----        --------        ----
 72
    65
 73
     2
 40
12.0
 49
6.0
 74
     0
 49
-6.0
 74
     0
  0
LTYPE
  5
37
330
5
100
AcDbSymbolTableRecord
100
AcDbLinetypeTableRecord
  2
LONG_DASHED_DOTTED
 70
     0
  3
------------- --- --------------
 72
    65
 73
     4
 40
15.25
 49
12.0
 74
     0
 49
-1.5
 74
     0
 49
0.25
 74
     0
 49
-1.5
 74
     0
  0
LTYPE
  5
38
330
5
100
AcDbSymbolTableRecord
100
AcDbLinetypeTableRecord
  2
LONG_DASHED_DOUBLE-DOTTED
 70
     0
  3
----------- --- --- ------------
 72
    65
 73
     6
 40
17.0
 49
12.0
 74
     0
 49
-1.5
 74
     0
 49
0.25
 74
     0
 49
-1.5
 74
     0
 49
0.25
 74
     0
 49
-1.5
 74
     0
  0
LTYPE
  5
39
330
5
100
AcDbSymbolTableRecord
100
AcDbLinetypeTableRecord
  2
LONG_DASHED_TRIPLICATE-DOTTED
 70
     0
  3
--------- --- --- --- ----------
 72
    65
 73
     8
 40
18.75
 49
12.0
 74
     0
 49
-1.5
 74
     0
 49
0.25
 74
     0
 49
-1.5
 74
     0
 49
0.25
 74
     0
 49
-1.5
 74
     0
 49
0.25
 74
     0
 49
-1.5
 74
     0
  0
LTYPE
  5
3A
330
5
100
AcDbSymbolTableRecord
100
AcDbLinetypeTableRecord
  2
DOTTED
 70
     0
  3
   -       -       -       -    
 72
    65
 73
     2
 40
1.75
 49
0.25
 74
     0
 49
-1.5
 74
     0
  0
LTYPE
  5
3B
330
5
100
AcDbSymbolTableRecord
100
AcDbLinetypeTableRecord
  2
CHAIN
 70
     0
  3
-------------- -- --------------
 72
    65
 73
     4
 40
18.5
 49
12.0
 74
     0
 49
-1.5
 74
     0
 49
3.5
 74
     0
 49
-1.5
 74
     0
  0
LTYPE
  5
3C
330
5
100
AcDbSymbolTableRecord
100
AcDbLinetypeTableRecord
  2
CHAIN_DOUBLE_DASH
 70
     0
  3
------------ -- -- -------------
 72
    65
 73
     6
 40
23.5
 49
12.0
 74
     0
 49
-1.5
 74
     0
 49
3.5
 74
     0
 49
-1.5
 74
     0
 49
3.5
 74
     0
 49
-1.5
 74
     0
  0
LTYPE
  5
3D
330
5
100
AcDbSymbolTableRecord
100
AcDbLinetypeTableRecord
  2
DASHED_DOTTED
 70
     0
  3
-----------     -     ----------
 72
    65
 73
     4
 40
9.25
 49
6.0
 74
     0
 49
-1.5
 74
     0
 49
0.25
 74
     0
 49
-1.5
 74
     0
  0
LTYPE
  5
3E
330
5
100
AcDbSymbolTableRecord
100
AcDbLinetypeTableRecord
  2
DOUBLE-DASHED_DOTTED
 70
     0
  3
------   -----------   -   -----
 72
    65
 73
     6
 40
16.75
 49
6.0
 74
     0
 49
-1.5
 74
     0
 49
6.0
 74
     0
 49
-1.5
 74
     0
 49
0.25
 74
     0
 49
-1.5
 74
     0
  0
LTYPE
  5
3F
330
5
100
AcDbSymbolTableRecord
100
AcDbLinetypeTableRecord
  2
DASHED_DOUBLE-DOTTED
 70
     0
  3
---------    -    -    ---------
 72
    65
 73
     6
 40
11.0
 49
6.0
 74
     0
 49
-1.5
 74
     0
 49
0.25
 74
     0
 49
-1.5
 74
     0
 49
0.25
 74
     0
 49
-1.5
 74
     0
  0
LTYPE
  5
40
330
5
100
AcDbSymbolTableRecord
100
AcDbLinetypeTableRecord
  2
DOUBLE-DASHED_DOUBLE-DOTTED
 70
     0
  3
-----   ---------   -   -   ----
 72
    65
 73
     8
 40
18.5
 49
6.0
 74
     0
 49
-1.5
 74
     0
 49
6.0
 74
     0
 49
-1.5
 74
     0
 49
0.25
 74
     0
 49
-1.5
 74
     0
 49
0.25
 74
     0
 49
-1.5
 74
     0
  0
LTYPE
  5
41
330
5
100
AcDbSymbolTableRecord
100
AcDbLinetypeTableRecord
  2
DASHED_TRIPLICATE-DOTTED
 70
     0
  3
-------    -    -    -    ------
 72
    65
 73
     8
 40
12.75
 49
6.0
 74
     0
 49
-1.5
 74
     0
 49
0.25
 74
     0
 49
-1.5
 74
     0
 49
0.25
 74
     0
 49
-1.5
 74
     0
 49
0.25
 74
     0
 49
-1.5
 74
     0
  0
LTYPE
  5
42
330
5
100
AcDbSymbolTableRecord
100
AcDbLinetypeTableRecord
  2
DOUBLE-DASHED_TRIPLICATE-DOTTED
 70
     0
  3
-----  ---------  -  -  -  -----
 72
    65
 73
    10
 40
20.25
 49
6.0
 74
     0
 49
-1.5
 74
     0
 49
6.0
 74
     0
 49
-1.5
 74
     0
 49
0.25
 74
     0
 49
-1.5
 74
     0
 49
0.25
 74
     0
 49
-1.5
 74
     0
 49
0.25
 74
     0
 49
-1.5
 74
     0
  0
LTYPE
  5
43
330
5
100
AcDbSymbolTableRecord
100
AcDbLinetypeTableRecord
  2
UNDEFINED
 70
     0
  3
--------------------------------
 72
    65
 73
     0
 40
0.0
  0
LTYPE
  5
44
330
5
100
AcDbSymbolTableRecord
100
AcDbLinetypeTableRecord
  2
PLINE2
 70
     0
  3
------     -----------     -----
 72
    65
 73
     2
 40
3.0
 49
2.1
 74
     0
 49
-0.9
 74
     0
  0
LTYPE
  5
45
330
5
100
AcDbSymbolTableRecord
100
AcDbLinetypeTableRecord
  2
PLINE3
 70
     0
  3
------------   ---   -----------
 72
    65
 73
     4
 40
10.0
 49
7.0
 74
     0
 49
-1.0
 74
     0
 49
1.0
 74
     0
 49
-1.0
 74
     0
  0
LTYPE
  5
46
330
5
100
AcDbSymbolTableRecord
100
AcDbLinetypeTableRecord
  2
PLINE4
 70
     0
  3
---------   ---   ---   --------
 72
    65
 73
     6
 40
10.0
 49
5.0
 74
     0
 49
-1.0
 74
     0
 49
1.0
 74
     0
 49
-1.0
 74
     0
 49
1.0
 74
     0
 49
-1.0
 74
     0
  0
LTYPE
  5
47
330
5
100
AcDbSymbolTableRecord
100
AcDbLinetypeTableRecord
  2
PLINE5
 70
     0
  3
------     -----------     -----
 72
    65
 73
     2
 40
5.0
 49
3.5
 74
     0
 49
-1.5
 74
     0
  0
LTYPE
  5
48
330
5
100
AcDbSymbolTableRecord
100
AcDbLinetypeTableRecord
  2
PLINE6
 70
     0
  3
------------   ---   -----------
 72
    65
 73
     4
 40
15.0
 49
10.5
 74
     0
 49
-1.5
 74
     0
 49
1.5
 74
     0
 49
-1.5
 74
     0
  0
LTYPE
  5
49
330
5
100
AcDbSymbolTableRecord
100
AcDbLinetypeTableRecord
  2
PLINE7
 70
     0
  3
---------   ---   ---   --------
 72
    65
 73
     6
 40
15.0
 49
7.5
 74
     0
 49
-1.5
 74
     0
 49
1.5
 74
     0
 49
-1.5
 74
     0
 49
1.5
 74
     0
 49
-1.5
 74
     0
  0
LTYPE
  5
4A
330
5
100
AcDbSymbolTableRecord
100
AcDbLinetypeTableRecord
  2
PLINE8
 70
     0
  3
------     -----------     -----
 72
    65
 73
     2
 40
7.0
 49
4.9
 74
     0
 49
-2.1
 74
     0
  0
LTYPE
  5
4B
330
5
100
AcDbSymbolTableRecord
100
AcDbLinetypeTableRecord
  2
PLINE9
 70
     0
  3
------------   ---   -----------
 72
    65
 73
     4
 40
20.0
 49
14.0
 74
     0
 49
-2.0
 74
     0
 49
2.0
 74
     0
 49
-2.0
 74
     0
  0
LTYPE
  5
4C
330
5
100
AcDbSymbolTableRecord
100
AcDbLinetypeTableRecord
  2
PLINE10
 70
     0
  3
---------   ---   ---   --------
 72
    65
 73
     6
 40
20.0
 49
10.0
 74
     0
 49
-2.0
 74
     0
 49
2.0
 74
     0
 49
-2.0
 74
     0
 49
2.0
 74
     0
 49
-2.0
 74
     0
  0
LTYPE
  5
4D
330
5
100
AcDbSymbolTableRecord
100
AcDbLinetypeTableRecord
  2
PLINE11
 70
     0
  3
------     -----------     -----
 72
    65
 73
     2
 40
9.0
 49
6.299999999999999
 74
     0
 49
-2.7
 74
     0
  0
LTYPE
  5
4E
330
5
100
AcDbSymbolTableRecord
100
AcDbLinetypeTableRecord
  2
PLINE12
 70
     0
  3
------------   ---   -----------
 72
    65
 73
     4
 40
25.0
 49
17.5
 74
     0
 49
-2.5
 74
     0
 49
2.5
 74
     0
 49
-2.5
 74
     0
  0
LTYPE
  5
4F
330
5
100
AcDbSymbolTableRecord
100
AcDbLinetypeTableRecord
  2
PLINE13
 70
     0
  3
---------   ---   ---   --------
 72
    65
 73
     6
 40
25.0
 49
12.5
 74
     0
 49
-2.5
 74
     0
 49
2.5
 74
     0
 49
-2.5
 74
     0
 49
2.5
 74
     0
 49
-2.5
 74
     0
  0
LTYPE
  5
50
330
5
100
AcDbSymbolTableRecord
100
AcDbLinetypeTableRecord
  2
PLINE14
 70
     0
  3
------     -----------     -----
 72
    65
 73
     2
 40
11.0
 49
7.7
 74
     0
 49
-3.299999999999999
 74
     0
  0
LTYPE
  5
51
330
5
100
AcDbSymbolTableRecord
100
AcDbLinetypeTableRecord
  2
PLINE15
 70
     0
  3
------------   ---   -----------
 72
    65
 73
     4
 40
30.0
 49
21.0
 74
     0
 49
-3.0
 74
     0
 49
3.0
 74
     0
 49
-3.0
 74
     0
  0
LTYPE
  5
52
330
5
100
AcDbSymbolTableRecord
100
AcDbLinetypeTableRecord
  2
PLINE16
 70
     0
  3
---------   ---   ---   --------
 72
    65
 73
     6
 40
30.0
 49
15.0
 74
     0
 49
-3.0
 74
     0
 49
3.0
 74
     0
 49
-3.0
 74
     0
 49
3.0
 74
     0
 49
-3.0
 74
     0
  0
ENDTAB
  0
TABLE
  2
LAYER
  5
2
102
{ACAD_XDICTIONARY
360
175
102
}
330
0
100
AcDbSymbolTable
 70
     5
  0
LAYER
  5
10
330
2
100
AcDbSymbolTableRecord
100
AcDbLayerTableRecord
  2
0
 70
     0
 62
     7
  6
CONTINUOUS
370
    -3
390
F
  0
LAYER
  5
128
330
2
100
AcDbSymbolTableRecord
100
AcDbLayerTableRecord
  2
Defpoints
 70
     0
 62
     7
  6
CONTINUOUS
290
     0
370
    -3
390
F
  0
LAYER
  5
179
330
2
100
AcDbSymbolTableRecord
100
AcDbLayerTableRecord
  2
製品
 70
     0
 62
     7
  6
CONTINUOUS
370
    -3
390
F
  0
LAYER
  5
6B9F
330
2
100
AcDbSymbolTableRecord
100
AcDbLayerTableRecord
  2
寸法
 70
     0
 62
     7
  6
CONTINUOUS
370
    -3
390
F
  0
LAYER
  5
6BA0
330
2
100
AcDbSymbolTableRecord
100
AcDbLayerTableRecord
  2
図面枠
 70
     0
 62
     7
  6
CONTINUOUS
370
    -3
390
F
  0
ENDTAB
  0
TABLE
  2
STYLE
  5
3
330
0
100
AcDbSymbolTable
 70
     5
  0
STYLE
  5
11
330
3
100
AcDbSymbolTableRecord
100
AcDbTextStyleTableRecord
  2
STANDARD
 70
     0
 40
0.0
 41
1.0
 50
0.0
 71
     0
 42
0.2
  3
txt
  4
bigfont.shx
  0
STYLE
  5
53
330
3
100
AcDbSymbolTableRecord
100
AcDbTextStyleTableRecord
  2
TATEGAKI
 70
     4
 40
0.0
 41
1.0
 50
0.0
 71
     0
 42
1.0
  3
txt
  4
bigfont.shx
  0
STYLE
  5
123
330
3
100
AcDbSymbolTableRecord
100
AcDbTextStyleTableRecord
  2
ACAD
 70
     0
 40
3.0
 41
0.8
 50
0.0
 71
     0
 42
5.0
  3
romans.shx
  4
extfont.shx
  0
STYLE
  5
3A5F
330
3
100
AcDbSymbolTableRecord
100
AcDbTextStyleTableRecord
  2
VERTXT
 70
     4
 40
0.0
 41
0.8582679999999999
 50
0.0
 71
     0
 42
3.5
  3
txt.shx
  4
BIGFONT
  0
STYLE
  5
6BA1
330
3
100
AcDbSymbolTableRecord
100
AcDbTextStyleTableRecord
  2
STANDARD2
 70
     0
 40
0.0
 41
0.8582679999999999
 50
0.0
 71
     0
 42
3.5
  3
txt.shx
  4
EXTFONT
  0
ENDTAB
  0
TABLE
  2
VIEW
  5
6
330
0
100
AcDbSymbolTable
 70
     0
  0
ENDTAB
  0
TABLE
  2
UCS
  5
7
330
0
100
AcDbSymbolTable
 70
     0
  0
ENDTAB
  0
TABLE
  2
APPID
  5
9
330
0
100
AcDbSymbolTable
 70
     1
  0
APPID
  5
12
330
9
100
AcDbSymbolTableRecord
100
AcDbRegAppTableRecord
  2
ACAD
 70
     0
  0
ENDTAB
  0
TABLE
  2
DIMSTYLE
  5
A
330
0
100
AcDbSymbolTable
 70
     3
100
AcDbDimStyleTable
 71
     1
340
126
  0
DIMSTYLE
105
11C
330
A
100
AcDbSymbolTableRecord
100
AcDbDimStyleTableRecord
  2
Standard
 70
     0
340
11
  0
DIMSTYLE
105
126
102
{ACAD_REACTORS
330
7016
330
7017
330
7025
330
710E
330
718D
330
7198
330
7270
102
}
330
A
100
AcDbSymbolTableRecord
100
AcDbDimStyleTableRecord
  2
AutoCAD
 70
     0
 41
1.0
 42
0.0
 44
0.0
 73
     0
 77
     1
140
3.0
147
1.0
174
     1
176
     4
177
     4
178
     3
271
     0
272
     0
289
     0
340
123
341
15B0
342
11E
  0
DIMSTYLE
105
2CBB
330
A
100
AcDbSymbolTableRecord
100
AcDbDimStyleTableRecord
  2
111
 70
     0
 41
1.0
 42
0.0
 44
0.0
 73
     0
 77
     1
140
5.0
147
1.0
174
     1
176
     4
177
     4
178
     3
271
     0
272
     0
289
     0
340
123
341
15B0
342
2CB5
  0
ENDTAB
  0
TABLE
  2
BLOCK_RECORD
  5
1
330
0
100
AcDbSymbolTable
 70
    11
  0
BLOCK_RECORD
  5
1E
102
{ACAD_XDICTIONARY
360
28B
102
}
330
1
100
AcDbSymbolTableRecord
100
AcDbBlockTableRecord
  2
*Model_Space
340
21
  0
BLOCK_RECORD
  5
1A
102
{ACAD_XDICTIONARY
360
28D
102
}
330
1
100
AcDbSymbolTableRecord
100
AcDbBlockTableRecord
  2
*Paper_Space
340
1D
  0
BLOCK_RECORD
  5
11E
330
1
100
AcDbSymbolTableRecord
100
AcDbBlockTableRecord
  2
_Dot
340
0
102
{BLKREFS
331
7826
331
7827
331
782F
331
7830
331
7838
331
7839
331
7841
331
7842
331
784A
331
784B
331
7853
331
7854
331
785C
331
785D
102
}
  0
BLOCK_RECORD
  5
15B0
330
1
100
AcDbSymbolTableRecord
100
AcDbBlockTableRecord
  2
_None
340
0
  0
BLOCK_RECORD
  5
2CB5
330
1
100
AcDbSymbolTableRecord
100
AcDbBlockTableRecord
  2
_Open30
340
0
  0
BLOCK_RECORD
  5
35E3
330
1
100
AcDbSymbolTableRecord
100
AcDbBlockTableRecord
  2
_DotBlank
340
0
  0
BLOCK_RECORD
  5
7486
330
1
100
AcDbSymbolTableRecord
100
AcDbBlockTableRecord
  2
*D4
340
0
  0
BLOCK_RECORD
  5
7492
330
1
100
AcDbSymbolTableRecord
100
AcDbBlockTableRecord
  2
*D5
340
0
  0
BLOCK_RECORD
  5
749E
330
1
100
AcDbSymbolTableRecord
100
AcDbBlockTableRecord
  2
*D6
340
0
  0
BLOCK_RECORD
  5
74AA
330
1
100
AcDbSymbolTableRecord
100
AcDbBlockTableRecord
  2
*D7
340
0
  0
BLOCK_RECORD
  5
74B6
330
1
100
AcDbSymbolTableRecord
100
AcDbBlockTableRecord
  2
*D8
340
0
  0
BLOCK_RECORD
  5
74C2
330
1
100
AcDbSymbolTableRecord
100
AcDbBlockTableRecord
  2
*D9
340
0
  0
BLOCK_RECORD
  5
74CE
330
1
100
AcDbSymbolTableRecord
100
AcDbBlockTableRecord
  2
*D10
340
0
  0
ENDTAB
  0
ENDSEC
  0
SECTION
  2
BLOCKS
  0
BLOCK
  5
1F
330
1E
100
AcDbEntity
  8
0
100
AcDbBlockBegin
  2
*Model_Space
 70
     0
 10
0.0
 20
0.0
 30
0.0
  3
*Model_Space
  1

  0
ENDBLK
  5
20
330
1E
100
AcDbEntity
  8
0
100
AcDbBlockEnd
  0
BLOCK
  5
1B
330
1A
100
AcDbEntity
 67
     1
  8
0
100
AcDbBlockBegin
  2
*Paper_Space
 70
     0
 10
0.0
 20
0.0
 30
0.0
  3
*Paper_Space
  1

  0
ENDBLK
  5
1C
330
1A
100
AcDbEntity
 67
     1
  8
0
100
AcDbBlockEnd
  0
BLOCK
  5
121
330
11E
100
AcDbEntity
  8
0
100
AcDbBlockBegin
  2
_Dot
 70
     0
 10
0.0
 20
0.0
 30
0.0
  3
_Dot
  1

  0
LWPOLYLINE
  5
11F
330
11E
100
AcDbEntity
  8
0
  6
ByBlock
 62
     0
100
AcDbPolyline
 90
        2
 70
     1
 43
0.5
 10
-0.25
 20
0.0
 42
1.0
 10
0.25
 20
0.0
 42
1.0
  0
LINE
  5
120
330
11E
100
AcDbEntity
  8
0
  6
ByBlock
 62
     0
370
    -2
100
AcDbLine
 10
-0.5
 20
0.0
 30
0.0
 11
-1.0
 21
0.0
 31
0.0
  0
ENDBLK
  5
122
330
11E
100
AcDbEntity
  8
0
100
AcDbBlockEnd
  0
BLOCK
  5
15B1
330
15B0
100
AcDbEntity
  8
0
100
AcDbBlockBegin
  2
_None
 70
     0
 10
0.0
 20
0.0
 30
0.0
  3
_None
  1

  0
ENDBLK
  5
15B2
330
15B0
100
AcDbEntity
  8
0
100
AcDbBlockEnd
  0
BLOCK
  5
2CB9
330
2CB5
100
AcDbEntity
  8
0
100
AcDbBlockBegin
  2
_Open30
 70
     0
 10
0.0
 20
0.0
 30
0.0
  3
_Open30
  1

  0
LINE
  5
2CB6
330
2CB5
100
AcDbEntity
  8
0
  6
ByBlock
 62
     0
370
    -2
100
AcDbLine
 10
-1.0
 20
0.26794919
 30
0.0
 11
0.0
 21
0.0
 31
0.0
  0
LINE
  5
2CB7
330
2CB5
100
AcDbEntity
  8
0
  6
ByBlock
 62
     0
370
    -2
100
AcDbLine
 10
0.0
 20
0.0
 30
0.0
 11
-1.0
 21
-0.26794919
 31
0.0
  0
LINE
  5
2CB8
330
2CB5
100
AcDbEntity
  8
0
  6
ByBlock
 62
     0
370
    -2
100
AcDbLine
 10
0.0
 20
0.0
 30
0.0
 11
-1.0
 21
0.0
 31
0.0
  0
ENDBLK
  5
2CBA
330
2CB5
100
AcDbEntity
  8
0
100
AcDbBlockEnd
  0
BLOCK
  5
35E6
330
35E3
100
AcDbEntity
  8
0
100
AcDbBlockBegin
  2
_DotBlank
 70
     0
 10
0.0
 20
0.0
 30
0.0
  3
_DotBlank
  1

  0
CIRCLE
  5
35E4
330
35E3
100
AcDbEntity
  8
0
  6
ByBlock
 62
     0
370
    -2
100
AcDbCircle
 10
0.0
 20
0.0
 30
0.0
 40
0.5
  0
LINE
  5
35E5
330
35E3
100
AcDbEntity
  8
0
  6
ByBlock
 62
     0
370
    -2
100
AcDbLine
 10
-0.5
 20
0.0
 30
0.0
 11
-1.0
 21
0.0
 31
0.0
  0
ENDBLK
  5
35E7
330
35E3
100
AcDbEntity
  8
0
100
AcDbBlockEnd
  0
BLOCK
  5
7490
330
7486
100
AcDbEntity
  8
0
100
AcDbBlockBegin
  2
*D4
 70
     1
 10
0.0
 20
0.0
 30
0.0
  3
*D4
  1

  0
LINE
  5
7823
330
7486
100
AcDbEntity
  8
寸法
  6
Continuous
 62
     4
370
    -2
100
AcDbLine
 10
158.7578726014549
 20
217.6775040161015
 30
0.0
 11
158.7578726014549
 21
184.5095196162438
 31
0.0
  0
LINE
  5
7824
330
7486
100
AcDbEntity
  8
寸法
  6
Continuous
 62
     4
370
    -2
100
AcDbLine
 10
340.5578726014546
 20
217.6775040161015
 30
0.0
 11
340.5578726014546
 21
184.5095196162438
 31
0.0
  0
LINE
  5
7825
330
7486
100
AcDbEntity
  8
寸法
  6
Continuous
 62
     4
370
    -2
100
AcDbLine
 10
159.7578726014549
 20
184.5095196162438
 30
0.0
 11
339.5578726014546
 21
184.5095196162438
 31
0.0
  0
INSERT
  5
7826
330
7486
100
AcDbEntity
  8
寸法
  6
Continuous
 62
     4
370
    -2
100
AcDbBlockReference
  2
_Dot
 10
158.7578726014549
 20
184.5095196162438
 30
0.0
 50
180.0
  0
INSERT
  5
7827
330
7486
100
AcDbEntity
  8
寸法
  6
Continuous
 62
     4
370
    -2
100
AcDbBlockReference
  2
_Dot
 10
340.5578726014546
 20
184.5095196162438
 30
0.0
  0
MTEXT
  5
7828
330
7486
100
AcDbEntity
  8
寸法
  6
Continuous
 62
     3
100
AcDbMText
 10
249.6578726014547
 20
186.8095196162438
 30
0.0
 40
3.0
 41
0.0
 71
     5
 72
     1
  1
\A1;909
  7
ACAD
 73
     1
 44
1.0
1001
ACAD
1000
MTEXTBEGIN
1070
    73
1070
     1
1070
    44
1040
1.0
1070
    74
1070
     0
1000
MTEXTEND
  0
POINT
  5
7829
330
7486
100
AcDbEntity
  8
Defpoints
  6
Continuous
 62
     0
100
AcDbPoint
 10
158.7578726014549
 20
217.6775040161015
 30
0.0
  0
POINT
  5
782A
330
7486
100
AcDbEntity
  8
Defpoints
  6
Continuous
 62
     0
100
AcDbPoint
 10
340.5578726014546
 20
217.6775040161015
 30
0.0
  0
POINT
  5
782B
330
7486
100
AcDbEntity
  8
Defpoints
  6
Continuous
 62
     0
100
AcDbPoint
 10
340.5578726014546
 20
184.5095196162438
 30
0.0
  0
ENDBLK
  5
7491
330
7486
100
AcDbEntity
  8
0
100
AcDbBlockEnd
  0
BLOCK
  5
749C
330
7492
100
AcDbEntity
  8
0
100
AcDbBlockBegin
  2
*D5
 70
     1
 10
0.0
 20
0.0
 30
0.0
  3
*D5
  1

  0
LINE
  5
782C
330
7492
100
AcDbEntity
  8
寸法
  6
Continuous
 62
     4
370
    -2
100
AcDbLine
 10
128.4095656014547
 20
212.6175950161014
 30
0.0
 11
128.4095656014547
 21
194.4171300161015
 31
0.0
  0
LINE
  5
782D
330
7492
100
AcDbEntity
  8
寸法
  6
Continuous
 62
     4
370
    -2
100
AcDbLine
 10
189.0096986014546
 20
212.6175950161014
 30
0.0
 11
189.0096986014546
 21
194.4171300161015
 31
0.0
  0
LINE
  5
782E
330
7492
100
AcDbEntity
  8
寸法
  6
Continuous
 62
     4
370
    -2
100
AcDbLine
 10
129.4095656014547
 20
194.4171300161015
 30
0.0
 11
188.0096986014546
 21
194.4171300161015
 31
0.0
  0
INSERT
  5
782F
330
7492
100
AcDbEntity
  8
寸法
  6
Continuous
 62
     4
370
    -2
100
AcDbBlockReference
  2
_Dot
 10
128.4095656014547
 20
194.4171300161015
 30
0.0
 50
180.0
  0
INSERT
  5
7830
330
7492
100
AcDbEntity
  8
寸法
  6
Continuous
 62
     4
370
    -2
100
AcDbBlockReference
  2
_Dot
 10
189.0096986014546
 20
194.4171300161015
 30
0.0
  0
MTEXT
  5
7831
330
7492
100
AcDbEntity
  8
寸法
  6
Continuous
 62
     3
100
AcDbMText
 10
158.7096321014546
 20
196.7171300161015
 30
0.0
 40
3.0
 41
0.0
 71
     5
 72
     1
  1
\A1;303
  7
ACAD
 73
     1
 44
1.0
1001
ACAD
1000
MTEXTBEGIN
1070
    73
1070
     1
1070
    44
1040
1.0
1070
    74
1070
     0
1000
MTEXTEND
  0
POINT
  5
7832
330
7492
100
AcDbEntity
  8
Defpoints
  6
Continuous
 62
     0
100
AcDbPoint
 10
128.4095656014547
 20
212.6175950161014
 30
0.0
  0
POINT
  5
7833
330
7492
100
AcDbEntity
  8
Defpoints
  6
Continuous
 62
     0
100
AcDbPoint
 10
189.0096986014546
 20
212.6175950161014
 30
0.0
  0
POINT
  5
7834
330
7492
100
AcDbEntity
  8
Defpoints
  6
Continuous
 62
     0
100
AcDbPoint
 10
189.0096986014546
 20
194.4171300161015
 30
0.0
  0
ENDBLK
  5
749D
330
7492
100
AcDbEntity
  8
0
100
AcDbBlockEnd
  0
BLOCK
  5
74A8
330
749E
100
AcDbEntity
  8
0
100
AcDbBlockBegin
  2
*D6
 70
     1
 10
0.0
 20
0.0
 30
0.0
  3
*D6
  1

  0
LINE
  5
7835
330
749E
100
AcDbEntity
  8
寸法
  6
Continuous
 62
     4
370
    -2
100
AcDbLine
 10
111.700916601455
 20
313.5696290161013
 30
0.0
 11
80.70604060145482
 21
313.5696290161013
 31
0.0
  0
LINE
  5
7836
330
749E
100
AcDbEntity
  8
寸法
  6
Continuous
 62
     4
370
    -2
100
AcDbLine
 10
111.700916601455
 20
222.2090800161013
 30
0.0
 11
80.70604060145479
 21
222.2090800161013
 31
0.0
  0
LINE
  5
7837
330
749E
100
AcDbEntity
  8
寸法
  6
Continuous
 62
     4
370
    -2
100
AcDbLine
 10
80.70604060145482
 20
312.5696290161013
 30
0.0
 11
80.70604060145479
 21
223.2090800161013
 31
0.0
  0
INSERT
  5
7838
330
749E
100
AcDbEntity
  8
寸法
  6
Continuous
 62
     4
370
    -2
100
AcDbBlockReference
  2
_Dot
 10
80.70604060145482
 20
313.5696290161013
 30
0.0
 50
90.0
  0
INSERT
  5
7839
330
749E
100
AcDbEntity
  8
寸法
  6
Continuous
 62
     4
370
    -2
100
AcDbBlockReference
  2
_Dot
 10
80.70604060145479
 20
222.2090800161013
 30
0.0
 50
270.0
  0
MTEXT
  5
783A
330
749E
100
AcDbEntity
  8
寸法
  6
Continuous
 62
     3
100
AcDbMText
 10
78.40604060145476
 20
267.8893545161013
 30
0.0
 40
3.0
 41
0.0
 71
     5
 72
     1
  1
\A1;500以内
  7
ACAD
 11
0.0000000000000001
 21
1.0
 31
0.0
 73
     1
 44
1.0
1001
ACAD
1000
MTEXTBEGIN
1070
    73
1070
     1
1070
    44
1040
1.0
1070
    74
1070
     0
1000
MTEXTEND
  0
POINT
  5
783B
330
749E
100
AcDbEntity
  8
Defpoints
  6
Continuous
 62
     0
100
AcDbPoint
 10
111.700916601455
 20
313.5696290161013
 30
0.0
  0
POINT
  5
783C
330
749E
100
AcDbEntity
  8
Defpoints
  6
Continuous
 62
     0
100
AcDbPoint
 10
111.700916601455
 20
222.2090800161013
 30
0.0
  0
POINT
  5
783D
330
749E
100
AcDbEntity
  8
Defpoints
  6
Continuous
 62
     0
100
AcDbPoint
 10
80.70604060145479
 20
222.2090800161013
 30
0.0
  0
ENDBLK
  5
74A9
330
749E
100
AcDbEntity
  8
0
100
AcDbBlockEnd
  0
BLOCK
  5
74B4
330
74AA
100
AcDbEntity
  8
0
100
AcDbBlockBegin
  2
*D7
 70
     1
 10
0.0
 20
0.0
 30
0.0
  3
*D7
  1

  0
LINE
  5
783E
330
74AA
100
AcDbEntity
  8
寸法
  6
Continuous
 62
     4
370
    -2
100
AcDbLine
 10
111.700916601455
 20
370.5222970161017
 30
0.0
 11
80.7060406014548
 21
370.5222970161017
 31
0.0
  0
LINE
  5
783F
330
74AA
100
AcDbEntity
  8
寸法
  6
Continuous
 62
     4
370
    -2
100
AcDbLine
 10
111.700916601455
 20
313.5696290161013
 30
0.0
 11
80.70604060145479
 21
313.5696290161013
 31
0.0
  0
LINE
  5
7840
330
74AA
100
AcDbEntity
  8
寸法
  6
Continuous
 62
     4
370
    -2
100
AcDbLine
 10
80.7060406014548
 20
369.5222970161017
 30
0.0
 11
80.70604060145479
 21
314.5696290161013
 31
0.0
  0
INSERT
  5
7841
330
74AA
100
AcDbEntity
  8
寸法
  6
Continuous
 62
     4
370
    -2
100
AcDbBlockReference
  2
_Dot
 10
80.7060406014548
 20
370.5222970161017
 30
0.0
 50
90.0
  0
INSERT
  5
7842
330
74AA
100
AcDbEntity
  8
寸法
  6
Continuous
 62
     4
370
    -2
100
AcDbBlockReference
  2
_Dot
 10
80.70604060145479
 20
313.5696290161013
 30
0.0
 50
270.0
  0
MTEXT
  5
7843
330
74AA
100
AcDbEntity
  8
寸法
  6
Continuous
 62
     3
100
AcDbMText
 10
78.40604060145473
 20
342.0459630161015
 30
0.0
 40
3.0
 41
0.0
 71
     5
 72
     1
  1
\A1;500以内
  7
ACAD
 11
0.0000000000000001
 21
1.0
 31
0.0
 73
     1
 44
1.0
1001
ACAD
1000
MTEXTBEGIN
1070
    73
1070
     1
1070
    44
1040
1.0
1070
    74
1070
     0
1000
MTEXTEND
  0
POINT
  5
7844
330
74AA
100
AcDbEntity
  8
Defpoints
  6
Continuous
 62
     0
100
AcDbPoint
 10
111.700916601455
 20
370.5222970161017
 30
0.0
  0
POINT
  5
7845
330
74AA
100
AcDbEntity
  8
Defpoints
  6
Continuous
 62
     0
100
AcDbPoint
 10
111.700916601455
 20
313.5696290161013
 30
0.0
  0
POINT
  5
7846
330
74AA
100
AcDbEntity
  8
Defpoints
  6
Continuous
 62
     0
100
AcDbPoint
 10
80.70604060145479
 20
313.5696290161013
 30
0.0
  0
ENDBLK
  5
74B5
330
74AA
100
AcDbEntity
  8
0
100
AcDbBlockEnd
  0
BLOCK
  5
74C0
330
74B6
100
AcDbEntity
  8
0
100
AcDbBlockBegin
  2
*D8
 70
     1
 10
0.0
 20
0.0
 30
0.0
  3
*D8
  1

  0
LINE
  5
7847
330
74B6
100
AcDbEntity
  8
寸法
  6
Continuous
 62
     4
370
    -2
100
AcDbLine
 10
310.2099626014547
 20
212.6175950161014
 30
0.0
 11
310.2099626014547
 21
194.4171300161015
 31
0.0
  0
LINE
  5
7848
330
74B6
100
AcDbEntity
  8
寸法
  6
Continuous
 62
     4
370
    -2
100
AcDbLine
 10
370.8100956014546
 20
212.6175950161014
 30
0.0
 11
370.8100956014546
 21
194.4171300161015
 31
0.0
  0
LINE
  5
7849
330
74B6
100
AcDbEntity
  8
寸法
  6
Continuous
 62
     4
370
    -2
100
AcDbLine
 10
311.2099626014547
 20
194.4171300161015
 30
0.0
 11
369.8100956014546
 21
194.4171300161015
 31
0.0
  0
INSERT
  5
784A
330
74B6
100
AcDbEntity
  8
寸法
  6
Continuous
 62
     4
370
    -2
100
AcDbBlockReference
  2
_Dot
 10
310.2099626014547
 20
194.4171300161015
 30
0.0
 50
180.0
  0
INSERT
  5
784B
330
74B6
100
AcDbEntity
  8
寸法
  6
Continuous
 62
     4
370
    -2
100
AcDbBlockReference
  2
_Dot
 10
370.8100956014546
 20
194.4171300161015
 30
0.0
  0
MTEXT
  5
784C
330
74B6
100
AcDbEntity
  8
寸法
  6
Continuous
 62
     3
100
AcDbMText
 10
340.5100291014546
 20
196.7171300161015
 30
0.0
 40
3.0
 41
0.0
 71
     5
 72
     1
  1
\A1;303
  7
ACAD
 73
     1
 44
1.0
1001
ACAD
1000
MTEXTBEGIN
1070
    73
1070
     1
1070
    44
1040
1.0
1070
    74
1070
     0
1000
MTEXTEND
  0
POINT
  5
784D
330
74B6
100
AcDbEntity
  8
Defpoints
  6
Continuous
 62
     0
100
AcDbPoint
 10
310.2099626014547
 20
212.6175950161014
 30
0.0
  0
POINT
  5
784E
330
74B6
100
AcDbEntity
  8
Defpoints
  6
Continuous
 62
     0
100
AcDbPoint
 10
370.8100956014546
 20
212.6175950161014
 30
0.0
  0
POINT
  5
784F
330
74B6
100
AcDbEntity
  8
Defpoints
  6
Continuous
 62
     0
100
AcDbPoint
 10
370.8100956014546
 20
194.4171300161015
 30
0.0
  0
ENDBLK
  5
74C1
330
74B6
100
AcDbEntity
  8
0
100
AcDbBlockEnd
  0
BLOCK
  5
74CC
330
74C2
100
AcDbEntity
  8
0
100
AcDbBlockBegin
  2
*D9
 70
     1
 10
0.0
 20
0.0
 30
0.0
  3
*D9
  1

  0
LINE
  5
7850
330
74C2
100
AcDbEntity
  8
寸法
  6
Continuous
 62
     4
370
    -2
100
AcDbLine
 10
189.0096986014546
 20
212.6175950161014
 30
0.0
 11
189.0096986014546
 21
194.4171300161015
 31
0.0
  0
LINE
  5
7851
330
74C2
100
AcDbEntity
  8
寸法
  6
Continuous
 62
     4
370
    -2
100
AcDbLine
 10
249.6098306014546
 20
212.6175950161014
 30
0.0
 11
249.6098306014546
 21
194.4171300161015
 31
0.0
  0
LINE
  5
7852
330
74C2
100
AcDbEntity
  8
寸法
  6
Continuous
 62
     4
370
    -2
100
AcDbLine
 10
190.0096986014546
 20
194.4171300161015
 30
0.0
 11
248.6098306014546
 21
194.4171300161015
 31
0.0
  0
INSERT
  5
7853
330
74C2
100
AcDbEntity
  8
寸法
  6
Continuous
 62
     4
370
    -2
100
AcDbBlockReference
  2
_Dot
 10
189.0096986014546
 20
194.4171300161015
 30
0.0
 50
180.0
  0
INSERT
  5
7854
330
74C2
100
AcDbEntity
  8
寸法
  6
Continuous
 62
     4
370
    -2
100
AcDbBlockReference
  2
_Dot
 10
249.6098306014546
 20
194.4171300161015
 30
0.0
  0
MTEXT
  5
7855
330
74C2
100
AcDbEntity
  8
寸法
  6
Continuous
 62
     3
100
AcDbMText
 10
219.3097646014546
 20
196.7171300161015
 30
0.0
 40
3.0
 41
0.0
 71
     5
 72
     1
  1
\A1;303
  7
ACAD
 73
     1
 44
1.0
1001
ACAD
1000
MTEXTBEGIN
1070
    73
1070
     1
1070
    44
1040
1.0
1070
    74
1070
     0
1000
MTEXTEND
  0
POINT
  5
7856
330
74C2
100
AcDbEntity
  8
Defpoints
  6
Continuous
 62
     0
100
AcDbPoint
 10
189.0096986014546
 20
212.6175950161014
 30
0.0
  0
POINT
  5
7857
330
74C2
100
AcDbEntity
  8
Defpoints
  6
Continuous
 62
     0
100
AcDbPoint
 10
249.6098306014546
 20
212.6175950161014
 30
0.0
  0
POINT
  5
7858
330
74C2
100
AcDbEntity
  8
Defpoints
  6
Continuous
 62
     0
100
AcDbPoint
 10
249.6098306014546
 20
194.4171300161015
 30
0.0
  0
ENDBLK
  5
74CD
330
74C2
100
AcDbEntity
  8
0
100
AcDbBlockEnd
  0
BLOCK
  5
74D8
330
74CE
100
AcDbEntity
  8
0
100
AcDbBlockBegin
  2
*D10
 70
     1
 10
0.0
 20
0.0
 30
0.0
  3
*D10
  1

  0
LINE
  5
7859
330
74CE
100
AcDbEntity
  8
寸法
  6
Continuous
 62
     4
370
    -2
100
AcDbLine
 10
249.6098306014546
 20
212.6175950161014
 30
0.0
 11
249.6098306014546
 21
194.4171300161015
 31
0.0
  0
LINE
  5
785A
330
74CE
100
AcDbEntity
  8
寸法
  6
Continuous
 62
     4
370
    -2
100
AcDbLine
 10
310.2099626014547
 20
212.6175950161014
 30
0.0
 11
310.2099626014547
 21
194.4171300161015
 31
0.0
  0
LINE
  5
785B
330
74CE
100
AcDbEntity
  8
寸法
  6
Continuous
 62
     4
370
    -2
100
AcDbLine
 10
250.6098306014546
 20
194.4171300161015
 30
0.0
 11
309.2099626014547
 21
194.4171300161015
 31
0.0
  0
INSERT
  5
785C
330
74CE
100
AcDbEntity
  8
寸法
  6
Continuous
 62
     4
370
    -2
100
AcDbBlockReference
  2
_Dot
 10
249.6098306014546
 20
194.4171300161015
 30
0.0
 50
180.0
  0
INSERT
  5
785D
330
74CE
100
AcDbEntity
  8
寸法
  6
Continuous
 62
     4
370
    -2
100
AcDbBlockReference
  2
_Dot
 10
310.2099626014547
 20
194.4171300161015
 30
0.0
  0
MTEXT
  5
785E
330
74CE
100
AcDbEntity
  8
寸法
  6
Continuous
 62
     3
100
AcDbMText
 10
279.9098966014546
 20
196.7171300161015
 30
0.0
 40
3.0
 41
0.0
 71
     5
 72
     1
  1
\A1;303
  7
ACAD
 73
     1
 44
1.0
1001
ACAD
1000
MTEXTBEGIN
1070
    73
1070
     1
1070
    44
1040
1.0
1070
    74
1070
     0
1000
MTEXTEND
  0
POINT
  5
785F
330
74CE
100
AcDbEntity
  8
Defpoints
  6
Continuous
 62
     0
100
AcDbPoint
 10
249.6098306014546
 20
212.6175950161014
 30
0.0
  0
POINT
  5
7860
330
74CE
100
AcDbEntity
  8
Defpoints
  6
Continuous
 62
     0
100
AcDbPoint
 10
310.2099626014547
 20
212.6175950161014
 30
0.0
  0
POINT
  5
7861
330
74CE
100
AcDbEntity
  8
Defpoints
  6
Continuous
 62
     0
100
AcDbPoint
 10
310.2099626014547
 20
194.4171300161015
 30
0.0
  0
ENDBLK
  5
74D9
330
74CE
100
AcDbEntity
  8
0
100
AcDbBlockEnd
  0
ENDSEC
  0
SECTION
  2
ENTITIES
  0
DIMENSION
  5
7016
330
1E
100
AcDbEntity
  8
寸法
  6
Continuous
100
AcDbDimension
  2
*D4
 10
340.5578726014546
 20
184.5095196162438
 30
0.0
 11
249.6578726014547
 21
186.8095196162438
 31
0.0
 70
    32
  1
909
 71
     5
 42
181.7999999999997
  3
AutoCAD
100
AcDbAlignedDimension
 13
158.7578726014549
 23
217.6775040161015
 33
0.0
 14
340.5578726014546
 24
217.6775040161015
 34
0.0
100
AcDbRotatedDimension
1001
ACAD
1000
DSTYLE
1002
{
1070
   147
1040
0.8
1070
   140
1040
10.0
1002
}
  0
DIMENSION
  5
7017
330
1E
100
AcDbEntity
  8
寸法
  6
Continuous
100
AcDbDimension
  2
*D5
 10
189.0096986014546
 20
194.4171300161015
 30
0.0
 11
158.7096321014546
 21
196.7171300161015
 31
0.0
 70
    32
  1
303
 71
     5
 42
60.60013299999991
  3
AutoCAD
100
AcDbAlignedDimension
 13
128.4095656014547
 23
212.6175950161014
 33
0.0
 14
189.0096986014546
 24
212.6175950161014
 34
0.0
100
AcDbRotatedDimension
1001
ACAD
1000
DSTYLE
1002
{
1070
   147
1040
0.8
1070
   140
1040
10.0
1002
}
  0
LINE
  5
7018
330
1E
100
AcDbEntity
  8
図面枠
  6
Continuous
 62
     3
100
AcDbLine
 10
169.0760216014546
 20
287.0422280161015
 30
0.0
 11
192.2960116014546
 21
287.0640100161013
 31
0.0
  0
TEXT
  5
7019
330
1E
100
AcDbEntity
  8
図面枠
  6
Continuous
 62
     3
100
AcDbText
 10
169.0750816014547
 20
288.0422360161015
 30
0.0
 40
3.0
  1
チャンネルホルダ－
 41
0.8
  7
ACAD
100
AcDbText
  0
LINE
  5
701A
330
1E
100
AcDbEntity
  8
製品
  6
Continuous
 62
     4
100
AcDbLine
 10
185.2580046014545
 20
227.2069120161013
 30
0.0
 11
161.2578726014549
 21
227.2069120161013
 31
0.0
  0
LINE
  5
701B
330
1E
100
AcDbEntity
  8
図面枠
  6
Continuous
 62
     3
100
AcDbLine
 10
170.4480466014547
 20
254.1468740161017
 30
0.0
 11
190.6789746014547
 21
254.1468740161017
 31
0.0
  0
TEXT
  5
701C
330
1E
100
AcDbEntity
  8
図面枠
  6
Continuous
 62
     3
100
AcDbText
 10
170.4409566014547
 20
255.1468430161017
 30
0.0
 40
3.0
  1
ビス付きハンガ－
 41
0.8
  7
ACAD
100
AcDbText
  0
LINE
  5
701D
330
1E
100
AcDbEntity
  8
製品
  6
Continuous
 62
     4
100
AcDbLine
 10
161.2578726014549
 20
234.8069120161017
 30
0.0
 11
184.0580046014547
 21
234.8069120161017
 31
0.0
  0
LINE
  5
701E
330
1E
100
AcDbEntity
  8
製品
  6
Continuous
 62
     3
100
AcDbLine
 10
159.657872601455
 20
320.8496290161015
 30
0.0
 11
339.657872601455
 21
320.8496290161015
 31
0.0
  0
LINE
  5
701F
330
1E
100
AcDbEntity
  8
製品
  6
Continuous
 62
     3
100
AcDbLine
 10
159.657872601455
 20
313.2496290161016
 30
0.0
 11
339.657872601455
 21
313.2496290161016
 31
0.0
  0
LINE
  5
7020
330
1E
100
AcDbEntity
  8
製品
  6
Continuous
 62
     3
100
AcDbLine
 10
159.657872601455
 20
320.5296290161014
 30
0.0
 11
339.657872601455
 21
320.5296290161014
 31
0.0
  0
LINE
  5
7021
330
1E
100
AcDbEntity
  8
製品
  6
Continuous
 62
     3
100
AcDbLine
 10
339.657872601455
 20
313.5696290161013
 30
0.0
 11
159.657872601455
 21
313.5696290161013
 31
0.0
  0
LINE
  5
7022
330
1E
100
AcDbEntity
  8
製品
  6
Continuous
 62
     4
100
AcDbLine
 10
383.7820406014548
 20
222.2090800161013
 30
0.0
 11
115.200916601455
 21
222.2090800161013
 31
0.0
  0
LINE
  5
7023
330
1E
100
AcDbEntity
  8
製品
  6
Continuous
 62
     4
100
AcDbLine
 10
383.7820406014548
 20
220.3090800161017
 30
0.0
 11
115.200916601455
 21
220.3090800161017
 31
0.0
  0
LINE
  5
7024
330
1E
100
AcDbEntity
  8
製品
  6
Continuous
 62
     7
100
AcDbLine
 10
115.200916601455
 20
370.5222970161017
 30
0.0
 11
376.2483796014549
 21
370.5222970161017
 31
0.0
  0
DIMENSION
  5
7025
330
1E
100
AcDbEntity
  8
寸法
  6
Continuous
100
AcDbDimension
  2
*D6
 10
80.70604060145479
 20
222.2090800161013
 30
0.0
 11
78.40604060145476
 21
267.8893545161013
 31
0.0
 70
    32
  1
500以内
 71
     5
 42
91.36054899999995
  3
AutoCAD
100
AcDbAlignedDimension
 13
111.700916601455
 23
313.5696290161013
 33
0.0
 14
111.700916601455
 24
222.2090800161013
 34
0.0
 50
90.0
100
AcDbRotatedDimension
1001
ACAD
1000
DSTYLE
1002
{
1070
   287
1070
     4
1070
   140
1040
10.0
1070
   147
1040
0.8
1070
   279
1070
     1
1070
   289
1070
     3
1002
}
  0
LINE
  5
7026
330
1E
100
AcDbEntity
  8
製品
  6
Continuous
 62
     7
100
AcDbLine
 10
115.200916601455
 20
370.5222970161017
 30
0.0
 11
115.200916601455
 21
164.3683280161017
 31
0.0
  0
LINE
  5
7027
330
1E
100
AcDbEntity
  8
製品
  6
Continuous
 62
     4
100
AcDbLine
 10
159.657872601455
 20
250.6749120161016
 30
0.0
 11
159.657872601455
 21
299.6655320161017
 31
0.0
  0
LINE
  5
7028
330
1E
100
AcDbEntity
  8
製品
  6
Continuous
 62
     4
100
AcDbLine
 10
157.8578726014548
 20
299.6655320161017
 30
0.0
 11
157.8578726014548
 21
250.6749120161016
 31
0.0
  0
LINE
  5
7029
330
1E
100
AcDbEntity
  8
製品
  6
PLINE3
 62
     3
100
AcDbLine
 10
111.4156836014549
 20
231.0069120161015
 30
0.0
 11
118.5957856014547
 21
231.0069120161015
 31
0.0
  0
LINE
  5
702A
330
1E
100
AcDbEntity
  8
図面枠
  6
Continuous
 62
     3
100
AcDbLine
 10
127.5577086014546
 20
246.0542120161017
 30
0.0
 11
148.1977086014549
 21
246.0542120161017
 31
0.0
  0
TEXT
  5
702B
330
1E
100
AcDbEntity
  8
図面枠
  6
Continuous
 62
     3
100
AcDbText
 10
127.5577096014549
 20
247.0542140161015
 30
0.0
 40
3.0
  1
Ｌ金具　溶接止め
 41
0.8
  7
ACAD
100
AcDbText
  0
LINE
  5
702C
330
1E
100
AcDbEntity
  8
製品
  6
Continuous
 62
     4
100
AcDbLine
 10
156.2578726014549
 20
227.2069120161013
 30
0.0
 11
132.2578726014549
 21
227.2069120161013
 31
0.0
  0
LINE
  5
702D
330
1E
100
AcDbEntity
  8
製品
  6
Continuous
 62
     4
100
AcDbLine
 10
133.4578726014547
 20
234.8069120161017
 30
0.0
 11
156.2578726014549
 21
234.8069120161017
 31
0.0
  0
ARC
  5
702E
330
1E
100
AcDbEntity
  8
製品
  6
Continuous
 62
     3
100
AcDbCircle
 10
132.4578726014547
 20
237.2069120161013
 30
0.0
 40
1.0
100
AcDbArc
 50
0.0
 51
90.0
  0
LINE
  5
702F
330
1E
100
AcDbEntity
  8
製品
  6
Continuous
 62
     3
100
AcDbLine
 10
133.4578726014547
 20
232.4069120161016
 30
0.0
 11
132.8978726014547
 21
232.4069120161016
 31
0.0
  0
ARC
  5
7030
330
1E
100
AcDbEntity
  8
製品
  6
Continuous
 62
     3
100
AcDbCircle
 10
132.8978726014547
 20
231.7669120161013
 30
0.0
 40
0.6400000000000001
100
AcDbArc
 50
90.0
 51
180.0
  0
LINE
  5
7031
330
1E
100
AcDbEntity
  8
製品
  6
Continuous
 62
     2
100
AcDbLine
 10
132.7578726014549
 20
226.9069120161016
 30
0.0
 11
132.7578726014549
 21
226.6069120161014
 31
0.0
  0
LINE
  5
7032
330
1E
100
AcDbEntity
  8
製品
  6
Continuous
 62
     2
100
AcDbLine
 10
132.7578726014549
 20
226.6069120161014
 30
0.0
 11
132.657872601455
 21
226.6069120161014
 31
0.0
  0
LINE
  5
7033
330
1E
100
AcDbEntity
  8
製品
  6
Continuous
 62
     2
100
AcDbLine
 10
132.657872601455
 20
226.6069120161014
 30
0.0
 11
132.657872601455
 21
226.9069120161016
 31
0.0
  0
ARC
  5
7034
330
1E
100
AcDbEntity
  8
製品
  6
Continuous
 62
     2
100
AcDbCircle
 10
132.9578726014547
 20
226.9069120161016
 30
0.0
 40
0.3
100
AcDbArc
 50
90.0
 51
180.0
  0
LINE
  5
7035
330
1E
100
AcDbEntity
  8
製品
  6
Continuous
 62
     2
100
AcDbLine
 10
132.9578726014547
 20
227.2069120161013
 30
0.0
 11
133.157872601455
 21
227.2069120161013
 31
0.0
  0
ARC
  5
7036
330
1E
100
AcDbEntity
  8
製品
  6
Continuous
 62
     2
100
AcDbCircle
 10
133.157872601455
 20
226.9069120161016
 30
0.0
 40
0.3
100
AcDbArc
 50
0.0
 51
90.0
  0
LINE
  5
7037
330
1E
100
AcDbEntity
  8
製品
  6
Continuous
 62
     2
100
AcDbLine
 10
132.8578726014548
 20
222.2069120161013
 30
0.0
 11
132.2578726014549
 21
222.2069120161013
 31
0.0
  0
LINE
  5
7038
330
1E
100
AcDbEntity
  8
製品
  6
Continuous
 62
     2
100
AcDbLine
 10
132.8578726014548
 20
222.3069120161017
 30
0.0
 11
132.2578726014549
 21
222.3069120161017
 31
0.0
  0
ARC
  5
7039
330
1E
100
AcDbEntity
  8
製品
  6
Continuous
 62
     2
100
AcDbCircle
 10
132.8578726014548
 20
222.8069120161017
 30
0.0
 40
0.5
100
AcDbArc
 50
270.0
 51
0.0
  0
LINE
  5
703A
330
1E
100
AcDbEntity
  8
製品
  6
Continuous
 62
     3
100
AcDbLine
 10
132.2578726014549
 20
226.4069120161016
 30
0.0
 11
132.5378726014546
 21
226.4069120161016
 31
0.0
  0
ARC
  5
703B
330
1E
100
AcDbEntity
  8
製品
  6
Continuous
 62
     3
100
AcDbCircle
 10
132.5378726014546
 20
226.7269120161013
 30
0.0
 40
0.32
100
AcDbArc
 50
270.0
 51
0.0
  0
LINE
  5
703C
330
1E
100
AcDbEntity
  8
製品
  6
Continuous
 62
     3
100
AcDbLine
 10
132.8578726014548
 20
226.7269120161013
 30
0.0
 11
132.8578726014548
 21
227.0801170161017
 31
0.0
  0
LINE
  5
703D
330
1E
100
AcDbEntity
  8
製品
  6
Continuous
 62
     3
100
AcDbLine
 10
132.8578726014548
 20
227.0801170161017
 30
0.0
 11
133.1778726014549
 21
227.1059100161015
 31
0.0
  0
LINE
  5
703E
330
1E
100
AcDbEntity
  8
製品
  6
Continuous
 62
     3
100
AcDbLine
 10
133.1778726014549
 20
227.1059100161015
 30
0.0
 11
133.1778726014549
 21
226.7269120161013
 31
0.0
  0
ARC
  5
703F
330
1E
100
AcDbEntity
  8
製品
  6
Continuous
 62
     3
100
AcDbCircle
 10
132.5378726014546
 20
226.7269120161013
 30
0.0
 40
0.6400000000000001
100
AcDbArc
 50
270.0
 51
0.0
  0
ARC
  5
7040
330
1E
100
AcDbEntity
  8
製品
  6
Continuous
 62
     2
100
AcDbCircle
 10
133.157872601455
 20
226.9069120161016
 30
0.0
 40
0.2
100
AcDbArc
 50
0.0
 51
90.0
  0
LINE
  5
7041
330
1E
100
AcDbEntity
  8
製品
  6
Continuous
 62
     2
100
AcDbLine
 10
133.157872601455
 20
227.1069120161014
 30
0.0
 11
132.9578726014547
 21
227.1069120161014
 31
0.0
  0
ARC
  5
7042
330
1E
100
AcDbEntity
  8
製品
  6
Continuous
 62
     2
100
AcDbCircle
 10
132.9578726014547
 20
226.9069120161016
 30
0.0
 40
0.2
100
AcDbArc
 50
90.0
 51
180.0
  0
LINE
  5
7043
330
1E
100
AcDbEntity
  8
製品
  6
Continuous
 62
     2
100
AcDbLine
 10
132.7578726014549
 20
226.9069120161016
 30
0.0
 11
132.7578726014549
 21
226.6069120161014
 31
0.0
  0
LINE
  5
7044
330
1E
100
AcDbEntity
  8
製品
  6
Continuous
 62
     2
100
AcDbLine
 10
132.7578726014549
 20
226.6069120161014
 30
0.0
 11
132.657872601455
 21
226.6069120161014
 31
0.0
  0
LINE
  5
7045
330
1E
100
AcDbEntity
  8
製品
  6
Continuous
 62
     2
100
AcDbLine
 10
132.657872601455
 20
226.6069120161014
 30
0.0
 11
132.657872601455
 21
226.9069120161016
 31
0.0
  0
ARC
  5
7046
330
1E
100
AcDbEntity
  8
製品
  6
Continuous
 62
     2
100
AcDbCircle
 10
132.9578726014547
 20
226.9069120161016
 30
0.0
 40
0.3
100
AcDbArc
 50
90.0
 51
180.0
  0
LINE
  5
7047
330
1E
100
AcDbEntity
  8
製品
  6
Continuous
 62
     2
100
AcDbLine
 10
132.9578726014547
 20
227.2069120161013
 30
0.0
 11
133.157872601455
 21
227.2069120161013
 31
0.0
  0
ARC
  5
7048
330
1E
100
AcDbEntity
  8
製品
  6
Continuous
 62
     2
100
AcDbCircle
 10
133.157872601455
 20
226.9069120161016
 30
0.0
 40
0.3
100
AcDbArc
 50
0.0
 51
90.0
  0
LINE
  5
7049
330
1E
100
AcDbEntity
  8
製品
  6
Continuous
 62
     2
100
AcDbLine
 10
133.4578726014547
 20
222.8069120161017
 30
0.0
 11
133.4578726014547
 21
224.8889690161013
 31
0.0
  0
LINE
  5
704A
330
1E
100
AcDbEntity
  8
製品
  6
Continuous
 62
     2
100
AcDbLine
 10
133.3578726014548
 20
222.8069120161017
 30
0.0
 11
133.3578726014548
 21
224.8889690161013
 31
0.0
  0
LINE
  5
704B
330
1E
100
AcDbEntity
  8
製品
  6
Continuous
 62
     2
100
AcDbLine
 10
133.4578726014547
 20
224.8889690161013
 30
0.0
 11
133.4578726014547
 21
226.9069120161016
 31
0.0
  0
LINE
  5
704C
330
1E
100
AcDbEntity
  8
製品
  6
Continuous
 62
     2
100
AcDbLine
 10
133.3578726014548
 20
224.8889690161013
 30
0.0
 11
133.3578726014548
 21
226.9069120161016
 31
0.0
  0
ARC
  5
704D
330
1E
100
AcDbEntity
  8
製品
  6
Continuous
 62
     2
100
AcDbCircle
 10
133.157872601455
 20
226.9069120161016
 30
0.0
 40
0.2
100
AcDbArc
 50
0.0
 51
90.0
  0
LINE
  5
704E
330
1E
100
AcDbEntity
  8
製品
  6
Continuous
 62
     2
100
AcDbLine
 10
133.157872601455
 20
227.1069120161014
 30
0.0
 11
132.9578726014547
 21
227.1069120161014
 31
0.0
  0
ARC
  5
704F
330
1E
100
AcDbEntity
  8
製品
  6
Continuous
 62
     2
100
AcDbCircle
 10
132.9578726014547
 20
226.9069120161016
 30
0.0
 40
0.2
100
AcDbArc
 50
90.0
 51
180.0
  0
LINE
  5
7050
330
1E
100
AcDbEntity
  8
製品
  6
Continuous
 62
     2
100
AcDbLine
 10
132.2578726014549
 20
222.3069120161017
 30
0.0
 11
132.0578726014546
 21
222.4069120161016
 31
0.0
  0
LINE
  5
7051
330
1E
100
AcDbEntity
  8
製品
  6
Continuous
 62
     2
100
AcDbLine
 10
132.0578726014546
 20
222.4069120161016
 30
0.0
 11
131.7578726014549
 21
222.3069120161017
 31
0.0
  0
LINE
  5
7052
330
1E
100
AcDbEntity
  8
製品
  6
Continuous
 62
     2
100
AcDbLine
 10
131.7578726014549
 20
222.3069120161017
 30
0.0
 11
131.4578726014547
 21
222.4069120161016
 31
0.0
  0
LINE
  5
7053
330
1E
100
AcDbEntity
  8
製品
  6
Continuous
 62
     2
100
AcDbLine
 10
131.4578726014547
 20
222.4069120161016
 30
0.0
 11
131.157872601455
 21
222.3069120161017
 31
0.0
  0
LINE
  5
7054
330
1E
100
AcDbEntity
  8
製品
  6
Continuous
 62
     2
100
AcDbLine
 10
131.157872601455
 20
222.3069120161017
 30
0.0
 11
130.8578726014548
 21
222.4069120161016
 31
0.0
  0
LINE
  5
7055
330
1E
100
AcDbEntity
  8
製品
  6
Continuous
 62
     2
100
AcDbLine
 10
130.8578726014548
 20
222.4069120161016
 30
0.0
 11
130.5578726014546
 21
222.3069120161017
 31
0.0
  0
LINE
  5
7056
330
1E
100
AcDbEntity
  8
製品
  6
Continuous
 62
     2
100
AcDbLine
 10
132.2578726014549
 20
222.2069120161013
 30
0.0
 11
132.0578726014546
 21
222.3069120161017
 31
0.0
  0
LINE
  5
7057
330
1E
100
AcDbEntity
  8
製品
  6
Continuous
 62
     2
100
AcDbLine
 10
132.0578726014546
 20
222.3069120161017
 30
0.0
 11
131.7578726014549
 21
222.2069120161013
 31
0.0
  0
LINE
  5
7058
330
1E
100
AcDbEntity
  8
製品
  6
Continuous
 62
     2
100
AcDbLine
 10
131.7578726014549
 20
222.2069120161013
 30
0.0
 11
131.4578726014547
 21
222.3069120161017
 31
0.0
  0
LINE
  5
7059
330
1E
100
AcDbEntity
  8
製品
  6
Continuous
 62
     2
100
AcDbLine
 10
131.4578726014547
 20
222.3069120161017
 30
0.0
 11
131.157872601455
 21
222.2069120161013
 31
0.0
  0
LINE
  5
705A
330
1E
100
AcDbEntity
  8
製品
  6
Continuous
 62
     2
100
AcDbLine
 10
131.157872601455
 20
222.2069120161013
 30
0.0
 11
130.8578726014548
 21
222.3069120161017
 31
0.0
  0
LINE
  5
705B
330
1E
100
AcDbEntity
  8
製品
  6
Continuous
 62
     2
100
AcDbLine
 10
130.8578726014548
 20
222.3069120161017
 30
0.0
 11
130.5578726014546
 21
222.2069120161013
 31
0.0
  0
LINE
  5
705C
330
1E
100
AcDbEntity
  8
製品
  6
Continuous
 62
     3
100
AcDbLine
 10
132.2578726014549
 20
231.7669120161013
 30
0.0
 11
132.2578726014549
 21
226.4069120161016
 31
0.0
  0
LINE
  5
705D
330
1E
100
AcDbEntity
  8
製品
  6
Continuous
 62
     3
100
AcDbLine
 10
133.4578726014547
 20
232.4069120161016
 30
0.0
 11
133.4578726014547
 21
237.2069120161013
 31
0.0
  0
LINE
  5
705E
330
1E
100
AcDbEntity
  8
製品
  6
Continuous
 62
     3
100
AcDbLine
 10
128.9232496014547
 20
237.6069120161014
 30
0.0
 11
127.7232496014549
 21
237.6069120161014
 31
0.0
  0
LINE
  5
705F
330
1E
100
AcDbEntity
  8
製品
  6
Continuous
 62
     3
100
AcDbLine
 10
127.7232496014549
 20
237.6069120161014
 30
0.0
 11
127.1732496014547
 21
236.6069120161014
 31
0.0
  0
LINE
  5
7060
330
1E
100
AcDbEntity
  8
製品
  6
Continuous
 62
     3
100
AcDbLine
 10
127.1732496014547
 20
236.6069120161014
 30
0.0
 11
127.7232496014549
 21
235.6069120161014
 31
0.0
  0
LINE
  5
7061
330
1E
100
AcDbEntity
  8
製品
  6
Continuous
 62
     3
100
AcDbLine
 10
127.7232496014549
 20
235.6069120161014
 30
0.0
 11
128.9232496014547
 21
235.6069120161014
 31
0.0
  0
LINE
  5
7062
330
1E
100
AcDbEntity
  8
製品
  6
Continuous
 62
     3
100
AcDbLine
 10
128.9232496014547
 20
235.6069120161014
 30
0.0
 11
129.4732496014548
 21
236.6069120161014
 31
0.0
  0
LINE
  5
7063
330
1E
100
AcDbEntity
  8
製品
  6
Continuous
 62
     3
100
AcDbLine
 10
129.4732496014548
 20
236.6069120161014
 30
0.0
 11
128.9232496014547
 21
237.6069120161014
 31
0.0
  0
CIRCLE
  5
7064
330
1E
100
AcDbEntity
  8
製品
  6
Continuous
 62
     3
100
AcDbCircle
 10
128.3232496014548
 20
236.6069120161014
 30
0.0
 40
1.0
  0
LINE
  5
7065
330
1E
100
AcDbEntity
  8
製品
  6
Continuous
 62
     3
100
AcDbLine
 10
128.2232496014549
 20
237.3869120161016
 30
0.0
 11
128.4232496014547
 21
237.3869120161016
 31
0.0
  0
LINE
  5
7066
330
1E
100
AcDbEntity
  8
製品
  6
Continuous
 62
     3
100
AcDbLine
 10
128.4232496014547
 20
237.3869120161016
 30
0.0
 11
128.4232496014547
 21
237.0069120161015
 31
0.0
  0
ARC
  5
7067
330
1E
100
AcDbEntity
  8
製品
  6
Continuous
 62
     3
100
AcDbCircle
 10
127.9232496014547
 20
237.0069120161015
 30
0.0
 40
0.3
100
AcDbArc
 50
270.0
 51
0.0
  0
LINE
  5
7068
330
1E
100
AcDbEntity
  8
製品
  6
Continuous
 62
     3
100
AcDbLine
 10
128.2232496014549
 20
237.3869120161016
 30
0.0
 11
128.2232496014549
 21
237.0069120161015
 31
0.0
  0
LINE
  5
7069
330
1E
100
AcDbEntity
  8
製品
  6
Continuous
 62
     3
100
AcDbLine
 10
127.5632496014545
 20
236.7069120161013
 30
0.0
 11
127.9232496014547
 21
236.7069120161013
 31
0.0
  0
LINE
  5
706A
330
1E
100
AcDbEntity
  8
製品
  6
Continuous
 62
     3
100
AcDbLine
 10
129.0832496014545
 20
236.7069120161013
 30
0.0
 11
129.0832496014545
 21
236.5069120161015
 31
0.0
  0
ARC
  5
706B
330
1E
100
AcDbEntity
  8
製品
  6
Continuous
 62
     3
100
AcDbCircle
 10
128.7232496014549
 20
237.0069120161015
 30
0.0
 40
0.3
100
AcDbArc
 50
180.0
 51
270.0
  0
LINE
  5
706C
330
1E
100
AcDbEntity
  8
製品
  6
Continuous
 62
     3
100
AcDbLine
 10
129.0832496014545
 20
236.7069120161013
 30
0.0
 11
128.7232496014549
 21
236.7069120161013
 31
0.0
  0
LINE
  5
706D
330
1E
100
AcDbEntity
  8
製品
  6
Continuous
 62
     3
100
AcDbLine
 10
128.2232496014549
 20
235.7769120161015
 30
0.0
 11
128.4232496014547
 21
235.7769120161015
 31
0.0
  0
LINE
  5
706E
330
1E
100
AcDbEntity
  8
製品
  6
Continuous
 62
     3
100
AcDbLine
 10
128.4232496014547
 20
235.8269120161017
 30
0.0
 11
128.4232496014547
 21
236.2069120161014
 31
0.0
  0
ARC
  5
706F
330
1E
100
AcDbEntity
  8
製品
  6
Continuous
 62
     3
100
AcDbCircle
 10
127.9232496014547
 20
236.2069120161014
 30
0.0
 40
0.3
100
AcDbArc
 50
0.0
 51
90.0
  0
LINE
  5
7070
330
1E
100
AcDbEntity
  8
製品
  6
Continuous
 62
     3
100
AcDbLine
 10
128.2232496014549
 20
235.8269120161017
 30
0.0
 11
128.2232496014549
 21
236.2069120161014
 31
0.0
  0
LINE
  5
7071
330
1E
100
AcDbEntity
  8
製品
  6
Continuous
 62
     3
100
AcDbLine
 10
127.5632496014545
 20
236.5069120161015
 30
0.0
 11
127.9232496014547
 21
236.5069120161015
 31
0.0
  0
ARC
  5
7072
330
1E
100
AcDbEntity
  8
製品
  6
Continuous
 62
     3
100
AcDbCircle
 10
128.7232496014549
 20
236.2069120161014
 30
0.0
 40
0.3
100
AcDbArc
 50
90.0
 51
180.0
  0
LINE
  5
7073
330
1E
100
AcDbEntity
  8
製品
  6
Continuous
 62
     3
100
AcDbLine
 10
129.0832496014545
 20
236.5069120161015
 30
0.0
 11
128.7232496014549
 21
236.5069120161015
 31
0.0
  0
LINE
  5
7074
330
1E
100
AcDbEntity
  8
製品
  6
Continuous
 62
     3
100
AcDbLine
 10
128.2232496014549
 20
235.8269120161017
 30
0.0
 11
128.4232496014547
 21
235.8269120161017
 31
0.0
  0
LINE
  5
7075
330
1E
100
AcDbEntity
  8
製品
  6
Continuous
 62
     3
100
AcDbLine
 10
127.5632496014545
 20
236.7069120161013
 30
0.0
 11
127.5632496014545
 21
236.5069120161015
 31
0.0
  0
ARC
  5
7076
330
1E
100
AcDbEntity
  8
製品
  6
Continuous
 62
     3
100
AcDbCircle
 10
124.4578726014547
 20
237.2069120161013
 30
0.0
 40
1.0
100
AcDbArc
 50
90.0
 51
180.0
  0
CIRCLE
  5
7077
330
1E
100
AcDbEntity
  8
図面枠
  6
Continuous
 62
     3
100
AcDbCircle
 10
119.0470706014548
 20
233.0427550161016
 30
0.0
 40
0.3
  0
LINE
  5
7078
330
1E
100
AcDbEntity
  8
製品
  6
Continuous
 62
     4
100
AcDbLine
 10
115.200916601455
 20
234.0069120161015
 30
0.0
 11
123.4578726014547
 21
234.0069120161015
 31
0.0
  0
LINE
  5
7079
330
1E
100
AcDbEntity
  8
製品
  6
Continuous
 62
     4
100
AcDbLine
 10
115.200916601455
 20
234.8069120161017
 30
0.0
 11
123.4578726014547
 21
234.8069120161017
 31
0.0
  0
ARC
  5
707A
330
1E
100
AcDbEntity
  8
製品
  6
Continuous
 62
     3
100
AcDbCircle
 10
124.0178726014546
 20
231.7669120161013
 30
0.0
 40
0.6400000000000001
100
AcDbArc
 50
0.0
 51
90.0
  0
LINE
  5
707B
330
1E
100
AcDbEntity
  8
製品
  6
Continuous
 62
     3
100
AcDbLine
 10
124.0178726014546
 20
232.4069120161016
 30
0.0
 11
123.4578726014547
 21
232.4069120161016
 31
0.0
  0
LINE
  5
707C
330
1E
100
AcDbEntity
  8
製品
  6
Continuous
 62
     2
100
AcDbLine
 10
129.657872601455
 20
222.3069120161017
 30
0.0
 11
129.4578726014547
 21
222.2069120161013
 31
0.0
  0
LINE
  5
707D
330
1E
100
AcDbEntity
  8
製品
  6
Continuous
 62
     2
100
AcDbLine
 10
129.4578726014547
 20
222.2069120161013
 30
0.0
 11
128.657872601455
 21
222.2069120161013
 31
0.0
  0
LINE
  5
707E
330
1E
100
AcDbEntity
  8
製品
  6
Continuous
 62
     2
100
AcDbLine
 10
128.657872601455
 20
222.2069120161013
 30
0.0
 11
128.4578726014547
 21
222.3069120161017
 31
0.0
  0
LINE
  5
707F
330
1E
100
AcDbEntity
  8
製品
  6
Continuous
 62
     2
100
AcDbLine
 10
127.4578726014547
 20
222.3069120161017
 30
0.0
 11
128.2578726014549
 21
222.3069120161017
 31
0.0
  0
LINE
  5
7080
330
1E
100
AcDbEntity
  8
製品
  6
Continuous
 62
     2
100
AcDbLine
 10
128.2578726014549
 20
222.3069120161017
 30
0.0
 11
128.4578726014547
 21
222.4069120161016
 31
0.0
  0
LINE
  5
7081
330
1E
100
AcDbEntity
  8
製品
  6
Continuous
 62
     2
100
AcDbLine
 10
127.4578726014547
 20
222.2069120161013
 30
0.0
 11
128.2578726014549
 21
222.2069120161013
 31
0.0
  0
LINE
  5
7082
330
1E
100
AcDbEntity
  8
製品
  6
Continuous
 62
     2
100
AcDbLine
 10
128.2578726014549
 20
222.2069120161013
 30
0.0
 11
128.4578726014547
 21
222.3069120161017
 31
0.0
  0
LINE
  5
7083
330
1E
100
AcDbEntity
  8
製品
  6
Continuous
 62
     2
100
AcDbLine
 10
127.4578726014547
 20
222.3069120161017
 30
0.0
 11
127.2578726014549
 21
222.4069120161016
 31
0.0
  0
LINE
  5
7084
330
1E
100
AcDbEntity
  8
製品
  6
Continuous
 62
     2
100
AcDbLine
 10
127.2578726014549
 20
222.4069120161016
 30
0.0
 11
126.9578726014547
 21
222.3069120161017
 31
0.0
  0
LINE
  5
7085
330
1E
100
AcDbEntity
  8
製品
  6
Continuous
 62
     2
100
AcDbLine
 10
126.9578726014547
 20
222.3069120161017
 30
0.0
 11
126.657872601455
 21
222.4069120161016
 31
0.0
  0
LINE
  5
7086
330
1E
100
AcDbEntity
  8
製品
  6
Continuous
 62
     2
100
AcDbLine
 10
127.4578726014547
 20
222.2069120161013
 30
0.0
 11
127.2578726014549
 21
222.3069120161017
 31
0.0
  0
LINE
  5
7087
330
1E
100
AcDbEntity
  8
製品
  6
Continuous
 62
     2
100
AcDbLine
 10
127.2578726014549
 20
222.3069120161017
 30
0.0
 11
126.9578726014547
 21
222.2069120161013
 31
0.0
  0
LINE
  5
7088
330
1E
100
AcDbEntity
  8
製品
  6
Continuous
 62
     2
100
AcDbLine
 10
126.9578726014547
 20
222.2069120161013
 30
0.0
 11
126.657872601455
 21
222.3069120161017
 31
0.0
  0
LINE
  5
7089
330
1E
100
AcDbEntity
  8
製品
  6
Continuous
 62
     2
100
AcDbLine
 10
130.2578726014549
 20
222.4069120161016
 30
0.0
 11
129.9578726014547
 21
222.3069120161017
 31
0.0
  0
LINE
  5
708A
330
1E
100
AcDbEntity
  8
製品
  6
Continuous
 62
     2
100
AcDbLine
 10
129.9578726014547
 20
222.3069120161017
 30
0.0
 11
129.657872601455
 21
222.4069120161016
 31
0.0
  0
LINE
  5
708B
330
1E
100
AcDbEntity
  8
製品
  6
Continuous
 62
     2
100
AcDbLine
 10
129.657872601455
 20
222.4069120161016
 30
0.0
 11
129.4578726014547
 21
222.3069120161017
 31
0.0
  0
LINE
  5
708C
330
1E
100
AcDbEntity
  8
製品
  6
Continuous
 62
     2
100
AcDbLine
 10
129.4578726014547
 20
222.3069120161017
 30
0.0
 11
128.657872601455
 21
222.3069120161017
 31
0.0
  0
LINE
  5
708D
330
1E
100
AcDbEntity
  8
製品
  6
Continuous
 62
     2
100
AcDbLine
 10
128.657872601455
 20
222.3069120161017
 30
0.0
 11
128.4578726014547
 21
222.4069120161016
 31
0.0
  0
LINE
  5
708E
330
1E
100
AcDbEntity
  8
製品
  6
Continuous
 62
     2
100
AcDbLine
 10
130.2578726014549
 20
222.3069120161017
 30
0.0
 11
129.9578726014547
 21
222.2069120161013
 31
0.0
  0
LINE
  5
708F
330
1E
100
AcDbEntity
  8
製品
  6
Continuous
 62
     2
100
AcDbLine
 10
129.9578726014547
 20
222.2069120161013
 30
0.0
 11
129.657872601455
 21
222.3069120161017
 31
0.0
  0
ARC
  5
7090
330
1E
100
AcDbEntity
  8
製品
  6
Continuous
 62
     3
100
AcDbCircle
 10
124.3778726014548
 20
226.7269120161013
 30
0.0
 40
0.6400000000000001
100
AcDbArc
 50
180.0
 51
270.0
  0
LINE
  5
7091
330
1E
100
AcDbEntity
  8
製品
  6
Continuous
 62
     3
100
AcDbLine
 10
123.7378726014549
 20
226.7269120161013
 30
0.0
 11
123.7378726014549
 21
227.1059100161015
 31
0.0
  0
LINE
  5
7092
330
1E
100
AcDbEntity
  8
製品
  6
Continuous
 62
     3
100
AcDbLine
 10
123.7378726014549
 20
227.1059100161015
 30
0.0
 11
124.0578726014546
 21
227.0801170161017
 31
0.0
  0
LINE
  5
7093
330
1E
100
AcDbEntity
  8
製品
  6
Continuous
 62
     3
100
AcDbLine
 10
124.0578726014546
 20
227.0801170161017
 30
0.0
 11
124.0578726014546
 21
226.7269120161013
 31
0.0
  0
ARC
  5
7094
330
1E
100
AcDbEntity
  8
製品
  6
Continuous
 62
     3
100
AcDbCircle
 10
124.3778726014548
 20
226.7269120161013
 30
0.0
 40
0.32
100
AcDbArc
 50
180.0
 51
270.0
  0
ARC
  5
7095
330
1E
100
AcDbEntity
  8
製品
  6
Continuous
 62
     2
100
AcDbCircle
 10
123.7578726014549
 20
226.9069120161016
 30
0.0
 40
0.2
100
AcDbArc
 50
90.0
 51
180.0
  0
LINE
  5
7096
330
1E
100
AcDbEntity
  8
製品
  6
Continuous
 62
     2
100
AcDbLine
 10
123.7578726014549
 20
227.1069120161014
 30
0.0
 11
123.9578726014547
 21
227.1069120161014
 31
0.0
  0
ARC
  5
7097
330
1E
100
AcDbEntity
  8
製品
  6
Continuous
 62
     2
100
AcDbCircle
 10
123.9578726014547
 20
226.9069120161016
 30
0.0
 40
0.2
100
AcDbArc
 50
0.0
 51
90.0
  0
LINE
  5
7098
330
1E
100
AcDbEntity
  8
製品
  6
Continuous
 62
     2
100
AcDbLine
 10
124.157872601455
 20
226.9069120161016
 30
0.0
 11
124.157872601455
 21
226.6069120161014
 31
0.0
  0
LINE
  5
7099
330
1E
100
AcDbEntity
  8
製品
  6
Continuous
 62
     2
100
AcDbLine
 10
124.157872601455
 20
226.6069120161014
 30
0.0
 11
124.2578726014549
 21
226.6069120161014
 31
0.0
  0
LINE
  5
709A
330
1E
100
AcDbEntity
  8
製品
  6
Continuous
 62
     2
100
AcDbLine
 10
124.2578726014549
 20
226.6069120161014
 30
0.0
 11
124.2578726014549
 21
226.9069120161016
 31
0.0
  0
ARC
  5
709B
330
1E
100
AcDbEntity
  8
製品
  6
Continuous
 62
     2
100
AcDbCircle
 10
123.9578726014547
 20
226.9069120161016
 30
0.0
 40
0.3
100
AcDbArc
 50
0.0
 51
90.0
  0
LINE
  5
709C
330
1E
100
AcDbEntity
  8
製品
  6
Continuous
 62
     2
100
AcDbLine
 10
123.9578726014547
 20
227.2069120161013
 30
0.0
 11
123.7578726014549
 21
227.2069120161013
 31
0.0
  0
ARC
  5
709D
330
1E
100
AcDbEntity
  8
製品
  6
Continuous
 62
     2
100
AcDbCircle
 10
123.7578726014549
 20
226.9069120161016
 30
0.0
 40
0.3
100
AcDbArc
 50
90.0
 51
180.0
  0
LINE
  5
709E
330
1E
100
AcDbEntity
  8
製品
  6
Continuous
 62
     2
100
AcDbLine
 10
123.5578726014546
 20
222.8069120161017
 30
0.0
 11
123.5578726014546
 21
224.8889690161013
 31
0.0
  0
LINE
  5
709F
330
1E
100
AcDbEntity
  8
製品
  6
Continuous
 62
     2
100
AcDbLine
 10
123.4578726014547
 20
222.8069120161017
 30
0.0
 11
123.4578726014547
 21
224.8889690161013
 31
0.0
  0
LINE
  5
70A0
330
1E
100
AcDbEntity
  8
製品
  6
Continuous
 62
     2
100
AcDbLine
 10
123.4578726014547
 20
224.8889690161013
 30
0.0
 11
123.4578726014547
 21
226.9069120161016
 31
0.0
  0
LINE
  5
70A1
330
1E
100
AcDbEntity
  8
製品
  6
Continuous
 62
     2
100
AcDbLine
 10
123.5578726014546
 20
224.8889690161013
 30
0.0
 11
123.5578726014546
 21
226.9069120161016
 31
0.0
  0
ARC
  5
70A2
330
1E
100
AcDbEntity
  8
製品
  6
Continuous
 62
     2
100
AcDbCircle
 10
123.7578726014549
 20
226.9069120161016
 30
0.0
 40
0.2
100
AcDbArc
 50
90.0
 51
180.0
  0
LINE
  5
70A3
330
1E
100
AcDbEntity
  8
製品
  6
Continuous
 62
     2
100
AcDbLine
 10
123.7578726014549
 20
227.1069120161014
 30
0.0
 11
123.9578726014547
 21
227.1069120161014
 31
0.0
  0
ARC
  5
70A4
330
1E
100
AcDbEntity
  8
製品
  6
Continuous
 62
     2
100
AcDbCircle
 10
123.9578726014547
 20
226.9069120161016
 30
0.0
 40
0.2
100
AcDbArc
 50
0.0
 51
90.0
  0
LINE
  5
70A5
330
1E
100
AcDbEntity
  8
製品
  6
Continuous
 62
     2
100
AcDbLine
 10
124.157872601455
 20
226.9069120161016
 30
0.0
 11
124.157872601455
 21
226.6069120161014
 31
0.0
  0
LINE
  5
70A6
330
1E
100
AcDbEntity
  8
製品
  6
Continuous
 62
     2
100
AcDbLine
 10
124.157872601455
 20
226.6069120161014
 30
0.0
 11
124.2578726014549
 21
226.6069120161014
 31
0.0
  0
LINE
  5
70A7
330
1E
100
AcDbEntity
  8
製品
  6
Continuous
 62
     2
100
AcDbLine
 10
124.2578726014549
 20
226.6069120161014
 30
0.0
 11
124.2578726014549
 21
226.9069120161016
 31
0.0
  0
ARC
  5
70A8
330
1E
100
AcDbEntity
  8
製品
  6
Continuous
 62
     2
100
AcDbCircle
 10
123.9578726014547
 20
226.9069120161016
 30
0.0
 40
0.3
100
AcDbArc
 50
0.0
 51
90.0
  0
LINE
  5
70A9
330
1E
100
AcDbEntity
  8
製品
  6
Continuous
 62
     2
100
AcDbLine
 10
123.9578726014547
 20
227.2069120161013
 30
0.0
 11
123.7578726014549
 21
227.2069120161013
 31
0.0
  0
ARC
  5
70AA
330
1E
100
AcDbEntity
  8
製品
  6
Continuous
 62
     2
100
AcDbCircle
 10
123.7578726014549
 20
226.9069120161016
 30
0.0
 40
0.3
100
AcDbArc
 50
90.0
 51
180.0
  0
LINE
  5
70AB
330
1E
100
AcDbEntity
  8
製品
  6
Continuous
 62
     2
100
AcDbLine
 10
124.0578726014546
 20
222.2069120161013
 30
0.0
 11
124.6578726014549
 21
222.2069120161013
 31
0.0
  0
LINE
  5
70AC
330
1E
100
AcDbEntity
  8
製品
  6
Continuous
 62
     2
100
AcDbLine
 10
124.0578726014546
 20
222.3069120161017
 30
0.0
 11
124.6578726014549
 21
222.3069120161017
 31
0.0
  0
ARC
  5
70AD
330
1E
100
AcDbEntity
  8
製品
  6
Continuous
 62
     2
100
AcDbCircle
 10
124.0578726014546
 20
222.8069120161017
 30
0.0
 40
0.5
100
AcDbArc
 50
180.0
 51
270.0
  0
LINE
  5
70AE
330
1E
100
AcDbEntity
  8
製品
  6
Continuous
 62
     2
100
AcDbLine
 10
126.3578726014548
 20
222.3069120161017
 30
0.0
 11
126.0578726014546
 21
222.4069120161016
 31
0.0
  0
LINE
  5
70AF
330
1E
100
AcDbEntity
  8
製品
  6
Continuous
 62
     2
100
AcDbLine
 10
126.0578726014546
 20
222.4069120161016
 30
0.0
 11
125.7578726014549
 21
222.3069120161017
 31
0.0
  0
LINE
  5
70B0
330
1E
100
AcDbEntity
  8
製品
  6
Continuous
 62
     2
100
AcDbLine
 10
125.7578726014549
 20
222.3069120161017
 30
0.0
 11
125.4578726014547
 21
222.4069120161016
 31
0.0
  0
LINE
  5
70B1
330
1E
100
AcDbEntity
  8
製品
  6
Continuous
 62
     2
100
AcDbLine
 10
125.4578726014547
 20
222.4069120161016
 30
0.0
 11
125.157872601455
 21
222.3069120161017
 31
0.0
  0
LINE
  5
70B2
330
1E
100
AcDbEntity
  8
製品
  6
Continuous
 62
     2
100
AcDbLine
 10
125.157872601455
 20
222.3069120161017
 30
0.0
 11
124.8578726014548
 21
222.4069120161016
 31
0.0
  0
LINE
  5
70B3
330
1E
100
AcDbEntity
  8
製品
  6
Continuous
 62
     2
100
AcDbLine
 10
124.8578726014548
 20
222.4069120161016
 30
0.0
 11
124.6578726014549
 21
222.3069120161017
 31
0.0
  0
LINE
  5
70B4
330
1E
100
AcDbEntity
  8
製品
  6
Continuous
 62
     2
100
AcDbLine
 10
126.3578726014548
 20
222.2069120161013
 30
0.0
 11
126.0578726014546
 21
222.3069120161017
 31
0.0
  0
LINE
  5
70B5
330
1E
100
AcDbEntity
  8
製品
  6
Continuous
 62
     2
100
AcDbLine
 10
126.0578726014546
 20
222.3069120161017
 30
0.0
 11
125.7578726014549
 21
222.2069120161013
 31
0.0
  0
LINE
  5
70B6
330
1E
100
AcDbEntity
  8
製品
  6
Continuous
 62
     2
100
AcDbLine
 10
125.7578726014549
 20
222.2069120161013
 30
0.0
 11
125.4578726014547
 21
222.3069120161017
 31
0.0
  0
LINE
  5
70B7
330
1E
100
AcDbEntity
  8
製品
  6
Continuous
 62
     2
100
AcDbLine
 10
125.4578726014547
 20
222.3069120161017
 30
0.0
 11
125.157872601455
 21
222.2069120161013
 31
0.0
  0
LINE
  5
70B8
330
1E
100
AcDbEntity
  8
製品
  6
Continuous
 62
     2
100
AcDbLine
 10
125.157872601455
 20
222.2069120161013
 30
0.0
 11
124.8578726014548
 21
222.3069120161017
 31
0.0
  0
LINE
  5
70B9
330
1E
100
AcDbEntity
  8
製品
  6
Continuous
 62
     2
100
AcDbLine
 10
124.8578726014548
 20
222.3069120161017
 30
0.0
 11
124.6578726014549
 21
222.2069120161013
 31
0.0
  0
LINE
  5
70BA
330
1E
100
AcDbEntity
  8
製品
  6
Continuous
 62
     2
100
AcDbLine
 10
126.657872601455
 20
222.4069120161016
 30
0.0
 11
126.3578726014548
 21
222.3069120161017
 31
0.0
  0
LINE
  5
70BB
330
1E
100
AcDbEntity
  8
製品
  6
Continuous
 62
     2
100
AcDbLine
 10
126.657872601455
 20
222.3069120161017
 30
0.0
 11
126.3578726014548
 21
222.2069120161013
 31
0.0
  0
LINE
  5
70BC
330
1E
100
AcDbEntity
  8
製品
  6
Continuous
 62
     3
100
AcDbLine
 10
124.6578726014549
 20
226.4069120161016
 30
0.0
 11
124.6578726014549
 21
231.7669120161013
 31
0.0
  0
ARC
  5
70BD
330
1E
100
AcDbEntity
  8
製品
  6
Continuous
 62
     3
100
AcDbCircle
 10
116.0009166014547
 20
231.0069120161015
 30
0.0
 40
1.0
100
AcDbArc
 50
323.1301020000044
 51
36.86989799999558
  0
ARC
  5
70BE
330
1E
100
AcDbEntity
  8
製品
  6
Continuous
 62
     3
100
AcDbCircle
 10
116.8009166014549
 20
230.2069120161013
 30
0.0
 40
0.2
100
AcDbArc
 50
270.0
 51
90.0
  0
LINE
  5
70BF
330
1E
100
AcDbEntity
  8
製品
  6
Continuous
 62
     3
100
AcDbLine
 10
116.0009166014547
 20
231.6069120161014
 30
0.0
 11
116.8009166014549
 21
231.6069120161014
 31
0.0
  0
LINE
  5
70C0
330
1E
100
AcDbEntity
  8
製品
  6
Continuous
 62
     3
100
AcDbLine
 10
116.0009166014547
 20
230.4069120161016
 30
0.0
 11
116.8009166014549
 21
230.4069120161016
 31
0.0
  0
LINE
  5
70C1
330
1E
100
AcDbEntity
  8
製品
  6
Continuous
 62
     3
100
AcDbLine
 10
116.8009166014549
 20
230.0069120161015
 30
0.0
 11
116.0009166014547
 21
230.0069120161015
 31
0.0
  0
LINE
  5
70C2
330
1E
100
AcDbEntity
  8
製品
  6
Continuous
 62
     3
100
AcDbLine
 10
117.0009166014547
 20
231.8069120161017
 30
0.0
 11
117.0009166014547
 21
230.2069120161013
 31
0.0
  0
LINE
  5
70C3
330
1E
100
AcDbEntity
  8
製品
  6
Continuous
 62
     3
100
AcDbLine
 10
116.0009166014547
 20
232.0069120161015
 30
0.0
 11
116.8009166014549
 21
232.0069120161015
 31
0.0
  0
LINE
  5
70C4
330
1E
100
AcDbEntity
  8
製品
  6
Continuous
 62
     3
100
AcDbLine
 10
116.0009166014547
 20
231.6069120161014
 30
0.0
 11
116.0009166014547
 21
232.0069120161015
 31
0.0
  0
LINE
  5
70C5
330
1E
100
AcDbEntity
  8
製品
  6
Continuous
 62
     3
100
AcDbLine
 10
116.0009166014547
 20
230.0069120161015
 30
0.0
 11
116.0009166014547
 21
230.4069120161016
 31
0.0
  0
LINE
  5
70C6
330
1E
100
AcDbEntity
  8
製品
  6
Continuous
 62
     3
100
AcDbLine
 10
116.0009166014547
 20
231.6069120161014
 30
0.0
 11
116.0009166014547
 21
230.4069120161016
 31
0.0
  0
ARC
  5
70C7
330
1E
100
AcDbEntity
  8
製品
  6
Continuous
 62
     3
100
AcDbCircle
 10
116.8009166014549
 20
231.8069120161017
 30
0.0
 40
0.2
100
AcDbArc
 50
270.0
 51
90.0
  0
LINE
  5
70C8
330
1E
100
AcDbEntity
  8
製品
  6
Continuous
 62
     4
100
AcDbLine
 10
123.4578726014547
 20
228.0069120161015
 30
0.0
 11
115.200916601455
 21
228.0069120161015
 31
0.0
  0
LINE
  5
70C9
330
1E
100
AcDbEntity
  8
製品
  6
Continuous
 62
     4
100
AcDbLine
 10
124.6578726014549
 20
227.2069120161013
 30
0.0
 11
115.200916601455
 21
227.2069120161013
 31
0.0
  0
LINE
  5
70CA
330
1E
100
AcDbEntity
  8
製品
  6
Continuous
 62
     4
100
AcDbLine
 10
123.4578726014547
 20
234.0069120161015
 30
0.0
 11
123.4578726014547
 21
228.0069120161015
 31
0.0
  0
LINE
  5
70CB
330
1E
100
AcDbEntity
  8
製品
  6
Continuous
 62
     4
100
AcDbLine
 10
115.200916601455
 20
228.0069120161015
 30
0.0
 11
115.200916601455
 21
234.0069120161015
 31
0.0
  0
LINE
  5
70CC
330
1E
100
AcDbEntity
  8
製品
  6
Continuous
 62
     4
100
AcDbLine
 10
116.0009166014547
 20
234.0069120161015
 30
0.0
 11
116.0009166014547
 21
228.0069120161015
 31
0.0
  0
LINE
  5
70CD
330
1E
100
AcDbEntity
  8
製品
  6
Continuous
 62
     3
100
AcDbLine
 10
123.4578726014547
 20
232.4069120161016
 30
0.0
 11
123.4578726014547
 21
237.2069120161013
 31
0.0
  0
LINE
  5
70CE
330
1E
100
AcDbEntity
  8
製品
  6
Continuous
 62
     3
100
AcDbLine
 10
132.5378726014546
 20
226.0869120161014
 30
0.0
 11
124.3778726014548
 21
226.0869120161014
 31
0.0
  0
LINE
  5
70CF
330
1E
100
AcDbEntity
  8
製品
  6
Continuous
 62
     3
100
AcDbLine
 10
124.3778726014548
 20
226.4069120161016
 30
0.0
 11
132.2578726014549
 21
226.4069120161016
 31
0.0
  0
LINE
  5
70D0
330
1E
100
AcDbEntity
  8
製品
  6
Continuous
 62
     2
100
AcDbLine
 10
130.5578726014546
 20
222.3069120161017
 30
0.0
 11
130.2578726014549
 21
222.4069120161016
 31
0.0
  0
LINE
  5
70D1
330
1E
100
AcDbEntity
  8
製品
  6
Continuous
 62
     2
100
AcDbLine
 10
130.5578726014546
 20
222.2069120161013
 30
0.0
 11
130.2578726014549
 21
222.3069120161017
 31
0.0
  0
LINE
  5
70D2
330
1E
100
AcDbEntity
  8
製品
  6
Continuous
 62
     3
100
AcDbLine
 10
124.4578726014547
 20
238.2069120161014
 30
0.0
 11
132.4578726014547
 21
238.2069120161014
 31
0.0
  0
LINE
  5
70D3
330
1E
100
AcDbEntity
  8
製品
  6
Continuous
 62
     3
100
AcDbLine
 10
123.4578726014547
 20
235.2069120161013
 30
0.0
 11
133.4578726014547
 21
235.2069120161013
 31
0.0
  0
LINE
  5
70D4
330
1E
100
AcDbEntity
  8
図面枠
  6
Continuous
 62
     3
100
AcDbLine
 10
119.0470706014548
 20
233.0427550161016
 30
0.0
 11
127.5577086014546
 21
246.0542120161017
 31
0.0
  0
ARC
  5
70D5
330
1E
100
AcDbEntity
  8
製品
  6
Continuous
 62
     2
100
AcDbCircle
 10
132.8578726014548
 20
222.8069120161017
 30
0.0
 40
0.6
100
AcDbArc
 50
270.0
 51
0.0
  0
ARC
  5
70D6
330
1E
100
AcDbEntity
  8
製品
  6
Continuous
 62
     2
100
AcDbCircle
 10
124.0578726014546
 20
222.8069120161017
 30
0.0
 40
0.6
100
AcDbArc
 50
180.0
 51
270.0
  0
LINE
  5
70D7
330
1E
100
AcDbEntity
  8
図面枠
  6
Continuous
 62
     3
100
AcDbLine
 10
160.9455976014546
 20
245.0722150161014
 30
0.0
 11
170.4480466014547
 21
254.1468740161017
 31
0.0
  0
LINE
  5
70D8
330
1E
100
AcDbEntity
  8
製品
  6
PLINE2
 62
     4
100
AcDbLine
 10
157.6478726014547
 20
249.1069120161014
 30
0.0
 11
157.6478726014547
 21
248.7069120161014
 31
0.0
  0
LINE
  5
70D9
330
1E
100
AcDbEntity
  8
製品
  6
PLINE2
 62
     4
100
AcDbLine
 10
159.8678726014545
 20
249.1069120161014
 30
0.0
 11
159.8678726014545
 21
248.7069120161014
 31
0.0
  0
ARC
  5
70DA
330
1E
100
AcDbEntity
  8
製品
  6
Continuous
 62
     4
100
AcDbCircle
 10
158.7578726014549
 20
249.3029120161013
 30
0.0
 40
1.371999999999999
100
AcDbArc
 50
45.4872319999975
 51
134.5127680000024
  0
LINE
  5
70DB
330
1E
100
AcDbEntity
  8
製品
  6
Continuous
 62
     4
100
AcDbLine
 10
160.6816036014547
 20
249.1069120161014
 30
0.0
 11
160.6816036014547
 21
250.2812780161016
 31
0.0
  0
LINE
  5
70DC
330
1E
100
AcDbEntity
  8
製品
  6
Continuous
 62
     4
100
AcDbLine
 10
160.2006706014549
 20
250.6749120161016
 30
0.0
 11
157.3150746014548
 21
250.6749120161016
 31
0.0
  0
ARC
  5
70DD
330
1E
100
AcDbEntity
  8
製品
  6
Continuous
 62
     4
100
AcDbCircle
 10
160.2006706014549
 20
250.1842990161017
 30
0.0
 40
0.490613
100
AcDbArc
 50
11.40060199999222
 51
168.5993980000078
  0
LINE
  5
70DE
330
1E
100
AcDbEntity
  8
製品
  6
Continuous
 62
     4
100
AcDbLine
 10
157.7960066014548
 20
249.1069120161014
 30
0.0
 11
157.7960066014548
 21
250.2812780161016
 31
0.0
  0
LINE
  5
70DF
330
1E
100
AcDbEntity
  8
製品
  6
Continuous
 62
     4
100
AcDbLine
 10
159.7197376014546
 20
249.1069120161014
 30
0.0
 11
159.7197376014546
 21
250.2812780161016
 31
0.0
  0
LINE
  5
70E0
330
1E
100
AcDbEntity
  8
製品
  6
Continuous
 62
     4
100
AcDbLine
 10
156.8341416014545
 20
250.2812780161016
 30
0.0
 11
156.8341416014545
 21
249.1069120161014
 31
0.0
  0
LINE
  5
70E1
330
1E
100
AcDbEntity
  8
製品
  6
Continuous
 62
     4
100
AcDbLine
 10
156.8341416014545
 20
249.1069120161014
 30
0.0
 11
160.6816036014547
 21
249.1069120161014
 31
0.0
  0
ARC
  5
70E2
330
1E
100
AcDbEntity
  8
製品
  6
Continuous
 62
     4
100
AcDbCircle
 10
157.3150746014548
 20
250.1842990161017
 30
0.0
 40
0.490613
100
AcDbArc
 50
11.40060199999222
 51
168.5993980000078
  0
LINE
  5
70E3
330
1E
100
AcDbEntity
  8
製品
  6
Continuous
 62
     4
100
AcDbLine
 10
156.8341416014545
 20
248.7069120161014
 30
0.0
 11
160.6816036014547
 21
248.7069120161014
 31
0.0
  0
ARC
  5
70E4
330
1E
100
AcDbEntity
  8
製品
  6
Continuous
 62
     4
100
AcDbCircle
 10
158.7578726014549
 20
248.5109120161014
 30
0.0
 40
1.371999999999999
100
AcDbArc
 50
225.4872319999975
 51
314.5127680000025
  0
LINE
  5
70E5
330
1E
100
AcDbEntity
  8
製品
  6
Continuous
 62
     4
100
AcDbLine
 10
160.2006706014549
 20
247.1389120161016
 30
0.0
 11
157.3150746014548
 21
247.1389120161016
 31
0.0
  0
ARC
  5
70E6
330
1E
100
AcDbEntity
  8
製品
  6
Continuous
 62
     4
100
AcDbCircle
 10
160.2006706014549
 20
247.6295250161015
 30
0.0
 40
0.490613
100
AcDbArc
 50
191.4006019999922
 51
348.5993980000078
  0
ARC
  5
70E7
330
1E
100
AcDbEntity
  8
製品
  6
Continuous
 62
     4
100
AcDbCircle
 10
157.3150746014548
 20
247.6295250161015
 30
0.0
 40
0.490613
100
AcDbArc
 50
191.4006019999922
 51
348.5993980000078
  0
LINE
  5
70E8
330
1E
100
AcDbEntity
  8
製品
  6
Continuous
 62
     4
100
AcDbLine
 10
160.6816036014547
 20
248.7069120161014
 30
0.0
 11
160.6816036014547
 21
247.5325470161015
 31
0.0
  0
LINE
  5
70E9
330
1E
100
AcDbEntity
  8
製品
  6
Continuous
 62
     4
100
AcDbLine
 10
156.8341416014545
 20
247.5325470161015
 30
0.0
 11
156.8341416014545
 21
248.7069120161014
 31
0.0
  0
LINE
  5
70EA
330
1E
100
AcDbEntity
  8
製品
  6
Continuous
 62
     4
100
AcDbLine
 10
157.7960066014548
 20
248.7069120161014
 30
0.0
 11
157.7960066014548
 21
247.5325470161015
 31
0.0
  0
LINE
  5
70EB
330
1E
100
AcDbEntity
  8
製品
  6
Continuous
 62
     4
100
AcDbLine
 10
159.7197376014546
 20
248.7069120161014
 30
0.0
 11
159.7197376014546
 21
247.5325470161015
 31
0.0
  0
LINE
  5
70EC
330
1E
100
AcDbEntity
  8
製品
  6
Continuous
 62
     3
100
AcDbLine
 10
161.2578726014549
 20
249.1069120161014
 30
0.0
 11
156.2578726014549
 21
249.1069120161014
 31
0.0
  0
CIRCLE
  5
70ED
330
1E
100
AcDbEntity
  8
図面枠
  6
Continuous
 62
     3
100
AcDbCircle
 10
160.9455976014546
 20
245.0722150161014
 30
0.0
 40
0.3
  0
LINE
  5
70EE
330
1E
100
AcDbEntity
  8
製品
  6
Continuous
 62
     3
100
AcDbLine
 10
156.2578726014549
 20
248.7069120161014
 30
0.0
 11
161.2578726014549
 21
248.7069120161014
 31
0.0
  0
LINE
  5
70EF
330
1E
100
AcDbEntity
  8
製品
  6
Continuous
 62
     4
100
AcDbLine
 10
157.8578726014548
 20
240.3258980161017
 30
0.0
 11
159.657872601455
 21
240.3258980161017
 31
0.0
  0
LINE
  5
70F0
330
1E
100
AcDbEntity
  8
製品
  6
Continuous
 62
     3
100
AcDbLine
 10
159.3578726014548
 20
236.9069120161016
 30
0.0
 11
158.157872601455
 21
236.9069120161016
 31
0.0
  0
LINE
  5
70F1
330
1E
100
AcDbEntity
  8
製品
  6
Continuous
 62
     3
100
AcDbLine
 10
158.157872601455
 20
236.9069120161016
 30
0.0
 11
157.6078726014548
 21
235.9069120161016
 31
0.0
  0
LINE
  5
70F2
330
1E
100
AcDbEntity
  8
製品
  6
Continuous
 62
     3
100
AcDbLine
 10
157.6078726014548
 20
235.9069120161016
 30
0.0
 11
158.157872601455
 21
234.9069120161016
 31
0.0
  0
LINE
  5
70F3
330
1E
100
AcDbEntity
  8
製品
  6
Continuous
 62
     3
100
AcDbLine
 10
158.157872601455
 20
234.9069120161016
 30
0.0
 11
159.3578726014548
 21
234.9069120161016
 31
0.0
  0
LINE
  5
70F4
330
1E
100
AcDbEntity
  8
製品
  6
Continuous
 62
     3
100
AcDbLine
 10
159.3578726014548
 20
234.9069120161016
 30
0.0
 11
159.907872601455
 21
235.9069120161016
 31
0.0
  0
LINE
  5
70F5
330
1E
100
AcDbEntity
  8
製品
  6
Continuous
 62
     3
100
AcDbLine
 10
159.907872601455
 20
235.9069120161016
 30
0.0
 11
159.3578726014548
 21
236.9069120161016
 31
0.0
  0
CIRCLE
  5
70F6
330
1E
100
AcDbEntity
  8
製品
  6
Continuous
 62
     3
100
AcDbCircle
 10
158.7578726014549
 20
235.9069120161016
 30
0.0
 40
1.0
  0
LINE
  5
70F7
330
1E
100
AcDbEntity
  8
製品
  6
Continuous
 62
     3
100
AcDbLine
 10
158.657872601455
 20
236.6869120161013
 30
0.0
 11
158.8578726014548
 21
236.6869120161013
 31
0.0
  0
LINE
  5
70F8
330
1E
100
AcDbEntity
  8
製品
  6
Continuous
 62
     3
100
AcDbLine
 10
158.8578726014548
 20
236.6869120161013
 30
0.0
 11
158.8578726014548
 21
236.3069120161017
 31
0.0
  0
ARC
  5
70F9
330
1E
100
AcDbEntity
  8
製品
  6
Continuous
 62
     3
100
AcDbCircle
 10
158.3578726014548
 20
236.3069120161017
 30
0.0
 40
0.3
100
AcDbArc
 50
270.0
 51
0.0
  0
LINE
  5
70FA
330
1E
100
AcDbEntity
  8
製品
  6
Continuous
 62
     3
100
AcDbLine
 10
158.657872601455
 20
236.6869120161013
 30
0.0
 11
158.657872601455
 21
236.3069120161017
 31
0.0
  0
LINE
  5
70FB
330
1E
100
AcDbEntity
  8
製品
  6
Continuous
 62
     3
100
AcDbLine
 10
157.9978726014546
 20
236.0069120161015
 30
0.0
 11
158.3578726014548
 21
236.0069120161015
 31
0.0
  0
LINE
  5
70FC
330
1E
100
AcDbEntity
  8
製品
  6
Continuous
 62
     3
100
AcDbLine
 10
159.5178726014546
 20
236.0069120161015
 30
0.0
 11
159.5178726014546
 21
235.8069120161017
 31
0.0
  0
ARC
  5
70FD
330
1E
100
AcDbEntity
  8
製品
  6
Continuous
 62
     3
100
AcDbCircle
 10
159.157872601455
 20
236.3069120161017
 30
0.0
 40
0.3
100
AcDbArc
 50
180.0
 51
270.0
  0
LINE
  5
70FE
330
1E
100
AcDbEntity
  8
製品
  6
Continuous
 62
     3
100
AcDbLine
 10
159.5178726014546
 20
236.0069120161015
 30
0.0
 11
159.157872601455
 21
236.0069120161015
 31
0.0
  0
LINE
  5
70FF
330
1E
100
AcDbEntity
  8
製品
  6
Continuous
 62
     3
100
AcDbLine
 10
158.657872601455
 20
235.0769120161017
 30
0.0
 11
158.8578726014548
 21
235.0769120161017
 31
0.0
  0
LINE
  5
7100
330
1E
100
AcDbEntity
  8
製品
  6
Continuous
 62
     3
100
AcDbLine
 10
158.8578726014548
 20
235.1269120161014
 30
0.0
 11
158.8578726014548
 21
235.5069120161015
 31
0.0
  0
ARC
  5
7101
330
1E
100
AcDbEntity
  8
製品
  6
Continuous
 62
     3
100
AcDbCircle
 10
158.3578726014548
 20
235.5069120161015
 30
0.0
 40
0.3
100
AcDbArc
 50
0.0
 51
90.0
  0
LINE
  5
7102
330
1E
100
AcDbEntity
  8
製品
  6
Continuous
 62
     3
100
AcDbLine
 10
158.657872601455
 20
235.1269120161014
 30
0.0
 11
158.657872601455
 21
235.5069120161015
 31
0.0
  0
LINE
  5
7103
330
1E
100
AcDbEntity
  8
製品
  6
Continuous
 62
     3
100
AcDbLine
 10
157.9978726014546
 20
235.8069120161017
 30
0.0
 11
158.3578726014548
 21
235.8069120161017
 31
0.0
  0
ARC
  5
7104
330
1E
100
AcDbEntity
  8
製品
  6
Continuous
 62
     3
100
AcDbCircle
 10
159.157872601455
 20
235.5069120161015
 30
0.0
 40
0.3
100
AcDbArc
 50
90.0
 51
180.0
  0
LINE
  5
7105
330
1E
100
AcDbEntity
  8
製品
  6
Continuous
 62
     3
100
AcDbLine
 10
159.5178726014546
 20
235.8069120161017
 30
0.0
 11
159.157872601455
 21
235.8069120161017
 31
0.0
  0
LINE
  5
7106
330
1E
100
AcDbEntity
  8
製品
  6
Continuous
 62
     3
100
AcDbLine
 10
158.657872601455
 20
235.1269120161014
 30
0.0
 11
158.8578726014548
 21
235.1269120161014
 31
0.0
  0
LINE
  5
7107
330
1E
100
AcDbEntity
  8
製品
  6
Continuous
 62
     3
100
AcDbLine
 10
157.9978726014546
 20
236.0069120161015
 30
0.0
 11
157.9978726014546
 21
235.8069120161017
 31
0.0
  0
LINE
  5
7108
330
1E
100
AcDbEntity
  8
製品
  6
Continuous
 62
     3
100
AcDbLine
 10
156.2578726014549
 20
226.7069120161013
 30
0.0
 11
161.2578726014549
 21
226.7069120161013
 31
0.0
  0
LINE
  5
7109
330
1E
100
AcDbEntity
  8
製品
  6
Continuous
 62
     3
100
AcDbLine
 10
156.2578726014549
 20
249.1069120161014
 30
0.0
 11
156.2578726014549
 21
226.7069120161013
 31
0.0
  0
LINE
  5
710A
330
1E
100
AcDbEntity
  8
製品
  6
Continuous
 62
     3
100
AcDbLine
 10
161.2578726014549
 20
226.7069120161013
 30
0.0
 11
161.2578726014549
 21
249.1069120161014
 31
0.0
  0
LINE
  5
710B
330
1E
100
AcDbEntity
  8
製品
  6
Continuous
 62
     4
100
AcDbLine
 10
159.657872601455
 20
240.3258980161017
 30
0.0
 11
159.657872601455
 21
247.1389120161016
 31
0.0
  0
LINE
  5
710C
330
1E
100
AcDbEntity
  8
製品
  6
Continuous
 62
     4
100
AcDbLine
 10
157.8578726014548
 20
247.1389120161016
 30
0.0
 11
157.8578726014548
 21
240.3258980161017
 31
0.0
  0
LINE
  5
710D
330
1E
100
AcDbEntity
  8
製品
  6
PLINE3
 62
     3
100
AcDbLine
 10
111.4156836014549
 20
317.0496290161013
 30
0.0
 11
118.5957856014547
 21
317.0496290161013
 31
0.0
  0
DIMENSION
  5
710E
330
1E
100
AcDbEntity
  8
寸法
  6
Continuous
100
AcDbDimension
  2
*D7
 10
80.70604060145479
 20
313.5696290161013
 30
0.0
 11
78.40604060145473
 21
342.0459630161015
 31
0.0
 70
    32
  1
500以内
 71
     5
 42
56.95266800000036
  3
AutoCAD
100
AcDbAlignedDimension
 13
111.700916601455
 23
370.5222970161017
 33
0.0
 14
111.700916601455
 24
313.5696290161013
 34
0.0
 50
90.0
100
AcDbRotatedDimension
1001
ACAD
1000
DSTYLE
1002
{
1070
   147
1040
0.8
1070
   140
1040
10.0
1002
}
  0
LINE
  5
710F
330
1E
100
AcDbEntity
  8
製品
  6
Continuous
 62
     4
100
AcDbLine
 10
159.657872601455
 20
308.5855320161013
 30
0.0
 11
159.657872601455
 21
370.5222970161017
 31
0.0
  0
LINE
  5
7110
330
1E
100
AcDbEntity
  8
製品
  6
Continuous
 62
     4
100
AcDbLine
 10
157.8578726014548
 20
370.5222970161017
 30
0.0
 11
157.8578726014548
 21
308.5855320161013
 31
0.0
  0
LINE
  5
7111
330
1E
100
AcDbEntity
  8
製品
  6
Continuous
 62
     3
100
AcDbLine
 10
115.200916601455
 20
320.8496290161015
 30
0.0
 11
157.8578726014548
 21
320.8496290161015
 31
0.0
  0
LINE
  5
7112
330
1E
100
AcDbEntity
  8
製品
  6
Continuous
 62
     3
100
AcDbLine
 10
115.200916601455
 20
313.2496290161016
 30
0.0
 11
157.8578726014548
 21
313.2496290161016
 31
0.0
  0
LINE
  5
7113
330
1E
100
AcDbEntity
  8
製品
  6
Continuous
 62
     3
100
AcDbLine
 10
115.200916601455
 20
320.5296290161014
 30
0.0
 11
157.8578726014548
 21
320.5296290161014
 31
0.0
  0
LINE
  5
7114
330
1E
100
AcDbEntity
  8
製品
  6
Continuous
 62
     3
100
AcDbLine
 10
115.200916601455
 20
313.5696290161013
 30
0.0
 11
157.8578726014548
 21
313.5696290161013
 31
0.0
  0
LINE
  5
7115
330
1E
100
AcDbEntity
  8
製品
  6
Continuous
 62
     3
100
AcDbLine
 10
116.0009166014547
 20
317.6496290161017
 30
0.0
 11
116.0009166014547
 21
318.0496290161013
 31
0.0
  0
ARC
  5
7116
330
1E
100
AcDbEntity
  8
製品
  6
Continuous
 62
     3
100
AcDbCircle
 10
116.8009166014549
 20
317.8496290161015
 30
0.0
 40
0.2
100
AcDbArc
 50
270.0
 51
90.0
  0
LINE
  5
7117
330
1E
100
AcDbEntity
  8
製品
  6
Continuous
 62
     3
100
AcDbLine
 10
116.0009166014547
 20
317.6496290161017
 30
0.0
 11
116.8009166014549
 21
317.6496290161017
 31
0.0
  0
LINE
  5
7118
330
1E
100
AcDbEntity
  8
製品
  6
Continuous
 62
     3
100
AcDbLine
 10
116.0009166014547
 20
318.0496290161013
 30
0.0
 11
116.8009166014549
 21
318.0496290161013
 31
0.0
  0
LINE
  5
7119
330
1E
100
AcDbEntity
  8
製品
  6
Continuous
 62
     4
100
AcDbLine
 10
115.200916601455
 20
320.0496290161013
 30
0.0
 11
123.4578726014547
 21
320.0496290161013
 31
0.0
  0
CIRCLE
  5
711A
330
1E
100
AcDbEntity
  8
図面枠
  6
Continuous
 62
     3
100
AcDbCircle
 10
119.4261806014547
 20
315.7080990161016
 30
0.0
 40
0.3
  0
LINE
  5
711B
330
1E
100
AcDbEntity
  8
製品
  6
Continuous
 62
     3
100
AcDbLine
 10
116.0009166014547
 20
316.0496290161014
 30
0.0
 11
116.0009166014547
 21
316.4496290161014
 31
0.0
  0
ARC
  5
711C
330
1E
100
AcDbEntity
  8
製品
  6
Continuous
 62
     3
100
AcDbCircle
 10
116.8009166014549
 20
316.2496290161016
 30
0.0
 40
0.2
100
AcDbArc
 50
270.0
 51
90.0
  0
LINE
  5
711D
330
1E
100
AcDbEntity
  8
製品
  6
Continuous
 62
     3
100
AcDbLine
 10
116.0009166014547
 20
316.4496290161014
 30
0.0
 11
116.8009166014549
 21
316.4496290161014
 31
0.0
  0
LINE
  5
711E
330
1E
100
AcDbEntity
  8
製品
  6
Continuous
 62
     3
100
AcDbLine
 10
116.8009166014549
 20
316.0496290161014
 30
0.0
 11
116.0009166014547
 21
316.0496290161014
 31
0.0
  0
LINE
  5
711F
330
1E
100
AcDbEntity
  8
図面枠
  6
Continuous
 62
     3
100
AcDbLine
 10
119.4261806014547
 20
315.7080990161016
 30
0.0
 11
122.5547626014549
 21
306.6332050161013
 31
0.0
  0
LINE
  5
7120
330
1E
100
AcDbEntity
  8
製品
  6
Continuous
 62
     4
100
AcDbLine
 10
123.4578726014547
 20
314.0496290161014
 30
0.0
 11
115.200916601455
 21
314.0496290161014
 31
0.0
  0
LINE
  5
7121
330
1E
100
AcDbEntity
  8
製品
  6
Continuous
 62
     3
100
AcDbLine
 10
116.0009166014547
 20
317.6496290161017
 30
0.0
 11
116.0009166014547
 21
316.4496290161014
 31
0.0
  0
ARC
  5
7122
330
1E
100
AcDbEntity
  8
製品
  6
Continuous
 62
     3
100
AcDbCircle
 10
116.0009166014547
 20
317.0496290161013
 30
0.0
 40
1.0
100
AcDbArc
 50
323.1301020000044
 51
36.86989799999558
  0
LINE
  5
7123
330
1E
100
AcDbEntity
  8
製品
  6
Continuous
 62
     3
100
AcDbLine
 10
117.0009166014547
 20
317.8496290161015
 30
0.0
 11
117.0009166014547
 21
316.2496290161016
 31
0.0
  0
LINE
  5
7124
330
1E
100
AcDbEntity
  8
製品
  6
Continuous
 62
     4
100
AcDbLine
 10
123.4578726014547
 20
320.0496290161013
 30
0.0
 11
123.4578726014547
 21
314.0496290161014
 31
0.0
  0
LINE
  5
7125
330
1E
100
AcDbEntity
  8
製品
  6
Continuous
 62
     4
100
AcDbLine
 10
115.200916601455
 20
314.0496290161014
 30
0.0
 11
115.200916601455
 21
320.0496290161013
 31
0.0
  0
LINE
  5
7126
330
1E
100
AcDbEntity
  8
製品
  6
Continuous
 62
     4
100
AcDbLine
 10
116.0009166014547
 20
320.0496290161013
 30
0.0
 11
116.0009166014547
 21
314.0496290161014
 31
0.0
  0
LINE
  5
7127
330
1E
100
AcDbEntity
  8
図面枠
  6
Continuous
 62
     3
100
AcDbLine
 10
122.5547626014549
 20
306.6332050161013
 30
0.0
 11
140.6147526014547
 21
306.6524180161014
 31
0.0
  0
TEXT
  5
7128
330
1E
100
AcDbEntity
  8
図面枠
  6
Continuous
 62
     3
100
AcDbText
 10
122.5537046014547
 20
307.6331940161017
 30
0.0
 40
3.0
  1
Ｌ金具 溶接止め
 41
0.8
  7
ACAD
100
AcDbText
  0
LINE
  5
7129
330
1E
100
AcDbEntity
  8
製品
  6
Continuous
 62
     3
100
AcDbLine
 10
161.5578726014546
 20
321.5096290161014
 30
0.0
 11
161.5578726014546
 21
320.8496290161015
 31
0.0
  0
LINE
  5
712A
330
1E
100
AcDbEntity
  8
製品
  6
Continuous
 62
     3
100
AcDbLine
 10
161.5578726014546
 20
313.2496290161016
 30
0.0
 11
161.5578726014546
 21
312.5896290161013
 31
0.0
  0
ARC
  5
712B
330
1E
100
AcDbEntity
  8
製品
  6
Continuous
 62
     3
100
AcDbCircle
 10
161.3578726014548
 20
307.2255320161016
 30
0.0
 40
0.38
100
AcDbArc
 50
0.0
 51
90.0
  0
ARC
  5
712C
330
1E
100
AcDbEntity
  8
製品
  6
Continuous
 62
     3
100
AcDbCircle
 10
161.5978726014546
 20
307.6655320161017
 30
0.0
 40
0.4600000000000001
100
AcDbArc
 50
0.0
 51
90.0
  0
ARC
  5
712D
330
1E
100
AcDbEntity
  8
製品
  6
Continuous
 62
     3
100
AcDbCircle
 10
161.5978726014546
 20
307.6655320161017
 30
0.0
 40
0.9200000000000001
100
AcDbArc
 50
0.0
 51
90.0
  0
ARC
  5
712E
330
1E
100
AcDbEntity
  8
製品
  6
Continuous
 62
     3
100
AcDbCircle
 10
161.3578726014548
 20
307.2255320161016
 30
0.0
 40
0.7
100
AcDbArc
 50
0.0
 51
90.0
  0
ARC
  5
712F
330
1E
100
AcDbEntity
  8
製品
  6
Continuous
 62
     3
100
AcDbCircle
 10
161.3578726014548
 20
307.2255320161016
 30
0.0
 40
0.7
100
AcDbArc
 50
0.0
 51
90.0
  0
ARC
  5
7130
330
1E
100
AcDbEntity
  8
製品
  6
Continuous
 62
     3
100
AcDbCircle
 10
161.3578726014548
 20
307.2255320161016
 30
0.0
 40
0.38
100
AcDbArc
 50
0.0
 51
90.0
  0
LINE
  5
7131
330
1E
100
AcDbEntity
  8
製品
  6
PLINE2
 62
     3
100
AcDbLine
 10
161.5578726014546
 20
320.8496290161015
 30
0.0
 11
161.5578726014546
 21
313.2496290161016
 31
0.0
  0
LINE
  5
7132
330
1E
100
AcDbEntity
  8
製品
  6
Continuous
 62
     3
100
AcDbLine
 10
155.9578726014547
 20
321.5096290161014
 30
0.0
 11
155.9578726014547
 21
320.8496290161015
 31
0.0
  0
LINE
  5
7133
330
1E
100
AcDbEntity
  8
製品
  6
Continuous
 62
     3
100
AcDbLine
 10
155.9578726014547
 20
321.5096290161014
 30
0.0
 11
157.8578726014548
 21
321.5096290161014
 31
0.0
  0
LINE
  5
7134
330
1E
100
AcDbEntity
  8
製品
  6
Continuous
 62
     3
100
AcDbLine
 10
155.9578726014547
 20
321.0496290161013
 30
0.0
 11
157.8578726014548
 21
321.0496290161013
 31
0.0
  0
LINE
  5
7135
330
1E
100
AcDbEntity
  8
製品
  6
Continuous
 62
     3
100
AcDbLine
 10
155.9578726014547
 20
313.2496290161016
 30
0.0
 11
155.9578726014547
 21
312.5896290161013
 31
0.0
  0
LINE
  5
7136
330
1E
100
AcDbEntity
  8
製品
  6
Continuous
 62
     3
100
AcDbLine
 10
155.9578726014547
 20
313.0496290161013
 30
0.0
 11
157.8578726014548
 21
313.0496290161013
 31
0.0
  0
LINE
  5
7137
330
1E
100
AcDbEntity
  8
製品
  6
Continuous
 62
     3
100
AcDbLine
 10
155.9578726014547
 20
312.5896290161013
 30
0.0
 11
157.8578726014548
 21
312.5896290161013
 31
0.0
  0
LINE
  5
7138
330
1E
100
AcDbEntity
  8
製品
  6
Continuous
 62
     3
100
AcDbLine
 10
159.657872601455
 20
307.9255320161014
 30
0.0
 11
159.657872601455
 21
307.6055320161017
 31
0.0
  0
LINE
  5
7139
330
1E
100
AcDbEntity
  8
製品
  6
Continuous
 62
     3
100
AcDbLine
 10
159.657872601455
 20
307.9255320161014
 30
0.0
 11
159.657872601455
 21
307.6055320161017
 31
0.0
  0
LINE
  5
713A
330
1E
100
AcDbEntity
  8
製品
  6
Continuous
 62
     3
100
AcDbLine
 10
155.9578726014547
 20
308.5855320161013
 30
0.0
 11
155.9578726014547
 21
308.1255320161017
 31
0.0
  0
LINE
  5
713B
330
1E
100
AcDbEntity
  8
製品
  6
Continuous
 62
     3
100
AcDbLine
 10
155.9578726014547
 20
308.1255320161017
 30
0.0
 11
157.8578726014548
 21
308.1255320161017
 31
0.0
  0
LINE
  5
713C
330
1E
100
AcDbEntity
  8
製品
  6
Continuous
 62
     3
100
AcDbLine
 10
157.8578726014548
 20
308.5855320161013
 30
0.0
 11
155.9578726014547
 21
308.5855320161013
 31
0.0
  0
LINE
  5
713D
330
1E
100
AcDbEntity
  8
製品
  6
PLINE2
 62
     3
100
AcDbLine
 10
155.9578726014547
 20
320.8496290161015
 30
0.0
 11
155.9578726014547
 21
313.2496290161016
 31
0.0
  0
LINE
  5
713E
330
1E
100
AcDbEntity
  8
製品
  6
Continuous
 62
     3
100
AcDbLine
 10
159.657872601455
 20
307.6055320161017
 30
0.0
 11
161.3578726014548
 21
307.6055320161017
 31
0.0
  0
LINE
  5
713F
330
1E
100
AcDbEntity
  8
製品
  6
Continuous
 62
     3
100
AcDbLine
 10
161.5978726014546
 20
308.5855320161013
 30
0.0
 11
157.8578726014548
 21
308.5855320161013
 31
0.0
  0
LINE
  5
7140
330
1E
100
AcDbEntity
  8
製品
  6
Continuous
 62
     3
100
AcDbLine
 10
157.8578726014548
 20
308.1255320161017
 30
0.0
 11
161.5978726014546
 21
308.1255320161017
 31
0.0
  0
LINE
  5
7141
330
1E
100
AcDbEntity
  8
製品
  6
Continuous
 62
     3
100
AcDbLine
 10
161.3578726014548
 20
307.9255320161014
 30
0.0
 11
159.657872601455
 21
307.9255320161014
 31
0.0
  0
LINE
  5
7142
330
1E
100
AcDbEntity
  8
製品
  6
Continuous
 62
     3
100
AcDbLine
 10
161.3578726014548
 20
307.9255320161014
 30
0.0
 11
159.657872601455
 21
307.9255320161014
 31
0.0
  0
LINE
  5
7143
330
1E
100
AcDbEntity
  8
製品
  6
Continuous
 62
     3
100
AcDbLine
 10
159.657872601455
 20
307.6055320161017
 30
0.0
 11
161.3578726014548
 21
307.6055320161017
 31
0.0
  0
LINE
  5
7144
330
1E
100
AcDbEntity
  8
製品
  6
Continuous
 62
     3
100
AcDbLine
 10
159.657872601455
 20
321.5096290161014
 30
0.0
 11
161.5578726014546
 21
321.5096290161014
 31
0.0
  0
LINE
  5
7145
330
1E
100
AcDbEntity
  8
製品
  6
Continuous
 62
     3
100
AcDbLine
 10
159.657872601455
 20
321.0496290161013
 30
0.0
 11
161.5578726014546
 21
321.0496290161013
 31
0.0
  0
LINE
  5
7146
330
1E
100
AcDbEntity
  8
製品
  6
Continuous
 62
     3
100
AcDbLine
 10
159.657872601455
 20
313.0496290161013
 30
0.0
 11
161.5578726014546
 21
313.0496290161013
 31
0.0
  0
LINE
  5
7147
330
1E
100
AcDbEntity
  8
製品
  6
Continuous
 62
     3
100
AcDbLine
 10
159.657872601455
 20
312.5896290161013
 30
0.0
 11
161.5578726014546
 21
312.5896290161013
 31
0.0
  0
LINE
  5
7148
330
1E
100
AcDbEntity
  8
製品
  6
Continuous
 62
     3
100
AcDbLine
 10
165.2996786014546
 20
304.7255320161016
 30
0.0
 11
165.2996786014546
 21
305.1255320161017
 31
0.0
  0
LINE
  5
7149
330
1E
100
AcDbEntity
  8
製品
  6
Continuous
 62
     3
100
AcDbLine
 10
165.2996786014546
 20
303.1255320161017
 30
0.0
 11
165.2996786014546
 21
303.5255320161013
 31
0.0
  0
LINE
  5
714A
330
1E
100
AcDbEntity
  8
製品
  6
Continuous
 62
     3
100
AcDbLine
 10
165.2996786014546
 20
304.7255320161016
 30
0.0
 11
165.2996786014546
 21
303.5255320161013
 31
0.0
  0
ARC
  5
714B
330
1E
100
AcDbEntity
  8
製品
  6
Continuous
 62
     3
100
AcDbCircle
 10
166.0996786014548
 20
304.9255320161015
 30
0.0
 40
0.2
100
AcDbArc
 50
270.0
 51
90.0
  0
ARC
  5
714C
330
1E
100
AcDbEntity
  8
製品
  6
Continuous
 62
     3
100
AcDbCircle
 10
165.2996786014546
 20
304.1255320161017
 30
0.0
 40
1.0
100
AcDbArc
 50
323.1301020000044
 51
36.86989799999558
  0
ARC
  5
714D
330
1E
100
AcDbEntity
  8
製品
  6
Continuous
 62
     3
100
AcDbCircle
 10
166.0996786014548
 20
303.3255320161015
 30
0.0
 40
0.2
100
AcDbArc
 50
270.0
 51
90.0
  0
LINE
  5
714E
330
1E
100
AcDbEntity
  8
製品
  6
Continuous
 62
     3
100
AcDbLine
 10
165.2996786014546
 20
304.7255320161016
 30
0.0
 11
166.0996786014548
 21
304.7255320161016
 31
0.0
  0
LINE
  5
714F
330
1E
100
AcDbEntity
  8
製品
  6
Continuous
 62
     3
100
AcDbLine
 10
165.2996786014546
 20
303.5255320161013
 30
0.0
 11
166.0996786014548
 21
303.5255320161013
 31
0.0
  0
LINE
  5
7150
330
1E
100
AcDbEntity
  8
製品
  6
Continuous
 62
     3
100
AcDbLine
 10
166.0996786014548
 20
303.1255320161017
 30
0.0
 11
165.2996786014546
 21
303.1255320161017
 31
0.0
  0
LINE
  5
7151
330
1E
100
AcDbEntity
  8
製品
  6
Continuous
 62
     3
100
AcDbLine
 10
166.2996786014546
 20
304.9255320161015
 30
0.0
 11
166.2996786014546
 21
303.3255320161015
 31
0.0
  0
LINE
  5
7152
330
1E
100
AcDbEntity
  8
製品
  6
Continuous
 62
     3
100
AcDbLine
 10
165.2996786014546
 20
305.1255320161017
 30
0.0
 11
166.0996786014548
 21
305.1255320161017
 31
0.0
  0
LINE
  5
7153
330
1E
100
AcDbEntity
  8
製品
  6
Continuous
 62
     3
100
AcDbLine
 10
162.5178726014546
 20
304.7255320161016
 30
0.0
 11
163.3178726014548
 21
304.7255320161016
 31
0.0
  0
LINE
  5
7154
330
1E
100
AcDbEntity
  8
製品
  6
Continuous
 62
     3
100
AcDbLine
 10
162.5178726014546
 20
303.5255320161013
 30
0.0
 11
163.3178726014548
 21
303.5255320161013
 31
0.0
  0
ARC
  5
7155
330
1E
100
AcDbEntity
  8
製品
  6
Continuous
 62
     3
100
AcDbCircle
 10
163.3178726014548
 20
304.9255320161015
 30
0.0
 40
0.2
100
AcDbArc
 50
270.0
 51
90.0
  0
ARC
  5
7156
330
1E
100
AcDbEntity
  8
製品
  6
Continuous
 62
     3
100
AcDbCircle
 10
162.5178726014546
 20
304.1255320161017
 30
0.0
 40
1.0
100
AcDbArc
 50
323.1301020000044
 51
36.86989799999558
  0
LINE
  5
7157
330
1E
100
AcDbEntity
  8
製品
  6
Continuous
 62
     3
100
AcDbLine
 10
162.5178726014546
 20
305.1255320161017
 30
0.0
 11
163.3178726014548
 21
305.1255320161017
 31
0.0
  0
ARC
  5
7158
330
1E
100
AcDbEntity
  8
製品
  6
Continuous
 62
     3
100
AcDbCircle
 10
163.3178726014548
 20
303.3255320161015
 30
0.0
 40
0.2
100
AcDbArc
 50
270.0
 51
0.0
  0
LINE
  5
7159
330
1E
100
AcDbEntity
  8
製品
  6
Continuous
 62
     3
100
AcDbLine
 10
163.5178726014546
 20
304.9255320161015
 30
0.0
 11
163.5178726014546
 21
303.3255320161015
 31
0.0
  0
LINE
  5
715A
330
1E
100
AcDbEntity
  8
製品
  6
Continuous
 62
     3
100
AcDbLine
 10
163.3178726014548
 20
303.1255320161017
 30
0.0
 11
162.5178726014546
 21
303.1255320161017
 31
0.0
  0
ARC
  5
715B
330
1E
100
AcDbEntity
  8
製品
  6
Continuous
 62
     3
100
AcDbCircle
 10
163.3178726014548
 20
303.3255320161015
 30
0.0
 40
0.2
100
AcDbArc
 50
270.0
 51
90.0
  0
LINE
  5
715C
330
1E
100
AcDbEntity
  8
製品
  6
Continuous
 62
     3
100
AcDbLine
 10
163.5178726014546
 20
304.7255320161016
 30
0.0
 11
165.2996786014546
 21
304.7255320161016
 31
0.0
  0
LINE
  5
715D
330
1E
100
AcDbEntity
  8
製品
  6
Continuous
 62
     3
100
AcDbLine
 10
165.2996786014546
 20
303.5255320161013
 30
0.0
 11
163.5178726014546
 21
303.5255320161013
 31
0.0
  0
LINE
  5
715E
330
1E
100
AcDbEntity
  8
製品
  6
Continuous
 62
     3
100
AcDbLine
 10
163.5178726014546
 20
304.6255320161017
 30
0.0
 11
165.2996786014546
 21
304.6255320161017
 31
0.0
  0
LINE
  5
715F
330
1E
100
AcDbEntity
  8
製品
  6
Continuous
 62
     3
100
AcDbLine
 10
163.5178726014546
 20
303.6255320161017
 30
0.0
 11
165.2996786014546
 21
303.6255320161017
 31
0.0
  0
CIRCLE
  5
7160
330
1E
100
AcDbEntity
  8
製品
  6
Continuous
 62
     3
100
AcDbCircle
 10
162.0578726014546
 20
300.3255320161015
 30
0.0
 40
0.3
  0
CIRCLE
  5
7161
330
1E
100
AcDbEntity
  8
製品
  6
Continuous
 62
     3
100
AcDbCircle
 10
162.0578726014546
 20
300.3255320161015
 30
0.0
 40
0.3
  0
CIRCLE
  5
7162
330
1E
100
AcDbEntity
  8
製品
  6
Continuous
 62
     3
100
AcDbCircle
 10
162.0578726014546
 20
300.3255320161015
 30
0.0
 40
0.3
  0
CIRCLE
  5
7163
330
1E
100
AcDbEntity
  8
製品
  6
Continuous
 62
     3
100
AcDbCircle
 10
162.0578726014546
 20
300.3255320161015
 30
0.0
 40
0.3
  0
ARC
  5
7164
330
1E
100
AcDbEntity
  8
製品
  6
Continuous
 62
     3
100
AcDbCircle
 10
161.3578726014548
 20
301.0255320161014
 30
0.0
 40
0.7
100
AcDbArc
 50
270.0
 51
0.0
  0
ARC
  5
7165
330
1E
100
AcDbEntity
  8
製品
  6
Continuous
 62
     3
100
AcDbCircle
 10
161.3578726014548
 20
301.0255320161014
 30
0.0
 40
0.38
100
AcDbArc
 50
270.0
 51
0.0
  0
ARC
  5
7166
330
1E
100
AcDbEntity
  8
製品
  6
Continuous
 62
     3
100
AcDbCircle
 10
161.3578726014548
 20
301.0255320161014
 30
0.0
 40
0.38
100
AcDbArc
 50
270.0
 51
0.0
  0
ARC
  5
7167
330
1E
100
AcDbEntity
  8
製品
  6
Continuous
 62
     3
100
AcDbCircle
 10
161.5978726014546
 20
300.5855320161013
 30
0.0
 40
0.4600000000000001
100
AcDbArc
 50
270.0
 51
0.0
  0
ARC
  5
7168
330
1E
100
AcDbEntity
  8
製品
  6
Continuous
 62
     3
100
AcDbCircle
 10
161.5978726014546
 20
300.5855320161013
 30
0.0
 40
0.9200000000000001
100
AcDbArc
 50
270.0
 51
0.0
  0
ARC
  5
7169
330
1E
100
AcDbEntity
  8
製品
  6
Continuous
 62
     3
100
AcDbCircle
 10
161.3578726014548
 20
301.0255320161014
 30
0.0
 40
0.7
100
AcDbArc
 50
270.0
 51
0.0
  0
CIRCLE
  5
716A
330
1E
100
AcDbEntity
  8
図面枠
  6
Continuous
 62
     3
100
AcDbCircle
 10
161.2734316014548
 20
299.8176680161014
 30
0.0
 40
0.3
  0
LINE
  5
716B
330
1E
100
AcDbEntity
  8
製品
  6
Continuous
 62
     3
100
AcDbLine
 10
162.0578726014546
 20
301.0255320161014
 30
0.0
 11
162.0578726014546
 21
304.1255320161017
 31
0.0
  0
LINE
  5
716C
330
1E
100
AcDbEntity
  8
製品
  6
Continuous
 62
     3
100
AcDbLine
 10
162.0578726014546
 20
301.0255320161014
 30
0.0
 11
162.0578726014546
 21
304.1255320161017
 31
0.0
  0
LINE
  5
716D
330
1E
100
AcDbEntity
  8
図面枠
  6
Continuous
 62
     3
100
AcDbLine
 10
161.2734316014548
 20
299.8176680161014
 30
0.0
 11
169.0760216014546
 21
287.0422280161015
 31
0.0
  0
LINE
  5
716E
330
1E
100
AcDbEntity
  8
製品
  6
Continuous
 62
     3
100
AcDbLine
 10
159.657872601455
 20
300.3255320161015
 30
0.0
 11
159.657872601455
 21
300.6455320161017
 31
0.0
  0
LINE
  5
716F
330
1E
100
AcDbEntity
  8
製品
  6
Continuous
 62
     3
100
AcDbLine
 10
159.657872601455
 20
300.3255320161015
 30
0.0
 11
159.657872601455
 21
300.6455320161017
 31
0.0
  0
LINE
  5
7170
330
1E
100
AcDbEntity
  8
製品
  6
Continuous
 62
     3
100
AcDbLine
 10
155.9578726014547
 20
300.1255320161017
 30
0.0
 11
155.9578726014547
 21
299.6655320161017
 31
0.0
  0
LINE
  5
7171
330
1E
100
AcDbEntity
  8
製品
  6
Continuous
 62
     3
100
AcDbLine
 10
157.8578726014548
 20
300.1255320161017
 30
0.0
 11
155.9578726014547
 21
300.1255320161017
 31
0.0
  0
LINE
  5
7172
330
1E
100
AcDbEntity
  8
製品
  6
Continuous
 62
     3
100
AcDbLine
 10
155.9578726014547
 20
299.6655320161017
 30
0.0
 11
157.8578726014548
 21
299.6655320161017
 31
0.0
  0
LINE
  5
7173
330
1E
100
AcDbEntity
  8
製品
  6
Continuous
 62
     3
100
AcDbLine
 10
161.3578726014548
 20
300.3255320161015
 30
0.0
 11
159.657872601455
 21
300.3255320161015
 31
0.0
  0
LINE
  5
7174
330
1E
100
AcDbEntity
  8
製品
  6
Continuous
 62
     3
100
AcDbLine
 10
161.3578726014548
 20
300.6455320161017
 30
0.0
 11
159.657872601455
 21
300.6455320161017
 31
0.0
  0
LINE
  5
7175
330
1E
100
AcDbEntity
  8
製品
  6
Continuous
 62
     3
100
AcDbLine
 10
161.3578726014548
 20
300.6455320161017
 30
0.0
 11
159.657872601455
 21
300.6455320161017
 31
0.0
  0
LINE
  5
7176
330
1E
100
AcDbEntity
  8
製品
  6
Continuous
 62
     3
100
AcDbLine
 10
161.5978726014546
 20
300.1255320161017
 30
0.0
 11
157.8578726014548
 21
300.1255320161017
 31
0.0
  0
LINE
  5
7177
330
1E
100
AcDbEntity
  8
製品
  6
Continuous
 62
     3
100
AcDbLine
 10
157.8578726014548
 20
299.6655320161017
 30
0.0
 11
161.5978726014546
 21
299.6655320161017
 31
0.0
  0
LINE
  5
7178
330
1E
100
AcDbEntity
  8
製品
  6
Continuous
 62
     3
100
AcDbLine
 10
161.3578726014548
 20
300.3255320161015
 30
0.0
 11
159.657872601455
 21
300.3255320161015
 31
0.0
  0
LINE
  5
7179
330
1E
100
AcDbEntity
  8
製品
  6
PLINE3
 62
     3
100
AcDbLine
 10
154.4073556014545
 20
304.1255320161017
 30
0.0
 11
166.4593206014547
 21
304.1255320161017
 31
0.0
  0
LINE
  5
717A
330
1E
100
AcDbEntity
  8
製品
  6
Continuous
 62
     4
100
AcDbLine
 10
159.657872601455
 20
300.1255320161017
 30
0.0
 11
159.657872601455
 21
308.1255320161017
 31
0.0
  0
LINE
  5
717B
330
1E
100
AcDbEntity
  8
製品
  6
Continuous
 62
     4
100
AcDbLine
 10
157.8578726014548
 20
308.1255320161017
 30
0.0
 11
157.8578726014548
 21
300.1255320161017
 31
0.0
  0
LINE
  5
717C
330
1E
100
AcDbEntity
  8
製品
  6
Continuous
 62
     3
100
AcDbLine
 10
161.7378726014549
 20
307.2255320161016
 30
0.0
 11
161.7378726014549
 21
301.0255320161014
 31
0.0
  0
LINE
  5
717D
330
1E
100
AcDbEntity
  8
製品
  6
Continuous
 62
     4
100
AcDbLine
 10
157.8578726014548
 20
308.1255320161017
 30
0.0
 11
157.8578726014548
 21
300.1255320161017
 31
0.0
  0
LINE
  5
717E
330
1E
100
AcDbEntity
  8
製品
  6
Continuous
 62
     4
100
AcDbLine
 10
159.657872601455
 20
300.1255320161017
 30
0.0
 11
159.657872601455
 21
308.1255320161017
 31
0.0
  0
LINE
  5
717F
330
1E
100
AcDbEntity
  8
製品
  6
Continuous
 62
     3
100
AcDbLine
 10
162.0578726014546
 20
307.6655320161017
 30
0.0
 11
162.0578726014546
 21
300.5855320161013
 31
0.0
  0
LINE
  5
7180
330
1E
100
AcDbEntity
  8
製品
  6
Continuous
 62
     3
100
AcDbLine
 10
162.5178726014546
 20
300.5855320161013
 30
0.0
 11
162.5178726014546
 21
307.6655320161017
 31
0.0
  0
LINE
  5
7181
330
1E
100
AcDbEntity
  8
製品
  6
Continuous
 62
     3
100
AcDbLine
 10
162.0578726014546
 20
307.2255320161016
 30
0.0
 11
162.0578726014546
 21
304.1255320161017
 31
0.0
  0
LINE
  5
7182
330
1E
100
AcDbEntity
  8
製品
  6
Continuous
 62
     3
100
AcDbLine
 10
162.0578726014546
 20
307.2255320161016
 30
0.0
 11
162.0578726014546
 21
304.1255320161017
 31
0.0
  0
LINE
  5
7183
330
1E
100
AcDbEntity
  8
製品
  6
Continuous
 62
     3
100
AcDbLine
 10
161.7378726014549
 20
307.2255320161016
 30
0.0
 11
161.7378726014549
 21
301.0255320161014
 31
0.0
  0
LINE
  5
7184
330
1E
100
AcDbEntity
  8
製品
  6
Continuous
 62
     4
100
AcDbLine
 10
142.1827746014546
 20
370.5222970161017
 30
0.0
 11
153.5575706014547
 21
381.8970920161014
 31
0.0
  0
LINE
  5
7185
330
1E
100
AcDbEntity
  8
製品
  6
Continuous
 62
     4
100
AcDbLine
 10
154.9717836014547
 20
381.8970920161014
 30
0.0
 11
143.5969886014545
 21
370.5222970161017
 31
0.0
  0
LINE
  5
7186
330
1E
100
AcDbEntity
  8
製品
  6
Continuous
 62
     4
100
AcDbLine
 10
145.0112026014549
 20
370.5222970161017
 30
0.0
 11
156.3859976014546
 21
381.8970920161014
 31
0.0
  0
LINE
  5
7187
330
1E
100
AcDbEntity
  8
製品
  6
Continuous
 62
     4
100
AcDbLine
 10
157.7289186014545
 20
372.1957270161015
 30
0.0
 11
158.6950746014549
 21
370.5222970161017
 31
0.0
  0
LINE
  5
7188
330
1E
100
AcDbEntity
  8
製品
  6
Continuous
 62
     4
100
AcDbLine
 10
158.6950746014549
 20
370.5222970161017
 30
0.0
 11
159.6612296014546
 21
372.1957270161015
 31
0.0
  0
LINE
  5
7189
330
1E
100
AcDbEntity
  8
製品
  6
Continuous
 62
     4
100
AcDbLine
 10
159.6612296014546
 20
372.1957270161015
 30
0.0
 11
157.7289186014545
 21
372.1957270161015
 31
0.0
  0
TEXT
  5
718A
330
1E
100
AcDbEntity
  8
図面枠
  6
Continuous
 62
     3
100
AcDbText
 10
153.0916226014547
 20
373.6554100161015
 30
0.0
 40
3.0
  1
インサ－ト　３／８
 41
0.8
  7
ACAD
100
AcDbText
  0
LINE
  5
718B
330
1E
100
AcDbEntity
  8
製品
  6
Continuous
 62
     4
100
AcDbLine
 10
339.657872601455
 20
299.6655320161017
 30
0.0
 11
339.657872601455
 21
250.6749120161016
 31
0.0
  0
LINE
  5
718C
330
1E
100
AcDbEntity
  8
製品
  6
Continuous
 62
     4
100
AcDbLine
 10
341.4578726014547
 20
250.6749120161016
 30
0.0
 11
341.4578726014547
 21
299.6655320161017
 31
0.0
  0
DIMENSION
  5
718D
330
1E
100
AcDbEntity
  8
寸法
  6
Continuous
100
AcDbDimension
  2
*D8
 10
370.8100956014546
 20
194.4171300161015
 30
0.0
 11
340.5100291014546
 21
196.7171300161015
 31
0.0
 70
    32
  1
303
 71
     5
 42
60.60013299999991
  3
AutoCAD
100
AcDbAlignedDimension
 13
310.2099626014547
 23
212.6175950161014
 33
0.0
 14
370.8100956014546
 24
212.6175950161014
 34
0.0
100
AcDbRotatedDimension
1001
ACAD
1000
DSTYLE
1002
{
1070
   147
1040
0.8
1070
   140
1040
10.0
1002
}
  0
ARC
  5
718E
330
1E
100
AcDbEntity
  8
製品
  6
Continuous
 62
     3
100
AcDbCircle
 10
314.697872601455
 20
231.7669120161013
 30
0.0
 40
0.6400000000000001
100
AcDbArc
 50
90.0
 51
180.0
  0
LINE
  5
718F
330
1E
100
AcDbEntity
  8
製品
  6
Continuous
 62
     2
100
AcDbLine
 10
314.657872601455
 20
222.2069120161013
 30
0.0
 11
314.0578726014546
 21
222.2069120161013
 31
0.0
  0
LINE
  5
7190
330
1E
100
AcDbEntity
  8
製品
  6
Continuous
 62
     2
100
AcDbLine
 10
314.657872601455
 20
222.3069120161017
 30
0.0
 11
314.0578726014546
 21
222.3069120161017
 31
0.0
  0
LINE
  5
7191
330
1E
100
AcDbEntity
  8
製品
  6
Continuous
 62
     3
100
AcDbLine
 10
314.0578726014546
 20
226.4069120161016
 30
0.0
 11
314.3378726014548
 21
226.4069120161016
 31
0.0
  0
LINE
  5
7192
330
1E
100
AcDbEntity
  8
製品
  6
Continuous
 62
     3
100
AcDbLine
 10
314.3378726014548
 20
226.0869120161014
 30
0.0
 11
306.1778726014545
 21
226.0869120161014
 31
0.0
  0
LINE
  5
7193
330
1E
100
AcDbEntity
  8
製品
  6
Continuous
 62
     3
100
AcDbLine
 10
306.2578726014549
 20
238.2069120161014
 30
0.0
 11
314.2578726014549
 21
238.2069120161014
 31
0.0
  0
LINE
  5
7194
330
1E
100
AcDbEntity
  8
製品
  6
Continuous
 62
     3
100
AcDbLine
 10
305.2578726014549
 20
235.2069120161013
 30
0.0
 11
315.2578726014549
 21
235.2069120161013
 31
0.0
  0
LINE
  5
7195
330
1E
100
AcDbEntity
  8
製品
  6
Continuous
 62
     4
100
AcDbLine
 10
338.0578726014546
 20
227.2069120161013
 30
0.0
 11
314.0578726014546
 21
227.2069120161013
 31
0.0
  0
LINE
  5
7196
330
1E
100
AcDbEntity
  8
図面枠
  6
Continuous
 62
     3
100
AcDbLine
 10
316.1343716014548
 20
249.5299630161016
 30
0.0
 11
283.9374376014548
 21
249.5299630161016
 31
0.0
  0
TEXT
  5
7197
330
1E
100
AcDbEntity
  8
図面枠
  6
Continuous
 62
     3
100
AcDbText
 10
284.5140616014546
 20
250.2823250161014
 30
0.0
 40
3.0
  1
野縁受け　Ｃ－３８×１．６
 41
0.8
  7
ACAD
100
AcDbText
  0
DIMENSION
  5
7198
330
1E
100
AcDbEntity
  8
寸法
  6
Continuous
100
AcDbDimension
  2
*D9
 10
249.6098306014546
 20
194.4171300161015
 30
0.0
 11
219.3097646014546
 21
196.7171300161015
 31
0.0
 70
    32
  1
303
 71
     5
 42
60.60013200000003
  3
AutoCAD
100
AcDbAlignedDimension
 13
189.0096986014546
 23
212.6175950161014
 33
0.0
 14
249.6098306014546
 24
212.6175950161014
 34
0.0
100
AcDbRotatedDimension
1001
ACAD
1000
DSTYLE
1002
{
1070
   287
1070
     4
1070
   140
1040
10.0
1070
   147
1040
0.8
1070
   279
1070
     1
1070
   289
1070
     3
1002
}
  0
LINE
  5
7199
330
1E
100
AcDbEntity
  8
製品
  6
Continuous
 62
     2
100
AcDbLine
 10
247.8581376014549
 20
222.4069120161016
 30
0.0
 11
247.5581376014547
 21
222.3069120161017
 31
0.0
  0
LINE
  5
719A
330
1E
100
AcDbEntity
  8
製品
  6
Continuous
 62
     2
100
AcDbLine
 10
247.8581376014549
 20
222.3069120161017
 30
0.0
 11
247.5581376014547
 21
222.2069120161013
 31
0.0
  0
LINE
  5
719B
330
1E
100
AcDbEntity
  8
製品
  6
Continuous
 62
     3
100
AcDbLine
 10
253.7381376014546
 20
226.0869120161014
 30
0.0
 11
245.5781376014547
 21
226.0869120161014
 31
0.0
  0
LINE
  5
719C
330
1E
100
AcDbEntity
  8
製品
  6
Continuous
 62
     3
100
AcDbLine
 10
245.5781376014547
 20
226.4069120161016
 30
0.0
 11
253.4581376014549
 21
226.4069120161016
 31
0.0
  0
LINE
  5
719D
330
1E
100
AcDbEntity
  8
製品
  6
Continuous
 62
     3
100
AcDbLine
 10
245.6581376014546
 20
238.2069120161014
 30
0.0
 11
253.6581376014547
 21
238.2069120161014
 31
0.0
  0
LINE
  5
719E
330
1E
100
AcDbEntity
  8
製品
  6
Continuous
 62
     3
100
AcDbLine
 10
244.6581376014547
 20
235.2069120161013
 30
0.0
 11
254.6581376014547
 21
235.2069120161013
 31
0.0
  0
TEXT
  5
719F
330
1E
100
AcDbEntity
  8
図面枠
  6
Continuous
 62
     3
100
AcDbText
 10
224.438637601455
 20
150.7757300161015
 30
0.0
 40
5.0
  1
耐風圧１型
 41
0.8
  7
ACAD
100
AcDbText
  0
LINE
  5
71A0
330
1E
100
AcDbEntity
  8
製品
  6
Continuous
 62
     4
100
AcDbLine
 10
194.0580046014547
 20
234.8069120161017
 30
0.0
 11
244.6581376014547
 21
234.8069120161017
 31
0.0
  0
LINE
  5
71A1
330
1E
100
AcDbEntity
  8
製品
  6
Continuous
 62
     4
100
AcDbLine
 10
245.8581376014549
 20
227.2069120161013
 30
0.0
 11
192.8580046014549
 21
227.2069120161013
 31
0.0
  0
ARC
  5
71A2
330
1E
100
AcDbEntity
  8
製品
  6
Continuous
 62
     3
100
AcDbCircle
 10
193.0580046014547
 20
237.2069120161013
 30
0.0
 40
1.0
100
AcDbArc
 50
0.0
 51
90.0
  0
LINE
  5
71A3
330
1E
100
AcDbEntity
  8
製品
  6
Continuous
 62
     3
100
AcDbLine
 10
194.0580046014547
 20
232.4069120161016
 30
0.0
 11
193.4980046014548
 21
232.4069120161016
 31
0.0
  0
ARC
  5
71A4
330
1E
100
AcDbEntity
  8
製品
  6
Continuous
 62
     3
100
AcDbCircle
 10
193.4980046014548
 20
231.7669120161013
 30
0.0
 40
0.6400000000000001
100
AcDbArc
 50
90.0
 51
180.0
  0
ARC
  5
71A5
330
1E
100
AcDbEntity
  8
製品
  6
Continuous
 62
     2
100
AcDbCircle
 10
193.7580046014545
 20
226.9069120161016
 30
0.0
 40
0.2
100
AcDbArc
 50
0.0
 51
90.0
  0
LINE
  5
71A6
330
1E
100
AcDbEntity
  8
製品
  6
Continuous
 62
     2
100
AcDbLine
 10
193.7580046014545
 20
227.1069120161014
 30
0.0
 11
193.5580046014547
 21
227.1069120161014
 31
0.0
  0
ARC
  5
71A7
330
1E
100
AcDbEntity
  8
製品
  6
Continuous
 62
     2
100
AcDbCircle
 10
193.5580046014547
 20
226.9069120161016
 30
0.0
 40
0.2
100
AcDbArc
 50
90.0
 51
180.0
  0
LINE
  5
71A8
330
1E
100
AcDbEntity
  8
製品
  6
Continuous
 62
     2
100
AcDbLine
 10
193.3580046014549
 20
226.9069120161016
 30
0.0
 11
193.3580046014549
 21
226.6069120161014
 31
0.0
  0
LINE
  5
71A9
330
1E
100
AcDbEntity
  8
製品
  6
Continuous
 62
     2
100
AcDbLine
 10
193.3580046014549
 20
226.6069120161014
 30
0.0
 11
193.2580046014545
 21
226.6069120161014
 31
0.0
  0
LINE
  5
71AA
330
1E
100
AcDbEntity
  8
製品
  6
Continuous
 62
     2
100
AcDbLine
 10
193.2580046014545
 20
226.6069120161014
 30
0.0
 11
193.2580046014545
 21
226.9069120161016
 31
0.0
  0
ARC
  5
71AB
330
1E
100
AcDbEntity
  8
製品
  6
Continuous
 62
     2
100
AcDbCircle
 10
193.5580046014547
 20
226.9069120161016
 30
0.0
 40
0.3
100
AcDbArc
 50
90.0
 51
180.0
  0
LINE
  5
71AC
330
1E
100
AcDbEntity
  8
製品
  6
Continuous
 62
     2
100
AcDbLine
 10
193.5580046014547
 20
227.2069120161013
 30
0.0
 11
193.7580046014545
 21
227.2069120161013
 31
0.0
  0
ARC
  5
71AD
330
1E
100
AcDbEntity
  8
製品
  6
Continuous
 62
     2
100
AcDbCircle
 10
193.7580046014545
 20
226.9069120161016
 30
0.0
 40
0.3
100
AcDbArc
 50
0.0
 51
90.0
  0
LINE
  5
71AE
330
1E
100
AcDbEntity
  8
製品
  6
Continuous
 62
     2
100
AcDbLine
 10
194.0580046014547
 20
222.8069120161017
 30
0.0
 11
194.0580046014547
 21
224.8889690161013
 31
0.0
  0
LINE
  5
71AF
330
1E
100
AcDbEntity
  8
製品
  6
Continuous
 62
     2
100
AcDbLine
 10
193.9580046014548
 20
222.8069120161017
 30
0.0
 11
193.9580046014548
 21
224.8889690161013
 31
0.0
  0
LINE
  5
71B0
330
1E
100
AcDbEntity
  8
製品
  6
Continuous
 62
     2
100
AcDbLine
 10
194.0580046014547
 20
224.8889690161013
 30
0.0
 11
194.0580046014547
 21
226.9069120161016
 31
0.0
  0
LINE
  5
71B1
330
1E
100
AcDbEntity
  8
製品
  6
Continuous
 62
     2
100
AcDbLine
 10
193.9580046014548
 20
224.8889690161013
 30
0.0
 11
193.9580046014548
 21
226.9069120161016
 31
0.0
  0
ARC
  5
71B2
330
1E
100
AcDbEntity
  8
製品
  6
Continuous
 62
     2
100
AcDbCircle
 10
193.7580046014545
 20
226.9069120161016
 30
0.0
 40
0.2
100
AcDbArc
 50
0.0
 51
90.0
  0
LINE
  5
71B3
330
1E
100
AcDbEntity
  8
製品
  6
Continuous
 62
     2
100
AcDbLine
 10
193.7580046014545
 20
227.1069120161014
 30
0.0
 11
193.5580046014547
 21
227.1069120161014
 31
0.0
  0
ARC
  5
71B4
330
1E
100
AcDbEntity
  8
製品
  6
Continuous
 62
     2
100
AcDbCircle
 10
193.5580046014547
 20
226.9069120161016
 30
0.0
 40
0.2
100
AcDbArc
 50
90.0
 51
180.0
  0
LINE
  5
71B5
330
1E
100
AcDbEntity
  8
製品
  6
Continuous
 62
     2
100
AcDbLine
 10
193.3580046014549
 20
226.9069120161016
 30
0.0
 11
193.3580046014549
 21
226.6069120161014
 31
0.0
  0
LINE
  5
71B6
330
1E
100
AcDbEntity
  8
製品
  6
Continuous
 62
     2
100
AcDbLine
 10
193.3580046014549
 20
226.6069120161014
 30
0.0
 11
193.2580046014545
 21
226.6069120161014
 31
0.0
  0
LINE
  5
71B7
330
1E
100
AcDbEntity
  8
製品
  6
Continuous
 62
     2
100
AcDbLine
 10
193.2580046014545
 20
226.6069120161014
 30
0.0
 11
193.2580046014545
 21
226.9069120161016
 31
0.0
  0
ARC
  5
71B8
330
1E
100
AcDbEntity
  8
製品
  6
Continuous
 62
     2
100
AcDbCircle
 10
193.5580046014547
 20
226.9069120161016
 30
0.0
 40
0.3
100
AcDbArc
 50
90.0
 51
180.0
  0
LINE
  5
71B9
330
1E
100
AcDbEntity
  8
製品
  6
Continuous
 62
     2
100
AcDbLine
 10
193.5580046014547
 20
227.2069120161013
 30
0.0
 11
193.7580046014545
 21
227.2069120161013
 31
0.0
  0
ARC
  5
71BA
330
1E
100
AcDbEntity
  8
製品
  6
Continuous
 62
     2
100
AcDbCircle
 10
193.7580046014545
 20
226.9069120161016
 30
0.0
 40
0.3
100
AcDbArc
 50
0.0
 51
90.0
  0
LINE
  5
71BB
330
1E
100
AcDbEntity
  8
製品
  6
Continuous
 62
     2
100
AcDbLine
 10
193.4580046014548
 20
222.2069120161013
 30
0.0
 11
192.8580046014549
 21
222.2069120161013
 31
0.0
  0
LINE
  5
71BC
330
1E
100
AcDbEntity
  8
製品
  6
Continuous
 62
     2
100
AcDbLine
 10
193.4580046014548
 20
222.3069120161017
 30
0.0
 11
192.8580046014549
 21
222.3069120161017
 31
0.0
  0
ARC
  5
71BD
330
1E
100
AcDbEntity
  8
製品
  6
Continuous
 62
     2
100
AcDbCircle
 10
193.4580046014548
 20
222.8069120161017
 30
0.0
 40
0.5
100
AcDbArc
 50
270.0
 51
0.0
  0
LINE
  5
71BE
330
1E
100
AcDbEntity
  8
製品
  6
Continuous
 62
     3
100
AcDbLine
 10
192.8580046014549
 20
226.4069120161016
 30
0.0
 11
193.1380046014546
 21
226.4069120161016
 31
0.0
  0
ARC
  5
71BF
330
1E
100
AcDbEntity
  8
製品
  6
Continuous
 62
     3
100
AcDbCircle
 10
193.1380046014546
 20
226.7269120161013
 30
0.0
 40
0.32
100
AcDbArc
 50
270.0
 51
0.0
  0
LINE
  5
71C0
330
1E
100
AcDbEntity
  8
製品
  6
Continuous
 62
     3
100
AcDbLine
 10
193.4580046014548
 20
226.7269120161013
 30
0.0
 11
193.4580046014548
 21
227.0801170161017
 31
0.0
  0
LINE
  5
71C1
330
1E
100
AcDbEntity
  8
製品
  6
Continuous
 62
     3
100
AcDbLine
 10
193.4580046014548
 20
227.0801170161017
 30
0.0
 11
193.778004601455
 21
227.1059100161015
 31
0.0
  0
LINE
  5
71C2
330
1E
100
AcDbEntity
  8
製品
  6
Continuous
 62
     3
100
AcDbLine
 10
193.778004601455
 20
227.1059100161015
 30
0.0
 11
193.778004601455
 21
226.7269120161013
 31
0.0
  0
ARC
  5
71C3
330
1E
100
AcDbEntity
  8
製品
  6
Continuous
 62
     3
100
AcDbCircle
 10
193.1380046014546
 20
226.7269120161013
 30
0.0
 40
0.6400000000000001
100
AcDbArc
 50
270.0
 51
0.0
  0
LINE
  5
71C4
330
1E
100
AcDbEntity
  8
製品
  6
Continuous
 62
     2
100
AcDbLine
 10
192.8580046014549
 20
222.3069120161017
 30
0.0
 11
192.6580046014546
 21
222.4069120161016
 31
0.0
  0
LINE
  5
71C5
330
1E
100
AcDbEntity
  8
製品
  6
Continuous
 62
     2
100
AcDbLine
 10
192.6580046014546
 20
222.4069120161016
 30
0.0
 11
192.3580046014549
 21
222.3069120161017
 31
0.0
  0
LINE
  5
71C6
330
1E
100
AcDbEntity
  8
製品
  6
Continuous
 62
     2
100
AcDbLine
 10
192.3580046014549
 20
222.3069120161017
 30
0.0
 11
192.0580046014547
 21
222.4069120161016
 31
0.0
  0
LINE
  5
71C7
330
1E
100
AcDbEntity
  8
製品
  6
Continuous
 62
     2
100
AcDbLine
 10
192.0580046014547
 20
222.4069120161016
 30
0.0
 11
191.7580046014545
 21
222.3069120161017
 31
0.0
  0
LINE
  5
71C8
330
1E
100
AcDbEntity
  8
製品
  6
Continuous
 62
     2
100
AcDbLine
 10
191.7580046014545
 20
222.3069120161017
 30
0.0
 11
191.4580046014548
 21
222.4069120161016
 31
0.0
  0
LINE
  5
71C9
330
1E
100
AcDbEntity
  8
製品
  6
Continuous
 62
     2
100
AcDbLine
 10
192.8580046014549
 20
222.2069120161013
 30
0.0
 11
192.6580046014546
 21
222.3069120161017
 31
0.0
  0
LINE
  5
71CA
330
1E
100
AcDbEntity
  8
製品
  6
Continuous
 62
     2
100
AcDbLine
 10
192.6580046014546
 20
222.3069120161017
 30
0.0
 11
192.3580046014549
 21
222.2069120161013
 31
0.0
  0
LINE
  5
71CB
330
1E
100
AcDbEntity
  8
製品
  6
Continuous
 62
     2
100
AcDbLine
 10
192.3580046014549
 20
222.2069120161013
 30
0.0
 11
192.0580046014547
 21
222.3069120161017
 31
0.0
  0
LINE
  5
71CC
330
1E
100
AcDbEntity
  8
製品
  6
Continuous
 62
     2
100
AcDbLine
 10
192.0580046014547
 20
222.3069120161017
 30
0.0
 11
191.7580046014545
 21
222.2069120161013
 31
0.0
  0
LINE
  5
71CD
330
1E
100
AcDbEntity
  8
製品
  6
Continuous
 62
     2
100
AcDbLine
 10
191.7580046014545
 20
222.2069120161013
 30
0.0
 11
191.4580046014548
 21
222.3069120161017
 31
0.0
  0
LINE
  5
71CE
330
1E
100
AcDbEntity
  8
製品
  6
Continuous
 62
     3
100
AcDbLine
 10
192.8580046014549
 20
231.7669120161013
 30
0.0
 11
192.8580046014549
 21
226.4069120161016
 31
0.0
  0
LINE
  5
71CF
330
1E
100
AcDbEntity
  8
製品
  6
Continuous
 62
     3
100
AcDbLine
 10
194.0580046014547
 20
232.4069120161016
 30
0.0
 11
194.0580046014547
 21
237.2069120161013
 31
0.0
  0
LINE
  5
71D0
330
1E
100
AcDbEntity
  8
製品
  6
Continuous
 62
     3
100
AcDbLine
 10
189.5233816014547
 20
238.0069120161015
 30
0.0
 11
188.3233816014549
 21
238.0069120161015
 31
0.0
  0
LINE
  5
71D1
330
1E
100
AcDbEntity
  8
製品
  6
Continuous
 62
     3
100
AcDbLine
 10
187.7733816014547
 20
237.0069120161015
 30
0.0
 11
188.3233816014549
 21
236.0069120161015
 31
0.0
  0
LINE
  5
71D2
330
1E
100
AcDbEntity
  8
製品
  6
Continuous
 62
     3
100
AcDbLine
 10
188.3233816014549
 20
236.0069120161015
 30
0.0
 11
189.5233816014547
 21
236.0069120161015
 31
0.0
  0
LINE
  5
71D3
330
1E
100
AcDbEntity
  8
製品
  6
Continuous
 62
     3
100
AcDbLine
 10
189.5233816014547
 20
236.0069120161015
 30
0.0
 11
190.0733816014549
 21
237.0069120161015
 31
0.0
  0
LINE
  5
71D4
330
1E
100
AcDbEntity
  8
製品
  6
Continuous
 62
     3
100
AcDbLine
 10
188.8233816014549
 20
237.7869120161017
 30
0.0
 11
189.0233816014547
 21
237.7869120161017
 31
0.0
  0
LINE
  5
71D5
330
1E
100
AcDbEntity
  8
製品
  6
Continuous
 62
     3
100
AcDbLine
 10
189.0233816014547
 20
237.7869120161017
 30
0.0
 11
189.0233816014547
 21
237.4069120161016
 31
0.0
  0
ARC
  5
71D6
330
1E
100
AcDbEntity
  8
製品
  6
Continuous
 62
     3
100
AcDbCircle
 10
188.5233816014547
 20
237.4069120161016
 30
0.0
 40
0.3
100
AcDbArc
 50
270.0
 51
0.0
  0
LINE
  5
71D7
330
1E
100
AcDbEntity
  8
製品
  6
Continuous
 62
     3
100
AcDbLine
 10
188.8233816014549
 20
237.7869120161017
 30
0.0
 11
188.8233816014549
 21
237.4069120161016
 31
0.0
  0
LINE
  5
71D8
330
1E
100
AcDbEntity
  8
製品
  6
Continuous
 62
     3
100
AcDbLine
 10
188.1633816014546
 20
237.1069120161014
 30
0.0
 11
188.5233816014547
 21
237.1069120161014
 31
0.0
  0
LINE
  5
71D9
330
1E
100
AcDbEntity
  8
製品
  6
Continuous
 62
     3
100
AcDbLine
 10
189.6833816014546
 20
237.1069120161014
 30
0.0
 11
189.6833816014546
 21
236.9069120161016
 31
0.0
  0
ARC
  5
71DA
330
1E
100
AcDbEntity
  8
製品
  6
Continuous
 62
     3
100
AcDbCircle
 10
189.3233816014549
 20
237.4069120161016
 30
0.0
 40
0.3
100
AcDbArc
 50
180.0
 51
270.0
  0
LINE
  5
71DB
330
1E
100
AcDbEntity
  8
製品
  6
Continuous
 62
     3
100
AcDbLine
 10
189.6833816014546
 20
237.1069120161014
 30
0.0
 11
189.3233816014549
 21
237.1069120161014
 31
0.0
  0
LINE
  5
71DC
330
1E
100
AcDbEntity
  8
製品
  6
Continuous
 62
     3
100
AcDbLine
 10
188.8233816014549
 20
236.1769120161016
 30
0.0
 11
189.0233816014547
 21
236.1769120161016
 31
0.0
  0
LINE
  5
71DD
330
1E
100
AcDbEntity
  8
製品
  6
Continuous
 62
     3
100
AcDbLine
 10
189.0233816014547
 20
236.2269120161013
 30
0.0
 11
189.0233816014547
 21
236.6069120161014
 31
0.0
  0
ARC
  5
71DE
330
1E
100
AcDbEntity
  8
製品
  6
Continuous
 62
     3
100
AcDbCircle
 10
188.5233816014547
 20
236.6069120161014
 30
0.0
 40
0.3
100
AcDbArc
 50
0.0
 51
90.0
  0
LINE
  5
71DF
330
1E
100
AcDbEntity
  8
製品
  6
Continuous
 62
     3
100
AcDbLine
 10
188.8233816014549
 20
236.2269120161013
 30
0.0
 11
188.8233816014549
 21
236.6069120161014
 31
0.0
  0
LINE
  5
71E0
330
1E
100
AcDbEntity
  8
製品
  6
Continuous
 62
     3
100
AcDbLine
 10
188.1633816014546
 20
236.9069120161016
 30
0.0
 11
188.5233816014547
 21
236.9069120161016
 31
0.0
  0
ARC
  5
71E1
330
1E
100
AcDbEntity
  8
製品
  6
Continuous
 62
     3
100
AcDbCircle
 10
189.3233816014549
 20
236.6069120161014
 30
0.0
 40
0.3
100
AcDbArc
 50
90.0
 51
180.0
  0
LINE
  5
71E2
330
1E
100
AcDbEntity
  8
製品
  6
Continuous
 62
     3
100
AcDbLine
 10
189.6833816014546
 20
236.9069120161016
 30
0.0
 11
189.3233816014549
 21
236.9069120161016
 31
0.0
  0
LINE
  5
71E3
330
1E
100
AcDbEntity
  8
製品
  6
Continuous
 62
     3
100
AcDbLine
 10
188.8233816014549
 20
236.2269120161013
 30
0.0
 11
189.0233816014547
 21
236.2269120161013
 31
0.0
  0
LINE
  5
71E4
330
1E
100
AcDbEntity
  8
製品
  6
Continuous
 62
     3
100
AcDbLine
 10
188.1633816014546
 20
237.1069120161014
 30
0.0
 11
188.1633816014546
 21
236.9069120161016
 31
0.0
  0
ARC
  5
71E5
330
1E
100
AcDbEntity
  8
製品
  6
Continuous
 62
     3
100
AcDbCircle
 10
185.0580046014547
 20
237.2069120161013
 30
0.0
 40
1.0
100
AcDbArc
 50
90.0
 51
180.0
  0
LINE
  5
71E6
330
1E
100
AcDbEntity
  8
製品
  6
Continuous
 62
     3
100
AcDbLine
 10
188.3233816014549
 20
238.0069120161015
 30
0.0
 11
187.7733816014547
 21
237.0069120161015
 31
0.0
  0
LINE
  5
71E7
330
1E
100
AcDbEntity
  8
製品
  6
Continuous
 62
     3
100
AcDbLine
 10
190.0733816014549
 20
237.0069120161015
 30
0.0
 11
189.5233816014547
 21
238.0069120161015
 31
0.0
  0
CIRCLE
  5
71E8
330
1E
100
AcDbEntity
  8
製品
  6
Continuous
 62
     3
100
AcDbCircle
 10
188.9233816014548
 20
237.0069120161015
 30
0.0
 40
1.0
  0
ARC
  5
71E9
330
1E
100
AcDbEntity
  8
製品
  6
Continuous
 62
     3
100
AcDbCircle
 10
184.6180046014547
 20
231.7669120161013
 30
0.0
 40
0.6400000000000001
100
AcDbArc
 50
0.0
 51
90.0
  0
LINE
  5
71EA
330
1E
100
AcDbEntity
  8
製品
  6
Continuous
 62
     3
100
AcDbLine
 10
184.6180046014547
 20
232.4069120161016
 30
0.0
 11
184.0580046014547
 21
232.4069120161016
 31
0.0
  0
LINE
  5
71EB
330
1E
100
AcDbEntity
  8
製品
  6
Continuous
 62
     2
100
AcDbLine
 10
188.0580046014547
 20
222.3069120161017
 30
0.0
 11
187.8580046014549
 21
222.4069120161016
 31
0.0
  0
LINE
  5
71EC
330
1E
100
AcDbEntity
  8
製品
  6
Continuous
 62
     2
100
AcDbLine
 10
187.8580046014549
 20
222.4069120161016
 30
0.0
 11
187.5580046014547
 21
222.3069120161017
 31
0.0
  0
LINE
  5
71ED
330
1E
100
AcDbEntity
  8
製品
  6
Continuous
 62
     2
100
AcDbLine
 10
188.0580046014547
 20
222.2069120161013
 30
0.0
 11
187.8580046014549
 21
222.3069120161017
 31
0.0
  0
LINE
  5
71EE
330
1E
100
AcDbEntity
  8
製品
  6
Continuous
 62
     2
100
AcDbLine
 10
187.8580046014549
 20
222.3069120161017
 30
0.0
 11
187.5580046014547
 21
222.2069120161013
 31
0.0
  0
LINE
  5
71EF
330
1E
100
AcDbEntity
  8
製品
  6
Continuous
 62
     2
100
AcDbLine
 10
191.1580046014546
 20
222.3069120161017
 30
0.0
 11
190.8580046014549
 21
222.4069120161016
 31
0.0
  0
LINE
  5
71F0
330
1E
100
AcDbEntity
  8
製品
  6
Continuous
 62
     2
100
AcDbLine
 10
190.8580046014549
 20
222.4069120161016
 30
0.0
 11
190.5580046014547
 21
222.3069120161017
 31
0.0
  0
LINE
  5
71F1
330
1E
100
AcDbEntity
  8
製品
  6
Continuous
 62
     2
100
AcDbLine
 10
190.5580046014547
 20
222.3069120161017
 30
0.0
 11
190.2580046014545
 21
222.4069120161016
 31
0.0
  0
LINE
  5
71F2
330
1E
100
AcDbEntity
  8
製品
  6
Continuous
 62
     2
100
AcDbLine
 10
190.2580046014545
 20
222.4069120161016
 30
0.0
 11
190.0580046014547
 21
222.3069120161017
 31
0.0
  0
LINE
  5
71F3
330
1E
100
AcDbEntity
  8
製品
  6
Continuous
 62
     2
100
AcDbLine
 10
190.0580046014547
 20
222.3069120161017
 30
0.0
 11
189.2580046014545
 21
222.3069120161017
 31
0.0
  0
LINE
  5
71F4
330
1E
100
AcDbEntity
  8
製品
  6
Continuous
 62
     2
100
AcDbLine
 10
189.2580046014545
 20
222.3069120161017
 30
0.0
 11
189.0580046014547
 21
222.4069120161016
 31
0.0
  0
LINE
  5
71F5
330
1E
100
AcDbEntity
  8
製品
  6
Continuous
 62
     2
100
AcDbLine
 10
191.1580046014546
 20
222.2069120161013
 30
0.0
 11
190.8580046014549
 21
222.3069120161017
 31
0.0
  0
LINE
  5
71F6
330
1E
100
AcDbEntity
  8
製品
  6
Continuous
 62
     2
100
AcDbLine
 10
190.8580046014549
 20
222.3069120161017
 30
0.0
 11
190.5580046014547
 21
222.2069120161013
 31
0.0
  0
LINE
  5
71F7
330
1E
100
AcDbEntity
  8
製品
  6
Continuous
 62
     2
100
AcDbLine
 10
190.5580046014547
 20
222.2069120161013
 30
0.0
 11
190.2580046014545
 21
222.3069120161017
 31
0.0
  0
LINE
  5
71F8
330
1E
100
AcDbEntity
  8
製品
  6
Continuous
 62
     2
100
AcDbLine
 10
190.2580046014545
 20
222.3069120161017
 30
0.0
 11
190.0580046014547
 21
222.2069120161013
 31
0.0
  0
LINE
  5
71F9
330
1E
100
AcDbEntity
  8
製品
  6
Continuous
 62
     2
100
AcDbLine
 10
190.0580046014547
 20
222.2069120161013
 30
0.0
 11
189.2580046014545
 21
222.2069120161013
 31
0.0
  0
LINE
  5
71FA
330
1E
100
AcDbEntity
  8
製品
  6
Continuous
 62
     2
100
AcDbLine
 10
189.2580046014545
 20
222.2069120161013
 30
0.0
 11
189.0580046014547
 21
222.3069120161017
 31
0.0
  0
LINE
  5
71FB
330
1E
100
AcDbEntity
  8
製品
  6
Continuous
 62
     2
100
AcDbLine
 10
188.0580046014547
 20
222.3069120161017
 30
0.0
 11
188.8580046014549
 21
222.3069120161017
 31
0.0
  0
LINE
  5
71FC
330
1E
100
AcDbEntity
  8
製品
  6
Continuous
 62
     2
100
AcDbLine
 10
188.8580046014549
 20
222.3069120161017
 30
0.0
 11
189.0580046014547
 21
222.4069120161016
 31
0.0
  0
LINE
  5
71FD
330
1E
100
AcDbEntity
  8
製品
  6
Continuous
 62
     2
100
AcDbLine
 10
188.0580046014547
 20
222.2069120161013
 30
0.0
 11
188.8580046014549
 21
222.2069120161013
 31
0.0
  0
LINE
  5
71FE
330
1E
100
AcDbEntity
  8
製品
  6
Continuous
 62
     2
100
AcDbLine
 10
188.8580046014549
 20
222.2069120161013
 30
0.0
 11
189.0580046014547
 21
222.3069120161017
 31
0.0
  0
LINE
  5
71FF
330
1E
100
AcDbEntity
  8
製品
  6
Continuous
 62
     3
100
AcDbLine
 10
184.6580046014546
 20
227.0801170161017
 30
0.0
 11
184.6580046014546
 21
226.7269120161013
 31
0.0
  0
ARC
  5
7200
330
1E
100
AcDbEntity
  8
製品
  6
Continuous
 62
     3
100
AcDbCircle
 10
184.9780046014548
 20
226.7269120161013
 30
0.0
 40
0.32
100
AcDbArc
 50
180.0
 51
270.0
  0
ARC
  5
7201
330
1E
100
AcDbEntity
  8
製品
  6
Continuous
 62
     2
100
AcDbCircle
 10
184.3580046014549
 20
226.9069120161016
 30
0.0
 40
0.2
100
AcDbArc
 50
90.0
 51
180.0
  0
LINE
  5
7202
330
1E
100
AcDbEntity
  8
製品
  6
Continuous
 62
     2
100
AcDbLine
 10
184.3580046014549
 20
227.1069120161014
 30
0.0
 11
184.5580046014547
 21
227.1069120161014
 31
0.0
  0
ARC
  5
7203
330
1E
100
AcDbEntity
  8
製品
  6
Continuous
 62
     2
100
AcDbCircle
 10
184.5580046014547
 20
226.9069120161016
 30
0.0
 40
0.2
100
AcDbArc
 50
0.0
 51
90.0
  0
LINE
  5
7204
330
1E
100
AcDbEntity
  8
製品
  6
Continuous
 62
     2
100
AcDbLine
 10
184.7580046014545
 20
226.9069120161016
 30
0.0
 11
184.7580046014545
 21
226.6069120161014
 31
0.0
  0
LINE
  5
7205
330
1E
100
AcDbEntity
  8
製品
  6
Continuous
 62
     2
100
AcDbLine
 10
184.7580046014545
 20
226.6069120161014
 30
0.0
 11
184.8580046014549
 21
226.6069120161014
 31
0.0
  0
LINE
  5
7206
330
1E
100
AcDbEntity
  8
製品
  6
Continuous
 62
     2
100
AcDbLine
 10
184.8580046014549
 20
226.6069120161014
 30
0.0
 11
184.8580046014549
 21
226.9069120161016
 31
0.0
  0
ARC
  5
7207
330
1E
100
AcDbEntity
  8
製品
  6
Continuous
 62
     2
100
AcDbCircle
 10
184.5580046014547
 20
226.9069120161016
 30
0.0
 40
0.3
100
AcDbArc
 50
0.0
 51
90.0
  0
LINE
  5
7208
330
1E
100
AcDbEntity
  8
製品
  6
Continuous
 62
     2
100
AcDbLine
 10
184.5580046014547
 20
227.2069120161013
 30
0.0
 11
184.3580046014549
 21
227.2069120161013
 31
0.0
  0
ARC
  5
7209
330
1E
100
AcDbEntity
  8
製品
  6
Continuous
 62
     2
100
AcDbCircle
 10
184.3580046014549
 20
226.9069120161016
 30
0.0
 40
0.3
100
AcDbArc
 50
90.0
 51
180.0
  0
ARC
  5
720A
330
1E
100
AcDbEntity
  8
製品
  6
Continuous
 62
     2
100
AcDbCircle
 10
184.6580046014546
 20
222.8069120161017
 30
0.0
 40
0.5
100
AcDbArc
 50
180.0
 51
270.0
  0
LINE
  5
720B
330
1E
100
AcDbEntity
  8
製品
  6
Continuous
 62
     2
100
AcDbLine
 10
187.2580046014545
 20
222.4069120161016
 30
0.0
 11
186.9580046014548
 21
222.3069120161017
 31
0.0
  0
LINE
  5
720C
330
1E
100
AcDbEntity
  8
製品
  6
Continuous
 62
     2
100
AcDbLine
 10
186.9580046014548
 20
222.3069120161017
 30
0.0
 11
186.6580046014546
 21
222.4069120161016
 31
0.0
  0
LINE
  5
720D
330
1E
100
AcDbEntity
  8
製品
  6
Continuous
 62
     2
100
AcDbLine
 10
186.6580046014546
 20
222.4069120161016
 30
0.0
 11
186.3580046014549
 21
222.3069120161017
 31
0.0
  0
LINE
  5
720E
330
1E
100
AcDbEntity
  8
製品
  6
Continuous
 62
     2
100
AcDbLine
 10
186.3580046014549
 20
222.3069120161017
 30
0.0
 11
186.0580046014547
 21
222.4069120161016
 31
0.0
  0
LINE
  5
720F
330
1E
100
AcDbEntity
  8
製品
  6
Continuous
 62
     2
100
AcDbLine
 10
186.0580046014547
 20
222.4069120161016
 30
0.0
 11
185.7580046014545
 21
222.3069120161017
 31
0.0
  0
LINE
  5
7210
330
1E
100
AcDbEntity
  8
製品
  6
Continuous
 62
     2
100
AcDbLine
 10
185.7580046014545
 20
222.3069120161017
 30
0.0
 11
185.4580046014548
 21
222.4069120161016
 31
0.0
  0
LINE
  5
7211
330
1E
100
AcDbEntity
  8
製品
  6
Continuous
 62
     2
100
AcDbLine
 10
185.4580046014548
 20
222.4069120161016
 30
0.0
 11
185.2580046014545
 21
222.3069120161017
 31
0.0
  0
LINE
  5
7212
330
1E
100
AcDbEntity
  8
製品
  6
Continuous
 62
     2
100
AcDbLine
 10
187.2580046014545
 20
222.3069120161017
 30
0.0
 11
186.9580046014548
 21
222.2069120161013
 31
0.0
  0
LINE
  5
7213
330
1E
100
AcDbEntity
  8
製品
  6
Continuous
 62
     2
100
AcDbLine
 10
186.9580046014548
 20
222.2069120161013
 30
0.0
 11
186.6580046014546
 21
222.3069120161017
 31
0.0
  0
LINE
  5
7214
330
1E
100
AcDbEntity
  8
製品
  6
Continuous
 62
     2
100
AcDbLine
 10
186.6580046014546
 20
222.3069120161017
 30
0.0
 11
186.3580046014549
 21
222.2069120161013
 31
0.0
  0
LINE
  5
7215
330
1E
100
AcDbEntity
  8
製品
  6
Continuous
 62
     2
100
AcDbLine
 10
186.3580046014549
 20
222.2069120161013
 30
0.0
 11
186.0580046014547
 21
222.3069120161017
 31
0.0
  0
LINE
  5
7216
330
1E
100
AcDbEntity
  8
製品
  6
Continuous
 62
     2
100
AcDbLine
 10
186.0580046014547
 20
222.3069120161017
 30
0.0
 11
185.7580046014545
 21
222.2069120161013
 31
0.0
  0
LINE
  5
7217
330
1E
100
AcDbEntity
  8
製品
  6
Continuous
 62
     2
100
AcDbLine
 10
185.7580046014545
 20
222.2069120161013
 30
0.0
 11
185.4580046014548
 21
222.3069120161017
 31
0.0
  0
LINE
  5
7218
330
1E
100
AcDbEntity
  8
製品
  6
Continuous
 62
     2
100
AcDbLine
 10
185.4580046014548
 20
222.3069120161017
 30
0.0
 11
185.2580046014545
 21
222.2069120161013
 31
0.0
  0
ARC
  5
7219
330
1E
100
AcDbEntity
  8
製品
  6
Continuous
 62
     3
100
AcDbCircle
 10
184.9780046014548
 20
226.7269120161013
 30
0.0
 40
0.6400000000000001
100
AcDbArc
 50
180.0
 51
270.0
  0
LINE
  5
721A
330
1E
100
AcDbEntity
  8
製品
  6
Continuous
 62
     3
100
AcDbLine
 10
184.3380046014549
 20
226.7269120161013
 30
0.0
 11
184.3380046014549
 21
227.1059100161015
 31
0.0
  0
LINE
  5
721B
330
1E
100
AcDbEntity
  8
製品
  6
Continuous
 62
     3
100
AcDbLine
 10
184.3380046014549
 20
227.1059100161015
 30
0.0
 11
184.6580046014546
 21
227.0801170161017
 31
0.0
  0
LINE
  5
721C
330
1E
100
AcDbEntity
  8
製品
  6
Continuous
 62
     2
100
AcDbLine
 10
184.1580046014546
 20
222.8069120161017
 30
0.0
 11
184.1580046014546
 21
224.8889690161013
 31
0.0
  0
LINE
  5
721D
330
1E
100
AcDbEntity
  8
製品
  6
Continuous
 62
     2
100
AcDbLine
 10
184.0580046014547
 20
222.8069120161017
 30
0.0
 11
184.0580046014547
 21
224.8889690161013
 31
0.0
  0
LINE
  5
721E
330
1E
100
AcDbEntity
  8
製品
  6
Continuous
 62
     2
100
AcDbLine
 10
184.0580046014547
 20
224.8889690161013
 30
0.0
 11
184.0580046014547
 21
226.9069120161016
 31
0.0
  0
LINE
  5
721F
330
1E
100
AcDbEntity
  8
製品
  6
Continuous
 62
     2
100
AcDbLine
 10
184.1580046014546
 20
224.8889690161013
 30
0.0
 11
184.1580046014546
 21
226.9069120161016
 31
0.0
  0
ARC
  5
7220
330
1E
100
AcDbEntity
  8
製品
  6
Continuous
 62
     2
100
AcDbCircle
 10
184.3580046014549
 20
226.9069120161016
 30
0.0
 40
0.2
100
AcDbArc
 50
90.0
 51
180.0
  0
LINE
  5
7221
330
1E
100
AcDbEntity
  8
製品
  6
Continuous
 62
     2
100
AcDbLine
 10
184.3580046014549
 20
227.1069120161014
 30
0.0
 11
184.5580046014547
 21
227.1069120161014
 31
0.0
  0
ARC
  5
7222
330
1E
100
AcDbEntity
  8
製品
  6
Continuous
 62
     2
100
AcDbCircle
 10
184.5580046014547
 20
226.9069120161016
 30
0.0
 40
0.2
100
AcDbArc
 50
0.0
 51
90.0
  0
LINE
  5
7223
330
1E
100
AcDbEntity
  8
製品
  6
Continuous
 62
     2
100
AcDbLine
 10
184.7580046014545
 20
226.9069120161016
 30
0.0
 11
184.7580046014545
 21
226.6069120161014
 31
0.0
  0
LINE
  5
7224
330
1E
100
AcDbEntity
  8
製品
  6
Continuous
 62
     2
100
AcDbLine
 10
184.7580046014545
 20
226.6069120161014
 30
0.0
 11
184.8580046014549
 21
226.6069120161014
 31
0.0
  0
LINE
  5
7225
330
1E
100
AcDbEntity
  8
製品
  6
Continuous
 62
     2
100
AcDbLine
 10
184.8580046014549
 20
226.6069120161014
 30
0.0
 11
184.8580046014549
 21
226.9069120161016
 31
0.0
  0
ARC
  5
7226
330
1E
100
AcDbEntity
  8
製品
  6
Continuous
 62
     2
100
AcDbCircle
 10
184.5580046014547
 20
226.9069120161016
 30
0.0
 40
0.3
100
AcDbArc
 50
0.0
 51
90.0
  0
LINE
  5
7227
330
1E
100
AcDbEntity
  8
製品
  6
Continuous
 62
     2
100
AcDbLine
 10
184.5580046014547
 20
227.2069120161013
 30
0.0
 11
184.3580046014549
 21
227.2069120161013
 31
0.0
  0
ARC
  5
7228
330
1E
100
AcDbEntity
  8
製品
  6
Continuous
 62
     2
100
AcDbCircle
 10
184.3580046014549
 20
226.9069120161016
 30
0.0
 40
0.3
100
AcDbArc
 50
90.0
 51
180.0
  0
LINE
  5
7229
330
1E
100
AcDbEntity
  8
製品
  6
Continuous
 62
     2
100
AcDbLine
 10
184.6580046014546
 20
222.2069120161013
 30
0.0
 11
185.2580046014545
 21
222.2069120161013
 31
0.0
  0
LINE
  5
722A
330
1E
100
AcDbEntity
  8
製品
  6
Continuous
 62
     2
100
AcDbLine
 10
184.6580046014546
 20
222.3069120161017
 30
0.0
 11
185.2580046014545
 21
222.3069120161017
 31
0.0
  0
LINE
  5
722B
330
1E
100
AcDbEntity
  8
製品
  6
Continuous
 62
     2
100
AcDbLine
 10
187.5580046014547
 20
222.3069120161017
 30
0.0
 11
187.2580046014545
 21
222.4069120161016
 31
0.0
  0
LINE
  5
722C
330
1E
100
AcDbEntity
  8
製品
  6
Continuous
 62
     2
100
AcDbLine
 10
187.5580046014547
 20
222.2069120161013
 30
0.0
 11
187.2580046014545
 21
222.3069120161017
 31
0.0
  0
LINE
  5
722D
330
1E
100
AcDbEntity
  8
製品
  6
Continuous
 62
     3
100
AcDbLine
 10
185.2580046014545
 20
226.4069120161016
 30
0.0
 11
185.2580046014545
 21
231.7669120161013
 31
0.0
  0
LINE
  5
722E
330
1E
100
AcDbEntity
  8
製品
  6
Continuous
 62
     3
100
AcDbLine
 10
184.0580046014547
 20
232.4069120161016
 30
0.0
 11
184.0580046014547
 21
237.2069120161013
 31
0.0
  0
LINE
  5
722F
330
1E
100
AcDbEntity
  8
製品
  6
Continuous
 62
     3
100
AcDbLine
 10
184.9780046014548
 20
226.4069120161016
 30
0.0
 11
192.8580046014549
 21
226.4069120161016
 31
0.0
  0
LINE
  5
7230
330
1E
100
AcDbEntity
  8
製品
  6
Continuous
 62
     3
100
AcDbLine
 10
193.1380046014546
 20
226.0869120161014
 30
0.0
 11
184.9780046014548
 21
226.0869120161014
 31
0.0
  0
LINE
  5
7231
330
1E
100
AcDbEntity
  8
製品
  6
Continuous
 62
     2
100
AcDbLine
 10
191.4580046014548
 20
222.4069120161016
 30
0.0
 11
191.1580046014546
 21
222.3069120161017
 31
0.0
  0
LINE
  5
7232
330
1E
100
AcDbEntity
  8
製品
  6
Continuous
 62
     2
100
AcDbLine
 10
191.4580046014548
 20
222.3069120161017
 30
0.0
 11
191.1580046014546
 21
222.2069120161013
 31
0.0
  0
LINE
  5
7233
330
1E
100
AcDbEntity
  8
製品
  6
Continuous
 62
     3
100
AcDbLine
 10
185.0580046014547
 20
238.2069120161014
 30
0.0
 11
193.0580046014547
 21
238.2069120161014
 31
0.0
  0
LINE
  5
7234
330
1E
100
AcDbEntity
  8
製品
  6
Continuous
 62
     3
100
AcDbLine
 10
184.0580046014547
 20
235.2069120161013
 30
0.0
 11
194.0580046014547
 21
235.2069120161013
 31
0.0
  0
ARC
  5
7235
330
1E
100
AcDbEntity
  8
製品
  6
Continuous
 62
     2
100
AcDbCircle
 10
193.4580046014548
 20
222.8069120161017
 30
0.0
 40
0.6
100
AcDbArc
 50
270.0
 51
0.0
  0
ARC
  5
7236
330
1E
100
AcDbEntity
  8
製品
  6
Continuous
 62
     2
100
AcDbCircle
 10
184.6580046014546
 20
222.8069120161017
 30
0.0
 40
0.6
100
AcDbArc
 50
180.0
 51
270.0
  0
CIRCLE
  5
7237
330
1E
100
AcDbEntity
  8
図面枠
  6
Continuous
 62
     3
100
AcDbCircle
 10
246.5355396014548
 20
237.2162410161013
 30
0.0
 40
0.3
  0
ARC
  5
7238
330
1E
100
AcDbEntity
  8
製品
  6
Continuous
 62
     3
100
AcDbCircle
 10
245.6581376014546
 20
237.2069120161013
 30
0.0
 40
1.0
100
AcDbArc
 50
90.0
 51
180.0
  0
ARC
  5
7239
330
1E
100
AcDbEntity
  8
製品
  6
Continuous
 62
     3
100
AcDbCircle
 10
245.2181376014546
 20
231.7669120161013
 30
0.0
 40
0.6400000000000001
100
AcDbArc
 50
0.0
 51
90.0
  0
ARC
  5
723A
330
1E
100
AcDbEntity
  8
製品
  6
Continuous
 62
     3
100
AcDbCircle
 10
245.5781376014547
 20
226.7269120161013
 30
0.0
 40
0.6400000000000001
100
AcDbArc
 50
180.0
 51
270.0
  0
LINE
  5
723B
330
1E
100
AcDbEntity
  8
製品
  6
Continuous
 62
     3
100
AcDbLine
 10
244.9381376014549
 20
226.7269120161013
 30
0.0
 11
244.9381376014549
 21
227.1059100161015
 31
0.0
  0
LINE
  5
723C
330
1E
100
AcDbEntity
  8
製品
  6
Continuous
 62
     3
100
AcDbLine
 10
244.9381376014549
 20
227.1059100161015
 30
0.0
 11
245.2581376014546
 21
227.0801170161017
 31
0.0
  0
LINE
  5
723D
330
1E
100
AcDbEntity
  8
製品
  6
Continuous
 62
     3
100
AcDbLine
 10
245.2581376014546
 20
227.0801170161017
 30
0.0
 11
245.2581376014546
 21
226.7269120161013
 31
0.0
  0
ARC
  5
723E
330
1E
100
AcDbEntity
  8
製品
  6
Continuous
 62
     3
100
AcDbCircle
 10
245.5781376014547
 20
226.7269120161013
 30
0.0
 40
0.32
100
AcDbArc
 50
180.0
 51
270.0
  0
ARC
  5
723F
330
1E
100
AcDbEntity
  8
製品
  6
Continuous
 62
     2
100
AcDbCircle
 10
244.9581376014549
 20
226.9069120161016
 30
0.0
 40
0.2
100
AcDbArc
 50
90.0
 51
180.0
  0
LINE
  5
7240
330
1E
100
AcDbEntity
  8
製品
  6
Continuous
 62
     2
100
AcDbLine
 10
244.9581376014549
 20
227.1069120161014
 30
0.0
 11
245.1581376014547
 21
227.1069120161014
 31
0.0
  0
ARC
  5
7241
330
1E
100
AcDbEntity
  8
製品
  6
Continuous
 62
     2
100
AcDbCircle
 10
245.1581376014547
 20
226.9069120161016
 30
0.0
 40
0.2
100
AcDbArc
 50
0.0
 51
90.0
  0
LINE
  5
7242
330
1E
100
AcDbEntity
  8
製品
  6
Continuous
 62
     2
100
AcDbLine
 10
245.3581376014549
 20
226.9069120161016
 30
0.0
 11
245.3581376014549
 21
226.6069120161014
 31
0.0
  0
LINE
  5
7243
330
1E
100
AcDbEntity
  8
製品
  6
Continuous
 62
     2
100
AcDbLine
 10
245.3581376014549
 20
226.6069120161014
 30
0.0
 11
245.4581376014548
 21
226.6069120161014
 31
0.0
  0
LINE
  5
7244
330
1E
100
AcDbEntity
  8
製品
  6
Continuous
 62
     2
100
AcDbLine
 10
245.4581376014548
 20
226.6069120161014
 30
0.0
 11
245.4581376014548
 21
226.9069120161016
 31
0.0
  0
ARC
  5
7245
330
1E
100
AcDbEntity
  8
製品
  6
Continuous
 62
     2
100
AcDbCircle
 10
245.1581376014547
 20
226.9069120161016
 30
0.0
 40
0.3
100
AcDbArc
 50
0.0
 51
90.0
  0
LINE
  5
7246
330
1E
100
AcDbEntity
  8
製品
  6
Continuous
 62
     2
100
AcDbLine
 10
245.1581376014547
 20
227.2069120161013
 30
0.0
 11
244.9581376014549
 21
227.2069120161013
 31
0.0
  0
LINE
  5
7247
330
1E
100
AcDbEntity
  8
製品
  6
Continuous
 62
     2
100
AcDbLine
 10
244.7581376014546
 20
222.8069120161017
 30
0.0
 11
244.7581376014546
 21
224.8889690161013
 31
0.0
  0
LINE
  5
7248
330
1E
100
AcDbEntity
  8
製品
  6
Continuous
 62
     2
100
AcDbLine
 10
244.7581376014546
 20
224.8889690161013
 30
0.0
 11
244.7581376014546
 21
226.9069120161016
 31
0.0
  0
ARC
  5
7249
330
1E
100
AcDbEntity
  8
製品
  6
Continuous
 62
     2
100
AcDbCircle
 10
244.9581376014549
 20
226.9069120161016
 30
0.0
 40
0.2
100
AcDbArc
 50
90.0
 51
180.0
  0
LINE
  5
724A
330
1E
100
AcDbEntity
  8
製品
  6
Continuous
 62
     2
100
AcDbLine
 10
244.9581376014549
 20
227.1069120161014
 30
0.0
 11
245.1581376014547
 21
227.1069120161014
 31
0.0
  0
ARC
  5
724B
330
1E
100
AcDbEntity
  8
製品
  6
Continuous
 62
     2
100
AcDbCircle
 10
245.1581376014547
 20
226.9069120161016
 30
0.0
 40
0.2
100
AcDbArc
 50
0.0
 51
90.0
  0
LINE
  5
724C
330
1E
100
AcDbEntity
  8
製品
  6
Continuous
 62
     2
100
AcDbLine
 10
245.3581376014549
 20
226.9069120161016
 30
0.0
 11
245.3581376014549
 21
226.6069120161014
 31
0.0
  0
LINE
  5
724D
330
1E
100
AcDbEntity
  8
製品
  6
Continuous
 62
     2
100
AcDbLine
 10
245.3581376014549
 20
226.6069120161014
 30
0.0
 11
245.4581376014548
 21
226.6069120161014
 31
0.0
  0
LINE
  5
724E
330
1E
100
AcDbEntity
  8
製品
  6
Continuous
 62
     2
100
AcDbLine
 10
245.4581376014548
 20
226.6069120161014
 30
0.0
 11
245.4581376014548
 21
226.9069120161016
 31
0.0
  0
ARC
  5
724F
330
1E
100
AcDbEntity
  8
製品
  6
Continuous
 62
     2
100
AcDbCircle
 10
245.1581376014547
 20
226.9069120161016
 30
0.0
 40
0.3
100
AcDbArc
 50
0.0
 51
90.0
  0
LINE
  5
7250
330
1E
100
AcDbEntity
  8
製品
  6
Continuous
 62
     2
100
AcDbLine
 10
245.1581376014547
 20
227.2069120161013
 30
0.0
 11
244.9581376014549
 21
227.2069120161013
 31
0.0
  0
LINE
  5
7251
330
1E
100
AcDbEntity
  8
製品
  6
Continuous
 62
     2
100
AcDbLine
 10
245.2581376014546
 20
222.2069120161013
 30
0.0
 11
245.8581376014549
 21
222.2069120161013
 31
0.0
  0
LINE
  5
7252
330
1E
100
AcDbEntity
  8
製品
  6
Continuous
 62
     2
100
AcDbLine
 10
245.2581376014546
 20
222.3069120161017
 30
0.0
 11
245.8581376014549
 21
222.3069120161017
 31
0.0
  0
LINE
  5
7253
330
1E
100
AcDbEntity
  8
製品
  6
Continuous
 62
     2
100
AcDbLine
 10
247.5581376014547
 20
222.3069120161017
 30
0.0
 11
247.2581376014546
 21
222.4069120161016
 31
0.0
  0
LINE
  5
7254
330
1E
100
AcDbEntity
  8
製品
  6
Continuous
 62
     2
100
AcDbLine
 10
247.2581376014546
 20
222.4069120161016
 30
0.0
 11
246.9581376014549
 21
222.3069120161017
 31
0.0
  0
LINE
  5
7255
330
1E
100
AcDbEntity
  8
製品
  6
Continuous
 62
     2
100
AcDbLine
 10
246.9581376014549
 20
222.3069120161017
 30
0.0
 11
246.6581376014547
 21
222.4069120161016
 31
0.0
  0
LINE
  5
7256
330
1E
100
AcDbEntity
  8
製品
  6
Continuous
 62
     2
100
AcDbLine
 10
246.6581376014547
 20
222.4069120161016
 30
0.0
 11
246.3581376014549
 21
222.3069120161017
 31
0.0
  0
LINE
  5
7257
330
1E
100
AcDbEntity
  8
製品
  6
Continuous
 62
     2
100
AcDbLine
 10
246.3581376014549
 20
222.3069120161017
 30
0.0
 11
246.0581376014547
 21
222.4069120161016
 31
0.0
  0
LINE
  5
7258
330
1E
100
AcDbEntity
  8
製品
  6
Continuous
 62
     2
100
AcDbLine
 10
246.0581376014547
 20
222.4069120161016
 30
0.0
 11
245.8581376014549
 21
222.3069120161017
 31
0.0
  0
LINE
  5
7259
330
1E
100
AcDbEntity
  8
製品
  6
Continuous
 62
     2
100
AcDbLine
 10
247.5581376014547
 20
222.2069120161013
 30
0.0
 11
247.2581376014546
 21
222.3069120161017
 31
0.0
  0
LINE
  5
725A
330
1E
100
AcDbEntity
  8
製品
  6
Continuous
 62
     2
100
AcDbLine
 10
247.2581376014546
 20
222.3069120161017
 30
0.0
 11
246.9581376014549
 21
222.2069120161013
 31
0.0
  0
LINE
  5
725B
330
1E
100
AcDbEntity
  8
製品
  6
Continuous
 62
     2
100
AcDbLine
 10
246.9581376014549
 20
222.2069120161013
 30
0.0
 11
246.6581376014547
 21
222.3069120161017
 31
0.0
  0
LINE
  5
725C
330
1E
100
AcDbEntity
  8
製品
  6
Continuous
 62
     2
100
AcDbLine
 10
246.6581376014547
 20
222.3069120161017
 30
0.0
 11
246.3581376014549
 21
222.2069120161013
 31
0.0
  0
LINE
  5
725D
330
1E
100
AcDbEntity
  8
製品
  6
Continuous
 62
     2
100
AcDbLine
 10
246.3581376014549
 20
222.2069120161013
 30
0.0
 11
246.0581376014547
 21
222.3069120161017
 31
0.0
  0
LINE
  5
725E
330
1E
100
AcDbEntity
  8
製品
  6
Continuous
 62
     2
100
AcDbLine
 10
246.0581376014547
 20
222.3069120161017
 30
0.0
 11
245.8581376014549
 21
222.2069120161013
 31
0.0
  0
LINE
  5
725F
330
1E
100
AcDbEntity
  8
製品
  6
Continuous
 62
     3
100
AcDbLine
 10
245.8581376014549
 20
226.4069120161016
 30
0.0
 11
245.8581376014549
 21
231.7669120161013
 31
0.0
  0
LINE
  5
7260
330
1E
100
AcDbEntity
  8
製品
  6
Continuous
 62
     2
100
AcDbLine
 10
244.6581376014547
 20
222.8069120161017
 30
0.0
 11
244.6581376014547
 21
224.8889690161013
 31
0.0
  0
LINE
  5
7261
330
1E
100
AcDbEntity
  8
製品
  6
Continuous
 62
     2
100
AcDbLine
 10
244.6581376014547
 20
224.8889690161013
 30
0.0
 11
244.6581376014547
 21
226.9069120161016
 31
0.0
  0
LINE
  5
7262
330
1E
100
AcDbEntity
  8
製品
  6
Continuous
 62
     3
100
AcDbLine
 10
245.2181376014546
 20
232.4069120161016
 30
0.0
 11
244.6581376014547
 21
232.4069120161016
 31
0.0
  0
ARC
  5
7263
330
1E
100
AcDbEntity
  8
製品
  6
Continuous
 62
     2
100
AcDbCircle
 10
244.9581376014549
 20
226.9069120161016
 30
0.0
 40
0.3
100
AcDbArc
 50
90.0
 51
180.0
  0
ARC
  5
7264
330
1E
100
AcDbEntity
  8
製品
  6
Continuous
 62
     2
100
AcDbCircle
 10
244.9581376014549
 20
226.9069120161016
 30
0.0
 40
0.3
100
AcDbArc
 50
90.0
 51
180.0
  0
ARC
  5
7265
330
1E
100
AcDbEntity
  8
製品
  6
Continuous
 62
     2
100
AcDbCircle
 10
245.2581376014546
 20
222.8069120161017
 30
0.0
 40
0.5
100
AcDbArc
 50
180.0
 51
270.0
  0
LINE
  5
7266
330
1E
100
AcDbEntity
  8
製品
  6
Continuous
 62
     3
100
AcDbLine
 10
244.6581376014547
 20
232.4069120161016
 30
0.0
 11
244.6581376014547
 21
237.2069120161013
 31
0.0
  0
LINE
  5
7267
330
1E
100
AcDbEntity
  8
図面枠
  6
Continuous
 62
     3
100
AcDbLine
 10
246.5355396014548
 20
237.2162410161013
 30
0.0
 11
239.522972601455
 21
249.5503740161016
 31
0.0
  0
ARC
  5
7268
330
1E
100
AcDbEntity
  8
製品
  6
Continuous
 62
     2
100
AcDbCircle
 10
245.2581376014546
 20
222.8069120161017
 30
0.0
 40
0.6
100
AcDbArc
 50
180.0
 51
270.0
  0
TEXT
  5
7269
330
1E
100
AcDbEntity
  8
図面枠
  6
Continuous
 62
     3
100
AcDbText
 10
222.9891453709361
 20
242.9311155287075
 30
0.0
 40
3.0
  1
Ｗ用
 41
0.8
  7
ACAD
100
AcDbText
  0
CIRCLE
  5
726A
330
1E
100
AcDbEntity
  8
図面枠
  6
Continuous
 62
     3
100
AcDbCircle
 10
224.6117186014549
 20
221.3406280161016
 30
0.0
 40
0.3
  0
LINE
  5
726B
330
1E
100
AcDbEntity
  8
図面枠
  6
Continuous
 62
     3
100
AcDbLine
 10
224.6117186014549
 20
221.3406280161016
 30
0.0
 11
229.2762026014548
 21
212.0934920161017
 31
0.0
  0
LINE
  5
726C
330
1E
100
AcDbEntity
  8
図面枠
  6
Continuous
 62
     3
100
AcDbLine
 10
239.522972601455
 20
249.5503740161016
 30
0.0
 11
218.8426426014548
 21
249.5503740161016
 31
0.0
  0
TEXT
  5
726D
330
1E
100
AcDbEntity
  8
図面枠
  6
Continuous
 62
     3
100
AcDbText
 10
218.9218226014546
 20
250.4928200161016
 30
0.0
 40
3.0
  1
耐風圧用クリップ
 41
0.8
  7
ACAD
100
AcDbText
  0
LINE
  5
726E
330
1E
100
AcDbEntity
  8
図面枠
  6
Continuous
 62
     3
100
AcDbLine
 10
229.2762026014548
 20
212.0934920161017
 30
0.0
 11
239.5957966014548
 21
212.0018980161017
 31
0.0
  0
TEXT
  5
726F
330
1E
100
AcDbEntity
  8
図面枠
  6
Continuous
 62
     3
100
AcDbText
 10
229.2850886014548
 20
213.0934520161013
 30
0.0
 40
3.0
  1
仕上げ材
 41
0.8
  7
ACAD
100
AcDbText
  0
DIMENSION
  5
7270
330
1E
100
AcDbEntity
  8
寸法
  6
Continuous
100
AcDbDimension
  2
*D10
 10
310.2099626014547
 20
194.4171300161015
 30
0.0
 11
279.9098966014546
 21
196.7171300161015
 31
0.0
 70
    32
  1
303
 71
     5
 42
60.60013200000003
  3
AutoCAD
100
AcDbAlignedDimension
 13
249.6098306014546
 23
212.6175950161014
 33
0.0
 14
310.2099626014547
 24
212.6175950161014
 34
0.0
100
AcDbRotatedDimension
1001
ACAD
1000
DSTYLE
1002
{
1070
   287
1070
     4
1070
   140
1040
10.0
1070
   147
1040
0.8
1070
   279
1070
     1
1070
   289
1070
     3
1002
}
  0
LINE
  5
7271
330
1E
100
AcDbEntity
  8
製品
  6
Continuous
 62
     4
100
AcDbLine
 10
306.4578726014547
 20
227.2069120161013
 30
0.0
 11
253.4581376014549
 21
227.2069120161013
 31
0.0
  0
LINE
  5
7272
330
1E
100
AcDbEntity
  8
製品
  6
Continuous
 62
     4
100
AcDbLine
 10
254.6581376014547
 20
234.8069120161017
 30
0.0
 11
305.2578726014549
 21
234.8069120161017
 31
0.0
  0
ARC
  5
7273
330
1E
100
AcDbEntity
  8
製品
  6
Continuous
 62
     3
100
AcDbCircle
 10
253.6581376014547
 20
237.2069120161013
 30
0.0
 40
1.0
100
AcDbArc
 50
0.0
 51
90.0
  0
LINE
  5
7274
330
1E
100
AcDbEntity
  8
製品
  6
Continuous
 62
     3
100
AcDbLine
 10
254.6581376014547
 20
232.4069120161016
 30
0.0
 11
254.0981376014547
 21
232.4069120161016
 31
0.0
  0
ARC
  5
7275
330
1E
100
AcDbEntity
  8
製品
  6
Continuous
 62
     3
100
AcDbCircle
 10
254.0981376014547
 20
231.7669120161013
 30
0.0
 40
0.6400000000000001
100
AcDbArc
 50
90.0
 51
180.0
  0
ARC
  5
7276
330
1E
100
AcDbEntity
  8
製品
  6
Continuous
 62
     2
100
AcDbCircle
 10
254.1581376014546
 20
226.9069120161016
 30
0.0
 40
0.3
100
AcDbArc
 50
90.0
 51
180.0
  0
LINE
  5
7277
330
1E
100
AcDbEntity
  8
製品
  6
Continuous
 62
     2
100
AcDbLine
 10
254.1581376014546
 20
227.2069120161013
 30
0.0
 11
254.3581376014549
 21
227.2069120161013
 31
0.0
  0
ARC
  5
7278
330
1E
100
AcDbEntity
  8
製品
  6
Continuous
 62
     2
100
AcDbCircle
 10
254.3581376014549
 20
226.9069120161016
 30
0.0
 40
0.3
100
AcDbArc
 50
0.0
 51
90.0
  0
LINE
  5
7279
330
1E
100
AcDbEntity
  8
製品
  6
Continuous
 62
     2
100
AcDbLine
 10
254.0581376014547
 20
222.2069120161013
 30
0.0
 11
253.4581376014549
 21
222.2069120161013
 31
0.0
  0
LINE
  5
727A
330
1E
100
AcDbEntity
  8
製品
  6
Continuous
 62
     2
100
AcDbLine
 10
254.0581376014547
 20
222.3069120161017
 30
0.0
 11
253.4581376014549
 21
222.3069120161017
 31
0.0
  0
ARC
  5
727B
330
1E
100
AcDbEntity
  8
製品
  6
Continuous
 62
     2
100
AcDbCircle
 10
254.0581376014547
 20
222.8069120161017
 30
0.0
 40
0.5
100
AcDbArc
 50
270.0
 51
0.0
  0
LINE
  5
727C
330
1E
100
AcDbEntity
  8
製品
  6
Continuous
 62
     3
100
AcDbLine
 10
253.4581376014549
 20
226.4069120161016
 30
0.0
 11
253.7381376014546
 21
226.4069120161016
 31
0.0
  0
ARC
  5
727D
330
1E
100
AcDbEntity
  8
製品
  6
Continuous
 62
     3
100
AcDbCircle
 10
253.7381376014546
 20
226.7269120161013
 30
0.0
 40
0.32
100
AcDbArc
 50
270.0
 51
0.0
  0
LINE
  5
727E
330
1E
100
AcDbEntity
  8
製品
  6
Continuous
 62
     3
100
AcDbLine
 10
254.0581376014547
 20
226.7269120161013
 30
0.0
 11
254.0581376014547
 21
227.0801170161017
 31
0.0
  0
LINE
  5
727F
330
1E
100
AcDbEntity
  8
製品
  6
Continuous
 62
     3
100
AcDbLine
 10
254.0581376014547
 20
227.0801170161017
 30
0.0
 11
254.3781376014549
 21
227.1059100161015
 31
0.0
  0
LINE
  5
7280
330
1E
100
AcDbEntity
  8
製品
  6
Continuous
 62
     3
100
AcDbLine
 10
254.3781376014549
 20
227.1059100161015
 30
0.0
 11
254.3781376014549
 21
226.7269120161013
 31
0.0
  0
ARC
  5
7281
330
1E
100
AcDbEntity
  8
製品
  6
Continuous
 62
     3
100
AcDbCircle
 10
253.7381376014546
 20
226.7269120161013
 30
0.0
 40
0.6400000000000001
100
AcDbArc
 50
270.0
 51
0.0
  0
ARC
  5
7282
330
1E
100
AcDbEntity
  8
製品
  6
Continuous
 62
     2
100
AcDbCircle
 10
254.3581376014549
 20
226.9069120161016
 30
0.0
 40
0.2
100
AcDbArc
 50
0.0
 51
90.0
  0
LINE
  5
7283
330
1E
100
AcDbEntity
  8
製品
  6
Continuous
 62
     2
100
AcDbLine
 10
254.3581376014549
 20
227.1069120161014
 30
0.0
 11
254.1581376014546
 21
227.1069120161014
 31
0.0
  0
ARC
  5
7284
330
1E
100
AcDbEntity
  8
製品
  6
Continuous
 62
     2
100
AcDbCircle
 10
254.1581376014546
 20
226.9069120161016
 30
0.0
 40
0.2
100
AcDbArc
 50
90.0
 51
180.0
  0
LINE
  5
7285
330
1E
100
AcDbEntity
  8
製品
  6
Continuous
 62
     2
100
AcDbLine
 10
253.9581376014548
 20
226.9069120161016
 30
0.0
 11
253.9581376014548
 21
226.6069120161014
 31
0.0
  0
LINE
  5
7286
330
1E
100
AcDbEntity
  8
製品
  6
Continuous
 62
     2
100
AcDbLine
 10
253.9581376014548
 20
226.6069120161014
 30
0.0
 11
253.8581376014549
 21
226.6069120161014
 31
0.0
  0
LINE
  5
7287
330
1E
100
AcDbEntity
  8
製品
  6
Continuous
 62
     2
100
AcDbLine
 10
253.8581376014549
 20
226.6069120161014
 30
0.0
 11
253.8581376014549
 21
226.9069120161016
 31
0.0
  0
ARC
  5
7288
330
1E
100
AcDbEntity
  8
製品
  6
Continuous
 62
     2
100
AcDbCircle
 10
254.1581376014546
 20
226.9069120161016
 30
0.0
 40
0.3
100
AcDbArc
 50
90.0
 51
180.0
  0
LINE
  5
7289
330
1E
100
AcDbEntity
  8
製品
  6
Continuous
 62
     2
100
AcDbLine
 10
254.1581376014546
 20
227.2069120161013
 30
0.0
 11
254.3581376014549
 21
227.2069120161013
 31
0.0
  0
ARC
  5
728A
330
1E
100
AcDbEntity
  8
製品
  6
Continuous
 62
     2
100
AcDbCircle
 10
254.3581376014549
 20
226.9069120161016
 30
0.0
 40
0.3
100
AcDbArc
 50
0.0
 51
90.0
  0
LINE
  5
728B
330
1E
100
AcDbEntity
  8
製品
  6
Continuous
 62
     2
100
AcDbLine
 10
254.6581376014547
 20
222.8069120161017
 30
0.0
 11
254.6581376014547
 21
224.8889690161013
 31
0.0
  0
LINE
  5
728C
330
1E
100
AcDbEntity
  8
製品
  6
Continuous
 62
     2
100
AcDbLine
 10
254.5581376014547
 20
222.8069120161017
 30
0.0
 11
254.5581376014547
 21
224.8889690161013
 31
0.0
  0
LINE
  5
728D
330
1E
100
AcDbEntity
  8
製品
  6
Continuous
 62
     2
100
AcDbLine
 10
254.6581376014547
 20
224.8889690161013
 30
0.0
 11
254.6581376014547
 21
226.9069120161016
 31
0.0
  0
LINE
  5
728E
330
1E
100
AcDbEntity
  8
製品
  6
Continuous
 62
     2
100
AcDbLine
 10
254.5581376014547
 20
224.8889690161013
 30
0.0
 11
254.5581376014547
 21
226.9069120161016
 31
0.0
  0
ARC
  5
728F
330
1E
100
AcDbEntity
  8
製品
  6
Continuous
 62
     2
100
AcDbCircle
 10
254.3581376014549
 20
226.9069120161016
 30
0.0
 40
0.2
100
AcDbArc
 50
0.0
 51
90.0
  0
LINE
  5
7290
330
1E
100
AcDbEntity
  8
製品
  6
Continuous
 62
     2
100
AcDbLine
 10
254.3581376014549
 20
227.1069120161014
 30
0.0
 11
254.1581376014546
 21
227.1069120161014
 31
0.0
  0
ARC
  5
7291
330
1E
100
AcDbEntity
  8
製品
  6
Continuous
 62
     2
100
AcDbCircle
 10
254.1581376014546
 20
226.9069120161016
 30
0.0
 40
0.2
100
AcDbArc
 50
90.0
 51
180.0
  0
LINE
  5
7292
330
1E
100
AcDbEntity
  8
製品
  6
Continuous
 62
     2
100
AcDbLine
 10
253.9581376014548
 20
226.9069120161016
 30
0.0
 11
253.9581376014548
 21
226.6069120161014
 31
0.0
  0
LINE
  5
7293
330
1E
100
AcDbEntity
  8
製品
  6
Continuous
 62
     2
100
AcDbLine
 10
253.9581376014548
 20
226.6069120161014
 30
0.0
 11
253.8581376014549
 21
226.6069120161014
 31
0.0
  0
LINE
  5
7294
330
1E
100
AcDbEntity
  8
製品
  6
Continuous
 62
     2
100
AcDbLine
 10
253.8581376014549
 20
226.6069120161014
 30
0.0
 11
253.8581376014549
 21
226.9069120161016
 31
0.0
  0
LINE
  5
7295
330
1E
100
AcDbEntity
  8
製品
  6
Continuous
 62
     2
100
AcDbLine
 10
253.4581376014549
 20
222.3069120161017
 30
0.0
 11
253.258137601455
 21
222.4069120161016
 31
0.0
  0
LINE
  5
7296
330
1E
100
AcDbEntity
  8
製品
  6
Continuous
 62
     2
100
AcDbLine
 10
253.258137601455
 20
222.4069120161016
 30
0.0
 11
252.9581376014548
 21
222.3069120161017
 31
0.0
  0
LINE
  5
7297
330
1E
100
AcDbEntity
  8
製品
  6
Continuous
 62
     2
100
AcDbLine
 10
252.9581376014548
 20
222.3069120161017
 30
0.0
 11
252.6581376014547
 21
222.4069120161016
 31
0.0
  0
LINE
  5
7298
330
1E
100
AcDbEntity
  8
製品
  6
Continuous
 62
     2
100
AcDbLine
 10
252.6581376014547
 20
222.4069120161016
 30
0.0
 11
252.3581376014549
 21
222.3069120161017
 31
0.0
  0
LINE
  5
7299
330
1E
100
AcDbEntity
  8
製品
  6
Continuous
 62
     2
100
AcDbLine
 10
253.4581376014549
 20
222.2069120161013
 30
0.0
 11
253.258137601455
 21
222.3069120161017
 31
0.0
  0
LINE
  5
729A
330
1E
100
AcDbEntity
  8
製品
  6
Continuous
 62
     2
100
AcDbLine
 10
253.258137601455
 20
222.3069120161017
 30
0.0
 11
252.9581376014548
 21
222.2069120161013
 31
0.0
  0
LINE
  5
729B
330
1E
100
AcDbEntity
  8
製品
  6
Continuous
 62
     2
100
AcDbLine
 10
252.9581376014548
 20
222.2069120161013
 30
0.0
 11
252.6581376014547
 21
222.3069120161017
 31
0.0
  0
LINE
  5
729C
330
1E
100
AcDbEntity
  8
製品
  6
Continuous
 62
     2
100
AcDbLine
 10
252.6581376014547
 20
222.3069120161017
 30
0.0
 11
252.3581376014549
 21
222.2069120161013
 31
0.0
  0
LINE
  5
729D
330
1E
100
AcDbEntity
  8
製品
  6
Continuous
 62
     3
100
AcDbLine
 10
253.4581376014549
 20
231.7669120161013
 30
0.0
 11
253.4581376014549
 21
226.4069120161016
 31
0.0
  0
LINE
  5
729E
330
1E
100
AcDbEntity
  8
製品
  6
Continuous
 62
     3
100
AcDbLine
 10
254.6581376014547
 20
232.4069120161016
 30
0.0
 11
254.6581376014547
 21
237.2069120161013
 31
0.0
  0
LINE
  5
729F
330
1E
100
AcDbEntity
  8
製品
  6
Continuous
 62
     3
100
AcDbLine
 10
250.1235136014547
 20
238.0069120161015
 30
0.0
 11
248.9235136014549
 21
238.0069120161015
 31
0.0
  0
LINE
  5
72A0
330
1E
100
AcDbEntity
  8
製品
  6
Continuous
 62
     3
100
AcDbLine
 10
248.9235136014549
 20
236.0069120161015
 30
0.0
 11
250.1235136014547
 21
236.0069120161015
 31
0.0
  0
LINE
  5
72A1
330
1E
100
AcDbEntity
  8
製品
  6
Continuous
 62
     3
100
AcDbLine
 10
250.1235136014547
 20
236.0069120161015
 30
0.0
 11
250.6735136014549
 21
237.0069120161015
 31
0.0
  0
LINE
  5
72A2
330
1E
100
AcDbEntity
  8
製品
  6
Continuous
 62
     3
100
AcDbLine
 10
249.423513601455
 20
237.7869120161017
 30
0.0
 11
249.6235136014548
 21
237.7869120161017
 31
0.0
  0
LINE
  5
72A3
330
1E
100
AcDbEntity
  8
製品
  6
Continuous
 62
     3
100
AcDbLine
 10
249.6235136014548
 20
237.7869120161017
 30
0.0
 11
249.6235136014548
 21
237.4069120161016
 31
0.0
  0
ARC
  5
72A4
330
1E
100
AcDbEntity
  8
製品
  6
Continuous
 62
     3
100
AcDbCircle
 10
249.1235136014548
 20
237.4069120161016
 30
0.0
 40
0.3
100
AcDbArc
 50
270.0
 51
0.0
  0
LINE
  5
72A5
330
1E
100
AcDbEntity
  8
製品
  6
Continuous
 62
     3
100
AcDbLine
 10
249.423513601455
 20
237.7869120161017
 30
0.0
 11
249.423513601455
 21
237.4069120161016
 31
0.0
  0
LINE
  5
72A6
330
1E
100
AcDbEntity
  8
製品
  6
Continuous
 62
     3
100
AcDbLine
 10
248.7635136014546
 20
237.1069120161014
 30
0.0
 11
249.1235136014548
 21
237.1069120161014
 31
0.0
  0
LINE
  5
72A7
330
1E
100
AcDbEntity
  8
製品
  6
Continuous
 62
     3
100
AcDbLine
 10
250.2835136014546
 20
237.1069120161014
 30
0.0
 11
250.2835136014546
 21
236.9069120161016
 31
0.0
  0
ARC
  5
72A8
330
1E
100
AcDbEntity
  8
製品
  6
Continuous
 62
     3
100
AcDbCircle
 10
249.9235136014549
 20
237.4069120161016
 30
0.0
 40
0.3
100
AcDbArc
 50
180.0
 51
270.0
  0
LINE
  5
72A9
330
1E
100
AcDbEntity
  8
製品
  6
Continuous
 62
     3
100
AcDbLine
 10
250.2835136014546
 20
237.1069120161014
 30
0.0
 11
249.9235136014549
 21
237.1069120161014
 31
0.0
  0
LINE
  5
72AA
330
1E
100
AcDbEntity
  8
製品
  6
Continuous
 62
     3
100
AcDbLine
 10
249.423513601455
 20
236.1769120161016
 30
0.0
 11
249.6235136014548
 21
236.1769120161016
 31
0.0
  0
LINE
  5
72AB
330
1E
100
AcDbEntity
  8
製品
  6
Continuous
 62
     3
100
AcDbLine
 10
249.6235136014548
 20
236.2269120161013
 30
0.0
 11
249.6235136014548
 21
236.6069120161014
 31
0.0
  0
ARC
  5
72AC
330
1E
100
AcDbEntity
  8
製品
  6
Continuous
 62
     3
100
AcDbCircle
 10
249.1235136014548
 20
236.6069120161014
 30
0.0
 40
0.3
100
AcDbArc
 50
0.0
 51
90.0
  0
LINE
  5
72AD
330
1E
100
AcDbEntity
  8
製品
  6
Continuous
 62
     3
100
AcDbLine
 10
249.423513601455
 20
236.2269120161013
 30
0.0
 11
249.423513601455
 21
236.6069120161014
 31
0.0
  0
LINE
  5
72AE
330
1E
100
AcDbEntity
  8
製品
  6
Continuous
 62
     3
100
AcDbLine
 10
248.7635136014546
 20
236.9069120161016
 30
0.0
 11
249.1235136014548
 21
236.9069120161016
 31
0.0
  0
ARC
  5
72AF
330
1E
100
AcDbEntity
  8
製品
  6
Continuous
 62
     3
100
AcDbCircle
 10
249.9235136014549
 20
236.6069120161014
 30
0.0
 40
0.3
100
AcDbArc
 50
90.0
 51
180.0
  0
LINE
  5
72B0
330
1E
100
AcDbEntity
  8
製品
  6
Continuous
 62
     3
100
AcDbLine
 10
250.2835136014546
 20
236.9069120161016
 30
0.0
 11
249.9235136014549
 21
236.9069120161016
 31
0.0
  0
LINE
  5
72B1
330
1E
100
AcDbEntity
  8
製品
  6
Continuous
 62
     3
100
AcDbLine
 10
249.423513601455
 20
236.2269120161013
 30
0.0
 11
249.6235136014548
 21
236.2269120161013
 31
0.0
  0
LINE
  5
72B2
330
1E
100
AcDbEntity
  8
製品
  6
Continuous
 62
     3
100
AcDbLine
 10
248.7635136014546
 20
237.1069120161014
 30
0.0
 11
248.7635136014546
 21
236.9069120161016
 31
0.0
  0
LINE
  5
72B3
330
1E
100
AcDbEntity
  8
製品
  6
Continuous
 62
     3
100
AcDbLine
 10
248.3735136014548
 20
237.0069120161015
 30
0.0
 11
248.9235136014549
 21
236.0069120161015
 31
0.0
  0
LINE
  5
72B4
330
1E
100
AcDbEntity
  8
製品
  6
Continuous
 62
     3
100
AcDbLine
 10
248.9235136014549
 20
238.0069120161015
 30
0.0
 11
248.3735136014548
 21
237.0069120161015
 31
0.0
  0
LINE
  5
72B5
330
1E
100
AcDbEntity
  8
製品
  6
Continuous
 62
     3
100
AcDbLine
 10
250.6735136014549
 20
237.0069120161015
 30
0.0
 11
250.1235136014547
 21
238.0069120161015
 31
0.0
  0
CIRCLE
  5
72B6
330
1E
100
AcDbEntity
  8
製品
  6
Continuous
 62
     3
100
AcDbCircle
 10
249.5235136014549
 20
237.0069120161015
 30
0.0
 40
1.0
  0
LINE
  5
72B7
330
1E
100
AcDbEntity
  8
製品
  6
Continuous
 62
     2
100
AcDbLine
 10
248.6581376014547
 20
222.3069120161017
 30
0.0
 11
249.4581376014548
 21
222.3069120161017
 31
0.0
  0
LINE
  5
72B8
330
1E
100
AcDbEntity
  8
製品
  6
Continuous
 62
     2
100
AcDbLine
 10
249.4581376014548
 20
222.3069120161017
 30
0.0
 11
249.6581376014546
 21
222.4069120161016
 31
0.0
  0
LINE
  5
72B9
330
1E
100
AcDbEntity
  8
製品
  6
Continuous
 62
     2
100
AcDbLine
 10
248.6581376014547
 20
222.2069120161013
 30
0.0
 11
249.4581376014548
 21
222.2069120161013
 31
0.0
  0
LINE
  5
72BA
330
1E
100
AcDbEntity
  8
製品
  6
Continuous
 62
     2
100
AcDbLine
 10
249.4581376014548
 20
222.2069120161013
 30
0.0
 11
249.6581376014546
 21
222.3069120161017
 31
0.0
  0
LINE
  5
72BB
330
1E
100
AcDbEntity
  8
製品
  6
Continuous
 62
     2
100
AcDbLine
 10
252.0581376014547
 20
222.4069120161016
 30
0.0
 11
251.7581376014546
 21
222.3069120161017
 31
0.0
  0
LINE
  5
72BC
330
1E
100
AcDbEntity
  8
製品
  6
Continuous
 62
     2
100
AcDbLine
 10
251.7581376014546
 20
222.3069120161017
 30
0.0
 11
251.4581376014549
 21
222.4069120161016
 31
0.0
  0
LINE
  5
72BD
330
1E
100
AcDbEntity
  8
製品
  6
Continuous
 62
     2
100
AcDbLine
 10
251.4581376014549
 20
222.4069120161016
 30
0.0
 11
251.1581376014547
 21
222.3069120161017
 31
0.0
  0
LINE
  5
72BE
330
1E
100
AcDbEntity
  8
製品
  6
Continuous
 62
     2
100
AcDbLine
 10
251.1581376014547
 20
222.3069120161017
 30
0.0
 11
250.8581376014549
 21
222.4069120161016
 31
0.0
  0
LINE
  5
72BF
330
1E
100
AcDbEntity
  8
製品
  6
Continuous
 62
     2
100
AcDbLine
 10
250.8581376014549
 20
222.4069120161016
 30
0.0
 11
250.6581376014547
 21
222.3069120161017
 31
0.0
  0
LINE
  5
72C0
330
1E
100
AcDbEntity
  8
製品
  6
Continuous
 62
     2
100
AcDbLine
 10
250.6581376014547
 20
222.3069120161017
 30
0.0
 11
249.8581376014549
 21
222.3069120161017
 31
0.0
  0
LINE
  5
72C1
330
1E
100
AcDbEntity
  8
製品
  6
Continuous
 62
     2
100
AcDbLine
 10
249.8581376014549
 20
222.3069120161017
 30
0.0
 11
249.6581376014546
 21
222.4069120161016
 31
0.0
  0
LINE
  5
72C2
330
1E
100
AcDbEntity
  8
製品
  6
Continuous
 62
     2
100
AcDbLine
 10
252.0581376014547
 20
222.3069120161017
 30
0.0
 11
251.7581376014546
 21
222.2069120161013
 31
0.0
  0
LINE
  5
72C3
330
1E
100
AcDbEntity
  8
製品
  6
Continuous
 62
     2
100
AcDbLine
 10
251.7581376014546
 20
222.2069120161013
 30
0.0
 11
251.4581376014549
 21
222.3069120161017
 31
0.0
  0
LINE
  5
72C4
330
1E
100
AcDbEntity
  8
製品
  6
Continuous
 62
     2
100
AcDbLine
 10
251.4581376014549
 20
222.3069120161017
 30
0.0
 11
251.1581376014547
 21
222.2069120161013
 31
0.0
  0
LINE
  5
72C5
330
1E
100
AcDbEntity
  8
製品
  6
Continuous
 62
     2
100
AcDbLine
 10
251.1581376014547
 20
222.2069120161013
 30
0.0
 11
250.8581376014549
 21
222.3069120161017
 31
0.0
  0
LINE
  5
72C6
330
1E
100
AcDbEntity
  8
製品
  6
Continuous
 62
     2
100
AcDbLine
 10
250.8581376014549
 20
222.3069120161017
 30
0.0
 11
250.6581376014547
 21
222.2069120161013
 31
0.0
  0
LINE
  5
72C7
330
1E
100
AcDbEntity
  8
製品
  6
Continuous
 62
     2
100
AcDbLine
 10
250.6581376014547
 20
222.2069120161013
 30
0.0
 11
249.8581376014549
 21
222.2069120161013
 31
0.0
  0
LINE
  5
72C8
330
1E
100
AcDbEntity
  8
製品
  6
Continuous
 62
     2
100
AcDbLine
 10
249.8581376014549
 20
222.2069120161013
 30
0.0
 11
249.6581376014546
 21
222.3069120161017
 31
0.0
  0
LINE
  5
72C9
330
1E
100
AcDbEntity
  8
製品
  6
Continuous
 62
     2
100
AcDbLine
 10
248.4581376014548
 20
222.4069120161016
 30
0.0
 11
248.1581376014546
 21
222.3069120161017
 31
0.0
  0
LINE
  5
72CA
330
1E
100
AcDbEntity
  8
製品
  6
Continuous
 62
     2
100
AcDbLine
 10
248.1581376014546
 20
222.3069120161017
 30
0.0
 11
247.8581376014549
 21
222.4069120161016
 31
0.0
  0
LINE
  5
72CB
330
1E
100
AcDbEntity
  8
製品
  6
Continuous
 62
     2
100
AcDbLine
 10
248.4581376014548
 20
222.3069120161017
 30
0.0
 11
248.1581376014546
 21
222.2069120161013
 31
0.0
  0
LINE
  5
72CC
330
1E
100
AcDbEntity
  8
製品
  6
Continuous
 62
     2
100
AcDbLine
 10
248.1581376014546
 20
222.2069120161013
 30
0.0
 11
247.8581376014549
 21
222.3069120161017
 31
0.0
  0
LINE
  5
72CD
330
1E
100
AcDbEntity
  8
製品
  6
Continuous
 62
     2
100
AcDbLine
 10
248.6581376014547
 20
222.3069120161017
 30
0.0
 11
248.4581376014548
 21
222.4069120161016
 31
0.0
  0
LINE
  5
72CE
330
1E
100
AcDbEntity
  8
製品
  6
Continuous
 62
     2
100
AcDbLine
 10
248.6581376014547
 20
222.2069120161013
 30
0.0
 11
248.4581376014548
 21
222.3069120161017
 31
0.0
  0
LINE
  5
72CF
330
1E
100
AcDbEntity
  8
製品
  6
Continuous
 62
     2
100
AcDbLine
 10
252.3581376014549
 20
222.3069120161017
 30
0.0
 11
252.0581376014547
 21
222.4069120161016
 31
0.0
  0
LINE
  5
72D0
330
1E
100
AcDbEntity
  8
製品
  6
Continuous
 62
     2
100
AcDbLine
 10
252.3581376014549
 20
222.2069120161013
 30
0.0
 11
252.0581376014547
 21
222.3069120161017
 31
0.0
  0
ARC
  5
72D1
330
1E
100
AcDbEntity
  8
製品
  6
Continuous
 62
     2
100
AcDbCircle
 10
254.0581376014547
 20
222.8069120161017
 30
0.0
 40
0.6
100
AcDbArc
 50
270.0
 51
0.0
  0
LINE
  5
72D2
330
1E
100
AcDbEntity
  8
製品
  6
Continuous
 62
     2
100
AcDbLine
 10
314.0578726014546
 20
222.2069120161013
 30
0.0
 11
313.8578726014548
 21
222.3069120161017
 31
0.0
  0
LINE
  5
72D3
330
1E
100
AcDbEntity
  8
製品
  6
Continuous
 62
     2
100
AcDbLine
 10
313.8578726014548
 20
222.3069120161017
 30
0.0
 11
313.5578726014546
 21
222.2069120161013
 31
0.0
  0
LINE
  5
72D4
330
1E
100
AcDbEntity
  8
製品
  6
Continuous
 62
     2
100
AcDbLine
 10
313.5578726014546
 20
222.2069120161013
 30
0.0
 11
313.2578726014549
 21
222.3069120161017
 31
0.0
  0
LINE
  5
72D5
330
1E
100
AcDbEntity
  8
製品
  6
Continuous
 62
     2
100
AcDbLine
 10
314.0578726014546
 20
222.3069120161017
 30
0.0
 11
313.8578726014548
 21
222.4069120161016
 31
0.0
  0
LINE
  5
72D6
330
1E
100
AcDbEntity
  8
製品
  6
Continuous
 62
     2
100
AcDbLine
 10
313.8578726014548
 20
222.4069120161016
 30
0.0
 11
313.5578726014546
 21
222.3069120161017
 31
0.0
  0
LINE
  5
72D7
330
1E
100
AcDbEntity
  8
製品
  6
Continuous
 62
     2
100
AcDbLine
 10
313.5578726014546
 20
222.3069120161017
 30
0.0
 11
313.2578726014549
 21
222.4069120161016
 31
0.0
  0
LINE
  5
72D8
330
1E
100
AcDbEntity
  8
製品
  6
Continuous
 62
     3
100
AcDbLine
 10
314.0578726014546
 20
231.7669120161013
 30
0.0
 11
314.0578726014546
 21
226.4069120161016
 31
0.0
  0
LINE
  5
72D9
330
1E
100
AcDbEntity
  8
製品
  6
Continuous
 62
     3
100
AcDbLine
 10
310.7232496014549
 20
238.0069120161015
 30
0.0
 11
309.5232496014546
 21
238.0069120161015
 31
0.0
  0
LINE
  5
72DA
330
1E
100
AcDbEntity
  8
製品
  6
Continuous
 62
     3
100
AcDbLine
 10
309.5232496014546
 20
236.0069120161015
 30
0.0
 11
310.7232496014549
 21
236.0069120161015
 31
0.0
  0
LINE
  5
72DB
330
1E
100
AcDbEntity
  8
製品
  6
Continuous
 62
     3
100
AcDbLine
 10
310.7232496014549
 20
236.0069120161015
 30
0.0
 11
311.2732496014546
 21
237.0069120161015
 31
0.0
  0
LINE
  5
72DC
330
1E
100
AcDbEntity
  8
製品
  6
Continuous
 62
     3
100
AcDbLine
 10
310.0232496014546
 20
237.7869120161017
 30
0.0
 11
310.2232496014549
 21
237.7869120161017
 31
0.0
  0
LINE
  5
72DD
330
1E
100
AcDbEntity
  8
製品
  6
Continuous
 62
     3
100
AcDbLine
 10
310.2232496014549
 20
237.7869120161017
 30
0.0
 11
310.2232496014549
 21
237.4069120161016
 31
0.0
  0
ARC
  5
72DE
330
1E
100
AcDbEntity
  8
製品
  6
Continuous
 62
     3
100
AcDbCircle
 10
309.7232496014549
 20
237.4069120161016
 30
0.0
 40
0.3
100
AcDbArc
 50
270.0
 51
0.0
  0
LINE
  5
72DF
330
1E
100
AcDbEntity
  8
製品
  6
Continuous
 62
     3
100
AcDbLine
 10
310.0232496014546
 20
237.7869120161017
 30
0.0
 11
310.0232496014546
 21
237.4069120161016
 31
0.0
  0
LINE
  5
72E0
330
1E
100
AcDbEntity
  8
製品
  6
Continuous
 62
     3
100
AcDbLine
 10
310.8832496014547
 20
237.1069120161014
 30
0.0
 11
310.8832496014547
 21
236.9069120161016
 31
0.0
  0
ARC
  5
72E1
330
1E
100
AcDbEntity
  8
製品
  6
Continuous
 62
     3
100
AcDbCircle
 10
310.5232496014546
 20
237.4069120161016
 30
0.0
 40
0.3
100
AcDbArc
 50
180.0
 51
270.0
  0
LINE
  5
72E2
330
1E
100
AcDbEntity
  8
製品
  6
Continuous
 62
     3
100
AcDbLine
 10
310.8832496014547
 20
237.1069120161014
 30
0.0
 11
310.5232496014546
 21
237.1069120161014
 31
0.0
  0
LINE
  5
72E3
330
1E
100
AcDbEntity
  8
製品
  6
Continuous
 62
     3
100
AcDbLine
 10
310.0232496014546
 20
236.1769120161016
 30
0.0
 11
310.2232496014549
 21
236.1769120161016
 31
0.0
  0
LINE
  5
72E4
330
1E
100
AcDbEntity
  8
製品
  6
Continuous
 62
     3
100
AcDbLine
 10
310.2232496014549
 20
236.2269120161013
 30
0.0
 11
310.2232496014549
 21
236.6069120161014
 31
0.0
  0
ARC
  5
72E5
330
1E
100
AcDbEntity
  8
製品
  6
Continuous
 62
     3
100
AcDbCircle
 10
309.7232496014549
 20
236.6069120161014
 30
0.0
 40
0.3
100
AcDbArc
 50
0.0
 51
90.0
  0
LINE
  5
72E6
330
1E
100
AcDbEntity
  8
製品
  6
Continuous
 62
     3
100
AcDbLine
 10
310.0232496014546
 20
236.2269120161013
 30
0.0
 11
310.0232496014546
 21
236.6069120161014
 31
0.0
  0
ARC
  5
72E7
330
1E
100
AcDbEntity
  8
製品
  6
Continuous
 62
     3
100
AcDbCircle
 10
310.5232496014546
 20
236.6069120161014
 30
0.0
 40
0.3
100
AcDbArc
 50
90.0
 51
180.0
  0
LINE
  5
72E8
330
1E
100
AcDbEntity
  8
製品
  6
Continuous
 62
     3
100
AcDbLine
 10
310.8832496014547
 20
236.9069120161016
 30
0.0
 11
310.5232496014546
 21
236.9069120161016
 31
0.0
  0
LINE
  5
72E9
330
1E
100
AcDbEntity
  8
製品
  6
Continuous
 62
     3
100
AcDbLine
 10
310.0232496014546
 20
236.2269120161013
 30
0.0
 11
310.2232496014549
 21
236.2269120161013
 31
0.0
  0
LINE
  5
72EA
330
1E
100
AcDbEntity
  8
製品
  6
Continuous
 62
     3
100
AcDbLine
 10
309.3632496014548
 20
237.1069120161014
 30
0.0
 11
309.3632496014548
 21
236.9069120161016
 31
0.0
  0
LINE
  5
72EB
330
1E
100
AcDbEntity
  8
製品
  6
Continuous
 62
     3
100
AcDbLine
 10
308.9732496014549
 20
237.0069120161015
 30
0.0
 11
309.5232496014546
 21
236.0069120161015
 31
0.0
  0
LINE
  5
72EC
330
1E
100
AcDbEntity
  8
製品
  6
Continuous
 62
     3
100
AcDbLine
 10
309.3632496014548
 20
237.1069120161014
 30
0.0
 11
309.7232496014549
 21
237.1069120161014
 31
0.0
  0
LINE
  5
72ED
330
1E
100
AcDbEntity
  8
製品
  6
Continuous
 62
     3
100
AcDbLine
 10
309.3632496014548
 20
236.9069120161016
 30
0.0
 11
309.7232496014549
 21
236.9069120161016
 31
0.0
  0
LINE
  5
72EE
330
1E
100
AcDbEntity
  8
製品
  6
Continuous
 62
     3
100
AcDbLine
 10
309.5232496014546
 20
238.0069120161015
 30
0.0
 11
308.9732496014549
 21
237.0069120161015
 31
0.0
  0
LINE
  5
72EF
330
1E
100
AcDbEntity
  8
製品
  6
Continuous
 62
     3
100
AcDbLine
 10
311.2732496014546
 20
237.0069120161015
 30
0.0
 11
310.7232496014549
 21
238.0069120161015
 31
0.0
  0
CIRCLE
  5
72F0
330
1E
100
AcDbEntity
  8
製品
  6
Continuous
 62
     3
100
AcDbCircle
 10
310.1232496014545
 20
237.0069120161015
 30
0.0
 40
1.0
  0
ARC
  5
72F1
330
1E
100
AcDbEntity
  8
製品
  6
Continuous
 62
     3
100
AcDbCircle
 10
306.2578726014549
 20
237.2069120161013
 30
0.0
 40
1.0
100
AcDbArc
 50
90.0
 51
180.0
  0
ARC
  5
72F2
330
1E
100
AcDbEntity
  8
製品
  6
Continuous
 62
     3
100
AcDbCircle
 10
305.8178726014548
 20
231.7669120161013
 30
0.0
 40
0.6400000000000001
100
AcDbArc
 50
0.0
 51
90.0
  0
LINE
  5
72F3
330
1E
100
AcDbEntity
  8
製品
  6
Continuous
 62
     2
100
AcDbLine
 10
312.9578726014547
 20
222.3069120161017
 30
0.0
 11
312.657872601455
 21
222.4069120161016
 31
0.0
  0
LINE
  5
72F4
330
1E
100
AcDbEntity
  8
製品
  6
Continuous
 62
     2
100
AcDbLine
 10
312.657872601455
 20
222.4069120161016
 30
0.0
 11
312.3578726014548
 21
222.3069120161017
 31
0.0
  0
LINE
  5
72F5
330
1E
100
AcDbEntity
  8
製品
  6
Continuous
 62
     2
100
AcDbLine
 10
312.3578726014548
 20
222.3069120161017
 30
0.0
 11
312.0578726014546
 21
222.4069120161016
 31
0.0
  0
LINE
  5
72F6
330
1E
100
AcDbEntity
  8
製品
  6
Continuous
 62
     2
100
AcDbLine
 10
312.0578726014546
 20
222.4069120161016
 30
0.0
 11
311.7578726014549
 21
222.3069120161017
 31
0.0
  0
LINE
  5
72F7
330
1E
100
AcDbEntity
  8
製品
  6
Continuous
 62
     2
100
AcDbLine
 10
311.7578726014549
 20
222.3069120161017
 30
0.0
 11
311.4578726014547
 21
222.4069120161016
 31
0.0
  0
LINE
  5
72F8
330
1E
100
AcDbEntity
  8
製品
  6
Continuous
 62
     2
100
AcDbLine
 10
311.4578726014547
 20
222.4069120161016
 30
0.0
 11
311.2578726014549
 21
222.3069120161017
 31
0.0
  0
LINE
  5
72F9
330
1E
100
AcDbEntity
  8
製品
  6
Continuous
 62
     2
100
AcDbLine
 10
311.2578726014549
 20
222.3069120161017
 30
0.0
 11
310.4578726014547
 21
222.3069120161017
 31
0.0
  0
LINE
  5
72FA
330
1E
100
AcDbEntity
  8
製品
  6
Continuous
 62
     2
100
AcDbLine
 10
310.4578726014547
 20
222.3069120161017
 30
0.0
 11
310.2578726014549
 21
222.4069120161016
 31
0.0
  0
LINE
  5
72FB
330
1E
100
AcDbEntity
  8
製品
  6
Continuous
 62
     2
100
AcDbLine
 10
312.9578726014547
 20
222.2069120161013
 30
0.0
 11
312.657872601455
 21
222.3069120161017
 31
0.0
  0
LINE
  5
72FC
330
1E
100
AcDbEntity
  8
製品
  6
Continuous
 62
     2
100
AcDbLine
 10
312.657872601455
 20
222.3069120161017
 30
0.0
 11
312.3578726014548
 21
222.2069120161013
 31
0.0
  0
LINE
  5
72FD
330
1E
100
AcDbEntity
  8
製品
  6
Continuous
 62
     2
100
AcDbLine
 10
312.3578726014548
 20
222.2069120161013
 30
0.0
 11
312.0578726014546
 21
222.3069120161017
 31
0.0
  0
LINE
  5
72FE
330
1E
100
AcDbEntity
  8
製品
  6
Continuous
 62
     2
100
AcDbLine
 10
312.0578726014546
 20
222.3069120161017
 30
0.0
 11
311.7578726014549
 21
222.2069120161013
 31
0.0
  0
LINE
  5
72FF
330
1E
100
AcDbEntity
  8
製品
  6
Continuous
 62
     2
100
AcDbLine
 10
311.7578726014549
 20
222.2069120161013
 30
0.0
 11
311.4578726014547
 21
222.3069120161017
 31
0.0
  0
LINE
  5
7300
330
1E
100
AcDbEntity
  8
製品
  6
Continuous
 62
     2
100
AcDbLine
 10
311.4578726014547
 20
222.3069120161017
 30
0.0
 11
311.2578726014549
 21
222.2069120161013
 31
0.0
  0
LINE
  5
7301
330
1E
100
AcDbEntity
  8
製品
  6
Continuous
 62
     2
100
AcDbLine
 10
311.2578726014549
 20
222.2069120161013
 30
0.0
 11
310.4578726014547
 21
222.2069120161013
 31
0.0
  0
LINE
  5
7302
330
1E
100
AcDbEntity
  8
製品
  6
Continuous
 62
     2
100
AcDbLine
 10
310.4578726014547
 20
222.2069120161013
 30
0.0
 11
310.2578726014549
 21
222.3069120161017
 31
0.0
  0
LINE
  5
7303
330
1E
100
AcDbEntity
  8
製品
  6
Continuous
 62
     2
100
AcDbLine
 10
310.0578726014546
 20
222.3069120161017
 30
0.0
 11
310.2578726014549
 21
222.4069120161016
 31
0.0
  0
LINE
  5
7304
330
1E
100
AcDbEntity
  8
製品
  6
Continuous
 62
     2
100
AcDbLine
 10
310.0578726014546
 20
222.2069120161013
 30
0.0
 11
310.2578726014549
 21
222.3069120161017
 31
0.0
  0
LINE
  5
7305
330
1E
100
AcDbEntity
  8
製品
  6
Continuous
 62
     2
100
AcDbLine
 10
309.2578726014549
 20
222.2069120161013
 30
0.0
 11
309.0578726014546
 21
222.3069120161017
 31
0.0
  0
LINE
  5
7306
330
1E
100
AcDbEntity
  8
製品
  6
Continuous
 62
     2
100
AcDbLine
 10
309.0578726014546
 20
222.3069120161017
 30
0.0
 11
308.7578726014549
 21
222.2069120161013
 31
0.0
  0
LINE
  5
7307
330
1E
100
AcDbEntity
  8
製品
  6
Continuous
 62
     2
100
AcDbLine
 10
308.7578726014549
 20
222.2069120161013
 30
0.0
 11
308.4578726014547
 21
222.3069120161017
 31
0.0
  0
LINE
  5
7308
330
1E
100
AcDbEntity
  8
製品
  6
Continuous
 62
     2
100
AcDbLine
 10
308.4578726014547
 20
222.3069120161017
 30
0.0
 11
308.157872601455
 21
222.2069120161013
 31
0.0
  0
LINE
  5
7309
330
1E
100
AcDbEntity
  8
製品
  6
Continuous
 62
     2
100
AcDbLine
 10
308.157872601455
 20
222.2069120161013
 30
0.0
 11
307.8578726014548
 21
222.3069120161017
 31
0.0
  0
LINE
  5
730A
330
1E
100
AcDbEntity
  8
製品
  6
Continuous
 62
     2
100
AcDbLine
 10
307.8578726014548
 20
222.3069120161017
 30
0.0
 11
307.5578726014546
 21
222.2069120161013
 31
0.0
  0
LINE
  5
730B
330
1E
100
AcDbEntity
  8
製品
  6
Continuous
 62
     2
100
AcDbLine
 10
307.5578726014546
 20
222.2069120161013
 30
0.0
 11
307.2578726014549
 21
222.3069120161017
 31
0.0
  0
LINE
  5
730C
330
1E
100
AcDbEntity
  8
製品
  6
Continuous
 62
     2
100
AcDbLine
 10
307.2578726014549
 20
222.3069120161017
 30
0.0
 11
306.9578726014547
 21
222.2069120161013
 31
0.0
  0
LINE
  5
730D
330
1E
100
AcDbEntity
  8
製品
  6
Continuous
 62
     2
100
AcDbLine
 10
306.9578726014547
 20
222.2069120161013
 30
0.0
 11
306.657872601455
 21
222.3069120161017
 31
0.0
  0
LINE
  5
730E
330
1E
100
AcDbEntity
  8
製品
  6
Continuous
 62
     2
100
AcDbLine
 10
306.657872601455
 20
222.3069120161017
 30
0.0
 11
306.4578726014547
 21
222.2069120161013
 31
0.0
  0
ARC
  5
730F
330
1E
100
AcDbEntity
  8
製品
  6
Continuous
 62
     2
100
AcDbCircle
 10
305.7578726014549
 20
226.9069120161016
 30
0.0
 40
0.2
100
AcDbArc
 50
0.0
 51
90.0
  0
LINE
  5
7310
330
1E
100
AcDbEntity
  8
製品
  6
Continuous
 62
     2
100
AcDbLine
 10
305.9578726014547
 20
226.9069120161016
 30
0.0
 11
305.9578726014547
 21
226.6069120161014
 31
0.0
  0
LINE
  5
7311
330
1E
100
AcDbEntity
  8
製品
  6
Continuous
 62
     2
100
AcDbLine
 10
305.9578726014547
 20
226.6069120161014
 30
0.0
 11
306.0578726014546
 21
226.6069120161014
 31
0.0
  0
LINE
  5
7312
330
1E
100
AcDbEntity
  8
製品
  6
Continuous
 62
     2
100
AcDbLine
 10
306.0578726014546
 20
226.6069120161014
 30
0.0
 11
306.0578726014546
 21
226.9069120161016
 31
0.0
  0
ARC
  5
7313
330
1E
100
AcDbEntity
  8
製品
  6
Continuous
 62
     2
100
AcDbCircle
 10
305.7578726014549
 20
226.9069120161016
 30
0.0
 40
0.3
100
AcDbArc
 50
0.0
 51
90.0
  0
LINE
  5
7314
330
1E
100
AcDbEntity
  8
製品
  6
Continuous
 62
     2
100
AcDbLine
 10
305.8578726014548
 20
222.2069120161013
 30
0.0
 11
306.4578726014547
 21
222.2069120161013
 31
0.0
  0
LINE
  5
7315
330
1E
100
AcDbEntity
  8
製品
  6
Continuous
 62
     2
100
AcDbLine
 10
305.8578726014548
 20
222.3069120161017
 30
0.0
 11
306.4578726014547
 21
222.3069120161017
 31
0.0
  0
LINE
  5
7316
330
1E
100
AcDbEntity
  8
製品
  6
Continuous
 62
     2
100
AcDbLine
 10
309.2578726014549
 20
222.3069120161017
 30
0.0
 11
309.0578726014546
 21
222.4069120161016
 31
0.0
  0
LINE
  5
7317
330
1E
100
AcDbEntity
  8
製品
  6
Continuous
 62
     2
100
AcDbLine
 10
309.0578726014546
 20
222.4069120161016
 30
0.0
 11
308.7578726014549
 21
222.3069120161017
 31
0.0
  0
LINE
  5
7318
330
1E
100
AcDbEntity
  8
製品
  6
Continuous
 62
     2
100
AcDbLine
 10
308.7578726014549
 20
222.3069120161017
 30
0.0
 11
308.4578726014547
 21
222.4069120161016
 31
0.0
  0
LINE
  5
7319
330
1E
100
AcDbEntity
  8
製品
  6
Continuous
 62
     2
100
AcDbLine
 10
308.4578726014547
 20
222.4069120161016
 30
0.0
 11
308.157872601455
 21
222.3069120161017
 31
0.0
  0
LINE
  5
731A
330
1E
100
AcDbEntity
  8
製品
  6
Continuous
 62
     2
100
AcDbLine
 10
308.157872601455
 20
222.3069120161017
 30
0.0
 11
307.8578726014548
 21
222.4069120161016
 31
0.0
  0
LINE
  5
731B
330
1E
100
AcDbEntity
  8
製品
  6
Continuous
 62
     2
100
AcDbLine
 10
307.8578726014548
 20
222.4069120161016
 30
0.0
 11
307.5578726014546
 21
222.3069120161017
 31
0.0
  0
LINE
  5
731C
330
1E
100
AcDbEntity
  8
製品
  6
Continuous
 62
     2
100
AcDbLine
 10
307.5578726014546
 20
222.3069120161017
 30
0.0
 11
307.2578726014549
 21
222.4069120161016
 31
0.0
  0
LINE
  5
731D
330
1E
100
AcDbEntity
  8
製品
  6
Continuous
 62
     2
100
AcDbLine
 10
307.2578726014549
 20
222.4069120161016
 30
0.0
 11
306.9578726014547
 21
222.3069120161017
 31
0.0
  0
LINE
  5
731E
330
1E
100
AcDbEntity
  8
製品
  6
Continuous
 62
     2
100
AcDbLine
 10
306.9578726014547
 20
222.3069120161017
 30
0.0
 11
306.657872601455
 21
222.4069120161016
 31
0.0
  0
LINE
  5
731F
330
1E
100
AcDbEntity
  8
製品
  6
Continuous
 62
     2
100
AcDbLine
 10
306.657872601455
 20
222.4069120161016
 30
0.0
 11
306.4578726014547
 21
222.3069120161017
 31
0.0
  0
LINE
  5
7320
330
1E
100
AcDbEntity
  8
製品
  6
Continuous
 62
     3
100
AcDbLine
 10
305.8578726014548
 20
227.0801170161017
 30
0.0
 11
305.8578726014548
 21
226.7269120161013
 31
0.0
  0
ARC
  5
7321
330
1E
100
AcDbEntity
  8
製品
  6
Continuous
 62
     3
100
AcDbCircle
 10
306.1778726014545
 20
226.7269120161013
 30
0.0
 40
0.32
100
AcDbArc
 50
180.0
 51
270.0
  0
LINE
  5
7322
330
1E
100
AcDbEntity
  8
製品
  6
Continuous
 62
     2
100
AcDbLine
 10
309.2578726014549
 20
222.3069120161017
 30
0.0
 11
310.0578726014546
 21
222.3069120161017
 31
0.0
  0
LINE
  5
7323
330
1E
100
AcDbEntity
  8
製品
  6
Continuous
 62
     2
100
AcDbLine
 10
309.2578726014549
 20
222.2069120161013
 30
0.0
 11
310.0578726014546
 21
222.2069120161013
 31
0.0
  0
LINE
  5
7324
330
1E
100
AcDbEntity
  8
製品
  6
Continuous
 62
     3
100
AcDbLine
 10
306.4578726014547
 20
226.4069120161016
 30
0.0
 11
306.4578726014547
 21
231.7669120161013
 31
0.0
  0
LINE
  5
7325
330
1E
100
AcDbEntity
  8
製品
  6
Continuous
 62
     2
100
AcDbLine
 10
305.3578726014548
 20
222.8069120161017
 30
0.0
 11
305.3578726014548
 21
224.8889690161013
 31
0.0
  0
LINE
  5
7326
330
1E
100
AcDbEntity
  8
製品
  6
Continuous
 62
     2
100
AcDbLine
 10
305.2578726014549
 20
222.8069120161017
 30
0.0
 11
305.2578726014549
 21
224.8889690161013
 31
0.0
  0
LINE
  5
7327
330
1E
100
AcDbEntity
  8
製品
  6
Continuous
 62
     2
100
AcDbLine
 10
305.2578726014549
 20
224.8889690161013
 30
0.0
 11
305.2578726014549
 21
226.9069120161016
 31
0.0
  0
LINE
  5
7328
330
1E
100
AcDbEntity
  8
製品
  6
Continuous
 62
     2
100
AcDbLine
 10
305.3578726014548
 20
224.8889690161013
 30
0.0
 11
305.3578726014548
 21
226.9069120161016
 31
0.0
  0
ARC
  5
7329
330
1E
100
AcDbEntity
  8
製品
  6
Continuous
 62
     2
100
AcDbCircle
 10
305.5578726014546
 20
226.9069120161016
 30
0.0
 40
0.2
100
AcDbArc
 50
90.0
 51
180.0
  0
ARC
  5
732A
330
1E
100
AcDbEntity
  8
製品
  6
Continuous
 62
     2
100
AcDbCircle
 10
305.5578726014546
 20
226.9069120161016
 30
0.0
 40
0.3
100
AcDbArc
 50
90.0
 51
180.0
  0
LINE
  5
732B
330
1E
100
AcDbEntity
  8
製品
  6
Continuous
 62
     3
100
AcDbLine
 10
305.5378726014546
 20
226.7269120161013
 30
0.0
 11
305.5378726014546
 21
227.1059100161015
 31
0.0
  0
LINE
  5
732C
330
1E
100
AcDbEntity
  8
製品
  6
Continuous
 62
     2
100
AcDbLine
 10
305.5578726014546
 20
227.1069120161014
 30
0.0
 11
305.7578726014549
 21
227.1069120161014
 31
0.0
  0
LINE
  5
732D
330
1E
100
AcDbEntity
  8
製品
  6
Continuous
 62
     2
100
AcDbLine
 10
305.7578726014549
 20
227.2069120161013
 30
0.0
 11
305.5578726014546
 21
227.2069120161013
 31
0.0
  0
ARC
  5
732E
330
1E
100
AcDbEntity
  8
製品
  6
Continuous
 62
     2
100
AcDbCircle
 10
305.8578726014548
 20
222.8069120161017
 30
0.0
 40
0.5
100
AcDbArc
 50
180.0
 51
270.0
  0
ARC
  5
732F
330
1E
100
AcDbEntity
  8
製品
  6
Continuous
 62
     3
100
AcDbCircle
 10
306.1778726014545
 20
226.7269120161013
 30
0.0
 40
0.6400000000000001
100
AcDbArc
 50
180.0
 51
270.0
  0
LINE
  5
7330
330
1E
100
AcDbEntity
  8
製品
  6
Continuous
 62
     3
100
AcDbLine
 10
305.5378726014546
 20
227.1059100161015
 30
0.0
 11
305.8578726014548
 21
227.0801170161017
 31
0.0
  0
LINE
  5
7331
330
1E
100
AcDbEntity
  8
製品
  6
Continuous
 62
     3
100
AcDbLine
 10
305.8178726014548
 20
232.4069120161016
 30
0.0
 11
305.2578726014549
 21
232.4069120161016
 31
0.0
  0
LINE
  5
7332
330
1E
100
AcDbEntity
  8
製品
  6
Continuous
 62
     3
100
AcDbLine
 10
305.2578726014549
 20
232.4069120161016
 30
0.0
 11
305.2578726014549
 21
237.2069120161013
 31
0.0
  0
LINE
  5
7333
330
1E
100
AcDbEntity
  8
製品
  6
Continuous
 62
     2
100
AcDbLine
 10
313.2578726014549
 20
222.3069120161017
 30
0.0
 11
312.9578726014547
 21
222.2069120161013
 31
0.0
  0
LINE
  5
7334
330
1E
100
AcDbEntity
  8
製品
  6
Continuous
 62
     3
100
AcDbLine
 10
306.1778726014545
 20
226.4069120161016
 30
0.0
 11
314.0578726014546
 21
226.4069120161016
 31
0.0
  0
LINE
  5
7335
330
1E
100
AcDbEntity
  8
製品
  6
Continuous
 62
     2
100
AcDbLine
 10
313.2578726014549
 20
222.4069120161016
 30
0.0
 11
312.9578726014547
 21
222.3069120161017
 31
0.0
  0
ARC
  5
7336
330
1E
100
AcDbEntity
  8
製品
  6
Continuous
 62
     2
100
AcDbCircle
 10
305.8578726014548
 20
222.8069120161017
 30
0.0
 40
0.6
100
AcDbArc
 50
180.0
 51
270.0
  0
LINE
  5
7337
330
1E
100
AcDbEntity
  8
製品
  6
Continuous
 62
     4
100
AcDbLine
 10
383.7820406014548
 20
234.8069120161017
 30
0.0
 11
375.8584016014547
 21
234.8069120161017
 31
0.0
  0
LINE
  5
7338
330
1E
100
AcDbEntity
  8
製品
  6
Continuous
 62
     4
100
AcDbLine
 10
383.7820406014548
 20
227.2069120161013
 30
0.0
 11
374.6584016014549
 21
227.2069120161013
 31
0.0
  0
LINE
  5
7339
330
1E
100
AcDbEntity
  8
製品
  6
Continuous
 62
     4
100
AcDbLine
 10
367.0584016014545
 20
227.2069120161013
 30
0.0
 11
343.0578726014546
 21
227.2069120161013
 31
0.0
  0
LINE
  5
733A
330
1E
100
AcDbEntity
  8
製品
  6
Continuous
 62
     4
100
AcDbLine
 10
343.0578726014546
 20
234.8069120161017
 30
0.0
 11
365.8584016014547
 21
234.8069120161017
 31
0.0
  0
LINE
  5
733B
330
1E
100
AcDbEntity
  8
製品
  6
PLINE2
 62
     4
100
AcDbLine
 10
341.6678726014548
 20
249.1069120161014
 30
0.0
 11
341.6678726014548
 21
248.7069120161014
 31
0.0
  0
LINE
  5
733C
330
1E
100
AcDbEntity
  8
製品
  6
Continuous
 62
     4
100
AcDbLine
 10
342.4816036014549
 20
249.1069120161014
 30
0.0
 11
342.4816036014549
 21
250.2812780161016
 31
0.0
  0
ARC
  5
733D
330
1E
100
AcDbEntity
  8
製品
  6
Continuous
 62
     4
100
AcDbCircle
 10
342.0006706014547
 20
250.1842990161017
 30
0.0
 40
0.490613
100
AcDbArc
 50
11.40060199999222
 51
168.5993980000078
  0
LINE
  5
733E
330
1E
100
AcDbEntity
  8
製品
  6
Continuous
 62
     4
100
AcDbLine
 10
341.5197376014548
 20
249.1069120161014
 30
0.0
 11
341.5197376014548
 21
250.2812780161016
 31
0.0
  0
LINE
  5
733F
330
1E
100
AcDbEntity
  8
製品
  6
PLINE2
 62
     4
100
AcDbLine
 10
339.447872601455
 20
249.1069120161014
 30
0.0
 11
339.447872601455
 21
248.7069120161014
 31
0.0
  0
LINE
  5
7340
330
1E
100
AcDbEntity
  8
製品
  6
Continuous
 62
     4
100
AcDbLine
 10
338.6341416014547
 20
250.2812780161016
 30
0.0
 11
338.6341416014547
 21
249.1069120161014
 31
0.0
  0
ARC
  5
7341
330
1E
100
AcDbEntity
  8
製品
  6
Continuous
 62
     4
100
AcDbCircle
 10
339.1150746014546
 20
250.1842990161017
 30
0.0
 40
0.490613
100
AcDbArc
 50
11.40060199999222
 51
168.5993980000078
  0
LINE
  5
7342
330
1E
100
AcDbEntity
  8
製品
  6
Continuous
 62
     4
100
AcDbLine
 10
339.596006601455
 20
249.1069120161014
 30
0.0
 11
339.596006601455
 21
250.2812780161016
 31
0.0
  0
LINE
  5
7343
330
1E
100
AcDbEntity
  8
製品
  6
Continuous
 62
     3
100
AcDbLine
 10
343.0578726014546
 20
249.1069120161014
 30
0.0
 11
338.0578726014546
 21
249.1069120161014
 31
0.0
  0
ARC
  5
7344
330
1E
100
AcDbEntity
  8
製品
  6
Continuous
 62
     4
100
AcDbCircle
 10
340.5578726014546
 20
249.3029120161013
 30
0.0
 40
1.371999999999999
100
AcDbArc
 50
45.4872319999975
 51
134.5127680000024
  0
LINE
  5
7345
330
1E
100
AcDbEntity
  8
製品
  6
Continuous
 62
     4
100
AcDbLine
 10
342.0006706014547
 20
250.6749120161016
 30
0.0
 11
339.1150746014546
 21
250.6749120161016
 31
0.0
  0
LINE
  5
7346
330
1E
100
AcDbEntity
  8
製品
  6
Continuous
 62
     4
100
AcDbLine
 10
338.6341416014547
 20
249.1069120161014
 30
0.0
 11
342.4816036014549
 21
249.1069120161014
 31
0.0
  0
LINE
  5
7347
330
1E
100
AcDbEntity
  8
製品
  6
Continuous
 62
     4
100
AcDbLine
 10
338.6341416014547
 20
248.7069120161014
 30
0.0
 11
342.4816036014549
 21
248.7069120161014
 31
0.0
  0
LINE
  5
7348
330
1E
100
AcDbEntity
  8
製品
  6
Continuous
 62
     3
100
AcDbLine
 10
338.0578726014546
 20
248.7069120161014
 30
0.0
 11
343.0578726014546
 21
248.7069120161014
 31
0.0
  0
ARC
  5
7349
330
1E
100
AcDbEntity
  8
製品
  6
Continuous
 62
     4
100
AcDbCircle
 10
342.0006706014547
 20
247.6295250161015
 30
0.0
 40
0.490613
100
AcDbArc
 50
191.4006019999922
 51
348.5993980000078
  0
ARC
  5
734A
330
1E
100
AcDbEntity
  8
製品
  6
Continuous
 62
     4
100
AcDbCircle
 10
339.1150746014546
 20
247.6295250161015
 30
0.0
 40
0.490613
100
AcDbArc
 50
191.4006019999922
 51
348.5993980000078
  0
ARC
  5
734B
330
1E
100
AcDbEntity
  8
製品
  6
Continuous
 62
     4
100
AcDbCircle
 10
340.5578726014546
 20
248.5109120161014
 30
0.0
 40
1.371999999999999
100
AcDbArc
 50
225.4872319999975
 51
314.5127680000025
  0
LINE
  5
734C
330
1E
100
AcDbEntity
  8
製品
  6
Continuous
 62
     4
100
AcDbLine
 10
342.0006706014547
 20
247.1389120161016
 30
0.0
 11
339.1150746014546
 21
247.1389120161016
 31
0.0
  0
LINE
  5
734D
330
1E
100
AcDbEntity
  8
製品
  6
Continuous
 62
     4
100
AcDbLine
 10
342.4816036014549
 20
248.7069120161014
 30
0.0
 11
342.4816036014549
 21
247.5325470161015
 31
0.0
  0
LINE
  5
734E
330
1E
100
AcDbEntity
  8
製品
  6
Continuous
 62
     4
100
AcDbLine
 10
338.6341416014547
 20
247.5325470161015
 30
0.0
 11
338.6341416014547
 21
248.7069120161014
 31
0.0
  0
LINE
  5
734F
330
1E
100
AcDbEntity
  8
製品
  6
Continuous
 62
     4
100
AcDbLine
 10
339.596006601455
 20
248.7069120161014
 30
0.0
 11
339.596006601455
 21
247.5325470161015
 31
0.0
  0
LINE
  5
7350
330
1E
100
AcDbEntity
  8
製品
  6
Continuous
 62
     4
100
AcDbLine
 10
341.5197376014548
 20
248.7069120161014
 30
0.0
 11
341.5197376014548
 21
247.5325470161015
 31
0.0
  0
LINE
  5
7351
330
1E
100
AcDbEntity
  8
製品
  6
Continuous
 62
     4
100
AcDbLine
 10
339.657872601455
 20
240.3258980161017
 30
0.0
 11
341.4578726014547
 21
240.3258980161017
 31
0.0
  0
LINE
  5
7352
330
1E
100
AcDbEntity
  8
製品
  6
Continuous
 62
     3
100
AcDbLine
 10
341.157872601455
 20
236.9069120161016
 30
0.0
 11
339.9578726014547
 21
236.9069120161016
 31
0.0
  0
LINE
  5
7353
330
1E
100
AcDbEntity
  8
製品
  6
Continuous
 62
     3
100
AcDbLine
 10
339.9578726014547
 20
234.9069120161016
 30
0.0
 11
341.157872601455
 21
234.9069120161016
 31
0.0
  0
LINE
  5
7354
330
1E
100
AcDbEntity
  8
製品
  6
Continuous
 62
     3
100
AcDbLine
 10
341.157872601455
 20
234.9069120161016
 30
0.0
 11
341.7078726014547
 21
235.9069120161016
 31
0.0
  0
LINE
  5
7355
330
1E
100
AcDbEntity
  8
製品
  6
Continuous
 62
     3
100
AcDbLine
 10
341.7078726014547
 20
235.9069120161016
 30
0.0
 11
341.157872601455
 21
236.9069120161016
 31
0.0
  0
LINE
  5
7356
330
1E
100
AcDbEntity
  8
製品
  6
Continuous
 62
     3
100
AcDbLine
 10
340.4578726014547
 20
236.6869120161013
 30
0.0
 11
340.657872601455
 21
236.6869120161013
 31
0.0
  0
LINE
  5
7357
330
1E
100
AcDbEntity
  8
製品
  6
Continuous
 62
     3
100
AcDbLine
 10
340.657872601455
 20
236.6869120161013
 30
0.0
 11
340.657872601455
 21
236.3069120161017
 31
0.0
  0
ARC
  5
7358
330
1E
100
AcDbEntity
  8
製品
  6
Continuous
 62
     3
100
AcDbCircle
 10
340.157872601455
 20
236.3069120161017
 30
0.0
 40
0.3
100
AcDbArc
 50
270.0
 51
0.0
  0
LINE
  5
7359
330
1E
100
AcDbEntity
  8
製品
  6
Continuous
 62
     3
100
AcDbLine
 10
340.4578726014547
 20
236.6869120161013
 30
0.0
 11
340.4578726014547
 21
236.3069120161017
 31
0.0
  0
LINE
  5
735A
330
1E
100
AcDbEntity
  8
製品
  6
Continuous
 62
     3
100
AcDbLine
 10
341.3178726014548
 20
236.0069120161015
 30
0.0
 11
341.3178726014548
 21
235.8069120161017
 31
0.0
  0
ARC
  5
735B
330
1E
100
AcDbEntity
  8
製品
  6
Continuous
 62
     3
100
AcDbCircle
 10
340.9578726014547
 20
236.3069120161017
 30
0.0
 40
0.3
100
AcDbArc
 50
180.0
 51
270.0
  0
LINE
  5
735C
330
1E
100
AcDbEntity
  8
製品
  6
Continuous
 62
     3
100
AcDbLine
 10
341.3178726014548
 20
236.0069120161015
 30
0.0
 11
340.9578726014547
 21
236.0069120161015
 31
0.0
  0
LINE
  5
735D
330
1E
100
AcDbEntity
  8
製品
  6
Continuous
 62
     3
100
AcDbLine
 10
340.4578726014547
 20
235.0769120161017
 30
0.0
 11
340.657872601455
 21
235.0769120161017
 31
0.0
  0
LINE
  5
735E
330
1E
100
AcDbEntity
  8
製品
  6
Continuous
 62
     3
100
AcDbLine
 10
340.657872601455
 20
235.1269120161014
 30
0.0
 11
340.657872601455
 21
235.5069120161015
 31
0.0
  0
ARC
  5
735F
330
1E
100
AcDbEntity
  8
製品
  6
Continuous
 62
     3
100
AcDbCircle
 10
340.157872601455
 20
235.5069120161015
 30
0.0
 40
0.3
100
AcDbArc
 50
0.0
 51
90.0
  0
LINE
  5
7360
330
1E
100
AcDbEntity
  8
製品
  6
Continuous
 62
     3
100
AcDbLine
 10
340.4578726014547
 20
235.1269120161014
 30
0.0
 11
340.4578726014547
 21
235.5069120161015
 31
0.0
  0
ARC
  5
7361
330
1E
100
AcDbEntity
  8
製品
  6
Continuous
 62
     3
100
AcDbCircle
 10
340.9578726014547
 20
235.5069120161015
 30
0.0
 40
0.3
100
AcDbArc
 50
90.0
 51
180.0
  0
LINE
  5
7362
330
1E
100
AcDbEntity
  8
製品
  6
Continuous
 62
     3
100
AcDbLine
 10
341.3178726014548
 20
235.8069120161017
 30
0.0
 11
340.9578726014547
 21
235.8069120161017
 31
0.0
  0
LINE
  5
7363
330
1E
100
AcDbEntity
  8
製品
  6
Continuous
 62
     3
100
AcDbLine
 10
340.4578726014547
 20
235.1269120161014
 30
0.0
 11
340.657872601455
 21
235.1269120161014
 31
0.0
  0
LINE
  5
7364
330
1E
100
AcDbEntity
  8
製品
  6
Continuous
 62
     3
100
AcDbLine
 10
339.7978726014549
 20
236.0069120161015
 30
0.0
 11
339.7978726014549
 21
235.8069120161017
 31
0.0
  0
LINE
  5
7365
330
1E
100
AcDbEntity
  8
製品
  6
Continuous
 62
     3
100
AcDbLine
 10
339.9578726014547
 20
236.9069120161016
 30
0.0
 11
339.407872601455
 21
235.9069120161016
 31
0.0
  0
LINE
  5
7366
330
1E
100
AcDbEntity
  8
製品
  6
Continuous
 62
     3
100
AcDbLine
 10
339.407872601455
 20
235.9069120161016
 30
0.0
 11
339.9578726014547
 21
234.9069120161016
 31
0.0
  0
CIRCLE
  5
7367
330
1E
100
AcDbEntity
  8
製品
  6
Continuous
 62
     3
100
AcDbCircle
 10
340.5578726014546
 20
235.9069120161016
 30
0.0
 40
1.0
  0
LINE
  5
7368
330
1E
100
AcDbEntity
  8
製品
  6
Continuous
 62
     3
100
AcDbLine
 10
339.7978726014549
 20
236.0069120161015
 30
0.0
 11
340.157872601455
 21
236.0069120161015
 31
0.0
  0
LINE
  5
7369
330
1E
100
AcDbEntity
  8
製品
  6
Continuous
 62
     3
100
AcDbLine
 10
339.7978726014549
 20
235.8069120161017
 30
0.0
 11
340.157872601455
 21
235.8069120161017
 31
0.0
  0
LINE
  5
736A
330
1E
100
AcDbEntity
  8
製品
  6
Continuous
 62
     3
100
AcDbLine
 10
338.0578726014546
 20
226.7069120161013
 30
0.0
 11
343.0578726014546
 21
226.7069120161013
 31
0.0
  0
LINE
  5
736B
330
1E
100
AcDbEntity
  8
製品
  6
Continuous
 62
     3
100
AcDbLine
 10
338.0578726014546
 20
249.1069120161014
 30
0.0
 11
338.0578726014546
 21
226.7069120161013
 31
0.0
  0
LINE
  5
736C
330
1E
100
AcDbEntity
  8
製品
  6
Continuous
 62
     3
100
AcDbLine
 10
343.0578726014546
 20
226.7069120161013
 30
0.0
 11
343.0578726014546
 21
249.1069120161014
 31
0.0
  0
LINE
  5
736D
330
1E
100
AcDbEntity
  8
製品
  6
Continuous
 62
     4
100
AcDbLine
 10
339.657872601455
 20
247.1389120161016
 30
0.0
 11
339.657872601455
 21
240.3258980161017
 31
0.0
  0
LINE
  5
736E
330
1E
100
AcDbEntity
  8
製品
  6
Continuous
 62
     4
100
AcDbLine
 10
341.4578726014547
 20
240.3258980161017
 30
0.0
 11
341.4578726014547
 21
247.1389120161016
 31
0.0
  0
ARC
  5
736F
330
1E
100
AcDbEntity
  8
製品
  6
Continuous
 62
     3
100
AcDbCircle
 10
314.2578726014549
 20
237.2069120161013
 30
0.0
 40
1.0
100
AcDbArc
 50
0.0
 51
90.0
  0
LINE
  5
7370
330
1E
100
AcDbEntity
  8
製品
  6
Continuous
 62
     3
100
AcDbLine
 10
315.2578726014549
 20
232.4069120161016
 30
0.0
 11
314.697872601455
 21
232.4069120161016
 31
0.0
  0
LINE
  5
7371
330
1E
100
AcDbEntity
  8
製品
  6
Continuous
 62
     2
100
AcDbLine
 10
315.2578726014549
 20
222.8069120161017
 30
0.0
 11
315.2578726014549
 21
224.8889690161013
 31
0.0
  0
LINE
  5
7372
330
1E
100
AcDbEntity
  8
製品
  6
Continuous
 62
     2
100
AcDbLine
 10
315.157872601455
 20
222.8069120161017
 30
0.0
 11
315.157872601455
 21
224.8889690161013
 31
0.0
  0
LINE
  5
7373
330
1E
100
AcDbEntity
  8
製品
  6
Continuous
 62
     2
100
AcDbLine
 10
315.2578726014549
 20
224.8889690161013
 30
0.0
 11
315.2578726014549
 21
226.9069120161016
 31
0.0
  0
LINE
  5
7374
330
1E
100
AcDbEntity
  8
製品
  6
Continuous
 62
     2
100
AcDbLine
 10
315.157872601455
 20
224.8889690161013
 30
0.0
 11
315.157872601455
 21
226.9069120161016
 31
0.0
  0
ARC
  5
7375
330
1E
100
AcDbEntity
  8
製品
  6
Continuous
 62
     2
100
AcDbCircle
 10
314.9578726014547
 20
226.9069120161016
 30
0.0
 40
0.2
100
AcDbArc
 50
0.0
 51
90.0
  0
LINE
  5
7376
330
1E
100
AcDbEntity
  8
製品
  6
Continuous
 62
     2
100
AcDbLine
 10
314.9578726014547
 20
227.1069120161014
 30
0.0
 11
314.7578726014549
 21
227.1069120161014
 31
0.0
  0
ARC
  5
7377
330
1E
100
AcDbEntity
  8
製品
  6
Continuous
 62
     2
100
AcDbCircle
 10
314.7578726014549
 20
226.9069120161016
 30
0.0
 40
0.2
100
AcDbArc
 50
90.0
 51
180.0
  0
LINE
  5
7378
330
1E
100
AcDbEntity
  8
製品
  6
Continuous
 62
     2
100
AcDbLine
 10
314.5578726014546
 20
226.9069120161016
 30
0.0
 11
314.5578726014546
 21
226.6069120161014
 31
0.0
  0
LINE
  5
7379
330
1E
100
AcDbEntity
  8
製品
  6
Continuous
 62
     2
100
AcDbLine
 10
314.5578726014546
 20
226.6069120161014
 30
0.0
 11
314.4578726014547
 21
226.6069120161014
 31
0.0
  0
LINE
  5
737A
330
1E
100
AcDbEntity
  8
製品
  6
Continuous
 62
     2
100
AcDbLine
 10
314.4578726014547
 20
226.6069120161014
 30
0.0
 11
314.4578726014547
 21
226.9069120161016
 31
0.0
  0
ARC
  5
737B
330
1E
100
AcDbEntity
  8
製品
  6
Continuous
 62
     2
100
AcDbCircle
 10
314.7578726014549
 20
226.9069120161016
 30
0.0
 40
0.3
100
AcDbArc
 50
90.0
 51
180.0
  0
LINE
  5
737C
330
1E
100
AcDbEntity
  8
製品
  6
Continuous
 62
     2
100
AcDbLine
 10
314.7578726014549
 20
227.2069120161013
 30
0.0
 11
314.9578726014547
 21
227.2069120161013
 31
0.0
  0
ARC
  5
737D
330
1E
100
AcDbEntity
  8
製品
  6
Continuous
 62
     2
100
AcDbCircle
 10
314.9578726014547
 20
226.9069120161016
 30
0.0
 40
0.3
100
AcDbArc
 50
0.0
 51
90.0
  0
ARC
  5
737E
330
1E
100
AcDbEntity
  8
製品
  6
Continuous
 62
     2
100
AcDbCircle
 10
314.657872601455
 20
222.8069120161017
 30
0.0
 40
0.5
100
AcDbArc
 50
270.0
 51
0.0
  0
ARC
  5
737F
330
1E
100
AcDbEntity
  8
製品
  6
Continuous
 62
     3
100
AcDbCircle
 10
314.3378726014548
 20
226.7269120161013
 30
0.0
 40
0.32
100
AcDbArc
 50
270.0
 51
0.0
  0
LINE
  5
7380
330
1E
100
AcDbEntity
  8
製品
  6
Continuous
 62
     3
100
AcDbLine
 10
314.657872601455
 20
226.7269120161013
 30
0.0
 11
314.657872601455
 21
227.0801170161017
 31
0.0
  0
LINE
  5
7381
330
1E
100
AcDbEntity
  8
製品
  6
Continuous
 62
     3
100
AcDbLine
 10
314.657872601455
 20
227.0801170161017
 30
0.0
 11
314.9778726014547
 21
227.1059100161015
 31
0.0
  0
LINE
  5
7382
330
1E
100
AcDbEntity
  8
製品
  6
Continuous
 62
     3
100
AcDbLine
 10
314.9778726014547
 20
227.1059100161015
 30
0.0
 11
314.9778726014547
 21
226.7269120161013
 31
0.0
  0
ARC
  5
7383
330
1E
100
AcDbEntity
  8
製品
  6
Continuous
 62
     3
100
AcDbCircle
 10
314.3378726014548
 20
226.7269120161013
 30
0.0
 40
0.6400000000000001
100
AcDbArc
 50
270.0
 51
0.0
  0
CIRCLE
  5
7384
330
1E
100
AcDbEntity
  8
図面枠
  6
Continuous
 62
     3
100
AcDbCircle
 10
315.2909136014546
 20
224.5666940161013
 30
0.0
 40
0.3
  0
LINE
  5
7385
330
1E
100
AcDbEntity
  8
製品
  6
Continuous
 62
     3
100
AcDbLine
 10
315.2578726014549
 20
232.4069120161016
 30
0.0
 11
315.2578726014549
 21
237.2069120161013
 31
0.0
  0
LINE
  5
7386
330
1E
100
AcDbEntity
  8
図面枠
  6
Continuous
 62
     3
100
AcDbLine
 10
328.2942066014548
 20
231.9789250161016
 30
0.0
 11
316.1343716014548
 21
249.5299630161016
 31
0.0
  0
CIRCLE
  5
7387
330
1E
100
AcDbEntity
  8
図面枠
  6
Continuous
 62
     3
100
AcDbCircle
 10
328.2942066014548
 20
231.9789250161016
 30
0.0
 40
0.3
  0
LINE
  5
7388
330
1E
100
AcDbEntity
  8
製品
  6
Continuous
 62
     4
100
AcDbLine
 10
315.2578726014549
 20
234.8069120161017
 30
0.0
 11
338.0578726014546
 21
234.8069120161017
 31
0.0
  0
LINE
  5
7389
330
1E
100
AcDbEntity
  8
図面枠
  6
Continuous
 62
     3
100
AcDbLine
 10
323.2287206014548
 20
214.8285600161016
 30
0.0
 11
338.3259876014549
 21
214.8619630161015
 31
0.0
  0
TEXT
  5
738A
330
1E
100
AcDbEntity
  8
図面枠
  6
Continuous
 62
     3
100
AcDbText
 10
323.2316366014547
 20
215.8285600161016
 30
0.0
 40
3.0
  1
Ｗバ－２５型
 41
0.8
  7
ACAD
100
AcDbText
  0
ARC
  5
738B
330
1E
100
AcDbEntity
  8
製品
  6
Continuous
 62
     2
100
AcDbCircle
 10
314.657872601455
 20
222.8069120161017
 30
0.0
 40
0.6
100
AcDbArc
 50
270.0
 51
0.0
  0
LINE
  5
738C
330
1E
100
AcDbEntity
  8
図面枠
  6
Continuous
 62
     3
100
AcDbLine
 10
315.2909136014546
 20
224.5666940161013
 30
0.0
 11
323.2287206014548
 21
214.8285600161016
 31
0.0
  0
ARC
  5
738D
330
1E
100
AcDbEntity
  8
製品
  6
Continuous
 62
     3
100
AcDbCircle
 10
374.8584016014547
 20
237.2069120161013
 30
0.0
 40
1.0
100
AcDbArc
 50
0.0
 51
90.0
  0
LINE
  5
738E
330
1E
100
AcDbEntity
  8
製品
  6
Continuous
 62
     3
100
AcDbLine
 10
375.8584016014547
 20
232.4069120161016
 30
0.0
 11
375.2984016014548
 21
232.4069120161016
 31
0.0
  0
ARC
  5
738F
330
1E
100
AcDbEntity
  8
製品
  6
Continuous
 62
     3
100
AcDbCircle
 10
375.2984016014548
 20
231.7669120161013
 30
0.0
 40
0.6400000000000001
100
AcDbArc
 50
90.0
 51
180.0
  0
ARC
  5
7390
330
1E
100
AcDbEntity
  8
製品
  6
Continuous
 62
     2
100
AcDbCircle
 10
375.5584016014545
 20
226.9069120161016
 30
0.0
 40
0.2
100
AcDbArc
 50
0.0
 51
90.0
  0
LINE
  5
7391
330
1E
100
AcDbEntity
  8
製品
  6
Continuous
 62
     2
100
AcDbLine
 10
375.5584016014545
 20
227.1069120161014
 30
0.0
 11
375.3584016014547
 21
227.1069120161014
 31
0.0
  0
ARC
  5
7392
330
1E
100
AcDbEntity
  8
製品
  6
Continuous
 62
     2
100
AcDbCircle
 10
375.3584016014547
 20
226.9069120161016
 30
0.0
 40
0.2
100
AcDbArc
 50
90.0
 51
180.0
  0
LINE
  5
7393
330
1E
100
AcDbEntity
  8
製品
  6
Continuous
 62
     2
100
AcDbLine
 10
375.1584016014549
 20
226.9069120161016
 30
0.0
 11
375.1584016014549
 21
226.6069120161014
 31
0.0
  0
LINE
  5
7394
330
1E
100
AcDbEntity
  8
製品
  6
Continuous
 62
     2
100
AcDbLine
 10
375.1584016014549
 20
226.6069120161014
 30
0.0
 11
375.0584016014546
 21
226.6069120161014
 31
0.0
  0
LINE
  5
7395
330
1E
100
AcDbEntity
  8
製品
  6
Continuous
 62
     2
100
AcDbLine
 10
375.0584016014546
 20
226.6069120161014
 30
0.0
 11
375.0584016014546
 21
226.9069120161016
 31
0.0
  0
ARC
  5
7396
330
1E
100
AcDbEntity
  8
製品
  6
Continuous
 62
     2
100
AcDbCircle
 10
375.3584016014547
 20
226.9069120161016
 30
0.0
 40
0.3
100
AcDbArc
 50
90.0
 51
180.0
  0
LINE
  5
7397
330
1E
100
AcDbEntity
  8
製品
  6
Continuous
 62
     2
100
AcDbLine
 10
375.3584016014547
 20
227.2069120161013
 30
0.0
 11
375.5584016014545
 21
227.2069120161013
 31
0.0
  0
ARC
  5
7398
330
1E
100
AcDbEntity
  8
製品
  6
Continuous
 62
     2
100
AcDbCircle
 10
375.5584016014545
 20
226.9069120161016
 30
0.0
 40
0.3
100
AcDbArc
 50
0.0
 51
90.0
  0
LINE
  5
7399
330
1E
100
AcDbEntity
  8
製品
  6
Continuous
 62
     2
100
AcDbLine
 10
375.8584016014547
 20
222.8069120161017
 30
0.0
 11
375.8584016014547
 21
224.8889690161013
 31
0.0
  0
LINE
  5
739A
330
1E
100
AcDbEntity
  8
製品
  6
Continuous
 62
     2
100
AcDbLine
 10
375.7584016014548
 20
222.8069120161017
 30
0.0
 11
375.7584016014548
 21
224.8889690161013
 31
0.0
  0
LINE
  5
739B
330
1E
100
AcDbEntity
  8
製品
  6
Continuous
 62
     2
100
AcDbLine
 10
375.8584016014547
 20
224.8889690161013
 30
0.0
 11
375.8584016014547
 21
226.9069120161016
 31
0.0
  0
LINE
  5
739C
330
1E
100
AcDbEntity
  8
製品
  6
Continuous
 62
     2
100
AcDbLine
 10
375.7584016014548
 20
224.8889690161013
 30
0.0
 11
375.7584016014548
 21
226.9069120161016
 31
0.0
  0
ARC
  5
739D
330
1E
100
AcDbEntity
  8
製品
  6
Continuous
 62
     2
100
AcDbCircle
 10
375.5584016014545
 20
226.9069120161016
 30
0.0
 40
0.2
100
AcDbArc
 50
0.0
 51
90.0
  0
LINE
  5
739E
330
1E
100
AcDbEntity
  8
製品
  6
Continuous
 62
     2
100
AcDbLine
 10
375.5584016014545
 20
227.1069120161014
 30
0.0
 11
375.3584016014547
 21
227.1069120161014
 31
0.0
  0
ARC
  5
739F
330
1E
100
AcDbEntity
  8
製品
  6
Continuous
 62
     2
100
AcDbCircle
 10
375.3584016014547
 20
226.9069120161016
 30
0.0
 40
0.2
100
AcDbArc
 50
90.0
 51
180.0
  0
LINE
  5
73A0
330
1E
100
AcDbEntity
  8
製品
  6
Continuous
 62
     2
100
AcDbLine
 10
375.1584016014549
 20
226.9069120161016
 30
0.0
 11
375.1584016014549
 21
226.6069120161014
 31
0.0
  0
LINE
  5
73A1
330
1E
100
AcDbEntity
  8
製品
  6
Continuous
 62
     2
100
AcDbLine
 10
375.1584016014549
 20
226.6069120161014
 30
0.0
 11
375.0584016014546
 21
226.6069120161014
 31
0.0
  0
LINE
  5
73A2
330
1E
100
AcDbEntity
  8
製品
  6
Continuous
 62
     2
100
AcDbLine
 10
375.0584016014546
 20
226.6069120161014
 30
0.0
 11
375.0584016014546
 21
226.9069120161016
 31
0.0
  0
ARC
  5
73A3
330
1E
100
AcDbEntity
  8
製品
  6
Continuous
 62
     2
100
AcDbCircle
 10
375.3584016014547
 20
226.9069120161016
 30
0.0
 40
0.3
100
AcDbArc
 50
90.0
 51
180.0
  0
LINE
  5
73A4
330
1E
100
AcDbEntity
  8
製品
  6
Continuous
 62
     2
100
AcDbLine
 10
375.3584016014547
 20
227.2069120161013
 30
0.0
 11
375.5584016014545
 21
227.2069120161013
 31
0.0
  0
ARC
  5
73A5
330
1E
100
AcDbEntity
  8
製品
  6
Continuous
 62
     2
100
AcDbCircle
 10
375.5584016014545
 20
226.9069120161016
 30
0.0
 40
0.3
100
AcDbArc
 50
0.0
 51
90.0
  0
LINE
  5
73A6
330
1E
100
AcDbEntity
  8
製品
  6
Continuous
 62
     2
100
AcDbLine
 10
375.2584016014548
 20
222.2069120161013
 30
0.0
 11
374.6584016014549
 21
222.2069120161013
 31
0.0
  0
LINE
  5
73A7
330
1E
100
AcDbEntity
  8
製品
  6
Continuous
 62
     2
100
AcDbLine
 10
375.2584016014548
 20
222.3069120161017
 30
0.0
 11
374.6584016014549
 21
222.3069120161017
 31
0.0
  0
ARC
  5
73A8
330
1E
100
AcDbEntity
  8
製品
  6
Continuous
 62
     2
100
AcDbCircle
 10
375.2584016014548
 20
222.8069120161017
 30
0.0
 40
0.5
100
AcDbArc
 50
270.0
 51
0.0
  0
LINE
  5
73A9
330
1E
100
AcDbEntity
  8
製品
  6
Continuous
 62
     3
100
AcDbLine
 10
374.6584016014549
 20
226.4069120161016
 30
0.0
 11
374.9384016014547
 21
226.4069120161016
 31
0.0
  0
ARC
  5
73AA
330
1E
100
AcDbEntity
  8
製品
  6
Continuous
 62
     3
100
AcDbCircle
 10
374.9384016014547
 20
226.7269120161013
 30
0.0
 40
0.32
100
AcDbArc
 50
270.0
 51
0.0
  0
LINE
  5
73AB
330
1E
100
AcDbEntity
  8
製品
  6
Continuous
 62
     3
100
AcDbLine
 10
375.2584016014548
 20
226.7269120161013
 30
0.0
 11
375.2584016014548
 21
227.0801170161017
 31
0.0
  0
LINE
  5
73AC
330
1E
100
AcDbEntity
  8
製品
  6
Continuous
 62
     3
100
AcDbLine
 10
375.2584016014548
 20
227.0801170161017
 30
0.0
 11
375.578401601455
 21
227.1059100161015
 31
0.0
  0
LINE
  5
73AD
330
1E
100
AcDbEntity
  8
製品
  6
Continuous
 62
     3
100
AcDbLine
 10
375.578401601455
 20
227.1059100161015
 30
0.0
 11
375.578401601455
 21
226.7269120161013
 31
0.0
  0
ARC
  5
73AE
330
1E
100
AcDbEntity
  8
製品
  6
Continuous
 62
     3
100
AcDbCircle
 10
374.9384016014547
 20
226.7269120161013
 30
0.0
 40
0.6400000000000001
100
AcDbArc
 50
270.0
 51
0.0
  0
LINE
  5
73AF
330
1E
100
AcDbEntity
  8
製品
  6
Continuous
 62
     2
100
AcDbLine
 10
374.6584016014549
 20
222.2069120161013
 30
0.0
 11
374.4584016014546
 21
222.3069120161017
 31
0.0
  0
LINE
  5
73B0
330
1E
100
AcDbEntity
  8
製品
  6
Continuous
 62
     2
100
AcDbLine
 10
374.4584016014546
 20
222.3069120161017
 30
0.0
 11
374.1584016014549
 21
222.2069120161013
 31
0.0
  0
LINE
  5
73B1
330
1E
100
AcDbEntity
  8
製品
  6
Continuous
 62
     2
100
AcDbLine
 10
374.6584016014549
 20
222.3069120161017
 30
0.0
 11
374.4584016014546
 21
222.4069120161016
 31
0.0
  0
LINE
  5
73B2
330
1E
100
AcDbEntity
  8
製品
  6
Continuous
 62
     2
100
AcDbLine
 10
374.4584016014546
 20
222.4069120161016
 30
0.0
 11
374.1584016014549
 21
222.3069120161017
 31
0.0
  0
LINE
  5
73B3
330
1E
100
AcDbEntity
  8
製品
  6
Continuous
 62
     3
100
AcDbLine
 10
374.6584016014549
 20
231.7669120161013
 30
0.0
 11
374.6584016014549
 21
226.4069120161016
 31
0.0
  0
LINE
  5
73B4
330
1E
100
AcDbEntity
  8
製品
  6
Continuous
 62
     3
100
AcDbLine
 10
375.8584016014547
 20
232.4069120161016
 30
0.0
 11
375.8584016014547
 21
237.2069120161013
 31
0.0
  0
LINE
  5
73B5
330
1E
100
AcDbEntity
  8
製品
  6
Continuous
 62
     3
100
AcDbLine
 10
371.3237786014547
 20
238.0069120161015
 30
0.0
 11
370.1237786014549
 21
238.0069120161015
 31
0.0
  0
LINE
  5
73B6
330
1E
100
AcDbEntity
  8
製品
  6
Continuous
 62
     3
100
AcDbLine
 10
371.3237786014547
 20
236.0069120161015
 30
0.0
 11
371.8737786014549
 21
237.0069120161015
 31
0.0
  0
LINE
  5
73B7
330
1E
100
AcDbEntity
  8
製品
  6
Continuous
 62
     3
100
AcDbLine
 10
370.6237786014549
 20
237.7869120161017
 30
0.0
 11
370.8237786014547
 21
237.7869120161017
 31
0.0
  0
LINE
  5
73B8
330
1E
100
AcDbEntity
  8
製品
  6
Continuous
 62
     3
100
AcDbLine
 10
370.8237786014547
 20
237.7869120161017
 30
0.0
 11
370.8237786014547
 21
237.4069120161016
 31
0.0
  0
LINE
  5
73B9
330
1E
100
AcDbEntity
  8
製品
  6
Continuous
 62
     3
100
AcDbLine
 10
370.6237786014549
 20
237.7869120161017
 30
0.0
 11
370.6237786014549
 21
237.4069120161016
 31
0.0
  0
LINE
  5
73BA
330
1E
100
AcDbEntity
  8
製品
  6
Continuous
 62
     3
100
AcDbLine
 10
371.4837786014546
 20
237.1069120161014
 30
0.0
 11
371.4837786014546
 21
236.9069120161016
 31
0.0
  0
ARC
  5
73BB
330
1E
100
AcDbEntity
  8
製品
  6
Continuous
 62
     3
100
AcDbCircle
 10
371.1237786014549
 20
237.4069120161016
 30
0.0
 40
0.3
100
AcDbArc
 50
180.0
 51
270.0
  0
LINE
  5
73BC
330
1E
100
AcDbEntity
  8
製品
  6
Continuous
 62
     3
100
AcDbLine
 10
371.4837786014546
 20
237.1069120161014
 30
0.0
 11
371.1237786014549
 21
237.1069120161014
 31
0.0
  0
LINE
  5
73BD
330
1E
100
AcDbEntity
  8
製品
  6
Continuous
 62
     3
100
AcDbLine
 10
370.6237786014549
 20
236.1769120161016
 30
0.0
 11
370.8237786014547
 21
236.1769120161016
 31
0.0
  0
LINE
  5
73BE
330
1E
100
AcDbEntity
  8
製品
  6
Continuous
 62
     3
100
AcDbLine
 10
370.8237786014547
 20
236.2269120161013
 30
0.0
 11
370.8237786014547
 21
236.6069120161014
 31
0.0
  0
LINE
  5
73BF
330
1E
100
AcDbEntity
  8
製品
  6
Continuous
 62
     3
100
AcDbLine
 10
370.6237786014549
 20
236.2269120161013
 30
0.0
 11
370.6237786014549
 21
236.6069120161014
 31
0.0
  0
ARC
  5
73C0
330
1E
100
AcDbEntity
  8
製品
  6
Continuous
 62
     3
100
AcDbCircle
 10
371.1237786014549
 20
236.6069120161014
 30
0.0
 40
0.3
100
AcDbArc
 50
90.0
 51
180.0
  0
LINE
  5
73C1
330
1E
100
AcDbEntity
  8
製品
  6
Continuous
 62
     3
100
AcDbLine
 10
371.4837786014546
 20
236.9069120161016
 30
0.0
 11
371.1237786014549
 21
236.9069120161016
 31
0.0
  0
LINE
  5
73C2
330
1E
100
AcDbEntity
  8
製品
  6
Continuous
 62
     3
100
AcDbLine
 10
370.6237786014549
 20
236.2269120161013
 30
0.0
 11
370.8237786014547
 21
236.2269120161013
 31
0.0
  0
LINE
  5
73C3
330
1E
100
AcDbEntity
  8
製品
  6
Continuous
 62
     3
100
AcDbLine
 10
369.5737786014547
 20
237.0069120161015
 30
0.0
 11
370.1237786014549
 21
236.0069120161015
 31
0.0
  0
LINE
  5
73C4
330
1E
100
AcDbEntity
  8
製品
  6
Continuous
 62
     3
100
AcDbLine
 10
369.9637786014546
 20
237.1069120161014
 30
0.0
 11
370.3237786014547
 21
237.1069120161014
 31
0.0
  0
LINE
  5
73C5
330
1E
100
AcDbEntity
  8
製品
  6
Continuous
 62
     3
100
AcDbLine
 10
369.9637786014546
 20
236.9069120161016
 30
0.0
 11
370.3237786014547
 21
236.9069120161016
 31
0.0
  0
LINE
  5
73C6
330
1E
100
AcDbEntity
  8
製品
  6
Continuous
 62
     3
100
AcDbLine
 10
369.9637786014546
 20
237.1069120161014
 30
0.0
 11
369.9637786014546
 21
236.9069120161016
 31
0.0
  0
LINE
  5
73C7
330
1E
100
AcDbEntity
  8
製品
  6
Continuous
 62
     3
100
AcDbLine
 10
370.1237786014549
 20
236.0069120161015
 30
0.0
 11
371.3237786014547
 21
236.0069120161015
 31
0.0
  0
ARC
  5
73C8
330
1E
100
AcDbEntity
  8
製品
  6
Continuous
 62
     3
100
AcDbCircle
 10
370.3237786014547
 20
237.4069120161016
 30
0.0
 40
0.3
100
AcDbArc
 50
270.0
 51
0.0
  0
ARC
  5
73C9
330
1E
100
AcDbEntity
  8
製品
  6
Continuous
 62
     3
100
AcDbCircle
 10
370.3237786014547
 20
236.6069120161014
 30
0.0
 40
0.3
100
AcDbArc
 50
0.0
 51
90.0
  0
LINE
  5
73CA
330
1E
100
AcDbEntity
  8
製品
  6
Continuous
 62
     3
100
AcDbLine
 10
370.1237786014549
 20
238.0069120161015
 30
0.0
 11
369.5737786014547
 21
237.0069120161015
 31
0.0
  0
LINE
  5
73CB
330
1E
100
AcDbEntity
  8
製品
  6
Continuous
 62
     3
100
AcDbLine
 10
371.8737786014549
 20
237.0069120161015
 30
0.0
 11
371.3237786014547
 21
238.0069120161015
 31
0.0
  0
CIRCLE
  5
73CC
330
1E
100
AcDbEntity
  8
製品
  6
Continuous
 62
     3
100
AcDbCircle
 10
370.7237786014548
 20
237.0069120161015
 30
0.0
 40
1.0
  0
ARC
  5
73CD
330
1E
100
AcDbEntity
  8
製品
  6
Continuous
 62
     3
100
AcDbCircle
 10
366.8584016014547
 20
237.2069120161013
 30
0.0
 40
1.0
100
AcDbArc
 50
90.0
 51
180.0
  0
LINE
  5
73CE
330
1E
100
AcDbEntity
  8
製品
  6
Continuous
 62
     2
100
AcDbLine
 10
372.6584016014549
 20
222.4069120161016
 30
0.0
 11
372.3584016014547
 21
222.3069120161017
 31
0.0
  0
LINE
  5
73CF
330
1E
100
AcDbEntity
  8
製品
  6
Continuous
 62
     2
100
AcDbLine
 10
372.3584016014547
 20
222.3069120161017
 30
0.0
 11
372.0584016014545
 21
222.4069120161016
 31
0.0
  0
LINE
  5
73D0
330
1E
100
AcDbEntity
  8
製品
  6
Continuous
 62
     2
100
AcDbLine
 10
372.0584016014545
 20
222.4069120161016
 30
0.0
 11
371.8584016014547
 21
222.3069120161017
 31
0.0
  0
LINE
  5
73D1
330
1E
100
AcDbEntity
  8
製品
  6
Continuous
 62
     2
100
AcDbLine
 10
371.8584016014547
 20
222.3069120161017
 30
0.0
 11
371.0584016014546
 21
222.3069120161017
 31
0.0
  0
LINE
  5
73D2
330
1E
100
AcDbEntity
  8
製品
  6
Continuous
 62
     2
100
AcDbLine
 10
371.0584016014546
 20
222.3069120161017
 30
0.0
 11
370.8584016014547
 21
222.4069120161016
 31
0.0
  0
LINE
  5
73D3
330
1E
100
AcDbEntity
  8
製品
  6
Continuous
 62
     2
100
AcDbLine
 10
373.8584016014547
 20
222.3069120161017
 30
0.0
 11
373.5584016014545
 21
222.2069120161013
 31
0.0
  0
LINE
  5
73D4
330
1E
100
AcDbEntity
  8
製品
  6
Continuous
 62
     2
100
AcDbLine
 10
373.5584016014545
 20
222.2069120161013
 30
0.0
 11
373.2584016014548
 21
222.3069120161017
 31
0.0
  0
LINE
  5
73D5
330
1E
100
AcDbEntity
  8
製品
  6
Continuous
 62
     2
100
AcDbLine
 10
373.2584016014548
 20
222.3069120161017
 30
0.0
 11
372.9584016014546
 21
222.2069120161013
 31
0.0
  0
LINE
  5
73D6
330
1E
100
AcDbEntity
  8
製品
  6
Continuous
 62
     2
100
AcDbLine
 10
372.9584016014546
 20
222.2069120161013
 30
0.0
 11
372.6584016014549
 21
222.3069120161017
 31
0.0
  0
LINE
  5
73D7
330
1E
100
AcDbEntity
  8
製品
  6
Continuous
 62
     2
100
AcDbLine
 10
372.6584016014549
 20
222.3069120161017
 30
0.0
 11
372.3584016014547
 21
222.2069120161013
 31
0.0
  0
LINE
  5
73D8
330
1E
100
AcDbEntity
  8
製品
  6
Continuous
 62
     2
100
AcDbLine
 10
372.3584016014547
 20
222.2069120161013
 30
0.0
 11
372.0584016014545
 21
222.3069120161017
 31
0.0
  0
LINE
  5
73D9
330
1E
100
AcDbEntity
  8
製品
  6
Continuous
 62
     2
100
AcDbLine
 10
372.0584016014545
 20
222.3069120161017
 30
0.0
 11
371.8584016014547
 21
222.2069120161013
 31
0.0
  0
LINE
  5
73DA
330
1E
100
AcDbEntity
  8
製品
  6
Continuous
 62
     2
100
AcDbLine
 10
371.8584016014547
 20
222.2069120161013
 30
0.0
 11
371.0584016014546
 21
222.2069120161013
 31
0.0
  0
LINE
  5
73DB
330
1E
100
AcDbEntity
  8
製品
  6
Continuous
 62
     2
100
AcDbLine
 10
371.0584016014546
 20
222.2069120161013
 30
0.0
 11
370.8584016014547
 21
222.3069120161017
 31
0.0
  0
LINE
  5
73DC
330
1E
100
AcDbEntity
  8
製品
  6
Continuous
 62
     2
100
AcDbLine
 10
370.6584016014549
 20
222.3069120161017
 30
0.0
 11
370.8584016014547
 21
222.4069120161016
 31
0.0
  0
LINE
  5
73DD
330
1E
100
AcDbEntity
  8
製品
  6
Continuous
 62
     2
100
AcDbLine
 10
370.6584016014549
 20
222.2069120161013
 30
0.0
 11
370.8584016014547
 21
222.3069120161017
 31
0.0
  0
LINE
  5
73DE
330
1E
100
AcDbEntity
  8
製品
  6
Continuous
 62
     2
100
AcDbLine
 10
373.8584016014547
 20
222.4069120161016
 30
0.0
 11
373.5584016014545
 21
222.3069120161017
 31
0.0
  0
LINE
  5
73DF
330
1E
100
AcDbEntity
  8
製品
  6
Continuous
 62
     2
100
AcDbLine
 10
373.5584016014545
 20
222.3069120161017
 30
0.0
 11
373.2584016014548
 21
222.4069120161016
 31
0.0
  0
LINE
  5
73E0
330
1E
100
AcDbEntity
  8
製品
  6
Continuous
 62
     2
100
AcDbLine
 10
373.2584016014548
 20
222.4069120161016
 30
0.0
 11
372.9584016014546
 21
222.3069120161017
 31
0.0
  0
LINE
  5
73E1
330
1E
100
AcDbEntity
  8
製品
  6
Continuous
 62
     2
100
AcDbLine
 10
372.9584016014546
 20
222.3069120161017
 30
0.0
 11
372.6584016014549
 21
222.4069120161016
 31
0.0
  0
LINE
  5
73E2
330
1E
100
AcDbEntity
  8
製品
  6
Continuous
 62
     2
100
AcDbLine
 10
369.0584016014545
 20
222.3069120161017
 30
0.0
 11
368.7584016014548
 21
222.2069120161013
 31
0.0
  0
LINE
  5
73E3
330
1E
100
AcDbEntity
  8
製品
  6
Continuous
 62
     2
100
AcDbLine
 10
368.7584016014548
 20
222.2069120161013
 30
0.0
 11
368.4584016014546
 21
222.3069120161017
 31
0.0
  0
LINE
  5
73E4
330
1E
100
AcDbEntity
  8
製品
  6
Continuous
 62
     2
100
AcDbLine
 10
368.4584016014546
 20
222.3069120161017
 30
0.0
 11
368.1584016014549
 21
222.2069120161013
 31
0.0
  0
LINE
  5
73E5
330
1E
100
AcDbEntity
  8
製品
  6
Continuous
 62
     2
100
AcDbLine
 10
368.1584016014549
 20
222.2069120161013
 30
0.0
 11
367.8584016014547
 21
222.3069120161017
 31
0.0
  0
LINE
  5
73E6
330
1E
100
AcDbEntity
  8
製品
  6
Continuous
 62
     2
100
AcDbLine
 10
367.8584016014547
 20
222.3069120161017
 30
0.0
 11
367.5584016014545
 21
222.2069120161013
 31
0.0
  0
LINE
  5
73E7
330
1E
100
AcDbEntity
  8
製品
  6
Continuous
 62
     2
100
AcDbLine
 10
367.5584016014545
 20
222.2069120161013
 30
0.0
 11
367.2584016014548
 21
222.3069120161017
 31
0.0
  0
LINE
  5
73E8
330
1E
100
AcDbEntity
  8
製品
  6
Continuous
 62
     2
100
AcDbLine
 10
367.2584016014548
 20
222.3069120161017
 30
0.0
 11
367.0584016014545
 21
222.2069120161013
 31
0.0
  0
LINE
  5
73E9
330
1E
100
AcDbEntity
  8
製品
  6
Continuous
 62
     2
100
AcDbLine
 10
366.5584016014545
 20
226.9069120161016
 30
0.0
 11
366.5584016014545
 21
226.6069120161014
 31
0.0
  0
LINE
  5
73EA
330
1E
100
AcDbEntity
  8
製品
  6
Continuous
 62
     2
100
AcDbLine
 10
366.5584016014545
 20
226.6069120161014
 30
0.0
 11
366.6584016014549
 21
226.6069120161014
 31
0.0
  0
LINE
  5
73EB
330
1E
100
AcDbEntity
  8
製品
  6
Continuous
 62
     2
100
AcDbLine
 10
366.6584016014549
 20
226.6069120161014
 30
0.0
 11
366.6584016014549
 21
226.9069120161016
 31
0.0
  0
LINE
  5
73EC
330
1E
100
AcDbEntity
  8
製品
  6
Continuous
 62
     2
100
AcDbLine
 10
366.5584016014545
 20
226.9069120161016
 30
0.0
 11
366.5584016014545
 21
226.6069120161014
 31
0.0
  0
LINE
  5
73ED
330
1E
100
AcDbEntity
  8
製品
  6
Continuous
 62
     2
100
AcDbLine
 10
366.5584016014545
 20
226.6069120161014
 30
0.0
 11
366.6584016014549
 21
226.6069120161014
 31
0.0
  0
LINE
  5
73EE
330
1E
100
AcDbEntity
  8
製品
  6
Continuous
 62
     2
100
AcDbLine
 10
366.6584016014549
 20
226.6069120161014
 30
0.0
 11
366.6584016014549
 21
226.9069120161016
 31
0.0
  0
LINE
  5
73EF
330
1E
100
AcDbEntity
  8
製品
  6
Continuous
 62
     2
100
AcDbLine
 10
369.8584016014547
 20
222.3069120161017
 30
0.0
 11
369.6584016014549
 21
222.4069120161016
 31
0.0
  0
LINE
  5
73F0
330
1E
100
AcDbEntity
  8
製品
  6
Continuous
 62
     2
100
AcDbLine
 10
369.6584016014549
 20
222.4069120161016
 30
0.0
 11
369.3584016014547
 21
222.3069120161017
 31
0.0
  0
LINE
  5
73F1
330
1E
100
AcDbEntity
  8
製品
  6
Continuous
 62
     2
100
AcDbLine
 10
369.3584016014547
 20
222.3069120161017
 30
0.0
 11
369.0584016014545
 21
222.4069120161016
 31
0.0
  0
LINE
  5
73F2
330
1E
100
AcDbEntity
  8
製品
  6
Continuous
 62
     2
100
AcDbLine
 10
369.0584016014545
 20
222.4069120161016
 30
0.0
 11
368.7584016014548
 21
222.3069120161017
 31
0.0
  0
LINE
  5
73F3
330
1E
100
AcDbEntity
  8
製品
  6
Continuous
 62
     2
100
AcDbLine
 10
368.7584016014548
 20
222.3069120161017
 30
0.0
 11
368.4584016014546
 21
222.4069120161016
 31
0.0
  0
LINE
  5
73F4
330
1E
100
AcDbEntity
  8
製品
  6
Continuous
 62
     2
100
AcDbLine
 10
368.4584016014546
 20
222.4069120161016
 30
0.0
 11
368.1584016014549
 21
222.3069120161017
 31
0.0
  0
LINE
  5
73F5
330
1E
100
AcDbEntity
  8
製品
  6
Continuous
 62
     2
100
AcDbLine
 10
368.1584016014549
 20
222.3069120161017
 30
0.0
 11
367.8584016014547
 21
222.4069120161016
 31
0.0
  0
LINE
  5
73F6
330
1E
100
AcDbEntity
  8
製品
  6
Continuous
 62
     2
100
AcDbLine
 10
367.8584016014547
 20
222.4069120161016
 30
0.0
 11
367.5584016014545
 21
222.3069120161017
 31
0.0
  0
LINE
  5
73F7
330
1E
100
AcDbEntity
  8
製品
  6
Continuous
 62
     2
100
AcDbLine
 10
367.5584016014545
 20
222.3069120161017
 30
0.0
 11
367.2584016014548
 21
222.4069120161016
 31
0.0
  0
LINE
  5
73F8
330
1E
100
AcDbEntity
  8
製品
  6
Continuous
 62
     2
100
AcDbLine
 10
367.2584016014548
 20
222.4069120161016
 30
0.0
 11
367.0584016014545
 21
222.3069120161017
 31
0.0
  0
LINE
  5
73F9
330
1E
100
AcDbEntity
  8
製品
  6
Continuous
 62
     2
100
AcDbLine
 10
369.8584016014547
 20
222.2069120161013
 30
0.0
 11
369.6584016014549
 21
222.3069120161017
 31
0.0
  0
LINE
  5
73FA
330
1E
100
AcDbEntity
  8
製品
  6
Continuous
 62
     2
100
AcDbLine
 10
369.6584016014549
 20
222.3069120161017
 30
0.0
 11
369.3584016014547
 21
222.2069120161013
 31
0.0
  0
LINE
  5
73FB
330
1E
100
AcDbEntity
  8
製品
  6
Continuous
 62
     2
100
AcDbLine
 10
369.3584016014547
 20
222.2069120161013
 30
0.0
 11
369.0584016014545
 21
222.3069120161017
 31
0.0
  0
LINE
  5
73FC
330
1E
100
AcDbEntity
  8
製品
  6
Continuous
 62
     2
100
AcDbLine
 10
369.8584016014547
 20
222.3069120161017
 30
0.0
 11
370.6584016014549
 21
222.3069120161017
 31
0.0
  0
LINE
  5
73FD
330
1E
100
AcDbEntity
  8
製品
  6
Continuous
 62
     2
100
AcDbLine
 10
369.8584016014547
 20
222.2069120161013
 30
0.0
 11
370.6584016014549
 21
222.2069120161013
 31
0.0
  0
LINE
  5
73FE
330
1E
100
AcDbEntity
  8
製品
  6
Continuous
 62
     3
100
AcDbLine
 10
367.0584016014545
 20
226.4069120161016
 30
0.0
 11
367.0584016014545
 21
231.7669120161013
 31
0.0
  0
LINE
  5
73FF
330
1E
100
AcDbEntity
  8
製品
  6
Continuous
 62
     3
100
AcDbLine
 10
366.4184016014547
 20
232.4069120161016
 30
0.0
 11
365.8584016014547
 21
232.4069120161016
 31
0.0
  0
ARC
  5
7400
330
1E
100
AcDbEntity
  8
製品
  6
Continuous
 62
     2
100
AcDbCircle
 10
366.1584016014549
 20
226.9069120161016
 30
0.0
 40
0.3
100
AcDbArc
 50
90.0
 51
180.0
  0
LINE
  5
7401
330
1E
100
AcDbEntity
  8
製品
  6
Continuous
 62
     3
100
AcDbLine
 10
366.1384016014549
 20
226.7269120161013
 30
0.0
 11
366.1384016014549
 21
227.1059100161015
 31
0.0
  0
LINE
  5
7402
330
1E
100
AcDbEntity
  8
製品
  6
Continuous
 62
     3
100
AcDbLine
 10
366.1384016014549
 20
227.1059100161015
 30
0.0
 11
366.4584016014546
 21
227.0801170161017
 31
0.0
  0
LINE
  5
7403
330
1E
100
AcDbEntity
  8
製品
  6
Continuous
 62
     3
100
AcDbLine
 10
366.4584016014546
 20
227.0801170161017
 30
0.0
 11
366.4584016014546
 21
226.7269120161013
 31
0.0
  0
ARC
  5
7404
330
1E
100
AcDbEntity
  8
製品
  6
Continuous
 62
     2
100
AcDbCircle
 10
366.1584016014549
 20
226.9069120161016
 30
0.0
 40
0.2
100
AcDbArc
 50
90.0
 51
180.0
  0
LINE
  5
7405
330
1E
100
AcDbEntity
  8
製品
  6
Continuous
 62
     2
100
AcDbLine
 10
366.1584016014549
 20
227.1069120161014
 30
0.0
 11
366.3584016014547
 21
227.1069120161014
 31
0.0
  0
LINE
  5
7406
330
1E
100
AcDbEntity
  8
製品
  6
Continuous
 62
     2
100
AcDbLine
 10
366.3584016014547
 20
227.2069120161013
 30
0.0
 11
366.1584016014549
 21
227.2069120161013
 31
0.0
  0
LINE
  5
7407
330
1E
100
AcDbEntity
  8
製品
  6
Continuous
 62
     2
100
AcDbLine
 10
365.9584016014546
 20
222.8069120161017
 30
0.0
 11
365.9584016014546
 21
224.8889690161013
 31
0.0
  0
LINE
  5
7408
330
1E
100
AcDbEntity
  8
製品
  6
Continuous
 62
     2
100
AcDbLine
 10
365.8584016014547
 20
222.8069120161017
 30
0.0
 11
365.8584016014547
 21
224.8889690161013
 31
0.0
  0
LINE
  5
7409
330
1E
100
AcDbEntity
  8
製品
  6
Continuous
 62
     2
100
AcDbLine
 10
365.8584016014547
 20
224.8889690161013
 30
0.0
 11
365.8584016014547
 21
226.9069120161016
 31
0.0
  0
LINE
  5
740A
330
1E
100
AcDbEntity
  8
製品
  6
Continuous
 62
     2
100
AcDbLine
 10
365.9584016014546
 20
224.8889690161013
 30
0.0
 11
365.9584016014546
 21
226.9069120161016
 31
0.0
  0
ARC
  5
740B
330
1E
100
AcDbEntity
  8
製品
  6
Continuous
 62
     2
100
AcDbCircle
 10
366.1584016014549
 20
226.9069120161016
 30
0.0
 40
0.2
100
AcDbArc
 50
90.0
 51
180.0
  0
LINE
  5
740C
330
1E
100
AcDbEntity
  8
製品
  6
Continuous
 62
     2
100
AcDbLine
 10
366.1584016014549
 20
227.1069120161014
 30
0.0
 11
366.3584016014547
 21
227.1069120161014
 31
0.0
  0
LINE
  5
740D
330
1E
100
AcDbEntity
  8
製品
  6
Continuous
 62
     2
100
AcDbLine
 10
366.3584016014547
 20
227.2069120161013
 30
0.0
 11
366.1584016014549
 21
227.2069120161013
 31
0.0
  0
ARC
  5
740E
330
1E
100
AcDbEntity
  8
製品
  6
Continuous
 62
     2
100
AcDbCircle
 10
366.1584016014549
 20
226.9069120161016
 30
0.0
 40
0.3
100
AcDbArc
 50
90.0
 51
180.0
  0
ARC
  5
740F
330
1E
100
AcDbEntity
  8
製品
  6
Continuous
 62
     2
100
AcDbCircle
 10
366.4584016014546
 20
222.8069120161017
 30
0.0
 40
0.5
100
AcDbArc
 50
180.0
 51
270.0
  0
ARC
  5
7410
330
1E
100
AcDbEntity
  8
製品
  6
Continuous
 62
     3
100
AcDbCircle
 10
366.7784016014548
 20
226.7269120161013
 30
0.0
 40
0.6400000000000001
100
AcDbArc
 50
180.0
 51
270.0
  0
ARC
  5
7411
330
1E
100
AcDbEntity
  8
製品
  6
Continuous
 62
     3
100
AcDbCircle
 10
366.7784016014548
 20
226.7269120161013
 30
0.0
 40
0.32
100
AcDbArc
 50
180.0
 51
270.0
  0
ARC
  5
7412
330
1E
100
AcDbEntity
  8
製品
  6
Continuous
 62
     3
100
AcDbCircle
 10
366.4184016014547
 20
231.7669120161013
 30
0.0
 40
0.6400000000000001
100
AcDbArc
 50
0.0
 51
90.0
  0
ARC
  5
7413
330
1E
100
AcDbEntity
  8
製品
  6
Continuous
 62
     2
100
AcDbCircle
 10
366.3584016014547
 20
226.9069120161016
 30
0.0
 40
0.2
100
AcDbArc
 50
0.0
 51
90.0
  0
ARC
  5
7414
330
1E
100
AcDbEntity
  8
製品
  6
Continuous
 62
     2
100
AcDbCircle
 10
366.3584016014547
 20
226.9069120161016
 30
0.0
 40
0.3
100
AcDbArc
 50
0.0
 51
90.0
  0
ARC
  5
7415
330
1E
100
AcDbEntity
  8
製品
  6
Continuous
 62
     2
100
AcDbCircle
 10
366.3584016014547
 20
226.9069120161016
 30
0.0
 40
0.2
100
AcDbArc
 50
0.0
 51
90.0
  0
ARC
  5
7416
330
1E
100
AcDbEntity
  8
製品
  6
Continuous
 62
     2
100
AcDbCircle
 10
366.3584016014547
 20
226.9069120161016
 30
0.0
 40
0.3
100
AcDbArc
 50
0.0
 51
90.0
  0
LINE
  5
7417
330
1E
100
AcDbEntity
  8
製品
  6
Continuous
 62
     2
100
AcDbLine
 10
366.4584016014546
 20
222.2069120161013
 30
0.0
 11
367.0584016014545
 21
222.2069120161013
 31
0.0
  0
LINE
  5
7418
330
1E
100
AcDbEntity
  8
製品
  6
Continuous
 62
     2
100
AcDbLine
 10
366.4584016014546
 20
222.3069120161017
 30
0.0
 11
367.0584016014545
 21
222.3069120161017
 31
0.0
  0
LINE
  5
7419
330
1E
100
AcDbEntity
  8
製品
  6
Continuous
 62
     3
100
AcDbLine
 10
365.8584016014547
 20
232.4069120161016
 30
0.0
 11
365.8584016014547
 21
237.2069120161013
 31
0.0
  0
LINE
  5
741A
330
1E
100
AcDbEntity
  8
製品
  6
Continuous
 62
     3
100
AcDbLine
 10
374.9384016014547
 20
226.0869120161014
 30
0.0
 11
366.7784016014548
 21
226.0869120161014
 31
0.0
  0
LINE
  5
741B
330
1E
100
AcDbEntity
  8
製品
  6
Continuous
 62
     3
100
AcDbLine
 10
366.7784016014548
 20
226.4069120161016
 30
0.0
 11
374.6584016014549
 21
226.4069120161016
 31
0.0
  0
LINE
  5
741C
330
1E
100
AcDbEntity
  8
製品
  6
Continuous
 62
     2
100
AcDbLine
 10
374.1584016014549
 20
222.2069120161013
 30
0.0
 11
373.8584016014547
 21
222.3069120161017
 31
0.0
  0
LINE
  5
741D
330
1E
100
AcDbEntity
  8
製品
  6
Continuous
 62
     2
100
AcDbLine
 10
374.1584016014549
 20
222.3069120161017
 30
0.0
 11
373.8584016014547
 21
222.4069120161016
 31
0.0
  0
LINE
  5
741E
330
1E
100
AcDbEntity
  8
製品
  6
Continuous
 62
     3
100
AcDbLine
 10
366.8584016014547
 20
238.2069120161014
 30
0.0
 11
374.8584016014547
 21
238.2069120161014
 31
0.0
  0
LINE
  5
741F
330
1E
100
AcDbEntity
  8
製品
  6
Continuous
 62
     3
100
AcDbLine
 10
365.8584016014547
 20
235.2069120161013
 30
0.0
 11
375.8584016014547
 21
235.2069120161013
 31
0.0
  0
ARC
  5
7420
330
1E
100
AcDbEntity
  8
製品
  6
Continuous
 62
     2
100
AcDbCircle
 10
375.2584016014548
 20
222.8069120161017
 30
0.0
 40
0.6
100
AcDbArc
 50
270.0
 51
0.0
  0
ARC
  5
7421
330
1E
100
AcDbEntity
  8
製品
  6
Continuous
 62
     2
100
AcDbCircle
 10
366.4584016014546
 20
222.8069120161017
 30
0.0
 40
0.6
100
AcDbArc
 50
180.0
 51
270.0
  0
LINE
  5
7422
330
1E
100
AcDbEntity
  8
製品
  6
Continuous
 62
     4
100
AcDbLine
 10
248.9161376014549
 20
381.8970920161014
 30
0.0
 11
237.5413426014548
 21
370.5222970161017
 31
0.0
  0
LINE
  5
7423
330
1E
100
AcDbEntity
  8
製品
  6
Continuous
 62
     4
100
AcDbLine
 10
238.9555556014548
 20
370.5222970161017
 30
0.0
 11
250.3303516014548
 21
381.8970920161014
 31
0.0
  0
LINE
  5
7424
330
1E
100
AcDbEntity
  8
製品
  6
Continuous
 62
     4
100
AcDbLine
 10
236.1271286014548
 20
370.5222970161017
 30
0.0
 11
247.5019236014546
 21
381.8970920161014
 31
0.0
  0
LINE
  5
7425
330
1E
100
AcDbEntity
  8
図面枠
  6
Continuous
 62
     3
100
AcDbLine
 10
277.5182786014548
 20
328.8248280161015
 30
0.0
 11
298.1582786014546
 21
328.8248280161015
 31
0.0
  0
TEXT
  5
7426
330
1E
100
AcDbEntity
  8
図面枠
  6
Continuous
 62
     3
100
AcDbText
 10
277.518288601455
 20
329.8248440161014
 30
0.0
 40
3.0
  1
補強用チャンネル
 41
0.8
  7
ACAD
100
AcDbText
  0
CIRCLE
  5
7427
330
1E
100
AcDbEntity
  8
図面枠
  6
Continuous
 62
     3
100
AcDbCircle
 10
270.1927336014546
 20
318.2309710161017
 30
0.0
 40
0.3
  0
LINE
  5
7428
330
1E
100
AcDbEntity
  8
図面枠
  6
Continuous
 62
     3
100
AcDbLine
 10
270.1927336014546
 20
318.2309710161017
 30
0.0
 11
277.5182786014548
 21
328.8248280161015
 31
0.0
  0
LINE
  5
7429
330
1E
100
AcDbEntity
  8
図面枠
  6
Continuous
 62
     3
100
AcDbLine
 10
340.4054996014547
 20
332.0607590161017
 30
0.0
 11
346.6492376014548
 21
340.5408940161014
 31
0.0
  0
LINE
  5
742A
330
1E
100
AcDbEntity
  8
製品
  6
Continuous
 62
     4
100
AcDbLine
 10
339.657872601455
 20
370.5222970161017
 30
0.0
 11
339.657872601455
 21
308.5855320161013
 31
0.0
  0
LINE
  5
742B
330
1E
100
AcDbEntity
  8
製品
  6
Continuous
 62
     4
100
AcDbLine
 10
341.4578726014547
 20
308.5855320161013
 30
0.0
 11
341.4578726014547
 21
370.5222970161017
 31
0.0
  0
LINE
  5
742C
330
1E
100
AcDbEntity
  8
図面枠
  6
Continuous
 62
     3
100
AcDbLine
 10
343.4590056014549
 20
321.4343890161017
 30
0.0
 11
350.2553046014546
 21
328.9460880161014
 31
0.0
  0
LINE
  5
742D
330
1E
100
AcDbEntity
  8
製品
  6
Continuous
 62
     3
100
AcDbLine
 10
347.0996786014548
 20
304.7255320161016
 30
0.0
 11
347.899678601455
 21
304.7255320161016
 31
0.0
  0
LINE
  5
742E
330
1E
100
AcDbEntity
  8
製品
  6
Continuous
 62
     3
100
AcDbLine
 10
347.0996786014548
 20
303.5255320161013
 30
0.0
 11
347.899678601455
 21
303.5255320161013
 31
0.0
  0
LINE
  5
742F
330
1E
100
AcDbEntity
  8
製品
  6
Continuous
 62
     3
100
AcDbLine
 10
347.899678601455
 20
303.1255320161017
 30
0.0
 11
347.0996786014548
 21
303.1255320161017
 31
0.0
  0
LINE
  5
7430
330
1E
100
AcDbEntity
  8
製品
  6
Continuous
 62
     3
100
AcDbLine
 10
347.0996786014548
 20
305.1255320161017
 30
0.0
 11
347.899678601455
 21
305.1255320161017
 31
0.0
  0
LINE
  5
7431
330
1E
100
AcDbEntity
  8
製品
  6
PLINE3
 62
     3
100
AcDbLine
 10
336.7941306014545
 20
304.1255320161017
 30
0.0
 11
348.8509476014546
 21
304.1255320161017
 31
0.0
  0
LINE
  5
7432
330
1E
100
AcDbEntity
  8
製品
  6
Continuous
 62
     3
100
AcDbLine
 10
341.4578726014547
 20
320.8496290161015
 30
0.0
 11
376.2483796014549
 21
320.8496290161015
 31
0.0
  0
LINE
  5
7433
330
1E
100
AcDbEntity
  8
製品
  6
Continuous
 62
     3
100
AcDbLine
 10
341.4578726014547
 20
313.2496290161016
 30
0.0
 11
376.2483796014549
 21
313.2496290161016
 31
0.0
  0
LINE
  5
7434
330
1E
100
AcDbEntity
  8
製品
  6
Continuous
 62
     3
100
AcDbLine
 10
341.4578726014547
 20
320.5296290161014
 30
0.0
 11
376.2483796014549
 21
320.5296290161014
 31
0.0
  0
LINE
  5
7435
330
1E
100
AcDbEntity
  8
製品
  6
Continuous
 62
     3
100
AcDbLine
 10
376.2483796014549
 20
313.5696290161013
 30
0.0
 11
341.4578726014547
 21
313.5696290161013
 31
0.0
  0
CIRCLE
  5
7436
330
1E
100
AcDbEntity
  8
図面枠
  6
Continuous
 62
     3
100
AcDbCircle
 10
340.4054996014547
 20
332.0607590161017
 30
0.0
 40
0.3
  0
LINE
  5
7437
330
1E
100
AcDbEntity
  8
製品
  6
Continuous
 62
     3
100
AcDbLine
 10
341.4578726014547
 20
321.5096290161014
 30
0.0
 11
343.3578726014548
 21
321.5096290161014
 31
0.0
  0
LINE
  5
7438
330
1E
100
AcDbEntity
  8
製品
  6
Continuous
 62
     3
100
AcDbLine
 10
343.3578726014548
 20
321.5096290161014
 30
0.0
 11
343.3578726014548
 21
320.8496290161015
 31
0.0
  0
LINE
  5
7439
330
1E
100
AcDbEntity
  8
製品
  6
Continuous
 62
     3
100
AcDbLine
 10
341.4578726014547
 20
321.0496290161013
 30
0.0
 11
343.3578726014548
 21
321.0496290161013
 31
0.0
  0
LINE
  5
743A
330
1E
100
AcDbEntity
  8
製品
  6
Continuous
 62
     3
100
AcDbLine
 10
337.7578726014549
 20
320.8496290161015
 30
0.0
 11
337.7578726014549
 21
321.5096290161014
 31
0.0
  0
LINE
  5
743B
330
1E
100
AcDbEntity
  8
製品
  6
Continuous
 62
     3
100
AcDbLine
 10
337.7578726014549
 20
321.5096290161014
 30
0.0
 11
339.657872601455
 21
321.5096290161014
 31
0.0
  0
LINE
  5
743C
330
1E
100
AcDbEntity
  8
製品
  6
Continuous
 62
     3
100
AcDbLine
 10
337.7578726014549
 20
321.0496290161013
 30
0.0
 11
339.657872601455
 21
321.0496290161013
 31
0.0
  0
LINE
  5
743D
330
1E
100
AcDbEntity
  8
製品
  6
Continuous
 62
     3
100
AcDbLine
 10
341.4578726014547
 20
312.5896290161013
 30
0.0
 11
343.3578726014548
 21
312.5896290161013
 31
0.0
  0
LINE
  5
743E
330
1E
100
AcDbEntity
  8
製品
  6
Continuous
 62
     3
100
AcDbLine
 10
343.3578726014548
 20
312.5896290161013
 30
0.0
 11
343.3578726014548
 21
313.2496290161016
 31
0.0
  0
LINE
  5
743F
330
1E
100
AcDbEntity
  8
製品
  6
Continuous
 62
     3
100
AcDbLine
 10
343.3578726014548
 20
313.0496290161013
 30
0.0
 11
341.4578726014547
 21
313.0496290161013
 31
0.0
  0
LINE
  5
7440
330
1E
100
AcDbEntity
  8
製品
  6
Continuous
 62
     3
100
AcDbLine
 10
337.7578726014549
 20
313.2496290161016
 30
0.0
 11
337.7578726014549
 21
312.5896290161013
 31
0.0
  0
LINE
  5
7441
330
1E
100
AcDbEntity
  8
製品
  6
Continuous
 62
     3
100
AcDbLine
 10
337.7578726014549
 20
312.5896290161013
 30
0.0
 11
339.657872601455
 21
312.5896290161013
 31
0.0
  0
LINE
  5
7442
330
1E
100
AcDbEntity
  8
製品
  6
Continuous
 62
     3
100
AcDbLine
 10
339.657872601455
 20
313.0496290161013
 30
0.0
 11
337.7578726014549
 21
313.0496290161013
 31
0.0
  0
LINE
  5
7443
330
1E
100
AcDbEntity
  8
製品
  6
Continuous
 62
     3
100
AcDbLine
 10
341.4578726014547
 20
307.9255320161014
 30
0.0
 11
341.4578726014547
 21
307.6055320161017
 31
0.0
  0
LINE
  5
7444
330
1E
100
AcDbEntity
  8
製品
  6
Continuous
 62
     3
100
AcDbLine
 10
343.157872601455
 20
307.9255320161014
 30
0.0
 11
341.4578726014547
 21
307.9255320161014
 31
0.0
  0
LINE
  5
7445
330
1E
100
AcDbEntity
  8
製品
  6
Continuous
 62
     3
100
AcDbLine
 10
341.4578726014547
 20
307.6055320161017
 30
0.0
 11
343.157872601455
 21
307.6055320161017
 31
0.0
  0
ARC
  5
7446
330
1E
100
AcDbEntity
  8
製品
  6
Continuous
 62
     3
100
AcDbCircle
 10
343.157872601455
 20
307.2255320161016
 30
0.0
 40
0.38
100
AcDbArc
 50
0.0
 51
90.0
  0
LINE
  5
7447
330
1E
100
AcDbEntity
  8
製品
  6
Continuous
 62
     3
100
AcDbLine
 10
337.7578726014549
 20
308.5855320161013
 30
0.0
 11
337.7578726014549
 21
308.1255320161017
 31
0.0
  0
LINE
  5
7448
330
1E
100
AcDbEntity
  8
製品
  6
Continuous
 62
     3
100
AcDbLine
 10
337.7578726014549
 20
308.1255320161017
 30
0.0
 11
339.657872601455
 21
308.1255320161017
 31
0.0
  0
LINE
  5
7449
330
1E
100
AcDbEntity
  8
製品
  6
Continuous
 62
     3
100
AcDbLine
 10
339.657872601455
 20
308.5855320161013
 30
0.0
 11
337.7578726014549
 21
308.5855320161013
 31
0.0
  0
LINE
  5
744A
330
1E
100
AcDbEntity
  8
製品
  6
Continuous
 62
     3
100
AcDbLine
 10
343.3978726014548
 20
308.5855320161013
 30
0.0
 11
339.657872601455
 21
308.5855320161013
 31
0.0
  0
LINE
  5
744B
330
1E
100
AcDbEntity
  8
製品
  6
Continuous
 62
     3
100
AcDbLine
 10
339.657872601455
 20
308.1255320161017
 30
0.0
 11
343.3978726014548
 21
308.1255320161017
 31
0.0
  0
LINE
  5
744C
330
1E
100
AcDbEntity
  8
製品
  6
PLINE2
 62
     3
100
AcDbLine
 10
337.7578726014549
 20
320.8496290161015
 30
0.0
 11
337.7578726014549
 21
313.2496290161016
 31
0.0
  0
LINE
  5
744D
330
1E
100
AcDbEntity
  8
製品
  6
PLINE2
 62
     3
100
AcDbLine
 10
343.3578726014548
 20
313.2496290161016
 30
0.0
 11
343.3578726014548
 21
320.8496290161015
 31
0.0
  0
ARC
  5
744E
330
1E
100
AcDbEntity
  8
製品
  6
Continuous
 62
     3
100
AcDbCircle
 10
343.157872601455
 20
307.2255320161016
 30
0.0
 40
0.7
100
AcDbArc
 50
0.0
 51
90.0
  0
ARC
  5
744F
330
1E
100
AcDbEntity
  8
製品
  6
Continuous
 62
     3
100
AcDbCircle
 10
343.3978726014548
 20
307.6655320161017
 30
0.0
 40
0.4600000000000001
100
AcDbArc
 50
0.0
 51
90.0
  0
ARC
  5
7450
330
1E
100
AcDbEntity
  8
製品
  6
Continuous
 62
     3
100
AcDbCircle
 10
343.3978726014548
 20
307.6655320161017
 30
0.0
 40
0.9200000000000001
100
AcDbArc
 50
0.0
 51
90.0
  0
CIRCLE
  5
7451
330
1E
100
AcDbEntity
  8
図面枠
  6
Continuous
 62
     3
100
AcDbCircle
 10
343.4590056014549
 20
321.4343890161017
 30
0.0
 40
0.3
  0
LINE
  5
7452
330
1E
100
AcDbEntity
  8
製品
  6
Continuous
 62
     3
100
AcDbLine
 10
344.3178726014548
 20
304.7255320161016
 30
0.0
 11
345.1178726014546
 21
304.7255320161016
 31
0.0
  0
LINE
  5
7453
330
1E
100
AcDbEntity
  8
製品
  6
Continuous
 62
     3
100
AcDbLine
 10
344.3178726014548
 20
303.5255320161013
 30
0.0
 11
345.1178726014546
 21
303.5255320161013
 31
0.0
  0
LINE
  5
7454
330
1E
100
AcDbEntity
  8
製品
  6
Continuous
 62
     3
100
AcDbLine
 10
345.3178726014548
 20
304.7255320161016
 30
0.0
 11
347.0996786014548
 21
304.7255320161016
 31
0.0
  0
LINE
  5
7455
330
1E
100
AcDbEntity
  8
製品
  6
Continuous
 62
     3
100
AcDbLine
 10
347.0996786014548
 20
304.7255320161016
 30
0.0
 11
347.0996786014548
 21
305.1255320161017
 31
0.0
  0
LINE
  5
7456
330
1E
100
AcDbEntity
  8
製品
  6
Continuous
 62
     3
100
AcDbLine
 10
347.0996786014548
 20
303.1255320161017
 30
0.0
 11
347.0996786014548
 21
303.5255320161013
 31
0.0
  0
LINE
  5
7457
330
1E
100
AcDbEntity
  8
製品
  6
Continuous
 62
     3
100
AcDbLine
 10
347.0996786014548
 20
303.5255320161013
 30
0.0
 11
345.3178726014548
 21
303.5255320161013
 31
0.0
  0
LINE
  5
7458
330
1E
100
AcDbEntity
  8
製品
  6
Continuous
 62
     3
100
AcDbLine
 10
347.0996786014548
 20
304.7255320161016
 30
0.0
 11
347.0996786014548
 21
303.5255320161013
 31
0.0
  0
ARC
  5
7459
330
1E
100
AcDbEntity
  8
製品
  6
Continuous
 62
     3
100
AcDbCircle
 10
345.1178726014546
 20
304.9255320161015
 30
0.0
 40
0.2
100
AcDbArc
 50
270.0
 51
90.0
  0
ARC
  5
745A
330
1E
100
AcDbEntity
  8
製品
  6
Continuous
 62
     3
100
AcDbCircle
 10
344.3178726014548
 20
304.1255320161017
 30
0.0
 40
1.0
100
AcDbArc
 50
323.1301020000044
 51
36.86989799999558
  0
LINE
  5
745B
330
1E
100
AcDbEntity
  8
製品
  6
Continuous
 62
     3
100
AcDbLine
 10
344.3178726014548
 20
305.1255320161017
 30
0.0
 11
345.1178726014546
 21
305.1255320161017
 31
0.0
  0
ARC
  5
745C
330
1E
100
AcDbEntity
  8
製品
  6
Continuous
 62
     3
100
AcDbCircle
 10
345.1178726014546
 20
303.3255320161015
 30
0.0
 40
0.2
100
AcDbArc
 50
270.0
 51
0.0
  0
LINE
  5
745D
330
1E
100
AcDbEntity
  8
製品
  6
Continuous
 62
     3
100
AcDbLine
 10
345.3178726014548
 20
304.9255320161015
 30
0.0
 11
345.3178726014548
 21
303.3255320161015
 31
0.0
  0
LINE
  5
745E
330
1E
100
AcDbEntity
  8
製品
  6
Continuous
 62
     3
100
AcDbLine
 10
345.1178726014546
 20
303.1255320161017
 30
0.0
 11
344.3178726014548
 21
303.1255320161017
 31
0.0
  0
ARC
  5
745F
330
1E
100
AcDbEntity
  8
製品
  6
Continuous
 62
     3
100
AcDbCircle
 10
345.1178726014546
 20
303.3255320161015
 30
0.0
 40
0.2
100
AcDbArc
 50
270.0
 51
90.0
  0
LINE
  5
7460
330
1E
100
AcDbEntity
  8
製品
  6
Continuous
 62
     3
100
AcDbLine
 10
345.3178726014548
 20
304.6255320161017
 30
0.0
 11
347.0996786014548
 21
304.6255320161017
 31
0.0
  0
LINE
  5
7461
330
1E
100
AcDbEntity
  8
製品
  6
Continuous
 62
     3
100
AcDbLine
 10
345.3178726014548
 20
303.6255320161017
 30
0.0
 11
347.0996786014548
 21
303.6255320161017
 31
0.0
  0
LINE
  5
7462
330
1E
100
AcDbEntity
  8
製品
  6
Continuous
 62
     3
100
AcDbLine
 10
343.8578726014548
 20
301.0255320161014
 30
0.0
 11
343.8578726014548
 21
304.1255320161017
 31
0.0
  0
LINE
  5
7463
330
1E
100
AcDbEntity
  8
製品
  6
Continuous
 62
     3
100
AcDbLine
 10
341.4578726014547
 20
300.3255320161015
 30
0.0
 11
341.4578726014547
 21
300.6455320161017
 31
0.0
  0
LINE
  5
7464
330
1E
100
AcDbEntity
  8
製品
  6
Continuous
 62
     3
100
AcDbLine
 10
343.157872601455
 20
300.3255320161015
 30
0.0
 11
341.4578726014547
 21
300.3255320161015
 31
0.0
  0
ARC
  5
7465
330
1E
100
AcDbEntity
  8
製品
  6
Continuous
 62
     3
100
AcDbCircle
 10
343.157872601455
 20
301.0255320161014
 30
0.0
 40
0.38
100
AcDbArc
 50
270.0
 51
0.0
  0
LINE
  5
7466
330
1E
100
AcDbEntity
  8
製品
  6
Continuous
 62
     3
100
AcDbLine
 10
343.157872601455
 20
300.6455320161017
 30
0.0
 11
341.4578726014547
 21
300.6455320161017
 31
0.0
  0
LINE
  5
7467
330
1E
100
AcDbEntity
  8
製品
  6
Continuous
 62
     3
100
AcDbLine
 10
339.657872601455
 20
300.1255320161017
 30
0.0
 11
337.7578726014549
 21
300.1255320161017
 31
0.0
  0
LINE
  5
7468
330
1E
100
AcDbEntity
  8
製品
  6
Continuous
 62
     3
100
AcDbLine
 10
337.7578726014549
 20
300.1255320161017
 30
0.0
 11
337.7578726014549
 21
299.6655320161017
 31
0.0
  0
LINE
  5
7469
330
1E
100
AcDbEntity
  8
製品
  6
Continuous
 62
     3
100
AcDbLine
 10
337.7578726014549
 20
299.6655320161017
 30
0.0
 11
339.657872601455
 21
299.6655320161017
 31
0.0
  0
LINE
  5
746A
330
1E
100
AcDbEntity
  8
製品
  6
Continuous
 62
     3
100
AcDbLine
 10
343.3978726014548
 20
300.1255320161017
 30
0.0
 11
339.657872601455
 21
300.1255320161017
 31
0.0
  0
LINE
  5
746B
330
1E
100
AcDbEntity
  8
製品
  6
Continuous
 62
     3
100
AcDbLine
 10
339.657872601455
 20
299.6655320161017
 30
0.0
 11
343.3978726014548
 21
299.6655320161017
 31
0.0
  0
CIRCLE
  5
746C
330
1E
100
AcDbEntity
  8
製品
  6
Continuous
 62
     3
100
AcDbCircle
 10
343.8578726014548
 20
300.3255320161015
 30
0.0
 40
0.3
  0
CIRCLE
  5
746D
330
1E
100
AcDbEntity
  8
製品
  6
Continuous
 62
     3
100
AcDbCircle
 10
343.8578726014548
 20
300.3255320161015
 30
0.0
 40
0.3
  0
ARC
  5
746E
330
1E
100
AcDbEntity
  8
製品
  6
Continuous
 62
     3
100
AcDbCircle
 10
343.157872601455
 20
301.0255320161014
 30
0.0
 40
0.7
100
AcDbArc
 50
270.0
 51
0.0
  0
ARC
  5
746F
330
1E
100
AcDbEntity
  8
製品
  6
Continuous
 62
     3
100
AcDbCircle
 10
343.3978726014548
 20
300.5855320161013
 30
0.0
 40
0.4600000000000001
100
AcDbArc
 50
270.0
 51
0.0
  0
ARC
  5
7470
330
1E
100
AcDbEntity
  8
製品
  6
Continuous
 62
     3
100
AcDbCircle
 10
343.3978726014548
 20
300.5855320161013
 30
0.0
 40
0.9200000000000001
100
AcDbArc
 50
270.0
 51
0.0
  0
LINE
  5
7471
330
1E
100
AcDbEntity
  8
製品
  6
Continuous
 62
     3
100
AcDbLine
 10
343.8578726014548
 20
307.2255320161016
 30
0.0
 11
343.8578726014548
 21
304.1255320161017
 31
0.0
  0
LINE
  5
7472
330
1E
100
AcDbEntity
  8
製品
  6
Continuous
 62
     3
100
AcDbLine
 10
343.5378726014546
 20
307.2255320161016
 30
0.0
 11
343.5378726014546
 21
301.0255320161014
 31
0.0
  0
LINE
  5
7473
330
1E
100
AcDbEntity
  8
製品
  6
Continuous
 62
     3
100
AcDbLine
 10
343.8578726014548
 20
307.6655320161017
 30
0.0
 11
343.8578726014548
 21
300.5855320161013
 31
0.0
  0
LINE
  5
7474
330
1E
100
AcDbEntity
  8
製品
  6
Continuous
 62
     3
100
AcDbLine
 10
344.3178726014548
 20
300.5855320161013
 30
0.0
 11
344.3178726014548
 21
307.6655320161017
 31
0.0
  0
LINE
  5
7475
330
1E
100
AcDbEntity
  8
製品
  6
Continuous
 62
     4
100
AcDbLine
 10
339.657872601455
 20
308.1255320161017
 30
0.0
 11
339.657872601455
 21
300.1255320161017
 31
0.0
  0
LINE
  5
7476
330
1E
100
AcDbEntity
  8
製品
  6
Continuous
 62
     4
100
AcDbLine
 10
341.4578726014547
 20
300.1255320161017
 30
0.0
 11
341.4578726014547
 21
308.1255320161017
 31
0.0
  0
ARC
  5
7477
330
1E
100
AcDbEntity
  8
製品
  6
Continuous
 62
     3
100
AcDbCircle
 10
347.899678601455
 20
304.9255320161015
 30
0.0
 40
0.2
100
AcDbArc
 50
270.0
 51
90.0
  0
ARC
  5
7478
330
1E
100
AcDbEntity
  8
製品
  6
Continuous
 62
     3
100
AcDbCircle
 10
347.0996786014548
 20
304.1255320161017
 30
0.0
 40
1.0
100
AcDbArc
 50
323.1301020000044
 51
36.86989799999558
  0
ARC
  5
7479
330
1E
100
AcDbEntity
  8
製品
  6
Continuous
 62
     3
100
AcDbCircle
 10
347.899678601455
 20
303.3255320161015
 30
0.0
 40
0.2
100
AcDbArc
 50
270.0
 51
90.0
  0
LINE
  5
747A
330
1E
100
AcDbEntity
  8
製品
  6
Continuous
 62
     3
100
AcDbLine
 10
348.0996786014548
 20
304.9255320161015
 30
0.0
 11
348.0996786014548
 21
303.3255320161015
 31
0.0
  0
LINE
  5
747B
330
1E
100
AcDbEntity
  8
図面枠
  6
Continuous
 62
     3
100
AcDbLine
 10
350.2553046014546
 20
328.9460880161014
 30
0.0
 11
372.9667146014549
 21
328.9460880161014
 31
0.0
  0
TEXT
  5
747C
330
1E
100
AcDbEntity
  8
図面枠
  6
Continuous
 62
     3
100
AcDbText
 10
350.2587666014547
 20
329.9460900161016
 30
0.0
 40
3.0
  1
チャンネルホルダ－
 41
0.8
  7
ACAD
100
AcDbText
  0
TEXT
  5
747D
330
1E
100
AcDbEntity
  8
図面枠
  6
Continuous
 62
     3
100
AcDbText
 10
327.0530476014546
 20
373.1784820161015
 30
0.0
 40
3.0
  1
インサ－ト　３／８
 41
0.8
  7
ACAD
100
AcDbText
  0
LINE
  5
747E
330
1E
100
AcDbEntity
  8
図面枠
  6
Continuous
 62
     3
100
AcDbLine
 10
346.6492376014548
 20
340.5408940161014
 30
0.0
 11
367.2891576014549
 21
340.5408940161014
 31
0.0
  0
TEXT
  5
747F
330
1E
100
AcDbEntity
  8
図面枠
  6
Continuous
 62
     3
100
AcDbText
 10
346.6520466014549
 20
341.5408930161015
 30
0.0
 40
3.0
  1
吊りボルト３／８
 41
0.8
  7
ACAD
100
AcDbText
  0
LINE
  5
7480
330
1E
100
AcDbEntity
  8
製品
  6
Continuous
 62
     4
100
AcDbLine
 10
340.4950746014547
 20
370.5222970161017
 30
0.0
 11
341.4612296014547
 21
372.1957270161015
 31
0.0
  0
LINE
  5
7481
330
1E
100
AcDbEntity
  8
製品
  6
Continuous
 62
     4
100
AcDbLine
 10
339.5289186014547
 20
372.1957270161015
 30
0.0
 11
340.4950746014547
 21
370.5222970161017
 31
0.0
  0
LINE
  5
7482
330
1E
100
AcDbEntity
  8
製品
  6
Continuous
 62
     4
100
AcDbLine
 10
341.4612296014547
 20
372.1957270161015
 30
0.0
 11
339.5289186014547
 21
372.1957270161015
 31
0.0
  0
LINE
  5
7483
330
1E
100
AcDbEntity
  8
製品
  6
Continuous
 62
     4
100
AcDbLine
 10
352.6242256014548
 20
370.5222970161017
 30
0.0
 11
363.9990216014548
 21
381.8970920161014
 31
0.0
  0
LINE
  5
7484
330
1E
100
AcDbEntity
  8
製品
  6
Continuous
 62
     4
100
AcDbLine
 10
365.4132346014549
 20
381.8970920161014
 30
0.0
 11
354.0384396014547
 21
370.5222970161017
 31
0.0
  0
LINE
  5
7485
330
1E
100
AcDbEntity
  8
製品
  6
Continuous
 62
     4
100
AcDbLine
 10
355.4526526014547
 20
370.5222970161017
 30
0.0
 11
366.8274486014547
 21
381.8970920161014
 31
0.0
  0
ENDSEC
  0
SECTION
  2
OBJECTS
  0
DICTIONARY
  5
C
330
0
100
AcDbDictionary
281
     1
  3
ACAD_COLOR
350
7601
  3
ACAD_GROUP
350
D
  3
ACAD_LAYOUT
350
19
  3
ACAD_MATERIAL
350
75EC
  3
ACAD_MLINESTYLE
350
16
  3
ACAD_PLOTSETTINGS
350
18
  3
ACAD_PLOTSTYLENAME
350
E
  3
ACAD_TABLESTYLE
350
7602
  3
ACAD_VISUALSTYLE
350
75F0
  3
AcDbVariableDictionary
350
169
  3
DWGPROPS
350
7880
  0
DICTIONARY
  5
760A
330
8
100
AcDbDictionary
280
     1
281
     1
  0
DICTIONARY
  5
175
330
2
100
AcDbDictionary
280
     1
281
     1
  3
ACAD_LAYERFILTERS
360
185
  3
ACAD_LAYERSTATES
360
176
  0
DICTIONARY
  5
28B
330
1E
100
AcDbDictionary
280
     1
281
     1
  3
ACAD_LAYOUTSELFREF
360
75CA
  0
DICTIONARY
  5
28D
330
1A
100
AcDbDictionary
280
     1
281
     1
  3
ACAD_LAYOUTSELFREF
360
75C9
  0
DICTIONARY
  5
7601
102
{ACAD_REACTORS
330
C
102
}
330
C
100
AcDbDictionary
281
     1
  0
DICTIONARY
  5
D
102
{ACAD_REACTORS
330
C
102
}
330
C
100
AcDbDictionary
281
     1
  0
DICTIONARY
  5
19
102
{ACAD_REACTORS
330
C
102
}
330
C
100
AcDbDictionary
281
     1
  3
Model
350
21
  3
ﾚｲｱｳﾄ1
350
1D
  0
DICTIONARY
  5
75EC
102
{ACAD_REACTORS
330
C
102
}
330
C
100
AcDbDictionary
281
     1
  3
ByBlock
350
75EE
  3
ByLayer
350
75ED
  3
Global
350
75EF
  0
DICTIONARY
  5
16
102
{ACAD_REACTORS
330
C
102
}
330
C
100
AcDbDictionary
281
     1
  3
Standard
350
17
  0
DICTIONARY
  5
18
102
{ACAD_REACTORS
330
C
102
}
330
C
100
AcDbDictionary
281
     1
  0
ACDBDICTIONARYWDFLT
  5
E
102
{ACAD_REACTORS
330
C
102
}
330
C
100
AcDbDictionary
281
     1
  3
Normal
350
F
100
AcDbDictionaryWithDefault
340
F
1001
ACAD
1000
TREAT_AS_HARD
1070
     0
1000
TREAT_AS_HARD
1070
     0
1000
TREAT_AS_HARD
1070
     0
1000
TREAT_AS_HARD
1070
     0
1000
TREAT_AS_HARD
1070
     0
1000
TREAT_AS_HARD
1070
     0
1000
TREAT_AS_HARD
1070
     0
1000
TREAT_AS_HARD
1070
     0
1000
TREAT_AS_HARD
1070
     0
1000
TREAT_AS_HARD
1070
     0
1000
TREAT_AS_HARD
1070
     0
1000
TREAT_AS_HARD
1070
     0
1000
TREAT_AS_HARD
1070
     0
1000
TREAT_AS_HARD
1070
     0
1000
TREAT_AS_HARD
1070
     0
1000
TREAT_AS_HARD
1070
     0
1000
TREAT_AS_HARD
1070
     0
1000
TREAT_AS_HARD
1070
     0
1000
TREAT_AS_HARD
1070
     0
1000
TREAT_AS_HARD
1070
     0
1000
TREAT_AS_HARD
1070
     0
1000
TREAT_AS_HARD
1070
     0
1000
TREAT_AS_HARD
1070
     0
1000
TREAT_AS_HARD
1070
     0
1000
TREAT_AS_HARD
1070
     0
1000
TREAT_AS_HARD
1070
     0
1000
TREAT_AS_HARD
1070
     0
1000
TREAT_AS_HARD
1070
     0
1000
TREAT_AS_HARD
1070
     0
1000
TREAT_AS_HARD
1070
     0
1000
TREAT_AS_HARD
1070
     0
1000
TREAT_AS_HARD
1070
     0
  0
DICTIONARY
  5
7602
102
{ACAD_REACTORS
330
C
102
}
330
C
100
AcDbDictionary
281
     1
  3
Standard
350
7603
  0
DICTIONARY
  5
75F0
102
{ACAD_REACTORS
330
C
102
}
330
C
100
AcDbDictionary
281
     1
  3
2dWireframe
350
75F6
  3
3D Hidden
350
75F8
  3
3dWireframe
350
75F7
  3
Basic
350
75F5
  3
Brighten
350
75FC
  3
ColorChange
350
7600
  3
Conceptual
350
75F9
  3
Dim
350
75FB
  3
Facepattern
350
75FF
  3
Flat
350
75F1
  3
FlatWithEdges
350
75F2
  3
Gouraud
350
75F3
  3
GouraudWithEdges
350
75F4
  3
Linepattern
350
75FE
  3
Realistic
350
75FA
  3
Thicken
350
75FD
  0
DICTIONARY
  5
169
102
{ACAD_REACTORS
330
C
102
}
330
C
100
AcDbDictionary
281
     1
  3
CTABLESTYLE
350
7622
  3
DIMASSOC
350
16A
  3
INDEXCTL
350
7624
  3
SORTENTS
350
7623
  0
XRECORD
  5
7880
102
{ACAD_REACTORS
330
C
102
}
330
C
100
AcDbXrecord
280
     1
  1
DWGPROPS COOKIE
  2

  3

  4

  6

  7

  8
HON1000AV
  9

300
=
301
=
302
=
303
=
304
=
305
=
306
=
307
=
308
=
309
=
 40
0.2801619560185185
 41
2454316.693457674
 42
2454735.621386169
  1

 90
        0
  0
DICTIONARY
  5
185
102
{ACAD_REACTORS
330
175
102
}
330
175
100
AcDbDictionary
280
     1
281
     1
  0
DICTIONARY
  5
176
102
{ACAD_REACTORS
330
175
102
}
330
175
100
AcDbDictionary
281
     1
  3
ACAD
350
177
  0
XRECORD
  5
75CA
102
{ACAD_REACTORS
330
28B
102
}
330
28B
100
AcDbXrecord
280
     1
340
1E
  0
XRECORD
  5
75C9
102
{ACAD_REACTORS
330
28D
102
}
330
28D
100
AcDbXrecord
280
     1
340
1A
  0
LAYOUT
  5
21
102
{ACAD_XDICTIONARY
360
7883
102
}
102
{ACAD_REACTORS
330
19
102
}
330
19
100
AcDbPlotSettings
  1

  2
\\MEISEI-1\EPSON Stylus Photo EX3
  4

  6

 40
0.0
 41
0.0
 42
0.0
 43
0.0
 44
0.0
 45
0.0
 46
0.0
 47
0.0
 48
0.0
 49
0.0
140
0.0
141
0.0
142
1.0
143
1.0
 70
  1712
 72
     0
 73
     0
 74
     0
  7

 75
     0
147
1.0
148
0.0
149
0.0
100
AcDbLayout
  1
Model
 70
     1
 71
     0
 10
0.0
 20
0.0
 11
12.0
 21
9.0
 12
0.0
 22
0.0
 32
0.0
 14
0.0
 24
0.0
 34
0.0
 15
0.0
 25
0.0
 35
0.0
146
0.0
 13
0.0
 23
0.0
 33
0.0
 16
1.0
 26
0.0
 36
0.0
 17
0.0
 27
1.0
 37
0.0
 76
     0
330
1E
331
7585
  0
LAYOUT
  5
1D
102
{ACAD_XDICTIONARY
360
7881
102
}
102
{ACAD_REACTORS
330
19
102
}
330
19
100
AcDbPlotSettings
  1

  2
\\MEISEI-1\EPSON Stylus Photo EX3
  4

  6

 40
0.0
 41
0.0
 42
0.0
 43
0.0
 44
0.0
 45
0.0
 46
0.0
 47
0.0
 48
0.0
 49
0.0
140
0.0
141
0.0
142
1.0
143
1.0
 70
   688
 72
     0
 73
     0
 74
     5
  7

 75
    16
147
1.0
148
0.0
149
0.0
100
AcDbLayout
  1
ﾚｲｱｳﾄ1
 70
     1
 71
     1
 10
0.0
 20
0.0
 11
12.0
 21
9.0
 12
0.0
 22
0.0
 32
0.0
 14
1.000000000000000E+20
 24
1.000000000000000E+20
 34
1.000000000000000E+20
 15
-1.000000000000000E+20
 25
-1.000000000000000E+20
 35
-1.000000000000000E+20
146
0.0
 13
0.0
 23
0.0
 33
0.0
 16
1.0
 26
0.0
 36
0.0
 17
0.0
 27
1.0
 37
0.0
 76
     0
330
1A
  0
MATERIAL
  5
75EE
102
{ACAD_XDICTIONARY
360
7887
102
}
102
{ACAD_REACTORS
330
75EC
102
}
330
75EC
100
AcDbMaterial
  1
ByBlock
  0
MATERIAL
  5
75ED
102
{ACAD_XDICTIONARY
360
7885
102
}
102
{ACAD_REACTORS
330
75EC
102
}
330
75EC
100
AcDbMaterial
  1
ByLayer
  0
MATERIAL
  5
75EF
102
{ACAD_XDICTIONARY
360
7889
102
}
102
{ACAD_REACTORS
330
75EC
102
}
330
75EC
100
AcDbMaterial
  1
Global
  0
MLINESTYLE
  5
17
102
{ACAD_REACTORS
330
16
102
}
330
16
100
AcDbMlineStyle
  2
STANDARD
 70
     0
  3

 62
   256
 51
90.0
 52
90.0
 71
     2
 49
0.5
 62
   256
  6
BYLAYER
 49
-0.5
 62
   256
  6
BYLAYER
  0
ACDBPLACEHOLDER
  5
F
102
{ACAD_REACTORS
330
E
102
}
330
E
  0
TABLESTYLE
  5
7603
102
{ACAD_XDICTIONARY
360
788B
102
}
102
{ACAD_REACTORS
330
7602
102
}
330
7602
100
AcDbTableStyle
  3
Standard
 70
     0
 71
     0
 40
0.06
 41
0.06
280
     0
281
     0
  7
STANDARD
140
0.18
170
     2
 62
     0
 63
     7
283
     0
274
    -2
284
     1
 64
     0
275
    -2
285
     1
 65
     0
276
    -2
286
     1
 66
     0
277
    -2
287
     1
 67
     0
278
    -2
288
     1
 68
     0
279
    -2
289
     1
 69
     0
  7
STANDARD
140
0.25
170
     5
 62
     0
 63
     7
283
     0
274
    -2
284
     1
 64
     0
275
    -2
285
     1
 65
     0
276
    -2
286
     1
 66
     0
277
    -2
287
     1
 67
     0
278
    -2
288
     1
 68
     0
279
    -2
289
     1
 69
     0
  7
STANDARD
140
0.18
170
     5
 62
     0
 63
     7
283
     0
274
    -2
284
     1
 64
     0
275
    -2
285
     1
 65
     0
276
    -2
286
     1
 66
     0
277
    -2
287
     1
 67
     0
278
    -2
288
     1
 68
     0
279
    -2
289
     1
 69
     0
  0
VISUALSTYLE
  5
75F6
102
{ACAD_REACTORS
330
75F0
102
}
330
75F0
100
AcDbVisualStyle
  2
2dWireframe
 70
     4
 71
     0
 72
     2
 73
     0
 90
        0
 40
-0.6
 41
-30.0
 62
     5
 63
     7
 74
     1
 91
        4
 64
     7
 65
   257
 75
     1
175
     1
 42
1.0
 92
        0
 66
   257
 43
1.0
 76
     1
 77
     6
 78
     2
 67
     7
 79
     5
170
     0
171
     0
290
     0
174
     0
 93
        1
 44
0.0
173
     0
291
     0
 45
0.0
1001
ACAD
1000
AcDbSavedByObjectVersion
1070
     0
  0
VISUALSTYLE
  5
75F8
102
{ACAD_REACTORS
330
75F0
102
}
330
75F0
100
AcDbVisualStyle
  2
3D Hidden
 70
     6
 71
     1
 72
     2
 73
     2
 90
        0
 40
-0.6
 41
-30.0
 62
     5
 63
     7
 74
     2
 91
        2
 64
     7
 65
   257
 75
     2
175
     1
 42
40.0
 92
        0
 66
   257
 43
1.0
 76
     1
 77
     6
 78
     2
 67
     7
 79
     3
170
     0
171
     0
290
     0
174
     0
 93
        1
 44
0.0
173
     0
291
     0
 45
0.0
1001
ACAD
1000
AcDbSavedByObjectVersion
1070
     0
  0
VISUALSTYLE
  5
75F7
102
{ACAD_REACTORS
330
75F0
102
}
330
75F0
100
AcDbVisualStyle
  2
3dWireframe
 70
     5
 71
     0
 72
     2
 73
     0
 90
        0
 40
-0.6
 41
-30.0
 62
     5
 63
     7
 74
     1
 91
        4
 64
     7
 65
   257
 75
     1
175
     1
 42
1.0
 92
        0
 66
   257
 43
1.0
 76
     1
 77
     6
 78
     2
 67
     7
 79
     5
170
     0
171
     0
290
     0
174
     0
 93
        1
 44
0.0
173
     0
291
     0
 45
0.0
1001
ACAD
1000
AcDbSavedByObjectVersion
1070
     0
  0
VISUALSTYLE
  5
75F5
102
{ACAD_REACTORS
330
75F0
102
}
330
75F0
100
AcDbVisualStyle
  2
Basic
 70
     7
 71
     1
 72
     0
 73
     1
 90
        0
 40
-0.6
 41
-30.0
 62
     5
 63
     7
 74
     0
 91
        4
 64
     7
 65
   257
 75
     1
175
     1
 42
1.0
 92
        8
 66
     7
 43
1.0
 76
     1
 77
     6
 78
     2
 67
     7
 79
     5
170
     0
171
     0
290
     0
174
     0
 93
        1
 44
0.0
173
     0
291
     1
 45
0.0
1001
ACAD
1000
AcDbSavedByObjectVersion
1070
     0
  0
VISUALSTYLE
  5
75FC
102
{ACAD_REACTORS
330
75F0
102
}
330
75F0
100
AcDbVisualStyle
  2
Brighten
 70
    12
 71
     2
 72
     2
 73
     0
 90
        0
 40
-0.6
 41
-30.0
 62
     5
 63
     7
 74
     1
 91
        4
 64
     7
 65
   257
 75
     1
175
     1
 42
1.0
 92
        8
 66
     7
 43
1.0
 76
     1
 77
     6
 78
     2
 67
     7
 79
     5
170
     0
171
     0
290
     0
174
     0
 93
        1
 44
50.0
173
     0
291
     1
 45
0.0
1001
ACAD
1000
AcDbSavedByObjectVersion
1070
     0
  0
VISUALSTYLE
  5
7600
102
{ACAD_REACTORS
330
75F0
102
}
330
75F0
100
AcDbVisualStyle
  2
ColorChange
 70
    16
 71
     2
 72
     2
 73
     3
 90
        0
 40
-0.6
 41
-30.0
 62
     5
 63
     8
 74
     1
 91
        4
 64
     7
 65
   257
 75
     1
175
     1
 42
1.0
 92
        8
 66
     8
 43
1.0
 76
     1
 77
     6
 78
     2
 67
     7
 79
     5
170
     0
171
     0
290
     0
174
     0
 93
        1
 44
0.0
173
     0
291
     1
 45
0.0
1001
ACAD
1000
AcDbSavedByObjectVersion
1070
     0
  0
VISUALSTYLE
  5
75F9
102
{ACAD_REACTORS
330
75F0
102
}
330
75F0
100
AcDbVisualStyle
  2
Conceptual
 70
     9
 71
     3
 72
     2
 73
     0
 90
        0
 40
-0.6
 41
-30.0
 62
     5
 63
     7
 74
     2
 91
        2
 64
     7
 65
   257
 75
     1
175
     1
 42
40.0
 92
        8
 66
     7
 43
1.0
 76
     1
 77
     6
 78
     2
 67
     7
 79
     3
170
     0
171
     0
290
     0
174
     0
 93
        1
 44
0.0
173
     0
291
     0
 45
0.0
1001
ACAD
1000
AcDbSavedByObjectVersion
1070
     0
  0
VISUALSTYLE
  5
75FB
102
{ACAD_REACTORS
330
75F0
102
}
330
75F0
100
AcDbVisualStyle
  2
Dim
 70
    11
 71
     2
 72
     2
 73
     0
 90
        0
 40
-0.6
 41
-30.0
 62
     5
 63
     7
 74
     1
 91
        4
 64
     7
 65
   257
 75
     1
175
     1
 42
1.0
 92
        8
 66
     7
 43
1.0
 76
     1
 77
     6
 78
     2
 67
     7
 79
     5
170
     0
171
     0
290
     0
174
     0
 93
        1
 44
-50.0
173
     0
291
     1
 45
0.0
1001
ACAD
1000
AcDbSavedByObjectVersion
1070
     0
  0
VISUALSTYLE
  5
75FF
102
{ACAD_REACTORS
330
75F0
102
}
330
75F0
100
AcDbVisualStyle
  2
Facepattern
 70
    15
 71
     2
 72
     2
 73
     0
 90
        0
 40
-0.6
 41
-30.0
 62
     5
 63
     7
 74
     1
 91
        4
 64
     7
 65
   257
 75
     1
175
     1
 42
1.0
 92
        8
 66
     7
 43
1.0
 76
     1
 77
     6
 78
     2
 67
     7
 79
     5
170
     0
171
     0
290
     0
174
     0
 93
        1
 44
0.0
173
     0
291
     1
 45
0.0
1001
ACAD
1000
AcDbSavedByObjectVersion
1070
     0
  0
VISUALSTYLE
  5
75F1
102
{ACAD_REACTORS
330
75F0
102
}
330
75F0
100
AcDbVisualStyle
  2
Flat
 70
     0
 71
     2
 72
     1
 73
     1
 90
        2
 40
-0.6
 41
30.0
 62
     5
 63
     7
 74
     0
 91
        4
 64
     7
 65
   257
 75
     1
175
     1
 42
1.0
 92
        8
 66
     7
 43
1.0
 76
     1
 77
     6
 78
     2
 67
     7
 79
     5
170
     0
171
     0
290
     0
174
     0
 93
       13
 44
0.0
173
     0
291
     1
 45
0.0
1001
ACAD
1000
AcDbSavedByObjectVersion
1070
     0
  0
VISUALSTYLE
  5
75F2
102
{ACAD_REACTORS
330
75F0
102
}
330
75F0
100
AcDbVisualStyle
  2
FlatWithEdges
 70
     1
 71
     2
 72
     1
 73
     1
 90
        2
 40
-0.6
 41
30.0
 62
     5
 63
     7
 74
     1
 91
        4
 64
     7
 65
   257
 75
     1
175
     1
 42
1.0
 92
        0
 66
   257
 43
1.0
 76
     1
 77
     6
 78
     2
 67
     7
 79
     5
170
     0
171
     0
290
     0
174
     0
 93
       13
 44
0.0
173
     0
291
     1
 45
0.0
1001
ACAD
1000
AcDbSavedByObjectVersion
1070
     0
  0
VISUALSTYLE
  5
75F3
102
{ACAD_REACTORS
330
75F0
102
}
330
75F0
100
AcDbVisualStyle
  2
Gouraud
 70
     2
 71
     2
 72
     2
 73
     1
 90
        2
 40
-0.6
 41
30.0
 62
     5
 63
     7
 74
     0
 91
        4
 64
     7
 65
   257
 75
     1
175
     1
 42
1.0
 92
        0
 66
     7
 43
1.0
 76
     1
 77
     6
 78
     2
 67
     7
 79
     5
170
     0
171
     0
290
     0
174
     0
 93
       13
 44
0.0
173
     0
291
     1
 45
0.0
1001
ACAD
1000
AcDbSavedByObjectVersion
1070
     0
  0
VISUALSTYLE
  5
75F4
102
{ACAD_REACTORS
330
75F0
102
}
330
75F0
100
AcDbVisualStyle
  2
GouraudWithEdges
 70
     3
 71
     2
 72
     2
 73
     1
 90
        2
 40
-0.6
 41
30.0
 62
     5
 63
     7
 74
     1
 91
        4
 64
     7
 65
   257
 75
     1
175
     1
 42
1.0
 92
        0
 66
   257
 43
1.0
 76
     1
 77
     6
 78
     2
 67
     7
 79
     5
170
     0
171
     0
290
     0
174
     0
 93
       13
 44
0.0
173
     0
291
     1
 45
0.0
1001
ACAD
1000
AcDbSavedByObjectVersion
1070
     0
  0
VISUALSTYLE
  5
75FE
102
{ACAD_REACTORS
330
75F0
102
}
330
75F0
100
AcDbVisualStyle
  2
Linepattern
 70
    14
 71
     2
 72
     2
 73
     0
 90
        0
 40
-0.6
 41
-30.0
 62
     5
 63
     7
 74
     1
 91
        4
 64
     7
 65
   257
 75
     7
175
     7
 42
1.0
 92
        8
 66
     7
 43
1.0
 76
     1
 77
     6
 78
     2
 67
     7
 79
     5
170
     0
171
     0
290
     0
174
     0
 93
        1
 44
0.0
173
     0
291
     1
 45
0.0
1001
ACAD
1000
AcDbSavedByObjectVersion
1070
     0
  0
VISUALSTYLE
  5
75FA
102
{ACAD_REACTORS
330
75F0
102
}
330
75F0
100
AcDbVisualStyle
  2
Realistic
 70
     8
 71
     2
 72
     2
 73
     0
 90
        0
 40
-0.6
 41
-30.0
 62
     5
 63
     7
 74
     1
 91
        0
 64
     7
 65
   257
 75
     1
175
     1
 42
1.0
 92
        8
 66
     8
 43
1.0
 76
     1
 77
     6
 78
     2
 67
     7
 79
     5
170
     0
171
     0
290
     0
174
     0
 93
       13
 44
0.0
173
     0
291
     0
 45
0.0
1001
ACAD
1000
AcDbSavedByObjectVersion
1070
     0
  0
VISUALSTYLE
  5
75FD
102
{ACAD_REACTORS
330
75F0
102
}
330
75F0
100
AcDbVisualStyle
  2
Thicken
 70
    13
 71
     2
 72
     2
 73
     0
 90
        0
 40
-0.6
 41
-30.0
 62
     5
 63
     7
 74
     1
 91
        4
 64
     7
 65
   257
 75
     1
175
     1
 42
1.0
 92
       12
 66
     7
 43
1.0
 76
     1
 77
     6
 78
     2
 67
     7
 79
     5
170
     0
171
     0
290
     0
174
     0
 93
        1
 44
0.0
173
     0
291
     1
 45
0.0
1001
ACAD
1000
AcDbSavedByObjectVersion
1070
     0
  0
DICTIONARYVAR
  5
7622
102
{ACAD_REACTORS
330
169
102
}
330
169
100
DictionaryVariables
280
     0
  1
STANDARD
  0
DICTIONARYVAR
  5
16A
102
{ACAD_REACTORS
330
169
102
}
330
169
100
DictionaryVariables
280
     0
  1
1
  0
DICTIONARYVAR
  5
7624
102
{ACAD_REACTORS
330
169
102
}
330
169
100
DictionaryVariables
280
     0
  1
0
  0
DICTIONARYVAR
  5
7623
102
{ACAD_REACTORS
330
169
102
}
330
169
100
DictionaryVariables
280
     0
  1
127
  0
XRECORD
  5
177
102
{ACAD_REACTORS
330
176
102
}
330
176
100
AcDbXrecord
280
     1
 91
      476
330
179
 90
        8
 62
     7
370
    -3
331
15
  1
Color_7
330
128
 90
        0
 62
     7
370
    -3
331
15
  1
Color_7
330
10
 90
        8
 62
     7
370
    -3
331
15
  1
Color_7
  0
DICTIONARY
  5
7883
330
21
100
AcDbDictionary
280
     1
281
     1
  3
ACAD_XREC_ROUNDTRIP
360
7884
  0
DICTIONARY
  5
7881
330
1D
100
AcDbDictionary
280
     1
281
     1
  3
ACAD_XREC_ROUNDTRIP
360
7882
  0
DICTIONARY
  5
7887
330
75EE
100
AcDbDictionary
280
     1
281
     1
  3
ACAD_XREC_ROUNDTRIP
360
7888
  0
DICTIONARY
  5
7885
330
75ED
100
AcDbDictionary
280
     1
281
     1
  3
ACAD_XREC_ROUNDTRIP
360
7886
  0
DICTIONARY
  5
7889
330
75EF
100
AcDbDictionary
280
     1
281
     1
  3
ACAD_XREC_ROUNDTRIP
360
788A
  0
DICTIONARY
  5
788B
330
7603
100
AcDbDictionary
280
     1
281
     1
  3
ACAD_XREC_ROUNDTRIP
360
788C
  0
XRECORD
  5
7884
102
{ACAD_REACTORS
330
7883
102
}
330
7883
100
AcDbXrecord
280
     1
102
SHADEPLOT
 70
     0
102
SHADEPLOTRESLEVEL
 70
     2
102
SHADEPLOTCUSTOMDPI
 70
   300
  0
XRECORD
  5
7882
102
{ACAD_REACTORS
330
7881
102
}
330
7881
100
AcDbXrecord
280
     1
102
SHADEPLOT
 70
     0
102
SHADEPLOTRESLEVEL
 70
     2
102
SHADEPLOTCUSTOMDPI
 70
   300
  0
XRECORD
  5
7888
102
{ACAD_REACTORS
330
7887
102
}
330
7887
100
AcDbXrecord
280
     1
102
MATERIAL
148
0.0
149
0.0
149
0.0
 93
        0
 94
       63
282
     0
 72
     1
 77
     1
171
     1
175
     1
179
     1
273
     0
  0
XRECORD
  5
7886
102
{ACAD_REACTORS
330
7885
102
}
330
7885
100
AcDbXrecord
280
     1
102
MATERIAL
148
0.0
149
0.0
149
0.0
 93
        0
 94
       63
282
     0
 72
     1
 77
     1
171
     1
175
     1
179
     1
273
     0
  0
XRECORD
  5
788A
102
{ACAD_REACTORS
330
7889
102
}
330
7889
100
AcDbXrecord
280
     1
102
MATERIAL
148
0.0
149
0.0
149
0.0
 93
        0
 94
       63
282
     0
 72
     1
 77
     1
171
     1
175
     1
179
     1
273
     0
  0
XRECORD
  5
788C
102
{ACAD_REACTORS
330
788B
102
}
330
788B
100
AcDbXrecord
280
     1
102
ACAD_ROUNDTRIP_PRE2007_TABLESTYLE
 90
      512
 91
        0
  1

 92
      512
 93
        0
  2

 94
      512
 95
        0
  3

  0
ENDSEC
  0
EOF
