  0
SECTION
  2
HEADER
  9
$ACADVER
  1
AC1015
  9
$ACADMAINTVER
 70
    13
  9
$DWGCODEPAGE
  3
ANSI_932
  9
$INSBASE
 10
0.0
 20
0.0
 30
0.0
  9
$EXTMIN
 10
-109.2948830706798
 20
579.2303742075846
 30
-0.0015258207003583
  9
$EXTMAX
 10
444.0202004742659
 20
1001.242605182107
 30
0.0000000349246037
  9
$LIMMIN
 10
0.0
 20
0.0
  9
$LIMMAX
 10
420.0
 20
297.0
  9
$ORTHOMODE
 70
     0
  9
$REGENMODE
 70
     1
  9
$FILLMODE
 70
     1
  9
$QTEXTMODE
 70
     0
  9
$MIRRTEXT
 70
     1
  9
$LTSCALE
 40
1.0
  9
$ATTMODE
 70
     1
  9
$TEXTSIZE
 40
5.0
  9
$TRACEWID
 40
0.05
  9
$TEXTSTYLE
  7
ACAD
  9
$CLAYER
  8
寸法
  9
$CELTYPE
  6
CONTINUOUS
  9
$CECOLOR
 62
   256
  9
$CELTSCALE
 40
1.0
  9
$DISPSILH
 70
     0
  9
$DIMSCALE
 40
1.0
  9
$DIMASZ
 40
1.0
  9
$DIMEXO
 40
0.0
  9
$DIMDLI
 40
0.38
  9
$DIMRND
 40
0.0
  9
$DIMDLE
 40
0.0
  9
$DIMEXE
 40
0.0
  9
$DIMTP
 40
0.0
  9
$DIMTM
 40
0.0
  9
$DIMTXT
 40
5.0
  9
$DIMCEN
 40
0.09
  9
$DIMTSZ
 40
0.0
  9
$DIMTOL
 70
     0
  9
$DIMLIM
 70
     0
  9
$DIMTIH
 70
     0
  9
$DIMTOH
 70
     1
  9
$DIMSE1
 70
     0
  9
$DIMSE2
 70
     0
  9
$DIMTAD
 70
     1
  9
$DIMZIN
 70
     0
  9
$DIMBLK
  1
Dot
  9
$DIMASO
 70
     1
  9
$DIMSHO
 70
     1
  9
$DIMPOST
  1

  9
$DIMAPOST
  1

  9
$DIMALT
 70
     0
  9
$DIMALTD
 70
     2
  9
$DIMALTF
 40
25.4
  9
$DIMLFAC
 40
1.0
  9
$DIMTOFL
 70
     0
  9
$DIMTVP
 40
0.0
  9
$DIMTIX
 70
     1
  9
$DIMSOXD
 70
     0
  9
$DIMSAH
 70
     0
  9
$DIMBLK1
  1

  9
$DIMBLK2
  1

  9
$DIMSTYLE
  2
AutoCAD
  9
$DIMCLRD
 70
     4
  9
$DIMCLRE
 70
     4
  9
$DIMCLRT
 70
     3
  9
$DIMTFAC
 40
1.0
  9
$DIMGAP
 40
1.0
  9
$DIMJUST
 70
     0
  9
$DIMSD1
 70
     0
  9
$DIMSD2
 70
     0
  9
$DIMTOLJ
 70
     1
  9
$DIMTZIN
 70
     0
  9
$DIMALTZ
 70
     0
  9
$DIMALTTZ
 70
     0
  9
$DIMUPT
 70
     0
  9
$DIMDEC
 70
     0
  9
$DIMTDEC
 70
     0
  9
$DIMALTU
 70
     2
  9
$DIMALTTD
 70
     2
  9
$DIMTXSTY
  7
ACAD
  9
$DIMAUNIT
 70
     0
  9
$DIMADEC
 70
     0
  9
$DIMALTRND
 40
0.0
  9
$DIMAZIN
 70
     0
  9
$DIMDSEP
 70
    46
  9
$DIMATFIT
 70
     0
  9
$DIMFRAC
 70
     0
  9
$DIMLDRBLK
  1
None
  9
$DIMLUNIT
 70
     2
  9
$DIMLWD
 70
    -2
  9
$DIMLWE
 70
    -2
  9
$DIMTMOVE
 70
     0
  9
$LUNITS
 70
     2
  9
$LUPREC
 70
     4
  9
$SKETCHINC
 40
0.1
  9
$FILLETRAD
 40
0.0
  9
$AUNITS
 70
     0
  9
$AUPREC
 70
     0
  9
$MENU
  1
.
  9
$ELEVATION
 40
0.0
  9
$PELEVATION
 40
0.0
  9
$THICKNESS
 40
0.0
  9
$LIMCHECK
 70
     0
  9
$CHAMFERA
 40
0.0
  9
$CHAMFERB
 40
0.0
  9
$CHAMFERC
 40
0.0
  9
$CHAMFERD
 40
0.0
  9
$SKPOLY
 70
     0
  9
$TDCREATE
 40
2454316.693457673
  9
$TDUCREATE
 40
2454316.318457673
  9
$TDUPDATE
 40
2454476.785461516
  9
$TDUUPDATE
 40
2454476.410461516
  9
$TDINDWG
 40
0.2264100000
  9
$TDUSRTIMER
 40
0.2264100000
  9
$USRTIMER
 70
     1
  9
$ANGBASE
 50
0.0
  9
$ANGDIR
 70
     0
  9
$PDMODE
 70
     0
  9
$PDSIZE
 40
0.0
  9
$PLINEWID
 40
0.0
  9
$SPLFRAME
 70
     0
  9
$SPLINETYPE
 70
     6
  9
$SPLINESEGS
 70
     8
  9
$HANDSEED
  5
55A2
  9
$SURFTAB1
 70
     6
  9
$SURFTAB2
 70
     6
  9
$SURFTYPE
 70
     6
  9
$SURFU
 70
     6
  9
$SURFV
 70
     6
  9
$UCSBASE
  2

  9
$UCSNAME
  2

  9
$UCSORG
 10
0.0
 20
0.0
 30
0.0
  9
$UCSXDIR
 10
1.0
 20
0.0
 30
0.0
  9
$UCSYDIR
 10
0.0
 20
1.0
 30
0.0
  9
$UCSORTHOREF
  2

  9
$UCSORTHOVIEW
 70
     0
  9
$UCSORGTOP
 10
0.0
 20
0.0
 30
0.0
  9
$UCSORGBOTTOM
 10
0.0
 20
0.0
 30
0.0
  9
$UCSORGLEFT
 10
0.0
 20
0.0
 30
0.0
  9
$UCSORGRIGHT
 10
0.0
 20
0.0
 30
0.0
  9
$UCSORGFRONT
 10
0.0
 20
0.0
 30
0.0
  9
$UCSORGBACK
 10
0.0
 20
0.0
 30
0.0
  9
$PUCSBASE
  2

  9
$PUCSNAME
  2

  9
$PUCSORG
 10
0.0
 20
0.0
 30
0.0
  9
$PUCSXDIR
 10
1.0
 20
0.0
 30
0.0
  9
$PUCSYDIR
 10
0.0
 20
1.0
 30
0.0
  9
$PUCSORTHOREF
  2

  9
$PUCSORTHOVIEW
 70
     0
  9
$PUCSORGTOP
 10
0.0
 20
0.0
 30
0.0
  9
$PUCSORGBOTTOM
 10
0.0
 20
0.0
 30
0.0
  9
$PUCSORGLEFT
 10
0.0
 20
0.0
 30
0.0
  9
$PUCSORGRIGHT
 10
0.0
 20
0.0
 30
0.0
  9
$PUCSORGFRONT
 10
0.0
 20
0.0
 30
0.0
  9
$PUCSORGBACK
 10
0.0
 20
0.0
 30
0.0
  9
$USERI1
 70
     0
  9
$USERI2
 70
     0
  9
$USERI3
 70
     0
  9
$USERI4
 70
     0
  9
$USERI5
 70
     0
  9
$USERR1
 40
0.0
  9
$USERR2
 40
0.0
  9
$USERR3
 40
0.0
  9
$USERR4
 40
0.0
  9
$USERR5
 40
0.0
  9
$WORLDVIEW
 70
     1
  9
$SHADEDGE
 70
     3
  9
$SHADEDIF
 70
    70
  9
$TILEMODE
 70
     1
  9
$MAXACTVP
 70
    48
  9
$PINSBASE
 10
0.0
 20
0.0
 30
0.0
  9
$PLIMCHECK
 70
     0
  9
$PEXTMIN
 10
1.000000000000000E+20
 20
1.000000000000000E+20
 30
1.000000000000000E+20
  9
$PEXTMAX
 10
-1.000000000000000E+20
 20
-1.000000000000000E+20
 30
-1.000000000000000E+20
  9
$PLIMMIN
 10
0.0
 20
0.0
  9
$PLIMMAX
 10
12.0
 20
9.0
  9
$UNITMODE
 70
     0
  9
$VISRETAIN
 70
     0
  9
$PLINEGEN
 70
     0
  9
$PSLTSCALE
 70
     1
  9
$TREEDEPTH
 70
  3020
  9
$CMLSTYLE
  2
Standard
  9
$CMLJUST
 70
     0
  9
$CMLSCALE
 40
1.0
  9
$PROXYGRAPHICS
 70
     1
  9
$MEASUREMENT
 70
     0
  9
$CELWEIGHT
370
    -1
  9
$ENDCAPS
280
     0
  9
$JOINSTYLE
280
     0
  9
$LWDISPLAY
290
     0
  9
$INSUNITS
 70
     0
  9
$HYPERLINKBASE
  1

  9
$STYLESHEET
  1

  9
$XEDIT
290
     1
  9
$CEPSNTYPE
380
     0
  9
$PSTYLEMODE
290
     1
  9
$FINGERPRINTGUID
  2
{CC7D6DEE-A9F1-4F3E-AC95-C84B62CCA3FD}
  9
$VERSIONGUID
  2
{0AFC5663-CE67-4B42-AE73-F679A49C4425}
  9
$EXTNAMES
290
     1
  9
$PSVPSCALE
 40
0.0
  9
$OLESTARTUP
290
     0
  0
ENDSEC
  0
SECTION
  2
CLASSES
  0
CLASS
  1
ACDBDICTIONARYWDFLT
  2
AcDbDictionaryWithDefault
  3
AutoCAD 2000
 90
        0
280
     0
281
     0
  0
CLASS
  1
ACDBPLACEHOLDER
  2
AcDbPlaceHolder
  3
AutoCAD 2000
 90
        0
280
     0
281
     0
  0
CLASS
  1
LAYOUT
  2
AcDbLayout
  3
AutoCAD 2000
 90
        0
280
     0
281
     0
  0
CLASS
  1
DICTIONARYVAR
  2
AcDbDictionaryVar
  3
AutoCAD 2000
 90
        0
280
     0
281
     0
  0
CLASS
  1
LONG_TRANSACTION
  2
AcDbLongTransaction
  3
AutoCAD 2000
 90
    32768
280
     0
281
     0
  0
CLASS
  1
LWPOLYLINE
  2
AcDbPolyline
  3
AutoCAD 2000
 90
    32768
280
     0
281
     1
  0
CLASS
  1
HATCH
  2
AcDbHatch
  3
AutoCAD 2000
 90
    32768
280
     0
281
     1
  0
CLASS
  1
XRECORD
  2
AcDbXrecord
  3
AutoCAD 2000
 90
    32768
280
     0
281
     0
  0
CLASS
  1
LONG_TRANSACTION
  2
AcDbLongTransaction
  3
AutoCAD 2000
 90
    32768
280
     0
281
     0
  0
CLASS
  1
LWPOLYLINE
  2
AcDbPolyline
  3
AutoCAD 2000
 90
    32768
280
     0
281
     1
  0
CLASS
  1
HATCH
  2
AcDbHatch
  3
AutoCAD 2000
 90
    32768
280
     0
281
     1
  0
CLASS
  1
XRECORD
  2
AcDbXrecord
  3
AutoCAD 2000
 90
    32768
280
     0
281
     0
  0
CLASS
  1
LONG_TRANSACTION
  2
AcDbLongTransaction
  3
AutoCAD 2000
 90
    32768
280
     0
281
     0
  0
CLASS
  1
LWPOLYLINE
  2
AcDbPolyline
  3
AutoCAD 2000
 90
    32768
280
     0
281
     1
  0
CLASS
  1
HATCH
  2
AcDbHatch
  3
AutoCAD 2000
 90
    32768
280
     0
281
     1
  0
CLASS
  1
XRECORD
  2
AcDbXrecord
  3
AutoCAD 2000
 90
    32768
280
     0
281
     0
  0
CLASS
  1
LONG_TRANSACTION
  2
AcDbLongTransaction
  3
AutoCAD 2000
 90
    32768
280
     0
281
     0
  0
CLASS
  1
LWPOLYLINE
  2
AcDbPolyline
  3
AutoCAD 2000
 90
    32768
280
     0
281
     1
  0
CLASS
  1
HATCH
  2
AcDbHatch
  3
AutoCAD 2000
 90
    32768
280
     0
281
     1
  0
CLASS
  1
XRECORD
  2
AcDbXrecord
  3
AutoCAD 2000
 90
    32768
280
     0
281
     0
  0
CLASS
  1
LONG_TRANSACTION
  2
AcDbLongTransaction
  3
AutoCAD 2000
 90
    32768
280
     0
281
     0
  0
CLASS
  1
LWPOLYLINE
  2
AcDbPolyline
  3
AutoCAD 2000
 90
    32768
280
     0
281
     1
  0
CLASS
  1
HATCH
  2
AcDbHatch
  3
AutoCAD 2000
 90
    32768
280
     0
281
     1
  0
CLASS
  1
XRECORD
  2
AcDbXrecord
  3
AutoCAD 2000
 90
    32768
280
     0
281
     0
  0
CLASS
  1
LONG_TRANSACTION
  2
AcDbLongTransaction
  3
AutoCAD 2000
 90
    32768
280
     0
281
     0
  0
CLASS
  1
LWPOLYLINE
  2
AcDbPolyline
  3
AutoCAD 2000
 90
    32768
280
     0
281
     1
  0
CLASS
  1
HATCH
  2
AcDbHatch
  3
AutoCAD 2000
 90
    32768
280
     0
281
     1
  0
CLASS
  1
XRECORD
  2
AcDbXrecord
  3
AutoCAD 2000
 90
    32768
280
     0
281
     0
  0
CLASS
  1
LONG_TRANSACTION
  2
AcDbLongTransaction
  3
AutoCAD 2000
 90
    32768
280
     0
281
     0
  0
CLASS
  1
LWPOLYLINE
  2
AcDbPolyline
  3
AutoCAD 2000
 90
    32768
280
     0
281
     1
  0
CLASS
  1
HATCH
  2
AcDbHatch
  3
AutoCAD 2000
 90
    32768
280
     0
281
     1
  0
CLASS
  1
XRECORD
  2
AcDbXrecord
  3
AutoCAD 2000
 90
    32768
280
     0
281
     0
  0
CLASS
  1
LONG_TRANSACTION
  2
AcDbLongTransaction
  3
AutoCAD 2000
 90
    32768
280
     0
281
     0
  0
CLASS
  1
LWPOLYLINE
  2
AcDbPolyline
  3
AutoCAD 2000
 90
    32768
280
     0
281
     1
  0
CLASS
  1
HATCH
  2
AcDbHatch
  3
AutoCAD 2000
 90
    32768
280
     0
281
     1
  0
CLASS
  1
XRECORD
  2
AcDbXrecord
  3
AutoCAD 2000
 90
    32768
280
     0
281
     0
  0
CLASS
  1
LONG_TRANSACTION
  2
AcDbLongTransaction
  3
AutoCAD 2000
 90
    32768
280
     0
281
     0
  0
CLASS
  1
LWPOLYLINE
  2
AcDbPolyline
  3
AutoCAD 2000
 90
    32768
280
     0
281
     1
  0
CLASS
  1
HATCH
  2
AcDbHatch
  3
AutoCAD 2000
 90
    32768
280
     0
281
     1
  0
CLASS
  1
XRECORD
  2
AcDbXrecord
  3
AutoCAD 2000
 90
    32768
280
     0
281
     0
  0
CLASS
  1
LONG_TRANSACTION
  2
AcDbLongTransaction
  3
AutoCAD 2000
 90
    32768
280
     0
281
     0
  0
CLASS
  1
LWPOLYLINE
  2
AcDbPolyline
  3
AutoCAD 2000
 90
    32768
280
     0
281
     1
  0
CLASS
  1
HATCH
  2
AcDbHatch
  3
AutoCAD 2000
 90
    32768
280
     0
281
     1
  0
CLASS
  1
XRECORD
  2
AcDbXrecord
  3
AutoCAD 2000
 90
    32768
280
     0
281
     0
  0
CLASS
  1
LONG_TRANSACTION
  2
AcDbLongTransaction
  3
AutoCAD 2000
 90
    32768
280
     0
281
     0
  0
CLASS
  1
LWPOLYLINE
  2
AcDbPolyline
  3
AutoCAD 2000
 90
    32768
280
     0
281
     1
  0
CLASS
  1
HATCH
  2
AcDbHatch
  3
AutoCAD 2000
 90
    32768
280
     0
281
     1
  0
CLASS
  1
XRECORD
  2
AcDbXrecord
  3
AutoCAD 2000
 90
    32768
280
     0
281
     0
  0
CLASS
  1
LONG_TRANSACTION
  2
AcDbLongTransaction
  3
AutoCAD 2000
 90
    32768
280
     0
281
     0
  0
CLASS
  1
LWPOLYLINE
  2
AcDbPolyline
  3
AutoCAD 2000
 90
    32768
280
     0
281
     1
  0
CLASS
  1
HATCH
  2
AcDbHatch
  3
AutoCAD 2000
 90
    32768
280
     0
281
     1
  0
CLASS
  1
XRECORD
  2
AcDbXrecord
  3
AutoCAD 2000
 90
    32768
280
     0
281
     0
  0
CLASS
  1
LONG_TRANSACTION
  2
AcDbLongTransaction
  3
AutoCAD 2000
 90
    32768
280
     0
281
     0
  0
CLASS
  1
LWPOLYLINE
  2
AcDbPolyline
  3
AutoCAD 2000
 90
    32768
280
     0
281
     1
  0
CLASS
  1
HATCH
  2
AcDbHatch
  3
AutoCAD 2000
 90
    32768
280
     0
281
     1
  0
CLASS
  1
XRECORD
  2
AcDbXrecord
  3
AutoCAD 2000
 90
    32768
280
     0
281
     0
  0
CLASS
  1
LONG_TRANSACTION
  2
AcDbLongTransaction
  3
AutoCAD 2000
 90
    32768
280
     0
281
     0
  0
CLASS
  1
LWPOLYLINE
  2
AcDbPolyline
  3
AutoCAD 2000
 90
    32768
280
     0
281
     1
  0
CLASS
  1
HATCH
  2
AcDbHatch
  3
AutoCAD 2000
 90
    32768
280
     0
281
     1
  0
CLASS
  1
XRECORD
  2
AcDbXrecord
  3
AutoCAD 2000
 90
    32768
280
     0
281
     0
  0
CLASS
  1
LONG_TRANSACTION
  2
AcDbLongTransaction
  3
AutoCAD 2000
 90
    32768
280
     0
281
     0
  0
CLASS
  1
LWPOLYLINE
  2
AcDbPolyline
  3
AutoCAD 2000
 90
    32768
280
     0
281
     1
  0
CLASS
  1
HATCH
  2
AcDbHatch
  3
AutoCAD 2000
 90
    32768
280
     0
281
     1
  0
CLASS
  1
XRECORD
  2
AcDbXrecord
  3
AutoCAD 2000
 90
    32768
280
     0
281
     0
  0
CLASS
  1
LONG_TRANSACTION
  2
AcDbLongTransaction
  3
AutoCAD 2000
 90
    32768
280
     0
281
     0
  0
CLASS
  1
LWPOLYLINE
  2
AcDbPolyline
  3
AutoCAD 2000
 90
    32768
280
     0
281
     1
  0
CLASS
  1
HATCH
  2
AcDbHatch
  3
AutoCAD 2000
 90
    32768
280
     0
281
     1
  0
CLASS
  1
XRECORD
  2
AcDbXrecord
  3
AutoCAD 2000
 90
    32768
280
     0
281
     0
  0
CLASS
  1
LONG_TRANSACTION
  2
AcDbLongTransaction
  3
AutoCAD 2000
 90
    32768
280
     0
281
     0
  0
CLASS
  1
LWPOLYLINE
  2
AcDbPolyline
  3
AutoCAD 2000
 90
    32768
280
     0
281
     1
  0
CLASS
  1
HATCH
  2
AcDbHatch
  3
AutoCAD 2000
 90
    32768
280
     0
281
     1
  0
CLASS
  1
XRECORD
  2
AcDbXrecord
  3
AutoCAD 2000
 90
    32768
280
     0
281
     0
  0
CLASS
  1
LONG_TRANSACTION
  2
AcDbLongTransaction
  3
AutoCAD 2000
 90
    32768
280
     0
281
     0
  0
CLASS
  1
LWPOLYLINE
  2
AcDbPolyline
  3
AutoCAD 2000
 90
    32768
280
     0
281
     1
  0
CLASS
  1
HATCH
  2
AcDbHatch
  3
AutoCAD 2000
 90
    32768
280
     0
281
     1
  0
CLASS
  1
XRECORD
  2
AcDbXrecord
  3
AutoCAD 2000
 90
    32768
280
     0
281
     0
  0
CLASS
  1
LONG_TRANSACTION
  2
AcDbLongTransaction
  3
AutoCAD 2000
 90
    32768
280
     0
281
     0
  0
CLASS
  1
LWPOLYLINE
  2
AcDbPolyline
  3
AutoCAD 2000
 90
    32768
280
     0
281
     1
  0
CLASS
  1
HATCH
  2
AcDbHatch
  3
AutoCAD 2000
 90
    32768
280
     0
281
     1
  0
CLASS
  1
XRECORD
  2
AcDbXrecord
  3
AutoCAD 2000
 90
    32768
280
     0
281
     0
  0
CLASS
  1
LONG_TRANSACTION
  2
AcDbLongTransaction
  3
AutoCAD 2000
 90
    32768
280
     0
281
     0
  0
CLASS
  1
LWPOLYLINE
  2
AcDbPolyline
  3
AutoCAD 2000
 90
    32768
280
     0
281
     1
  0
CLASS
  1
HATCH
  2
AcDbHatch
  3
AutoCAD 2000
 90
    32768
280
     0
281
     1
  0
CLASS
  1
XRECORD
  2
AcDbXrecord
  3
AutoCAD 2000
 90
    32768
280
     0
281
     0
  0
CLASS
  1
LONG_TRANSACTION
  2
AcDbLongTransaction
  3
AutoCAD 2000
 90
    32768
280
     0
281
     0
  0
CLASS
  1
LWPOLYLINE
  2
AcDbPolyline
  3
AutoCAD 2000
 90
    32768
280
     0
281
     1
  0
CLASS
  1
HATCH
  2
AcDbHatch
  3
AutoCAD 2000
 90
    32768
280
     0
281
     1
  0
CLASS
  1
XRECORD
  2
AcDbXrecord
  3
AutoCAD 2000
 90
    32768
280
     0
281
     0
  0
CLASS
  1
LONG_TRANSACTION
  2
AcDbLongTransaction
  3
AutoCAD 2000
 90
    32768
280
     0
281
     0
  0
CLASS
  1
LWPOLYLINE
  2
AcDbPolyline
  3
AutoCAD 2000
 90
    32768
280
     0
281
     1
  0
CLASS
  1
HATCH
  2
AcDbHatch
  3
AutoCAD 2000
 90
    32768
280
     0
281
     1
  0
CLASS
  1
XRECORD
  2
AcDbXrecord
  3
AutoCAD 2000
 90
    32768
280
     0
281
     0
  0
ENDSEC
  0
SECTION
  2
TABLES
  0
TABLE
  2
VPORT
  5
8
330
0
100
AcDbSymbolTable
 70
     5
  0
VPORT
  5
55A1
330
8
100
AcDbSymbolTableRecord
100
AcDbViewportTableRecord
  2
*Active
 70
     0
 10
0.0
 20
0.0
 11
1.0
 21
1.0
 12
167.362658701793
 22
790.2364896948459
 13
0.0
 23
0.0
 14
1.0
 24
1.0
 15
0.0
 25
0.0
 16
0.0
 26
0.0
 36
1.0
 17
0.0
 27
0.0
 37
0.0
 40
425.3439064822159
 41
1.58498023715415
 42
50.0
 43
0.0
 44
0.0
 50
0.0
 51
0.0
 71
     0
 72
   100
 73
     1
 74
     1
 75
     0
 76
     0
 77
     0
 78
     0
281
     0
 65
     1
110
0.0
120
0.0
130
0.0
111
1.0
121
0.0
131
0.0
112
0.0
122
1.0
132
0.0
 79
     0
146
0.0
  0
ENDTAB
  0
TABLE
  2
LTYPE
  5
5
330
0
100
AcDbSymbolTable
 70
    50
  0
LTYPE
  5
13
330
5
100
AcDbSymbolTableRecord
100
AcDbLinetypeTableRecord
  2
ByBlock
 70
     0
  3

 72
    65
 73
     0
 40
0.0
  0
LTYPE
  5
14
330
5
100
AcDbSymbolTableRecord
100
AcDbLinetypeTableRecord
  2
ByLayer
 70
     0
  3

 72
    65
 73
     0
 40
0.0
  0
LTYPE
  5
15
330
5
100
AcDbSymbolTableRecord
100
AcDbLinetypeTableRecord
  2
CONTINUOUS
 70
     0
  3
実線
 72
    65
 73
     0
 40
0.0
  0
LTYPE
  5
22
330
5
100
AcDbSymbolTableRecord
100
AcDbLinetypeTableRecord
  2
DASHED1
 70
     0
  3
--  --  --  --  --  --  --  --  
 72
    65
 73
     2
 40
2.5
 49
1.25
 74
     0
 49
-1.25
 74
     0
  0
LTYPE
  5
23
330
5
100
AcDbSymbolTableRecord
100
AcDbLinetypeTableRecord
  2
DASHED2
 70
     0
  3
----    ----    ----    ----    
 72
    65
 73
     2
 40
5.0
 49
2.5
 74
     0
 49
-2.5
 74
     0
  0
LTYPE
  5
24
330
5
100
AcDbSymbolTableRecord
100
AcDbLinetypeTableRecord
  2
DASHED3
 70
     0
  3
------  ------  ------  ------  
 72
    65
 73
     2
 40
5.0
 49
3.75
 74
     0
 49
-1.25
 74
     0
  0
LTYPE
  5
25
330
5
100
AcDbSymbolTableRecord
100
AcDbLinetypeTableRecord
  2
CENTER1
 70
     0
  3
----- - ----- - ----- - ----- - 
 72
    65
 73
     4
 40
10.0
 49
6.25
 74
     0
 49
-1.25
 74
     0
 49
1.25
 74
     0
 49
-1.25
 74
     0
  0
LTYPE
  5
26
330
5
100
AcDbSymbolTableRecord
100
AcDbLinetypeTableRecord
  2
CENTER2
 70
     0
  3
----------  --  ----------  --  
 72
    65
 73
     4
 40
20.0
 49
12.5
 74
     0
 49
-2.5
 74
     0
 49
2.5
 74
     0
 49
-2.5
 74
     0
  0
LTYPE
  5
27
330
5
100
AcDbSymbolTableRecord
100
AcDbLinetypeTableRecord
  2
PHANTOM1
 70
     0
  3
--- - - --- - - --- - - --- - - 
 72
    65
 73
     6
 40
10.0
 49
3.25
 74
     0
 49
-1.25
 74
     0
 49
1.25
 74
     0
 49
-1.25
 74
     0
 49
1.25
 74
     0
 49
-1.25
 74
     0
  0
LTYPE
  5
28
330
5
100
AcDbSymbolTableRecord
100
AcDbLinetypeTableRecord
  2
PHANTOM2
 70
     0
  3
--------  -  -  --------  -  -  
 72
    65
 73
     6
 40
20.0
 49
10.0
 74
     0
 49
-2.5
 74
     0
 49
1.25
 74
     0
 49
-2.5
 74
     0
 49
1.25
 74
     0
 49
-2.5
 74
     0
  0
LTYPE
  5
29
330
5
100
AcDbSymbolTableRecord
100
AcDbLinetypeTableRecord
  2
DOT
 70
     0
  3
-   -   -   -   -   -   -   -   
 72
    65
 73
     2
 40
2.5
 49
0.625
 74
     0
 49
-1.875
 74
     0
  0
LTYPE
  5
2A
330
5
100
AcDbSymbolTableRecord
100
AcDbLinetypeTableRecord
  2
DUMMY
 70
     0
  3
ダミー
 72
    65
 73
     0
 40
0.0
  0
LTYPE
  5
2B
330
5
100
AcDbSymbolTableRecord
100
AcDbLinetypeTableRecord
  2
RAND1
 70
     0
  3
ランダム線1
 72
    65
 73
     4
 40
10.0
 49
1.0
 74
     0
 49
-2.0
 74
     0
 49
3.0
 74
     0
 49
-4.0
 74
     0
  0
LTYPE
  5
2C
330
5
100
AcDbSymbolTableRecord
100
AcDbLinetypeTableRecord
  2
RAND2
 70
     0
  3
ランダム線2
 72
    65
 73
     4
 40
14.0
 49
2.0
 74
     0
 49
-3.0
 74
     0
 49
4.0
 74
     0
 49
-5.0
 74
     0
  0
LTYPE
  5
2D
330
5
100
AcDbSymbolTableRecord
100
AcDbLinetypeTableRecord
  2
RAND3
 70
     0
  3
ランダム線3
 72
    65
 73
     4
 40
18.0
 49
3.0
 74
     0
 49
-4.0
 74
     0
 49
5.0
 74
     0
 49
-6.0
 74
     0
  0
LTYPE
  5
2E
330
5
100
AcDbSymbolTableRecord
100
AcDbLinetypeTableRecord
  2
RAND4
 70
     0
  3
ランダム線4
 72
    65
 73
     4
 40
22.0
 49
4.0
 74
     0
 49
-5.0
 74
     0
 49
6.0
 74
     0
 49
-7.0
 74
     0
  0
LTYPE
  5
2F
330
5
100
AcDbSymbolTableRecord
100
AcDbLinetypeTableRecord
  2
RAND5
 70
     0
  3
ランダム線5
 72
    65
 73
     4
 40
26.0
 49
5.0
 74
     0
 49
-6.0
 74
     0
 49
7.0
 74
     0
 49
-8.0
 74
     0
  0
LTYPE
  5
30
330
5
100
AcDbSymbolTableRecord
100
AcDbLinetypeTableRecord
  2
LONG1
 70
     0
  3
----------  --  ----------  --  
 72
    65
 73
     4
 40
40.0
 49
32.5
 74
     0
 49
-2.5
 74
     0
 49
2.5
 74
     0
 49
-2.5
 74
     0
  0
LTYPE
  5
31
330
5
100
AcDbSymbolTableRecord
100
AcDbLinetypeTableRecord
  2
LONG2
 70
     0
  3
--------  -  -  --------  -  -  
 72
    65
 73
     6
 40
40.0
 49
30.0
 74
     0
 49
-2.5
 74
     0
 49
1.25
 74
     0
 49
-2.5
 74
     0
 49
1.25
 74
     0
 49
-2.5
 74
     0
  0
LTYPE
  5
32
330
5
100
AcDbSymbolTableRecord
100
AcDbLinetypeTableRecord
  2
LONG3
 70
     0
  3
+++++++++++++++..+++++++++++++++
 72
    65
 73
     2
 40
40.0
 49
37.5
 74
     0
 49
-2.5
 74
     0
  0
LTYPE
  5
33
330
5
100
AcDbSymbolTableRecord
100
AcDbLinetypeTableRecord
  2
LONG4
 70
     0
  3
+++++++++++++++..+++++++++++++++
 72
    65
 73
     2
 40
80.0
 49
75.0
 74
     0
 49
-5.0
 74
     0
  0
LTYPE
  5
34
330
5
100
AcDbSymbolTableRecord
100
AcDbLinetypeTableRecord
  2
LONG5
 70
     0
  3
----------  --  ----------  --  
 72
    65
 73
     4
 40
60.0
 49
37.5
 74
     0
 49
-7.5
 74
     0
 49
7.5
 74
     0
 49
-7.5
 74
     0
  0
LTYPE
  5
35
330
5
100
AcDbSymbolTableRecord
100
AcDbLinetypeTableRecord
  2
DASHED
 70
     0
  3
-------   -------------   ------
 72
    65
 73
     2
 40
7.5
 49
6.0
 74
     0
 49
-1.5
 74
     0
  0
LTYPE
  5
36
330
5
100
AcDbSymbolTableRecord
100
AcDbLinetypeTableRecord
  2
DASHED_SPACED
 70
     0
  3
----        --------        ----
 72
    65
 73
     2
 40
12.0
 49
6.0
 74
     0
 49
-6.0
 74
     0
  0
LTYPE
  5
37
330
5
100
AcDbSymbolTableRecord
100
AcDbLinetypeTableRecord
  2
LONG_DASHED_DOTTED
 70
     0
  3
------------- --- --------------
 72
    65
 73
     4
 40
15.25
 49
12.0
 74
     0
 49
-1.5
 74
     0
 49
0.25
 74
     0
 49
-1.5
 74
     0
  0
LTYPE
  5
38
330
5
100
AcDbSymbolTableRecord
100
AcDbLinetypeTableRecord
  2
LONG_DASHED_DOUBLE-DOTTED
 70
     0
  3
----------- --- --- ------------
 72
    65
 73
     6
 40
17.0
 49
12.0
 74
     0
 49
-1.5
 74
     0
 49
0.25
 74
     0
 49
-1.5
 74
     0
 49
0.25
 74
     0
 49
-1.5
 74
     0
  0
LTYPE
  5
39
330
5
100
AcDbSymbolTableRecord
100
AcDbLinetypeTableRecord
  2
LONG_DASHED_TRIPLICATE-DOTTED
 70
     0
  3
--------- --- --- --- ----------
 72
    65
 73
     8
 40
18.75
 49
12.0
 74
     0
 49
-1.5
 74
     0
 49
0.25
 74
     0
 49
-1.5
 74
     0
 49
0.25
 74
     0
 49
-1.5
 74
     0
 49
0.25
 74
     0
 49
-1.5
 74
     0
  0
LTYPE
  5
3A
330
5
100
AcDbSymbolTableRecord
100
AcDbLinetypeTableRecord
  2
DOTTED
 70
     0
  3
   -       -       -       -    
 72
    65
 73
     2
 40
1.75
 49
0.25
 74
     0
 49
-1.5
 74
     0
  0
LTYPE
  5
3B
330
5
100
AcDbSymbolTableRecord
100
AcDbLinetypeTableRecord
  2
CHAIN
 70
     0
  3
-------------- -- --------------
 72
    65
 73
     4
 40
18.5
 49
12.0
 74
     0
 49
-1.5
 74
     0
 49
3.5
 74
     0
 49
-1.5
 74
     0
  0
LTYPE
  5
3C
330
5
100
AcDbSymbolTableRecord
100
AcDbLinetypeTableRecord
  2
CHAIN_DOUBLE_DASH
 70
     0
  3
------------ -- -- -------------
 72
    65
 73
     6
 40
23.5
 49
12.0
 74
     0
 49
-1.5
 74
     0
 49
3.5
 74
     0
 49
-1.5
 74
     0
 49
3.5
 74
     0
 49
-1.5
 74
     0
  0
LTYPE
  5
3D
330
5
100
AcDbSymbolTableRecord
100
AcDbLinetypeTableRecord
  2
DASHED_DOTTED
 70
     0
  3
-----------     -     ----------
 72
    65
 73
     4
 40
9.25
 49
6.0
 74
     0
 49
-1.5
 74
     0
 49
0.25
 74
     0
 49
-1.5
 74
     0
  0
LTYPE
  5
3E
330
5
100
AcDbSymbolTableRecord
100
AcDbLinetypeTableRecord
  2
DOUBLE-DASHED_DOTTED
 70
     0
  3
------   -----------   -   -----
 72
    65
 73
     6
 40
16.75
 49
6.0
 74
     0
 49
-1.5
 74
     0
 49
6.0
 74
     0
 49
-1.5
 74
     0
 49
0.25
 74
     0
 49
-1.5
 74
     0
  0
LTYPE
  5
3F
330
5
100
AcDbSymbolTableRecord
100
AcDbLinetypeTableRecord
  2
DASHED_DOUBLE-DOTTED
 70
     0
  3
---------    -    -    ---------
 72
    65
 73
     6
 40
11.0
 49
6.0
 74
     0
 49
-1.5
 74
     0
 49
0.25
 74
     0
 49
-1.5
 74
     0
 49
0.25
 74
     0
 49
-1.5
 74
     0
  0
LTYPE
  5
40
330
5
100
AcDbSymbolTableRecord
100
AcDbLinetypeTableRecord
  2
DOUBLE-DASHED_DOUBLE-DOTTED
 70
     0
  3
-----   ---------   -   -   ----
 72
    65
 73
     8
 40
18.5
 49
6.0
 74
     0
 49
-1.5
 74
     0
 49
6.0
 74
     0
 49
-1.5
 74
     0
 49
0.25
 74
     0
 49
-1.5
 74
     0
 49
0.25
 74
     0
 49
-1.5
 74
     0
  0
LTYPE
  5
41
330
5
100
AcDbSymbolTableRecord
100
AcDbLinetypeTableRecord
  2
DASHED_TRIPLICATE-DOTTED
 70
     0
  3
-------    -    -    -    ------
 72
    65
 73
     8
 40
12.75
 49
6.0
 74
     0
 49
-1.5
 74
     0
 49
0.25
 74
     0
 49
-1.5
 74
     0
 49
0.25
 74
     0
 49
-1.5
 74
     0
 49
0.25
 74
     0
 49
-1.5
 74
     0
  0
LTYPE
  5
42
330
5
100
AcDbSymbolTableRecord
100
AcDbLinetypeTableRecord
  2
DOUBLE-DASHED_TRIPLICATE-DOTTED
 70
     0
  3
-----  ---------  -  -  -  -----
 72
    65
 73
    10
 40
20.24999999999999
 49
6.0
 74
     0
 49
-1.5
 74
     0
 49
6.0
 74
     0
 49
-1.5
 74
     0
 49
0.25
 74
     0
 49
-1.5
 74
     0
 49
0.25
 74
     0
 49
-1.5
 74
     0
 49
0.25
 74
     0
 49
-1.5
 74
     0
  0
LTYPE
  5
43
330
5
100
AcDbSymbolTableRecord
100
AcDbLinetypeTableRecord
  2
UNDEFINED
 70
     0
  3
--------------------------------
 72
    65
 73
     0
 40
0.0
  0
LTYPE
  5
44
330
5
100
AcDbSymbolTableRecord
100
AcDbLinetypeTableRecord
  2
PLINE2
 70
     0
  3
------     -----------     -----
 72
    65
 73
     2
 40
3.0
 49
2.1
 74
     0
 49
-0.9
 74
     0
  0
LTYPE
  5
45
330
5
100
AcDbSymbolTableRecord
100
AcDbLinetypeTableRecord
  2
PLINE3
 70
     0
  3
------------   ---   -----------
 72
    65
 73
     4
 40
10.0
 49
7.0
 74
     0
 49
-1.0
 74
     0
 49
1.0
 74
     0
 49
-1.0
 74
     0
  0
LTYPE
  5
46
330
5
100
AcDbSymbolTableRecord
100
AcDbLinetypeTableRecord
  2
PLINE4
 70
     0
  3
---------   ---   ---   --------
 72
    65
 73
     6
 40
10.0
 49
5.0
 74
     0
 49
-1.0
 74
     0
 49
1.0
 74
     0
 49
-1.0
 74
     0
 49
1.0
 74
     0
 49
-1.0
 74
     0
  0
LTYPE
  5
47
330
5
100
AcDbSymbolTableRecord
100
AcDbLinetypeTableRecord
  2
PLINE5
 70
     0
  3
------     -----------     -----
 72
    65
 73
     2
 40
5.0
 49
3.5
 74
     0
 49
-1.5
 74
     0
  0
LTYPE
  5
48
330
5
100
AcDbSymbolTableRecord
100
AcDbLinetypeTableRecord
  2
PLINE6
 70
     0
  3
------------   ---   -----------
 72
    65
 73
     4
 40
15.0
 49
10.5
 74
     0
 49
-1.5
 74
     0
 49
1.5
 74
     0
 49
-1.5
 74
     0
  0
LTYPE
  5
49
330
5
100
AcDbSymbolTableRecord
100
AcDbLinetypeTableRecord
  2
PLINE7
 70
     0
  3
---------   ---   ---   --------
 72
    65
 73
     6
 40
15.0
 49
7.5
 74
     0
 49
-1.5
 74
     0
 49
1.5
 74
     0
 49
-1.5
 74
     0
 49
1.5
 74
     0
 49
-1.5
 74
     0
  0
LTYPE
  5
4A
330
5
100
AcDbSymbolTableRecord
100
AcDbLinetypeTableRecord
  2
PLINE8
 70
     0
  3
------     -----------     -----
 72
    65
 73
     2
 40
7.0
 49
4.9
 74
     0
 49
-2.1
 74
     0
  0
LTYPE
  5
4B
330
5
100
AcDbSymbolTableRecord
100
AcDbLinetypeTableRecord
  2
PLINE9
 70
     0
  3
------------   ---   -----------
 72
    65
 73
     4
 40
20.0
 49
14.0
 74
     0
 49
-2.0
 74
     0
 49
2.0
 74
     0
 49
-2.0
 74
     0
  0
LTYPE
  5
4C
330
5
100
AcDbSymbolTableRecord
100
AcDbLinetypeTableRecord
  2
PLINE10
 70
     0
  3
---------   ---   ---   --------
 72
    65
 73
     6
 40
20.0
 49
10.0
 74
     0
 49
-2.0
 74
     0
 49
2.0
 74
     0
 49
-2.0
 74
     0
 49
2.0
 74
     0
 49
-2.0
 74
     0
  0
LTYPE
  5
4D
330
5
100
AcDbSymbolTableRecord
100
AcDbLinetypeTableRecord
  2
PLINE11
 70
     0
  3
------     -----------     -----
 72
    65
 73
     2
 40
9.0
 49
6.299999999999999
 74
     0
 49
-2.7
 74
     0
  0
LTYPE
  5
4E
330
5
100
AcDbSymbolTableRecord
100
AcDbLinetypeTableRecord
  2
PLINE12
 70
     0
  3
------------   ---   -----------
 72
    65
 73
     4
 40
25.0
 49
17.5
 74
     0
 49
-2.5
 74
     0
 49
2.5
 74
     0
 49
-2.5
 74
     0
  0
LTYPE
  5
4F
330
5
100
AcDbSymbolTableRecord
100
AcDbLinetypeTableRecord
  2
PLINE13
 70
     0
  3
---------   ---   ---   --------
 72
    65
 73
     6
 40
25.0
 49
12.5
 74
     0
 49
-2.5
 74
     0
 49
2.5
 74
     0
 49
-2.5
 74
     0
 49
2.5
 74
     0
 49
-2.5
 74
     0
  0
LTYPE
  5
50
330
5
100
AcDbSymbolTableRecord
100
AcDbLinetypeTableRecord
  2
PLINE14
 70
     0
  3
------     -----------     -----
 72
    65
 73
     2
 40
11.0
 49
7.7
 74
     0
 49
-3.299999999999999
 74
     0
  0
LTYPE
  5
51
330
5
100
AcDbSymbolTableRecord
100
AcDbLinetypeTableRecord
  2
PLINE15
 70
     0
  3
------------   ---   -----------
 72
    65
 73
     4
 40
30.0
 49
21.0
 74
     0
 49
-3.0
 74
     0
 49
3.0
 74
     0
 49
-3.0
 74
     0
  0
LTYPE
  5
52
330
5
100
AcDbSymbolTableRecord
100
AcDbLinetypeTableRecord
  2
PLINE16
 70
     0
  3
---------   ---   ---   --------
 72
    65
 73
     6
 40
30.0
 49
15.0
 74
     0
 49
-3.0
 74
     0
 49
3.0
 74
     0
 49
-3.0
 74
     0
 49
3.0
 74
     0
 49
-3.0
 74
     0
  0
ENDTAB
  0
TABLE
  2
LAYER
  5
2
102
{ACAD_XDICTIONARY
360
175
102
}
330
0
100
AcDbSymbolTable
 70
     5
  0
LAYER
  5
10
330
2
100
AcDbSymbolTableRecord
100
AcDbLayerTableRecord
  2
0
 70
     0
 62
     7
  6
CONTINUOUS
370
    -3
390
F
  0
LAYER
  5
128
330
2
100
AcDbSymbolTableRecord
100
AcDbLayerTableRecord
  2
Defpoints
 70
     0
 62
     7
  6
CONTINUOUS
290
     0
370
    -3
390
F
  0
LAYER
  5
178
330
2
100
AcDbSymbolTableRecord
100
AcDbLayerTableRecord
  2
寸法
 70
     0
 62
     7
  6
CONTINUOUS
370
    -3
390
F
  0
LAYER
  5
179
330
2
100
AcDbSymbolTableRecord
100
AcDbLayerTableRecord
  2
躯体と製品
 70
     0
 62
     7
  6
CONTINUOUS
370
    -3
390
F
  0
LAYER
  5
4F62
330
2
100
AcDbSymbolTableRecord
100
AcDbLayerTableRecord
  2
文字-記号
 70
     0
 62
     7
  6
CONTINUOUS
370
    -3
390
F
  0
ENDTAB
  0
TABLE
  2
STYLE
  5
3
330
0
100
AcDbSymbolTable
 70
     4
  0
STYLE
  5
11
330
3
100
AcDbSymbolTableRecord
100
AcDbTextStyleTableRecord
  2
STANDARD
 70
     0
 40
0.0
 41
1.0
 50
0.0
 71
     0
 42
0.2
  3
txt
  4
bigfont.shx
  0
STYLE
  5
53
330
3
100
AcDbSymbolTableRecord
100
AcDbTextStyleTableRecord
  2
TATEGAKI
 70
     4
 40
0.0
 41
1.0
 50
0.0
 71
     0
 42
1.0
  3
txt
  4
bigfont.shx
  0
STYLE
  5
123
330
3
100
AcDbSymbolTableRecord
100
AcDbTextStyleTableRecord
  2
ACAD
 70
     0
 40
5.0
 41
0.8
 50
0.0
 71
     0
 42
5.0
  3
romans.shx
  4
extfont.shx
  0
STYLE
  5
3A5F
330
3
100
AcDbSymbolTableRecord
100
AcDbTextStyleTableRecord
  2
VERTXT
 70
     4
 40
0.0
 41
0.8582679999999999
 50
0.0
 71
     0
 42
3.5
  3
txt.shx
  4
BIGFONT
  0
ENDTAB
  0
TABLE
  2
VIEW
  5
6
330
0
100
AcDbSymbolTable
 70
     0
  0
ENDTAB
  0
TABLE
  2
UCS
  5
7
330
0
100
AcDbSymbolTable
 70
     0
  0
ENDTAB
  0
TABLE
  2
APPID
  5
9
330
0
100
AcDbSymbolTable
 70
     1
  0
APPID
  5
12
330
9
100
AcDbSymbolTableRecord
100
AcDbRegAppTableRecord
  2
ACAD
 70
     0
  0
ENDTAB
  0
TABLE
  2
DIMSTYLE
  5
A
330
0
100
AcDbSymbolTable
 70
     3
100
AcDbDimStyleTable
 71
     1
340
126
  0
DIMSTYLE
105
11C
330
A
100
AcDbSymbolTableRecord
100
AcDbDimStyleTableRecord
  2
Standard
 70
     0
340
11
  0
DIMSTYLE
105
126
102
{ACAD_REACTORS
330
5430
330
543D
330
544A
330
5457
330
5464
330
549E
330
54AB
102
}
330
A
100
AcDbSymbolTableRecord
100
AcDbDimStyleTableRecord
  2
AutoCAD
 70
     0
 41
1.0
 42
0.0
 44
0.0
 73
     0
 77
     1
140
5.0
147
1.0
174
     1
176
     4
177
     4
178
     3
271
     0
272
     0
289
     0
340
123
341
15B0
342
11E
  0
DIMSTYLE
105
2CBB
330
A
100
AcDbSymbolTableRecord
100
AcDbDimStyleTableRecord
  2
111
 70
     0
 41
1.0
 42
0.0
 44
0.0
 73
     0
 77
     1
140
5.0
147
1.0
174
     1
176
     4
177
     4
178
     3
271
     0
272
     0
289
     0
340
123
341
15B0
342
2CB5
  0
ENDTAB
  0
TABLE
  2
BLOCK_RECORD
  5
1
330
0
100
AcDbSymbolTable
 70
    11
  0
BLOCK_RECORD
  5
1E
102
{ACAD_XDICTIONARY
360
28B
102
}
330
1
100
AcDbSymbolTableRecord
100
AcDbBlockTableRecord
  2
*Model_Space
340
21
  0
BLOCK_RECORD
  5
1A
102
{ACAD_XDICTIONARY
360
28D
102
}
330
1
100
AcDbSymbolTableRecord
100
AcDbBlockTableRecord
  2
*Paper_Space
340
1D
  0
BLOCK_RECORD
  5
11E
330
1
100
AcDbSymbolTableRecord
100
AcDbBlockTableRecord
  2
_Dot
340
0
102
{BLKREFS
331
5435
331
5436
331
544F
331
5450
331
545C
331
545D
331
5469
331
546A
331
5498
331
5499
331
54A3
331
54A4
331
54B0
331
54B1
102
}
  0
BLOCK_RECORD
  5
15B0
330
1
100
AcDbSymbolTableRecord
100
AcDbBlockTableRecord
  2
_None
340
0
  0
BLOCK_RECORD
  5
2CB5
330
1
100
AcDbSymbolTableRecord
100
AcDbBlockTableRecord
  2
_Open30
340
0
  0
BLOCK_RECORD
  5
35E3
330
1
100
AcDbSymbolTableRecord
100
AcDbBlockTableRecord
  2
_DotBlank
340
0
  0
BLOCK_RECORD
  5
5431
330
1
100
AcDbSymbolTableRecord
100
AcDbBlockTableRecord
  2
*D4
340
0
  0
BLOCK_RECORD
  5
543E
330
1
100
AcDbSymbolTableRecord
100
AcDbBlockTableRecord
  2
*D5
340
0
  0
BLOCK_RECORD
  5
544B
330
1
100
AcDbSymbolTableRecord
100
AcDbBlockTableRecord
  2
*D6
340
0
  0
BLOCK_RECORD
  5
5458
330
1
100
AcDbSymbolTableRecord
100
AcDbBlockTableRecord
  2
*D7
340
0
  0
BLOCK_RECORD
  5
5465
330
1
100
AcDbSymbolTableRecord
100
AcDbBlockTableRecord
  2
*D8
340
0
  0
BLOCK_RECORD
  5
549F
330
1
100
AcDbSymbolTableRecord
100
AcDbBlockTableRecord
  2
*D9
340
0
  0
BLOCK_RECORD
  5
54AC
330
1
100
AcDbSymbolTableRecord
100
AcDbBlockTableRecord
  2
*D10
340
0
  0
ENDTAB
  0
ENDSEC
  0
SECTION
  2
BLOCKS
  0
BLOCK
  5
1F
330
1E
100
AcDbEntity
  8
0
100
AcDbBlockBegin
  2
*Model_Space
 70
     0
 10
0.0
 20
0.0
 30
0.0
  3
*Model_Space
  1

  0
ENDBLK
  5
20
330
1E
100
AcDbEntity
  8
0
100
AcDbBlockEnd
  0
BLOCK
  5
1B
330
1A
100
AcDbEntity
 67
     1
  8
0
100
AcDbBlockBegin
  2
*Paper_Space
 70
     0
 10
0.0
 20
0.0
 30
0.0
  3
*Paper_Space
  1

  0
ENDBLK
  5
1C
330
1A
100
AcDbEntity
 67
     1
  8
0
100
AcDbBlockEnd
  0
BLOCK
  5
121
330
11E
100
AcDbEntity
  8
0
100
AcDbBlockBegin
  2
_Dot
 70
     0
 10
0.0
 20
0.0
 30
0.0
  3
_Dot
  1

  0
LWPOLYLINE
  5
11F
330
11E
100
AcDbEntity
  8
0
  6
ByBlock
 62
     0
100
AcDbPolyline
 90
        2
 70
     1
 43
0.5
 10
-0.25
 20
0.0
 42
1.0
 10
0.25
 20
0.0
 42
1.0
  0
LINE
  5
120
330
11E
100
AcDbEntity
  8
0
  6
ByBlock
 62
     0
370
    -2
100
AcDbLine
 10
-0.5
 20
0.0
 30
0.0
 11
-1.0
 21
0.0
 31
0.0
  0
ENDBLK
  5
122
330
11E
100
AcDbEntity
  8
0
100
AcDbBlockEnd
  0
BLOCK
  5
15B1
330
15B0
100
AcDbEntity
  8
0
100
AcDbBlockBegin
  2
_None
 70
     0
 10
0.0
 20
0.0
 30
0.0
  3
_None
  1

  0
ENDBLK
  5
15B2
330
15B0
100
AcDbEntity
  8
0
100
AcDbBlockEnd
  0
BLOCK
  5
2CB9
330
2CB5
100
AcDbEntity
  8
0
100
AcDbBlockBegin
  2
_Open30
 70
     0
 10
0.0
 20
0.0
 30
0.0
  3
_Open30
  1

  0
LINE
  5
2CB6
330
2CB5
100
AcDbEntity
  8
0
  6
ByBlock
 62
     0
370
    -2
100
AcDbLine
 10
-1.0
 20
0.26794919
 30
0.0
 11
0.0
 21
0.0
 31
0.0
  0
LINE
  5
2CB7
330
2CB5
100
AcDbEntity
  8
0
  6
ByBlock
 62
     0
370
    -2
100
AcDbLine
 10
0.0
 20
0.0
 30
0.0
 11
-1.0
 21
-0.26794919
 31
0.0
  0
LINE
  5
2CB8
330
2CB5
100
AcDbEntity
  8
0
  6
ByBlock
 62
     0
370
    -2
100
AcDbLine
 10
0.0
 20
0.0
 30
0.0
 11
-1.0
 21
0.0
 31
0.0
  0
ENDBLK
  5
2CBA
330
2CB5
100
AcDbEntity
  8
0
100
AcDbBlockEnd
  0
BLOCK
  5
35E6
330
35E3
100
AcDbEntity
  8
0
100
AcDbBlockBegin
  2
_DotBlank
 70
     0
 10
0.0
 20
0.0
 30
0.0
  3
_DotBlank
  1

  0
CIRCLE
  5
35E4
330
35E3
100
AcDbEntity
  8
0
  6
ByBlock
 62
     0
370
    -2
100
AcDbCircle
 10
0.0
 20
0.0
 30
0.0
 40
0.5
  0
LINE
  5
35E5
330
35E3
100
AcDbEntity
  8
0
  6
ByBlock
 62
     0
370
    -2
100
AcDbLine
 10
-0.5
 20
0.0
 30
0.0
 11
-1.0
 21
0.0
 31
0.0
  0
ENDBLK
  5
35E7
330
35E3
100
AcDbEntity
  8
0
100
AcDbBlockEnd
  0
BLOCK
  5
543B
330
5431
100
AcDbEntity
  8
0
100
AcDbBlockBegin
  2
*D4
 70
     1
 10
0.0
 20
0.0
 30
0.0
  3
*D4
  1

  0
LINE
  5
5432
330
5431
100
AcDbEntity
  8
寸法
  6
Continuous
 62
     4
370
    -2
100
AcDbLine
 10
-2.37970726153361
 20
947.7147125941993
 30
0.0
 11
-2.379707261533607
 21
995.2165125941991
 31
0.0
  0
LINE
  5
5433
330
5431
100
AcDbEntity
  8
寸法
  6
Continuous
 62
     4
370
    -2
100
AcDbLine
 10
87.62029273846639
 20
947.7147125941991
 30
0.0
 11
87.62029273846639
 21
995.2165125941991
 31
0.0
  0
LINE
  5
5434
330
5431
100
AcDbEntity
  8
寸法
  6
Continuous
 62
     4
370
    -2
100
AcDbLine
 10
-1.379707261533607
 20
995.2165125941991
 30
0.0
 11
86.6202927384664
 21
995.2165125941991
 31
0.0
  0
INSERT
  5
5435
330
5431
100
AcDbEntity
  8
寸法
  6
Continuous
 62
     4
370
    -2
100
AcDbBlockReference
  2
_Dot
 10
-2.379707261533607
 20
995.2165125941991
 30
0.0
 50
180.0
  0
INSERT
  5
5436
330
5431
100
AcDbEntity
  8
寸法
  6
Continuous
 62
     4
370
    -2
100
AcDbBlockReference
  2
_Dot
 10
87.62029273846639
 20
995.2165125941991
 30
0.0
  0
MTEXT
  5
5437
330
5431
100
AcDbEntity
  8
寸法
  6
Continuous
 62
     3
100
AcDbMText
 10
42.62029273846638
 20
998.7165125941992
 30
0.0
 40
5.0
 41
0.0
 71
     5
 72
     1
  1
\A1;90
  7
ACAD
 73
     1
 44
1.0
  0
POINT
  5
5438
330
5431
100
AcDbEntity
  8
Defpoints
  6
Continuous
 62
     0
100
AcDbPoint
 10
-2.37970726153361
 20
947.7147125941993
 30
0.0
  0
POINT
  5
5439
330
5431
100
AcDbEntity
  8
Defpoints
  6
Continuous
 62
     0
100
AcDbPoint
 10
87.62029273846639
 20
947.7147125941991
 30
0.0
  0
POINT
  5
543A
330
5431
100
AcDbEntity
  8
Defpoints
  6
Continuous
 62
     0
100
AcDbPoint
 10
87.62029273846639
 20
995.2165125941991
 30
0.0
  0
ENDBLK
  5
543C
330
5431
100
AcDbEntity
  8
0
100
AcDbBlockEnd
  0
BLOCK
  5
5448
330
543E
100
AcDbEntity
  8
0
100
AcDbBlockBegin
  2
*D5
 70
     1
 10
0.0
 20
0.0
 30
0.0
  3
*D5
  1

  0
LINE
  5
5495
330
543E
100
AcDbEntity
  8
寸法
  6
Continuous
 62
     4
370
    -2
100
AcDbLine
 10
-13.72872726153363
 20
943.1448225941991
 30
0.0
 11
-103.2551272615335
 21
943.1448225941991
 31
0.0
  0
LINE
  5
5496
330
543E
100
AcDbEntity
  8
寸法
  6
Continuous
 62
     4
370
    -2
100
AcDbLine
 10
-13.72872726153369
 20
612.6837125941992
 30
0.0
 11
-103.2551272615336
 21
612.6837125941992
 31
0.0
  0
LINE
  5
5497
330
543E
100
AcDbEntity
  8
寸法
  6
Continuous
 62
     4
370
    -2
100
AcDbLine
 10
-103.2551272615335
 20
942.1448225941992
 30
0.0
 11
-103.2551272615336
 21
613.6837125941991
 31
0.0
  0
INSERT
  5
5498
330
543E
100
AcDbEntity
  8
寸法
  6
Continuous
 62
     4
370
    -2
100
AcDbBlockReference
  2
_Dot
 10
-103.2551272615335
 20
943.1448225941991
 30
0.0
 50
90.0
  0
INSERT
  5
5499
330
543E
100
AcDbEntity
  8
寸法
  6
Continuous
 62
     4
370
    -2
100
AcDbBlockReference
  2
_Dot
 10
-103.2551272615336
 20
612.6837125941992
 30
0.0
 50
270.0
  0
MTEXT
  5
549A
330
543E
100
AcDbEntity
  8
寸法
  6
Continuous
 62
     3
100
AcDbMText
 10
-106.7551272615337
 20
777.9142675941991
 30
0.0
 40
5.0
 41
0.0
 71
     5
 72
     1
  1
\A1;適応高さ：130～1190mm
  7
ACAD
 11
0.0000000000000001
 21
1.0
 31
0.0
 73
     1
 44
1.0
  0
POINT
  5
549B
330
543E
100
AcDbEntity
  8
Defpoints
  6
Continuous
 62
     0
100
AcDbPoint
 10
-13.72872726153363
 20
943.1448225941991
 30
0.0
  0
POINT
  5
549C
330
543E
100
AcDbEntity
  8
Defpoints
  6
Continuous
 62
     0
100
AcDbPoint
 10
-13.72872726153369
 20
612.6837125941992
 30
0.0
  0
POINT
  5
549D
330
543E
100
AcDbEntity
  8
Defpoints
  6
Continuous
 62
     0
100
AcDbPoint
 10
-103.2551272615336
 20
612.6837125941992
 30
0.0
  0
ENDBLK
  5
5449
330
543E
100
AcDbEntity
  8
0
100
AcDbBlockEnd
  0
BLOCK
  5
5455
330
544B
100
AcDbEntity
  8
0
100
AcDbBlockBegin
  2
*D6
 70
     1
 10
0.0
 20
0.0
 30
0.0
  3
*D6
  1

  0
LINE
  5
544C
330
544B
100
AcDbEntity
  8
寸法
  6
Continuous
 62
     4
370
    -2
100
AcDbLine
 10
339.5432627384664
 20
942.9297625941993
 30
0.0
 11
339.5432627384664
 21
967.7742425941993
 31
0.0
  0
LINE
  5
544D
330
544B
100
AcDbEntity
  8
寸法
  6
Continuous
 62
     4
370
    -2
100
AcDbLine
 10
429.5432627384665
 20
942.9297625941993
 30
0.0
 11
429.5432627384665
 21
967.7742425941993
 31
0.0
  0
LINE
  5
544E
330
544B
100
AcDbEntity
  8
寸法
  6
Continuous
 62
     4
370
    -2
100
AcDbLine
 10
340.5432627384664
 20
967.7742425941993
 30
0.0
 11
428.5432627384664
 21
967.7742425941993
 31
0.0
  0
INSERT
  5
544F
330
544B
100
AcDbEntity
  8
寸法
  6
Continuous
 62
     4
370
    -2
100
AcDbBlockReference
  2
_Dot
 10
339.5432627384664
 20
967.7742425941993
 30
0.0
 50
180.0
  0
INSERT
  5
5450
330
544B
100
AcDbEntity
  8
寸法
  6
Continuous
 62
     4
370
    -2
100
AcDbBlockReference
  2
_Dot
 10
429.5432627384665
 20
967.7742425941993
 30
0.0
  0
MTEXT
  5
5451
330
544B
100
AcDbEntity
  8
寸法
  6
Continuous
 62
     3
100
AcDbMText
 10
384.5432627384664
 20
971.2742425941993
 30
0.0
 40
5.0
 41
0.0
 71
     5
 72
     1
  1
\A1;90
  7
ACAD
 73
     1
 44
1.0
  0
POINT
  5
5452
330
544B
100
AcDbEntity
  8
Defpoints
  6
Continuous
 62
     0
100
AcDbPoint
 10
339.5432627384664
 20
942.9297625941993
 30
0.0
  0
POINT
  5
5453
330
544B
100
AcDbEntity
  8
Defpoints
  6
Continuous
 62
     0
100
AcDbPoint
 10
429.5432627384665
 20
942.9297625941993
 30
0.0
  0
POINT
  5
5454
330
544B
100
AcDbEntity
  8
Defpoints
  6
Continuous
 62
     0
100
AcDbPoint
 10
429.5432627384665
 20
967.7742425941993
 30
0.0
  0
ENDBLK
  5
5456
330
544B
100
AcDbEntity
  8
0
100
AcDbBlockEnd
  0
BLOCK
  5
5462
330
5458
100
AcDbEntity
  8
0
100
AcDbBlockBegin
  2
*D7
 70
     1
 10
0.0
 20
0.0
 30
0.0
  3
*D7
  1

  0
LINE
  5
5459
330
5458
100
AcDbEntity
  8
寸法
  6
Continuous
 62
     4
370
    -2
100
AcDbLine
 10
335.6761927384663
 20
938.9541825941991
 30
0.0
 11
306.8626527384664
 21
938.9541825941991
 31
0.0
  0
LINE
  5
545A
330
5458
100
AcDbEntity
  8
寸法
  6
Continuous
 62
     4
370
    -2
100
AcDbLine
 10
335.6761927384663
 20
848.9541825941993
 30
0.0
 11
306.8626527384664
 21
848.9541825941993
 31
0.0
  0
LINE
  5
545B
330
5458
100
AcDbEntity
  8
寸法
  6
Continuous
 62
     4
370
    -2
100
AcDbLine
 10
306.8626527384664
 20
937.9541825941991
 30
0.0
 11
306.8626527384664
 21
849.9541825941992
 31
0.0
  0
INSERT
  5
545C
330
5458
100
AcDbEntity
  8
寸法
  6
Continuous
 62
     4
370
    -2
100
AcDbBlockReference
  2
_Dot
 10
306.8626527384664
 20
938.9541825941991
 30
0.0
 50
90.0
  0
INSERT
  5
545D
330
5458
100
AcDbEntity
  8
寸法
  6
Continuous
 62
     4
370
    -2
100
AcDbBlockReference
  2
_Dot
 10
306.8626527384664
 20
848.9541825941993
 30
0.0
 50
270.0
  0
MTEXT
  5
545E
330
5458
100
AcDbEntity
  8
寸法
  6
Continuous
 62
     3
100
AcDbMText
 10
303.3626527384662
 20
893.9541825941994
 30
0.0
 40
5.0
 41
0.0
 71
     5
 72
     1
  1
\A1;90
  7
ACAD
 11
0.0000000000000001
 21
1.0
 31
0.0
 73
     1
 44
1.0
  0
POINT
  5
545F
330
5458
100
AcDbEntity
  8
Defpoints
  6
Continuous
 62
     0
100
AcDbPoint
 10
335.6761927384663
 20
938.9541825941991
 30
0.0
  0
POINT
  5
5460
330
5458
100
AcDbEntity
  8
Defpoints
  6
Continuous
 62
     0
100
AcDbPoint
 10
335.6761927384663
 20
848.9541825941993
 30
0.0
  0
POINT
  5
5461
330
5458
100
AcDbEntity
  8
Defpoints
  6
Continuous
 62
     0
100
AcDbPoint
 10
306.8626527384664
 20
848.9541825941993
 30
0.0
  0
ENDBLK
  5
5463
330
5458
100
AcDbEntity
  8
0
100
AcDbBlockEnd
  0
BLOCK
  5
546F
330
5465
100
AcDbEntity
  8
0
100
AcDbBlockBegin
  2
*D8
 70
     1
 10
0.0
 20
0.0
 30
0.0
  3
*D8
  1

  0
LINE
  5
5466
330
5465
100
AcDbEntity
  8
寸法
  6
Continuous
 62
     4
370
    -2
100
AcDbLine
 10
339.5432627384664
 20
715.4039225941992
 30
0.0
 11
339.5432627384664
 21
747.5272525941992
 31
0.0
  0
LINE
  5
5467
330
5465
100
AcDbEntity
  8
寸法
  6
Continuous
 62
     4
370
    -2
100
AcDbLine
 10
429.5432627384664
 20
715.4039225941992
 30
0.0
 11
429.5432627384664
 21
747.5272525941992
 31
0.0
  0
LINE
  5
5468
330
5465
100
AcDbEntity
  8
寸法
  6
Continuous
 62
     4
370
    -2
100
AcDbLine
 10
340.5432627384664
 20
747.5272525941992
 30
0.0
 11
428.5432627384664
 21
747.5272525941992
 31
0.0
  0
INSERT
  5
5469
330
5465
100
AcDbEntity
  8
寸法
  6
Continuous
 62
     4
370
    -2
100
AcDbBlockReference
  2
_Dot
 10
339.5432627384664
 20
747.5272525941992
 30
0.0
 50
180.0
  0
INSERT
  5
546A
330
5465
100
AcDbEntity
  8
寸法
  6
Continuous
 62
     4
370
    -2
100
AcDbBlockReference
  2
_Dot
 10
429.5432627384664
 20
747.5272525941992
 30
0.0
  0
MTEXT
  5
546B
330
5465
100
AcDbEntity
  8
寸法
  6
Continuous
 62
     3
100
AcDbMText
 10
384.5432627384664
 20
751.0272525941992
 30
0.0
 40
5.0
 41
0.0
 71
     5
 72
     1
  1
\A1;90
  7
ACAD
 73
     1
 44
1.0
  0
POINT
  5
546C
330
5465
100
AcDbEntity
  8
Defpoints
  6
Continuous
 62
     0
100
AcDbPoint
 10
339.5432627384664
 20
715.4039225941992
 30
0.0
  0
POINT
  5
546D
330
5465
100
AcDbEntity
  8
Defpoints
  6
Continuous
 62
     0
100
AcDbPoint
 10
429.5432627384664
 20
715.4039225941992
 30
0.0
  0
POINT
  5
546E
330
5465
100
AcDbEntity
  8
Defpoints
  6
Continuous
 62
     0
100
AcDbPoint
 10
429.5432627384664
 20
747.5272525941992
 30
0.0
  0
ENDBLK
  5
5470
330
5465
100
AcDbEntity
  8
0
100
AcDbBlockEnd
  0
BLOCK
  5
54A9
330
549F
100
AcDbEntity
  8
0
100
AcDbBlockBegin
  2
*D9
 70
     1
 10
0.0
 20
0.0
 30
0.0
  3
*D9
  1

  0
LINE
  5
54A0
330
549F
100
AcDbEntity
  8
寸法
  6
Continuous
 62
     4
370
    -2
100
AcDbLine
 10
-2.37970726153361
 20
608.7674525941991
 30
0.0
 11
-2.379707261533611
 21
590.3094275941992
 31
0.0
  0
LINE
  5
54A1
330
549F
100
AcDbEntity
  8
寸法
  6
Continuous
 62
     4
370
    -2
100
AcDbLine
 10
87.62029273846639
 20
608.7674525941991
 30
0.0
 11
87.62029273846639
 21
590.3094275941992
 31
0.0
  0
LINE
  5
54A2
330
549F
100
AcDbEntity
  8
寸法
  6
Continuous
 62
     4
370
    -2
100
AcDbLine
 10
-1.379707261533611
 20
590.3094275941992
 30
0.0
 11
86.6202927384664
 21
590.3094275941992
 31
0.0
  0
INSERT
  5
54A3
330
549F
100
AcDbEntity
  8
寸法
  6
Continuous
 62
     4
370
    -2
100
AcDbBlockReference
  2
_Dot
 10
-2.379707261533611
 20
590.3094275941992
 30
0.0
 50
180.0
  0
INSERT
  5
54A4
330
549F
100
AcDbEntity
  8
寸法
  6
Continuous
 62
     4
370
    -2
100
AcDbBlockReference
  2
_Dot
 10
87.62029273846639
 20
590.3094275941992
 30
0.0
  0
MTEXT
  5
54A5
330
549F
100
AcDbEntity
  8
寸法
  6
Continuous
 62
     3
100
AcDbMText
 10
42.62029273846638
 20
593.8094275941991
 30
0.0
 40
5.0
 41
0.0
 71
     5
 72
     1
  1
\A1;90
  7
ACAD
 73
     1
 44
1.0
  0
POINT
  5
54A6
330
549F
100
AcDbEntity
  8
Defpoints
  6
Continuous
 62
     0
100
AcDbPoint
 10
-2.37970726153361
 20
608.7674525941991
 30
0.0
  0
POINT
  5
54A7
330
549F
100
AcDbEntity
  8
Defpoints
  6
Continuous
 62
     0
100
AcDbPoint
 10
87.62029273846639
 20
608.7674525941991
 30
0.0
  0
POINT
  5
54A8
330
549F
100
AcDbEntity
  8
Defpoints
  6
Continuous
 62
     0
100
AcDbPoint
 10
87.62029273846639
 20
590.3094275941992
 30
0.0
  0
ENDBLK
  5
54AA
330
549F
100
AcDbEntity
  8
0
100
AcDbBlockEnd
  0
BLOCK
  5
54B6
330
54AC
100
AcDbEntity
  8
0
100
AcDbBlockBegin
  2
*D10
 70
     1
 10
0.0
 20
0.0
 30
0.0
  3
*D10
  1

  0
LINE
  5
54AD
330
54AC
100
AcDbEntity
  8
寸法
  6
Continuous
 62
     4
370
    -2
100
AcDbLine
 10
335.8389627384664
 20
711.8908425941992
 30
0.0
 11
304.8092727384664
 21
711.8908425941992
 31
0.0
  0
LINE
  5
54AE
330
54AC
100
AcDbEntity
  8
寸法
  6
Continuous
 62
     4
370
    -2
100
AcDbLine
 10
335.8389627384664
 20
621.8908425941991
 30
0.0
 11
304.8092727384663
 21
621.8908425941991
 31
0.0
  0
LINE
  5
54AF
330
54AC
100
AcDbEntity
  8
寸法
  6
Continuous
 62
     4
370
    -2
100
AcDbLine
 10
304.8092727384664
 20
710.8908425941991
 30
0.0
 11
304.8092727384663
 21
622.8908425941991
 31
0.0
  0
INSERT
  5
54B0
330
54AC
100
AcDbEntity
  8
寸法
  6
Continuous
 62
     4
370
    -2
100
AcDbBlockReference
  2
_Dot
 10
304.8092727384664
 20
711.8908425941992
 30
0.0
 50
90.0
  0
INSERT
  5
54B1
330
54AC
100
AcDbEntity
  8
寸法
  6
Continuous
 62
     4
370
    -2
100
AcDbBlockReference
  2
_Dot
 10
304.8092727384663
 20
621.8908425941991
 30
0.0
 50
270.0
  0
MTEXT
  5
54B2
330
54AC
100
AcDbEntity
  8
寸法
  6
Continuous
 62
     3
100
AcDbMText
 10
301.3092727384663
 20
666.8908425941992
 30
0.0
 40
5.0
 41
0.0
 71
     5
 72
     1
  1
\A1;90
  7
ACAD
 11
0.0000000000000001
 21
1.0
 31
0.0
 73
     1
 44
1.0
  0
POINT
  5
54B3
330
54AC
100
AcDbEntity
  8
Defpoints
  6
Continuous
 62
     0
100
AcDbPoint
 10
335.8389627384664
 20
711.8908425941992
 30
0.0
  0
POINT
  5
54B4
330
54AC
100
AcDbEntity
  8
Defpoints
  6
Continuous
 62
     0
100
AcDbPoint
 10
335.8389627384664
 20
621.8908425941991
 30
0.0
  0
POINT
  5
54B5
330
54AC
100
AcDbEntity
  8
Defpoints
  6
Continuous
 62
     0
100
AcDbPoint
 10
304.8092727384663
 20
621.8908425941991
 30
0.0
  0
ENDBLK
  5
54B7
330
54AC
100
AcDbEntity
  8
0
100
AcDbBlockEnd
  0
ENDSEC
  0
SECTION
  2
ENTITIES
  0
TEXT
  5
526D
330
1E
100
AcDbEntity
  8
文字-記号
 62
     4
100
AcDbText
 10
106.4468227384663
 20
803.1952525941992
 30
0.0
 40
5.0
  1
ターンバックル
 41
0.8
  7
ACAD
100
AcDbText
  0
LINE
  5
526E
330
1E
100
AcDbEntity
  8
文字-記号
  6
Continuous
 62
     7
100
AcDbLine
 10
57.2364627384664
 20
759.7775325941992
 30
0.0
 11
84.28350273846637
 21
806.6243725941992
 31
0.0
  0
LINE
  5
526F
330
1E
100
AcDbEntity
  8
躯体と製品
  6
Continuous
 62
     2
100
AcDbLine
 10
37.62029273846639
 20
858.8514925941993
 30
0.0
 11
37.62029273846639
 21
696.9770525941992
 31
0.0
  0
LINE
  5
5270
330
1E
100
AcDbEntity
  8
躯体と製品
  6
Continuous
 62
     2
100
AcDbLine
 10
47.62029273846638
 20
858.8514925941993
 30
0.0
 11
47.62029273846638
 21
696.9770525941992
 31
0.0
  0
LINE
  5
5271
330
1E
100
AcDbEntity
  8
躯体と製品
  6
Continuous
 62
     2
100
AcDbLine
 10
33.12029273846639
 20
857.9142725941991
 30
0.0
 11
33.12029273846639
 21
697.9142725941992
 31
0.0
  0
LINE
  5
5272
330
1E
100
AcDbEntity
  8
躯体と製品
  6
Continuous
 62
     2
100
AcDbLine
 10
52.12029273846638
 20
857.9142725941991
 30
0.0
 11
52.12029273846638
 21
697.9142725941992
 31
0.0
  0
ARC
  5
5275
330
1E
100
AcDbEntity
  8
躯体と製品
  6
Continuous
 62
     2
100
AcDbCircle
 10
33.5573127384664
 20
609.4837125941992
 30
0.0
 40
10.0
100
AcDbArc
 50
90.0
 51
122.7352200000005
  0
ARC
  5
5276
330
1E
100
AcDbEntity
  8
躯体と製品
  6
Continuous
 62
     2
100
AcDbCircle
 10
51.68327273846637
 20
609.4837125941992
 30
0.0
 40
10.0
100
AcDbArc
 50
57.26477299999855
 51
90.0
  0
LINE
  5
5278
330
1E
100
AcDbEntity
  8
躯体と製品
  6
Continuous
 62
     2
100
AcDbLine
 10
87.62029273846639
 20
614.9837125941992
 30
0.0
 11
-2.37970726153361
 21
614.9837125941992
 31
0.0
  0
LINE
  5
5279
330
1E
100
AcDbEntity
  8
躯体と製品
  6
Continuous
 62
     2
100
AcDbLine
 10
87.62029273846639
 20
612.6837125941992
 30
0.0
 11
-2.37970726153361
 21
612.6837125941992
 31
0.0
  0
LINE
  5
527A
330
1E
100
AcDbEntity
  8
躯体と製品
  6
Continuous
 62
     2
100
AcDbLine
 10
77.62029273846639
 20
614.9837125941992
 30
0.0
 11
7.620292738466389
 21
614.9837125941992
 31
0.0
  0
LINE
  5
527B
330
1E
100
AcDbEntity
  8
躯体と製品
  6
Continuous
 62
     2
100
AcDbLine
 10
45.79518273846639
 20
612.6837125941992
 30
0.0
 11
68.55779273846639
 21
612.6837125941992
 31
0.0
  0
LINE
  5
527E
330
1E
100
AcDbEntity
  8
躯体と製品
  6
Continuous
 62
     2
100
AcDbLine
 10
-2.37970726153361
 20
612.6837125941992
 30
0.0
 11
-2.37970726153361
 21
614.9837125941992
 31
0.0
  0
LINE
  5
527F
330
1E
100
AcDbEntity
  8
躯体と製品
  6
Continuous
 62
     2
100
AcDbLine
 10
28.14974273846639
 20
617.8955025941992
 30
0.0
 11
23.62029273846638
 21
614.9837125941992
 31
0.0
  0
LINE
  5
5281
330
1E
100
AcDbEntity
  8
躯体と製品
  6
Continuous
 62
     2
100
AcDbLine
 10
57.09085273846643
 20
617.8955025941992
 30
0.0
 11
61.62029273846639
 21
614.9837125941992
 31
0.0
  0
LINE
  5
5284
330
1E
100
AcDbEntity
  8
躯体と製品
  6
Continuous
 62
     2
100
AcDbLine
 10
87.62029273846639
 20
612.6837125941992
 30
0.0
 11
87.62029273846639
 21
614.9837125941992
 31
0.0
  0
LINE
  5
5285
330
1E
100
AcDbEntity
  8
文字-記号
  6
Continuous
 62
     7
100
AcDbLine
 10
4.211342738466385
 20
661.3805325941991
 30
0.0
 11
-12.58952726153361
 21
661.3805325941991
 31
0.0
  0
TEXT
  5
5286
330
1E
100
AcDbEntity
  8
文字-記号
 62
     4
100
AcDbText
 10
-62.05799726153358
 20
657.7054325941992
 30
0.0
 40
5.0
  1
ベースプレート
 41
0.8
  7
ACAD
100
AcDbText
  0
LINE
  5
5287
330
1E
100
AcDbEntity
  8
躯体と製品
  6
Continuous
 62
     2
100
AcDbLine
 10
50.62029273846639
 20
682.9142725941992
 30
0.0
 11
50.62029273846639
 21
662.9142725941992
 31
0.0
  0
LINE
  5
5288
330
1E
100
AcDbEntity
  8
躯体と製品
  6
Continuous
 62
     2
100
AcDbLine
 10
34.62029273846638
 20
682.9142725941992
 30
0.0
 11
34.62029273846638
 21
662.9142725941992
 31
0.0
  0
ARC
  5
5289
330
1E
100
AcDbEntity
  8
躯体と製品
  6
Continuous
 62
     2
100
AcDbCircle
 10
33.32029273846638
 20
651.9837125941992
 30
0.0
 40
1.5
100
AcDbArc
 50
180.0
 51
270.0
  0
LINE
  5
528A
330
1E
100
AcDbEntity
  8
躯体と製品
  6
Continuous
 62
     2
100
AcDbLine
 10
31.8202927384664
 20
660.9837125941992
 30
0.0
 11
53.4202927384664
 21
660.9837125941992
 31
0.0
  0
LINE
  5
528B
330
1E
100
AcDbEntity
  8
躯体と製品
  6
Continuous
 62
     2
100
AcDbLine
 10
53.4202927384664
 20
662.9142725941992
 30
0.0
 11
31.8202927384664
 21
662.9142725941992
 31
0.0
  0
LINE
  5
528C
330
1E
100
AcDbEntity
  8
文字-記号
  6
Continuous
 62
     7
100
AcDbLine
 10
15.34934273846639
 20
619.8129425941991
 30
0.0
 11
4.211342738466385
 21
661.3805325941991
 31
0.0
  0
LINE
  5
528D
330
1E
100
AcDbEntity
  8
文字-記号
  6
Continuous
 62
     7
100
AcDbLine
 10
15.34934273846639
 20
619.8129425941991
 30
0.0
 11
15.34934273846639
 21
622.8129425941991
 31
0.0
  0
LINE
  5
528E
330
1E
100
AcDbEntity
  8
文字-記号
  6
Continuous
 62
     7
100
AcDbLine
 10
15.34934273846639
 20
619.8129425941991
 30
0.0
 11
13.84934273846639
 21
622.4110225941992
 31
0.0
  0
LINE
  5
528F
330
1E
100
AcDbEntity
  8
躯体と製品
  6
Continuous
 62
     2
100
AcDbLine
 10
31.8202927384664
 20
651.9837125941992
 30
0.0
 11
31.8202927384664
 21
662.9142725941992
 31
0.0
  0
LINE
  5
5290
330
1E
100
AcDbEntity
  8
躯体と製品
  6
Continuous
 62
     4
100
AcDbLine
 10
37.62029273846639
 20
641.3587125941992
 30
0.0
 11
47.62029273846638
 21
642.2337125941992
 31
0.0
  0
LINE
  5
5291
330
1E
100
AcDbEntity
  8
躯体と製品
  6
Continuous
 62
     4
100
AcDbLine
 10
36.62029273846639
 20
642.2337125941992
 30
0.0
 11
37.62029273846639
 21
641.3587125941992
 31
0.0
  0
LINE
  5
5292
330
1E
100
AcDbEntity
  8
躯体と製品
  6
Continuous
 62
     4
100
AcDbLine
 10
48.62029273846639
 20
641.3587125941992
 30
0.0
 11
47.62029273846638
 21
642.2337125941992
 31
0.0
  0
LINE
  5
5293
330
1E
100
AcDbEntity
  8
躯体と製品
  6
Continuous
 62
     2
100
AcDbLine
 10
33.5573127384664
 20
619.4837125941992
 30
0.0
 11
51.68327273846637
 21
619.4837125941992
 31
0.0
  0
LINE
  5
5294
330
1E
100
AcDbEntity
  8
躯体と製品
  6
Continuous
 62
     4
100
AcDbLine
 10
47.62029273846638
 20
629.9837125941992
 30
0.0
 11
48.62029273846639
 21
630.8587125941992
 31
0.0
  0
LINE
  5
5295
330
1E
100
AcDbEntity
  8
躯体と製品
  6
Continuous
 62
     4
100
AcDbLine
 10
36.62029273846639
 20
629.9837125941992
 30
0.0
 11
48.62029273846639
 21
630.8587125941992
 31
0.0
  0
LINE
  5
5296
330
1E
100
AcDbEntity
  8
躯体と製品
  6
Continuous
 62
     4
100
AcDbLine
 10
36.62029273846639
 20
629.9837125941992
 30
0.0
 11
37.62029273846639
 21
630.8587125941992
 31
0.0
  0
LINE
  5
5297
330
1E
100
AcDbEntity
  8
躯体と製品
  6
Continuous
 62
     4
100
AcDbLine
 10
37.62029273846639
 20
629.1087125941992
 30
0.0
 11
47.62029273846638
 21
629.9837125941992
 31
0.0
  0
LINE
  5
5298
330
1E
100
AcDbEntity
  8
躯体と製品
  6
Continuous
 62
     4
100
AcDbLine
 10
37.62029273846639
 20
627.3587125941992
 30
0.0
 11
47.62029273846638
 21
628.2337125941992
 31
0.0
  0
LINE
  5
5299
330
1E
100
AcDbEntity
  8
躯体と製品
  6
Continuous
 62
     4
100
AcDbLine
 10
36.62029273846639
 20
628.2337125941992
 30
0.0
 11
48.62029273846639
 21
629.1087125941992
 31
0.0
  0
LINE
  5
529A
330
1E
100
AcDbEntity
  8
躯体と製品
  6
Continuous
 62
     4
100
AcDbLine
 10
37.62029273846639
 20
625.6087125941992
 30
0.0
 11
47.62029273846638
 21
626.4837125941992
 31
0.0
  0
LINE
  5
529B
330
1E
100
AcDbEntity
  8
躯体と製品
  6
Continuous
 62
     4
100
AcDbLine
 10
36.62029273846639
 20
626.4837125941992
 30
0.0
 11
48.62029273846639
 21
627.3587125941992
 31
0.0
  0
LINE
  5
529C
330
1E
100
AcDbEntity
  8
躯体と製品
  6
Continuous
 62
     4
100
AcDbLine
 10
37.62029273846639
 20
623.8587125941992
 30
0.0
 11
47.62029273846638
 21
624.7337125941992
 31
0.0
  0
LINE
  5
529D
330
1E
100
AcDbEntity
  8
躯体と製品
  6
Continuous
 62
     4
100
AcDbLine
 10
36.62029273846639
 20
624.7337125941992
 30
0.0
 11
48.62029273846639
 21
625.6087125941992
 31
0.0
  0
LINE
  5
529E
330
1E
100
AcDbEntity
  8
躯体と製品
  6
Continuous
 62
     4
100
AcDbLine
 10
37.62029273846639
 20
622.1087125941992
 30
0.0
 11
47.62029273846638
 21
622.9837125941992
 31
0.0
  0
LINE
  5
529F
330
1E
100
AcDbEntity
  8
躯体と製品
  6
Continuous
 62
     4
100
AcDbLine
 10
36.62029273846639
 20
622.9837125941992
 30
0.0
 11
48.62029273846639
 21
623.8587125941992
 31
0.0
  0
LINE
  5
52A0
330
1E
100
AcDbEntity
  8
躯体と製品
  6
Continuous
 62
     4
100
AcDbLine
 10
37.62029273846639
 20
620.3587125941992
 30
0.0
 11
47.62029273846638
 21
621.2337125941992
 31
0.0
  0
LINE
  5
52A1
330
1E
100
AcDbEntity
  8
躯体と製品
  6
Continuous
 62
     4
100
AcDbLine
 10
36.62029273846639
 20
619.4837125941992
 30
0.0
 11
48.62029273846639
 21
620.3587125941992
 31
0.0
  0
LINE
  5
52A2
330
1E
100
AcDbEntity
  8
躯体と製品
  6
Continuous
 62
     4
100
AcDbLine
 10
36.62029273846639
 20
621.2337125941992
 30
0.0
 11
48.62029273846639
 21
622.1087125941992
 31
0.0
  0
LINE
  5
52A3
330
1E
100
AcDbEntity
  8
躯体と製品
  6
Continuous
 62
     4
100
AcDbLine
 10
36.62029273846639
 20
629.9837125941992
 30
0.0
 11
37.62029273846639
 21
629.1087125941992
 31
0.0
  0
LINE
  5
52A4
330
1E
100
AcDbEntity
  8
躯体と製品
  6
Continuous
 62
     4
100
AcDbLine
 10
36.62029273846639
 20
628.2337125941992
 30
0.0
 11
37.62029273846639
 21
627.3587125941992
 31
0.0
  0
LINE
  5
52A5
330
1E
100
AcDbEntity
  8
躯体と製品
  6
Continuous
 62
     4
100
AcDbLine
 10
36.62029273846639
 20
628.2337125941992
 30
0.0
 11
37.62029273846639
 21
629.1087125941992
 31
0.0
  0
LINE
  5
52A6
330
1E
100
AcDbEntity
  8
躯体と製品
  6
Continuous
 62
     4
100
AcDbLine
 10
36.62029273846639
 20
626.4837125941992
 30
0.0
 11
37.62029273846639
 21
625.6087125941992
 31
0.0
  0
LINE
  5
52A7
330
1E
100
AcDbEntity
  8
躯体と製品
  6
Continuous
 62
     4
100
AcDbLine
 10
36.62029273846639
 20
626.4837125941992
 30
0.0
 11
37.62029273846639
 21
627.3587125941992
 31
0.0
  0
LINE
  5
52A8
330
1E
100
AcDbEntity
  8
躯体と製品
  6
Continuous
 62
     4
100
AcDbLine
 10
36.62029273846639
 20
624.7337125941992
 30
0.0
 11
37.62029273846639
 21
623.8587125941992
 31
0.0
  0
LINE
  5
52A9
330
1E
100
AcDbEntity
  8
躯体と製品
  6
Continuous
 62
     4
100
AcDbLine
 10
36.62029273846639
 20
624.7337125941992
 30
0.0
 11
37.62029273846639
 21
625.6087125941992
 31
0.0
  0
LINE
  5
52AA
330
1E
100
AcDbEntity
  8
躯体と製品
  6
Continuous
 62
     4
100
AcDbLine
 10
36.62029273846639
 20
622.9837125941992
 30
0.0
 11
37.62029273846639
 21
622.1087125941992
 31
0.0
  0
LINE
  5
52AB
330
1E
100
AcDbEntity
  8
躯体と製品
  6
Continuous
 62
     4
100
AcDbLine
 10
36.62029273846639
 20
622.9837125941992
 30
0.0
 11
37.62029273846639
 21
623.8587125941992
 31
0.0
  0
LINE
  5
52AC
330
1E
100
AcDbEntity
  8
躯体と製品
  6
Continuous
 62
     4
100
AcDbLine
 10
37.62029273846639
 20
620.3587125941992
 30
0.0
 11
36.62029273846639
 21
619.4837125941992
 31
0.0
  0
LINE
  5
52AD
330
1E
100
AcDbEntity
  8
躯体と製品
  6
Continuous
 62
     4
100
AcDbLine
 10
36.62029273846639
 20
621.2337125941992
 30
0.0
 11
37.62029273846639
 21
620.3587125941992
 31
0.0
  0
LINE
  5
52AE
330
1E
100
AcDbEntity
  8
躯体と製品
  6
Continuous
 62
     4
100
AcDbLine
 10
36.62029273846639
 20
621.2337125941992
 30
0.0
 11
37.62029273846639
 21
622.1087125941992
 31
0.0
  0
LINE
  5
52AF
330
1E
100
AcDbEntity
  8
躯体と製品
  6
Continuous
 62
     4
100
AcDbLine
 10
47.62029273846638
 20
628.2337125941992
 30
0.0
 11
48.62029273846639
 21
629.1087125941992
 31
0.0
  0
LINE
  5
52B0
330
1E
100
AcDbEntity
  8
躯体と製品
  6
Continuous
 62
     4
100
AcDbLine
 10
48.62029273846639
 20
629.1087125941992
 30
0.0
 11
47.62029273846638
 21
629.9837125941992
 31
0.0
  0
LINE
  5
52B1
330
1E
100
AcDbEntity
  8
躯体と製品
  6
Continuous
 62
     4
100
AcDbLine
 10
47.62029273846638
 20
626.4837125941992
 30
0.0
 11
48.62029273846639
 21
627.3587125941992
 31
0.0
  0
LINE
  5
52B2
330
1E
100
AcDbEntity
  8
躯体と製品
  6
Continuous
 62
     4
100
AcDbLine
 10
48.62029273846639
 20
627.3587125941992
 30
0.0
 11
47.62029273846638
 21
628.2337125941992
 31
0.0
  0
LINE
  5
52B3
330
1E
100
AcDbEntity
  8
躯体と製品
  6
Continuous
 62
     4
100
AcDbLine
 10
47.62029273846638
 20
624.7337125941992
 30
0.0
 11
48.62029273846639
 21
625.6087125941992
 31
0.0
  0
LINE
  5
52B4
330
1E
100
AcDbEntity
  8
躯体と製品
  6
Continuous
 62
     4
100
AcDbLine
 10
48.62029273846639
 20
625.6087125941992
 30
0.0
 11
47.62029273846638
 21
626.4837125941992
 31
0.0
  0
LINE
  5
52B5
330
1E
100
AcDbEntity
  8
躯体と製品
  6
Continuous
 62
     4
100
AcDbLine
 10
47.62029273846638
 20
622.9837125941992
 30
0.0
 11
48.62029273846639
 21
623.8587125941992
 31
0.0
  0
LINE
  5
52B6
330
1E
100
AcDbEntity
  8
躯体と製品
  6
Continuous
 62
     4
100
AcDbLine
 10
48.62029273846639
 20
623.8587125941992
 30
0.0
 11
47.62029273846638
 21
624.7337125941992
 31
0.0
  0
LINE
  5
52B7
330
1E
100
AcDbEntity
  8
躯体と製品
  6
Continuous
 62
     4
100
AcDbLine
 10
48.62029273846639
 20
622.1087125941992
 30
0.0
 11
47.62029273846638
 21
622.9837125941992
 31
0.0
  0
LINE
  5
52B8
330
1E
100
AcDbEntity
  8
躯体と製品
  6
Continuous
 62
     4
100
AcDbLine
 10
47.62029273846638
 20
621.2337125941992
 30
0.0
 11
48.62029273846639
 21
622.1087125941992
 31
0.0
  0
LINE
  5
52B9
330
1E
100
AcDbEntity
  8
躯体と製品
  6
Continuous
 62
     4
100
AcDbLine
 10
48.62029273846639
 20
620.3587125941992
 30
0.0
 11
47.62029273846638
 21
621.2337125941992
 31
0.0
  0
LINE
  5
52BA
330
1E
100
AcDbEntity
  8
躯体と製品
  6
Continuous
 62
     4
100
AcDbLine
 10
48.62029273846639
 20
620.3587125941992
 30
0.0
 11
47.62029273846638
 21
619.4837125941992
 31
0.0
  0
LINE
  5
52BB
330
1E
100
AcDbEntity
  8
躯体と製品
  6
Continuous
 62
     4
100
AcDbLine
 10
37.62029273846639
 20
639.6087125941992
 30
0.0
 11
47.62029273846638
 21
640.4837125941992
 31
0.0
  0
LINE
  5
52BC
330
1E
100
AcDbEntity
  8
躯体と製品
  6
Continuous
 62
     4
100
AcDbLine
 10
36.62029273846639
 20
640.4837125941992
 30
0.0
 11
48.62029273846639
 21
641.3587125941992
 31
0.0
  0
LINE
  5
52BD
330
1E
100
AcDbEntity
  8
躯体と製品
  6
Continuous
 62
     4
100
AcDbLine
 10
37.62029273846639
 20
637.8587125941992
 30
0.0
 11
47.62029273846638
 21
638.7337125941992
 31
0.0
  0
LINE
  5
52BE
330
1E
100
AcDbEntity
  8
躯体と製品
  6
Continuous
 62
     4
100
AcDbLine
 10
36.62029273846639
 20
638.7337125941992
 30
0.0
 11
48.62029273846639
 21
639.6087125941992
 31
0.0
  0
LINE
  5
52BF
330
1E
100
AcDbEntity
  8
躯体と製品
  6
Continuous
 62
     4
100
AcDbLine
 10
37.62029273846639
 20
636.1087125941992
 30
0.0
 11
47.62029273846638
 21
636.9837125941992
 31
0.0
  0
LINE
  5
52C0
330
1E
100
AcDbEntity
  8
躯体と製品
  6
Continuous
 62
     4
100
AcDbLine
 10
36.62029273846639
 20
636.9837125941992
 30
0.0
 11
48.62029273846639
 21
637.8587125941992
 31
0.0
  0
LINE
  5
52C1
330
1E
100
AcDbEntity
  8
躯体と製品
  6
Continuous
 62
     4
100
AcDbLine
 10
37.62029273846639
 20
634.3587125941992
 30
0.0
 11
47.62029273846638
 21
635.2337125941992
 31
0.0
  0
LINE
  5
52C2
330
1E
100
AcDbEntity
  8
躯体と製品
  6
Continuous
 62
     4
100
AcDbLine
 10
36.62029273846639
 20
635.2337125941992
 30
0.0
 11
48.62029273846639
 21
636.1087125941992
 31
0.0
  0
LINE
  5
52C3
330
1E
100
AcDbEntity
  8
躯体と製品
  6
Continuous
 62
     4
100
AcDbLine
 10
37.62029273846639
 20
632.6087125941992
 30
0.0
 11
47.62029273846638
 21
633.4837125941992
 31
0.0
  0
LINE
  5
52C4
330
1E
100
AcDbEntity
  8
躯体と製品
  6
Continuous
 62
     4
100
AcDbLine
 10
36.62029273846639
 20
633.4837125941992
 30
0.0
 11
48.62029273846639
 21
634.3587125941992
 31
0.0
  0
LINE
  5
52C5
330
1E
100
AcDbEntity
  8
躯体と製品
  6
Continuous
 62
     4
100
AcDbLine
 10
37.62029273846639
 20
630.8587125941992
 30
0.0
 11
47.62029273846638
 21
631.7337125941992
 31
0.0
  0
LINE
  5
52C6
330
1E
100
AcDbEntity
  8
躯体と製品
  6
Continuous
 62
     4
100
AcDbLine
 10
36.62029273846639
 20
631.7337125941992
 30
0.0
 11
48.62029273846639
 21
632.6087125941992
 31
0.0
  0
LINE
  5
52C7
330
1E
100
AcDbEntity
  8
躯体と製品
  6
Continuous
 62
     4
100
AcDbLine
 10
36.62029273846639
 20
640.4837125941992
 30
0.0
 11
37.62029273846639
 21
639.6087125941992
 31
0.0
  0
LINE
  5
52C8
330
1E
100
AcDbEntity
  8
躯体と製品
  6
Continuous
 62
     4
100
AcDbLine
 10
36.62029273846639
 20
640.4837125941992
 30
0.0
 11
37.62029273846639
 21
641.3587125941992
 31
0.0
  0
LINE
  5
52C9
330
1E
100
AcDbEntity
  8
躯体と製品
  6
Continuous
 62
     4
100
AcDbLine
 10
36.62029273846639
 20
638.7337125941992
 30
0.0
 11
37.62029273846639
 21
637.8587125941992
 31
0.0
  0
LINE
  5
52CA
330
1E
100
AcDbEntity
  8
躯体と製品
  6
Continuous
 62
     4
100
AcDbLine
 10
36.62029273846639
 20
638.7337125941992
 30
0.0
 11
37.62029273846639
 21
639.6087125941992
 31
0.0
  0
LINE
  5
52CB
330
1E
100
AcDbEntity
  8
躯体と製品
  6
Continuous
 62
     4
100
AcDbLine
 10
36.62029273846639
 20
636.9837125941992
 30
0.0
 11
37.62029273846639
 21
636.1087125941992
 31
0.0
  0
LINE
  5
52CC
330
1E
100
AcDbEntity
  8
躯体と製品
  6
Continuous
 62
     4
100
AcDbLine
 10
36.62029273846639
 20
636.9837125941992
 30
0.0
 11
37.62029273846639
 21
637.8587125941992
 31
0.0
  0
LINE
  5
52CD
330
1E
100
AcDbEntity
  8
躯体と製品
  6
Continuous
 62
     4
100
AcDbLine
 10
36.62029273846639
 20
635.2337125941992
 30
0.0
 11
37.62029273846639
 21
634.3587125941992
 31
0.0
  0
LINE
  5
52CE
330
1E
100
AcDbEntity
  8
躯体と製品
  6
Continuous
 62
     4
100
AcDbLine
 10
36.62029273846639
 20
635.2337125941992
 30
0.0
 11
37.62029273846639
 21
636.1087125941992
 31
0.0
  0
LINE
  5
52CF
330
1E
100
AcDbEntity
  8
躯体と製品
  6
Continuous
 62
     4
100
AcDbLine
 10
36.62029273846639
 20
633.4837125941992
 30
0.0
 11
37.62029273846639
 21
632.6087125941992
 31
0.0
  0
LINE
  5
52D0
330
1E
100
AcDbEntity
  8
躯体と製品
  6
Continuous
 62
     4
100
AcDbLine
 10
36.62029273846639
 20
633.4837125941992
 30
0.0
 11
37.62029273846639
 21
634.3587125941992
 31
0.0
  0
LINE
  5
52D1
330
1E
100
AcDbEntity
  8
躯体と製品
  6
Continuous
 62
     4
100
AcDbLine
 10
36.62029273846639
 20
631.7337125941992
 30
0.0
 11
37.62029273846639
 21
630.8587125941992
 31
0.0
  0
LINE
  5
52D2
330
1E
100
AcDbEntity
  8
躯体と製品
  6
Continuous
 62
     4
100
AcDbLine
 10
36.62029273846639
 20
631.7337125941992
 30
0.0
 11
37.62029273846639
 21
632.6087125941992
 31
0.0
  0
LINE
  5
52D3
330
1E
100
AcDbEntity
  8
躯体と製品
  6
Continuous
 62
     4
100
AcDbLine
 10
47.62029273846638
 20
640.4837125941992
 30
0.0
 11
48.62029273846639
 21
641.3587125941992
 31
0.0
  0
LINE
  5
52D4
330
1E
100
AcDbEntity
  8
躯体と製品
  6
Continuous
 62
     4
100
AcDbLine
 10
47.62029273846638
 20
638.7337125941992
 30
0.0
 11
48.62029273846639
 21
639.6087125941992
 31
0.0
  0
LINE
  5
52D5
330
1E
100
AcDbEntity
  8
躯体と製品
  6
Continuous
 62
     4
100
AcDbLine
 10
48.62029273846639
 20
639.6087125941992
 30
0.0
 11
47.62029273846638
 21
640.4837125941992
 31
0.0
  0
LINE
  5
52D6
330
1E
100
AcDbEntity
  8
躯体と製品
  6
Continuous
 62
     4
100
AcDbLine
 10
47.62029273846638
 20
636.9837125941992
 30
0.0
 11
48.62029273846639
 21
637.8587125941992
 31
0.0
  0
LINE
  5
52D7
330
1E
100
AcDbEntity
  8
躯体と製品
  6
Continuous
 62
     4
100
AcDbLine
 10
48.62029273846639
 20
637.8587125941992
 30
0.0
 11
47.62029273846638
 21
638.7337125941992
 31
0.0
  0
LINE
  5
52D8
330
1E
100
AcDbEntity
  8
躯体と製品
  6
Continuous
 62
     4
100
AcDbLine
 10
47.62029273846638
 20
635.2337125941992
 30
0.0
 11
48.62029273846639
 21
636.1087125941992
 31
0.0
  0
LINE
  5
52D9
330
1E
100
AcDbEntity
  8
躯体と製品
  6
Continuous
 62
     4
100
AcDbLine
 10
48.62029273846639
 20
636.1087125941992
 30
0.0
 11
47.62029273846638
 21
636.9837125941992
 31
0.0
  0
LINE
  5
52DA
330
1E
100
AcDbEntity
  8
躯体と製品
  6
Continuous
 62
     4
100
AcDbLine
 10
47.62029273846638
 20
633.4837125941992
 30
0.0
 11
48.62029273846639
 21
634.3587125941992
 31
0.0
  0
LINE
  5
52DB
330
1E
100
AcDbEntity
  8
躯体と製品
  6
Continuous
 62
     4
100
AcDbLine
 10
48.62029273846639
 20
634.3587125941992
 30
0.0
 11
47.62029273846638
 21
635.2337125941992
 31
0.0
  0
LINE
  5
52DC
330
1E
100
AcDbEntity
  8
躯体と製品
  6
Continuous
 62
     4
100
AcDbLine
 10
47.62029273846638
 20
631.7337125941992
 30
0.0
 11
48.62029273846639
 21
632.6087125941992
 31
0.0
  0
LINE
  5
52DD
330
1E
100
AcDbEntity
  8
躯体と製品
  6
Continuous
 62
     4
100
AcDbLine
 10
48.62029273846639
 20
632.6087125941992
 30
0.0
 11
47.62029273846638
 21
633.4837125941992
 31
0.0
  0
LINE
  5
52DE
330
1E
100
AcDbEntity
  8
躯体と製品
  6
Continuous
 62
     4
100
AcDbLine
 10
48.62029273846639
 20
630.8587125941992
 30
0.0
 11
47.62029273846638
 21
631.7337125941992
 31
0.0
  0
LINE
  5
52DF
330
1E
100
AcDbEntity
  8
躯体と製品
  6
Continuous
 62
     2
100
AcDbLine
 10
34.62029273846638
 20
650.4837125941992
 30
0.0
 11
50.62029273846639
 21
650.4837125941992
 31
0.0
  0
ARC
  5
52E0
330
1E
100
AcDbEntity
  8
躯体と製品
  6
Continuous
 62
     2
100
AcDbCircle
 10
46.62029273846639
 20
652.4837125941992
 30
0.0
 40
2.0
100
AcDbArc
 50
270.0
 51
0.0
  0
ARC
  5
52E1
330
1E
100
AcDbEntity
  8
躯体と製品
  6
Continuous
 62
     2
100
AcDbCircle
 10
50.62029273846639
 20
652.4837125941992
 30
0.0
 40
2.0
100
AcDbArc
 50
180.0
 51
270.0
  0
LINE
  5
52E2
330
1E
100
AcDbEntity
  8
躯体と製品
  6
Continuous
 62
     2
100
AcDbLine
 10
36.62029273846639
 20
652.4837125941992
 30
0.0
 11
36.62029273846639
 21
660.9837125941992
 31
0.0
  0
LINE
  5
52E3
330
1E
100
AcDbEntity
  8
躯体と製品
  6
Continuous
 62
     2
100
AcDbLine
 10
48.62029273846639
 20
652.4837125941992
 30
0.0
 11
48.62029273846639
 21
660.9837125941992
 31
0.0
  0
LINE
  5
52E4
330
1E
100
AcDbEntity
  8
躯体と製品
  6
Continuous
 62
     4
100
AcDbLine
 10
37.62029273846639
 20
650.1087125941992
 30
0.0
 11
41.90601273846641
 21
650.4837125941992
 31
0.0
  0
LINE
  5
52E5
330
1E
100
AcDbEntity
  8
躯体と製品
  6
Continuous
 62
     4
100
AcDbLine
 10
37.62029273846639
 20
648.3587125941992
 30
0.0
 11
47.62029273846638
 21
649.2337125941992
 31
0.0
  0
LINE
  5
52E6
330
1E
100
AcDbEntity
  8
躯体と製品
  6
Continuous
 62
     4
100
AcDbLine
 10
36.62029273846639
 20
649.2337125941992
 30
0.0
 11
48.62029273846639
 21
650.1087125941992
 31
0.0
  0
LINE
  5
52E7
330
1E
100
AcDbEntity
  8
躯体と製品
  6
Continuous
 62
     4
100
AcDbLine
 10
37.62029273846639
 20
646.6087125941992
 30
0.0
 11
47.62029273846638
 21
647.4837125941992
 31
0.0
  0
LINE
  5
52E8
330
1E
100
AcDbEntity
  8
躯体と製品
  6
Continuous
 62
     4
100
AcDbLine
 10
36.62029273846639
 20
647.4837125941992
 30
0.0
 11
48.62029273846639
 21
648.3587125941992
 31
0.0
  0
LINE
  5
52E9
330
1E
100
AcDbEntity
  8
躯体と製品
  6
Continuous
 62
     4
100
AcDbLine
 10
37.62029273846639
 20
644.8587125941992
 30
0.0
 11
47.62029273846638
 21
645.7337125941992
 31
0.0
  0
LINE
  5
52EA
330
1E
100
AcDbEntity
  8
躯体と製品
  6
Continuous
 62
     4
100
AcDbLine
 10
36.62029273846639
 20
645.7337125941992
 30
0.0
 11
48.62029273846639
 21
646.6087125941992
 31
0.0
  0
LINE
  5
52EB
330
1E
100
AcDbEntity
  8
躯体と製品
  6
Continuous
 62
     4
100
AcDbLine
 10
37.62029273846639
 20
643.1087125941992
 30
0.0
 11
47.62029273846638
 21
643.9837125941992
 31
0.0
  0
LINE
  5
52EC
330
1E
100
AcDbEntity
  8
躯体と製品
  6
Continuous
 62
     4
100
AcDbLine
 10
36.62029273846639
 20
643.9837125941992
 30
0.0
 11
48.62029273846639
 21
644.8587125941992
 31
0.0
  0
LINE
  5
52ED
330
1E
100
AcDbEntity
  8
躯体と製品
  6
Continuous
 62
     4
100
AcDbLine
 10
36.62029273846639
 20
642.2337125941992
 30
0.0
 11
48.62029273846639
 21
643.1087125941992
 31
0.0
  0
LINE
  5
52EE
330
1E
100
AcDbEntity
  8
躯体と製品
  6
Continuous
 62
     4
100
AcDbLine
 10
46.62029273846639
 20
650.4837125941992
 30
0.0
 11
38.62029273846639
 21
650.4837125941992
 31
0.0
  0
LINE
  5
52EF
330
1E
100
AcDbEntity
  8
躯体と製品
  6
Continuous
 62
     4
100
AcDbLine
 10
37.19172273846635
 20
650.4837125941992
 30
0.0
 11
37.62029273846639
 21
650.1087125941992
 31
0.0
  0
LINE
  5
52F0
330
1E
100
AcDbEntity
  8
躯体と製品
  6
Continuous
 62
     4
100
AcDbLine
 10
36.62029273846639
 20
649.2337125941992
 30
0.0
 11
37.62029273846639
 21
648.3587125941992
 31
0.0
  0
LINE
  5
52F1
330
1E
100
AcDbEntity
  8
躯体と製品
  6
Continuous
 62
     4
100
AcDbLine
 10
36.62029273846639
 20
649.2337125941992
 30
0.0
 11
37.62029273846639
 21
650.1087125941992
 31
0.0
  0
LINE
  5
52F2
330
1E
100
AcDbEntity
  8
躯体と製品
  6
Continuous
 62
     4
100
AcDbLine
 10
36.62029273846639
 20
647.4837125941992
 30
0.0
 11
37.62029273846639
 21
646.6087125941992
 31
0.0
  0
LINE
  5
52F3
330
1E
100
AcDbEntity
  8
躯体と製品
  6
Continuous
 62
     4
100
AcDbLine
 10
36.62029273846639
 20
647.4837125941992
 30
0.0
 11
37.62029273846639
 21
648.3587125941992
 31
0.0
  0
LINE
  5
52F4
330
1E
100
AcDbEntity
  8
躯体と製品
  6
Continuous
 62
     4
100
AcDbLine
 10
36.62029273846639
 20
645.7337125941992
 30
0.0
 11
37.62029273846639
 21
644.8587125941992
 31
0.0
  0
LINE
  5
52F5
330
1E
100
AcDbEntity
  8
躯体と製品
  6
Continuous
 62
     4
100
AcDbLine
 10
36.62029273846639
 20
645.7337125941992
 30
0.0
 11
37.62029273846639
 21
646.6087125941992
 31
0.0
  0
LINE
  5
52F6
330
1E
100
AcDbEntity
  8
躯体と製品
  6
Continuous
 62
     4
100
AcDbLine
 10
36.62029273846639
 20
643.9837125941992
 30
0.0
 11
37.62029273846639
 21
643.1087125941992
 31
0.0
  0
LINE
  5
52F7
330
1E
100
AcDbEntity
  8
躯体と製品
  6
Continuous
 62
     4
100
AcDbLine
 10
36.62029273846639
 20
643.9837125941992
 30
0.0
 11
37.62029273846639
 21
644.8587125941992
 31
0.0
  0
LINE
  5
52F8
330
1E
100
AcDbEntity
  8
躯体と製品
  6
Continuous
 62
     4
100
AcDbLine
 10
36.62029273846639
 20
642.2337125941992
 30
0.0
 11
37.62029273846639
 21
643.1087125941992
 31
0.0
  0
ARC
  5
52F9
330
1E
100
AcDbEntity
  8
躯体と製品
  6
Continuous
 62
     2
100
AcDbCircle
 10
38.62029273846639
 20
652.4837125941992
 30
0.0
 40
2.0
100
AcDbArc
 50
180.0
 51
270.0
  0
ARC
  5
52FA
330
1E
100
AcDbEntity
  8
躯体と製品
  6
Continuous
 62
     2
100
AcDbCircle
 10
34.62029273846638
 20
652.4837125941992
 30
0.0
 40
2.0
100
AcDbArc
 50
270.0
 51
0.0
  0
LINE
  5
52FB
330
1E
100
AcDbEntity
  8
躯体と製品
  6
Continuous
 62
     2
100
AcDbLine
 10
34.62029273846638
 20
650.4837125941992
 30
0.0
 11
33.32029273846638
 21
650.4837125941992
 31
0.0
  0
LINE
  5
52FC
330
1E
100
AcDbEntity
  8
躯体と製品
  6
Continuous
 62
     4
100
AcDbLine
 10
48.62029273846639
 20
650.1087125941992
 30
0.0
 11
48.19172273846636
 21
650.4837125941992
 31
0.0
  0
LINE
  5
52FD
330
1E
100
AcDbEntity
  8
躯体と製品
  6
Continuous
 62
     4
100
AcDbLine
 10
47.62029273846638
 20
649.2337125941992
 30
0.0
 11
48.62029273846639
 21
650.1087125941992
 31
0.0
  0
LINE
  5
52FE
330
1E
100
AcDbEntity
  8
躯体と製品
  6
Continuous
 62
     4
100
AcDbLine
 10
47.62029273846638
 20
647.4837125941992
 30
0.0
 11
48.62029273846639
 21
648.3587125941992
 31
0.0
  0
LINE
  5
52FF
330
1E
100
AcDbEntity
  8
躯体と製品
  6
Continuous
 62
     4
100
AcDbLine
 10
48.62029273846639
 20
648.3587125941992
 30
0.0
 11
47.62029273846638
 21
649.2337125941992
 31
0.0
  0
LINE
  5
5300
330
1E
100
AcDbEntity
  8
躯体と製品
  6
Continuous
 62
     4
100
AcDbLine
 10
47.62029273846638
 20
645.7337125941992
 30
0.0
 11
48.62029273846639
 21
646.6087125941992
 31
0.0
  0
LINE
  5
5301
330
1E
100
AcDbEntity
  8
躯体と製品
  6
Continuous
 62
     4
100
AcDbLine
 10
48.62029273846639
 20
646.6087125941992
 30
0.0
 11
47.62029273846638
 21
647.4837125941992
 31
0.0
  0
LINE
  5
5302
330
1E
100
AcDbEntity
  8
躯体と製品
  6
Continuous
 62
     4
100
AcDbLine
 10
47.62029273846638
 20
643.9837125941992
 30
0.0
 11
48.62029273846639
 21
644.8587125941992
 31
0.0
  0
LINE
  5
5303
330
1E
100
AcDbEntity
  8
躯体と製品
  6
Continuous
 62
     4
100
AcDbLine
 10
48.62029273846639
 20
644.8587125941992
 30
0.0
 11
47.62029273846638
 21
645.7337125941992
 31
0.0
  0
LINE
  5
5304
330
1E
100
AcDbEntity
  8
躯体と製品
  6
Continuous
 62
     4
100
AcDbLine
 10
47.62029273846638
 20
642.2337125941992
 30
0.0
 11
48.62029273846639
 21
643.1087125941992
 31
0.0
  0
LINE
  5
5305
330
1E
100
AcDbEntity
  8
躯体と製品
  6
Continuous
 62
     4
100
AcDbLine
 10
48.62029273846639
 20
643.1087125941992
 30
0.0
 11
47.62029273846638
 21
643.9837125941992
 31
0.0
  0
LINE
  5
5306
330
1E
100
AcDbEntity
  8
躯体と製品
  6
Continuous
 62
     2
100
AcDbLine
 10
42.62029273846638
 20
660.9837125941992
 30
0.0
 11
40.92834273846636
 21
662.9142725941992
 31
0.0
  0
LINE
  5
5307
330
1E
100
AcDbEntity
  8
躯体と製品
  6
Continuous
 62
     2
100
AcDbLine
 10
42.62029273846638
 20
662.9142725941992
 30
0.0
 11
44.31225273846638
 21
660.9837125941992
 31
0.0
  0
LINE
  5
5308
330
1E
100
AcDbEntity
  8
躯体と製品
  6
Continuous
 62
     2
100
AcDbLine
 10
53.4202927384664
 20
651.9837125941992
 30
0.0
 11
53.4202927384664
 21
662.9142725941992
 31
0.0
  0
LINE
  5
5309
330
1E
100
AcDbEntity
  8
躯体と製品
  6
Continuous
 62
     2
100
AcDbLine
 10
50.62029273846639
 20
650.4837125941992
 30
0.0
 11
51.9202927384664
 21
650.4837125941992
 31
0.0
  0
ARC
  5
530A
330
1E
100
AcDbEntity
  8
躯体と製品
  6
Continuous
 62
     2
100
AcDbCircle
 10
51.9202927384664
 20
651.9837125941992
 30
0.0
 40
1.5
100
AcDbArc
 50
270.0
 51
0.0
  0
LINE
  5
530B
330
1E
100
AcDbEntity
  8
躯体と製品
  6
Continuous
 62
     2
100
AcDbLine
 10
33.12029273846639
 20
697.9142725941992
 30
0.0
 11
34.62029273846638
 21
682.9142725941992
 31
0.0
  0
LINE
  5
530C
330
1E
100
AcDbEntity
  8
躯体と製品
  6
Continuous
 62
     2
100
AcDbLine
 10
37.89883273846641
 20
696.2430625941992
 30
0.0
 11
39.77213273846638
 21
685.0032725941992
 31
0.0
  0
LINE
  5
530D
330
1E
100
AcDbEntity
  8
躯体と製品
  6
Continuous
 62
     2
100
AcDbLine
 10
52.12029273846638
 20
697.9142725941992
 30
0.0
 11
50.62029273846639
 21
682.9142725941992
 31
0.0
  0
LINE
  5
530E
330
1E
100
AcDbEntity
  8
躯体と製品
  6
Continuous
 62
     2
100
AcDbLine
 10
47.3417627384664
 20
696.2430625941992
 30
0.0
 11
45.46846273846642
 21
685.0032725941992
 31
0.0
  0
LINE
  5
530F
330
1E
100
AcDbEntity
  8
躯体と製品
  6
Continuous
 62
     2
100
AcDbLine
 10
52.12029273846638
 20
697.9142725941992
 30
0.0
 11
50.62029273846639
 21
682.9142725941992
 31
0.0
  0
LINE
  5
5310
330
1E
100
AcDbEntity
  8
躯体と製品
  6
Continuous
 62
     2
100
AcDbLine
 10
33.12029273846639
 20
697.9142725941992
 30
0.0
 11
34.62029273846638
 21
682.9142725941992
 31
0.0
  0
LINE
  5
5311
330
1E
100
AcDbEntity
  8
躯体と製品
  6
Continuous
 62
     2
100
AcDbLine
 10
49.16920273846642
 20
682.9142725941992
 30
0.0
 11
35.82131273846641
 21
682.9142725941992
 31
0.0
  0
ARC
  5
5312
330
1E
100
AcDbEntity
  8
躯体と製品
  6
Continuous
 62
     2
100
AcDbCircle
 10
42.23811273846644
 20
685.4142725941992
 30
0.0
 40
2.5
100
AcDbArc
 50
189.4623199999997
 51
270.0
  0
LINE
  5
5313
330
1E
100
AcDbEntity
  8
躯体と製品
  6
Continuous
 62
     2
100
AcDbLine
 10
42.23811273846644
 20
682.9142725941992
 30
0.0
 11
43.00247273846639
 21
682.9142725941992
 31
0.0
  0
ARC
  5
5314
330
1E
100
AcDbEntity
  8
躯体と製品
  6
Continuous
 62
     2
100
AcDbCircle
 10
43.00247273846639
 20
685.4142725941992
 30
0.0
 40
2.5
100
AcDbArc
 50
270.0
 51
350.5376699999982
  0
ARC
  5
5315
330
1E
100
AcDbEntity
  8
躯体と製品
  6
Continuous
 62
     2
100
AcDbCircle
 10
49.31455273846643
 20
695.9142725941992
 30
0.0
 40
2.0
100
AcDbArc
 50
90.0
 51
170.5376699999982
  0
ARC
  5
5316
330
1E
100
AcDbEntity
  8
躯体と製品
  6
Continuous
 62
     2
100
AcDbCircle
 10
35.33027273846636
 20
695.9142725941992
 30
0.0
 40
2.0
100
AcDbArc
 50
90.0
 51
185.7105899999974
  0
LINE
  5
5317
330
1E
100
AcDbEntity
  8
躯体と製品
  6
Continuous
 62
     2
100
AcDbLine
 10
35.33027273846636
 20
697.9142725941992
 30
0.0
 11
35.92604273846637
 21
697.9142725941992
 31
0.0
  0
ARC
  5
5318
330
1E
100
AcDbEntity
  8
躯体と製品
  6
Continuous
 62
     2
100
AcDbCircle
 10
35.92604273846637
 20
695.9142725941992
 30
0.0
 40
2.0
100
AcDbArc
 50
9.462322199997528
 51
90.0
  0
LINE
  5
5319
330
1E
100
AcDbEntity
  8
躯体と製品
  6
Continuous
 62
     2
100
AcDbLine
 10
49.91032273846639
 20
697.9142725941992
 30
0.0
 11
49.31455273846643
 21
697.9142725941992
 31
0.0
  0
ARC
  5
531A
330
1E
100
AcDbEntity
  8
躯体と製品
  6
Continuous
 62
     2
100
AcDbCircle
 10
49.91032273846639
 20
695.9142725941992
 30
0.0
 40
2.0
100
AcDbArc
 50
354.2894000000018
 51
90.0
  0
LINE
  5
531B
330
1E
100
AcDbEntity
  8
文字-記号
  6
Continuous
 62
     7
100
AcDbLine
 10
57.2364627384664
 20
759.7775325941992
 30
0.0
 11
59.35778273846636
 21
761.8988525941992
 31
0.0
  0
LINE
  5
531C
330
1E
100
AcDbEntity
  8
文字-記号
  6
Continuous
 62
     7
100
AcDbLine
 10
57.2364627384664
 20
759.7775325941992
 30
0.0
 11
58.01292273846638
 21
762.6753125941992
 31
0.0
  0
LINE
  5
5321
330
1E
100
AcDbEntity
  8
文字-記号
  6
Continuous
 62
     7
100
AcDbLine
 10
61.19638273846641
 20
926.3590725941993
 30
0.0
 11
68.53904273846637
 21
926.3590725941993
 31
0.0
  0
LINE
  5
5322
330
1E
100
AcDbEntity
  8
文字-記号
  6
Continuous
 62
     7
100
AcDbLine
 10
61.4277027384664
 20
946.3698025941992
 30
0.0
 11
69.21096273846643
 21
975.4173325941993
 31
0.0
  0
LINE
  5
5323
330
1E
100
AcDbEntity
  8
躯体と製品
  6
Continuous
 62
     2
100
AcDbLine
 10
-2.37970726153361
 20
939.8448225941992
 30
0.0
 11
87.62029273846639
 21
939.8448225941992
 31
0.0
  0
LINE
  5
5324
330
1E
100
AcDbEntity
  8
躯体と製品
  6
Continuous
 62
     2
100
AcDbLine
 10
-2.37970726153361
 20
943.1448225941991
 30
0.0
 11
87.62029273846639
 21
943.1448225941991
 31
0.0
  0
LINE
  5
5325
330
1E
100
AcDbEntity
  8
躯体と製品
  6
Continuous
 62
     2
100
AcDbLine
 10
-2.37970726153361
 20
942.1448225941992
 30
0.0
 11
87.62029273846639
 21
942.1448225941992
 31
0.0
  0
LINE
  5
5326
330
1E
100
AcDbEntity
  8
躯体と製品
  6
Continuous
 62
     2
100
AcDbLine
 10
61.62029273846639
 20
939.8448225941992
 30
0.0
 11
75.79861273846643
 21
939.8448225941992
 31
0.0
  0
LINE
  5
5327
330
1E
100
AcDbEntity
  8
躯体と製品
  6
Continuous
 62
     2
100
AcDbLine
 10
75.51534273846641
 20
942.1448225941992
 30
0.0
 11
60.94478273846641
 21
942.1448225941992
 31
0.0
  0
LINE
  5
5328
330
1E
100
AcDbEntity
  8
躯体と製品
  6
Continuous
 62
     2
100
AcDbLine
 10
36.62029273846639
 20
903.3448225941992
 30
0.0
 11
36.62029273846639
 21
894.8448225941991
 31
0.0
  0
LINE
  5
5329
330
1E
100
AcDbEntity
  8
躯体と製品
  6
Continuous
 62
     2
100
AcDbLine
 10
48.62029273846639
 20
903.3448225941992
 30
0.0
 11
48.62029273846639
 21
894.8448225941991
 31
0.0
  0
LINE
  5
532A
330
1E
100
AcDbEntity
  8
躯体と製品
  6
Continuous
 62
     2
100
AcDbLine
 10
53.4202927384664
 20
903.8448225941991
 30
0.0
 11
53.4202927384664
 21
892.9142725941993
 31
0.0
  0
LINE
  5
532B
330
1E
100
AcDbEntity
  8
躯体と製品
  6
Continuous
 62
     2
100
AcDbLine
 10
31.8202927384664
 20
903.8448225941991
 30
0.0
 11
31.8202927384664
 21
892.9142725941993
 31
0.0
  0
LINE
  5
532C
330
1E
100
AcDbEntity
  8
躯体と製品
  6
Continuous
 62
     2
100
AcDbLine
 10
31.8202927384664
 20
894.8448225941991
 30
0.0
 11
53.4202927384664
 21
894.8448225941991
 31
0.0
  0
LINE
  5
532D
330
1E
100
AcDbEntity
  8
躯体と製品
  6
Continuous
 62
     2
100
AcDbLine
 10
53.4202927384664
 20
892.9142725941993
 30
0.0
 11
31.8202927384664
 21
892.9142725941993
 31
0.0
  0
LINE
  5
532E
330
1E
100
AcDbEntity
  8
躯体と製品
  6
Continuous
 62
     2
100
AcDbLine
 10
34.62029273846638
 20
872.9142725941992
 30
0.0
 11
34.62029273846638
 21
892.9142725941993
 31
0.0
  0
LINE
  5
532F
330
1E
100
AcDbEntity
  8
躯体と製品
  6
Continuous
 62
     2
100
AcDbLine
 10
50.62029273846639
 20
872.9142725941992
 30
0.0
 11
50.62029273846639
 21
892.9142725941993
 31
0.0
  0
LINE
  5
5330
330
1E
100
AcDbEntity
  8
躯体と製品
  6
Continuous
 62
     2
100
AcDbLine
 10
49.1738727384664
 20
872.9142725941992
 30
0.0
 11
35.94934273846638
 21
872.9142725941992
 31
0.0
  0
ARC
  5
5331
330
1E
100
AcDbEntity
  8
躯体と製品
  6
Continuous
 62
     2
100
AcDbCircle
 10
49.31455273846643
 20
859.9142725941993
 30
0.0
 40
2.0
100
AcDbArc
 50
189.4623199999997
 51
270.0
  0
LINE
  5
5332
330
1E
100
AcDbEntity
  8
躯体と製品
  6
Continuous
 62
     2
100
AcDbLine
 10
33.12029273846639
 20
857.9142725941991
 30
0.0
 11
34.62029273846638
 21
872.9142725941992
 31
0.0
  0
LINE
  5
5333
330
1E
100
AcDbEntity
  8
躯体と製品
  6
Continuous
 62
     2
100
AcDbLine
 10
37.89883273846641
 20
859.5854725941991
 30
0.0
 11
39.77213273846638
 21
870.8252625941993
 31
0.0
  0
LINE
  5
5334
330
1E
100
AcDbEntity
  8
躯体と製品
  6
Continuous
 62
     2
100
AcDbLine
 10
47.3417627384664
 20
859.5854725941991
 30
0.0
 11
45.46846273846642
 21
870.8252625941993
 31
0.0
  0
ARC
  5
5335
330
1E
100
AcDbEntity
  8
躯体と製品
  6
Continuous
 62
     2
100
AcDbCircle
 10
35.33027273846636
 20
859.9142725941993
 30
0.0
 40
2.0
100
AcDbArc
 50
174.2894000000018
 51
270.0
  0
LINE
  5
5336
330
1E
100
AcDbEntity
  8
躯体と製品
  6
Continuous
 62
     2
100
AcDbLine
 10
35.33027273846636
 20
857.9142725941991
 30
0.0
 11
35.92604273846637
 21
857.9142725941991
 31
0.0
  0
ARC
  5
5337
330
1E
100
AcDbEntity
  8
躯体と製品
  6
Continuous
 62
     2
100
AcDbCircle
 10
35.92604273846637
 20
859.9142725941993
 30
0.0
 40
2.0
100
AcDbArc
 50
270.0
 51
350.5376699999982
  0
ARC
  5
5338
330
1E
100
AcDbEntity
  8
躯体と製品
  6
Continuous
 62
     2
100
AcDbCircle
 10
42.23811273846644
 20
870.4142725941991
 30
0.0
 40
2.5
100
AcDbArc
 50
90.0
 51
170.5376699999982
  0
LINE
  5
5339
330
1E
100
AcDbEntity
  8
躯体と製品
  6
Continuous
 62
     2
100
AcDbLine
 10
42.23811273846644
 20
872.9142725941992
 30
0.0
 11
43.00247273846639
 21
872.9142725941992
 31
0.0
  0
ARC
  5
533A
330
1E
100
AcDbEntity
  8
躯体と製品
  6
Continuous
 62
     2
100
AcDbCircle
 10
43.00247273846639
 20
870.4142725941991
 30
0.0
 40
2.5
100
AcDbArc
 50
9.462322199997528
 51
90.0
  0
LINE
  5
533B
330
1E
100
AcDbEntity
  8
躯体と製品
  6
Continuous
 62
     2
100
AcDbLine
 10
52.12029273846638
 20
857.9142725941991
 30
0.0
 11
50.62029273846639
 21
872.9142725941992
 31
0.0
  0
LINE
  5
533C
330
1E
100
AcDbEntity
  8
躯体と製品
  6
Continuous
 62
     2
100
AcDbLine
 10
49.91032273846639
 20
857.9142725941991
 30
0.0
 11
49.31455273846643
 21
857.9142725941991
 31
0.0
  0
ARC
  5
533D
330
1E
100
AcDbEntity
  8
躯体と製品
  6
Continuous
 62
     2
100
AcDbCircle
 10
49.91032273846639
 20
859.9142725941993
 30
0.0
 40
2.0
100
AcDbArc
 50
270.0
 51
5.710593100000325
  0
LINE
  5
533E
330
1E
100
AcDbEntity
  8
躯体と製品
  6
Continuous
 62
     2
100
AcDbLine
 10
42.62029273846638
 20
894.8448225941991
 30
0.0
 11
40.92834273846636
 21
892.9142725941993
 31
0.0
  0
LINE
  5
533F
330
1E
100
AcDbEntity
  8
躯体と製品
  6
Continuous
 62
     2
100
AcDbLine
 10
42.62029273846638
 20
892.9142725941993
 30
0.0
 11
44.31225273846638
 21
894.8448225941991
 31
0.0
  0
LINE
  5
5340
330
1E
100
AcDbEntity
  8
文字-記号
  6
Continuous
 62
     7
100
AcDbLine
 10
2.933642738466403
 20
901.9342425941992
 30
0.0
 11
-14.19377726153359
 21
901.9342425941992
 31
0.0
  0
TEXT
  5
5341
330
1E
100
AcDbEntity
  8
文字-記号
 62
     4
100
AcDbText
 10
-56.64673726153361
 20
898.410802594199
 30
0.0
 40
5.0
  1
大引受け金具
 41
0.8
  7
ACAD
100
AcDbText
  0
LINE
  5
5342
330
1E
100
AcDbEntity
  8
躯体と製品
  6
Continuous
 62
     2
100
AcDbLine
 10
-2.37970726153361
 20
943.1448225941991
 30
0.0
 11
-2.37970726153361
 21
939.8448225941992
 31
0.0
  0
ARC
  5
5343
330
1E
100
AcDbEntity
  8
躯体と製品
  6
Continuous
 62
     2
100
AcDbCircle
 10
33.5573127384664
 20
945.3448225941992
 30
0.0
 40
10.0
100
AcDbArc
 50
237.2647700000007
 51
270.0
  0
ARC
  5
5344
330
1E
100
AcDbEntity
  8
躯体と製品
  6
Continuous
 62
     2
100
AcDbCircle
 10
33.32029273846638
 20
903.8448225941991
 30
0.0
 40
1.5
100
AcDbArc
 50
90.0
 51
180.0
  0
LINE
  5
5345
330
1E
100
AcDbEntity
  8
文字-記号
  6
Continuous
 62
     7
100
AcDbLine
 10
12.77288273846639
 20
938.6548125941992
 30
0.0
 11
2.933642738466403
 21
901.9342425941992
 31
0.0
  0
LINE
  5
5346
330
1E
100
AcDbEntity
  8
躯体と製品
  6
Continuous
 62
     2
100
AcDbLine
 10
3.938292738466401
 20
939.8448225941992
 30
0.0
 11
12.43977273846638
 21
939.8448225941992
 31
0.0
  0
LINE
  5
5347
330
1E
100
AcDbEntity
  8
文字-記号
  6
Continuous
 62
     7
100
AcDbLine
 10
12.77288273846639
 20
938.6548125941992
 30
0.0
 11
11.27288273846639
 21
936.0567325941993
 31
0.0
  0
LINE
  5
5348
330
1E
100
AcDbEntity
  8
文字-記号
  6
Continuous
 62
     7
100
AcDbLine
 10
12.77288273846639
 20
938.6548125941992
 30
0.0
 11
12.77288273846639
 21
935.6548125941992
 31
0.0
  0
LINE
  5
5349
330
1E
100
AcDbEntity
  8
躯体と製品
  6
Continuous
 62
     2
100
AcDbLine
 10
28.14974273846639
 20
936.9330425941992
 30
0.0
 11
23.62029273846638
 21
939.8448225941992
 31
0.0
  0
LINE
  5
534A
330
1E
100
AcDbEntity
  8
文字-記号
  6
Continuous
 62
     7
100
AcDbLine
 10
52.48706273846642
 20
911.2740825941992
 30
0.0
 11
61.19638273846641
 21
926.3590725941993
 31
0.0
  0
LINE
  5
534B
330
1E
100
AcDbEntity
  8
躯体と製品
  6
Continuous
 62
     4
100
AcDbLine
 10
37.62029273846639
 20
921.4698225941992
 30
0.0
 11
47.62029273846638
 21
920.5948225941991
 31
0.0
  0
LINE
  5
534C
330
1E
100
AcDbEntity
  8
躯体と製品
  6
Continuous
 62
     4
100
AcDbLine
 10
36.62029273846639
 20
920.5948225941991
 30
0.0
 11
37.62029273846639
 21
921.4698225941992
 31
0.0
  0
LINE
  5
534D
330
1E
100
AcDbEntity
  8
躯体と製品
  6
Continuous
 62
     4
100
AcDbLine
 10
48.62029273846639
 20
921.4698225941992
 30
0.0
 11
47.62029273846638
 21
920.5948225941991
 31
0.0
  0
LINE
  5
534E
330
1E
100
AcDbEntity
  8
躯体と製品
  6
Continuous
 62
     2
100
AcDbLine
 10
34.62029273846638
 20
905.3448225941991
 30
0.0
 11
50.62029273846639
 21
905.3448225941991
 31
0.0
  0
ARC
  5
534F
330
1E
100
AcDbEntity
  8
躯体と製品
  6
Continuous
 62
     2
100
AcDbCircle
 10
46.62029273846639
 20
903.3448225941992
 30
0.0
 40
2.0
100
AcDbArc
 50
0.0
 51
90.0
  0
ARC
  5
5350
330
1E
100
AcDbEntity
  8
躯体と製品
  6
Continuous
 62
     2
100
AcDbCircle
 10
50.62029273846639
 20
903.3448225941992
 30
0.0
 40
2.0
100
AcDbArc
 50
90.0
 51
180.0
  0
LINE
  5
5351
330
1E
100
AcDbEntity
  8
躯体と製品
  6
Continuous
 62
     4
100
AcDbLine
 10
37.62029273846639
 20
909.2198225941992
 30
0.0
 11
47.62029273846638
 21
908.3448225941991
 31
0.0
  0
LINE
  5
5352
330
1E
100
AcDbEntity
  8
躯体と製品
  6
Continuous
 62
     4
100
AcDbLine
 10
36.62029273846639
 20
908.3448225941991
 30
0.0
 11
37.62029273846639
 21
909.2198225941992
 31
0.0
  0
LINE
  5
5353
330
1E
100
AcDbEntity
  8
躯体と製品
  6
Continuous
 62
     4
100
AcDbLine
 10
48.62029273846639
 20
909.2198225941992
 30
0.0
 11
47.62029273846638
 21
908.3448225941991
 31
0.0
  0
LINE
  5
5354
330
1E
100
AcDbEntity
  8
躯体と製品
  6
Continuous
 62
     4
100
AcDbLine
 10
37.62029273846639
 20
905.7198225941991
 30
0.0
 11
41.90601273846641
 21
905.3448225941991
 31
0.0
  0
LINE
  5
5355
330
1E
100
AcDbEntity
  8
躯体と製品
  6
Continuous
 62
     4
100
AcDbLine
 10
37.62029273846639
 20
907.4698225941991
 30
0.0
 11
47.62029273846638
 21
906.5948225941992
 31
0.0
  0
LINE
  5
5356
330
1E
100
AcDbEntity
  8
躯体と製品
  6
Continuous
 62
     4
100
AcDbLine
 10
36.62029273846639
 20
906.5948225941992
 30
0.0
 11
48.62029273846639
 21
905.7198225941991
 31
0.0
  0
LINE
  5
5357
330
1E
100
AcDbEntity
  8
躯体と製品
  6
Continuous
 62
     4
100
AcDbLine
 10
36.62029273846639
 20
908.3448225941991
 30
0.0
 11
48.62029273846639
 21
907.4698225941991
 31
0.0
  0
LINE
  5
5358
330
1E
100
AcDbEntity
  8
躯体と製品
  6
Continuous
 62
     4
100
AcDbLine
 10
46.62029273846639
 20
905.3448225941991
 30
0.0
 11
38.62029273846639
 21
905.3448225941991
 31
0.0
  0
LINE
  5
5359
330
1E
100
AcDbEntity
  8
躯体と製品
  6
Continuous
 62
     2
100
AcDbLine
 10
46.62029273846639
 20
905.3448225941991
 30
0.0
 11
38.62029273846639
 21
905.3448225941991
 31
0.0
  0
LINE
  5
535A
330
1E
100
AcDbEntity
  8
躯体と製品
  6
Continuous
 62
     4
100
AcDbLine
 10
37.19172273846635
 20
905.3448225941991
 30
0.0
 11
37.62029273846639
 21
905.7198225941991
 31
0.0
  0
LINE
  5
535B
330
1E
100
AcDbEntity
  8
躯体と製品
  6
Continuous
 62
     4
100
AcDbLine
 10
36.62029273846639
 20
906.5948225941992
 30
0.0
 11
37.62029273846639
 21
907.4698225941991
 31
0.0
  0
LINE
  5
535C
330
1E
100
AcDbEntity
  8
躯体と製品
  6
Continuous
 62
     4
100
AcDbLine
 10
36.62029273846639
 20
906.5948225941992
 30
0.0
 11
37.62029273846639
 21
905.7198225941991
 31
0.0
  0
LINE
  5
535D
330
1E
100
AcDbEntity
  8
躯体と製品
  6
Continuous
 62
     4
100
AcDbLine
 10
36.62029273846639
 20
908.3448225941991
 30
0.0
 11
37.62029273846639
 21
907.4698225941991
 31
0.0
  0
ARC
  5
535E
330
1E
100
AcDbEntity
  8
躯体と製品
  6
Continuous
 62
     2
100
AcDbCircle
 10
38.62029273846639
 20
903.3448225941992
 30
0.0
 40
2.0
100
AcDbArc
 50
90.0
 51
180.0
  0
ARC
  5
535F
330
1E
100
AcDbEntity
  8
躯体と製品
  6
Continuous
 62
     2
100
AcDbCircle
 10
34.62029273846638
 20
903.3448225941992
 30
0.0
 40
2.0
100
AcDbArc
 50
0.0
 51
90.0
  0
LINE
  5
5360
330
1E
100
AcDbEntity
  8
躯体と製品
  6
Continuous
 62
     2
100
AcDbLine
 10
34.62029273846638
 20
905.3448225941991
 30
0.0
 11
33.32029273846638
 21
905.3448225941991
 31
0.0
  0
LINE
  5
5361
330
1E
100
AcDbEntity
  8
躯体と製品
  6
Continuous
 62
     4
100
AcDbLine
 10
48.62029273846639
 20
905.7198225941991
 30
0.0
 11
48.19172273846636
 21
905.3448225941991
 31
0.0
  0
LINE
  5
5362
330
1E
100
AcDbEntity
  8
躯体と製品
  6
Continuous
 62
     4
100
AcDbLine
 10
47.62029273846638
 20
906.5948225941992
 30
0.0
 11
48.62029273846639
 21
905.7198225941991
 31
0.0
  0
LINE
  5
5363
330
1E
100
AcDbEntity
  8
躯体と製品
  6
Continuous
 62
     4
100
AcDbLine
 10
47.62029273846638
 20
908.3448225941991
 30
0.0
 11
48.62029273846639
 21
907.4698225941991
 31
0.0
  0
LINE
  5
5364
330
1E
100
AcDbEntity
  8
躯体と製品
  6
Continuous
 62
     4
100
AcDbLine
 10
48.62029273846639
 20
907.4698225941991
 30
0.0
 11
47.62029273846638
 21
906.5948225941992
 31
0.0
  0
LINE
  5
5365
330
1E
100
AcDbEntity
  8
躯体と製品
  6
Continuous
 62
     4
100
AcDbLine
 10
37.62029273846639
 20
910.9698225941992
 30
0.0
 11
47.62029273846638
 21
910.0948225941991
 31
0.0
  0
LINE
  5
5366
330
1E
100
AcDbEntity
  8
躯体と製品
  6
Continuous
 62
     4
100
AcDbLine
 10
36.62029273846639
 20
910.0948225941991
 30
0.0
 11
48.62029273846639
 21
909.2198225941992
 31
0.0
  0
LINE
  5
5367
330
1E
100
AcDbEntity
  8
躯体と製品
  6
Continuous
 62
     4
100
AcDbLine
 10
37.62029273846639
 20
912.7198225941992
 30
0.0
 11
47.62029273846638
 21
911.8448225941991
 31
0.0
  0
LINE
  5
5368
330
1E
100
AcDbEntity
  8
躯体と製品
  6
Continuous
 62
     4
100
AcDbLine
 10
36.62029273846639
 20
911.8448225941991
 30
0.0
 11
48.62029273846639
 21
910.9698225941992
 31
0.0
  0
LINE
  5
5369
330
1E
100
AcDbEntity
  8
躯体と製品
  6
Continuous
 62
     4
100
AcDbLine
 10
37.62029273846639
 20
914.4698225941992
 30
0.0
 11
47.62029273846638
 21
913.5948225941991
 31
0.0
  0
LINE
  5
536A
330
1E
100
AcDbEntity
  8
躯体と製品
  6
Continuous
 62
     4
100
AcDbLine
 10
36.62029273846639
 20
913.5948225941991
 30
0.0
 11
48.62029273846639
 21
912.7198225941992
 31
0.0
  0
LINE
  5
536B
330
1E
100
AcDbEntity
  8
躯体と製品
  6
Continuous
 62
     4
100
AcDbLine
 10
37.62029273846639
 20
916.2198225941992
 30
0.0
 11
47.62029273846638
 21
915.3448225941991
 31
0.0
  0
LINE
  5
536C
330
1E
100
AcDbEntity
  8
躯体と製品
  6
Continuous
 62
     4
100
AcDbLine
 10
36.62029273846639
 20
915.3448225941991
 30
0.0
 11
48.62029273846639
 21
914.4698225941992
 31
0.0
  0
LINE
  5
536D
330
1E
100
AcDbEntity
  8
躯体と製品
  6
Continuous
 62
     4
100
AcDbLine
 10
37.62029273846639
 20
917.9698225941992
 30
0.0
 11
47.62029273846638
 21
917.0948225941991
 31
0.0
  0
LINE
  5
536E
330
1E
100
AcDbEntity
  8
躯体と製品
  6
Continuous
 62
     4
100
AcDbLine
 10
36.62029273846639
 20
917.0948225941991
 30
0.0
 11
48.62029273846639
 21
916.2198225941992
 31
0.0
  0
LINE
  5
536F
330
1E
100
AcDbEntity
  8
躯体と製品
  6
Continuous
 62
     4
100
AcDbLine
 10
37.62029273846639
 20
919.7198225941992
 30
0.0
 11
47.62029273846638
 21
918.8448225941991
 31
0.0
  0
LINE
  5
5370
330
1E
100
AcDbEntity
  8
躯体と製品
  6
Continuous
 62
     4
100
AcDbLine
 10
36.62029273846639
 20
918.8448225941991
 30
0.0
 11
48.62029273846639
 21
917.9698225941992
 31
0.0
  0
LINE
  5
5371
330
1E
100
AcDbEntity
  8
躯体と製品
  6
Continuous
 62
     4
100
AcDbLine
 10
36.62029273846639
 20
920.5948225941991
 30
0.0
 11
48.62029273846639
 21
919.7198225941992
 31
0.0
  0
LINE
  5
5372
330
1E
100
AcDbEntity
  8
躯体と製品
  6
Continuous
 62
     4
100
AcDbLine
 10
36.62029273846639
 20
910.0948225941991
 30
0.0
 11
37.62029273846639
 21
910.9698225941992
 31
0.0
  0
LINE
  5
5373
330
1E
100
AcDbEntity
  8
躯体と製品
  6
Continuous
 62
     4
100
AcDbLine
 10
36.62029273846639
 20
910.0948225941991
 30
0.0
 11
37.62029273846639
 21
909.2198225941992
 31
0.0
  0
LINE
  5
5374
330
1E
100
AcDbEntity
  8
躯体と製品
  6
Continuous
 62
     4
100
AcDbLine
 10
36.62029273846639
 20
911.8448225941991
 30
0.0
 11
37.62029273846639
 21
912.7198225941992
 31
0.0
  0
LINE
  5
5375
330
1E
100
AcDbEntity
  8
躯体と製品
  6
Continuous
 62
     4
100
AcDbLine
 10
36.62029273846639
 20
911.8448225941991
 30
0.0
 11
37.62029273846639
 21
910.9698225941992
 31
0.0
  0
LINE
  5
5376
330
1E
100
AcDbEntity
  8
躯体と製品
  6
Continuous
 62
     4
100
AcDbLine
 10
36.62029273846639
 20
913.5948225941991
 30
0.0
 11
37.62029273846639
 21
914.4698225941992
 31
0.0
  0
LINE
  5
5377
330
1E
100
AcDbEntity
  8
躯体と製品
  6
Continuous
 62
     4
100
AcDbLine
 10
36.62029273846639
 20
913.5948225941991
 30
0.0
 11
37.62029273846639
 21
912.7198225941992
 31
0.0
  0
LINE
  5
5378
330
1E
100
AcDbEntity
  8
躯体と製品
  6
Continuous
 62
     4
100
AcDbLine
 10
36.62029273846639
 20
915.3448225941991
 30
0.0
 11
37.62029273846639
 21
916.2198225941992
 31
0.0
  0
LINE
  5
5379
330
1E
100
AcDbEntity
  8
躯体と製品
  6
Continuous
 62
     4
100
AcDbLine
 10
36.62029273846639
 20
915.3448225941991
 30
0.0
 11
37.62029273846639
 21
914.4698225941992
 31
0.0
  0
LINE
  5
537A
330
1E
100
AcDbEntity
  8
躯体と製品
  6
Continuous
 62
     4
100
AcDbLine
 10
36.62029273846639
 20
917.0948225941991
 30
0.0
 11
37.62029273846639
 21
917.9698225941992
 31
0.0
  0
LINE
  5
537B
330
1E
100
AcDbEntity
  8
躯体と製品
  6
Continuous
 62
     4
100
AcDbLine
 10
36.62029273846639
 20
917.0948225941991
 30
0.0
 11
37.62029273846639
 21
916.2198225941992
 31
0.0
  0
LINE
  5
537C
330
1E
100
AcDbEntity
  8
躯体と製品
  6
Continuous
 62
     4
100
AcDbLine
 10
36.62029273846639
 20
918.8448225941991
 30
0.0
 11
37.62029273846639
 21
919.7198225941992
 31
0.0
  0
LINE
  5
537D
330
1E
100
AcDbEntity
  8
躯体と製品
  6
Continuous
 62
     4
100
AcDbLine
 10
36.62029273846639
 20
918.8448225941991
 30
0.0
 11
37.62029273846639
 21
917.9698225941992
 31
0.0
  0
LINE
  5
537E
330
1E
100
AcDbEntity
  8
躯体と製品
  6
Continuous
 62
     4
100
AcDbLine
 10
36.62029273846639
 20
920.5948225941991
 30
0.0
 11
37.62029273846639
 21
919.7198225941992
 31
0.0
  0
LINE
  5
537F
330
1E
100
AcDbEntity
  8
躯体と製品
  6
Continuous
 62
     4
100
AcDbLine
 10
47.62029273846638
 20
910.0948225941991
 30
0.0
 11
48.62029273846639
 21
909.2198225941992
 31
0.0
  0
LINE
  5
5380
330
1E
100
AcDbEntity
  8
躯体と製品
  6
Continuous
 62
     4
100
AcDbLine
 10
47.62029273846638
 20
911.8448225941991
 30
0.0
 11
48.62029273846639
 21
910.9698225941992
 31
0.0
  0
LINE
  5
5381
330
1E
100
AcDbEntity
  8
躯体と製品
  6
Continuous
 62
     4
100
AcDbLine
 10
48.62029273846639
 20
910.9698225941992
 30
0.0
 11
47.62029273846638
 21
910.0948225941991
 31
0.0
  0
LINE
  5
5382
330
1E
100
AcDbEntity
  8
躯体と製品
  6
Continuous
 62
     4
100
AcDbLine
 10
47.62029273846638
 20
913.5948225941991
 30
0.0
 11
48.62029273846639
 21
912.7198225941992
 31
0.0
  0
LINE
  5
5383
330
1E
100
AcDbEntity
  8
躯体と製品
  6
Continuous
 62
     4
100
AcDbLine
 10
48.62029273846639
 20
912.7198225941992
 30
0.0
 11
47.62029273846638
 21
911.8448225941991
 31
0.0
  0
LINE
  5
5384
330
1E
100
AcDbEntity
  8
躯体と製品
  6
Continuous
 62
     4
100
AcDbLine
 10
47.62029273846638
 20
915.3448225941991
 30
0.0
 11
48.62029273846639
 21
914.4698225941992
 31
0.0
  0
LINE
  5
5385
330
1E
100
AcDbEntity
  8
躯体と製品
  6
Continuous
 62
     4
100
AcDbLine
 10
48.62029273846639
 20
914.4698225941992
 30
0.0
 11
47.62029273846638
 21
913.5948225941991
 31
0.0
  0
LINE
  5
5386
330
1E
100
AcDbEntity
  8
躯体と製品
  6
Continuous
 62
     4
100
AcDbLine
 10
47.62029273846638
 20
917.0948225941991
 30
0.0
 11
48.62029273846639
 21
916.2198225941992
 31
0.0
  0
LINE
  5
5387
330
1E
100
AcDbEntity
  8
躯体と製品
  6
Continuous
 62
     4
100
AcDbLine
 10
48.62029273846639
 20
916.2198225941992
 30
0.0
 11
47.62029273846638
 21
915.3448225941991
 31
0.0
  0
LINE
  5
5388
330
1E
100
AcDbEntity
  8
躯体と製品
  6
Continuous
 62
     4
100
AcDbLine
 10
47.62029273846638
 20
918.8448225941991
 30
0.0
 11
48.62029273846639
 21
917.9698225941992
 31
0.0
  0
LINE
  5
5389
330
1E
100
AcDbEntity
  8
躯体と製品
  6
Continuous
 62
     4
100
AcDbLine
 10
48.62029273846639
 20
917.9698225941992
 30
0.0
 11
47.62029273846638
 21
917.0948225941991
 31
0.0
  0
LINE
  5
538A
330
1E
100
AcDbEntity
  8
躯体と製品
  6
Continuous
 62
     4
100
AcDbLine
 10
47.62029273846638
 20
920.5948225941991
 30
0.0
 11
48.62029273846639
 21
919.7198225941992
 31
0.0
  0
LINE
  5
538B
330
1E
100
AcDbEntity
  8
躯体と製品
  6
Continuous
 62
     4
100
AcDbLine
 10
48.62029273846639
 20
919.7198225941992
 30
0.0
 11
47.62029273846638
 21
918.8448225941991
 31
0.0
  0
LINE
  5
538C
330
1E
100
AcDbEntity
  8
躯体と製品
  6
Continuous
 62
     2
100
AcDbLine
 10
50.62029273846639
 20
905.3448225941991
 30
0.0
 11
51.9202927384664
 21
905.3448225941991
 31
0.0
  0
ARC
  5
538D
330
1E
100
AcDbEntity
  8
躯体と製品
  6
Continuous
 62
     2
100
AcDbCircle
 10
51.9202927384664
 20
903.8448225941991
 30
0.0
 40
1.5
100
AcDbArc
 50
0.0
 51
90.0
  0
LINE
  5
538E
330
1E
100
AcDbEntity
  8
文字-記号
  6
Continuous
 62
     7
100
AcDbLine
 10
52.48706273846642
 20
911.2740825941992
 30
0.0
 11
54.60838273846639
 21
913.395402594199
 31
0.0
  0
LINE
  5
538F
330
1E
100
AcDbEntity
  8
文字-記号
  6
Continuous
 62
     7
100
AcDbLine
 10
52.48706273846642
 20
911.2740825941992
 30
0.0
 11
53.26351273846643
 21
914.1718525941993
 31
0.0
  0
LINE
  5
5390
330
1E
100
AcDbEntity
  8
躯体と製品
  6
Continuous
 62
     2
100
AcDbLine
 10
51.68327273846637
 20
935.3448225941992
 30
0.0
 11
33.5573127384664
 21
935.3448225941992
 31
0.0
  0
LINE
  5
5391
330
1E
100
AcDbEntity
  8
躯体と製品
  6
Continuous
 62
     2
100
AcDbLine
 10
50.12029273846639
 20
935.3448225941992
 30
0.0
 11
35.12029273846639
 21
935.3448225941992
 31
0.0
  0
LINE
  5
5392
330
1E
100
AcDbEntity
  8
躯体と製品
  6
Continuous
 62
     2
100
AcDbLine
 10
52.62029273846639
 20
942.1448225941992
 30
0.0
 11
32.62029273846639
 21
942.1448225941992
 31
0.0
  0
LINE
  5
5393
330
1E
100
AcDbEntity
  8
躯体と製品
  6
Continuous
 62
     4
100
AcDbLine
 10
47.62029273846638
 20
932.8448225941992
 30
0.0
 11
48.62029273846639
 21
931.9698225941991
 31
0.0
  0
LINE
  5
5394
330
1E
100
AcDbEntity
  8
躯体と製品
  6
Continuous
 62
     4
100
AcDbLine
 10
36.62029273846639
 20
932.8448225941992
 30
0.0
 11
48.62029273846639
 21
931.9698225941991
 31
0.0
  0
LINE
  5
5395
330
1E
100
AcDbEntity
  8
躯体と製品
  6
Continuous
 62
     4
100
AcDbLine
 10
36.62029273846639
 20
932.8448225941992
 30
0.0
 11
37.62029273846639
 21
931.9698225941991
 31
0.0
  0
LINE
  5
5396
330
1E
100
AcDbEntity
  8
躯体と製品
  6
Continuous
 62
     4
100
AcDbLine
 10
37.62029273846639
 20
923.2198225941992
 30
0.0
 11
47.62029273846638
 21
922.3448225941991
 31
0.0
  0
LINE
  5
5397
330
1E
100
AcDbEntity
  8
躯体と製品
  6
Continuous
 62
     4
100
AcDbLine
 10
36.62029273846639
 20
922.3448225941991
 30
0.0
 11
48.62029273846639
 21
921.4698225941992
 31
0.0
  0
LINE
  5
5398
330
1E
100
AcDbEntity
  8
躯体と製品
  6
Continuous
 62
     4
100
AcDbLine
 10
37.62029273846639
 20
924.9698225941992
 30
0.0
 11
47.62029273846638
 21
924.0948225941991
 31
0.0
  0
LINE
  5
5399
330
1E
100
AcDbEntity
  8
躯体と製品
  6
Continuous
 62
     4
100
AcDbLine
 10
36.62029273846639
 20
924.0948225941991
 30
0.0
 11
48.62029273846639
 21
923.2198225941992
 31
0.0
  0
LINE
  5
539A
330
1E
100
AcDbEntity
  8
躯体と製品
  6
Continuous
 62
     4
100
AcDbLine
 10
37.62029273846639
 20
926.7198225941992
 30
0.0
 11
47.62029273846638
 21
925.8448225941991
 31
0.0
  0
LINE
  5
539B
330
1E
100
AcDbEntity
  8
躯体と製品
  6
Continuous
 62
     4
100
AcDbLine
 10
36.62029273846639
 20
925.8448225941991
 30
0.0
 11
48.62029273846639
 21
924.9698225941992
 31
0.0
  0
LINE
  5
539C
330
1E
100
AcDbEntity
  8
躯体と製品
  6
Continuous
 62
     4
100
AcDbLine
 10
37.62029273846639
 20
928.4698225941992
 30
0.0
 11
47.62029273846638
 21
927.5948225941991
 31
0.0
  0
LINE
  5
539D
330
1E
100
AcDbEntity
  8
躯体と製品
  6
Continuous
 62
     4
100
AcDbLine
 10
36.62029273846639
 20
927.5948225941991
 30
0.0
 11
48.62029273846639
 21
926.7198225941992
 31
0.0
  0
LINE
  5
539E
330
1E
100
AcDbEntity
  8
躯体と製品
  6
Continuous
 62
     4
100
AcDbLine
 10
37.62029273846639
 20
930.2198225941991
 30
0.0
 11
47.62029273846638
 21
929.3448225941991
 31
0.0
  0
LINE
  5
539F
330
1E
100
AcDbEntity
  8
躯体と製品
  6
Continuous
 62
     4
100
AcDbLine
 10
36.62029273846639
 20
929.3448225941991
 30
0.0
 11
48.62029273846639
 21
928.4698225941992
 31
0.0
  0
LINE
  5
53A0
330
1E
100
AcDbEntity
  8
躯体と製品
  6
Continuous
 62
     4
100
AcDbLine
 10
37.62029273846639
 20
931.9698225941991
 30
0.0
 11
47.62029273846638
 21
931.0948225941992
 31
0.0
  0
LINE
  5
53A1
330
1E
100
AcDbEntity
  8
躯体と製品
  6
Continuous
 62
     4
100
AcDbLine
 10
36.62029273846639
 20
931.0948225941992
 30
0.0
 11
48.62029273846639
 21
930.2198225941991
 31
0.0
  0
LINE
  5
53A2
330
1E
100
AcDbEntity
  8
躯体と製品
  6
Continuous
 62
     4
100
AcDbLine
 10
36.62029273846639
 20
922.3448225941991
 30
0.0
 11
37.62029273846639
 21
923.2198225941992
 31
0.0
  0
LINE
  5
53A3
330
1E
100
AcDbEntity
  8
躯体と製品
  6
Continuous
 62
     4
100
AcDbLine
 10
36.62029273846639
 20
922.3448225941991
 30
0.0
 11
37.62029273846639
 21
921.4698225941992
 31
0.0
  0
LINE
  5
53A4
330
1E
100
AcDbEntity
  8
躯体と製品
  6
Continuous
 62
     4
100
AcDbLine
 10
36.62029273846639
 20
924.0948225941991
 30
0.0
 11
37.62029273846639
 21
924.9698225941992
 31
0.0
  0
LINE
  5
53A5
330
1E
100
AcDbEntity
  8
躯体と製品
  6
Continuous
 62
     4
100
AcDbLine
 10
36.62029273846639
 20
924.0948225941991
 30
0.0
 11
37.62029273846639
 21
923.2198225941992
 31
0.0
  0
LINE
  5
53A6
330
1E
100
AcDbEntity
  8
躯体と製品
  6
Continuous
 62
     4
100
AcDbLine
 10
36.62029273846639
 20
925.8448225941991
 30
0.0
 11
37.62029273846639
 21
926.7198225941992
 31
0.0
  0
LINE
  5
53A7
330
1E
100
AcDbEntity
  8
躯体と製品
  6
Continuous
 62
     4
100
AcDbLine
 10
36.62029273846639
 20
925.8448225941991
 30
0.0
 11
37.62029273846639
 21
924.9698225941992
 31
0.0
  0
LINE
  5
53A8
330
1E
100
AcDbEntity
  8
躯体と製品
  6
Continuous
 62
     4
100
AcDbLine
 10
36.62029273846639
 20
927.5948225941991
 30
0.0
 11
37.62029273846639
 21
928.4698225941992
 31
0.0
  0
LINE
  5
53A9
330
1E
100
AcDbEntity
  8
躯体と製品
  6
Continuous
 62
     4
100
AcDbLine
 10
36.62029273846639
 20
927.5948225941991
 30
0.0
 11
37.62029273846639
 21
926.7198225941992
 31
0.0
  0
LINE
  5
53AA
330
1E
100
AcDbEntity
  8
躯体と製品
  6
Continuous
 62
     4
100
AcDbLine
 10
36.62029273846639
 20
929.3448225941991
 30
0.0
 11
37.62029273846639
 21
930.2198225941991
 31
0.0
  0
LINE
  5
53AB
330
1E
100
AcDbEntity
  8
躯体と製品
  6
Continuous
 62
     4
100
AcDbLine
 10
36.62029273846639
 20
929.3448225941991
 30
0.0
 11
37.62029273846639
 21
928.4698225941992
 31
0.0
  0
LINE
  5
53AC
330
1E
100
AcDbEntity
  8
躯体と製品
  6
Continuous
 62
     4
100
AcDbLine
 10
36.62029273846639
 20
931.0948225941992
 30
0.0
 11
37.62029273846639
 21
931.9698225941991
 31
0.0
  0
LINE
  5
53AD
330
1E
100
AcDbEntity
  8
躯体と製品
  6
Continuous
 62
     4
100
AcDbLine
 10
36.62029273846639
 20
931.0948225941992
 30
0.0
 11
37.62029273846639
 21
930.2198225941991
 31
0.0
  0
LINE
  5
53AE
330
1E
100
AcDbEntity
  8
躯体と製品
  6
Continuous
 62
     4
100
AcDbLine
 10
47.62029273846638
 20
922.3448225941991
 30
0.0
 11
48.62029273846639
 21
921.4698225941992
 31
0.0
  0
LINE
  5
53AF
330
1E
100
AcDbEntity
  8
躯体と製品
  6
Continuous
 62
     4
100
AcDbLine
 10
47.62029273846638
 20
924.0948225941991
 30
0.0
 11
48.62029273846639
 21
923.2198225941992
 31
0.0
  0
LINE
  5
53B0
330
1E
100
AcDbEntity
  8
躯体と製品
  6
Continuous
 62
     4
100
AcDbLine
 10
48.62029273846639
 20
923.2198225941992
 30
0.0
 11
47.62029273846638
 21
922.3448225941991
 31
0.0
  0
LINE
  5
53B1
330
1E
100
AcDbEntity
  8
躯体と製品
  6
Continuous
 62
     4
100
AcDbLine
 10
47.62029273846638
 20
925.8448225941991
 30
0.0
 11
48.62029273846639
 21
924.9698225941992
 31
0.0
  0
LINE
  5
53B2
330
1E
100
AcDbEntity
  8
躯体と製品
  6
Continuous
 62
     4
100
AcDbLine
 10
48.62029273846639
 20
924.9698225941992
 30
0.0
 11
47.62029273846638
 21
924.0948225941991
 31
0.0
  0
LINE
  5
53B3
330
1E
100
AcDbEntity
  8
躯体と製品
  6
Continuous
 62
     4
100
AcDbLine
 10
47.62029273846638
 20
927.5948225941991
 30
0.0
 11
48.62029273846639
 21
926.7198225941992
 31
0.0
  0
LINE
  5
53B4
330
1E
100
AcDbEntity
  8
躯体と製品
  6
Continuous
 62
     4
100
AcDbLine
 10
48.62029273846639
 20
926.7198225941992
 30
0.0
 11
47.62029273846638
 21
925.8448225941991
 31
0.0
  0
LINE
  5
53B5
330
1E
100
AcDbEntity
  8
躯体と製品
  6
Continuous
 62
     4
100
AcDbLine
 10
47.62029273846638
 20
929.3448225941991
 30
0.0
 11
48.62029273846639
 21
928.4698225941992
 31
0.0
  0
LINE
  5
53B6
330
1E
100
AcDbEntity
  8
躯体と製品
  6
Continuous
 62
     4
100
AcDbLine
 10
48.62029273846639
 20
928.4698225941992
 30
0.0
 11
47.62029273846638
 21
927.5948225941991
 31
0.0
  0
LINE
  5
53B7
330
1E
100
AcDbEntity
  8
躯体と製品
  6
Continuous
 62
     4
100
AcDbLine
 10
47.62029273846638
 20
931.0948225941992
 30
0.0
 11
48.62029273846639
 21
930.2198225941991
 31
0.0
  0
LINE
  5
53B8
330
1E
100
AcDbEntity
  8
躯体と製品
  6
Continuous
 62
     4
100
AcDbLine
 10
48.62029273846639
 20
930.2198225941991
 30
0.0
 11
47.62029273846638
 21
929.3448225941991
 31
0.0
  0
LINE
  5
53B9
330
1E
100
AcDbEntity
  8
躯体と製品
  6
Continuous
 62
     4
100
AcDbLine
 10
48.62029273846639
 20
931.9698225941991
 30
0.0
 11
47.62029273846638
 21
931.0948225941992
 31
0.0
  0
LINE
  5
53BA
330
1E
100
AcDbEntity
  8
躯体と製品
  6
Continuous
 62
     4
100
AcDbLine
 10
39.04886273846642
 20
935.3448225941992
 30
0.0
 11
47.62029273846638
 21
934.5948225941992
 31
0.0
  0
LINE
  5
53BB
330
1E
100
AcDbEntity
  8
躯体と製品
  6
Continuous
 62
     4
100
AcDbLine
 10
37.62029273846639
 20
933.7198225941991
 30
0.0
 11
47.62029273846638
 21
932.8448225941992
 31
0.0
  0
LINE
  5
53BC
330
1E
100
AcDbEntity
  8
躯体と製品
  6
Continuous
 62
     4
100
AcDbLine
 10
36.62029273846639
 20
934.5948225941992
 30
0.0
 11
48.62029273846639
 21
933.7198225941991
 31
0.0
  0
LINE
  5
53BD
330
1E
100
AcDbEntity
  8
躯体と製品
  6
Continuous
 62
     2
100
AcDbLine
 10
38.12029273846638
 20
935.3448225941992
 30
0.0
 11
47.12029273846638
 21
935.3448225941992
 31
0.0
  0
LINE
  5
53BE
330
1E
100
AcDbEntity
  8
躯体と製品
  6
Continuous
 62
     4
100
AcDbLine
 10
36.62029273846639
 20
934.5948225941992
 30
0.0
 11
37.47744273846638
 21
935.3448225941992
 31
0.0
  0
LINE
  5
53BF
330
1E
100
AcDbEntity
  8
躯体と製品
  6
Continuous
 62
     4
100
AcDbLine
 10
36.62029273846639
 20
932.8448225941992
 30
0.0
 11
37.62029273846639
 21
933.7198225941991
 31
0.0
  0
LINE
  5
53C0
330
1E
100
AcDbEntity
  8
躯体と製品
  6
Continuous
 62
     4
100
AcDbLine
 10
36.62029273846639
 20
934.5948225941992
 30
0.0
 11
37.62029273846639
 21
933.7198225941991
 31
0.0
  0
LINE
  5
53C1
330
1E
100
AcDbEntity
  8
躯体と製品
  6
Continuous
 62
     2
100
AcDbLine
 10
35.12029273846639
 20
935.3448225941992
 30
0.0
 11
33.32029273846638
 21
935.3448225941992
 31
0.0
  0
LINE
  5
53C2
330
1E
100
AcDbEntity
  8
躯体と製品
  6
Continuous
 62
     4
100
AcDbLine
 10
48.47744273846638
 20
935.3448225941992
 30
0.0
 11
47.62029273846638
 21
934.5948225941992
 31
0.0
  0
LINE
  5
53C3
330
1E
100
AcDbEntity
  8
躯体と製品
  6
Continuous
 62
     4
100
AcDbLine
 10
48.62029273846639
 20
933.7198225941991
 30
0.0
 11
47.62029273846638
 21
932.8448225941992
 31
0.0
  0
LINE
  5
53C4
330
1E
100
AcDbEntity
  8
躯体と製品
  6
Continuous
 62
     4
100
AcDbLine
 10
47.62029273846638
 20
934.5948225941992
 30
0.0
 11
48.62029273846639
 21
933.7198225941991
 31
0.0
  0
ARC
  5
53C5
330
1E
100
AcDbEntity
  8
躯体と製品
  6
Continuous
 62
     2
100
AcDbCircle
 10
51.68327273846637
 20
945.3448225941992
 30
0.0
 40
10.0
100
AcDbArc
 50
270.0
 51
302.7352200000005
  0
LINE
  5
53C6
330
1E
100
AcDbEntity
  8
躯体と製品
  6
Continuous
 62
     2
100
AcDbLine
 10
50.12029273846639
 20
935.3448225941992
 30
0.0
 11
51.9202927384664
 21
935.3448225941992
 31
0.0
  0
LINE
  5
53C7
330
1E
100
AcDbEntity
  8
躯体と製品
  6
Continuous
 62
     2
100
AcDbLine
 10
57.09085273846643
 20
936.9330425941992
 30
0.0
 11
61.62029273846639
 21
939.8448225941992
 31
0.0
  0
LINE
  5
53C8
330
1E
100
AcDbEntity
  8
文字-記号
  6
Continuous
 62
     7
100
AcDbLine
 10
61.4277027384664
 20
946.3698025941992
 30
0.0
 11
62.92770273846639
 21
948.9678825941991
 31
0.0
  0
LINE
  5
53C9
330
1E
100
AcDbEntity
  8
文字-記号
  6
Continuous
 62
     7
100
AcDbLine
 10
61.4277027384664
 20
946.3698025941992
 30
0.0
 11
61.4277027384664
 21
949.3698025941991
 31
0.0
  0
LINE
  5
53CA
330
1E
100
AcDbEntity
  8
文字-記号
  6
Continuous
 62
     7
100
AcDbLine
 10
84.28350273846637
 20
806.6243725941992
 30
0.0
 11
105.6448727384664
 21
806.6243725941992
 31
0.0
  0
TEXT
  5
53CB
330
1E
100
AcDbEntity
  8
文字-記号
 62
     4
100
AcDbText
 10
69.69942273846635
 20
922.8779225941991
 30
0.0
 40
5.0
  1
M12ボルト・ナット
 41
0.8
  7
ACAD
100
AcDbText
  0
TEXT
  5
53CC
330
1E
100
AcDbEntity
  8
文字-記号
 62
     4
100
AcDbText
 10
103.7514327384664
 20
972.5288525941991
 30
0.0
 40
5.0
  1
ゴムシート　t=1
 41
0.8
  7
ACAD
100
AcDbText
  0
LINE
  5
53CD
330
1E
100
AcDbEntity
  8
躯体と製品
  6
Continuous
 62
     2
100
AcDbLine
 10
87.62029273846639
 20
943.1448225941991
 30
0.0
 11
87.62029273846639
 21
939.8448225941992
 31
0.0
  0
LINE
  5
53CE
330
1E
100
AcDbEntity
  8
文字-記号
  6
Continuous
 62
     7
100
AcDbLine
 10
69.21096273846643
 20
975.4173325941993
 30
0.0
 11
103.1249527384664
 21
975.4173325941993
 31
0.0
  0
LINE
  5
53D3
330
1E
100
AcDbEntity
  8
躯体と製品
  6
CENTER2
 62
     4
100
AcDbLine
 10
384.5432627384664
 20
728.7815025941991
 30
0.0
 11
384.5432627384664
 21
601.5812975941992
 31
0.0
  0
TEXT
  5
53D4
330
1E
100
AcDbEntity
  8
文字-記号
 62
     4
100
AcDbText
 10
340.5657227384664
 20
579.2344825941992
 30
0.0
 40
5.0
  1
ベースプレート　ビス・釘穴
 41
0.8
  7
ACAD
100
AcDbText
  0
LINE
  5
53D7
330
1E
100
AcDbEntity
  8
躯体と製品
  6
CENTER2
 62
     4
100
AcDbLine
 10
444.0186427384664
 20
666.8908425941991
 30
0.0
 11
320.6399027384664
 21
666.8908425941991
 31
0.0
  0
ARC
  5
53DC
330
1E
100
AcDbEntity
  8
躯体と製品
  6
Continuous
 62
     2
100
AcDbCircle
 10
424.5432627384664
 20
706.8908425941991
 30
0.0
 40
5.0
100
AcDbArc
 50
0.0
 51
90.0
  0
ARC
  5
53DD
330
1E
100
AcDbEntity
  8
躯体と製品
  6
Continuous
 62
     2
100
AcDbCircle
 10
344.5432627384664
 20
706.8908425941991
 30
0.0
 40
5.0
100
AcDbArc
 50
90.0
 51
180.0
  0
CIRCLE
  5
53DE
330
1E
100
AcDbEntity
  8
躯体と製品
  6
Continuous
 62
     2
100
AcDbCircle
 10
384.5432627384664
 20
666.8908425941991
 30
0.0
 40
18.0
  0
CIRCLE
  5
53DF
330
1E
100
AcDbEntity
  8
躯体と製品
  6
Continuous
 62
     2
100
AcDbCircle
 10
384.5432627384664
 20
666.8908425941991
 30
0.0
 40
12.0
  0
LINE
  5
53E0
330
1E
100
AcDbEntity
  8
躯体と製品
  6
Continuous
 62
     2
100
AcDbLine
 10
344.5432627384664
 20
621.8908425941991
 30
0.0
 11
424.5432627384664
 21
621.8908425941991
 31
0.0
  0
ARC
  5
53E1
330
1E
100
AcDbEntity
  8
躯体と製品
  6
Continuous
 62
     2
100
AcDbCircle
 10
372.5432627384664
 20
666.8908425941991
 30
0.0
 40
3.0
100
AcDbArc
 50
82.81924400000072
 51
277.1807500000003
  0
CIRCLE
  5
53E2
330
1E
100
AcDbEntity
  8
躯体と製品
  6
Continuous
 62
     2
100
AcDbCircle
 10
354.5432627384664
 20
666.8908425941991
 30
0.0
 40
3.0
  0
LINE
  5
53E3
330
1E
100
AcDbEntity
  8
躯体と製品
  6
Continuous
 62
     2
100
AcDbLine
 10
339.5432627384664
 20
626.8908425941991
 30
0.0
 11
339.5432627384664
 21
706.8908425941991
 31
0.0
  0
ARC
  5
53E4
330
1E
100
AcDbEntity
  8
躯体と製品
  6
Continuous
 62
     2
100
AcDbCircle
 10
344.5432627384664
 20
626.8908425941991
 30
0.0
 40
5.0
100
AcDbArc
 50
180.0
 51
270.0
  0
CIRCLE
  5
53E5
330
1E
100
AcDbEntity
  8
躯体と製品
  6
Continuous
 62
     2
100
AcDbCircle
 10
349.5432627384664
 20
631.8908425941991
 30
0.0
 40
3.0
  0
LINE
  5
53E6
330
1E
100
AcDbEntity
  8
躯体と製品
  6
CENTER2
 62
     4
100
AcDbLine
 10
349.5432627384664
 20
626.8908425941991
 30
0.0
 11
349.5432627384664
 21
638.8340625941991
 31
0.0
  0
LINE
  5
53E7
330
1E
100
AcDbEntity
  8
躯体と製品
  6
CENTER2
 62
     4
100
AcDbLine
 10
344.5432627384664
 20
631.8908425941991
 30
0.0
 11
355.2114327384664
 21
631.8908425941991
 31
0.0
  0
CIRCLE
  5
53E8
330
1E
100
AcDbEntity
  8
躯体と製品
  6
Continuous
 62
     2
100
AcDbCircle
 10
384.5432627384664
 20
636.8908425941992
 30
0.0
 40
3.0
  0
ARC
  5
53E9
330
1E
100
AcDbEntity
  8
躯体と製品
  6
Continuous
 62
     2
100
AcDbCircle
 10
384.5432627384664
 20
654.8908425941991
 30
0.0
 40
3.0
100
AcDbArc
 50
172.8192400000017
 51
7.180755700002968
  0
CIRCLE
  5
53EA
330
1E
100
AcDbEntity
  8
躯体と製品
  6
Continuous
 62
     2
100
AcDbCircle
 10
349.5432627384664
 20
701.8908425941991
 30
0.0
 40
2.0
  0
LINE
  5
53EB
330
1E
100
AcDbEntity
  8
躯体と製品
  6
CENTER2
 62
     4
100
AcDbLine
 10
349.5432627384664
 20
697.8468125941993
 30
0.0
 11
349.5432627384664
 21
706.8908425941991
 31
0.0
  0
LINE
  5
53EC
330
1E
100
AcDbEntity
  8
躯体と製品
  6
CENTER2
 62
     4
100
AcDbLine
 10
354.1319327384663
 20
701.8908425941991
 30
0.0
 11
344.5432627384664
 21
701.8908425941991
 31
0.0
  0
ARC
  5
53ED
330
1E
100
AcDbEntity
  8
躯体と製品
  6
Continuous
 62
     2
100
AcDbCircle
 10
384.5432627384664
 20
678.8908425941992
 30
0.0
 40
3.0
100
AcDbArc
 50
352.8192400000017
 51
187.1807500000035
  0
CIRCLE
  5
53EE
330
1E
100
AcDbEntity
  8
躯体と製品
  6
Continuous
 62
     2
100
AcDbCircle
 10
384.5432627384664
 20
696.8908425941991
 30
0.0
 40
3.0
  0
ARC
  5
53EF
330
1E
100
AcDbEntity
  8
躯体と製品
  6
Continuous
 62
     2
100
AcDbCircle
 10
396.5432627384664
 20
666.8908425941991
 30
0.0
 40
3.0
100
AcDbArc
 50
262.81924
 51
97.18075499999972
  0
CIRCLE
  5
53F0
330
1E
100
AcDbEntity
  8
躯体と製品
  6
Continuous
 62
     2
100
AcDbCircle
 10
414.5432627384663
 20
666.8908425941991
 30
0.0
 40
3.0
  0
LINE
  5
53F1
330
1E
100
AcDbEntity
  8
躯体と製品
  6
Continuous
 62
     2
100
AcDbLine
 10
429.5432627384664
 20
626.8908425941991
 30
0.0
 11
429.5432627384664
 21
706.8908425941991
 31
0.0
  0
ARC
  5
53F2
330
1E
100
AcDbEntity
  8
躯体と製品
  6
Continuous
 62
     2
100
AcDbCircle
 10
424.5432627384664
 20
626.8908425941991
 30
0.0
 40
5.0
100
AcDbArc
 50
270.0
 51
0.0
  0
CIRCLE
  5
53F3
330
1E
100
AcDbEntity
  8
躯体と製品
  6
Continuous
 62
     2
100
AcDbCircle
 10
419.5432627384664
 20
631.8908425941991
 30
0.0
 40
2.0
  0
LINE
  5
53F4
330
1E
100
AcDbEntity
  8
躯体と製品
  6
CENTER2
 62
     4
100
AcDbLine
 10
419.5432627384664
 20
626.8908425941991
 30
0.0
 11
419.5432627384664
 21
637.0348925941991
 31
0.0
  0
LINE
  5
53F5
330
1E
100
AcDbEntity
  8
躯体と製品
  6
CENTER2
 62
     4
100
AcDbLine
 10
414.2241927384664
 20
631.8908425941991
 30
0.0
 11
424.5432627384664
 21
631.8908425941991
 31
0.0
  0
CIRCLE
  5
53F6
330
1E
100
AcDbEntity
  8
躯体と製品
  6
Continuous
 62
     2
100
AcDbCircle
 10
419.5432627384664
 20
701.8908425941991
 30
0.0
 40
3.0
  0
LINE
  5
53F7
330
1E
100
AcDbEntity
  8
躯体と製品
  6
CENTER2
 62
     4
100
AcDbLine
 10
419.5432627384664
 20
696.0476425941992
 30
0.0
 11
419.5432627384664
 21
706.8908425941991
 31
0.0
  0
LINE
  5
53F8
330
1E
100
AcDbEntity
  8
躯体と製品
  6
CENTER2
 62
     4
100
AcDbLine
 10
424.5432627384664
 20
701.8908425941991
 30
0.0
 11
413.1446927384663
 21
701.8908425941991
 31
0.0
  0
LINE
  5
53FA
330
1E
100
AcDbEntity
  8
躯体と製品
  6
Continuous
 62
     2
100
AcDbLine
 10
424.5432627384664
 20
711.8908425941992
 30
0.0
 11
344.5432627384664
 21
711.8908425941992
 31
0.0
  0
LINE
  5
5402
330
1E
100
AcDbEntity
  8
躯体と製品
  6
CENTER2
 62
     4
100
AcDbLine
 10
444.0186427384664
 20
893.9541825941992
 30
0.0
 11
320.6399027384664
 21
893.9541825941992
 31
0.0
  0
CIRCLE
  5
5407
330
1E
100
AcDbEntity
  8
躯体と製品
  6
Continuous
 62
     2
100
AcDbCircle
 10
384.5432627384664
 20
893.9541825941992
 30
0.0
 40
18.0
  0
CIRCLE
  5
5408
330
1E
100
AcDbEntity
  8
躯体と製品
  6
Continuous
 62
     2
100
AcDbCircle
 10
384.5432627384664
 20
893.9541825941992
 30
0.0
 40
12.0
  0
LINE
  5
5409
330
1E
100
AcDbEntity
  8
躯体と製品
  6
Continuous
 62
     2
100
AcDbLine
 10
339.5432627384664
 20
853.9541825941991
 30
0.0
 11
339.5432627384664
 21
933.9541825941992
 31
0.0
  0
LINE
  5
540A
330
1E
100
AcDbEntity
  8
躯体と製品
  6
Continuous
 62
     2
100
AcDbLine
 10
429.5432627384664
 20
853.9541825941991
 30
0.0
 11
429.5432627384664
 21
933.9541825941992
 31
0.0
  0
LINE
  5
540B
330
1E
100
AcDbEntity
  8
躯体と製品
  6
CENTER2
 62
     4
100
AcDbLine
 10
384.5432627384664
 20
955.8448325941993
 30
0.0
 11
384.5432627384664
 21
828.6446325941993
 31
0.0
  0
TEXT
  5
540C
330
1E
100
AcDbEntity
  8
文字-記号
 62
     4
100
AcDbText
 10
346.4399227384664
 20
817.6289425941991
 30
0.0
 40
5.0
  1
大引受け金具　ビス・釘穴
 41
0.8
  7
ACAD
100
AcDbText
  0
LINE
  5
540D
330
1E
100
AcDbEntity
  8
躯体と製品
  6
Continuous
 62
     2
100
AcDbLine
 10
344.5432627384664
 20
848.9541825941993
 30
0.0
 11
424.5432627384664
 21
848.9541825941993
 31
0.0
  0
ARC
  5
540E
330
1E
100
AcDbEntity
  8
躯体と製品
  6
Continuous
 62
     2
100
AcDbCircle
 10
344.5432627384664
 20
853.9541825941991
 30
0.0
 40
5.0
100
AcDbArc
 50
180.0
 51
270.0
  0
LINE
  5
540F
330
1E
100
AcDbEntity
  8
躯体と製品
  6
CENTER2
 62
     4
100
AcDbLine
 10
349.5432627384664
 20
863.9541825941991
 30
0.0
 11
360.9418327384664
 21
863.9541825941991
 31
0.0
  0
CIRCLE
  5
5410
330
1E
100
AcDbEntity
  8
躯体と製品
  6
Continuous
 62
     2
100
AcDbCircle
 10
354.5432627384664
 20
863.9541825941991
 30
0.0
 40
2.5
  0
LINE
  5
5411
330
1E
100
AcDbEntity
  8
躯体と製品
  6
CENTER2
 62
     4
100
AcDbLine
 10
354.5432627384664
 20
869.7973825941993
 30
0.0
 11
354.5432627384664
 21
858.9541825941992
 31
0.0
  0
ARC
  5
5412
330
1E
100
AcDbEntity
  8
躯体と製品
  6
Continuous
 62
     2
100
AcDbCircle
 10
372.5432627384664
 20
893.9541825941992
 30
0.0
 40
3.0
100
AcDbArc
 50
82.81924400000072
 51
277.1807500000003
  0
ARC
  5
5413
330
1E
100
AcDbEntity
  8
躯体と製品
  6
Continuous
 62
     2
100
AcDbCircle
 10
384.5432627384664
 20
881.9541825941993
 30
0.0
 40
3.0
100
AcDbArc
 50
172.8192400000017
 51
7.180755700002968
  0
ARC
  5
5414
330
1E
100
AcDbEntity
  8
躯体と製品
  6
Continuous
 62
     2
100
AcDbCircle
 10
424.5432627384664
 20
853.9541825941991
 30
0.0
 40
5.0
100
AcDbArc
 50
270.0
 51
0.0
  0
LINE
  5
5415
330
1E
100
AcDbEntity
  8
躯体と製品
  6
CENTER2
 62
     4
100
AcDbLine
 10
419.5432627384664
 20
863.9541825941991
 30
0.0
 11
408.1446927384663
 21
863.9541825941991
 31
0.0
  0
CIRCLE
  5
5416
330
1E
100
AcDbEntity
  8
躯体と製品
  6
Continuous
 62
     2
100
AcDbCircle
 10
414.5432627384663
 20
863.9541825941991
 30
0.0
 40
2.5
  0
LINE
  5
5417
330
1E
100
AcDbEntity
  8
躯体と製品
  6
CENTER2
 62
     4
100
AcDbLine
 10
414.5432627384663
 20
869.7973825941993
 30
0.0
 11
414.5432627384663
 21
858.9541825941992
 31
0.0
  0
ARC
  5
5418
330
1E
100
AcDbEntity
  8
躯体と製品
  6
Continuous
 62
     2
100
AcDbCircle
 10
396.5432627384664
 20
893.9541825941992
 30
0.0
 40
3.0
100
AcDbArc
 50
262.81924
 51
97.18075499999972
  0
LINE
  5
541A
330
1E
100
AcDbEntity
  8
躯体と製品
  6
Continuous
 62
     2
100
AcDbLine
 10
424.5432627384664
 20
938.9541825941991
 30
0.0
 11
344.5432627384664
 21
938.9541825941991
 31
0.0
  0
LINE
  5
541C
330
1E
100
AcDbEntity
  8
躯体と製品
  6
CENTER2
 62
     4
100
AcDbLine
 10
349.5432627384664
 20
923.9541825941993
 30
0.0
 11
360.9418327384664
 21
923.9541825941993
 31
0.0
  0
LINE
  5
541D
330
1E
100
AcDbEntity
  8
躯体と製品
  6
CENTER2
 62
     4
100
AcDbLine
 10
354.5432627384664
 20
918.1109825941991
 30
0.0
 11
354.5432627384664
 21
928.9541825941991
 31
0.0
  0
ARC
  5
541E
330
1E
100
AcDbEntity
  8
躯体と製品
  6
Continuous
 62
     2
100
AcDbCircle
 10
344.5432627384664
 20
933.9541825941992
 30
0.0
 40
5.0
100
AcDbArc
 50
90.0
 51
180.0
  0
CIRCLE
  5
541F
330
1E
100
AcDbEntity
  8
躯体と製品
  6
Continuous
 62
     2
100
AcDbCircle
 10
354.5432627384664
 20
923.9541825941993
 30
0.0
 40
2.5
  0
ARC
  5
5420
330
1E
100
AcDbEntity
  8
躯体と製品
  6
Continuous
 62
     2
100
AcDbCircle
 10
384.5432627384664
 20
905.9541825941991
 30
0.0
 40
3.0
100
AcDbArc
 50
352.8192400000017
 51
187.1807500000035
  0
ARC
  5
5424
330
1E
100
AcDbEntity
  8
躯体と製品
  6
Continuous
 62
     2
100
AcDbCircle
 10
424.5432627384664
 20
933.9541825941992
 30
0.0
 40
5.0
100
AcDbArc
 50
0.0
 51
90.0
  0
LINE
  5
5425
330
1E
100
AcDbEntity
  8
躯体と製品
  6
CENTER2
 62
     4
100
AcDbLine
 10
414.5432627384663
 20
918.1109825941991
 30
0.0
 11
414.5432627384663
 21
928.9541825941991
 31
0.0
  0
LINE
  5
5426
330
1E
100
AcDbEntity
  8
躯体と製品
  6
CENTER2
 62
     4
100
AcDbLine
 10
419.5432627384664
 20
923.9541825941993
 30
0.0
 11
408.1446927384663
 21
923.9541825941993
 31
0.0
  0
CIRCLE
  5
5427
330
1E
100
AcDbEntity
  8
躯体と製品
  6
Continuous
 62
     2
100
AcDbCircle
 10
414.5432627384663
 20
923.9541825941993
 30
0.0
 40
2.5
  0
DIMENSION
  5
5430
330
1E
100
AcDbEntity
  8
寸法
  6
Continuous
100
AcDbDimension
  2
*D4
 10
87.62029273846639
 20
995.2165125941991
 30
0.0
 11
42.62029273846638
 21
998.7165125941992
 31
0.0
 70
    32
 71
     5
 42
90.0
  3
AutoCAD
100
AcDbAlignedDimension
 13
-2.37970726153361
 23
947.7147125941993
 33
0.0
 14
87.62029273846639
 24
947.7147125941991
 34
0.0
100
AcDbRotatedDimension
  0
DIMENSION
  5
543D
330
1E
100
AcDbEntity
  8
寸法
  6
Continuous
100
AcDbDimension
  2
*D5
 10
-103.2551272615336
 20
612.6837125941992
 30
0.0
 11
-106.7551272615337
 21
777.9142675941991
 31
0.0
 70
    32
  1
適応高さ：130～1190mm
 71
     5
 42
330.46111
  3
AutoCAD
100
AcDbAlignedDimension
 13
-13.72872726153363
 23
943.1448225941991
 33
0.0
 14
-13.72872726153369
 24
612.6837125941992
 34
0.0
 50
90.0
100
AcDbRotatedDimension
1001
ACAD
1000
DSTYLE
1002
{
1070
   340
1005
123
1002
}
  0
DIMENSION
  5
544A
330
1E
100
AcDbEntity
  8
寸法
  6
Continuous
100
AcDbDimension
  2
*D6
 10
429.5432627384665
 20
967.7742425941993
 30
0.0
 11
384.5432627384664
 21
971.2742425941993
 31
0.0
 70
    32
 71
     5
 42
90.00000000000005
  3
AutoCAD
100
AcDbAlignedDimension
 13
339.5432627384664
 23
942.9297625941993
 33
0.0
 14
429.5432627384665
 24
942.9297625941993
 34
0.0
100
AcDbRotatedDimension
  0
DIMENSION
  5
5457
330
1E
100
AcDbEntity
  8
寸法
  6
Continuous
100
AcDbDimension
  2
*D7
 10
306.8626527384664
 20
848.9541825941993
 30
0.0
 11
303.3626527384662
 21
893.9541825941994
 31
0.0
 70
    32
 71
     5
 42
90.0
  3
AutoCAD
100
AcDbAlignedDimension
 13
335.6761927384663
 23
938.9541825941991
 33
0.0
 14
335.6761927384663
 24
848.9541825941993
 34
0.0
 50
90.0
100
AcDbRotatedDimension
  0
DIMENSION
  5
5464
330
1E
100
AcDbEntity
  8
寸法
  6
Continuous
100
AcDbDimension
  2
*D8
 10
429.5432627384664
 20
747.5272525941992
 30
0.0
 11
384.5432627384664
 21
751.0272525941992
 31
0.0
 70
    32
 71
     5
 42
90.0
  3
AutoCAD
100
AcDbAlignedDimension
 13
339.5432627384664
 23
715.4039225941992
 33
0.0
 14
429.5432627384664
 24
715.4039225941992
 34
0.0
100
AcDbRotatedDimension
  0
DIMENSION
  5
549E
330
1E
100
AcDbEntity
  8
寸法
  6
Continuous
100
AcDbDimension
  2
*D9
 10
87.62029273846639
 20
590.3094275941992
 30
0.0
 11
42.62029273846638
 21
593.8094275941991
 31
0.0
 70
    32
 71
     5
 42
90.0
  3
AutoCAD
100
AcDbAlignedDimension
 13
-2.37970726153361
 23
608.7674525941991
 33
0.0
 14
87.62029273846639
 24
608.7674525941991
 34
0.0
100
AcDbRotatedDimension
  0
DIMENSION
  5
54AB
330
1E
100
AcDbEntity
  8
寸法
  6
Continuous
100
AcDbDimension
  2
*D10
 10
304.8092727384663
 20
621.8908425941991
 30
0.0
 11
301.3092727384663
 21
666.8908425941992
 31
0.0
 70
    32
 71
     5
 42
90.0
  3
AutoCAD
100
AcDbAlignedDimension
 13
335.8389627384664
 23
711.8908425941992
 33
0.0
 14
335.8389627384664
 24
621.8908425941991
 34
0.0
 50
90.0
100
AcDbRotatedDimension
  0
ENDSEC
  0
SECTION
  2
OBJECTS
  0
DICTIONARY
  5
C
330
0
100
AcDbDictionary
281
     1
  3
ACAD_GROUP
350
D
  3
ACAD_LAYOUT
350
19
  3
ACAD_MLINESTYLE
350
16
  3
ACAD_PLOTSETTINGS
350
18
  3
ACAD_PLOTSTYLENAME
350
E
  3
AcDbVariableDictionary
350
169
  0
DICTIONARY
  5
175
330
2
100
AcDbDictionary
280
     1
281
     1
  3
ACAD_LAYERFILTERS
360
185
  3
ACAD_LAYERSTATES
360
176
  0
DICTIONARY
  5
28B
330
1E
100
AcDbDictionary
280
     1
281
     1
  0
DICTIONARY
  5
28D
330
1A
100
AcDbDictionary
280
     1
281
     1
  0
DICTIONARY
  5
D
102
{ACAD_REACTORS
330
C
102
}
330
C
100
AcDbDictionary
281
     1
  0
DICTIONARY
  5
19
102
{ACAD_REACTORS
330
C
102
}
330
C
100
AcDbDictionary
281
     1
  3
Model
350
21
  3
ﾚｲｱｳﾄ1
350
1D
  0
DICTIONARY
  5
16
102
{ACAD_REACTORS
330
C
102
}
330
C
100
AcDbDictionary
281
     1
  3
Standard
350
17
  0
DICTIONARY
  5
18
102
{ACAD_REACTORS
330
C
102
}
330
C
100
AcDbDictionary
281
     1
  0
ACDBDICTIONARYWDFLT
  5
E
102
{ACAD_REACTORS
330
C
102
}
330
C
100
AcDbDictionary
281
     1
  3
Normal
350
F
100
AcDbDictionaryWithDefault
340
F
1001
ACAD
1000
TREAT_AS_HARD
1070
     0
1000
TREAT_AS_HARD
1070
     0
1000
TREAT_AS_HARD
1070
     0
1000
TREAT_AS_HARD
1070
     0
1000
TREAT_AS_HARD
1070
     0
1000
TREAT_AS_HARD
1070
     0
1000
TREAT_AS_HARD
1070
     0
1000
TREAT_AS_HARD
1070
     0
1000
TREAT_AS_HARD
1070
     0
1000
TREAT_AS_HARD
1070
     0
1000
TREAT_AS_HARD
1070
     0
1000
TREAT_AS_HARD
1070
     0
1000
TREAT_AS_HARD
1070
     0
1000
TREAT_AS_HARD
1070
     0
1000
TREAT_AS_HARD
1070
     0
1000
TREAT_AS_HARD
1070
     0
1000
TREAT_AS_HARD
1070
     0
1000
TREAT_AS_HARD
1070
     0
1000
TREAT_AS_HARD
1070
     0
1000
TREAT_AS_HARD
1070
     0
1000
TREAT_AS_HARD
1070
     0
1000
TREAT_AS_HARD
1070
     0
  0
DICTIONARY
  5
169
102
{ACAD_REACTORS
330
C
102
}
330
C
100
AcDbDictionary
281
     1
  3
DIMASSOC
350
16A
  0
DICTIONARY
  5
185
102
{ACAD_REACTORS
330
175
102
}
330
175
100
AcDbDictionary
280
     1
281
     1
  0
DICTIONARY
  5
176
102
{ACAD_REACTORS
330
175
102
}
330
175
100
AcDbDictionary
281
     1
  3
ACAD
350
177
  0
LAYOUT
  5
21
102
{ACAD_REACTORS
330
19
102
}
330
19
100
AcDbPlotSettings
  1

  2
\\MEISEI-1\EPSON Stylus Photo EX3
  4

  6

 40
0.0
 41
0.0
 42
0.0
 43
0.0
 44
0.0
 45
0.0
 46
0.0
 47
0.0
 48
0.0
 49
0.0
140
0.0
141
0.0
142
1.0
143
1.0
 70
  1712
 72
     0
 73
     0
 74
     0
  7

 75
     0
147
1.0
148
0.0
149
0.0
100
AcDbLayout
  1
Model
 70
     1
 71
     0
 10
0.0
 20
0.0
 11
12.0
 21
9.0
 12
0.0
 22
0.0
 32
0.0
 14
0.0
 24
0.0
 34
0.0
 15
0.0
 25
0.0
 35
0.0
146
0.0
 13
0.0
 23
0.0
 33
0.0
 16
1.0
 26
0.0
 36
0.0
 17
0.0
 27
1.0
 37
0.0
 76
     0
330
1E
  0
LAYOUT
  5
1D
102
{ACAD_REACTORS
330
19
102
}
330
19
100
AcDbPlotSettings
  1

  2
\\MEISEI-1\EPSON Stylus Photo EX3
  4

  6

 40
0.0
 41
0.0
 42
0.0
 43
0.0
 44
0.0
 45
0.0
 46
0.0
 47
0.0
 48
0.0
 49
0.0
140
0.0
141
0.0
142
1.0
143
1.0
 70
   688
 72
     0
 73
     0
 74
     5
  7

 75
    16
147
1.0
148
0.0
149
0.0
100
AcDbLayout
  1
ﾚｲｱｳﾄ1
 70
     1
 71
     1
 10
0.0
 20
0.0
 11
12.0
 21
9.0
 12
0.0
 22
0.0
 32
0.0
 14
1.000000000000000E+20
 24
1.000000000000000E+20
 34
1.000000000000000E+20
 15
-1.000000000000000E+20
 25
-1.000000000000000E+20
 35
-1.000000000000000E+20
146
0.0
 13
0.0
 23
0.0
 33
0.0
 16
1.0
 26
0.0
 36
0.0
 17
0.0
 27
1.0
 37
0.0
 76
     0
330
1A
  0
MLINESTYLE
  5
17
102
{ACAD_REACTORS
330
16
102
}
330
16
100
AcDbMlineStyle
  2
STANDARD
 70
     0
  3

 62
   256
 51
90.0
 52
90.0
 71
     2
 49
0.5
 62
   256
  6
BYLAYER
 49
-0.5
 62
   256
  6
BYLAYER
  0
ACDBPLACEHOLDER
  5
F
102
{ACAD_REACTORS
330
E
102
}
330
E
  0
DICTIONARYVAR
  5
16A
102
{ACAD_REACTORS
330
169
102
}
330
169
100
DictionaryVariables
280
     0
  1
1
  0
XRECORD
  5
177
102
{ACAD_REACTORS
330
176
102
}
330
176
100
AcDbXrecord
280
     1
 91
      476
330
179
 90
        8
 62
     7
370
    -3
331
15
  1
Color_7
330
178
 90
        8
 62
     7
370
    -3
331
15
  1
Color_7
330
128
 90
        0
 62
     7
370
    -3
331
15
  1
Color_7
330
10
 90
        8
 62
     7
370
    -3
331
15
  1
Color_7
  0
ENDSEC
  0
EOF
