  0
SECTION
  2
HEADER
  9
$ACADVER
  1
AC1018
  9
$ACADMAINTVER
 70
   104
  9
$DWGCODEPAGE
  3
ANSI_932
  9
$LASTSAVEDBY
  1
HON1000CV
  9
$INSBASE
 10
0.0
 20
0.0
 30
0.0
  9
$EXTMIN
 10
2191.490633651134
 20
811.2550919118195
 30
0.0
  9
$EXTMAX
 10
5160.95372402315
 20
1837.013907006997
 30
0.0
  9
$LIMMIN
 10
0.0
 20
0.0
  9
$LIMMAX
 10
420.0
 20
297.0
  9
$ORTHOMODE
 70
     0
  9
$REGENMODE
 70
     1
  9
$FILLMODE
 70
     1
  9
$QTEXTMODE
 70
     0
  9
$MIRRTEXT
 70
     1
  9
$LTSCALE
 40
10.0
  9
$ATTMODE
 70
     1
  9
$TEXTSIZE
 40
50.0
  9
$TRACEWID
 40
0.05
  9
$TEXTSTYLE
  7
ACAD
  9
$CLAYER
  8
0
  9
$CELTYPE
  6
CONTINUOUS
  9
$CECOLOR
 62
     3
  9
$CELTSCALE
 40
1.0
  9
$DISPSILH
 70
     0
  9
$DIMSCALE
 40
1.0
  9
$DIMASZ
 40
20.0
  9
$DIMEXO
 40
0.0625
  9
$DIMDLI
 40
0.38
  9
$DIMRND
 40
0.0
  9
$DIMDLE
 40
0.0
  9
$DIMEXE
 40
0.18
  9
$DIMTP
 40
0.0
  9
$DIMTM
 40
0.0
  9
$DIMTXT
 40
50.0
  9
$DIMCEN
 40
20.0
  9
$DIMTSZ
 40
0.0
  9
$DIMTOL
 70
     0
  9
$DIMLIM
 70
     0
  9
$DIMTIH
 70
     1
  9
$DIMTOH
 70
     1
  9
$DIMSE1
 70
     0
  9
$DIMSE2
 70
     0
  9
$DIMTAD
 70
     0
  9
$DIMZIN
 70
     0
  9
$DIMBLK
  1
Open30
  9
$DIMASO
 70
     1
  9
$DIMSHO
 70
     1
  9
$DIMPOST
  1

  9
$DIMAPOST
  1

  9
$DIMALT
 70
     0
  9
$DIMALTD
 70
     2
  9
$DIMALTF
 40
25.4
  9
$DIMLFAC
 40
1.0
  9
$DIMTOFL
 70
     0
  9
$DIMTVP
 40
0.0
  9
$DIMTIX
 70
     0
  9
$DIMSOXD
 70
     0
  9
$DIMSAH
 70
     0
  9
$DIMBLK1
  1

  9
$DIMBLK2
  1

  9
$DIMSTYLE
  2
Standard
  9
$DIMCLRD
 70
     0
  9
$DIMCLRE
 70
     0
  9
$DIMCLRT
 70
     0
  9
$DIMTFAC
 40
1.0
  9
$DIMGAP
 40
0.09
  9
$DIMJUST
 70
     0
  9
$DIMSD1
 70
     0
  9
$DIMSD2
 70
     0
  9
$DIMTOLJ
 70
     1
  9
$DIMTZIN
 70
     0
  9
$DIMALTZ
 70
     0
  9
$DIMALTTZ
 70
     0
  9
$DIMUPT
 70
     0
  9
$DIMDEC
 70
     4
  9
$DIMTDEC
 70
     4
  9
$DIMALTU
 70
     2
  9
$DIMALTTD
 70
     2
  9
$DIMTXSTY
  7
STANDARD
  9
$DIMAUNIT
 70
     0
  9
$DIMADEC
 70
     0
  9
$DIMALTRND
 40
0.0
  9
$DIMAZIN
 70
     0
  9
$DIMDSEP
 70
    46
  9
$DIMATFIT
 70
     3
  9
$DIMFRAC
 70
     0
  9
$DIMLDRBLK
  1
Open30
  9
$DIMLUNIT
 70
     2
  9
$DIMLWD
 70
    -2
  9
$DIMLWE
 70
    -2
  9
$DIMTMOVE
 70
     0
  9
$LUNITS
 70
     2
  9
$LUPREC
 70
     4
  9
$SKETCHINC
 40
0.1
  9
$FILLETRAD
 40
0.0
  9
$AUNITS
 70
     0
  9
$AUPREC
 70
     0
  9
$MENU
  1
.
  9
$ELEVATION
 40
0.0
  9
$PELEVATION
 40
0.0
  9
$THICKNESS
 40
0.0
  9
$LIMCHECK
 70
     0
  9
$CHAMFERA
 40
0.0
  9
$CHAMFERB
 40
0.0
  9
$CHAMFERC
 40
0.0
  9
$CHAMFERD
 40
0.0
  9
$SKPOLY
 70
     0
  9
$TDCREATE
 40
2454316.693457674
  9
$TDUCREATE
 40
2454316.318457674
  9
$TDUPDATE
 40
2455961.449633565
  9
$TDUUPDATE
 40
2455961.074633565
  9
$TDINDWG
 40
0.7122147569
  9
$TDUSRTIMER
 40
0.7122147569
  9
$USRTIMER
 70
     1
  9
$ANGBASE
 50
0.0
  9
$ANGDIR
 70
     0
  9
$PDMODE
 70
     0
  9
$PDSIZE
 40
0.0
  9
$PLINEWID
 40
0.0
  9
$SPLFRAME
 70
     0
  9
$SPLINETYPE
 70
     6
  9
$SPLINESEGS
 70
     8
  9
$HANDSEED
  5
9C04
  9
$SURFTAB1
 70
     6
  9
$SURFTAB2
 70
     6
  9
$SURFTYPE
 70
     6
  9
$SURFU
 70
     6
  9
$SURFV
 70
     6
  9
$UCSBASE
  2

  9
$UCSNAME
  2

  9
$UCSORG
 10
0.0
 20
0.0
 30
0.0
  9
$UCSXDIR
 10
1.0
 20
0.0
 30
0.0
  9
$UCSYDIR
 10
0.0
 20
1.0
 30
0.0
  9
$UCSORTHOREF
  2

  9
$UCSORTHOVIEW
 70
     0
  9
$UCSORGTOP
 10
0.0
 20
0.0
 30
0.0
  9
$UCSORGBOTTOM
 10
0.0
 20
0.0
 30
0.0
  9
$UCSORGLEFT
 10
0.0
 20
0.0
 30
0.0
  9
$UCSORGRIGHT
 10
0.0
 20
0.0
 30
0.0
  9
$UCSORGFRONT
 10
0.0
 20
0.0
 30
0.0
  9
$UCSORGBACK
 10
0.0
 20
0.0
 30
0.0
  9
$PUCSBASE
  2

  9
$PUCSNAME
  2

  9
$PUCSORG
 10
0.0
 20
0.0
 30
0.0
  9
$PUCSXDIR
 10
1.0
 20
0.0
 30
0.0
  9
$PUCSYDIR
 10
0.0
 20
1.0
 30
0.0
  9
$PUCSORTHOREF
  2

  9
$PUCSORTHOVIEW
 70
     0
  9
$PUCSORGTOP
 10
0.0
 20
0.0
 30
0.0
  9
$PUCSORGBOTTOM
 10
0.0
 20
0.0
 30
0.0
  9
$PUCSORGLEFT
 10
0.0
 20
0.0
 30
0.0
  9
$PUCSORGRIGHT
 10
0.0
 20
0.0
 30
0.0
  9
$PUCSORGFRONT
 10
0.0
 20
0.0
 30
0.0
  9
$PUCSORGBACK
 10
0.0
 20
0.0
 30
0.0
  9
$USERI1
 70
     0
  9
$USERI2
 70
     0
  9
$USERI3
 70
     0
  9
$USERI4
 70
     0
  9
$USERI5
 70
     0
  9
$USERR1
 40
0.0
  9
$USERR2
 40
0.0
  9
$USERR3
 40
0.0
  9
$USERR4
 40
0.0
  9
$USERR5
 40
0.0
  9
$WORLDVIEW
 70
     1
  9
$SHADEDGE
 70
     3
  9
$SHADEDIF
 70
    70
  9
$TILEMODE
 70
     1
  9
$MAXACTVP
 70
    48
  9
$PINSBASE
 10
0.0
 20
0.0
 30
0.0
  9
$PLIMCHECK
 70
     0
  9
$PEXTMIN
 10
1.000000000000000E+20
 20
1.000000000000000E+20
 30
1.000000000000000E+20
  9
$PEXTMAX
 10
-1.000000000000000E+20
 20
-1.000000000000000E+20
 30
-1.000000000000000E+20
  9
$PLIMMIN
 10
0.0
 20
0.0
  9
$PLIMMAX
 10
12.0
 20
9.0
  9
$UNITMODE
 70
     0
  9
$VISRETAIN
 70
     0
  9
$PLINEGEN
 70
     0
  9
$PSLTSCALE
 70
     1
  9
$TREEDEPTH
 70
  3020
  9
$CMLSTYLE
  2
Standard
  9
$CMLJUST
 70
     0
  9
$CMLSCALE
 40
1.0
  9
$PROXYGRAPHICS
 70
     1
  9
$MEASUREMENT
 70
     0
  9
$CELWEIGHT
370
    -1
  9
$ENDCAPS
280
     0
  9
$JOINSTYLE
280
     0
  9
$LWDISPLAY
290
     0
  9
$INSUNITS
 70
     0
  9
$HYPERLINKBASE
  1

  9
$STYLESHEET
  1
monochrome.ctb
  9
$XEDIT
290
     1
  9
$CEPSNTYPE
380
     0
  9
$PSTYLEMODE
290
     1
  9
$FINGERPRINTGUID
  2
{CC7D6DEE-A9F1-4F3E-AC95-C84B62CCA3FD}
  9
$VERSIONGUID
  2
{7CBEA3F3-F3AD-4E8D-AB9E-DA05955BF5A1}
  9
$EXTNAMES
290
     1
  9
$PSVPSCALE
 40
0.0
  9
$OLESTARTUP
290
     0
  9
$SORTENTS
280
   127
  9
$INDEXCTL
280
     0
  9
$HIDETEXT
280
     0
  9
$XCLIPFRAME
290
     0
  9
$HALOGAP
280
     0
  9
$OBSCOLOR
 70
   257
  9
$OBSLTYPE
280
     0
  9
$INTERSECTIONDISPLAY
280
     0
  9
$INTERSECTIONCOLOR
 70
   257
  9
$DIMASSOC
280
     1
  9
$PROJECTNAME
  1

  0
ENDSEC
  0
SECTION
  2
CLASSES
  0
CLASS
  1
ACDBDICTIONARYWDFLT
  2
AcDbDictionaryWithDefault
  3
ObjectDBX Classes
 90
        0
 91
        1
280
     0
281
     0
  0
CLASS
  1
DICTIONARYVAR
  2
AcDbDictionaryVar
  3
ObjectDBX Classes
 90
        0
 91
        8
280
     0
281
     0
  0
CLASS
  1
TABLESTYLE
  2
AcDbTableStyle
  3
ObjectDBX Classes
 90
     4095
 91
        1
280
     0
281
     0
  0
CLASS
  1
MATERIAL
  2
AcDbMaterial
  3
ObjectDBX Classes
 90
     1153
 91
        3
280
     0
281
     0
  0
CLASS
  1
VISUALSTYLE
  2
AcDbVisualStyle
  3
ObjectDBX Classes
 90
     4095
 91
       24
280
     0
281
     0
  0
CLASS
  1
SCALE
  2
AcDbScale
  3
ObjectDBX Classes
 90
     1153
 91
       17
280
     0
281
     0
  0
CLASS
  1
MLEADERSTYLE
  2
AcDbMLeaderStyle
  3
ACDB_MLEADERSTYLE_CLASS
 90
     4095
 91
        1
280
     0
281
     0
  0
CLASS
  1
EXACXREFPANELOBJECT
  2
ExAcXREFPanelObject
  3
EXAC_ESW
 90
     1025
 91
        0
280
     0
281
     0
  0
CLASS
  1
NPOCOLLECTION
  2
AcDbImpNonPersistentObjectsCollection
  3
ObjectDBX Classes
 90
     1153
 91
        0
280
     0
281
     0
  0
CLASS
  1
SORTENTSTABLE
  2
AcDbSortentsTable
  3
ObjectDBX Classes
 90
        0
 91
        1
280
     0
281
     0
  0
CLASS
  1
CELLSTYLEMAP
  2
AcDbCellStyleMap
  3
ObjectDBX Classes
 90
     1152
 91
        2
280
     0
281
     0
  0
ENDSEC
  0
SECTION
  2
TABLES
  0
TABLE
  2
VPORT
  5
8
102
{ACAD_XDICTIONARY
360
8F49
102
}
330
0
100
AcDbSymbolTable
 70
     1
  0
VPORT
  5
67ED
330
8
100
AcDbSymbolTableRecord
100
AcDbViewportTableRecord
  2
*Active
 70
     0
 10
0.0
 20
0.0
 11
1.0
 21
1.0
 12
3676.068970248044
 22
1324.163581842269
 13
0.0
 23
0.0
 14
1.0
 24
1.0
 15
0.0
 25
0.0
 16
0.0
 26
0.0
 36
1.0
 17
0.0
 27
0.0
 37
0.0
 40
1182.390772333527
 41
2.519736842105263
 42
50.0
 43
0.0
 44
0.0
 50
0.0
 51
0.0
 71
     0
 72
   100
 73
     1
 74
     1
 75
     0
 76
     0
 77
     0
 78
     0
281
     0
 65
     1
110
0.0
120
0.0
130
0.0
111
1.0
121
0.0
131
0.0
112
0.0
122
1.0
132
0.0
 79
     0
146
0.0
1001
ACAD_NAV_VCDISPLAY
1070
     3
  0
ENDTAB
  0
TABLE
  2
LTYPE
  5
5
330
0
100
AcDbSymbolTable
 70
     2
  0
LTYPE
  5
13
330
5
100
AcDbSymbolTableRecord
100
AcDbLinetypeTableRecord
  2
ByBlock
 70
     0
  3

 72
    65
 73
     0
 40
0.0
  0
LTYPE
  5
14
330
5
100
AcDbSymbolTableRecord
100
AcDbLinetypeTableRecord
  2
ByLayer
 70
     0
  3

 72
    65
 73
     0
 40
0.0
  0
LTYPE
  5
15
330
5
100
AcDbSymbolTableRecord
100
AcDbLinetypeTableRecord
  2
CONTINUOUS
 70
     0
  3
実線
 72
    65
 73
     0
 40
0.0
  0
LTYPE
  5
25
330
5
100
AcDbSymbolTableRecord
100
AcDbLinetypeTableRecord
  2
CENTER1
 70
     0
  3
----- - ----- - ----- - ----- - 
 72
    65
 73
     4
 40
10.0
 49
6.25
 74
     0
 49
-1.25
 74
     0
 49
1.25
 74
     0
 49
-1.25
 74
     0
  0
ENDTAB
  0
TABLE
  2
LAYER
  5
2
102
{ACAD_XDICTIONARY
360
175
102
}
330
0
100
AcDbSymbolTable
 70
     6
  0
LAYER
  5
10
102
{ACAD_XDICTIONARY
360
899C
102
}
330
2
100
AcDbSymbolTableRecord
100
AcDbLayerTableRecord
  2
0
 70
     0
 62
     7
  6
CONTINUOUS
370
    -3
390
F
  0
LAYER
  5
128
330
2
100
AcDbSymbolTableRecord
100
AcDbLayerTableRecord
  2
Defpoints
 70
     0
 62
     7
  6
CONTINUOUS
290
     0
370
    -3
390
F
  0
LAYER
  5
178
102
{ACAD_XDICTIONARY
360
899E
102
}
330
2
100
AcDbSymbolTableRecord
100
AcDbLayerTableRecord
  2
寸法
 70
     0
 62
     7
  6
CONTINUOUS
370
    -3
390
F
  0
LAYER
  5
179
102
{ACAD_XDICTIONARY
360
89A0
102
}
330
2
100
AcDbSymbolTableRecord
100
AcDbLayerTableRecord
  2
躯体と製品
 70
     0
 62
     7
  6
CONTINUOUS
370
    -3
390
F
  0
LAYER
  5
4F62
102
{ACAD_XDICTIONARY
360
89A2
102
}
330
2
100
AcDbSymbolTableRecord
100
AcDbLayerTableRecord
  2
文字-記号
 70
     0
 62
     7
  6
CONTINUOUS
370
    -3
390
F
  0
LAYER
  5
68D7
102
{ACAD_XDICTIONARY
360
89A4
102
}
330
2
100
AcDbSymbolTableRecord
100
AcDbLayerTableRecord
  2
中心線
 70
     0
 62
     7
  6
CONTINUOUS
370
    -3
390
F
1001
AcAecLayerStandard
1000

1000

1001
AcCmTransparency
1071
        0
  0
ENDTAB
  0
TABLE
  2
STYLE
  5
3
330
0
100
AcDbSymbolTable
 70
     2
  0
STYLE
  5
11
330
3
100
AcDbSymbolTableRecord
100
AcDbTextStyleTableRecord
  2
STANDARD
 70
     0
 40
0.0
 41
1.0
 50
0.0
 71
     0
 42
0.2
  3
txt
  4
bigfont.shx
  0
STYLE
  5
123
330
3
100
AcDbSymbolTableRecord
100
AcDbTextStyleTableRecord
  2
ACAD
 70
     0
 40
50.0
 41
0.8
 50
0.0
 71
     0
 42
50.0
  3
romans.shx
  4
extfont.shx
  0
ENDTAB
  0
TABLE
  2
VIEW
  5
6
330
0
100
AcDbSymbolTable
 70
     0
  0
ENDTAB
  0
TABLE
  2
UCS
  5
7
330
0
100
AcDbSymbolTable
 70
     0
  0
ENDTAB
  0
TABLE
  2
APPID
  5
9
330
0
100
AcDbSymbolTable
 70
    17
  0
APPID
  5
12
330
9
100
AcDbSymbolTableRecord
100
AcDbRegAppTableRecord
  2
ACAD
 70
     0
  0
APPID
  5
641B
330
9
100
AcDbSymbolTableRecord
100
AcDbRegAppTableRecord
  2
ACAD_DSTYLE_DIMTEXT_FILL
 70
     0
  0
APPID
  5
641C
330
9
100
AcDbSymbolTableRecord
100
AcDbRegAppTableRecord
  2
ACAD_DSTYLE_DIMEXT_LENGTH
 70
     0
  0
APPID
  5
641D
330
9
100
AcDbSymbolTableRecord
100
AcDbRegAppTableRecord
  2
ACAD_DSTYLE_DIMEXT_ENABLED
 70
     0
  0
APPID
  5
641E
330
9
100
AcDbSymbolTableRecord
100
AcDbRegAppTableRecord
  2
ACAD_DSTYLE_DIM_LINETYPE
 70
     0
  0
APPID
  5
641F
330
9
100
AcDbSymbolTableRecord
100
AcDbRegAppTableRecord
  2
ACAD_DSTYLE_DIM_EXT1_LINETYPE
 70
     0
  0
APPID
  5
6420
330
9
100
AcDbSymbolTableRecord
100
AcDbRegAppTableRecord
  2
ACAD_DSTYLE_DIM_EXT2_LINETYPE
 70
     0
  0
APPID
  5
650C
330
9
100
AcDbSymbolTableRecord
100
AcDbRegAppTableRecord
  2
ACAD_DSTYLE_DIMJOGGED_JOGANGLE_SYMBOL
 70
     0
  0
APPID
  5
6750
330
9
100
AcDbSymbolTableRecord
100
AcDbRegAppTableRecord
  2
ACAD_DSTYLE_DIMARC_LENGTH_SYMBOL
 70
     0
  0
APPID
  5
683E
330
9
100
AcDbSymbolTableRecord
100
AcDbRegAppTableRecord
  2
ACAD_NAV_VCDISPLAY
 70
     0
  0
APPID
  5
68D8
330
9
100
AcDbSymbolTableRecord
100
AcDbRegAppTableRecord
  2
AcAecLayerStandard
 70
     0
  0
APPID
  5
68D9
330
9
100
AcDbSymbolTableRecord
100
AcDbRegAppTableRecord
  2
AcCmTransparency
 70
     0
  0
APPID
  5
796F
330
9
100
AcDbSymbolTableRecord
100
AcDbRegAppTableRecord
  2
ACAD_EXEMPT_FROM_CAD_STANDARDS
 70
     0
  0
APPID
  5
7EF5
330
9
100
AcDbSymbolTableRecord
100
AcDbRegAppTableRecord
  2
ACAD_DSTYLE_DIMJAG
 70
     0
  0
APPID
  5
7EF6
330
9
100
AcDbSymbolTableRecord
100
AcDbRegAppTableRecord
  2
ACAD_DSTYLE_DIMTALN
 70
     0
  0
APPID
  5
8DFA
330
9
100
AcDbSymbolTableRecord
100
AcDbRegAppTableRecord
  2
ACAD_PSEXT
 70
     0
  0
APPID
  5
8F7F
330
9
100
AcDbSymbolTableRecord
100
AcDbRegAppTableRecord
  2
ACAD_MLEADERVER
 70
     0
  0
ENDTAB
  0
TABLE
  2
DIMSTYLE
  5
A
330
0
100
AcDbSymbolTable
 70
     2
100
AcDbDimStyleTable
 71
     2
340
11C
340
126
  0
DIMSTYLE
105
11C
330
A
100
AcDbSymbolTableRecord
100
AcDbDimStyleTableRecord
  2
Standard
 70
     0
 41
20.0
140
50.0
141
20.0
340
11
341
2CB5
342
2CB5
1001
ACAD_DSTYLE_DIMJOGGED_JOGANGLE_SYMBOL
1070
   384
1040
0.7853981633974483
1001
ACAD_DSTYLE_DIMEXT_LENGTH
1070
   378
1040
0.18
  0
DIMSTYLE
105
126
102
{ACAD_REACTORS
330
9809
330
980A
330
980B
330
980C
330
980D
330
980E
330
980F
330
9810
330
99E7
102
}
330
A
100
AcDbSymbolTableRecord
100
AcDbDimStyleTableRecord
  2
AutoCAD
 70
     0
 41
10.0
 42
0.0
 44
0.0
 73
     0
 77
     1
140
50.0
147
15.0
174
     1
176
     4
177
     4
178
     3
271
     0
272
     0
289
     0
340
123
341
15B0
342
9337
1001
ACAD_DSTYLE_DIMJAG
1070
   388
1040
1.5
1001
ACAD_DSTYLE_DIMTALN
1070
   392
1070
     0
  0
ENDTAB
  0
TABLE
  2
BLOCK_RECORD
  5
1
330
0
100
AcDbSymbolTable
 70
    12
  0
BLOCK_RECORD
  5
1E
102
{ACAD_XDICTIONARY
360
28B
102
}
330
1
100
AcDbSymbolTableRecord
100
AcDbBlockTableRecord
  2
*Model_Space
340
21
  0
BLOCK_RECORD
  5
1A
102
{ACAD_XDICTIONARY
360
28D
102
}
330
1
100
AcDbSymbolTableRecord
100
AcDbBlockTableRecord
  2
*Paper_Space
340
1D
  0
BLOCK_RECORD
  5
15B0
330
1
100
AcDbSymbolTableRecord
100
AcDbBlockTableRecord
  2
_None
340
0
  0
BLOCK_RECORD
  5
2CB5
330
1
100
AcDbSymbolTableRecord
100
AcDbBlockTableRecord
  2
_Open30
340
0
  0
BLOCK_RECORD
  5
9337
330
1
100
AcDbSymbolTableRecord
100
AcDbBlockTableRecord
  2
_Small
340
0
102
{BLKREFS
331
9AE2
331
9AE3
331
9AEB
331
9AEC
331
9AF4
331
9AF5
331
9AFD
331
9AFE
331
9B06
331
9B07
331
9B0F
331
9B10
331
9B18
331
9B19
331
9B21
331
9B22
331
9B2A
331
9B2B
102
}
  0
BLOCK_RECORD
  5
9A73
330
1
100
AcDbSymbolTableRecord
100
AcDbBlockTableRecord
  2
*D3
340
0
  0
BLOCK_RECORD
  5
9A7F
330
1
100
AcDbSymbolTableRecord
100
AcDbBlockTableRecord
  2
*D4
340
0
  0
BLOCK_RECORD
  5
9A8B
330
1
100
AcDbSymbolTableRecord
100
AcDbBlockTableRecord
  2
*D5
340
0
  0
BLOCK_RECORD
  5
9A97
330
1
100
AcDbSymbolTableRecord
100
AcDbBlockTableRecord
  2
*D6
340
0
  0
BLOCK_RECORD
  5
9AA3
330
1
100
AcDbSymbolTableRecord
100
AcDbBlockTableRecord
  2
*D7
340
0
  0
BLOCK_RECORD
  5
9AAF
330
1
100
AcDbSymbolTableRecord
100
AcDbBlockTableRecord
  2
*D8
340
0
  0
BLOCK_RECORD
  5
9ABB
330
1
100
AcDbSymbolTableRecord
100
AcDbBlockTableRecord
  2
*D9
340
0
  0
BLOCK_RECORD
  5
9AC7
330
1
100
AcDbSymbolTableRecord
100
AcDbBlockTableRecord
  2
*D10
340
0
  0
BLOCK_RECORD
  5
9AD3
330
1
100
AcDbSymbolTableRecord
100
AcDbBlockTableRecord
  2
*D11
340
0
  0
ENDTAB
  0
ENDSEC
  0
SECTION
  2
BLOCKS
  0
BLOCK
  5
1F
330
1E
100
AcDbEntity
  8
0
100
AcDbBlockBegin
  2
*Model_Space
 70
     0
 10
0.0
 20
0.0
 30
0.0
  3
*Model_Space
  1

  0
ENDBLK
  5
20
330
1E
100
AcDbEntity
  8
0
100
AcDbBlockEnd
  0
BLOCK
  5
1B
330
1A
100
AcDbEntity
 67
     1
  8
0
100
AcDbBlockBegin
  2
*Paper_Space
 70
     0
 10
0.0
 20
0.0
 30
0.0
  3
*Paper_Space
  1

  0
ENDBLK
  5
1C
330
1A
100
AcDbEntity
 67
     1
  8
0
100
AcDbBlockEnd
  0
BLOCK
  5
15B1
330
15B0
100
AcDbEntity
  8
0
100
AcDbBlockBegin
  2
_None
 70
     0
 10
0.0
 20
0.0
 30
0.0
  3
_None
  1

  0
ENDBLK
  5
15B2
330
15B0
100
AcDbEntity
  8
0
100
AcDbBlockEnd
  0
BLOCK
  5
2CB9
330
2CB5
100
AcDbEntity
  8
0
100
AcDbBlockBegin
  2
_Open30
 70
     0
 10
0.0
 20
0.0
 30
0.0
  3
_Open30
  1

  0
LINE
  5
2CB6
330
2CB5
100
AcDbEntity
  8
0
  6
ByBlock
 62
     0
370
    -2
100
AcDbLine
 10
-1.0
 20
0.26794919
 30
0.0
 11
0.0
 21
0.0
 31
0.0
  0
LINE
  5
2CB7
330
2CB5
100
AcDbEntity
  8
0
  6
ByBlock
 62
     0
370
    -2
100
AcDbLine
 10
0.0
 20
0.0
 30
0.0
 11
-1.0
 21
-0.26794919
 31
0.0
  0
LINE
  5
2CB8
330
2CB5
100
AcDbEntity
  8
0
  6
ByBlock
 62
     0
370
    -2
100
AcDbLine
 10
0.0
 20
0.0
 30
0.0
 11
-1.0
 21
0.0
 31
0.0
  0
ENDBLK
  5
2CBA
330
2CB5
100
AcDbEntity
  8
0
100
AcDbBlockEnd
  0
BLOCK
  5
9339
330
9337
100
AcDbEntity
  8
0
 62
     3
100
AcDbBlockBegin
  2
_Small
 70
     0
 10
0.0
 20
0.0
 30
0.0
  3
_Small
  1

  0
CIRCLE
  5
9338
330
9337
100
AcDbEntity
  8
0
  6
ByBlock
 62
     0
370
    -2
100
AcDbCircle
 10
0.0
 20
0.0
 30
0.0
 40
0.25
  0
ENDBLK
  5
933A
330
9337
100
AcDbEntity
  8
0
 62
     3
100
AcDbBlockEnd
  0
BLOCK
  5
9A74
330
9A73
100
AcDbEntity
  8
0
 62
     3
100
AcDbBlockBegin
  2
*D3
 70
     1
 10
0.0
 20
0.0
 30
0.0
  3
*D3
  1

  0
LINE
  5
9ADF
330
9A73
100
AcDbEntity
  8
寸法
  6
Continuous
 62
     4
440
 16777216
370
    -2
100
AcDbLine
 10
2290.684713651134
 20
980.7167037654924
 30
0.0
 11
2290.684713651134
 21
816.2550919118196
 31
0.0
  0
LINE
  5
9AE0
330
9A73
100
AcDbEntity
  8
寸法
  6
Continuous
 62
     4
440
 16777216
370
    -2
100
AcDbLine
 10
2440.684713651134
 20
976.5846065380166
 30
0.0
 11
2440.684713651134
 21
816.2550919118196
 31
0.0
  0
LINE
  5
9AE1
330
9A73
100
AcDbEntity
  8
寸法
  6
Continuous
 62
     4
440
 16777216
370
    -2
100
AcDbLine
 10
2290.684713651134
 20
816.2550919118196
 30
0.0
 11
2440.684713651134
 21
816.2550919118196
 31
0.0
  0
INSERT
  5
9AE2
330
9A73
100
AcDbEntity
  8
寸法
  6
Continuous
 62
     4
440
 16777216
370
    -2
100
AcDbBlockReference
  2
_Small
 10
2290.684713651134
 20
816.2550919118196
 30
0.0
 41
10.0
 42
10.0
 43
10.0
 50
180.0
  0
INSERT
  5
9AE3
330
9A73
100
AcDbEntity
  8
寸法
  6
Continuous
 62
     4
440
 16777216
370
    -2
100
AcDbBlockReference
  2
_Small
 10
2440.684713651134
 20
816.2550919118196
 30
0.0
 41
10.0
 42
10.0
 43
10.0
  0
MTEXT
  5
9AE4
330
9A73
100
AcDbEntity
  8
寸法
  6
Continuous
 62
     3
440
 16777216
100
AcDbMText
 10
2365.684713651134
 20
856.2550919118196
 30
0.0
 40
50.0
 41
0.0
 71
     5
 72
     1
  1
\A1;150
  7
ACAD
 73
     1
 44
1.0
  0
POINT
  5
9AE5
330
9A73
100
AcDbEntity
  8
Defpoints
  6
Continuous
 62
     0
440
 16777216
100
AcDbPoint
 10
2290.684713651134
 20
980.7167037654924
 30
0.0
  0
POINT
  5
9AE6
330
9A73
100
AcDbEntity
  8
Defpoints
  6
Continuous
 62
     0
440
 16777216
100
AcDbPoint
 10
2440.684713651134
 20
976.5846065380166
 30
0.0
  0
POINT
  5
9AE7
330
9A73
100
AcDbEntity
  8
Defpoints
  6
Continuous
 62
     0
440
 16777216
100
AcDbPoint
 10
2440.684713651134
 20
816.2550919118196
 30
0.0
  0
ENDBLK
  5
9A75
330
9A73
100
AcDbEntity
  8
0
 62
     3
100
AcDbBlockEnd
  0
BLOCK
  5
9A80
330
9A7F
100
AcDbEntity
  8
0
 62
     3
100
AcDbBlockBegin
  2
*D4
 70
     1
 10
0.0
 20
0.0
 30
0.0
  3
*D4
  1

  0
LINE
  5
9AE8
330
9A7F
100
AcDbEntity
  8
寸法
  6
Continuous
 62
     4
440
 16777216
370
    -2
100
AcDbLine
 10
3383.902623946795
 20
980.7167037654924
 30
0.0
 11
3496.380523132194
 21
980.7167037654924
 31
0.0
  0
LINE
  5
9AE9
330
9A7F
100
AcDbEntity
  8
寸法
  6
Continuous
 62
     4
440
 16777216
370
    -2
100
AcDbLine
 10
3381.067353946799
 20
1067.716703765492
 30
0.0
 11
3496.380523132195
 21
1067.716703765492
 31
0.0
  0
LINE
  5
9AEA
330
9A7F
100
AcDbEntity
  8
寸法
  6
Continuous
 62
     4
440
 16777216
370
    -2
100
AcDbLine
 10
3496.380523132194
 20
980.7167037654924
 30
0.0
 11
3496.380523132195
 21
1067.716703765492
 31
0.0
  0
INSERT
  5
9AEB
330
9A7F
100
AcDbEntity
  8
寸法
  6
Continuous
 62
     4
440
 16777216
370
    -2
100
AcDbBlockReference
  2
_Small
 10
3496.380523132194
 20
980.7167037654924
 30
0.0
 41
10.0
 42
10.0
 43
10.0
 50
270.0
  0
INSERT
  5
9AEC
330
9A7F
100
AcDbEntity
  8
寸法
  6
Continuous
 62
     4
440
 16777216
370
    -2
100
AcDbBlockReference
  2
_Small
 10
3496.380523132195
 20
1067.716703765492
 30
0.0
 41
10.0
 42
10.0
 43
10.0
 50
90.0
  0
MTEXT
  5
9AED
330
9A7F
100
AcDbEntity
  8
寸法
  6
Continuous
 62
     3
440
 16777216
100
AcDbMText
 10
3456.380523132195
 20
1024.216703765493
 30
0.0
 40
50.0
 41
0.0
 71
     5
 72
     1
  1
\A1;h
  7
ACAD
 11
0.0000000000000001
 21
1.0
 31
0.0
 73
     1
 44
1.0
  0
POINT
  5
9AEE
330
9A7F
100
AcDbEntity
  8
Defpoints
  6
Continuous
 62
     0
440
 16777216
100
AcDbPoint
 10
3383.902623946795
 20
980.7167037654924
 30
0.0
  0
POINT
  5
9AEF
330
9A7F
100
AcDbEntity
  8
Defpoints
  6
Continuous
 62
     0
440
 16777216
100
AcDbPoint
 10
3381.067353946799
 20
1067.716703765492
 30
0.0
  0
POINT
  5
9AF0
330
9A7F
100
AcDbEntity
  8
Defpoints
  6
Continuous
 62
     0
440
 16777216
100
AcDbPoint
 10
3496.380523132195
 20
1067.716703765492
 30
0.0
  0
ENDBLK
  5
9A81
330
9A7F
100
AcDbEntity
  8
0
 62
     3
100
AcDbBlockEnd
  0
BLOCK
  5
9A8C
330
9A8B
100
AcDbEntity
  8
0
 62
     3
100
AcDbBlockBegin
  2
*D5
 70
     1
 10
0.0
 20
0.0
 30
0.0
  3
*D5
  1

  0
LINE
  5
9AF1
330
9A8B
100
AcDbEntity
  8
寸法
  6
Continuous
 62
     4
440
 16777216
370
    -2
100
AcDbLine
 10
3383.902623946795
 20
980.7167037654924
 30
0.0
 11
3585.253902952605
 21
980.7167037654924
 31
0.0
  0
LINE
  5
9AF2
330
9A8B
100
AcDbEntity
  8
寸法
  6
Continuous
 62
     4
440
 16777216
370
    -2
100
AcDbLine
 10
3382.829783946798
 20
1100.716703765492
 30
0.0
 11
3585.253902952605
 21
1100.716703765492
 31
0.0
  0
LINE
  5
9AF3
330
9A8B
100
AcDbEntity
  8
寸法
  6
Continuous
 62
     4
440
 16777216
370
    -2
100
AcDbLine
 10
3585.253902952605
 20
980.7167037654924
 30
0.0
 11
3585.253902952605
 21
1100.716703765492
 31
0.0
  0
INSERT
  5
9AF4
330
9A8B
100
AcDbEntity
  8
寸法
  6
Continuous
 62
     4
440
 16777216
370
    -2
100
AcDbBlockReference
  2
_Small
 10
3585.253902952605
 20
980.7167037654924
 30
0.0
 41
10.0
 42
10.0
 43
10.0
 50
270.0
  0
INSERT
  5
9AF5
330
9A8B
100
AcDbEntity
  8
寸法
  6
Continuous
 62
     4
440
 16777216
370
    -2
100
AcDbBlockReference
  2
_Small
 10
3585.253902952605
 20
1100.716703765492
 30
0.0
 41
10.0
 42
10.0
 43
10.0
 50
90.0
  0
MTEXT
  5
9AF6
330
9A8B
100
AcDbEntity
  8
寸法
  6
Continuous
 62
     3
440
 16777216
100
AcDbMText
 10
3545.253902952605
 20
1040.716703765493
 30
0.0
 40
50.0
 41
0.0
 71
     5
 72
     1
  1
\A1;H
  7
ACAD
 11
0.0000000000000001
 21
1.0
 31
0.0
 73
     1
 44
1.0
  0
POINT
  5
9AF7
330
9A8B
100
AcDbEntity
  8
Defpoints
  6
Continuous
 62
     0
440
 16777216
100
AcDbPoint
 10
3383.902623946795
 20
980.7167037654924
 30
0.0
  0
POINT
  5
9AF8
330
9A8B
100
AcDbEntity
  8
Defpoints
  6
Continuous
 62
     0
440
 16777216
100
AcDbPoint
 10
3382.829783946798
 20
1100.716703765492
 30
0.0
  0
POINT
  5
9AF9
330
9A8B
100
AcDbEntity
  8
Defpoints
  6
Continuous
 62
     0
440
 16777216
100
AcDbPoint
 10
3585.253902952605
 20
1100.716703765492
 30
0.0
  0
ENDBLK
  5
9A8D
330
9A8B
100
AcDbEntity
  8
0
 62
     3
100
AcDbBlockEnd
  0
BLOCK
  5
9A98
330
9A97
100
AcDbEntity
  8
0
 62
     3
100
AcDbBlockBegin
  2
*D6
 70
     1
 10
0.0
 20
0.0
 30
0.0
  3
*D6
  1

  0
LINE
  5
9AFA
330
9A97
100
AcDbEntity
  8
寸法
  6
Continuous
 62
     4
440
 16777216
370
    -2
100
AcDbLine
 10
2440.684713651134
 20
978.2548065380165
 30
0.0
 11
2440.684713651134
 21
816.2550919118196
 31
0.0
  0
LINE
  5
9AFB
330
9A97
100
AcDbEntity
  8
寸法
  6
Continuous
 62
     4
440
 16777216
370
    -2
100
AcDbLine
 10
3062.684713651135
 20
978.2548065380165
 30
0.0
 11
3062.684713651135
 21
816.2550919118196
 31
0.0
  0
LINE
  5
9AFC
330
9A97
100
AcDbEntity
  8
寸法
  6
Continuous
 62
     4
440
 16777216
370
    -2
100
AcDbLine
 10
2440.684713651134
 20
816.2550919118196
 30
0.0
 11
3062.684713651135
 21
816.2550919118196
 31
0.0
  0
INSERT
  5
9AFD
330
9A97
100
AcDbEntity
  8
寸法
  6
Continuous
 62
     4
440
 16777216
370
    -2
100
AcDbBlockReference
  2
_Small
 10
2440.684713651134
 20
816.2550919118196
 30
0.0
 41
10.0
 42
10.0
 43
10.0
 50
180.0
  0
INSERT
  5
9AFE
330
9A97
100
AcDbEntity
  8
寸法
  6
Continuous
 62
     4
440
 16777216
370
    -2
100
AcDbBlockReference
  2
_Small
 10
3062.684713651135
 20
816.2550919118196
 30
0.0
 41
10.0
 42
10.0
 43
10.0
  0
MTEXT
  5
9AFF
330
9A97
100
AcDbEntity
  8
寸法
  6
Continuous
 62
     3
440
 16777216
100
AcDbMText
 10
2751.684713651134
 20
856.2550919118196
 30
0.0
 40
50.0
 41
0.0
 71
     5
 72
     1
  1
\A1;900以内
  7
ACAD
 73
     1
 44
1.0
  0
POINT
  5
9B00
330
9A97
100
AcDbEntity
  8
Defpoints
  6
Continuous
 62
     0
440
 16777216
100
AcDbPoint
 10
2440.684713651134
 20
978.2548065380165
 30
0.0
  0
POINT
  5
9B01
330
9A97
100
AcDbEntity
  8
Defpoints
  6
Continuous
 62
     0
440
 16777216
100
AcDbPoint
 10
3062.684713651135
 20
978.2548065380165
 30
0.0
  0
POINT
  5
9B02
330
9A97
100
AcDbEntity
  8
Defpoints
  6
Continuous
 62
     0
440
 16777216
100
AcDbPoint
 10
3062.684713651135
 20
816.2550919118196
 30
0.0
  0
ENDBLK
  5
9A99
330
9A97
100
AcDbEntity
  8
0
 62
     3
100
AcDbBlockEnd
  0
BLOCK
  5
9AA4
330
9AA3
100
AcDbEntity
  8
0
 62
     3
100
AcDbBlockBegin
  2
*D7
 70
     1
 10
0.0
 20
0.0
 30
0.0
  3
*D7
  1

  0
LINE
  5
9B03
330
9AA3
100
AcDbEntity
  8
寸法
  6
Continuous
 62
     4
440
 16777216
370
    -2
100
AcDbLine
 10
4098.639539177675
 20
1129.637733765491
 30
0.0
 11
4098.639539177675
 21
1218.869053765491
 31
0.0
  0
LINE
  5
9B04
330
9AA3
100
AcDbEntity
  8
寸法
  6
Continuous
 62
     4
440
 16777216
370
    -2
100
AcDbLine
 10
4398.639539177675
 20
1129.136573765492
 30
0.0
 11
4398.639539177675
 21
1218.869053765491
 31
0.0
  0
LINE
  5
9B05
330
9AA3
100
AcDbEntity
  8
寸法
  6
Continuous
 62
     4
440
 16777216
370
    -2
100
AcDbLine
 10
4098.639539177675
 20
1218.869053765491
 30
0.0
 11
4398.639539177675
 21
1218.869053765491
 31
0.0
  0
INSERT
  5
9B06
330
9AA3
100
AcDbEntity
  8
寸法
  6
Continuous
 62
     4
440
 16777216
370
    -2
100
AcDbBlockReference
  2
_Small
 10
4098.639539177675
 20
1218.869053765491
 30
0.0
 41
10.0
 42
10.0
 43
10.0
 50
180.0
  0
INSERT
  5
9B07
330
9AA3
100
AcDbEntity
  8
寸法
  6
Continuous
 62
     4
440
 16777216
370
    -2
100
AcDbBlockReference
  2
_Small
 10
4398.639539177675
 20
1218.869053765491
 30
0.0
 41
10.0
 42
10.0
 43
10.0
  0
MTEXT
  5
9B08
330
9AA3
100
AcDbEntity
  8
寸法
  6
Continuous
 62
     3
440
 16777216
100
AcDbMText
 10
4248.639539177675
 20
1258.869053765491
 30
0.0
 40
50.0
 41
0.0
 71
     5
 72
     1
  1
\A1;300
  7
ACAD
 73
     1
 44
1.0
  0
POINT
  5
9B09
330
9AA3
100
AcDbEntity
  8
Defpoints
  6
Continuous
 62
     0
440
 16777216
100
AcDbPoint
 10
4098.639539177675
 20
1129.637733765491
 30
0.0
  0
POINT
  5
9B0A
330
9AA3
100
AcDbEntity
  8
Defpoints
  6
Continuous
 62
     0
440
 16777216
100
AcDbPoint
 10
4398.639539177675
 20
1129.136573765492
 30
0.0
  0
POINT
  5
9B0B
330
9AA3
100
AcDbEntity
  8
Defpoints
  6
Continuous
 62
     0
440
 16777216
100
AcDbPoint
 10
4398.639539177675
 20
1218.869053765491
 30
0.0
  0
ENDBLK
  5
9AA5
330
9AA3
100
AcDbEntity
  8
0
 62
     3
100
AcDbBlockEnd
  0
BLOCK
  5
9AB0
330
9AAF
100
AcDbEntity
  8
0
 62
     3
100
AcDbBlockBegin
  2
*D8
 70
     1
 10
0.0
 20
0.0
 30
0.0
  3
*D8
  1

  0
LINE
  5
9B0C
330
9AAF
100
AcDbEntity
  8
寸法
  6
Continuous
 62
     4
440
 16777216
370
    -2
100
AcDbLine
 10
4398.639539177675
 20
1129.136573765492
 30
0.0
 11
4398.639539177675
 21
1218.869053765491
 31
0.0
  0
LINE
  5
9B0D
330
9AAF
100
AcDbEntity
  8
寸法
  6
Continuous
 62
     4
440
 16777216
370
    -2
100
AcDbLine
 10
4698.639539177675
 20
1129.136573765492
 30
0.0
 11
4698.639539177675
 21
1218.869053765491
 31
0.0
  0
LINE
  5
9B0E
330
9AAF
100
AcDbEntity
  8
寸法
  6
Continuous
 62
     4
440
 16777216
370
    -2
100
AcDbLine
 10
4398.639539177675
 20
1218.869053765491
 30
0.0
 11
4698.639539177675
 21
1218.869053765491
 31
0.0
  0
INSERT
  5
9B0F
330
9AAF
100
AcDbEntity
  8
寸法
  6
Continuous
 62
     4
440
 16777216
370
    -2
100
AcDbBlockReference
  2
_Small
 10
4398.639539177675
 20
1218.869053765491
 30
0.0
 41
10.0
 42
10.0
 43
10.0
 50
180.0
  0
INSERT
  5
9B10
330
9AAF
100
AcDbEntity
  8
寸法
  6
Continuous
 62
     4
440
 16777216
370
    -2
100
AcDbBlockReference
  2
_Small
 10
4698.639539177675
 20
1218.869053765491
 30
0.0
 41
10.0
 42
10.0
 43
10.0
  0
MTEXT
  5
9B11
330
9AAF
100
AcDbEntity
  8
寸法
  6
Continuous
 62
     3
440
 16777216
100
AcDbMText
 10
4548.639539177675
 20
1258.869053765491
 30
0.0
 40
50.0
 41
0.0
 71
     5
 72
     1
  1
\A1;300
  7
ACAD
 73
     1
 44
1.0
  0
POINT
  5
9B12
330
9AAF
100
AcDbEntity
  8
Defpoints
  6
Continuous
 62
     0
440
 16777216
100
AcDbPoint
 10
4398.639539177675
 20
1129.136573765492
 30
0.0
  0
POINT
  5
9B13
330
9AAF
100
AcDbEntity
  8
Defpoints
  6
Continuous
 62
     0
440
 16777216
100
AcDbPoint
 10
4698.639539177675
 20
1129.136573765492
 30
0.0
  0
POINT
  5
9B14
330
9AAF
100
AcDbEntity
  8
Defpoints
  6
Continuous
 62
     0
440
 16777216
100
AcDbPoint
 10
4698.639539177675
 20
1218.869053765491
 30
0.0
  0
ENDBLK
  5
9AB1
330
9AAF
100
AcDbEntity
  8
0
 62
     3
100
AcDbBlockEnd
  0
BLOCK
  5
9ABC
330
9ABB
100
AcDbEntity
  8
0
 62
     3
100
AcDbBlockBegin
  2
*D9
 70
     1
 10
0.0
 20
0.0
 30
0.0
  3
*D9
  1

  0
LINE
  5
9B15
330
9ABB
100
AcDbEntity
  8
寸法
  6
Continuous
 62
     4
440
 16777216
370
    -2
100
AcDbLine
 10
4957.353665980811
 20
980.7167037654924
 30
0.0
 11
5070.417138265886
 21
980.7167037654924
 31
0.0
  0
LINE
  5
9B16
330
9ABB
100
AcDbEntity
  8
寸法
  6
Continuous
 62
     4
440
 16777216
370
    -2
100
AcDbLine
 10
4956.123955980813
 20
1067.716703765493
 30
0.0
 11
5070.417138265886
 21
1067.716703765493
 31
0.0
  0
LINE
  5
9B17
330
9ABB
100
AcDbEntity
  8
寸法
  6
Continuous
 62
     4
440
 16777216
370
    -2
100
AcDbLine
 10
5070.417138265886
 20
980.7167037654924
 30
0.0
 11
5070.417138265886
 21
1067.716703765493
 31
0.0
  0
INSERT
  5
9B18
330
9ABB
100
AcDbEntity
  8
寸法
  6
Continuous
 62
     4
440
 16777216
370
    -2
100
AcDbBlockReference
  2
_Small
 10
5070.417138265886
 20
980.7167037654924
 30
0.0
 41
10.0
 42
10.0
 43
10.0
 50
270.0
  0
INSERT
  5
9B19
330
9ABB
100
AcDbEntity
  8
寸法
  6
Continuous
 62
     4
440
 16777216
370
    -2
100
AcDbBlockReference
  2
_Small
 10
5070.417138265886
 20
1067.716703765493
 30
0.0
 41
10.0
 42
10.0
 43
10.0
 50
90.0
  0
MTEXT
  5
9B1A
330
9ABB
100
AcDbEntity
  8
寸法
  6
Continuous
 62
     3
440
 16777216
100
AcDbMText
 10
5030.417138265886
 20
1024.216703765493
 30
0.0
 40
50.0
 41
0.0
 71
     5
 72
     1
  1
\A1;h
  7
ACAD
 11
0.0000000000000001
 21
1.0
 31
0.0
 73
     1
 44
1.0
  0
POINT
  5
9B1B
330
9ABB
100
AcDbEntity
  8
Defpoints
  6
Continuous
 62
     0
440
 16777216
100
AcDbPoint
 10
4957.353665980811
 20
980.7167037654924
 30
0.0
  0
POINT
  5
9B1C
330
9ABB
100
AcDbEntity
  8
Defpoints
  6
Continuous
 62
     0
440
 16777216
100
AcDbPoint
 10
4956.123955980813
 20
1067.716703765493
 30
0.0
  0
POINT
  5
9B1D
330
9ABB
100
AcDbEntity
  8
Defpoints
  6
Continuous
 62
     0
440
 16777216
100
AcDbPoint
 10
5070.417138265886
 20
1067.716703765493
 30
0.0
  0
ENDBLK
  5
9ABD
330
9ABB
100
AcDbEntity
  8
0
 62
     3
100
AcDbBlockEnd
  0
BLOCK
  5
9AC8
330
9AC7
100
AcDbEntity
  8
0
 62
     3
100
AcDbBlockBegin
  2
*D10
 70
     1
 10
0.0
 20
0.0
 30
0.0
  3
*D10
  1

  0
LINE
  5
9B1E
330
9AC7
100
AcDbEntity
  8
寸法
  6
Continuous
 62
     4
440
 16777216
370
    -2
100
AcDbLine
 10
4957.353665980811
 20
980.7167037654924
 30
0.0
 11
5158.45372402315
 21
980.7167037654924
 31
0.0
  0
LINE
  5
9B1F
330
9AC7
100
AcDbEntity
  8
寸法
  6
Continuous
 62
     4
440
 16777216
370
    -2
100
AcDbLine
 10
4957.478405980811
 20
1100.716703765492
 30
0.0
 11
5158.45372402315
 21
1100.716703765492
 31
0.0
  0
LINE
  5
9B20
330
9AC7
100
AcDbEntity
  8
寸法
  6
Continuous
 62
     4
440
 16777216
370
    -2
100
AcDbLine
 10
5158.45372402315
 20
980.7167037654924
 30
0.0
 11
5158.45372402315
 21
1100.716703765492
 31
0.0
  0
INSERT
  5
9B21
330
9AC7
100
AcDbEntity
  8
寸法
  6
Continuous
 62
     4
440
 16777216
370
    -2
100
AcDbBlockReference
  2
_Small
 10
5158.45372402315
 20
980.7167037654924
 30
0.0
 41
10.0
 42
10.0
 43
10.0
 50
270.0
  0
INSERT
  5
9B22
330
9AC7
100
AcDbEntity
  8
寸法
  6
Continuous
 62
     4
440
 16777216
370
    -2
100
AcDbBlockReference
  2
_Small
 10
5158.45372402315
 20
1100.716703765492
 30
0.0
 41
10.0
 42
10.0
 43
10.0
 50
90.0
  0
MTEXT
  5
9B23
330
9AC7
100
AcDbEntity
  8
寸法
  6
Continuous
 62
     3
440
 16777216
100
AcDbMText
 10
5118.453724023149
 20
1040.716703765493
 30
0.0
 40
50.0
 41
0.0
 71
     5
 72
     1
  1
\A1;H
  7
ACAD
 11
0.0000000000000001
 21
1.0
 31
0.0
 73
     1
 44
1.0
  0
POINT
  5
9B24
330
9AC7
100
AcDbEntity
  8
Defpoints
  6
Continuous
 62
     0
440
 16777216
100
AcDbPoint
 10
4957.353665980811
 20
980.7167037654924
 30
0.0
  0
POINT
  5
9B25
330
9AC7
100
AcDbEntity
  8
Defpoints
  6
Continuous
 62
     0
440
 16777216
100
AcDbPoint
 10
4957.478405980811
 20
1100.716703765492
 30
0.0
  0
POINT
  5
9B26
330
9AC7
100
AcDbEntity
  8
Defpoints
  6
Continuous
 62
     0
440
 16777216
100
AcDbPoint
 10
5158.45372402315
 20
1100.716703765492
 30
0.0
  0
ENDBLK
  5
9AC9
330
9AC7
100
AcDbEntity
  8
0
 62
     3
100
AcDbBlockEnd
  0
BLOCK
  5
9AD4
330
9AD3
100
AcDbEntity
  8
0
 62
     3
100
AcDbBlockBegin
  2
*D11
 70
     1
 10
0.0
 20
0.0
 30
0.0
  3
*D11
  1

  0
LINE
  5
9B27
330
9AD3
100
AcDbEntity
  8
寸法
  6
Continuous
 62
     4
440
 16777216
370
    -2
100
AcDbLine
 10
3798.639539177675
 20
1129.637733765491
 30
0.0
 11
3798.639539177675
 21
1218.869053765491
 31
0.0
  0
LINE
  5
9B28
330
9AD3
100
AcDbEntity
  8
寸法
  6
Continuous
 62
     4
440
 16777216
370
    -2
100
AcDbLine
 10
4098.639539177675
 20
1129.136573765492
 30
0.0
 11
4098.639539177675
 21
1218.869053765491
 31
0.0
  0
LINE
  5
9B29
330
9AD3
100
AcDbEntity
  8
寸法
  6
Continuous
 62
     4
440
 16777216
370
    -2
100
AcDbLine
 10
3798.639539177675
 20
1218.869053765491
 30
0.0
 11
4098.639539177675
 21
1218.869053765491
 31
0.0
  0
INSERT
  5
9B2A
330
9AD3
100
AcDbEntity
  8
寸法
  6
Continuous
 62
     4
440
 16777216
370
    -2
100
AcDbBlockReference
  2
_Small
 10
3798.639539177675
 20
1218.869053765491
 30
0.0
 41
10.0
 42
10.0
 43
10.0
 50
180.0
  0
INSERT
  5
9B2B
330
9AD3
100
AcDbEntity
  8
寸法
  6
Continuous
 62
     4
440
 16777216
370
    -2
100
AcDbBlockReference
  2
_Small
 10
4098.639539177675
 20
1218.869053765491
 30
0.0
 41
10.0
 42
10.0
 43
10.0
  0
MTEXT
  5
9B2C
330
9AD3
100
AcDbEntity
  8
寸法
  6
Continuous
 62
     3
440
 16777216
100
AcDbMText
 10
3948.639539177675
 20
1258.869053765491
 30
0.0
 40
50.0
 41
0.0
 71
     5
 72
     1
  1
\A1;300以内
  7
ACAD
 73
     1
 44
1.0
  0
POINT
  5
9B2D
330
9AD3
100
AcDbEntity
  8
Defpoints
  6
Continuous
 62
     0
440
 16777216
100
AcDbPoint
 10
3798.639539177675
 20
1129.637733765491
 30
0.0
  0
POINT
  5
9B2E
330
9AD3
100
AcDbEntity
  8
Defpoints
  6
Continuous
 62
     0
440
 16777216
100
AcDbPoint
 10
4098.639539177675
 20
1129.136573765492
 30
0.0
  0
POINT
  5
9B2F
330
9AD3
100
AcDbEntity
  8
Defpoints
  6
Continuous
 62
     0
440
 16777216
100
AcDbPoint
 10
4098.639539177675
 20
1218.869053765491
 30
0.0
  0
ENDBLK
  5
9AD5
330
9AD3
100
AcDbEntity
  8
0
 62
     3
100
AcDbBlockEnd
  0
ENDSEC
  0
SECTION
  2
ENTITIES
  0
LINE
  5
97B6
330
1E
100
AcDbEntity
  8
躯体と製品
  6
Continuous
 62
     3
100
AcDbLine
 10
2278.184713651134
 20
1529.610963765492
 30
0.0
 11
2278.184713651134
 21
1195.716703765492
 31
0.0
  0
LINE
  5
97B7
330
1E
100
AcDbEntity
  8
躯体と製品
  6
Continuous
 62
     3
100
AcDbLine
 10
2290.684713651134
 20
1190.716703765492
 30
0.0
 11
2290.684713651134
 21
1529.610963765492
 31
0.0
  0
LINE
  5
97B8
330
1E
100
AcDbEntity
  8
躯体と製品
  6
Continuous
 62
     4
100
AcDbLine
 10
2253.184713651134
 20
980.7167037654922
 30
0.0
 11
2253.184713651134
 21
1529.610963765492
 31
0.0
  0
TEXT
  5
97B9
330
1E
100
AcDbEntity
  8
文字-記号
  6
Continuous
 62
     7
100
AcDbText
 10
2737.474022953708
 20
1153.420737851909
 30
0.0
 40
45.0
  1
捨板
 41
0.8
  7
ACAD
100
AcDbText
  0
LINE
  5
97BA
330
1E
100
AcDbEntity
  8
躯体と製品
  6
Continuous
 62
     4
100
AcDbLine
 10
3371.164833651131
 20
980.7167037654924
 30
0.0
 11
2253.184713651134
 21
980.7167037654924
 31
0.0
  0
LINE
  5
97BB
330
1E
100
AcDbEntity
  8
躯体と製品
  6
Continuous
 62
     4
100
AcDbLine
 10
3371.164833651131
 20
1100.716703765492
 30
0.0
 11
2290.684713651134
 21
1100.716703765492
 31
0.0
  0
TEXT
  5
97BC
330
1E
100
AcDbEntity
  8
文字-記号
  6
Continuous
 62
     7
100
AcDbText
 10
2626.712842146771
 20
1219.340722036991
 30
0.0
 40
45.0
  1
フローリング
 41
0.8
  7
ACAD
100
AcDbText
  0
LINE
  5
97BD
330
1E
100
AcDbEntity
  8
躯体と製品
  6
Continuous
 62
     3
100
AcDbLine
 10
2253.184713651134
 20
1058.281873765491
 30
0.0
 11
2191.490633651134
 21
996.5878037654915
 31
0.0
  0
LINE
  5
97BE
330
1E
100
AcDbEntity
  8
躯体と製品
  6
Continuous
 62
     3
100
AcDbLine
 10
2253.184713651134
 20
1029.997603765492
 30
0.0
 11
2191.490633651134
 21
968.3035337654924
 31
0.0
  0
LINE
  5
97BF
330
1E
100
AcDbEntity
  8
躯体と製品
  6
Continuous
 62
     3
100
AcDbLine
 10
2253.184713651134
 20
1044.139743765492
 30
0.0
 11
2191.490633651134
 21
982.4456637654911
 31
0.0
  0
LINE
  5
97C0
330
1E
100
AcDbEntity
  8
躯体と製品
  6
Continuous
 62
     3
100
AcDbLine
 10
2589.939943651133
 20
980.7167037654924
 30
0.0
 11
2539.696733651134
 21
930.4734937654925
 31
0.0
  0
LINE
  5
97C1
330
1E
100
AcDbEntity
  8
躯体と製品
  6
Continuous
 62
     3
100
AcDbLine
 10
2576.012953651133
 20
980.7167037654924
 30
0.0
 11
2527.544053651133
 21
932.2478037654921
 31
0.0
  0
LINE
  5
97C2
330
1E
100
AcDbEntity
  8
躯体と製品
  6
Continuous
 62
     3
100
AcDbLine
 10
2562.085963651133
 20
980.7167037654924
 30
0.0
 11
2515.489603651134
 21
934.1203537654926
 31
0.0
  0
LINE
  5
97C3
330
1E
100
AcDbEntity
  8
躯体と製品
  6
Continuous
 62
     6
100
AcDbLine
 10
2281.196663651134
 20
1105.716703765492
 30
0.0
 11
2303.184713651134
 21
1127.704743765492
 31
0.0
  0
LINE
  5
97C4
330
1E
100
AcDbEntity
  8
躯体と製品
  6
Continuous
 62
     3
100
AcDbLine
 10
2303.184713651134
 20
1105.716703765492
 30
0.0
 11
2303.184713651134
 21
1200.716703765492
 31
0.0
  0
LINE
  5
97C5
330
1E
100
AcDbEntity
  8
躯体と製品
  6
Continuous
 62
     3
100
AcDbLine
 10
2278.184713651134
 20
1195.716703765492
 30
0.0
 11
2278.184713651134
 21
1105.716703765492
 31
0.0
  0
LINE
  5
97C6
330
1E
100
AcDbEntity
  8
躯体と製品
  6
Continuous
 62
     4
100
AcDbLine
 10
2290.684713651134
 20
1038.716703765492
 30
0.0
 11
2290.684713651134
 21
1100.716703765492
 31
0.0
  0
LINE
  5
97C7
330
1E
100
AcDbEntity
  8
躯体と製品
  6
Continuous
 62
     6
100
AcDbLine
 10
2298.167223651134
 20
1105.716703765492
 30
0.0
 11
2303.184713651134
 21
1110.734183765491
 31
0.0
  0
LINE
  5
97C8
330
1E
100
AcDbEntity
  8
躯体と製品
  6
Continuous
 62
     3
100
AcDbLine
 10
2278.184713651134
 20
1105.716703765492
 30
0.0
 11
2303.184713651134
 21
1105.716703765492
 31
0.0
  0
LINE
  5
97C9
330
1E
100
AcDbEntity
  8
躯体と製品
  6
Continuous
 62
     6
100
AcDbLine
 10
2278.184713651134
 20
1170.587003765492
 30
0.0
 11
2303.184713651134
 21
1195.587003765492
 31
0.0
  0
LINE
  5
97CA
330
1E
100
AcDbEntity
  8
躯体と製品
  6
Continuous
 62
     6
100
AcDbLine
 10
2278.184713651134
 20
1136.645873765491
 30
0.0
 11
2303.184713651134
 21
1161.645873765491
 31
0.0
  0
LINE
  5
97CB
330
1E
100
AcDbEntity
  8
躯体と製品
  6
Continuous
 62
     3
100
AcDbLine
 10
2253.184713651134
 20
1177.548963765492
 30
0.0
 11
2278.184713651134
 21
1124.205653765491
 31
0.0
  0
LINE
  5
97CC
330
1E
100
AcDbEntity
  8
躯体と製品
  6
Continuous
 62
     3
100
AcDbLine
 10
2253.184713651134
 20
1124.205653765491
 30
0.0
 11
2278.184713651134
 21
1124.205653765491
 31
0.0
  0
LINE
  5
97CD
330
1E
100
AcDbEntity
  8
躯体と製品
  6
Continuous
 62
     6
100
AcDbLine
 10
2278.184713651134
 20
1119.675313765492
 30
0.0
 11
2303.184713651134
 21
1144.675313765492
 31
0.0
  0
LINE
  5
97CE
330
1E
100
AcDbEntity
  8
躯体と製品
  6
Continuous
 62
     3
100
AcDbLine
 10
2253.184713651134
 20
1177.548963765492
 30
0.0
 11
2278.184713651134
 21
1177.548963765492
 31
0.0
  0
LINE
  5
97CF
330
1E
100
AcDbEntity
  8
躯体と製品
  6
Continuous
 62
     6
100
AcDbLine
 10
2278.184713651134
 20
1153.616433765491
 30
0.0
 11
2303.184713651134
 21
1178.616433765491
 31
0.0
  0
LINE
  5
97D0
330
1E
100
AcDbEntity
  8
躯体と製品
  6
Continuous
 62
     3
100
AcDbLine
 10
2278.184713651134
 20
1197.548963765492
 30
0.0
 11
2253.184713651134
 21
1250.716703765492
 31
0.0
  0
LINE
  5
97D1
330
1E
100
AcDbEntity
  8
躯体と製品
  6
Continuous
 62
     3
100
AcDbLine
 10
2253.184713651134
 20
1197.548963765492
 30
0.0
 11
2278.184713651134
 21
1197.548963765492
 31
0.0
  0
LINE
  5
97D2
330
1E
100
AcDbEntity
  8
躯体と製品
  6
Continuous
 62
     6
100
AcDbLine
 10
2278.184713651134
 20
1187.557563765492
 30
0.0
 11
2281.343853651134
 21
1190.716703765492
 31
0.0
  0
LINE
  5
97D3
330
1E
100
AcDbEntity
  8
躯体と製品
  6
Continuous
 62
     3
100
AcDbLine
 10
2278.184713651134
 20
1190.716703765492
 30
0.0
 11
2290.684713651134
 21
1190.716703765492
 31
0.0
  0
LINE
  5
97D4
330
1E
100
AcDbEntity
  8
躯体と製品
  6
Continuous
 62
     3
100
AcDbLine
 10
2253.184713651134
 20
1250.716703765492
 30
0.0
 11
2278.184713651134
 21
1250.716703765492
 31
0.0
  0
LINE
  5
97D5
330
1E
100
AcDbEntity
  8
躯体と製品
  6
Continuous
 62
     3
100
AcDbLine
 10
2278.184713651134
 20
1195.716703765492
 30
0.0
 11
2290.684713651134
 21
1195.716703765492
 31
0.0
  0
LINE
  5
97D6
330
1E
100
AcDbEntity
  8
躯体と製品
  6
Continuous
 62
     3
100
AcDbLine
 10
2290.684713651134
 20
1200.716703765492
 30
0.0
 11
2303.184713651134
 21
1200.716703765492
 31
0.0
  0
LINE
  5
97D7
330
1E
100
AcDbEntity
  8
躯体と製品
  6
Continuous
 62
     3
100
AcDbLine
 10
3133.474423651133
 20
980.7167037654924
 30
0.0
 11
3085.657613651134
 21
932.8998937654919
 31
0.0
  0
LINE
  5
97D8
330
1E
100
AcDbEntity
  8
躯体と製品
  6
Continuous
 62
     3
100
AcDbLine
 10
3147.401413651133
 20
980.7167037654924
 30
0.0
 11
3097.712053651134
 21
931.0273437654926
 31
0.0
  0
TEXT
  5
97D9
330
1E
100
AcDbEntity
  8
文字-記号
  6
Continuous
 62
     7
100
AcDbText
 10
2976.065835877827
 20
1153.717080645302
 30
0.0
 40
45.0
  1
根太鋼
 41
0.8
  7
ACAD
100
AcDbText
  0
LINE
  5
97DA
330
1E
100
AcDbEntity
  8
躯体と製品
  6
Continuous
 62
     3
100
AcDbLine
 10
3161.328393651134
 20
980.7167037654924
 30
0.0
 11
3109.864733651133
 21
929.2530437654917
 31
0.0
  0
TEXT
  5
97DB
330
1E
100
AcDbEntity
  8
文字-記号
  6
Continuous
 62
     3
100
AcDbText
 10
2600.430073651133
 20
1487.346219743425
 30
0.0
 40
60.0
  1
壁廻り納まり（根太方向）
 41
0.8
  7
ACAD
100
AcDbText
  0
LINE
  5
97DC
330
1E
100
AcDbEntity
  8
躯体と製品
  6
Continuous
 62
     3
100
AcDbLine
 10
2253.184713651134
 20
1459.343423765492
 30
0.0
 11
2191.583313651134
 21
1397.742023765492
 31
0.0
  0
LINE
  5
97DD
330
1E
100
AcDbEntity
  8
躯体と製品
  6
Continuous
 62
     3
100
AcDbLine
 10
2191.490633651134
 20
1369.365083765492
 30
0.0
 11
2253.184713651134
 21
1431.059153765491
 31
0.0
  0
LINE
  5
97DE
330
1E
100
AcDbEntity
  8
躯体と製品
  6
Continuous
 62
     3
100
AcDbLine
 10
2191.490633651134
 20
1383.507213765492
 30
0.0
 11
2253.184713651134
 21
1445.201293765492
 31
0.0
  0
TEXT
  5
97DF
330
1E
100
AcDbEntity
  8
文字-記号
  6
Continuous
 62
     7
100
AcDbText
 10
2370.903991488621
 20
1303.096005969149
 30
0.0
 40
45.0
  1
巾木
 41
0.8
  7
ACAD
100
AcDbText
  0
LINE
  5
97E0
330
1E
100
AcDbEntity
  8
躯体と製品
  6
Continuous
 62
     4
100
AcDbLine
 10
3711.138539177674
 20
1529.610963765492
 30
0.0
 11
3711.138539177675
 21
980.7167037654922
 31
0.0
  0
LINE
  5
97E1
330
1E
100
AcDbEntity
  8
躯体と製品
  6
Continuous
 62
     3
100
AcDbLine
 10
3736.138539177674
 20
1529.610963765492
 30
0.0
 11
3736.138539177674
 21
1195.716703765492
 31
0.0
  0
LINE
  5
97E2
330
1E
100
AcDbEntity
  8
躯体と製品
  6
Continuous
 62
     3
100
AcDbLine
 10
3748.638539177675
 20
1529.610963765492
 30
0.0
 11
3748.638539177675
 21
1190.716703765492
 31
0.0
  0
LINE
  5
97E3
330
1E
100
AcDbEntity
  8
躯体と製品
  6
Continuous
 62
     4
100
AcDbLine
 10
4937.691369177676
 20
980.7167037654924
 30
0.0
 11
3711.138539177675
 21
980.7167037654924
 31
0.0
  0
LINE
  5
97E4
330
1E
100
AcDbEntity
  8
躯体と製品
  6
Continuous
 62
     4
100
AcDbLine
 10
4937.691369177676
 20
1100.716703765492
 30
0.0
 11
3736.138539177674
 21
1100.716703765492
 31
0.0
  0
LINE
  5
97E5
330
1E
100
AcDbEntity
  8
躯体と製品
  6
Continuous
 62
     3
100
AcDbLine
 10
4053.239129177675
 20
980.7167037654924
 30
0.0
 11
4002.076679177678
 21
929.5542537654919
 31
0.0
  0
LINE
  5
97E6
330
1E
100
AcDbEntity
  8
躯体と製品
  6
Continuous
 62
     3
100
AcDbLine
 10
4039.096989177675
 20
980.7167037654924
 30
0.0
 11
3989.736259177678
 21
931.3559637654917
 31
0.0
  0
LINE
  5
97E7
330
1E
100
AcDbEntity
  8
躯体と製品
  6
Continuous
 62
     3
100
AcDbLine
 10
3711.138539177674
 20
1029.997603765492
 30
0.0
 11
3649.444469177676
 21
968.3035337654924
 31
0.0
  0
LINE
  5
97E8
330
1E
100
AcDbEntity
  8
躯体と製品
  6
Continuous
 62
     3
100
AcDbLine
 10
4024.954859177675
 20
980.7167037654924
 30
0.0
 11
3977.495599177675
 21
933.2574437654919
 31
0.0
  0
LINE
  5
97E9
330
1E
100
AcDbEntity
  8
躯体と製品
  6
Continuous
 62
     3
100
AcDbLine
 10
3736.138539177674
 20
1195.716703765492
 30
0.0
 11
3736.138539177674
 21
1105.716703765492
 31
0.0
  0
LINE
  5
97EA
330
1E
100
AcDbEntity
  8
躯体と製品
  6
Continuous
 62
     6
100
AcDbLine
 10
3739.150489177675
 20
1105.716703765492
 30
0.0
 11
3761.138539177674
 21
1127.704743765492
 31
0.0
  0
LINE
  5
97EB
330
1E
100
AcDbEntity
  8
躯体と製品
  6
Continuous
 62
     3
100
AcDbLine
 10
3761.138539177674
 20
1105.716703765492
 30
0.0
 11
3761.138539177674
 21
1200.716703765492
 31
0.0
  0
LINE
  5
97EC
330
1E
100
AcDbEntity
  8
躯体と製品
  6
Continuous
 62
     3
100
AcDbLine
 10
3711.138539177674
 20
1058.281873765491
 30
0.0
 11
3649.444469177676
 21
996.5878037654915
 31
0.0
  0
LINE
  5
97ED
330
1E
100
AcDbEntity
  8
躯体と製品
  6
Continuous
 62
     3
100
AcDbLine
 10
3711.138539177674
 20
1044.139743765492
 30
0.0
 11
3649.444469177676
 21
982.4456637654911
 31
0.0
  0
LINE
  5
97EE
330
1E
100
AcDbEntity
  8
躯体と製品
  6
Continuous
 62
     4
100
AcDbLine
 10
3736.138539177674
 20
1100.716703765492
 30
0.0
 11
3736.138539177674
 21
1067.716703765493
 31
0.0
  0
LINE
  5
97EF
330
1E
100
AcDbEntity
  8
躯体と製品
  6
Continuous
 62
     3
100
AcDbLine
 10
3736.138539177674
 20
1105.716703765492
 30
0.0
 11
3761.138539177674
 21
1105.716703765492
 31
0.0
  0
LINE
  5
97F0
330
1E
100
AcDbEntity
  8
躯体と製品
  6
Continuous
 62
     6
100
AcDbLine
 10
3756.121059177678
 20
1105.716703765492
 30
0.0
 11
3761.138539177674
 21
1110.734183765491
 31
0.0
  0
LINE
  5
97F1
330
1E
100
AcDbEntity
  8
躯体と製品
  6
Continuous
 62
     3
100
AcDbLine
 10
3711.138539177674
 20
1250.716703765492
 30
0.0
 11
3736.138539177674
 21
1250.716703765492
 31
0.0
  0
LINE
  5
97F2
330
1E
100
AcDbEntity
  8
躯体と製品
  6
Continuous
 62
     3
100
AcDbLine
 10
3711.138539177674
 20
1177.548963765492
 30
0.0
 11
3736.138539177674
 21
1124.205653765491
 31
0.0
  0
LINE
  5
97F3
330
1E
100
AcDbEntity
  8
躯体と製品
  6
Continuous
 62
     3
100
AcDbLine
 10
3711.138539177674
 20
1124.205653765491
 30
0.0
 11
3736.138539177674
 21
1124.205653765491
 31
0.0
  0
LINE
  5
97F4
330
1E
100
AcDbEntity
  8
躯体と製品
  6
Continuous
 62
     3
100
AcDbLine
 10
3711.138539177674
 20
1177.548963765492
 30
0.0
 11
3736.138539177674
 21
1177.548963765492
 31
0.0
  0
LINE
  5
97F5
330
1E
100
AcDbEntity
  8
躯体と製品
  6
Continuous
 62
     3
100
AcDbLine
 10
3711.138539177674
 20
1197.548963765492
 30
0.0
 11
3736.138539177674
 21
1197.548963765492
 31
0.0
  0
LINE
  5
97F6
330
1E
100
AcDbEntity
  8
躯体と製品
  6
Continuous
 62
     3
100
AcDbLine
 10
3736.138539177674
 20
1197.548963765492
 30
0.0
 11
3711.138539177674
 21
1250.716703765492
 31
0.0
  0
LINE
  5
97F7
330
1E
100
AcDbEntity
  8
躯体と製品
  6
Continuous
 62
     6
100
AcDbLine
 10
3736.138539177674
 20
1170.587003765492
 30
0.0
 11
3761.138539177674
 21
1195.587003765492
 31
0.0
  0
LINE
  5
97F8
330
1E
100
AcDbEntity
  8
躯体と製品
  6
Continuous
 62
     6
100
AcDbLine
 10
3736.138539177674
 20
1136.645873765491
 30
0.0
 11
3761.138539177674
 21
1161.645873765491
 31
0.0
  0
LINE
  5
97F9
330
1E
100
AcDbEntity
  8
躯体と製品
  6
Continuous
 62
     6
100
AcDbLine
 10
3736.138539177674
 20
1119.675313765492
 30
0.0
 11
3761.138539177674
 21
1144.675313765492
 31
0.0
  0
LINE
  5
97FA
330
1E
100
AcDbEntity
  8
躯体と製品
  6
Continuous
 62
     6
100
AcDbLine
 10
3736.138539177674
 20
1153.616433765491
 30
0.0
 11
3761.138539177674
 21
1178.616433765491
 31
0.0
  0
LINE
  5
97FB
330
1E
100
AcDbEntity
  8
躯体と製品
  6
Continuous
 62
     3
100
AcDbLine
 10
3736.138539177674
 20
1190.716703765492
 30
0.0
 11
3748.638539177675
 21
1190.716703765492
 31
0.0
  0
LINE
  5
97FC
330
1E
100
AcDbEntity
  8
躯体と製品
  6
Continuous
 62
     6
100
AcDbLine
 10
3736.138539177674
 20
1187.557563765492
 30
0.0
 11
3739.297679177675
 21
1190.716703765492
 31
0.0
  0
LINE
  5
97FD
330
1E
100
AcDbEntity
  8
躯体と製品
  6
Continuous
 62
     3
100
AcDbLine
 10
3736.138539177674
 20
1195.716703765492
 30
0.0
 11
3748.638539177675
 21
1195.716703765492
 31
0.0
  0
LINE
  5
97FE
330
1E
100
AcDbEntity
  8
躯体と製品
  6
Continuous
 62
     3
100
AcDbLine
 10
3748.638539177675
 20
1200.716703765492
 30
0.0
 11
3761.138539177674
 21
1200.716703765492
 31
0.0
  0
LINE
  5
97FF
330
1E
100
AcDbEntity
  8
躯体と製品
  6
Continuous
 62
     3
100
AcDbLine
 10
4410.307359177674
 20
980.7167037654924
 30
0.0
 11
4362.848099177679
 21
933.2574437654919
 31
0.0
  0
LINE
  5
9800
330
1E
100
AcDbEntity
  8
躯体と製品
  6
Continuous
 62
     3
100
AcDbLine
 10
4438.591629177678
 20
980.7167037654924
 30
0.0
 11
4387.429179177677
 21
929.5542537654919
 31
0.0
  0
LINE
  5
9801
330
1E
100
AcDbEntity
  8
躯体と製品
  6
Continuous
 62
     3
100
AcDbLine
 10
4424.449499177678
 20
980.7167037654924
 30
0.0
 11
4375.088759177677
 21
931.3559637654917
 31
0.0
  0
LINE
  5
9802
330
1E
100
AcDbEntity
  8
躯体と製品
  6
Continuous
 62
     3
100
AcDbLine
 10
4903.508569177677
 20
980.7167037654924
 30
0.0
 11
4852.346109177677
 21
929.5542537654919
 31
0.0
  0
LINE
  5
9803
330
1E
100
AcDbEntity
  8
躯体と製品
  6
Continuous
 62
     3
100
AcDbLine
 10
4889.366429177678
 20
980.7167037654924
 30
0.0
 11
4840.005689177676
 21
931.3559637654917
 31
0.0
  0
LINE
  5
9804
330
1E
100
AcDbEntity
  8
躯体と製品
  6
Continuous
 62
     3
100
AcDbLine
 10
4875.224289177679
 20
980.7167037654924
 30
0.0
 11
4827.765029177678
 21
933.2574437654919
 31
0.0
  0
TEXT
  5
9805
330
1E
100
AcDbEntity
  8
文字-記号
  6
Continuous
 62
     3
100
AcDbText
 10
4120.554659177674
 20
1486.770349743424
 30
0.0
 40
60.0
  1
壁廻り納まり（根太直交方向）
 41
0.8
  7
ACAD
100
AcDbText
  0
LINE
  5
9806
330
1E
100
AcDbEntity
  8
躯体と製品
  6
Continuous
 62
     3
100
AcDbLine
 10
3711.138539177674
 20
1459.343423765492
 30
0.0
 11
3649.537139177675
 21
1397.742023765492
 31
0.0
  0
LINE
  5
9807
330
1E
100
AcDbEntity
  8
躯体と製品
  6
Continuous
 62
     3
100
AcDbLine
 10
3649.444469177676
 20
1369.365083765492
 30
0.0
 11
3711.138539177674
 21
1431.059153765491
 31
0.0
  0
LINE
  5
9808
330
1E
100
AcDbEntity
  8
躯体と製品
  6
Continuous
 62
     3
100
AcDbLine
 10
3649.444469177676
 20
1383.507213765492
 30
0.0
 11
3711.138539177674
 21
1445.201293765492
 31
0.0
  0
DIMENSION
  5
9809
330
1E
100
AcDbEntity
  8
寸法
  6
Continuous
100
AcDbDimension
  2
*D3
 10
2440.684713651134
 20
816.2550919118196
 30
0.0
 11
2365.684713651134
 21
856.2550919118196
 31
0.0
 70
    32
 71
     5
 42
150.0
  3
AutoCAD
100
AcDbAlignedDimension
 13
2290.684713651134
 23
980.7167037654924
 33
0.0
 14
2440.684713651134
 24
976.5846065380166
 34
0.0
100
AcDbRotatedDimension
  0
DIMENSION
  5
980A
330
1E
100
AcDbEntity
  8
寸法
  6
Continuous
100
AcDbDimension
  2
*D4
 10
3496.380523132195
 20
1067.716703765492
 30
0.0
 11
3456.380523132195
 21
1024.216703765493
 31
0.0
 70
    32
  1
h
 71
     5
 42
86.99999999999965
  3
AutoCAD
100
AcDbAlignedDimension
 13
3383.902623946795
 23
980.7167037654924
 33
0.0
 14
3381.067353946799
 24
1067.716703765492
 34
0.0
 50
90.0
100
AcDbRotatedDimension
  0
DIMENSION
  5
980B
330
1E
100
AcDbEntity
  8
寸法
  6
Continuous
100
AcDbDimension
  2
*D5
 10
3585.253902952605
 20
1100.716703765492
 30
0.0
 11
3545.253902952605
 21
1040.716703765493
 31
0.0
 70
    32
  1
H
 71
     5
 42
119.9999999999996
  3
AutoCAD
100
AcDbAlignedDimension
 13
3383.902623946795
 23
980.7167037654924
 33
0.0
 14
3382.829783946798
 24
1100.716703765492
 34
0.0
 50
90.0
100
AcDbRotatedDimension
  0
DIMENSION
  5
980C
330
1E
100
AcDbEntity
  8
寸法
  6
Continuous
100
AcDbDimension
  2
*D6
 10
3062.684713651135
 20
816.2550919118196
 30
0.0
 11
2751.684713651134
 21
856.2550919118196
 31
0.0
 70
    32
  1
900以内
 71
     5
 42
622.0000000000005
  3
AutoCAD
100
AcDbAlignedDimension
 13
2440.684713651134
 23
978.2548065380165
 33
0.0
 14
3062.684713651135
 24
978.2548065380165
 34
0.0
100
AcDbRotatedDimension
  0
DIMENSION
  5
980D
330
1E
100
AcDbEntity
  8
寸法
  6
Continuous
100
AcDbDimension
  2
*D7
 10
4398.639539177675
 20
1218.869053765491
 30
0.0
 11
4248.639539177675
 21
1258.869053765491
 31
0.0
 70
    32
 71
     5
 42
300.0
  3
AutoCAD
100
AcDbAlignedDimension
 13
4098.639539177675
 23
1129.637733765491
 33
0.0
 14
4398.639539177675
 24
1129.136573765492
 34
0.0
100
AcDbRotatedDimension
  0
DIMENSION
  5
980E
330
1E
100
AcDbEntity
  8
寸法
  6
Continuous
100
AcDbDimension
  2
*D8
 10
4698.639539177675
 20
1218.869053765491
 30
0.0
 11
4548.639539177675
 21
1258.869053765491
 31
0.0
 70
    32
 71
     5
 42
300.0
  3
AutoCAD
100
AcDbAlignedDimension
 13
4398.639539177675
 23
1129.136573765492
 33
0.0
 14
4698.639539177675
 24
1129.136573765492
 34
0.0
100
AcDbRotatedDimension
  0
DIMENSION
  5
980F
330
1E
100
AcDbEntity
  8
寸法
  6
Continuous
100
AcDbDimension
  2
*D9
 10
5070.417138265886
 20
1067.716703765493
 30
0.0
 11
5030.417138265886
 21
1024.216703765493
 31
0.0
 70
    32
  1
h
 71
     5
 42
87.00000000000068
  3
AutoCAD
100
AcDbAlignedDimension
 13
4957.353665980811
 23
980.7167037654924
 33
0.0
 14
4956.123955980813
 24
1067.716703765493
 34
0.0
 50
90.0
100
AcDbRotatedDimension
  0
DIMENSION
  5
9810
330
1E
100
AcDbEntity
  8
寸法
  6
Continuous
100
AcDbDimension
  2
*D10
 10
5158.45372402315
 20
1100.716703765492
 30
0.0
 11
5118.453724023149
 21
1040.716703765493
 31
0.0
 70
    32
  1
H
 71
     5
 42
119.9999999999997
  3
AutoCAD
100
AcDbAlignedDimension
 13
4957.353665980811
 23
980.7167037654924
 33
0.0
 14
4957.478405980811
 24
1100.716703765492
 34
0.0
 50
90.0
100
AcDbRotatedDimension
  0
LINE
  5
9811
330
1E
100
AcDbEntity
  8
寸法
  6
Continuous
 62
     4
100
AcDbLine
 10
4698.889539177675
 20
1218.869053765491
 30
0.0
 11
4937.411786099804
 21
1218.869053765491
 31
0.0
  0
LINE
  5
9812
330
1E
100
AcDbEntity
  8
寸法
  6
Continuous
 62
     4
100
AcDbLine
 10
4937.411786099804
 20
1218.869053765491
 30
0.0
 11
4917.411786099805
 21
1213.869053765491
 31
0.0
  0
LINE
  5
9813
330
1E
100
AcDbEntity
  8
寸法
  6
Continuous
 62
     4
100
AcDbLine
 10
4917.411786099805
 20
1223.869053765491
 30
0.0
 11
4937.411786099804
 21
1218.869053765491
 31
0.0
  0
LINE
  5
9814
330
1E
100
AcDbEntity
  8
寸法
  6
Continuous
 62
     4
100
AcDbLine
 10
3062.934713651134
 20
816.2550919118196
 30
0.0
 11
3387.701553651135
 21
816.2550919118196
 31
0.0
  0
LINE
  5
9815
330
1E
100
AcDbEntity
  8
寸法
  6
Continuous
 62
     4
100
AcDbLine
 10
3387.701553651135
 20
816.2550919118196
 30
0.0
 11
3367.701553651135
 21
811.2550919118195
 31
0.0
  0
LINE
  5
9816
330
1E
100
AcDbEntity
  8
寸法
  6
Continuous
 62
     4
100
AcDbLine
 10
3387.701553651135
 20
816.2550919118196
 30
0.0
 11
3367.701553651135
 21
821.2550919118196
 31
0.0
  0
MTEXT
  5
9817
330
1E
100
AcDbEntity
  8
寸法
  6
Continuous
 62
     3
100
AcDbMText
 10
3148.546014085561
 20
887.7553533450914
 30
0.0
 40
50.0
 41
146.0999
 71
     1
 72
     5
  1
@900
  7
ACAD
 73
     1
 44
1.0
1001
ACAD
1000
ACAD_MTEXT_DEFINED_HEIGHT_BEGIN
1070
    46
1040
123.1253118536724
1000
ACAD_MTEXT_DEFINED_HEIGHT_END
  0
MTEXT
  5
9818
330
1E
100
AcDbEntity
  8
寸法
  6
Continuous
 62
     3
100
AcDbMText
 10
4726.67112390492
 20
1284.847813901559
 30
0.0
 40
50.0
 41
134.6436100000003
 71
     1
 72
     5
  1
@300
  7
ACAD
 73
     1
 44
1.0
  0
LWPOLYLINE
  5
9819
330
1E
100
AcDbEntity
  8
文字-記号
  6
Continuous
 62
     7
100
AcDbPolyline
 90
        3
 70
     0
 43
0.0
 10
2317.825729760403
 20
1210.228019941181
 10
2303.184713651134
 20
1195.587003765492
 10
2308.543697541864
 20
1215.587003741181
  0
LWPOLYLINE
  5
981A
330
1E
100
AcDbEntity
  8
文字-記号
  6
Continuous
 62
     7
100
AcDbPolyline
 90
        3
 70
     0
 43
0.0
 10
2683.831011026987
 20
1091.357719941179
 10
2669.189994917718
 20
1076.716703765491
 10
2674.548978808449
 20
1096.71670374118
  0
LWPOLYLINE
  5
981B
330
1E
100
AcDbEntity
  8
文字-記号
  6
Continuous
 62
     7
100
AcDbPolyline
 90
        3
 70
     0
 43
0.0
 10
2578.064717896078
 20
1115.357719941181
 10
2563.423701786809
 20
1100.716703765492
 10
2568.78268567754
 20
1120.716703741181
  0
LWPOLYLINE
  5
981C
330
1E
100
AcDbEntity
  8
文字-記号
  6
Continuous
 62
     7
100
AcDbPolyline
 90
        3
 70
     0
 43
0.0
 10
2917.46078588796
 20
1065.848391719329
 10
2902.819769778691
 20
1051.207375543641
 10
2908.178753669422
 20
1071.207375519329
  0
LINE
  5
981D
330
1E
100
AcDbEntity
  8
躯体と製品
  6
Continuous
 62
     4
100
AcDbLine
 10
2440.684713651134
 20
1025.716703765492
 30
0.0
 11
2390.684715651133
 21
1025.716703765492
 31
0.0
  0
LINE
  5
981E
330
1E
100
AcDbEntity
  8
躯体と製品
  6
Continuous
 62
     4
100
AcDbLine
 10
2390.684715651133
 20
1025.716703765492
 30
0.0
 11
2390.684715651133
 21
1030.916704765492
 31
0.0
  0
LINE
  5
981F
330
1E
100
AcDbEntity
  8
躯体と製品
  6
Continuous
 62
     4
100
AcDbLine
 10
2490.684715651133
 20
1025.716703765492
 30
0.0
 11
2490.684715651133
 21
1030.916704765492
 31
0.0
  0
LINE
  5
9820
330
1E
100
AcDbEntity
  8
躯体と製品
  6
Continuous
 62
     4
100
AcDbLine
 10
2396.484714651133
 20
1036.716703765492
 30
0.0
 11
2484.884712651132
 21
1036.716703765492
 31
0.0
  0
LINE
  5
9821
330
1E
100
AcDbEntity
  8
躯体と製品
  6
Continuous
 62
     4
100
AcDbLine
 10
2440.684713651134
 20
1025.716703765492
 30
0.0
 11
2490.684715651133
 21
1025.716703765492
 31
0.0
  0
ARC
  5
9822
330
1E
100
AcDbEntity
  8
躯体と製品
  6
Continuous
 62
     4
100
AcDbCircle
 10
2396.484714651133
 20
1030.916704765492
 30
0.0
 40
5.799999999999999
100
AcDbArc
 50
90.00000250441658
 51
180.0000050090416
  0
ARC
  5
9823
330
1E
100
AcDbEntity
  8
躯体と製品
  6
Continuous
 62
     4
100
AcDbCircle
 10
2484.884712651132
 20
1030.916704765492
 30
0.0
 40
5.799999999999999
100
AcDbArc
 50
0.0
 51
90.00000250441658
  0
LINE
  5
9824
330
1E
100
AcDbEntity
  8
躯体と製品
  6
Continuous
 62
     4
100
AcDbLine
 10
3371.164833651131
 20
1067.716703765492
 30
0.0
 11
2290.684713651134
 21
1067.716703765492
 31
0.0
  0
LINE
  5
9825
330
1E
100
AcDbEntity
  8
躯体と製品
  6
Continuous
 62
     4
100
AcDbLine
 10
2421.684713651134
 20
1038.716703765492
 30
0.0
 11
2290.684713651134
 21
1038.716703765492
 31
0.0
  0
LINE
  5
9826
330
1E
100
AcDbEntity
  8
躯体と製品
  6
Continuous
 62
     4
100
AcDbLine
 10
2421.684713651134
 20
1041.416703765492
 30
0.0
 11
2290.684713651134
 21
1041.416703765492
 31
0.0
  0
LINE
  5
9827
330
1E
100
AcDbEntity
  8
躯体と製品
  6
Continuous
 62
     4
100
AcDbLine
 10
3371.164833651131
 20
1038.716703765492
 30
0.0
 11
3081.684713651134
 21
1038.716703765492
 31
0.0
  0
LINE
  5
9828
330
1E
100
AcDbEntity
  8
躯体と製品
  6
Continuous
 62
     4
100
AcDbLine
 10
3043.684713651134
 20
1038.716703765492
 30
0.0
 11
2459.684713651134
 21
1038.716703765492
 31
0.0
  0
LINE
  5
9829
330
1E
100
AcDbEntity
  8
躯体と製品
  6
Continuous
 62
     4
100
AcDbLine
 10
2459.684713651134
 20
1041.416703765492
 30
0.0
 11
3043.684713651134
 21
1041.416703765492
 31
0.0
  0
LINE
  5
982A
330
1E
100
AcDbEntity
  8
躯体と製品
  6
Continuous
 62
     4
100
AcDbLine
 10
3081.684713651134
 20
1041.416703765492
 30
0.0
 11
3371.164833651131
 21
1041.416703765492
 31
0.0
  0
LINE
  5
982B
330
1E
100
AcDbEntity
  8
躯体と製品
  6
Continuous
 62
     4
100
AcDbLine
 10
3371.164833651131
 20
1082.716703765492
 30
0.0
 11
2290.684713651134
 21
1082.716703765492
 31
0.0
  0
LINE
  5
982C
330
1E
100
AcDbEntity
  8
躯体と製品
  6
Continuous
 62
     4
100
AcDbLine
 10
3371.164833651131
 20
1077.716703765492
 30
0.0
 11
2290.684713651134
 21
1077.716703765492
 31
0.0
  0
LINE
  5
982D
330
1E
100
AcDbEntity
  8
躯体と製品
  6
Continuous
 62
     4
100
AcDbLine
 10
3371.164833651131
 20
1072.716703765492
 30
0.0
 11
2290.684713651134
 21
1072.716703765492
 31
0.0
  0
LINE
  5
982E
330
1E
100
AcDbEntity
  8
躯体と製品
  6
Continuous
 62
     4
100
AcDbLine
 10
2459.684713651134
 20
1036.716703765492
 30
0.0
 11
2421.684713651134
 21
1036.716703765492
 31
0.0
  0
LINE
  5
982F
330
1E
100
AcDbEntity
  8
躯体と製品
  6
Continuous
 62
     4
100
AcDbLine
 10
2421.684713651134
 20
1036.716703765492
 30
0.0
 11
2421.684713651134
 21
1043.416703765492
 31
0.0
  0
LINE
  5
9830
330
1E
100
AcDbEntity
  8
躯体と製品
  6
Continuous
 62
     4
100
AcDbLine
 10
2421.684713651134
 20
1043.416703765492
 30
0.0
 11
2459.684713651134
 21
1043.416703765492
 31
0.0
  0
LINE
  5
9831
330
1E
100
AcDbEntity
  8
躯体と製品
  6
Continuous
 62
     4
100
AcDbLine
 10
2459.684713651134
 20
1043.416703765492
 30
0.0
 11
2459.684713651134
 21
1036.716703765492
 31
0.0
  0
LINE
  5
9832
330
1E
100
AcDbEntity
  8
躯体と製品
  6
Continuous
 62
     4
100
AcDbLine
 10
2353.184713651134
 20
1100.716703765492
 30
0.0
 11
2353.184713651134
 21
1094.216703765492
 31
0.0
  0
LINE
  5
9833
330
1E
100
AcDbEntity
  8
躯体と製品
  6
Continuous
 62
     4
100
AcDbLine
 10
2353.184713651134
 20
1094.216703765492
 30
0.0
 11
2358.684713651134
 21
1094.216703765492
 31
0.0
  0
LINE
  5
9834
330
1E
100
AcDbEntity
  8
躯体と製品
  6
Continuous
 62
     4
100
AcDbLine
 10
2358.684713651134
 20
1094.216703765492
 30
0.0
 11
2358.684713651134
 21
1089.216703765492
 31
0.0
  0
LINE
  5
9835
330
1E
100
AcDbEntity
  8
躯体と製品
  6
Continuous
 62
     4
100
AcDbLine
 10
2358.684713651134
 20
1089.216703765492
 30
0.0
 11
2353.184713651134
 21
1089.216703765492
 31
0.0
  0
LINE
  5
9836
330
1E
100
AcDbEntity
  8
躯体と製品
  6
Continuous
 62
     4
100
AcDbLine
 10
2353.184713651134
 20
1089.216703765492
 30
0.0
 11
2353.184713651134
 21
1082.716703765492
 31
0.0
  0
LINE
  5
9837
330
1E
100
AcDbEntity
  8
躯体と製品
  6
Continuous
 62
     4
100
AcDbLine
 10
2428.184713651134
 20
1100.716703765492
 30
0.0
 11
2428.184713651134
 21
1094.216703765492
 31
0.0
  0
LINE
  5
9838
330
1E
100
AcDbEntity
  8
躯体と製品
  6
Continuous
 62
     4
100
AcDbLine
 10
2428.184713651134
 20
1094.216703765492
 30
0.0
 11
2433.684713651134
 21
1094.216703765492
 31
0.0
  0
LINE
  5
9839
330
1E
100
AcDbEntity
  8
躯体と製品
  6
Continuous
 62
     4
100
AcDbLine
 10
2433.684713651134
 20
1094.216703765492
 30
0.0
 11
2433.684713651134
 21
1089.216703765492
 31
0.0
  0
LINE
  5
983A
330
1E
100
AcDbEntity
  8
躯体と製品
  6
Continuous
 62
     4
100
AcDbLine
 10
2433.684713651134
 20
1089.216703765492
 30
0.0
 11
2428.184713651134
 21
1089.216703765492
 31
0.0
  0
LINE
  5
983B
330
1E
100
AcDbEntity
  8
躯体と製品
  6
Continuous
 62
     4
100
AcDbLine
 10
2428.184713651134
 20
1089.216703765492
 30
0.0
 11
2428.184713651134
 21
1082.716703765492
 31
0.0
  0
LINE
  5
983C
330
1E
100
AcDbEntity
  8
躯体と製品
  6
Continuous
 62
     4
100
AcDbLine
 10
2503.184713651134
 20
1100.716703765492
 30
0.0
 11
2503.184713651134
 21
1094.216703765492
 31
0.0
  0
LINE
  5
983D
330
1E
100
AcDbEntity
  8
躯体と製品
  6
Continuous
 62
     4
100
AcDbLine
 10
2503.184713651134
 20
1094.216703765492
 30
0.0
 11
2508.684713651134
 21
1094.216703765492
 31
0.0
  0
LINE
  5
983E
330
1E
100
AcDbEntity
  8
躯体と製品
  6
Continuous
 62
     4
100
AcDbLine
 10
2508.684713651134
 20
1094.216703765492
 30
0.0
 11
2508.684713651134
 21
1089.216703765492
 31
0.0
  0
LINE
  5
983F
330
1E
100
AcDbEntity
  8
躯体と製品
  6
Continuous
 62
     4
100
AcDbLine
 10
2508.684713651134
 20
1089.216703765492
 30
0.0
 11
2503.184713651134
 21
1089.216703765492
 31
0.0
  0
LINE
  5
9840
330
1E
100
AcDbEntity
  8
躯体と製品
  6
Continuous
 62
     4
100
AcDbLine
 10
2503.184713651134
 20
1089.216703765492
 30
0.0
 11
2503.184713651134
 21
1082.716703765492
 31
0.0
  0
LINE
  5
9841
330
1E
100
AcDbEntity
  8
躯体と製品
  6
Continuous
 62
     4
100
AcDbLine
 10
2578.184713651134
 20
1100.716703765492
 30
0.0
 11
2578.184713651134
 21
1094.216703765492
 31
0.0
  0
LINE
  5
9842
330
1E
100
AcDbEntity
  8
躯体と製品
  6
Continuous
 62
     4
100
AcDbLine
 10
2578.184713651134
 20
1094.216703765492
 30
0.0
 11
2583.684713651134
 21
1094.216703765492
 31
0.0
  0
LINE
  5
9843
330
1E
100
AcDbEntity
  8
躯体と製品
  6
Continuous
 62
     4
100
AcDbLine
 10
2583.684713651134
 20
1094.216703765492
 30
0.0
 11
2583.684713651134
 21
1089.216703765492
 31
0.0
  0
LINE
  5
9844
330
1E
100
AcDbEntity
  8
躯体と製品
  6
Continuous
 62
     4
100
AcDbLine
 10
2583.684713651134
 20
1089.216703765492
 30
0.0
 11
2578.184713651134
 21
1089.216703765492
 31
0.0
  0
LINE
  5
9845
330
1E
100
AcDbEntity
  8
躯体と製品
  6
Continuous
 62
     4
100
AcDbLine
 10
2578.184713651134
 20
1089.216703765492
 30
0.0
 11
2578.184713651134
 21
1082.716703765492
 31
0.0
  0
LINE
  5
9846
330
1E
100
AcDbEntity
  8
躯体と製品
  6
Continuous
 62
     4
100
AcDbLine
 10
2653.184713651134
 20
1100.716703765492
 30
0.0
 11
2653.184713651134
 21
1094.216703765492
 31
0.0
  0
LINE
  5
9847
330
1E
100
AcDbEntity
  8
躯体と製品
  6
Continuous
 62
     4
100
AcDbLine
 10
2653.184713651134
 20
1094.216703765492
 30
0.0
 11
2658.684713651134
 21
1094.216703765492
 31
0.0
  0
LINE
  5
9848
330
1E
100
AcDbEntity
  8
躯体と製品
  6
Continuous
 62
     4
100
AcDbLine
 10
2658.684713651134
 20
1094.216703765492
 30
0.0
 11
2658.684713651134
 21
1089.216703765492
 31
0.0
  0
LINE
  5
9849
330
1E
100
AcDbEntity
  8
躯体と製品
  6
Continuous
 62
     4
100
AcDbLine
 10
2658.684713651134
 20
1089.216703765492
 30
0.0
 11
2653.184713651134
 21
1089.216703765492
 31
0.0
  0
LINE
  5
984A
330
1E
100
AcDbEntity
  8
躯体と製品
  6
Continuous
 62
     4
100
AcDbLine
 10
2653.184713651134
 20
1089.216703765492
 30
0.0
 11
2653.184713651134
 21
1082.716703765492
 31
0.0
  0
LINE
  5
984B
330
1E
100
AcDbEntity
  8
躯体と製品
  6
Continuous
 62
     4
100
AcDbLine
 10
2728.184713651134
 20
1100.716703765492
 30
0.0
 11
2728.184713651134
 21
1094.216703765492
 31
0.0
  0
LINE
  5
984C
330
1E
100
AcDbEntity
  8
躯体と製品
  6
Continuous
 62
     4
100
AcDbLine
 10
2728.184713651134
 20
1094.216703765492
 30
0.0
 11
2733.684713651134
 21
1094.216703765492
 31
0.0
  0
LINE
  5
984D
330
1E
100
AcDbEntity
  8
躯体と製品
  6
Continuous
 62
     4
100
AcDbLine
 10
2733.684713651134
 20
1094.216703765492
 30
0.0
 11
2733.684713651134
 21
1089.216703765492
 31
0.0
  0
LINE
  5
984E
330
1E
100
AcDbEntity
  8
躯体と製品
  6
Continuous
 62
     4
100
AcDbLine
 10
2733.684713651134
 20
1089.216703765492
 30
0.0
 11
2728.184713651134
 21
1089.216703765492
 31
0.0
  0
LINE
  5
984F
330
1E
100
AcDbEntity
  8
躯体と製品
  6
Continuous
 62
     4
100
AcDbLine
 10
2728.184713651134
 20
1089.216703765492
 30
0.0
 11
2728.184713651134
 21
1082.716703765492
 31
0.0
  0
LINE
  5
9850
330
1E
100
AcDbEntity
  8
躯体と製品
  6
Continuous
 62
     4
100
AcDbLine
 10
2803.184713651134
 20
1100.716703765492
 30
0.0
 11
2803.184713651134
 21
1094.216703765492
 31
0.0
  0
LINE
  5
9851
330
1E
100
AcDbEntity
  8
躯体と製品
  6
Continuous
 62
     4
100
AcDbLine
 10
2803.184713651134
 20
1094.216703765492
 30
0.0
 11
2808.684713651134
 21
1094.216703765492
 31
0.0
  0
LINE
  5
9852
330
1E
100
AcDbEntity
  8
躯体と製品
  6
Continuous
 62
     4
100
AcDbLine
 10
2808.684713651134
 20
1094.216703765492
 30
0.0
 11
2808.684713651134
 21
1089.216703765492
 31
0.0
  0
LINE
  5
9853
330
1E
100
AcDbEntity
  8
躯体と製品
  6
Continuous
 62
     4
100
AcDbLine
 10
2808.684713651134
 20
1089.216703765492
 30
0.0
 11
2803.184713651134
 21
1089.216703765492
 31
0.0
  0
LINE
  5
9854
330
1E
100
AcDbEntity
  8
躯体と製品
  6
Continuous
 62
     4
100
AcDbLine
 10
2803.184713651134
 20
1089.216703765492
 30
0.0
 11
2803.184713651134
 21
1082.716703765492
 31
0.0
  0
LINE
  5
9855
330
1E
100
AcDbEntity
  8
躯体と製品
  6
Continuous
 62
     4
100
AcDbLine
 10
2878.184713651134
 20
1100.716703765492
 30
0.0
 11
2878.184713651134
 21
1094.216703765492
 31
0.0
  0
LINE
  5
9856
330
1E
100
AcDbEntity
  8
躯体と製品
  6
Continuous
 62
     4
100
AcDbLine
 10
2878.184713651134
 20
1094.216703765492
 30
0.0
 11
2883.684713651134
 21
1094.216703765492
 31
0.0
  0
LINE
  5
9857
330
1E
100
AcDbEntity
  8
躯体と製品
  6
Continuous
 62
     4
100
AcDbLine
 10
2883.684713651134
 20
1094.216703765492
 30
0.0
 11
2883.684713651134
 21
1089.216703765492
 31
0.0
  0
LINE
  5
9858
330
1E
100
AcDbEntity
  8
躯体と製品
  6
Continuous
 62
     4
100
AcDbLine
 10
2883.684713651134
 20
1089.216703765492
 30
0.0
 11
2878.184713651134
 21
1089.216703765492
 31
0.0
  0
LINE
  5
9859
330
1E
100
AcDbEntity
  8
躯体と製品
  6
Continuous
 62
     4
100
AcDbLine
 10
2878.184713651134
 20
1089.216703765492
 30
0.0
 11
2878.184713651134
 21
1082.716703765492
 31
0.0
  0
LINE
  5
985A
330
1E
100
AcDbEntity
  8
躯体と製品
  6
Continuous
 62
     4
100
AcDbLine
 10
2953.184713651134
 20
1100.716703765492
 30
0.0
 11
2953.184713651134
 21
1094.216703765492
 31
0.0
  0
LINE
  5
985B
330
1E
100
AcDbEntity
  8
躯体と製品
  6
Continuous
 62
     4
100
AcDbLine
 10
2953.184713651134
 20
1094.216703765492
 30
0.0
 11
2958.684713651134
 21
1094.216703765492
 31
0.0
  0
LINE
  5
985C
330
1E
100
AcDbEntity
  8
躯体と製品
  6
Continuous
 62
     4
100
AcDbLine
 10
2958.684713651134
 20
1094.216703765492
 30
0.0
 11
2958.684713651134
 21
1089.216703765492
 31
0.0
  0
LINE
  5
985D
330
1E
100
AcDbEntity
  8
躯体と製品
  6
Continuous
 62
     4
100
AcDbLine
 10
2958.684713651134
 20
1089.216703765492
 30
0.0
 11
2953.184713651134
 21
1089.216703765492
 31
0.0
  0
LINE
  5
985E
330
1E
100
AcDbEntity
  8
躯体と製品
  6
Continuous
 62
     4
100
AcDbLine
 10
2953.184713651134
 20
1089.216703765492
 30
0.0
 11
2953.184713651134
 21
1082.716703765492
 31
0.0
  0
LINE
  5
985F
330
1E
100
AcDbEntity
  8
躯体と製品
  6
Continuous
 62
     4
100
AcDbLine
 10
3103.184713651134
 20
1100.716703765492
 30
0.0
 11
3103.184713651134
 21
1094.216703765492
 31
0.0
  0
LINE
  5
9860
330
1E
100
AcDbEntity
  8
躯体と製品
  6
Continuous
 62
     4
100
AcDbLine
 10
3103.184713651134
 20
1094.216703765492
 30
0.0
 11
3108.684713651134
 21
1094.216703765492
 31
0.0
  0
LINE
  5
9861
330
1E
100
AcDbEntity
  8
躯体と製品
  6
Continuous
 62
     4
100
AcDbLine
 10
3108.684713651134
 20
1094.216703765492
 30
0.0
 11
3108.684713651134
 21
1089.216703765492
 31
0.0
  0
LINE
  5
9862
330
1E
100
AcDbEntity
  8
躯体と製品
  6
Continuous
 62
     4
100
AcDbLine
 10
3108.684713651134
 20
1089.216703765492
 30
0.0
 11
3103.184713651134
 21
1089.216703765492
 31
0.0
  0
LINE
  5
9863
330
1E
100
AcDbEntity
  8
躯体と製品
  6
Continuous
 62
     4
100
AcDbLine
 10
3103.184713651134
 20
1089.216703765492
 30
0.0
 11
3103.184713651134
 21
1082.716703765492
 31
0.0
  0
LINE
  5
9864
330
1E
100
AcDbEntity
  8
躯体と製品
  6
Continuous
 62
     4
100
AcDbLine
 10
3028.184713651134
 20
1100.716703765492
 30
0.0
 11
3028.184713651134
 21
1094.216703765492
 31
0.0
  0
LINE
  5
9865
330
1E
100
AcDbEntity
  8
躯体と製品
  6
Continuous
 62
     4
100
AcDbLine
 10
3028.184713651134
 20
1094.216703765492
 30
0.0
 11
3033.684713651134
 21
1094.216703765492
 31
0.0
  0
LINE
  5
9866
330
1E
100
AcDbEntity
  8
躯体と製品
  6
Continuous
 62
     4
100
AcDbLine
 10
3033.684713651134
 20
1094.216703765492
 30
0.0
 11
3033.684713651134
 21
1089.216703765492
 31
0.0
  0
LINE
  5
9867
330
1E
100
AcDbEntity
  8
躯体と製品
  6
Continuous
 62
     4
100
AcDbLine
 10
3033.684713651134
 20
1089.216703765492
 30
0.0
 11
3028.184713651134
 21
1089.216703765492
 31
0.0
  0
LINE
  5
9868
330
1E
100
AcDbEntity
  8
躯体と製品
  6
Continuous
 62
     4
100
AcDbLine
 10
3028.184713651134
 20
1089.216703765492
 30
0.0
 11
3028.184713651134
 21
1082.716703765492
 31
0.0
  0
LINE
  5
9869
330
1E
100
AcDbEntity
  8
躯体と製品
  6
Continuous
 62
     4
100
AcDbLine
 10
3178.184713651134
 20
1100.716703765492
 30
0.0
 11
3178.184713651134
 21
1094.216703765492
 31
0.0
  0
LINE
  5
986A
330
1E
100
AcDbEntity
  8
躯体と製品
  6
Continuous
 62
     4
100
AcDbLine
 10
3178.184713651134
 20
1094.216703765492
 30
0.0
 11
3183.684713651134
 21
1094.216703765492
 31
0.0
  0
LINE
  5
986B
330
1E
100
AcDbEntity
  8
躯体と製品
  6
Continuous
 62
     4
100
AcDbLine
 10
3183.684713651134
 20
1094.216703765492
 30
0.0
 11
3183.684713651134
 21
1089.216703765492
 31
0.0
  0
LINE
  5
986C
330
1E
100
AcDbEntity
  8
躯体と製品
  6
Continuous
 62
     4
100
AcDbLine
 10
3183.684713651134
 20
1089.216703765492
 30
0.0
 11
3178.184713651134
 21
1089.216703765492
 31
0.0
  0
LINE
  5
986D
330
1E
100
AcDbEntity
  8
躯体と製品
  6
Continuous
 62
     4
100
AcDbLine
 10
3178.184713651134
 20
1089.216703765492
 30
0.0
 11
3178.184713651134
 21
1082.716703765492
 31
0.0
  0
LINE
  5
986E
330
1E
100
AcDbEntity
  8
躯体と製品
  6
Continuous
 62
     4
100
AcDbLine
 10
3253.184713651134
 20
1100.716703765492
 30
0.0
 11
3253.184713651134
 21
1094.216703765492
 31
0.0
  0
LINE
  5
986F
330
1E
100
AcDbEntity
  8
躯体と製品
  6
Continuous
 62
     4
100
AcDbLine
 10
3253.184713651134
 20
1094.216703765492
 30
0.0
 11
3258.684713651134
 21
1094.216703765492
 31
0.0
  0
LINE
  5
9870
330
1E
100
AcDbEntity
  8
躯体と製品
  6
Continuous
 62
     4
100
AcDbLine
 10
3258.684713651134
 20
1094.216703765492
 30
0.0
 11
3258.684713651134
 21
1089.216703765492
 31
0.0
  0
LINE
  5
9871
330
1E
100
AcDbEntity
  8
躯体と製品
  6
Continuous
 62
     4
100
AcDbLine
 10
3258.684713651134
 20
1089.216703765492
 30
0.0
 11
3253.184713651134
 21
1089.216703765492
 31
0.0
  0
LINE
  5
9872
330
1E
100
AcDbEntity
  8
躯体と製品
  6
Continuous
 62
     4
100
AcDbLine
 10
3253.184713651134
 20
1089.216703765492
 30
0.0
 11
3253.184713651134
 21
1082.716703765492
 31
0.0
  0
LINE
  5
9873
330
1E
100
AcDbEntity
  8
躯体と製品
  6
Continuous
 62
     4
100
AcDbLine
 10
3328.184713651134
 20
1100.716703765492
 30
0.0
 11
3328.184713651134
 21
1094.216703765492
 31
0.0
  0
LINE
  5
9874
330
1E
100
AcDbEntity
  8
躯体と製品
  6
Continuous
 62
     4
100
AcDbLine
 10
3328.184713651134
 20
1094.216703765492
 30
0.0
 11
3333.684713651134
 21
1094.216703765492
 31
0.0
  0
LINE
  5
9875
330
1E
100
AcDbEntity
  8
躯体と製品
  6
Continuous
 62
     4
100
AcDbLine
 10
3333.684713651134
 20
1094.216703765492
 30
0.0
 11
3333.684713651134
 21
1089.216703765492
 31
0.0
  0
LINE
  5
9876
330
1E
100
AcDbEntity
  8
躯体と製品
  6
Continuous
 62
     4
100
AcDbLine
 10
3333.684713651134
 20
1089.216703765492
 30
0.0
 11
3328.184713651134
 21
1089.216703765492
 31
0.0
  0
LINE
  5
9877
330
1E
100
AcDbEntity
  8
躯体と製品
  6
Continuous
 62
     4
100
AcDbLine
 10
3328.184713651134
 20
1089.216703765492
 30
0.0
 11
3328.184713651134
 21
1082.716703765492
 31
0.0
  0
LINE
  5
9878
330
1E
100
AcDbEntity
  8
躯体と製品
  6
Continuous
 62
     4
100
AcDbLine
 10
4937.691369177676
 20
1067.716703765493
 30
0.0
 11
3736.138539177674
 21
1067.716703765493
 31
0.0
  0
LINE
  5
9879
330
1E
100
AcDbEntity
  8
躯体と製品
  6
Continuous
 62
     4
100
AcDbLine
 10
4937.691369177676
 20
1082.716703765493
 30
0.0
 11
3736.138539177674
 21
1082.716703765493
 31
0.0
  0
LINE
  5
987A
330
1E
100
AcDbEntity
  8
躯体と製品
  6
Continuous
 62
     4
100
AcDbLine
 10
4937.691369177676
 20
1077.716703765493
 30
0.0
 11
3736.138539177674
 21
1077.716703765493
 31
0.0
  0
LINE
  5
987B
330
1E
100
AcDbEntity
  8
躯体と製品
  6
Continuous
 62
     4
100
AcDbLine
 10
4937.691369177676
 20
1072.716703765493
 30
0.0
 11
3736.138539177674
 21
1072.716703765493
 31
0.0
  0
LINE
  5
987C
330
1E
100
AcDbEntity
  8
躯体と製品
  6
Continuous
 62
     4
100
AcDbLine
 10
3938.733422119257
 20
1100.716703765492
 30
0.0
 11
3938.733422119257
 21
1094.216703765492
 31
0.0
  0
LINE
  5
987D
330
1E
100
AcDbEntity
  8
躯体と製品
  6
Continuous
 62
     4
100
AcDbLine
 10
3938.733422119257
 20
1094.216703765492
 30
0.0
 11
3944.233422119257
 21
1094.216703765492
 31
0.0
  0
LINE
  5
987E
330
1E
100
AcDbEntity
  8
躯体と製品
  6
Continuous
 62
     4
100
AcDbLine
 10
3944.233422119257
 20
1094.216703765492
 30
0.0
 11
3944.233422119257
 21
1089.216703765492
 31
0.0
  0
LINE
  5
987F
330
1E
100
AcDbEntity
  8
躯体と製品
  6
Continuous
 62
     4
100
AcDbLine
 10
3944.233422119257
 20
1089.216703765492
 30
0.0
 11
3938.733422119257
 21
1089.216703765492
 31
0.0
  0
LINE
  5
9880
330
1E
100
AcDbEntity
  8
躯体と製品
  6
Continuous
 62
     4
100
AcDbLine
 10
3938.733422119257
 20
1089.216703765492
 30
0.0
 11
3938.733422119257
 21
1082.716703765492
 31
0.0
  0
LINE
  5
9881
330
1E
100
AcDbEntity
  8
躯体と製品
  6
Continuous
 62
     4
100
AcDbLine
 10
4848.733422119256
 20
1100.716703765492
 30
0.0
 11
4848.733422119256
 21
1094.216703765492
 31
0.0
  0
LINE
  5
9882
330
1E
100
AcDbEntity
  8
躯体と製品
  6
Continuous
 62
     4
100
AcDbLine
 10
4848.733422119256
 20
1094.216703765492
 30
0.0
 11
4854.233422119256
 21
1094.216703765492
 31
0.0
  0
LINE
  5
9883
330
1E
100
AcDbEntity
  8
躯体と製品
  6
Continuous
 62
     4
100
AcDbLine
 10
4854.233422119256
 20
1094.216703765492
 30
0.0
 11
4854.233422119256
 21
1089.216703765492
 31
0.0
  0
LINE
  5
9884
330
1E
100
AcDbEntity
  8
躯体と製品
  6
Continuous
 62
     4
100
AcDbLine
 10
4854.233422119256
 20
1089.216703765492
 30
0.0
 11
4848.733422119256
 21
1089.216703765492
 31
0.0
  0
LINE
  5
9885
330
1E
100
AcDbEntity
  8
躯体と製品
  6
Continuous
 62
     4
100
AcDbLine
 10
4848.733422119256
 20
1089.216703765492
 30
0.0
 11
4848.733422119256
 21
1082.716703765492
 31
0.0
  0
TEXT
  5
9886
330
1E
100
AcDbEntity
  8
文字-記号
  6
Continuous
 62
     7
100
AcDbText
 10
4191.245793331028
 20
1152.568388149576
 30
0.0
 40
45.0
  1
根太鋼
 41
0.8
  7
ACAD
100
AcDbText
  0
LWPOLYLINE
  5
9887
330
1E
100
AcDbEntity
  8
文字-記号
  6
Continuous
 62
     7
100
AcDbPolyline
 90
        3
 70
     0
 43
0.0
 10
4130.789435836887
 20
1065.848391719329
 10
4116.148419727618
 20
1051.207375543641
 10
4121.507403618348
 20
1071.207375519329
  0
LWPOLYLINE
  5
9888
330
1E
100
AcDbEntity
  8
文字-記号
  6
Continuous
 62
     7
100
AcDbPolyline
 90
        3
 70
     0
 43
0.0
 10
4107.706388086959
 20
965.5397586910559
 10
4102.347404196229
 20
985.5397586667448
 10
4116.988420305498
 20
970.898742491056
  0
POINT
  5
9889
330
1E
100
AcDbEntity
  8
躯体と製品
  6
Continuous
 62
     4
100
AcDbPoint
 10
2440.684713651134
 20
980.7167037654926
 30
0.0
  0
POINT
  5
988A
330
1E
100
AcDbEntity
  8
躯体と製品
  6
Continuous
 62
     4
100
AcDbPoint
 10
2435.484713651135
 20
988.1597807654925
 30
0.0
  0
LINE
  5
988B
330
1E
100
AcDbEntity
  8
躯体と製品
  6
Continuous
 62
     4
100
AcDbLine
 10
2434.684713651134
 20
987.7167037654926
 30
0.0
 11
2434.684713651134
 21
1012.221468247949
 31
0.0
  0
LINE
  5
988C
330
1E
100
AcDbEntity
  8
躯体と製品
  6
Continuous
 62
     4
100
AcDbLine
 10
2435.484713651135
 20
988.1597807654925
 30
0.0
 11
2435.484713651135
 21
1012.137922182646
 31
0.0
  0
LINE
  5
988D
330
1E
100
AcDbEntity
  8
躯体と製品
  6
Continuous
 62
     4
100
AcDbLine
 10
2431.434713651134
 20
985.9167047654922
 30
0.0
 11
2431.434713651134
 21
984.7167037654926
 31
0.0
  0
LINE
  5
988E
330
1E
100
AcDbEntity
  8
躯体と製品
  6
Continuous
 62
     4
100
AcDbLine
 10
2431.434713651134
 20
985.9167047654922
 30
0.0
 11
2440.684713651134
 21
985.9167047654922
 31
0.0
  0
LINE
  5
988F
330
1E
100
AcDbEntity
  8
躯体と製品
  6
Continuous
 62
     4
100
AcDbLine
 10
2435.484713651135
 20
988.1597807654925
 30
0.0
 11
2431.434713651134
 21
985.9167047654922
 31
0.0
  0
LINE
  5
9890
330
1E
100
AcDbEntity
  8
躯体と製品
  6
Continuous
 62
     4
100
AcDbLine
 10
2440.684713651134
 20
980.7167037654926
 30
0.0
 11
2415.684713651134
 21
980.7167037654926
 31
0.0
  0
LINE
  5
9891
330
1E
100
AcDbEntity
  8
躯体と製品
  6
Continuous
 62
     4
100
AcDbLine
 10
2440.684713651134
 20
982.7167037654927
 30
0.0
 11
2415.684713651134
 21
982.7167037654927
 31
0.0
  0
LINE
  5
9892
330
1E
100
AcDbEntity
  8
躯体と製品
  6
Continuous
 62
     4
100
AcDbLine
 10
2435.484713651135
 20
988.1597807654925
 30
0.0
 11
2440.684713651134
 21
988.1597807654925
 31
0.0
  0
LINE
  5
9893
330
1E
100
AcDbEntity
  8
躯体と製品
  6
Continuous
 62
     4
100
AcDbLine
 10
2415.684713651134
 20
982.7167037654927
 30
0.0
 11
2415.684713651134
 21
980.7167037654926
 31
0.0
  0
LINE
  5
9894
330
1E
100
AcDbEntity
  8
躯体と製品
  6
Continuous
 62
     4
100
AcDbLine
 10
2449.934713651134
 20
985.9167047654922
 30
0.0
 11
2449.934713651134
 21
984.7167037654926
 31
0.0
  0
LINE
  5
9895
330
1E
100
AcDbEntity
  8
躯体と製品
  6
Continuous
 62
     4
100
AcDbLine
 10
2449.934713651134
 20
985.9167047654922
 30
0.0
 11
2440.684713651134
 21
985.9167047654922
 31
0.0
  0
LINE
  5
9896
330
1E
100
AcDbEntity
  8
躯体と製品
  6
Continuous
 62
     4
100
AcDbLine
 10
2446.684713651134
 20
987.7167037654926
 30
0.0
 11
2446.684713651135
 21
1012.221468247949
 31
0.0
  0
LINE
  5
9897
330
1E
100
AcDbEntity
  8
躯体と製品
  6
Continuous
 62
     4
100
AcDbLine
 10
2445.884713651135
 20
988.1597807654925
 30
0.0
 11
2445.884713651135
 21
1012.137922182646
 31
0.0
  0
LINE
  5
9898
330
1E
100
AcDbEntity
  8
躯体と製品
  6
Continuous
 62
     4
100
AcDbLine
 10
2465.684713651134
 20
982.7167037654927
 30
0.0
 11
2465.684713651134
 21
980.7167037654926
 31
0.0
  0
LINE
  5
9899
330
1E
100
AcDbEntity
  8
躯体と製品
  6
Continuous
 62
     4
100
AcDbLine
 10
2445.884713651135
 20
988.1597807654925
 30
0.0
 11
2440.684713651134
 21
988.1597807654925
 31
0.0
  0
LINE
  5
989A
330
1E
100
AcDbEntity
  8
躯体と製品
  6
Continuous
 62
     4
100
AcDbLine
 10
2440.684713651134
 20
982.7167037654927
 30
0.0
 11
2465.684713651134
 21
982.7167037654927
 31
0.0
  0
LINE
  5
989B
330
1E
100
AcDbEntity
  8
躯体と製品
  6
Continuous
 62
     4
100
AcDbLine
 10
2427.684713651134
 20
984.7167037654926
 30
0.0
 11
2453.684714045895
 21
984.7167037654926
 31
0.0
  0
LINE
  5
989C
330
1E
100
AcDbEntity
  8
躯体と製品
  6
Continuous
 62
     4
100
AcDbLine
 10
2440.684713651134
 20
980.7167037654926
 30
0.0
 11
2465.684713651134
 21
980.7167037654926
 31
0.0
  0
LINE
  5
989D
330
1E
100
AcDbEntity
  8
躯体と製品
  6
Continuous
 62
     4
100
AcDbLine
 10
2445.884713651135
 20
988.1597807654925
 30
0.0
 11
2449.934713651134
 21
985.9167047654922
 31
0.0
  0
LINE
  5
989E
330
1E
100
AcDbEntity
  8
躯体と製品
  6
Continuous
 62
     4
100
AcDbLine
 10
2429.934715151134
 20
1019.114665150181
 30
0.0
 11
2451.434712151133
 21
1019.114665150181
 31
0.0
  0
LINE
  5
989F
330
1E
100
AcDbEntity
  8
躯体と製品
  6
Continuous
 62
     4
100
AcDbLine
 10
2451.434712151133
 20
1019.114665150181
 30
0.0
 11
2451.434712151133
 21
1022.114672150181
 31
0.0
  0
LINE
  5
98A0
330
1E
100
AcDbEntity
  8
躯体と製品
  6
Continuous
 62
     4
100
AcDbLine
 10
2451.434712151133
 20
1022.114672150181
 30
0.0
 11
2429.934715151134
 21
1022.114672150181
 31
0.0
  0
LINE
  5
98A1
330
1E
100
AcDbEntity
  8
躯体と製品
  6
Continuous
 62
     4
100
AcDbLine
 10
2429.934715151134
 20
1022.114672150181
 30
0.0
 11
2429.934715151134
 21
1019.114665150181
 31
0.0
  0
POINT
  5
98A2
330
1E
100
AcDbEntity
  8
躯体と製品
  6
Continuous
 62
     4
100
AcDbPoint
 10
2427.684713651134
 20
984.7167037654926
 30
0.0
  0
ARC
  5
98A3
330
1E
100
AcDbEntity
  8
躯体と製品
  6
Continuous
 62
     4
100
AcDbCircle
 10
2427.684713651134
 20
980.2010747654927
 30
0.0
 40
4.515625
100
AcDbArc
 50
90.00000250441658
 51
146.1449702745877
  0
POINT
  5
98A4
330
1E
100
AcDbEntity
  8
躯体と製品
  6
Continuous
 62
     4
100
AcDbPoint
 10
2427.684713256375
 20
984.7167037654926
 30
0.0
 50
180.000011309032
  0
ARC
  5
98A5
330
1E
100
AcDbEntity
  8
躯体と製品
  6
Continuous
 62
     4
100
AcDbCircle
 10
2427.684714147669
 20
980.2010747654927
 30
0.0
 40
4.515624999999999
100
AcDbArc
 50
33.85504103442033
 51
90.00000880459284
  0
POINT
  5
98A6
330
1E
100
AcDbEntity
  8
躯体と製品
  6
Continuous
 62
     4
100
AcDbPoint
 10
2453.684713651134
 20
984.7167037654926
 30
0.0
 50
180.0
  0
ARC
  5
98A7
330
1E
100
AcDbEntity
  8
躯体と製品
  6
Continuous
 62
     4
100
AcDbCircle
 10
2453.684713651134
 20
980.2010747654927
 30
0.0
 40
4.515625
100
AcDbArc
 50
33.85502972541234
 51
89.99999749558341
  0
POINT
  5
98A8
330
1E
100
AcDbEntity
  8
躯体と製品
  6
Continuous
 62
     4
100
AcDbPoint
 10
2453.684714045895
 20
984.7167037654926
 30
0.0
 50
359.999988690968
  0
ARC
  5
98A9
330
1E
100
AcDbEntity
  8
躯体と製品
  6
Continuous
 62
     4
100
AcDbCircle
 10
2453.684713154601
 20
980.2010747654927
 30
0.0
 40
4.515624999999999
100
AcDbArc
 50
89.99999119540715
 51
146.1449589655797
  0
LWPOLYLINE
  5
98AA
330
1E
100
AcDbEntity
  8
躯体と製品
  6
Continuous
 62
     4
100
AcDbPolyline
 90
        2
 70
     0
 43
0.0
 10
2440.684713651134
 20
1018.117087659747
 10
2440.684713651134
 20
1013.114693150185
  0
LWPOLYLINE
  5
98AB
330
1E
100
AcDbEntity
  8
躯体と製品
  6
Continuous
 62
     4
100
AcDbPolyline
 90
        2
 70
     0
 43
0.0
 10
2449.680893054065
 20
1013.114693150184
 10
2449.68089305407
 20
1018.11468953487
  0
LWPOLYLINE
  5
98AC
330
1E
100
AcDbEntity
  8
躯体と製品
  6
Continuous
 62
     4
100
AcDbPolyline
 90
        2
 70
     0
 43
0.0
 10
2431.688534248202
 20
1013.114693150185
 10
2431.688534248208
 20
1018.11468953487
  0
LWPOLYLINE
  5
98AD
330
1E
100
AcDbEntity
  8
躯体と製品
  6
Continuous
 62
     4
100
AcDbPolyline
 90
        2
 70
     0
 43
0.0
 10
2436.186623949669
 20
1012.114693150183
 10
2445.1828033526
 20
1012.114693150183
  0
ARC
  5
98AE
330
1E
100
AcDbEntity
  8
躯体と製品
  6
Continuous
 62
     4
100
AcDbCircle
 10
2436.186623949669
 20
1022.73109863138
 30
0.0
 40
10.61640548119736
100
AcDbArc
 50
244.9320790439516
 51
295.0679209560484
  0
ARC
  5
98AF
330
1E
100
AcDbEntity
  8
躯体と製品
  6
Continuous
 62
     4
100
AcDbCircle
 10
2445.1828033526
 20
1022.73109863138
 30
0.0
 40
10.61640548119736
100
AcDbArc
 50
244.9320790439516
 51
295.0679209560484
  0
ARC
  5
98B0
330
1E
100
AcDbEntity
  8
躯体と製品
  6
Continuous
 62
     4
100
AcDbCircle
 10
2436.186623949669
 20
1008.498259668983
 30
0.0
 40
10.61640548119736
100
AcDbArc
 50
64.93207904384063
 51
115.0679209561593
  0
ARC
  5
98B1
330
1E
100
AcDbEntity
  8
躯体と製品
  6
Continuous
 62
     4
100
AcDbCircle
 10
2445.1828033526
 20
1008.498259668983
 30
0.0
 40
10.61640548119736
100
AcDbArc
 50
64.93207904384063
 51
115.0679209561593
  0
LWPOLYLINE
  5
98B2
330
1E
100
AcDbEntity
  8
躯体と製品
  6
Continuous
 62
     4
100
AcDbPolyline
 90
        2
 70
     0
 43
0.0
 10
2440.684713651134
 20
1025.716703765492
 10
2440.684713651134
 20
1023.114672150182
  0
LWPOLYLINE
  5
98B3
330
1E
100
AcDbEntity
  8
躯体と製品
  6
Continuous
 62
     4
100
AcDbPolyline
 90
        2
 70
     0
 43
0.0
 10
2449.680893054065
 20
1023.114672150182
 10
2449.680893054067
 20
1025.716703765492
  0
LWPOLYLINE
  5
98B4
330
1E
100
AcDbEntity
  8
躯体と製品
  6
Continuous
 62
     4
100
AcDbPolyline
 90
        2
 70
     0
 43
0.0
 10
2431.688534248202
 20
1023.114672150183
 10
2431.688534248204
 20
1025.716703765492
  0
ARC
  5
98B5
330
1E
100
AcDbEntity
  8
躯体と製品
  6
Continuous
 62
     4
100
AcDbCircle
 10
2436.186623949669
 20
1032.731077631378
 30
0.0
 40
10.61640548119736
100
AcDbArc
 50
244.9320790439516
 51
295.0679209560484
  0
ARC
  5
98B6
330
1E
100
AcDbEntity
  8
躯体と製品
  6
Continuous
 62
     4
100
AcDbCircle
 10
2445.1828033526
 20
1032.731077631378
 30
0.0
 40
10.61640548119736
100
AcDbArc
 50
244.9320790439516
 51
295.0679209560484
  0
POINT
  5
98B7
330
1E
100
AcDbEntity
  8
躯体と製品
  6
Continuous
 62
     4
100
AcDbPoint
 10
4098.638539177675
 20
980.7167037654924
 30
0.0
  0
POINT
  5
98B8
330
1E
100
AcDbEntity
  8
躯体と製品
  6
Continuous
 62
     4
100
AcDbPoint
 10
4093.438539177674
 20
988.1597807654923
 30
0.0
  0
POINT
  5
98B9
330
1E
100
AcDbEntity
  8
躯体と製品
  6
Continuous
 62
     4
100
AcDbPoint
 10
4064.138539177675
 20
984.7167037654925
 30
0.0
  0
POINT
  5
98BA
330
1E
100
AcDbEntity
  8
躯体と製品
  6
Continuous
 62
     4
100
AcDbPoint
 10
4133.138541177675
 20
984.7167037654925
 30
0.0
  0
LINE
  5
98BB
330
1E
100
AcDbEntity
  8
躯体と製品
  6
Continuous
 62
     4
100
AcDbLine
 10
4092.638539177675
 20
987.7167037654924
 30
0.0
 11
4092.638539177675
 21
1012.114668765493
 31
0.0
  0
LINE
  5
98BC
330
1E
100
AcDbEntity
  8
躯体と製品
  6
Continuous
 62
     4
100
AcDbLine
 10
4093.438539177674
 20
988.1597807654923
 30
0.0
 11
4093.438539177674
 21
1012.114668765493
 31
0.0
  0
LINE
  5
98BD
330
1E
100
AcDbEntity
  8
躯体と製品
  6
Continuous
 62
     4
100
AcDbLine
 10
4098.638539177675
 20
1025.716703765493
 30
0.0
 11
4048.638541177676
 21
1025.716703765493
 31
0.0
  0
LINE
  5
98BE
330
1E
100
AcDbEntity
  8
躯体と製品
  6
Continuous
 62
     4
100
AcDbLine
 10
4048.638541177676
 20
1025.716703765493
 30
0.0
 11
4048.638541177676
 21
1030.916704765493
 31
0.0
  0
LINE
  5
98BF
330
1E
100
AcDbEntity
  8
躯体と製品
  6
Continuous
 62
     4
100
AcDbLine
 10
4148.638541177676
 20
1025.716703765493
 30
0.0
 11
4148.638541177676
 21
1030.916704765493
 31
0.0
  0
LINE
  5
98C0
330
1E
100
AcDbEntity
  8
躯体と製品
  6
Continuous
 62
     4
100
AcDbLine
 10
4054.438540177675
 20
1036.716703765493
 30
0.0
 11
4142.838538177675
 21
1036.716703765493
 31
0.0
  0
LINE
  5
98C1
330
1E
100
AcDbEntity
  8
躯体と製品
  6
Continuous
 62
     4
100
AcDbLine
 10
4098.638539177675
 20
1025.716703765493
 30
0.0
 11
4148.638541177676
 21
1025.716703765493
 31
0.0
  0
LINE
  5
98C2
330
1E
100
AcDbEntity
  8
躯体と製品
  6
Continuous
 62
     4
100
AcDbLine
 10
4089.388539177675
 20
985.9167047654921
 30
0.0
 11
4089.388539177675
 21
984.7167037654925
 31
0.0
  0
LINE
  5
98C3
330
1E
100
AcDbEntity
  8
躯体と製品
  6
Continuous
 62
     4
100
AcDbLine
 10
4089.388539177675
 20
985.9167047654921
 30
0.0
 11
4098.638539177675
 21
985.9167047654921
 31
0.0
  0
LINE
  5
98C4
330
1E
100
AcDbEntity
  8
躯体と製品
  6
Continuous
 62
     4
100
AcDbLine
 10
4093.438539177674
 20
988.1597807654923
 30
0.0
 11
4089.388539177675
 21
985.9167047654921
 31
0.0
  0
LINE
  5
98C5
330
1E
100
AcDbEntity
  8
躯体と製品
  6
Continuous
 62
     4
100
AcDbLine
 10
4098.638539177675
 20
980.7167037654924
 30
0.0
 11
4053.638541177676
 21
980.7167037654924
 31
0.0
  0
LINE
  5
98C6
330
1E
100
AcDbEntity
  8
躯体と製品
  6
Continuous
 62
     4
100
AcDbLine
 10
4098.638539177675
 20
984.7167037654925
 30
0.0
 11
4064.138539177675
 21
984.7167037654925
 31
0.0
  0
LINE
  5
98C7
330
1E
100
AcDbEntity
  8
躯体と製品
  6
Continuous
 62
     4
100
AcDbLine
 10
4098.638539177675
 20
982.7167037654923
 30
0.0
 11
4053.638541177676
 21
982.7167037654923
 31
0.0
  0
LINE
  5
98C8
330
1E
100
AcDbEntity
  8
躯体と製品
  6
Continuous
 62
     4
100
AcDbLine
 10
4093.438539177674
 20
988.1597807654923
 30
0.0
 11
4098.638539177675
 21
988.1597807654923
 31
0.0
  0
LINE
  5
98C9
330
1E
100
AcDbEntity
  8
躯体と製品
  6
Continuous
 62
     4
100
AcDbLine
 10
4053.638541177676
 20
982.7167037654923
 30
0.0
 11
4053.638541177676
 21
980.7167037654924
 31
0.0
  0
LINE
  5
98CA
330
1E
100
AcDbEntity
  8
躯体と製品
  6
Continuous
 62
     4
100
AcDbLine
 10
4107.888539177674
 20
985.9167047654921
 30
0.0
 11
4107.888539177674
 21
984.7167037654925
 31
0.0
  0
LINE
  5
98CB
330
1E
100
AcDbEntity
  8
躯体と製品
  6
Continuous
 62
     4
100
AcDbLine
 10
4107.888539177674
 20
985.9167047654921
 30
0.0
 11
4098.638539177675
 21
985.9167047654921
 31
0.0
  0
LINE
  5
98CC
330
1E
100
AcDbEntity
  8
躯体と製品
  6
Continuous
 62
     4
100
AcDbLine
 10
4104.638539177675
 20
987.7167037654924
 30
0.0
 11
4104.638539177675
 21
1012.114668765493
 31
0.0
  0
LINE
  5
98CD
330
1E
100
AcDbEntity
  8
躯体と製品
  6
Continuous
 62
     4
100
AcDbLine
 10
4103.838539177675
 20
988.1597807654923
 30
0.0
 11
4103.838539177675
 21
1012.114668765493
 31
0.0
  0
LINE
  5
98CE
330
1E
100
AcDbEntity
  8
躯体と製品
  6
Continuous
 62
     4
100
AcDbLine
 10
4143.638541177675
 20
982.7167037654923
 30
0.0
 11
4143.638541177675
 21
980.7167037654924
 31
0.0
  0
LINE
  5
98CF
330
1E
100
AcDbEntity
  8
躯体と製品
  6
Continuous
 62
     4
100
AcDbLine
 10
4103.838539177675
 20
988.1597807654923
 30
0.0
 11
4098.638539177675
 21
988.1597807654923
 31
0.0
  0
LINE
  5
98D0
330
1E
100
AcDbEntity
  8
躯体と製品
  6
Continuous
 62
     4
100
AcDbLine
 10
4098.638539177675
 20
982.7167037654923
 30
0.0
 11
4143.638541177675
 21
982.7167037654923
 31
0.0
  0
LINE
  5
98D1
330
1E
100
AcDbEntity
  8
躯体と製品
  6
Continuous
 62
     4
100
AcDbLine
 10
4098.638539177675
 20
984.7167037654925
 30
0.0
 11
4133.138541177675
 21
984.7167037654925
 31
0.0
  0
LINE
  5
98D2
330
1E
100
AcDbEntity
  8
躯体と製品
  6
Continuous
 62
     4
100
AcDbLine
 10
4098.638539177675
 20
980.7167037654924
 30
0.0
 11
4143.638541177675
 21
980.7167037654924
 31
0.0
  0
LINE
  5
98D3
330
1E
100
AcDbEntity
  8
躯体と製品
  6
Continuous
 62
     4
100
AcDbLine
 10
4103.838539177675
 20
988.1597807654923
 30
0.0
 11
4107.888539177674
 21
985.9167047654921
 31
0.0
  0
ARC
  5
98D4
330
1E
100
AcDbEntity
  8
躯体と製品
  6
Continuous
 62
     4
100
AcDbCircle
 10
4054.438540177675
 20
1030.916704765493
 30
0.0
 40
5.799999999999999
100
AcDbArc
 50
90.00000250441658
 51
180.0000050090416
  0
ARC
  5
98D5
330
1E
100
AcDbEntity
  8
躯体と製品
  6
Continuous
 62
     4
100
AcDbCircle
 10
4142.838538177675
 20
1030.916704765493
 30
0.0
 40
5.799999999999999
100
AcDbArc
 50
0.0
 51
90.00000250441658
  0
ARC
  5
98D6
330
1E
100
AcDbEntity
  8
躯体と製品
  6
Continuous
 62
     4
100
AcDbCircle
 10
4064.138539177675
 20
980.2010747654923
 30
0.0
 40
4.515625
100
AcDbArc
 50
90.00000250441658
 51
146.1449702745877
  0
ARC
  5
98D7
330
1E
100
AcDbEntity
  8
躯体と製品
  6
Continuous
 62
     4
100
AcDbCircle
 10
4133.138541177675
 20
980.2010747654923
 30
0.0
 40
4.515625
100
AcDbArc
 50
33.85502448907212
 51
90.00000250441658
  0
ARC
  5
98D8
330
1E
100
AcDbEntity
  8
躯体と製品
  6
Continuous
 62
     4
100
AcDbCircle
 10
4098.638539177675
 20
1036.103212791801
 30
0.0
 40
13.9885406416198
100
AcDbArc
 50
248.2041795524551
 51
291.7958204475449
  0
ARC
  5
98D9
330
1E
100
AcDbEntity
  8
躯体と製品
  6
Continuous
 62
     4
100
AcDbCircle
 10
4090.847619277734
 20
1025.986807310586
 30
0.0
 40
3.87213516040484
100
AcDbArc
 50
227.8802374416488
 51
312.1197625583513
  0
ARC
  5
98DA
330
1E
100
AcDbEntity
  8
躯体と製品
  6
Continuous
 62
     4
100
AcDbCircle
 10
4106.429459077616
 20
1025.986807310586
 30
0.0
 40
3.87213516040484
100
AcDbArc
 50
227.8802374416488
 51
312.1197625583513
  0
LWPOLYLINE
  5
98DB
330
1E
100
AcDbEntity
  8
躯体と製品
  6
Continuous
 62
     4
100
AcDbPolyline
 90
        2
 70
     0
 43
0.0
 10
4088.250645977754
 20
1023.114672150182
 10
4088.250645977754
 20
1025.716703765493
  0
LWPOLYLINE
  5
98DC
330
1E
100
AcDbEntity
  8
躯体と製品
  6
Continuous
 62
     4
100
AcDbPolyline
 90
        2
 70
     0
 43
0.0
 10
4109.026432377596
 20
1023.114672150182
 10
4109.026432377596
 20
1025.716703765493
  0
LWPOLYLINE
  5
98DD
330
1E
100
AcDbEntity
  8
躯体と製品
  6
Continuous
 62
     4
100
AcDbPolyline
 90
        2
 70
     0
 43
0.0
 10
4103.832485777635
 20
1025.716703765493
 10
4103.832485777637
 20
1023.114672150179
  0
LWPOLYLINE
  5
98DE
330
1E
100
AcDbEntity
  8
躯体と製品
  6
Continuous
 62
     4
100
AcDbPolyline
 90
        2
 70
     0
 43
0.0
 10
4093.444592577711
 20
1025.716703765493
 10
4093.444592577713
 20
1023.114672150184
  0
LINE
  5
98DF
330
1E
100
AcDbEntity
  8
躯体と製品
  6
Continuous
 62
     4
100
AcDbLine
 10
4090.84762945159
 20
1012.114668765493
 30
0.0
 11
4106.42946925147
 21
1012.114668765493
 31
0.0
  0
ARC
  5
98E0
330
1E
100
AcDbEntity
  8
躯体と製品
  6
Continuous
 62
     4
100
AcDbCircle
 10
4098.638549351529
 20
1026.103209407113
 30
0.0
 40
13.9885406416198
100
AcDbArc
 50
248.2041795524551
 51
291.7958204475449
  0
LWPOLYLINE
  5
98E1
330
1E
100
AcDbEntity
  8
躯体と製品
  6
Continuous
 62
     4
100
AcDbPolyline
 90
        2
 70
     0
 43
0.0
 10
4093.44460275157
 20
1012.114668765493
 10
4090.84762945159
 20
1012.114668765493
  0
ARC
  5
98E2
330
1E
100
AcDbEntity
  8
躯体と製品
  6
Continuous
 62
     4
100
AcDbCircle
 10
4090.84762945159
 20
1015.986803925898
 30
0.0
 40
3.87213516040484
100
AcDbArc
 50
227.8802374416488
 51
312.1197625583513
  0
ARC
  5
98E3
330
1E
100
AcDbEntity
  8
躯体と製品
  6
Continuous
 62
     4
100
AcDbCircle
 10
4106.42946925147
 20
1015.986803925898
 30
0.0
 40
3.87213516040484
100
AcDbArc
 50
227.8802374416488
 51
312.1197625583513
  0
LWPOLYLINE
  5
98E4
330
1E
100
AcDbEntity
  8
躯体と製品
  6
Continuous
 62
     4
100
AcDbPolyline
 90
        2
 70
     0
 43
0.0
 10
4088.250656151609
 20
1013.114668765493
 10
4088.250656151609
 20
1018.114668765493
  0
LWPOLYLINE
  5
98E5
330
1E
100
AcDbEntity
  8
躯体と製品
  6
Continuous
 62
     4
100
AcDbPolyline
 90
        2
 70
     0
 43
0.0
 10
4109.02644255145
 20
1013.114668765493
 10
4109.02644255145
 20
1018.114668765493
  0
LWPOLYLINE
  5
98E6
330
1E
100
AcDbEntity
  8
躯体と製品
  6
Continuous
 62
     4
100
AcDbPolyline
 90
        2
 70
     0
 43
0.0
 10
4103.832495951489
 20
1018.114668765494
 10
4103.832495951492
 20
1013.11466876549
  0
LWPOLYLINE
  5
98E7
330
1E
100
AcDbEntity
  8
躯体と製品
  6
Continuous
 62
     4
100
AcDbPolyline
 90
        2
 70
     0
 43
0.0
 10
4093.444602751564
 20
1018.114668765491
 10
4093.444602751568
 20
1013.114668765494
  0
ARC
  5
98E8
330
1E
100
AcDbEntity
  8
躯体と製品
  6
Continuous
 62
     4
100
AcDbCircle
 10
4098.638549351529
 20
1005.126128123873
 30
0.0
 40
13.9885406416198
100
AcDbArc
 50
68.20417955245514
 51
111.7958204475448
  0
ARC
  5
98E9
330
1E
100
AcDbEntity
  8
躯体と製品
  6
Continuous
 62
     4
100
AcDbCircle
 10
4090.84762945159
 20
1015.242533605088
 30
0.0
 40
3.87213516040484
100
AcDbArc
 50
47.88023744164877
 51
132.1197625583512
  0
ARC
  5
98EA
330
1E
100
AcDbEntity
  8
躯体と製品
  6
Continuous
 62
     4
100
AcDbCircle
 10
4106.42946925147
 20
1015.242533605088
 30
0.0
 40
3.87213516040484
100
AcDbArc
 50
47.88023744164877
 51
132.1197625583512
  0
LINE
  5
98EB
330
1E
100
AcDbEntity
  8
躯体と製品
  6
Continuous
 62
     4
100
AcDbLine
 10
4087.888540177964
 20
1019.114665150182
 30
0.0
 11
4109.388537177963
 21
1019.114665150182
 31
0.0
  0
LINE
  5
98EC
330
1E
100
AcDbEntity
  8
躯体と製品
  6
Continuous
 62
     4
100
AcDbLine
 10
4109.388537177963
 20
1019.114665150182
 30
0.0
 11
4109.388537177963
 21
1022.114672150182
 31
0.0
  0
LINE
  5
98ED
330
1E
100
AcDbEntity
  8
躯体と製品
  6
Continuous
 62
     4
100
AcDbLine
 10
4109.388537177963
 20
1022.114672150182
 30
0.0
 11
4087.888540177964
 21
1022.114672150182
 31
0.0
  0
LINE
  5
98EE
330
1E
100
AcDbEntity
  8
躯体と製品
  6
Continuous
 62
     4
100
AcDbLine
 10
4087.888540177964
 20
1022.114672150182
 30
0.0
 11
4087.888540177964
 21
1019.114665150182
 31
0.0
  0
LINE
  5
98EF
330
1E
100
AcDbEntity
  8
躯体と製品
  6
Continuous
 62
     4
100
AcDbLine
 10
4098.638539177964
 20
1019.114665150182
 30
0.0
 11
4096.906483177963
 21
1022.114672150182
 31
0.0
  0
LINE
  5
98F0
330
1E
100
AcDbEntity
  8
躯体と製品
  6
Continuous
 62
     4
100
AcDbLine
 10
4100.370594177964
 20
1019.114665150182
 30
0.0
 11
4098.638539177964
 21
1022.114672150182
 31
0.0
  0
LWPOLYLINE
  5
98F1
330
1E
100
AcDbEntity
  8
中心線
  6
CENTER1
100
AcDbPolyline
 90
        2
 70
     0
 43
0.0
 10
4098.638539177675
 20
972.2846073009561
 10
4098.638539177675
 20
1073.76964257158
  0
POINT
  5
98F2
330
1E
100
AcDbEntity
  8
躯体と製品
  6
Continuous
 62
     4
100
AcDbPoint
 10
3798.638539177676
 20
980.7167037654924
 30
0.0
  0
POINT
  5
98F3
330
1E
100
AcDbEntity
  8
躯体と製品
  6
Continuous
 62
     4
100
AcDbPoint
 10
3793.438539177675
 20
988.1597807654923
 30
0.0
  0
POINT
  5
98F4
330
1E
100
AcDbEntity
  8
躯体と製品
  6
Continuous
 62
     4
100
AcDbPoint
 10
3764.138539177675
 20
984.7167037654925
 30
0.0
  0
POINT
  5
98F5
330
1E
100
AcDbEntity
  8
躯体と製品
  6
Continuous
 62
     4
100
AcDbPoint
 10
3833.138541177676
 20
984.7167037654925
 30
0.0
  0
LINE
  5
98F6
330
1E
100
AcDbEntity
  8
躯体と製品
  6
Continuous
 62
     4
100
AcDbLine
 10
3792.638539177676
 20
987.7167037654924
 30
0.0
 11
3792.638539177676
 21
1012.114668765493
 31
0.0
  0
LINE
  5
98F7
330
1E
100
AcDbEntity
  8
躯体と製品
  6
Continuous
 62
     4
100
AcDbLine
 10
3793.438539177675
 20
988.1597807654923
 30
0.0
 11
3793.438539177675
 21
1012.114668765493
 31
0.0
  0
LINE
  5
98F8
330
1E
100
AcDbEntity
  8
躯体と製品
  6
Continuous
 62
     4
100
AcDbLine
 10
3798.638539177676
 20
1025.716703765493
 30
0.0
 11
3748.638541177676
 21
1025.716703765493
 31
0.0
  0
LINE
  5
98F9
330
1E
100
AcDbEntity
  8
躯体と製品
  6
Continuous
 62
     4
100
AcDbLine
 10
3748.638541177676
 20
1025.716703765493
 30
0.0
 11
3748.638541177676
 21
1030.916704765493
 31
0.0
  0
LINE
  5
98FA
330
1E
100
AcDbEntity
  8
躯体と製品
  6
Continuous
 62
     4
100
AcDbLine
 10
3848.638541177676
 20
1025.716703765493
 30
0.0
 11
3848.638541177676
 21
1030.916704765493
 31
0.0
  0
LINE
  5
98FB
330
1E
100
AcDbEntity
  8
躯体と製品
  6
Continuous
 62
     4
100
AcDbLine
 10
3754.438540177675
 20
1036.716703765493
 30
0.0
 11
3842.838538177676
 21
1036.716703765493
 31
0.0
  0
LINE
  5
98FC
330
1E
100
AcDbEntity
  8
躯体と製品
  6
Continuous
 62
     4
100
AcDbLine
 10
3798.638539177676
 20
1025.716703765493
 30
0.0
 11
3848.638541177676
 21
1025.716703765493
 31
0.0
  0
LINE
  5
98FD
330
1E
100
AcDbEntity
  8
躯体と製品
  6
Continuous
 62
     4
100
AcDbLine
 10
3789.388539177676
 20
985.9167047654921
 30
0.0
 11
3789.388539177676
 21
984.7167037654925
 31
0.0
  0
LINE
  5
98FE
330
1E
100
AcDbEntity
  8
躯体と製品
  6
Continuous
 62
     4
100
AcDbLine
 10
3789.388539177676
 20
985.9167047654921
 30
0.0
 11
3798.638539177676
 21
985.9167047654921
 31
0.0
  0
LINE
  5
98FF
330
1E
100
AcDbEntity
  8
躯体と製品
  6
Continuous
 62
     4
100
AcDbLine
 10
3793.438539177675
 20
988.1597807654923
 30
0.0
 11
3789.388539177676
 21
985.9167047654921
 31
0.0
  0
LINE
  5
9900
330
1E
100
AcDbEntity
  8
躯体と製品
  6
Continuous
 62
     4
100
AcDbLine
 10
3798.638539177676
 20
980.7167037654924
 30
0.0
 11
3753.638541177676
 21
980.7167037654924
 31
0.0
  0
LINE
  5
9901
330
1E
100
AcDbEntity
  8
躯体と製品
  6
Continuous
 62
     4
100
AcDbLine
 10
3798.638539177676
 20
984.7167037654925
 30
0.0
 11
3764.138539177675
 21
984.7167037654925
 31
0.0
  0
LINE
  5
9902
330
1E
100
AcDbEntity
  8
躯体と製品
  6
Continuous
 62
     4
100
AcDbLine
 10
3798.638539177676
 20
982.7167037654923
 30
0.0
 11
3753.638541177676
 21
982.7167037654923
 31
0.0
  0
LINE
  5
9903
330
1E
100
AcDbEntity
  8
躯体と製品
  6
Continuous
 62
     4
100
AcDbLine
 10
3793.438539177675
 20
988.1597807654923
 30
0.0
 11
3798.638539177676
 21
988.1597807654923
 31
0.0
  0
LINE
  5
9904
330
1E
100
AcDbEntity
  8
躯体と製品
  6
Continuous
 62
     4
100
AcDbLine
 10
3753.638541177676
 20
982.7167037654923
 30
0.0
 11
3753.638541177676
 21
980.7167037654924
 31
0.0
  0
LINE
  5
9905
330
1E
100
AcDbEntity
  8
躯体と製品
  6
Continuous
 62
     4
100
AcDbLine
 10
3807.888539177675
 20
985.9167047654921
 30
0.0
 11
3807.888539177675
 21
984.7167037654925
 31
0.0
  0
LINE
  5
9906
330
1E
100
AcDbEntity
  8
躯体と製品
  6
Continuous
 62
     4
100
AcDbLine
 10
3807.888539177675
 20
985.9167047654921
 30
0.0
 11
3798.638539177676
 21
985.9167047654921
 31
0.0
  0
LINE
  5
9907
330
1E
100
AcDbEntity
  8
躯体と製品
  6
Continuous
 62
     4
100
AcDbLine
 10
3804.638539177675
 20
987.7167037654924
 30
0.0
 11
3804.638539177675
 21
1012.114668765493
 31
0.0
  0
LINE
  5
9908
330
1E
100
AcDbEntity
  8
躯体と製品
  6
Continuous
 62
     4
100
AcDbLine
 10
3803.838539177677
 20
988.1597807654923
 30
0.0
 11
3803.838539177677
 21
1012.114668765493
 31
0.0
  0
LINE
  5
9909
330
1E
100
AcDbEntity
  8
躯体と製品
  6
Continuous
 62
     4
100
AcDbLine
 10
3843.638541177676
 20
982.7167037654923
 30
0.0
 11
3843.638541177676
 21
980.7167037654924
 31
0.0
  0
LINE
  5
990A
330
1E
100
AcDbEntity
  8
躯体と製品
  6
Continuous
 62
     4
100
AcDbLine
 10
3803.838539177677
 20
988.1597807654923
 30
0.0
 11
3798.638539177676
 21
988.1597807654923
 31
0.0
  0
LINE
  5
990B
330
1E
100
AcDbEntity
  8
躯体と製品
  6
Continuous
 62
     4
100
AcDbLine
 10
3798.638539177676
 20
982.7167037654923
 30
0.0
 11
3843.638541177676
 21
982.7167037654923
 31
0.0
  0
LINE
  5
990C
330
1E
100
AcDbEntity
  8
躯体と製品
  6
Continuous
 62
     4
100
AcDbLine
 10
3798.638539177676
 20
984.7167037654925
 30
0.0
 11
3833.138541177676
 21
984.7167037654925
 31
0.0
  0
LINE
  5
990D
330
1E
100
AcDbEntity
  8
躯体と製品
  6
Continuous
 62
     4
100
AcDbLine
 10
3798.638539177676
 20
980.7167037654924
 30
0.0
 11
3843.638541177676
 21
980.7167037654924
 31
0.0
  0
LINE
  5
990E
330
1E
100
AcDbEntity
  8
躯体と製品
  6
Continuous
 62
     4
100
AcDbLine
 10
3803.838539177677
 20
988.1597807654923
 30
0.0
 11
3807.888539177675
 21
985.9167047654921
 31
0.0
  0
ARC
  5
990F
330
1E
100
AcDbEntity
  8
躯体と製品
  6
Continuous
 62
     4
100
AcDbCircle
 10
3754.438540177675
 20
1030.916704765493
 30
0.0
 40
5.799999999999999
100
AcDbArc
 50
90.00000250441658
 51
180.0000050090416
  0
ARC
  5
9910
330
1E
100
AcDbEntity
  8
躯体と製品
  6
Continuous
 62
     4
100
AcDbCircle
 10
3842.838538177676
 20
1030.916704765493
 30
0.0
 40
5.799999999999999
100
AcDbArc
 50
0.0
 51
90.00000250441658
  0
ARC
  5
9911
330
1E
100
AcDbEntity
  8
躯体と製品
  6
Continuous
 62
     4
100
AcDbCircle
 10
3764.138539177675
 20
980.2010747654923
 30
0.0
 40
4.515625
100
AcDbArc
 50
90.00000250441658
 51
146.1449702745877
  0
ARC
  5
9912
330
1E
100
AcDbEntity
  8
躯体と製品
  6
Continuous
 62
     4
100
AcDbCircle
 10
3833.138541177676
 20
980.2010747654923
 30
0.0
 40
4.515625
100
AcDbArc
 50
33.85502448907212
 51
90.00000250441658
  0
LINE
  5
9913
330
1E
100
AcDbEntity
  8
躯体と製品
  6
Continuous
 62
     4
100
AcDbLine
 10
3792.638539177676
 20
1049.916703765493
 30
0.0
 11
3804.638539177675
 21
1049.916703765493
 31
0.0
  0
LINE
  5
9914
330
1E
100
AcDbEntity
  8
躯体と製品
  6
Continuous
 62
     4
100
AcDbLine
 10
3792.638539177676
 20
1038.716703765493
 30
0.0
 11
3792.638539177676
 21
1049.916703765493
 31
0.0
  0
LINE
  5
9915
330
1E
100
AcDbEntity
  8
躯体と製品
  6
Continuous
 62
     4
100
AcDbLine
 10
3793.438539177675
 20
1038.716703765493
 30
0.0
 11
3793.438539177675
 21
1050.716703765493
 31
0.0
  0
LINE
  5
9916
330
1E
100
AcDbEntity
  8
躯体と製品
  6
Continuous
 62
     4
100
AcDbLine
 10
3804.638539177675
 20
1038.716703765493
 30
0.0
 11
3804.638539177675
 21
1049.916703765493
 31
0.0
  0
LINE
  5
9917
330
1E
100
AcDbEntity
  8
躯体と製品
  6
Continuous
 62
     4
100
AcDbLine
 10
3803.838539177677
 20
1038.716703765493
 30
0.0
 11
3803.838539177677
 21
1050.716703765493
 31
0.0
  0
LINE
  5
9918
330
1E
100
AcDbEntity
  8
躯体と製品
  6
Continuous
 62
     4
100
AcDbLine
 10
3792.638539177676
 20
1049.916703765493
 30
0.0
 11
3793.438539177675
 21
1050.716703765493
 31
0.0
  0
LINE
  5
9919
330
1E
100
AcDbEntity
  8
躯体と製品
  6
Continuous
 62
     4
100
AcDbLine
 10
3804.638539177675
 20
1049.916703765493
 30
0.0
 11
3803.838539177677
 21
1050.716703765493
 31
0.0
  0
LINE
  5
991A
330
1E
100
AcDbEntity
  8
躯体と製品
  6
Continuous
 62
     4
100
AcDbLine
 10
3793.438539177675
 20
1050.716703765493
 30
0.0
 11
3803.838539177677
 21
1050.716703765493
 31
0.0
  0
ARC
  5
991B
330
1E
100
AcDbEntity
  8
躯体と製品
  6
Continuous
 62
     4
100
AcDbCircle
 10
3798.638539177676
 20
1036.103212791801
 30
0.0
 40
13.9885406416198
100
AcDbArc
 50
248.2041795524551
 51
291.7958204475449
  0
ARC
  5
991C
330
1E
100
AcDbEntity
  8
躯体と製品
  6
Continuous
 62
     4
100
AcDbCircle
 10
3790.847619277735
 20
1025.986807310586
 30
0.0
 40
3.87213516040484
100
AcDbArc
 50
227.8802374416488
 51
312.1197625583513
  0
ARC
  5
991D
330
1E
100
AcDbEntity
  8
躯体と製品
  6
Continuous
 62
     4
100
AcDbCircle
 10
3806.429459077616
 20
1025.986807310586
 30
0.0
 40
3.87213516040484
100
AcDbArc
 50
227.8802374416488
 51
312.1197625583513
  0
LWPOLYLINE
  5
991E
330
1E
100
AcDbEntity
  8
躯体と製品
  6
Continuous
 62
     4
100
AcDbPolyline
 90
        2
 70
     0
 43
0.0
 10
3788.250645977754
 20
1023.114672150182
 10
3788.250645977754
 20
1025.716703765493
  0
LWPOLYLINE
  5
991F
330
1E
100
AcDbEntity
  8
躯体と製品
  6
Continuous
 62
     4
100
AcDbPolyline
 90
        2
 70
     0
 43
0.0
 10
3809.026432377596
 20
1023.114672150182
 10
3809.026432377596
 20
1025.716703765493
  0
LWPOLYLINE
  5
9920
330
1E
100
AcDbEntity
  8
躯体と製品
  6
Continuous
 62
     4
100
AcDbPolyline
 90
        2
 70
     0
 43
0.0
 10
3803.832485777636
 20
1025.716703765493
 10
3803.832485777638
 20
1023.114672150179
  0
LWPOLYLINE
  5
9921
330
1E
100
AcDbEntity
  8
躯体と製品
  6
Continuous
 62
     4
100
AcDbPolyline
 90
        2
 70
     0
 43
0.0
 10
3793.444592577711
 20
1025.716703765493
 10
3793.444592577714
 20
1023.114672150184
  0
LINE
  5
9922
330
1E
100
AcDbEntity
  8
躯体と製品
  6
Continuous
 62
     4
100
AcDbLine
 10
3790.84762945159
 20
1012.114668765493
 30
0.0
 11
3806.429469251471
 21
1012.114668765493
 31
0.0
  0
ARC
  5
9923
330
1E
100
AcDbEntity
  8
躯体と製品
  6
Continuous
 62
     4
100
AcDbCircle
 10
3798.638549351531
 20
1026.103209407113
 30
0.0
 40
13.9885406416198
100
AcDbArc
 50
248.2041795524551
 51
291.7958204475449
  0
LWPOLYLINE
  5
9924
330
1E
100
AcDbEntity
  8
躯体と製品
  6
Continuous
 62
     4
100
AcDbPolyline
 90
        2
 70
     0
 43
0.0
 10
3793.44460275157
 20
1012.114668765493
 10
3790.84762945159
 20
1012.114668765493
  0
ARC
  5
9925
330
1E
100
AcDbEntity
  8
躯体と製品
  6
Continuous
 62
     4
100
AcDbCircle
 10
3790.84762945159
 20
1015.986803925898
 30
0.0
 40
3.87213516040484
100
AcDbArc
 50
227.8802374416488
 51
312.1197625583513
  0
ARC
  5
9926
330
1E
100
AcDbEntity
  8
躯体と製品
  6
Continuous
 62
     4
100
AcDbCircle
 10
3806.429469251471
 20
1015.986803925898
 30
0.0
 40
3.87213516040484
100
AcDbArc
 50
227.8802374416488
 51
312.1197625583513
  0
LWPOLYLINE
  5
9927
330
1E
100
AcDbEntity
  8
躯体と製品
  6
Continuous
 62
     4
100
AcDbPolyline
 90
        2
 70
     0
 43
0.0
 10
3788.25065615161
 20
1013.114668765493
 10
3788.25065615161
 20
1018.114668765493
  0
LWPOLYLINE
  5
9928
330
1E
100
AcDbEntity
  8
躯体と製品
  6
Continuous
 62
     4
100
AcDbPolyline
 90
        2
 70
     0
 43
0.0
 10
3809.026442551451
 20
1013.114668765493
 10
3809.026442551451
 20
1018.114668765493
  0
LWPOLYLINE
  5
9929
330
1E
100
AcDbEntity
  8
躯体と製品
  6
Continuous
 62
     4
100
AcDbPolyline
 90
        2
 70
     0
 43
0.0
 10
3803.832495951489
 20
1018.114668765494
 10
3803.832495951493
 20
1013.11466876549
  0
LWPOLYLINE
  5
992A
330
1E
100
AcDbEntity
  8
躯体と製品
  6
Continuous
 62
     4
100
AcDbPolyline
 90
        2
 70
     0
 43
0.0
 10
3793.444602751565
 20
1018.114668765491
 10
3793.444602751569
 20
1013.114668765494
  0
ARC
  5
992B
330
1E
100
AcDbEntity
  8
躯体と製品
  6
Continuous
 62
     4
100
AcDbCircle
 10
3798.638549351531
 20
1005.126128123873
 30
0.0
 40
13.9885406416198
100
AcDbArc
 50
68.20417955245514
 51
111.7958204475448
  0
ARC
  5
992C
330
1E
100
AcDbEntity
  8
躯体と製品
  6
Continuous
 62
     4
100
AcDbCircle
 10
3790.84762945159
 20
1015.242533605088
 30
0.0
 40
3.87213516040484
100
AcDbArc
 50
47.88023744164877
 51
132.1197625583512
  0
ARC
  5
992D
330
1E
100
AcDbEntity
  8
躯体と製品
  6
Continuous
 62
     4
100
AcDbCircle
 10
3806.429469251471
 20
1015.242533605088
 30
0.0
 40
3.87213516040484
100
AcDbArc
 50
47.88023744164877
 51
132.1197625583512
  0
LINE
  5
992E
330
1E
100
AcDbEntity
  8
躯体と製品
  6
Continuous
 62
     4
100
AcDbLine
 10
3787.888540177965
 20
1019.114665150182
 30
0.0
 11
3809.388537177964
 21
1019.114665150182
 31
0.0
  0
LINE
  5
992F
330
1E
100
AcDbEntity
  8
躯体と製品
  6
Continuous
 62
     4
100
AcDbLine
 10
3809.388537177964
 20
1019.114665150182
 30
0.0
 11
3809.388537177964
 21
1022.114672150182
 31
0.0
  0
LINE
  5
9930
330
1E
100
AcDbEntity
  8
躯体と製品
  6
Continuous
 62
     4
100
AcDbLine
 10
3809.388537177964
 20
1022.114672150182
 30
0.0
 11
3787.888540177965
 21
1022.114672150182
 31
0.0
  0
LINE
  5
9931
330
1E
100
AcDbEntity
  8
躯体と製品
  6
Continuous
 62
     4
100
AcDbLine
 10
3787.888540177965
 20
1022.114672150182
 30
0.0
 11
3787.888540177965
 21
1019.114665150182
 31
0.0
  0
LINE
  5
9932
330
1E
100
AcDbEntity
  8
躯体と製品
  6
Continuous
 62
     4
100
AcDbLine
 10
3798.638539177965
 20
1019.114665150182
 30
0.0
 11
3796.906483177964
 21
1022.114672150182
 31
0.0
  0
LINE
  5
9933
330
1E
100
AcDbEntity
  8
躯体と製品
  6
Continuous
 62
     4
100
AcDbLine
 10
3800.370594177965
 20
1019.114665150182
 30
0.0
 11
3798.638539177965
 21
1022.114672150182
 31
0.0
  0
LWPOLYLINE
  5
9934
330
1E
100
AcDbEntity
  8
中心線
  6
CENTER1
100
AcDbPolyline
 90
        2
 70
     0
 43
0.0
 10
3798.638539177676
 20
972.2846073009561
 10
3798.638539177676
 20
1073.76964257158
  0
POINT
  5
9935
330
1E
100
AcDbEntity
  8
躯体と製品
  6
Continuous
 62
     4
100
AcDbPoint
 10
4398.638539177674
 20
980.7167037654922
 30
0.0
  0
POINT
  5
9936
330
1E
100
AcDbEntity
  8
躯体と製品
  6
Continuous
 62
     4
100
AcDbPoint
 10
4393.438539177674
 20
988.1597807654921
 30
0.0
  0
POINT
  5
9937
330
1E
100
AcDbEntity
  8
躯体と製品
  6
Continuous
 62
     4
100
AcDbPoint
 10
4364.138539177675
 20
984.7167037654921
 30
0.0
  0
POINT
  5
9938
330
1E
100
AcDbEntity
  8
躯体と製品
  6
Continuous
 62
     4
100
AcDbPoint
 10
4433.138541177675
 20
984.7167037654921
 30
0.0
  0
LINE
  5
9939
330
1E
100
AcDbEntity
  8
躯体と製品
  6
Continuous
 62
     4
100
AcDbLine
 10
4392.638539177674
 20
987.7167037654922
 30
0.0
 11
4392.638539177674
 21
1012.114668765493
 31
0.0
  0
LINE
  5
993A
330
1E
100
AcDbEntity
  8
躯体と製品
  6
Continuous
 62
     4
100
AcDbLine
 10
4393.438539177674
 20
988.1597807654921
 30
0.0
 11
4393.438539177674
 21
1012.114668765493
 31
0.0
  0
LINE
  5
993B
330
1E
100
AcDbEntity
  8
躯体と製品
  6
Continuous
 62
     4
100
AcDbLine
 10
4398.638539177674
 20
1025.716703765493
 30
0.0
 11
4348.638541177676
 21
1025.716703765493
 31
0.0
  0
LINE
  5
993C
330
1E
100
AcDbEntity
  8
躯体と製品
  6
Continuous
 62
     4
100
AcDbLine
 10
4348.638541177676
 20
1025.716703765493
 30
0.0
 11
4348.638541177676
 21
1030.916704765493
 31
0.0
  0
LINE
  5
993D
330
1E
100
AcDbEntity
  8
躯体と製品
  6
Continuous
 62
     4
100
AcDbLine
 10
4448.638541177675
 20
1025.716703765493
 30
0.0
 11
4448.638541177675
 21
1030.916704765493
 31
0.0
  0
LINE
  5
993E
330
1E
100
AcDbEntity
  8
躯体と製品
  6
Continuous
 62
     4
100
AcDbLine
 10
4354.438540177674
 20
1036.716703765493
 30
0.0
 11
4442.838538177675
 21
1036.716703765493
 31
0.0
  0
LINE
  5
993F
330
1E
100
AcDbEntity
  8
躯体と製品
  6
Continuous
 62
     4
100
AcDbLine
 10
4398.638539177674
 20
1025.716703765493
 30
0.0
 11
4448.638541177675
 21
1025.716703765493
 31
0.0
  0
LINE
  5
9940
330
1E
100
AcDbEntity
  8
躯体と製品
  6
Continuous
 62
     4
100
AcDbLine
 10
4389.388539177675
 20
985.9167047654919
 30
0.0
 11
4389.388539177675
 21
984.7167037654921
 31
0.0
  0
LINE
  5
9941
330
1E
100
AcDbEntity
  8
躯体と製品
  6
Continuous
 62
     4
100
AcDbLine
 10
4389.388539177675
 20
985.9167047654919
 30
0.0
 11
4398.638539177674
 21
985.9167047654919
 31
0.0
  0
LINE
  5
9942
330
1E
100
AcDbEntity
  8
躯体と製品
  6
Continuous
 62
     4
100
AcDbLine
 10
4393.438539177674
 20
988.1597807654921
 30
0.0
 11
4389.388539177675
 21
985.9167047654919
 31
0.0
  0
LINE
  5
9943
330
1E
100
AcDbEntity
  8
躯体と製品
  6
Continuous
 62
     4
100
AcDbLine
 10
4398.638539177674
 20
980.7167037654922
 30
0.0
 11
4353.638541177676
 21
980.7167037654922
 31
0.0
  0
LINE
  5
9944
330
1E
100
AcDbEntity
  8
躯体と製品
  6
Continuous
 62
     4
100
AcDbLine
 10
4398.638539177674
 20
984.7167037654921
 30
0.0
 11
4364.138539177675
 21
984.7167037654921
 31
0.0
  0
LINE
  5
9945
330
1E
100
AcDbEntity
  8
躯体と製品
  6
Continuous
 62
     4
100
AcDbLine
 10
4398.638539177674
 20
982.7167037654922
 30
0.0
 11
4353.638541177676
 21
982.7167037654922
 31
0.0
  0
LINE
  5
9946
330
1E
100
AcDbEntity
  8
躯体と製品
  6
Continuous
 62
     4
100
AcDbLine
 10
4393.438539177674
 20
988.1597807654921
 30
0.0
 11
4398.638539177674
 21
988.1597807654921
 31
0.0
  0
LINE
  5
9947
330
1E
100
AcDbEntity
  8
躯体と製品
  6
Continuous
 62
     4
100
AcDbLine
 10
4353.638541177676
 20
982.7167037654922
 30
0.0
 11
4353.638541177676
 21
980.7167037654922
 31
0.0
  0
LINE
  5
9948
330
1E
100
AcDbEntity
  8
躯体と製品
  6
Continuous
 62
     4
100
AcDbLine
 10
4407.888539177675
 20
985.9167047654919
 30
0.0
 11
4407.888539177675
 21
984.7167037654921
 31
0.0
  0
LINE
  5
9949
330
1E
100
AcDbEntity
  8
躯体と製品
  6
Continuous
 62
     4
100
AcDbLine
 10
4407.888539177675
 20
985.9167047654919
 30
0.0
 11
4398.638539177674
 21
985.9167047654919
 31
0.0
  0
LINE
  5
994A
330
1E
100
AcDbEntity
  8
躯体と製品
  6
Continuous
 62
     4
100
AcDbLine
 10
4404.638539177675
 20
987.7167037654922
 30
0.0
 11
4404.638539177675
 21
1012.114668765493
 31
0.0
  0
LINE
  5
994B
330
1E
100
AcDbEntity
  8
躯体と製品
  6
Continuous
 62
     4
100
AcDbLine
 10
4403.838539177676
 20
988.1597807654921
 30
0.0
 11
4403.838539177676
 21
1012.114668765493
 31
0.0
  0
LINE
  5
994C
330
1E
100
AcDbEntity
  8
躯体と製品
  6
Continuous
 62
     4
100
AcDbLine
 10
4443.638541177675
 20
982.7167037654922
 30
0.0
 11
4443.638541177675
 21
980.7167037654922
 31
0.0
  0
LINE
  5
994D
330
1E
100
AcDbEntity
  8
躯体と製品
  6
Continuous
 62
     4
100
AcDbLine
 10
4403.838539177676
 20
988.1597807654921
 30
0.0
 11
4398.638539177674
 21
988.1597807654921
 31
0.0
  0
LINE
  5
994E
330
1E
100
AcDbEntity
  8
躯体と製品
  6
Continuous
 62
     4
100
AcDbLine
 10
4398.638539177674
 20
982.7167037654922
 30
0.0
 11
4443.638541177675
 21
982.7167037654922
 31
0.0
  0
LINE
  5
994F
330
1E
100
AcDbEntity
  8
躯体と製品
  6
Continuous
 62
     4
100
AcDbLine
 10
4398.638539177674
 20
984.7167037654921
 30
0.0
 11
4433.138541177675
 21
984.7167037654921
 31
0.0
  0
LINE
  5
9950
330
1E
100
AcDbEntity
  8
躯体と製品
  6
Continuous
 62
     4
100
AcDbLine
 10
4398.638539177674
 20
980.7167037654922
 30
0.0
 11
4443.638541177675
 21
980.7167037654922
 31
0.0
  0
LINE
  5
9951
330
1E
100
AcDbEntity
  8
躯体と製品
  6
Continuous
 62
     4
100
AcDbLine
 10
4403.838539177676
 20
988.1597807654921
 30
0.0
 11
4407.888539177675
 21
985.9167047654919
 31
0.0
  0
ARC
  5
9952
330
1E
100
AcDbEntity
  8
躯体と製品
  6
Continuous
 62
     4
100
AcDbCircle
 10
4354.438540177674
 20
1030.916704765493
 30
0.0
 40
5.799999999999999
100
AcDbArc
 50
90.00000250441658
 51
180.0000050090416
  0
ARC
  5
9953
330
1E
100
AcDbEntity
  8
躯体と製品
  6
Continuous
 62
     4
100
AcDbCircle
 10
4442.838538177675
 20
1030.916704765493
 30
0.0
 40
5.799999999999999
100
AcDbArc
 50
0.0
 51
90.00000250441658
  0
ARC
  5
9954
330
1E
100
AcDbEntity
  8
躯体と製品
  6
Continuous
 62
     4
100
AcDbCircle
 10
4364.138539177675
 20
980.2010747654922
 30
0.0
 40
4.515625
100
AcDbArc
 50
90.00000250441658
 51
146.1449702745877
  0
ARC
  5
9955
330
1E
100
AcDbEntity
  8
躯体と製品
  6
Continuous
 62
     4
100
AcDbCircle
 10
4433.138541177675
 20
980.2010747654922
 30
0.0
 40
4.515625
100
AcDbArc
 50
33.85502448907212
 51
90.00000250441658
  0
ARC
  5
9956
330
1E
100
AcDbEntity
  8
躯体と製品
  6
Continuous
 62
     4
100
AcDbCircle
 10
4398.638539177674
 20
1036.103212791801
 30
0.0
 40
13.9885406416198
100
AcDbArc
 50
248.2041795524551
 51
291.7958204475449
  0
ARC
  5
9957
330
1E
100
AcDbEntity
  8
躯体と製品
  6
Continuous
 62
     4
100
AcDbCircle
 10
4390.847619277734
 20
1025.986807310586
 30
0.0
 40
3.87213516040484
100
AcDbArc
 50
227.8802374416488
 51
312.1197625583513
  0
ARC
  5
9958
330
1E
100
AcDbEntity
  8
躯体と製品
  6
Continuous
 62
     4
100
AcDbCircle
 10
4406.429459077616
 20
1025.986807310586
 30
0.0
 40
3.87213516040484
100
AcDbArc
 50
227.8802374416488
 51
312.1197625583513
  0
LWPOLYLINE
  5
9959
330
1E
100
AcDbEntity
  8
躯体と製品
  6
Continuous
 62
     4
100
AcDbPolyline
 90
        2
 70
     0
 43
0.0
 10
4388.250645977755
 20
1023.114672150182
 10
4388.250645977755
 20
1025.716703765493
  0
LWPOLYLINE
  5
995A
330
1E
100
AcDbEntity
  8
躯体と製品
  6
Continuous
 62
     4
100
AcDbPolyline
 90
        2
 70
     0
 43
0.0
 10
4409.026432377595
 20
1023.114672150182
 10
4409.026432377595
 20
1025.716703765493
  0
LWPOLYLINE
  5
995B
330
1E
100
AcDbEntity
  8
躯体と製品
  6
Continuous
 62
     4
100
AcDbPolyline
 90
        2
 70
     0
 43
0.0
 10
4403.832485777635
 20
1025.716703765493
 10
4403.832485777637
 20
1023.114672150179
  0
LWPOLYLINE
  5
995C
330
1E
100
AcDbEntity
  8
躯体と製品
  6
Continuous
 62
     4
100
AcDbPolyline
 90
        2
 70
     0
 43
0.0
 10
4393.444592577711
 20
1025.716703765493
 10
4393.444592577712
 20
1023.114672150184
  0
LINE
  5
995D
330
1E
100
AcDbEntity
  8
躯体と製品
  6
Continuous
 62
     4
100
AcDbLine
 10
4390.847629451589
 20
1012.114668765493
 30
0.0
 11
4406.42946925147
 21
1012.114668765493
 31
0.0
  0
ARC
  5
995E
330
1E
100
AcDbEntity
  8
躯体と製品
  6
Continuous
 62
     4
100
AcDbCircle
 10
4398.63854935153
 20
1026.103209407113
 30
0.0
 40
13.9885406416198
100
AcDbArc
 50
248.2041795524551
 51
291.7958204475449
  0
LWPOLYLINE
  5
995F
330
1E
100
AcDbEntity
  8
躯体と製品
  6
Continuous
 62
     4
100
AcDbPolyline
 90
        2
 70
     0
 43
0.0
 10
4393.44460275157
 20
1012.114668765493
 10
4390.847629451589
 20
1012.114668765493
  0
ARC
  5
9960
330
1E
100
AcDbEntity
  8
躯体と製品
  6
Continuous
 62
     4
100
AcDbCircle
 10
4390.847629451589
 20
1015.986803925898
 30
0.0
 40
3.87213516040484
100
AcDbArc
 50
227.8802374416488
 51
312.1197625583513
  0
ARC
  5
9961
330
1E
100
AcDbEntity
  8
躯体と製品
  6
Continuous
 62
     4
100
AcDbCircle
 10
4406.42946925147
 20
1015.986803925898
 30
0.0
 40
3.87213516040484
100
AcDbArc
 50
227.8802374416488
 51
312.1197625583513
  0
LWPOLYLINE
  5
9962
330
1E
100
AcDbEntity
  8
躯体と製品
  6
Continuous
 62
     4
100
AcDbPolyline
 90
        2
 70
     0
 43
0.0
 10
4388.250656151609
 20
1013.114668765493
 10
4388.250656151609
 20
1018.114668765493
  0
LWPOLYLINE
  5
9963
330
1E
100
AcDbEntity
  8
躯体と製品
  6
Continuous
 62
     4
100
AcDbPolyline
 90
        2
 70
     0
 43
0.0
 10
4409.02644255145
 20
1013.114668765493
 10
4409.02644255145
 20
1018.114668765493
  0
LWPOLYLINE
  5
9964
330
1E
100
AcDbEntity
  8
躯体と製品
  6
Continuous
 62
     4
100
AcDbPolyline
 90
        2
 70
     0
 43
0.0
 10
4403.832495951489
 20
1018.114668765494
 10
4403.832495951492
 20
1013.11466876549
  0
LWPOLYLINE
  5
9965
330
1E
100
AcDbEntity
  8
躯体と製品
  6
Continuous
 62
     4
100
AcDbPolyline
 90
        2
 70
     0
 43
0.0
 10
4393.444602751563
 20
1018.114668765491
 10
4393.444602751567
 20
1013.114668765494
  0
ARC
  5
9966
330
1E
100
AcDbEntity
  8
躯体と製品
  6
Continuous
 62
     4
100
AcDbCircle
 10
4398.63854935153
 20
1005.126128123873
 30
0.0
 40
13.9885406416198
100
AcDbArc
 50
68.20417955245514
 51
111.7958204475448
  0
ARC
  5
9967
330
1E
100
AcDbEntity
  8
躯体と製品
  6
Continuous
 62
     4
100
AcDbCircle
 10
4390.847629451589
 20
1015.242533605088
 30
0.0
 40
3.87213516040484
100
AcDbArc
 50
47.88023744164877
 51
132.1197625583512
  0
ARC
  5
9968
330
1E
100
AcDbEntity
  8
躯体と製品
  6
Continuous
 62
     4
100
AcDbCircle
 10
4406.42946925147
 20
1015.242533605088
 30
0.0
 40
3.87213516040484
100
AcDbArc
 50
47.88023744164877
 51
132.1197625583512
  0
LINE
  5
9969
330
1E
100
AcDbEntity
  8
躯体と製品
  6
Continuous
 62
     4
100
AcDbLine
 10
4387.888540177964
 20
1019.114665150182
 30
0.0
 11
4409.388537177963
 21
1019.114665150182
 31
0.0
  0
LINE
  5
996A
330
1E
100
AcDbEntity
  8
躯体と製品
  6
Continuous
 62
     4
100
AcDbLine
 10
4409.388537177963
 20
1019.114665150182
 30
0.0
 11
4409.388537177963
 21
1022.114672150182
 31
0.0
  0
LINE
  5
996B
330
1E
100
AcDbEntity
  8
躯体と製品
  6
Continuous
 62
     4
100
AcDbLine
 10
4409.388537177963
 20
1022.114672150182
 30
0.0
 11
4387.888540177964
 21
1022.114672150182
 31
0.0
  0
LINE
  5
996C
330
1E
100
AcDbEntity
  8
躯体と製品
  6
Continuous
 62
     4
100
AcDbLine
 10
4387.888540177964
 20
1022.114672150182
 30
0.0
 11
4387.888540177964
 21
1019.114665150182
 31
0.0
  0
LINE
  5
996D
330
1E
100
AcDbEntity
  8
躯体と製品
  6
Continuous
 62
     4
100
AcDbLine
 10
4398.638539177964
 20
1019.114665150182
 30
0.0
 11
4396.906483177963
 21
1022.114672150182
 31
0.0
  0
LINE
  5
996E
330
1E
100
AcDbEntity
  8
躯体と製品
  6
Continuous
 62
     4
100
AcDbLine
 10
4400.370594177964
 20
1019.114665150182
 30
0.0
 11
4398.638539177964
 21
1022.114672150182
 31
0.0
  0
LWPOLYLINE
  5
996F
330
1E
100
AcDbEntity
  8
中心線
  6
CENTER1
100
AcDbPolyline
 90
        2
 70
     0
 43
0.0
 10
4398.638539177674
 20
972.2846073009559
 10
4398.638539177674
 20
1073.76964257158
  0
POINT
  5
9970
330
1E
100
AcDbEntity
  8
躯体と製品
  6
Continuous
 62
     4
100
AcDbPoint
 10
4698.638539177674
 20
980.7167037654922
 30
0.0
  0
POINT
  5
9971
330
1E
100
AcDbEntity
  8
躯体と製品
  6
Continuous
 62
     4
100
AcDbPoint
 10
4693.438539177674
 20
988.1597807654921
 30
0.0
  0
POINT
  5
9972
330
1E
100
AcDbEntity
  8
躯体と製品
  6
Continuous
 62
     4
100
AcDbPoint
 10
4664.138539177675
 20
984.7167037654921
 30
0.0
  0
POINT
  5
9973
330
1E
100
AcDbEntity
  8
躯体と製品
  6
Continuous
 62
     4
100
AcDbPoint
 10
4733.138541177676
 20
984.7167037654921
 30
0.0
  0
LINE
  5
9974
330
1E
100
AcDbEntity
  8
躯体と製品
  6
Continuous
 62
     4
100
AcDbLine
 10
4692.638539177674
 20
987.7167037654922
 30
0.0
 11
4692.638539177674
 21
1012.114668765493
 31
0.0
  0
LINE
  5
9975
330
1E
100
AcDbEntity
  8
躯体と製品
  6
Continuous
 62
     4
100
AcDbLine
 10
4693.438539177674
 20
988.1597807654921
 30
0.0
 11
4693.438539177674
 21
1012.114668765493
 31
0.0
  0
LINE
  5
9976
330
1E
100
AcDbEntity
  8
躯体と製品
  6
Continuous
 62
     4
100
AcDbLine
 10
4698.638539177674
 20
1025.716703765493
 30
0.0
 11
4648.638541177676
 21
1025.716703765493
 31
0.0
  0
LINE
  5
9977
330
1E
100
AcDbEntity
  8
躯体と製品
  6
Continuous
 62
     4
100
AcDbLine
 10
4648.638541177676
 20
1025.716703765493
 30
0.0
 11
4648.638541177676
 21
1030.916704765493
 31
0.0
  0
LINE
  5
9978
330
1E
100
AcDbEntity
  8
躯体と製品
  6
Continuous
 62
     4
100
AcDbLine
 10
4748.638541177675
 20
1025.716703765493
 30
0.0
 11
4748.638541177675
 21
1030.916704765493
 31
0.0
  0
LINE
  5
9979
330
1E
100
AcDbEntity
  8
躯体と製品
  6
Continuous
 62
     4
100
AcDbLine
 10
4654.438540177674
 20
1036.716703765493
 30
0.0
 11
4742.838538177675
 21
1036.716703765493
 31
0.0
  0
LINE
  5
997A
330
1E
100
AcDbEntity
  8
躯体と製品
  6
Continuous
 62
     4
100
AcDbLine
 10
4698.638539177674
 20
1025.716703765493
 30
0.0
 11
4748.638541177675
 21
1025.716703765493
 31
0.0
  0
LINE
  5
997B
330
1E
100
AcDbEntity
  8
躯体と製品
  6
Continuous
 62
     4
100
AcDbLine
 10
4689.388539177675
 20
985.9167047654919
 30
0.0
 11
4689.388539177675
 21
984.7167037654921
 31
0.0
  0
LINE
  5
997C
330
1E
100
AcDbEntity
  8
躯体と製品
  6
Continuous
 62
     4
100
AcDbLine
 10
4689.388539177675
 20
985.9167047654919
 30
0.0
 11
4698.638539177674
 21
985.9167047654919
 31
0.0
  0
LINE
  5
997D
330
1E
100
AcDbEntity
  8
躯体と製品
  6
Continuous
 62
     4
100
AcDbLine
 10
4693.438539177674
 20
988.1597807654921
 30
0.0
 11
4689.388539177675
 21
985.9167047654919
 31
0.0
  0
LINE
  5
997E
330
1E
100
AcDbEntity
  8
躯体と製品
  6
Continuous
 62
     4
100
AcDbLine
 10
4698.638539177674
 20
980.7167037654922
 30
0.0
 11
4653.638541177675
 21
980.7167037654922
 31
0.0
  0
LINE
  5
997F
330
1E
100
AcDbEntity
  8
躯体と製品
  6
Continuous
 62
     4
100
AcDbLine
 10
4698.638539177674
 20
984.7167037654921
 30
0.0
 11
4664.138539177675
 21
984.7167037654921
 31
0.0
  0
LINE
  5
9980
330
1E
100
AcDbEntity
  8
躯体と製品
  6
Continuous
 62
     4
100
AcDbLine
 10
4698.638539177674
 20
982.7167037654922
 30
0.0
 11
4653.638541177675
 21
982.7167037654922
 31
0.0
  0
LINE
  5
9981
330
1E
100
AcDbEntity
  8
躯体と製品
  6
Continuous
 62
     4
100
AcDbLine
 10
4693.438539177674
 20
988.1597807654921
 30
0.0
 11
4698.638539177674
 21
988.1597807654921
 31
0.0
  0
LINE
  5
9982
330
1E
100
AcDbEntity
  8
躯体と製品
  6
Continuous
 62
     4
100
AcDbLine
 10
4653.638541177675
 20
982.7167037654922
 30
0.0
 11
4653.638541177675
 21
980.7167037654922
 31
0.0
  0
LINE
  5
9983
330
1E
100
AcDbEntity
  8
躯体と製品
  6
Continuous
 62
     4
100
AcDbLine
 10
4707.888539177675
 20
985.9167047654919
 30
0.0
 11
4707.888539177675
 21
984.7167037654921
 31
0.0
  0
LINE
  5
9984
330
1E
100
AcDbEntity
  8
躯体と製品
  6
Continuous
 62
     4
100
AcDbLine
 10
4707.888539177675
 20
985.9167047654919
 30
0.0
 11
4698.638539177674
 21
985.9167047654919
 31
0.0
  0
LINE
  5
9985
330
1E
100
AcDbEntity
  8
躯体と製品
  6
Continuous
 62
     4
100
AcDbLine
 10
4704.638539177675
 20
987.7167037654922
 30
0.0
 11
4704.638539177675
 21
1012.114668765493
 31
0.0
  0
LINE
  5
9986
330
1E
100
AcDbEntity
  8
躯体と製品
  6
Continuous
 62
     4
100
AcDbLine
 10
4703.838539177676
 20
988.1597807654921
 30
0.0
 11
4703.838539177676
 21
1012.114668765493
 31
0.0
  0
LINE
  5
9987
330
1E
100
AcDbEntity
  8
躯体と製品
  6
Continuous
 62
     4
100
AcDbLine
 10
4743.638541177675
 20
982.7167037654922
 30
0.0
 11
4743.638541177675
 21
980.7167037654922
 31
0.0
  0
LINE
  5
9988
330
1E
100
AcDbEntity
  8
躯体と製品
  6
Continuous
 62
     4
100
AcDbLine
 10
4703.838539177676
 20
988.1597807654921
 30
0.0
 11
4698.638539177674
 21
988.1597807654921
 31
0.0
  0
LINE
  5
9989
330
1E
100
AcDbEntity
  8
躯体と製品
  6
Continuous
 62
     4
100
AcDbLine
 10
4698.638539177674
 20
982.7167037654922
 30
0.0
 11
4743.638541177675
 21
982.7167037654922
 31
0.0
  0
LINE
  5
998A
330
1E
100
AcDbEntity
  8
躯体と製品
  6
Continuous
 62
     4
100
AcDbLine
 10
4698.638539177674
 20
984.7167037654921
 30
0.0
 11
4733.138541177676
 21
984.7167037654921
 31
0.0
  0
LINE
  5
998B
330
1E
100
AcDbEntity
  8
躯体と製品
  6
Continuous
 62
     4
100
AcDbLine
 10
4698.638539177674
 20
980.7167037654922
 30
0.0
 11
4743.638541177675
 21
980.7167037654922
 31
0.0
  0
LINE
  5
998C
330
1E
100
AcDbEntity
  8
躯体と製品
  6
Continuous
 62
     4
100
AcDbLine
 10
4703.838539177676
 20
988.1597807654921
 30
0.0
 11
4707.888539177675
 21
985.9167047654919
 31
0.0
  0
ARC
  5
998D
330
1E
100
AcDbEntity
  8
躯体と製品
  6
Continuous
 62
     4
100
AcDbCircle
 10
4654.438540177674
 20
1030.916704765493
 30
0.0
 40
5.799999999999999
100
AcDbArc
 50
90.00000250441658
 51
180.0000050090416
  0
ARC
  5
998E
330
1E
100
AcDbEntity
  8
躯体と製品
  6
Continuous
 62
     4
100
AcDbCircle
 10
4742.838538177675
 20
1030.916704765493
 30
0.0
 40
5.799999999999999
100
AcDbArc
 50
0.0
 51
90.00000250441658
  0
ARC
  5
998F
330
1E
100
AcDbEntity
  8
躯体と製品
  6
Continuous
 62
     4
100
AcDbCircle
 10
4664.138539177675
 20
980.2010747654922
 30
0.0
 40
4.515625
100
AcDbArc
 50
90.00000250441658
 51
146.1449702745877
  0
ARC
  5
9990
330
1E
100
AcDbEntity
  8
躯体と製品
  6
Continuous
 62
     4
100
AcDbCircle
 10
4733.138541177676
 20
980.2010747654922
 30
0.0
 40
4.515625
100
AcDbArc
 50
33.85502448907212
 51
90.00000250441658
  0
ARC
  5
9991
330
1E
100
AcDbEntity
  8
躯体と製品
  6
Continuous
 62
     4
100
AcDbCircle
 10
4698.638539177674
 20
1036.103212791801
 30
0.0
 40
13.9885406416198
100
AcDbArc
 50
248.2041795524551
 51
291.7958204475449
  0
ARC
  5
9992
330
1E
100
AcDbEntity
  8
躯体と製品
  6
Continuous
 62
     4
100
AcDbCircle
 10
4690.847619277734
 20
1025.986807310586
 30
0.0
 40
3.87213516040484
100
AcDbArc
 50
227.8802374416488
 51
312.1197625583513
  0
ARC
  5
9993
330
1E
100
AcDbEntity
  8
躯体と製品
  6
Continuous
 62
     4
100
AcDbCircle
 10
4706.429459077615
 20
1025.986807310586
 30
0.0
 40
3.87213516040484
100
AcDbArc
 50
227.8802374416488
 51
312.1197625583513
  0
LWPOLYLINE
  5
9994
330
1E
100
AcDbEntity
  8
躯体と製品
  6
Continuous
 62
     4
100
AcDbPolyline
 90
        2
 70
     0
 43
0.0
 10
4688.250645977754
 20
1023.114672150182
 10
4688.250645977754
 20
1025.716703765493
  0
LWPOLYLINE
  5
9995
330
1E
100
AcDbEntity
  8
躯体と製品
  6
Continuous
 62
     4
100
AcDbPolyline
 90
        2
 70
     0
 43
0.0
 10
4709.026432377595
 20
1023.114672150182
 10
4709.026432377595
 20
1025.716703765493
  0
LWPOLYLINE
  5
9996
330
1E
100
AcDbEntity
  8
躯体と製品
  6
Continuous
 62
     4
100
AcDbPolyline
 90
        2
 70
     0
 43
0.0
 10
4703.832485777635
 20
1025.716703765493
 10
4703.832485777637
 20
1023.114672150179
  0
LWPOLYLINE
  5
9997
330
1E
100
AcDbEntity
  8
躯体と製品
  6
Continuous
 62
     4
100
AcDbPolyline
 90
        2
 70
     0
 43
0.0
 10
4693.444592577711
 20
1025.716703765493
 10
4693.444592577712
 20
1023.114672150184
  0
LINE
  5
9998
330
1E
100
AcDbEntity
  8
躯体と製品
  6
Continuous
 62
     4
100
AcDbLine
 10
4690.847629451589
 20
1012.114668765493
 30
0.0
 11
4706.42946925147
 21
1012.114668765493
 31
0.0
  0
ARC
  5
9999
330
1E
100
AcDbEntity
  8
躯体と製品
  6
Continuous
 62
     4
100
AcDbCircle
 10
4698.63854935153
 20
1026.103209407113
 30
0.0
 40
13.9885406416198
100
AcDbArc
 50
248.2041795524551
 51
291.7958204475449
  0
LWPOLYLINE
  5
999A
330
1E
100
AcDbEntity
  8
躯体と製品
  6
Continuous
 62
     4
100
AcDbPolyline
 90
        2
 70
     0
 43
0.0
 10
4693.444602751569
 20
1012.114668765493
 10
4690.847629451589
 20
1012.114668765493
  0
ARC
  5
999B
330
1E
100
AcDbEntity
  8
躯体と製品
  6
Continuous
 62
     4
100
AcDbCircle
 10
4690.847629451589
 20
1015.986803925898
 30
0.0
 40
3.87213516040484
100
AcDbArc
 50
227.8802374416488
 51
312.1197625583513
  0
ARC
  5
999C
330
1E
100
AcDbEntity
  8
躯体と製品
  6
Continuous
 62
     4
100
AcDbCircle
 10
4706.42946925147
 20
1015.986803925898
 30
0.0
 40
3.87213516040484
100
AcDbArc
 50
227.8802374416488
 51
312.1197625583513
  0
LWPOLYLINE
  5
999D
330
1E
100
AcDbEntity
  8
躯体と製品
  6
Continuous
 62
     4
100
AcDbPolyline
 90
        2
 70
     0
 43
0.0
 10
4688.250656151609
 20
1013.114668765493
 10
4688.250656151609
 20
1018.114668765493
  0
LWPOLYLINE
  5
999E
330
1E
100
AcDbEntity
  8
躯体と製品
  6
Continuous
 62
     4
100
AcDbPolyline
 90
        2
 70
     0
 43
0.0
 10
4709.02644255145
 20
1013.114668765493
 10
4709.02644255145
 20
1018.114668765493
  0
LWPOLYLINE
  5
999F
330
1E
100
AcDbEntity
  8
躯体と製品
  6
Continuous
 62
     4
100
AcDbPolyline
 90
        2
 70
     0
 43
0.0
 10
4703.832495951489
 20
1018.114668765494
 10
4703.832495951492
 20
1013.11466876549
  0
LWPOLYLINE
  5
99A0
330
1E
100
AcDbEntity
  8
躯体と製品
  6
Continuous
 62
     4
100
AcDbPolyline
 90
        2
 70
     0
 43
0.0
 10
4693.444602751564
 20
1018.114668765491
 10
4693.444602751568
 20
1013.114668765494
  0
ARC
  5
99A1
330
1E
100
AcDbEntity
  8
躯体と製品
  6
Continuous
 62
     4
100
AcDbCircle
 10
4698.63854935153
 20
1005.126128123873
 30
0.0
 40
13.9885406416198
100
AcDbArc
 50
68.20417955245514
 51
111.7958204475448
  0
ARC
  5
99A2
330
1E
100
AcDbEntity
  8
躯体と製品
  6
Continuous
 62
     4
100
AcDbCircle
 10
4690.847629451589
 20
1015.242533605088
 30
0.0
 40
3.87213516040484
100
AcDbArc
 50
47.88023744164877
 51
132.1197625583512
  0
ARC
  5
99A3
330
1E
100
AcDbEntity
  8
躯体と製品
  6
Continuous
 62
     4
100
AcDbCircle
 10
4706.42946925147
 20
1015.242533605088
 30
0.0
 40
3.87213516040484
100
AcDbArc
 50
47.88023744164877
 51
132.1197625583512
  0
LINE
  5
99A4
330
1E
100
AcDbEntity
  8
躯体と製品
  6
Continuous
 62
     4
100
AcDbLine
 10
4687.888540177964
 20
1019.114665150182
 30
0.0
 11
4709.388537177964
 21
1019.114665150182
 31
0.0
  0
LINE
  5
99A5
330
1E
100
AcDbEntity
  8
躯体と製品
  6
Continuous
 62
     4
100
AcDbLine
 10
4709.388537177964
 20
1019.114665150182
 30
0.0
 11
4709.388537177964
 21
1022.114672150182
 31
0.0
  0
LINE
  5
99A6
330
1E
100
AcDbEntity
  8
躯体と製品
  6
Continuous
 62
     4
100
AcDbLine
 10
4709.388537177964
 20
1022.114672150182
 30
0.0
 11
4687.888540177964
 21
1022.114672150182
 31
0.0
  0
LINE
  5
99A7
330
1E
100
AcDbEntity
  8
躯体と製品
  6
Continuous
 62
     4
100
AcDbLine
 10
4687.888540177964
 20
1022.114672150182
 30
0.0
 11
4687.888540177964
 21
1019.114665150182
 31
0.0
  0
LINE
  5
99A8
330
1E
100
AcDbEntity
  8
躯体と製品
  6
Continuous
 62
     4
100
AcDbLine
 10
4698.638539177964
 20
1019.114665150182
 30
0.0
 11
4696.906483177963
 21
1022.114672150182
 31
0.0
  0
LINE
  5
99A9
330
1E
100
AcDbEntity
  8
躯体と製品
  6
Continuous
 62
     4
100
AcDbLine
 10
4700.370594177964
 20
1019.114665150182
 30
0.0
 11
4698.638539177964
 21
1022.114672150182
 31
0.0
  0
LWPOLYLINE
  5
99AA
330
1E
100
AcDbEntity
  8
中心線
  6
CENTER1
100
AcDbPolyline
 90
        2
 70
     0
 43
0.0
 10
4698.638539177674
 20
972.2846073009559
 10
4698.638539177674
 20
1073.76964257158
  0
LWPOLYLINE
  5
99AB
330
1E
100
AcDbEntity
  8
中心線
  6
CENTER1
100
AcDbPolyline
 90
        2
 70
     0
 43
0.0
 10
2440.684713651134
 20
972.2846073009566
 10
2440.684713651134
 20
1052.699247119146
  0
LINE
  5
99AC
330
1E
100
AcDbEntity
  8
躯体と製品
  6
Continuous
 62
     4
100
AcDbLine
 10
3062.684713651135
 20
1025.716703765492
 30
0.0
 11
3012.684715651133
 21
1025.716703765492
 31
0.0
  0
LINE
  5
99AD
330
1E
100
AcDbEntity
  8
躯体と製品
  6
Continuous
 62
     4
100
AcDbLine
 10
3012.684715651133
 20
1025.716703765492
 30
0.0
 11
3012.684715651133
 21
1030.916704765492
 31
0.0
  0
LINE
  5
99AE
330
1E
100
AcDbEntity
  8
躯体と製品
  6
Continuous
 62
     4
100
AcDbLine
 10
3112.684715651133
 20
1025.716703765492
 30
0.0
 11
3112.684715651133
 21
1030.916704765492
 31
0.0
  0
LINE
  5
99AF
330
1E
100
AcDbEntity
  8
躯体と製品
  6
Continuous
 62
     4
100
AcDbLine
 10
3018.484714651134
 20
1036.716703765492
 30
0.0
 11
3106.884712651133
 21
1036.716703765492
 31
0.0
  0
LINE
  5
99B0
330
1E
100
AcDbEntity
  8
躯体と製品
  6
Continuous
 62
     4
100
AcDbLine
 10
3062.684713651135
 20
1025.716703765492
 30
0.0
 11
3112.684715651133
 21
1025.716703765492
 31
0.0
  0
ARC
  5
99B1
330
1E
100
AcDbEntity
  8
躯体と製品
  6
Continuous
 62
     4
100
AcDbCircle
 10
3018.484714651134
 20
1030.916704765492
 30
0.0
 40
5.799999999999999
100
AcDbArc
 50
90.00000250441658
 51
180.0000050090416
  0
ARC
  5
99B2
330
1E
100
AcDbEntity
  8
躯体と製品
  6
Continuous
 62
     4
100
AcDbCircle
 10
3106.884712651133
 20
1030.916704765492
 30
0.0
 40
5.799999999999999
100
AcDbArc
 50
0.0
 51
90.00000250441658
  0
LINE
  5
99B3
330
1E
100
AcDbEntity
  8
躯体と製品
  6
Continuous
 62
     4
100
AcDbLine
 10
3081.684713651134
 20
1036.716703765492
 30
0.0
 11
3043.684713651134
 21
1036.716703765492
 31
0.0
  0
LINE
  5
99B4
330
1E
100
AcDbEntity
  8
躯体と製品
  6
Continuous
 62
     4
100
AcDbLine
 10
3043.684713651134
 20
1036.716703765492
 30
0.0
 11
3043.684713651134
 21
1043.416703765492
 31
0.0
  0
LINE
  5
99B5
330
1E
100
AcDbEntity
  8
躯体と製品
  6
Continuous
 62
     4
100
AcDbLine
 10
3043.684713651134
 20
1043.416703765492
 30
0.0
 11
3081.684713651134
 21
1043.416703765492
 31
0.0
  0
LINE
  5
99B6
330
1E
100
AcDbEntity
  8
躯体と製品
  6
Continuous
 62
     4
100
AcDbLine
 10
3081.684713651134
 20
1043.416703765492
 30
0.0
 11
3081.684713651134
 21
1036.716703765492
 31
0.0
  0
POINT
  5
99B7
330
1E
100
AcDbEntity
  8
躯体と製品
  6
Continuous
 62
     4
100
AcDbPoint
 10
3062.684713651135
 20
980.7167037654926
 30
0.0
  0
POINT
  5
99B8
330
1E
100
AcDbEntity
  8
躯体と製品
  6
Continuous
 62
     4
100
AcDbPoint
 10
3057.484713651135
 20
988.1597807654925
 30
0.0
  0
LINE
  5
99B9
330
1E
100
AcDbEntity
  8
躯体と製品
  6
Continuous
 62
     4
100
AcDbLine
 10
3056.684713651134
 20
987.7167037654926
 30
0.0
 11
3056.684713651134
 21
1012.221468247949
 31
0.0
  0
LINE
  5
99BA
330
1E
100
AcDbEntity
  8
躯体と製品
  6
Continuous
 62
     4
100
AcDbLine
 10
3057.484713651135
 20
988.1597807654925
 30
0.0
 11
3057.484713651135
 21
1012.137922182646
 31
0.0
  0
LINE
  5
99BB
330
1E
100
AcDbEntity
  8
躯体と製品
  6
Continuous
 62
     4
100
AcDbLine
 10
3053.434713651134
 20
985.9167047654922
 30
0.0
 11
3053.434713651134
 21
984.7167037654926
 31
0.0
  0
LINE
  5
99BC
330
1E
100
AcDbEntity
  8
躯体と製品
  6
Continuous
 62
     4
100
AcDbLine
 10
3053.434713651134
 20
985.9167047654922
 30
0.0
 11
3062.684713651135
 21
985.9167047654922
 31
0.0
  0
LINE
  5
99BD
330
1E
100
AcDbEntity
  8
躯体と製品
  6
Continuous
 62
     4
100
AcDbLine
 10
3057.484713651135
 20
988.1597807654925
 30
0.0
 11
3053.434713651134
 21
985.9167047654922
 31
0.0
  0
LINE
  5
99BE
330
1E
100
AcDbEntity
  8
躯体と製品
  6
Continuous
 62
     4
100
AcDbLine
 10
3062.684713651135
 20
980.7167037654926
 30
0.0
 11
3037.684713651135
 21
980.7167037654926
 31
0.0
  0
LINE
  5
99BF
330
1E
100
AcDbEntity
  8
躯体と製品
  6
Continuous
 62
     4
100
AcDbLine
 10
3062.684713651135
 20
982.7167037654927
 30
0.0
 11
3037.684713651135
 21
982.7167037654927
 31
0.0
  0
LINE
  5
99C0
330
1E
100
AcDbEntity
  8
躯体と製品
  6
Continuous
 62
     4
100
AcDbLine
 10
3057.484713651135
 20
988.1597807654925
 30
0.0
 11
3062.684713651135
 21
988.1597807654925
 31
0.0
  0
LINE
  5
99C1
330
1E
100
AcDbEntity
  8
躯体と製品
  6
Continuous
 62
     4
100
AcDbLine
 10
3037.684713651135
 20
982.7167037654927
 30
0.0
 11
3037.684713651135
 21
980.7167037654926
 31
0.0
  0
LINE
  5
99C2
330
1E
100
AcDbEntity
  8
躯体と製品
  6
Continuous
 62
     4
100
AcDbLine
 10
3071.934713651134
 20
985.9167047654922
 30
0.0
 11
3071.934713651134
 21
984.7167037654926
 31
0.0
  0
LINE
  5
99C3
330
1E
100
AcDbEntity
  8
躯体と製品
  6
Continuous
 62
     4
100
AcDbLine
 10
3071.934713651134
 20
985.9167047654922
 30
0.0
 11
3062.684713651135
 21
985.9167047654922
 31
0.0
  0
LINE
  5
99C4
330
1E
100
AcDbEntity
  8
躯体と製品
  6
Continuous
 62
     4
100
AcDbLine
 10
3068.684713651134
 20
987.7167037654926
 30
0.0
 11
3068.684713651135
 21
1012.221468247949
 31
0.0
  0
LINE
  5
99C5
330
1E
100
AcDbEntity
  8
躯体と製品
  6
Continuous
 62
     4
100
AcDbLine
 10
3067.884713651135
 20
988.1597807654925
 30
0.0
 11
3067.884713651135
 21
1012.137922182646
 31
0.0
  0
LINE
  5
99C6
330
1E
100
AcDbEntity
  8
躯体と製品
  6
Continuous
 62
     4
100
AcDbLine
 10
3087.684713651134
 20
982.7167037654927
 30
0.0
 11
3087.684713651134
 21
980.7167037654926
 31
0.0
  0
LINE
  5
99C7
330
1E
100
AcDbEntity
  8
躯体と製品
  6
Continuous
 62
     4
100
AcDbLine
 10
3067.884713651135
 20
988.1597807654925
 30
0.0
 11
3062.684713651135
 21
988.1597807654925
 31
0.0
  0
LINE
  5
99C8
330
1E
100
AcDbEntity
  8
躯体と製品
  6
Continuous
 62
     4
100
AcDbLine
 10
3062.684713651135
 20
982.7167037654927
 30
0.0
 11
3087.684713651134
 21
982.7167037654927
 31
0.0
  0
LINE
  5
99C9
330
1E
100
AcDbEntity
  8
躯体と製品
  6
Continuous
 62
     4
100
AcDbLine
 10
3049.684713651134
 20
984.7167037654926
 30
0.0
 11
3075.684714045895
 21
984.7167037654926
 31
0.0
  0
LINE
  5
99CA
330
1E
100
AcDbEntity
  8
躯体と製品
  6
Continuous
 62
     4
100
AcDbLine
 10
3062.684713651135
 20
980.7167037654926
 30
0.0
 11
3087.684713651134
 21
980.7167037654926
 31
0.0
  0
LINE
  5
99CB
330
1E
100
AcDbEntity
  8
躯体と製品
  6
Continuous
 62
     4
100
AcDbLine
 10
3067.884713651135
 20
988.1597807654925
 30
0.0
 11
3071.934713651134
 21
985.9167047654922
 31
0.0
  0
LINE
  5
99CC
330
1E
100
AcDbEntity
  8
躯体と製品
  6
Continuous
 62
     4
100
AcDbLine
 10
3051.934715151135
 20
1019.114665150181
 30
0.0
 11
3073.434712151134
 21
1019.114665150181
 31
0.0
  0
LINE
  5
99CD
330
1E
100
AcDbEntity
  8
躯体と製品
  6
Continuous
 62
     4
100
AcDbLine
 10
3073.434712151134
 20
1019.114665150181
 30
0.0
 11
3073.434712151134
 21
1022.114672150181
 31
0.0
  0
LINE
  5
99CE
330
1E
100
AcDbEntity
  8
躯体と製品
  6
Continuous
 62
     4
100
AcDbLine
 10
3073.434712151134
 20
1022.114672150181
 30
0.0
 11
3051.934715151135
 21
1022.114672150181
 31
0.0
  0
LINE
  5
99CF
330
1E
100
AcDbEntity
  8
躯体と製品
  6
Continuous
 62
     4
100
AcDbLine
 10
3051.934715151135
 20
1022.114672150181
 30
0.0
 11
3051.934715151135
 21
1019.114665150181
 31
0.0
  0
POINT
  5
99D0
330
1E
100
AcDbEntity
  8
躯体と製品
  6
Continuous
 62
     4
100
AcDbPoint
 10
3049.684713651134
 20
984.7167037654926
 30
0.0
  0
ARC
  5
99D1
330
1E
100
AcDbEntity
  8
躯体と製品
  6
Continuous
 62
     4
100
AcDbCircle
 10
3049.684713651134
 20
980.2010747654927
 30
0.0
 40
4.515625
100
AcDbArc
 50
90.00000250441658
 51
146.1449702745877
  0
POINT
  5
99D2
330
1E
100
AcDbEntity
  8
躯体と製品
  6
Continuous
 62
     4
100
AcDbPoint
 10
3049.684713256376
 20
984.7167037654926
 30
0.0
 50
180.000011309032
  0
ARC
  5
99D3
330
1E
100
AcDbEntity
  8
躯体と製品
  6
Continuous
 62
     4
100
AcDbCircle
 10
3049.684714147669
 20
980.2010747654927
 30
0.0
 40
4.515624999999999
100
AcDbArc
 50
33.85504103442033
 51
90.00000880459284
  0
POINT
  5
99D4
330
1E
100
AcDbEntity
  8
躯体と製品
  6
Continuous
 62
     4
100
AcDbPoint
 10
3075.684713651134
 20
984.7167037654926
 30
0.0
 50
180.0
  0
ARC
  5
99D5
330
1E
100
AcDbEntity
  8
躯体と製品
  6
Continuous
 62
     4
100
AcDbCircle
 10
3075.684713651134
 20
980.2010747654927
 30
0.0
 40
4.515625
100
AcDbArc
 50
33.85502972541234
 51
89.99999749558341
  0
POINT
  5
99D6
330
1E
100
AcDbEntity
  8
躯体と製品
  6
Continuous
 62
     4
100
AcDbPoint
 10
3075.684714045895
 20
984.7167037654926
 30
0.0
 50
359.999988690968
  0
ARC
  5
99D7
330
1E
100
AcDbEntity
  8
躯体と製品
  6
Continuous
 62
     4
100
AcDbCircle
 10
3075.684713154601
 20
980.2010747654927
 30
0.0
 40
4.515624999999999
100
AcDbArc
 50
89.99999119540715
 51
146.1449589655797
  0
LWPOLYLINE
  5
99D8
330
1E
100
AcDbEntity
  8
躯体と製品
  6
Continuous
 62
     4
100
AcDbPolyline
 90
        2
 70
     0
 43
0.0
 10
3062.684713651135
 20
1018.117087659747
 10
3062.684713651135
 20
1013.114693150185
  0
LWPOLYLINE
  5
99D9
330
1E
100
AcDbEntity
  8
躯体と製品
  6
Continuous
 62
     4
100
AcDbPolyline
 90
        2
 70
     0
 43
0.0
 10
3071.680893054065
 20
1013.114693150184
 10
3071.680893054071
 20
1018.11468953487
  0
LWPOLYLINE
  5
99DA
330
1E
100
AcDbEntity
  8
躯体と製品
  6
Continuous
 62
     4
100
AcDbPolyline
 90
        2
 70
     0
 43
0.0
 10
3053.688534248203
 20
1013.114693150185
 10
3053.688534248208
 20
1018.11468953487
  0
LWPOLYLINE
  5
99DB
330
1E
100
AcDbEntity
  8
躯体と製品
  6
Continuous
 62
     4
100
AcDbPolyline
 90
        2
 70
     0
 43
0.0
 10
3058.18662394967
 20
1012.114693150183
 10
3067.182803352601
 20
1012.114693150183
  0
ARC
  5
99DC
330
1E
100
AcDbEntity
  8
躯体と製品
  6
Continuous
 62
     4
100
AcDbCircle
 10
3058.18662394967
 20
1022.73109863138
 30
0.0
 40
10.61640548119736
100
AcDbArc
 50
244.9320790439516
 51
295.0679209560484
  0
ARC
  5
99DD
330
1E
100
AcDbEntity
  8
躯体と製品
  6
Continuous
 62
     4
100
AcDbCircle
 10
3067.182803352601
 20
1022.73109863138
 30
0.0
 40
10.61640548119736
100
AcDbArc
 50
244.9320790439516
 51
295.0679209560484
  0
ARC
  5
99DE
330
1E
100
AcDbEntity
  8
躯体と製品
  6
Continuous
 62
     4
100
AcDbCircle
 10
3058.18662394967
 20
1008.498259668983
 30
0.0
 40
10.61640548119736
100
AcDbArc
 50
64.93207904384063
 51
115.0679209561593
  0
ARC
  5
99DF
330
1E
100
AcDbEntity
  8
躯体と製品
  6
Continuous
 62
     4
100
AcDbCircle
 10
3067.182803352601
 20
1008.498259668983
 30
0.0
 40
10.61640548119736
100
AcDbArc
 50
64.93207904384063
 51
115.0679209561593
  0
LWPOLYLINE
  5
99E0
330
1E
100
AcDbEntity
  8
躯体と製品
  6
Continuous
 62
     4
100
AcDbPolyline
 90
        2
 70
     0
 43
0.0
 10
3062.684713651135
 20
1025.716703765492
 10
3062.684713651135
 20
1023.114672150182
  0
LWPOLYLINE
  5
99E1
330
1E
100
AcDbEntity
  8
躯体と製品
  6
Continuous
 62
     4
100
AcDbPolyline
 90
        2
 70
     0
 43
0.0
 10
3071.680893054065
 20
1023.114672150182
 10
3071.680893054068
 20
1025.716703765492
  0
LWPOLYLINE
  5
99E2
330
1E
100
AcDbEntity
  8
躯体と製品
  6
Continuous
 62
     4
100
AcDbPolyline
 90
        2
 70
     0
 43
0.0
 10
3053.688534248203
 20
1023.114672150183
 10
3053.688534248205
 20
1025.716703765492
  0
ARC
  5
99E3
330
1E
100
AcDbEntity
  8
躯体と製品
  6
Continuous
 62
     4
100
AcDbCircle
 10
3058.18662394967
 20
1032.731077631378
 30
0.0
 40
10.61640548119736
100
AcDbArc
 50
244.9320790439516
 51
295.0679209560484
  0
ARC
  5
99E4
330
1E
100
AcDbEntity
  8
躯体と製品
  6
Continuous
 62
     4
100
AcDbCircle
 10
3067.182803352601
 20
1032.731077631378
 30
0.0
 40
10.61640548119736
100
AcDbArc
 50
244.9320790439516
 51
295.0679209560484
  0
LWPOLYLINE
  5
99E5
330
1E
100
AcDbEntity
  8
中心線
  6
CENTER1
100
AcDbPolyline
 90
        2
 70
     0
 43
0.0
 10
3062.684713651135
 20
972.2846073009566
 10
3062.684713651135
 20
1052.699247119146
  0
TEXT
  5
99E6
330
1E
100
AcDbEntity
  8
文字-記号
  6
Continuous
 62
     7
100
AcDbText
 10
4162.795169047933
 20
920.3481549330938
 30
0.0
 40
45.0
  1
支持台
 41
0.8
  7
ACAD
100
AcDbText
  0
DIMENSION
  5
99E7
330
1E
100
AcDbEntity
  8
寸法
  6
Continuous
100
AcDbDimension
  2
*D11
 10
4098.639539177675
 20
1218.869053765491
 30
0.0
 11
3948.639539177675
 21
1258.869053765491
 31
0.0
 70
    32
  1
300以内
 71
     5
 42
299.9999999999996
  3
AutoCAD
100
AcDbAlignedDimension
 13
3798.639539177675
 23
1129.637733765491
 33
0.0
 14
4098.639539177675
 24
1129.136573765492
 34
0.0
100
AcDbRotatedDimension
  0
TEXT
  5
99E8
330
1E
100
AcDbEntity
  8
文字-記号
  6
Continuous
 62
     7
100
AcDbText
 10
2874.628569678313
 20
920.3481549330941
 30
0.0
 40
45.0
  1
支持台
 41
0.8
  7
ACAD
100
AcDbText
  0
LWPOLYLINE
  5
99E9
330
1E
100
AcDbEntity
  8
文字-記号
  6
Continuous
 62
     7
100
AcDbPolyline
 90
        3
 70
     0
 43
0.0
 10
3044.658072445192
 20
970.8987424910562
 10
3059.299088554461
 20
985.539758666745
 10
3053.94010466373
 20
965.5397586910563
  0
LWPOLYLINE
  5
99EA
330
1E
100
AcDbEntity
  8
躯体と製品
  6
Continuous
 62
     4
100
AcDbPolyline
 90
       13
 70
     0
 43
0.0
 10
3764.638539177675
 20
1036.716703765493
 10
3832.638539177676
 20
1036.716703765493
 10
3832.638539177676
 20
1043.716703765493
 10
3827.638539177676
 20
1043.716703765493
 10
3827.638539177676
 20
1041.716703765493
 10
3830.638539177675
 20
1041.716703765493
 10
3830.638539177675
 20
1038.716703765493
 10
3766.638539177676
 20
1038.716703765493
 10
3766.638539177676
 20
1041.716703765493
 10
3769.638539177675
 20
1041.716703765493
 10
3769.638539177675
 20
1043.716703765493
 10
3764.638539177675
 20
1043.716703765493
 10
3764.638539177675
 20
1036.716703765493
  0
LWPOLYLINE
  5
99EB
330
1E
100
AcDbEntity
  8
躯体と製品
  6
Continuous
 62
     4
100
AcDbPolyline
 90
       28
 70
     1
 43
0.0
 10
3814.438539177676
 20
1067.716703765493
 42
-0.4142135623730951
 10
3816.138539177675
 20
1066.016703765493
 10
3816.138539177675
 20
1040.416703765493
 42
0.4142135623730951
 10
3816.638539177676
 20
1039.916703765493
 10
3828.938539177676
 20
1039.916703765493
 42
0.4142135623730951
 10
3829.438539177676
 20
1040.416703765493
 10
3829.438539177676
 20
1041.716703765493
 10
3830.638539177675
 20
1041.716703765493
 10
3830.638539177675
 20
1040.416703765493
 42
-0.4142135623730951
 10
3828.938539177676
 20
1038.716703765493
 10
3816.638539177676
 20
1038.716703765493
 42
-0.4142135623730951
 10
3814.938539177676
 20
1040.416703765493
 10
3814.938539177676
 20
1066.016703765493
 42
0.4142135623730951
 10
3814.438539177676
 20
1066.516703765493
 10
3782.838539177677
 20
1066.516703765493
 42
0.4142135623730951
 10
3782.338539177676
 20
1066.016703765493
 10
3782.338539177676
 20
1040.416703765493
 42
-0.4142135623730951
 10
3780.638539177675
 20
1038.716703765493
 10
3768.338539177676
 20
1038.716703765493
 42
-0.4142135623730951
 10
3766.638539177676
 20
1040.416703765493
 10
3766.638539177676
 20
1041.716703765493
 10
3767.838539177676
 20
1041.716703765493
 10
3767.838539177676
 20
1040.416703765493
 42
0.4142135623730951
 10
3768.338539177676
 20
1039.916703765493
 10
3780.638539177675
 20
1039.916703765493
 42
0.4142135623730951
 10
3781.138539177675
 20
1040.416703765493
 10
3781.138539177675
 20
1066.016703765493
 42
-0.4142135623730951
 10
3782.838539177677
 20
1067.716703765493
  0
LWPOLYLINE
  5
99EC
330
1E
100
AcDbEntity
  8
躯体と製品
  6
Continuous
 62
     4
100
AcDbPolyline
 90
        2
 70
     0
 43
0.0
 10
3777.839539177659
 20
1040.565703765498
 10
3777.839539177659
 20
1040.116703765504
  0
LWPOLYLINE
  5
99ED
330
1E
100
AcDbEntity
  8
躯体と製品
  6
Continuous
 62
     4
100
AcDbPolyline
 90
        2
 70
     0
 43
0.0
 10
3769.839539177658
 20
1040.565703765498
 10
3769.839539177658
 20
1040.116703765504
  0
LWPOLYLINE
  5
99EE
330
1E
100
AcDbEntity
  8
躯体と製品
  6
Continuous
 62
     4
100
AcDbPolyline
 90
        2
 70
     0
 43
0.0
 10
3777.639539177676
 20
1039.916703765493
 10
3773.839539177658
 20
1039.916703765493
  0
LWPOLYLINE
  5
99EF
330
1E
100
AcDbEntity
  8
躯体と製品
  6
Continuous
 62
     4
100
AcDbPolyline
 90
        2
 70
     0
 43
0.0
 10
3769.839539177658
 20
1040.11670374455
 42
0.41421351636737
 10
3770.039539167193
 20
1039.916703765493
  0
LWPOLYLINE
  5
99F0
330
1E
100
AcDbEntity
  8
躯体と製品
  6
Continuous
 62
     4
100
AcDbPolyline
 90
        2
 70
     0
 43
0.0
 10
3770.03953917767
 20
1039.916703765493
 10
3773.839539177658
 20
1039.916703765493
  0
LWPOLYLINE
  5
99F1
330
1E
100
AcDbEntity
  8
躯体と製品
  6
Continuous
 62
     4
100
AcDbPolyline
 90
        2
 70
     0
 43
0.0
 10
3777.639539167199
 20
1039.916703765493
 42
0.4142135777083371
 10
3777.839539177687
 20
1040.116703765504
  0
LWPOLYLINE
  5
99F2
330
1E
100
AcDbEntity
  8
躯体と製品
  6
Continuous
 62
     4
100
AcDbPolyline
 90
        2
 70
     0
 43
0.0
 10
3777.604539177672
 20
1041.71670376551
 10
3773.839539177658
 20
1041.71670376551
  0
LWPOLYLINE
  5
99F3
330
1E
100
AcDbEntity
  8
躯体と製品
  6
Continuous
 62
     4
100
AcDbPolyline
 90
        2
 70
     0
 43
0.0
 10
3777.604088306835
 20
1041.716201305718
 42
0.2144073790574085
 10
3773.839555344312
 20
1042.91656024685
  0
LWPOLYLINE
  5
99F4
330
1E
100
AcDbEntity
  8
躯体と製品
  6
Continuous
 62
     4
100
AcDbPolyline
 90
        2
 70
     0
 43
0.0
 10
3770.074539177674
 20
1041.71670376551
 10
3769.839539177658
 20
1040.565703765498
  0
LWPOLYLINE
  5
99F5
330
1E
100
AcDbEntity
  8
躯体と製品
  6
Continuous
 62
     4
100
AcDbPolyline
 90
        2
 70
     0
 43
0.0
 10
3773.839522593073
 20
1042.91656029461
 42
0.2144073836089342
 10
3770.074989672867
 20
1041.71620096887
  0
LWPOLYLINE
  5
99F6
330
1E
100
AcDbEntity
  8
躯体と製品
  6
Continuous
 62
     4
100
AcDbPolyline
 90
        2
 70
     0
 43
0.0
 10
3770.074539177674
 20
1041.71670376551
 10
3773.839539177658
 20
1041.71670376551
  0
LWPOLYLINE
  5
99F7
330
1E
100
AcDbEntity
  8
躯体と製品
  6
Continuous
 62
     4
100
AcDbPolyline
 90
        2
 70
     0
 43
0.0
 10
3777.604539177672
 20
1041.71670376551
 10
3777.839539177659
 20
1040.565703765498
  0
LWPOLYLINE
  5
99F8
330
1E
100
AcDbEntity
  8
躯体と製品
  6
Continuous
 62
     4
100
AcDbPolyline
 90
        2
 70
     0
 43
0.0
 10
3827.439539177664
 20
1040.565703765498
 10
3827.439539177664
 20
1040.116703765504
  0
LWPOLYLINE
  5
99F9
330
1E
100
AcDbEntity
  8
躯体と製品
  6
Continuous
 62
     4
100
AcDbPolyline
 90
        2
 70
     0
 43
0.0
 10
3819.439539177664
 20
1040.565703765498
 10
3819.439539177664
 20
1040.116703765504
  0
LWPOLYLINE
  5
99FA
330
1E
100
AcDbEntity
  8
躯体と製品
  6
Continuous
 62
     4
100
AcDbPolyline
 90
        2
 70
     0
 43
0.0
 10
3827.239539177652
 20
1039.916703765493
 10
3823.439539177664
 20
1039.916703765493
  0
LWPOLYLINE
  5
99FB
330
1E
100
AcDbEntity
  8
躯体と製品
  6
Continuous
 62
     4
100
AcDbPolyline
 90
        2
 70
     0
 43
0.0
 10
3819.439539177664
 20
1040.11670374455
 42
0.41421351636737
 10
3819.639539167198
 20
1039.916703765493
  0
LWPOLYLINE
  5
99FC
330
1E
100
AcDbEntity
  8
躯体と製品
  6
Continuous
 62
     4
100
AcDbPolyline
 90
        2
 70
     0
 43
0.0
 10
3819.639539177675
 20
1039.916703765493
 10
3823.439539177664
 20
1039.916703765493
  0
LWPOLYLINE
  5
99FD
330
1E
100
AcDbEntity
  8
躯体と製品
  6
Continuous
 62
     4
100
AcDbPolyline
 90
        2
 70
     0
 43
0.0
 10
3827.239539167175
 20
1039.916703765493
 42
0.4142135777083371
 10
3827.439539177664
 20
1040.116703765504
  0
LWPOLYLINE
  5
99FE
330
1E
100
AcDbEntity
  8
躯体と製品
  6
Continuous
 62
     4
100
AcDbPolyline
 90
        2
 70
     0
 43
0.0
 10
3827.204539177678
 20
1041.71670376551
 10
3823.439539177664
 20
1041.71670376551
  0
LWPOLYLINE
  5
99FF
330
1E
100
AcDbEntity
  8
躯体と製品
  6
Continuous
 62
     4
100
AcDbPolyline
 90
        2
 70
     0
 43
0.0
 10
3827.204088306841
 20
1041.716201305718
 42
0.2144073790574085
 10
3823.439555344318
 20
1042.91656024685
  0
LWPOLYLINE
  5
9A00
330
1E
100
AcDbEntity
  8
躯体と製品
  6
Continuous
 62
     4
100
AcDbPolyline
 90
        2
 70
     0
 43
0.0
 10
3819.67453917765
 20
1041.71670376551
 10
3819.439539177664
 20
1040.565703765498
  0
LWPOLYLINE
  5
9A01
330
1E
100
AcDbEntity
  8
躯体と製品
  6
Continuous
 62
     4
100
AcDbPolyline
 90
        2
 70
     0
 43
0.0
 10
3823.43952259305
 20
1042.91656029461
 42
0.2144073836089342
 10
3819.674989672844
 20
1041.71620096887
  0
LWPOLYLINE
  5
9A02
330
1E
100
AcDbEntity
  8
躯体と製品
  6
Continuous
 62
     4
100
AcDbPolyline
 90
        2
 70
     0
 43
0.0
 10
3819.67453917765
 20
1041.71670376551
 10
3823.439539177664
 20
1041.71670376551
  0
LWPOLYLINE
  5
9A03
330
1E
100
AcDbEntity
  8
躯体と製品
  6
Continuous
 62
     4
100
AcDbPolyline
 90
        2
 70
     0
 43
0.0
 10
3827.204539177678
 20
1041.71670376551
 10
3827.439539177664
 20
1040.565703765498
  0
LINE
  5
9A04
330
1E
100
AcDbEntity
  8
躯体と製品
  6
Continuous
 62
     4
100
AcDbLine
 10
4092.638539177675
 20
1049.916703765493
 30
0.0
 11
4104.638539177675
 21
1049.916703765493
 31
0.0
  0
LINE
  5
9A05
330
1E
100
AcDbEntity
  8
躯体と製品
  6
Continuous
 62
     4
100
AcDbLine
 10
4092.638539177675
 20
1038.716703765493
 30
0.0
 11
4092.638539177675
 21
1049.916703765493
 31
0.0
  0
LINE
  5
9A06
330
1E
100
AcDbEntity
  8
躯体と製品
  6
Continuous
 62
     4
100
AcDbLine
 10
4093.438539177674
 20
1038.716703765493
 30
0.0
 11
4093.438539177674
 21
1050.716703765493
 31
0.0
  0
LINE
  5
9A07
330
1E
100
AcDbEntity
  8
躯体と製品
  6
Continuous
 62
     4
100
AcDbLine
 10
4104.638539177675
 20
1038.716703765493
 30
0.0
 11
4104.638539177675
 21
1049.916703765493
 31
0.0
  0
LINE
  5
9A08
330
1E
100
AcDbEntity
  8
躯体と製品
  6
Continuous
 62
     4
100
AcDbLine
 10
4103.838539177675
 20
1038.716703765493
 30
0.0
 11
4103.838539177675
 21
1050.716703765493
 31
0.0
  0
LINE
  5
9A09
330
1E
100
AcDbEntity
  8
躯体と製品
  6
Continuous
 62
     4
100
AcDbLine
 10
4092.638539177675
 20
1049.916703765493
 30
0.0
 11
4093.438539177674
 21
1050.716703765493
 31
0.0
  0
LINE
  5
9A0A
330
1E
100
AcDbEntity
  8
躯体と製品
  6
Continuous
 62
     4
100
AcDbLine
 10
4104.638539177675
 20
1049.916703765493
 30
0.0
 11
4103.838539177675
 21
1050.716703765493
 31
0.0
  0
LINE
  5
9A0B
330
1E
100
AcDbEntity
  8
躯体と製品
  6
Continuous
 62
     4
100
AcDbLine
 10
4093.438539177674
 20
1050.716703765493
 30
0.0
 11
4103.838539177675
 21
1050.716703765493
 31
0.0
  0
LWPOLYLINE
  5
9A0C
330
1E
100
AcDbEntity
  8
躯体と製品
  6
Continuous
 62
     4
100
AcDbPolyline
 90
       13
 70
     0
 43
0.0
 10
4064.638539177675
 20
1036.716703765493
 10
4132.638539177674
 20
1036.716703765493
 10
4132.638539177674
 20
1043.716703765493
 10
4127.638539177675
 20
1043.716703765493
 10
4127.638539177675
 20
1041.716703765493
 10
4130.638539177675
 20
1041.716703765493
 10
4130.638539177675
 20
1038.716703765493
 10
4066.638539177676
 20
1038.716703765493
 10
4066.638539177676
 20
1041.716703765493
 10
4069.638539177675
 20
1041.716703765493
 10
4069.638539177675
 20
1043.716703765493
 10
4064.638539177675
 20
1043.716703765493
 10
4064.638539177675
 20
1036.716703765493
  0
LWPOLYLINE
  5
9A0D
330
1E
100
AcDbEntity
  8
躯体と製品
  6
Continuous
 62
     4
100
AcDbPolyline
 90
       28
 70
     1
 43
0.0
 10
4114.438539177675
 20
1067.716703765493
 42
-0.4142135623730951
 10
4116.138539177675
 20
1066.016703765493
 10
4116.138539177675
 20
1040.416703765493
 42
0.4142135623730951
 10
4116.638539177674
 20
1039.916703765493
 10
4128.938539177676
 20
1039.916703765493
 42
0.4142135623730951
 10
4129.438539177676
 20
1040.416703765493
 10
4129.438539177676
 20
1041.716703765493
 10
4130.638539177675
 20
1041.716703765493
 10
4130.638539177675
 20
1040.416703765493
 42
-0.4142135623730951
 10
4128.938539177676
 20
1038.716703765493
 10
4116.638539177674
 20
1038.716703765493
 42
-0.4142135623730951
 10
4114.938539177676
 20
1040.416703765493
 10
4114.938539177676
 20
1066.016703765493
 42
0.4142135623730951
 10
4114.438539177675
 20
1066.516703765493
 10
4082.838539177676
 20
1066.516703765493
 42
0.4142135623730951
 10
4082.338539177675
 20
1066.016703765493
 10
4082.338539177675
 20
1040.416703765493
 42
-0.4142135623730951
 10
4080.638539177675
 20
1038.716703765493
 10
4068.338539177676
 20
1038.716703765493
 42
-0.4142135623730951
 10
4066.638539177676
 20
1040.416703765493
 10
4066.638539177676
 20
1041.716703765493
 10
4067.838539177676
 20
1041.716703765493
 10
4067.838539177676
 20
1040.416703765493
 42
0.4142135623730951
 10
4068.338539177676
 20
1039.916703765493
 10
4080.638539177675
 20
1039.916703765493
 42
0.4142135623730951
 10
4081.138539177675
 20
1040.416703765493
 10
4081.138539177675
 20
1066.016703765493
 42
-0.4142135623730951
 10
4082.838539177676
 20
1067.716703765493
  0
LWPOLYLINE
  5
9A0E
330
1E
100
AcDbEntity
  8
躯体と製品
  6
Continuous
 62
     4
100
AcDbPolyline
 90
        2
 70
     0
 43
0.0
 10
4077.839539177658
 20
1040.565703765498
 10
4077.839539177658
 20
1040.116703765504
  0
LWPOLYLINE
  5
9A0F
330
1E
100
AcDbEntity
  8
躯体と製品
  6
Continuous
 62
     4
100
AcDbPolyline
 90
        2
 70
     0
 43
0.0
 10
4069.839539177658
 20
1040.565703765498
 10
4069.839539177658
 20
1040.116703765504
  0
LWPOLYLINE
  5
9A10
330
1E
100
AcDbEntity
  8
躯体と製品
  6
Continuous
 62
     4
100
AcDbPolyline
 90
        2
 70
     0
 43
0.0
 10
4077.639539177675
 20
1039.916703765493
 10
4073.839539177657
 20
1039.916703765493
  0
LWPOLYLINE
  5
9A11
330
1E
100
AcDbEntity
  8
躯体と製品
  6
Continuous
 62
     4
100
AcDbPolyline
 90
        2
 70
     0
 43
0.0
 10
4069.839539177658
 20
1040.11670374455
 42
0.41421351636737
 10
4070.039539167193
 20
1039.916703765493
  0
LWPOLYLINE
  5
9A12
330
1E
100
AcDbEntity
  8
躯体と製品
  6
Continuous
 62
     4
100
AcDbPolyline
 90
        2
 70
     0
 43
0.0
 10
4070.03953917767
 20
1039.916703765493
 10
4073.839539177657
 20
1039.916703765493
  0
LWPOLYLINE
  5
9A13
330
1E
100
AcDbEntity
  8
躯体と製品
  6
Continuous
 62
     4
100
AcDbPolyline
 90
        2
 70
     0
 43
0.0
 10
4077.639539167198
 20
1039.916703765493
 42
0.4142135777083371
 10
4077.839539177687
 20
1040.116703765504
  0
LWPOLYLINE
  5
9A14
330
1E
100
AcDbEntity
  8
躯体と製品
  6
Continuous
 62
     4
100
AcDbPolyline
 90
        2
 70
     0
 43
0.0
 10
4077.604539177672
 20
1041.71670376551
 10
4073.839539177657
 20
1041.71670376551
  0
LWPOLYLINE
  5
9A15
330
1E
100
AcDbEntity
  8
躯体と製品
  6
Continuous
 62
     4
100
AcDbPolyline
 90
        2
 70
     0
 43
0.0
 10
4077.604088306834
 20
1041.716201305718
 42
0.2144073790574085
 10
4073.839555344312
 20
1042.91656024685
  0
LWPOLYLINE
  5
9A16
330
1E
100
AcDbEntity
  8
躯体と製品
  6
Continuous
 62
     4
100
AcDbPolyline
 90
        2
 70
     0
 43
0.0
 10
4070.074539177674
 20
1041.71670376551
 10
4069.839539177658
 20
1040.565703765498
  0
LWPOLYLINE
  5
9A17
330
1E
100
AcDbEntity
  8
躯体と製品
  6
Continuous
 62
     4
100
AcDbPolyline
 90
        2
 70
     0
 43
0.0
 10
4073.839522593073
 20
1042.91656029461
 42
0.2144073836089342
 10
4070.074989672867
 20
1041.71620096887
  0
LWPOLYLINE
  5
9A18
330
1E
100
AcDbEntity
  8
躯体と製品
  6
Continuous
 62
     4
100
AcDbPolyline
 90
        2
 70
     0
 43
0.0
 10
4070.074539177674
 20
1041.71670376551
 10
4073.839539177657
 20
1041.71670376551
  0
LWPOLYLINE
  5
9A19
330
1E
100
AcDbEntity
  8
躯体と製品
  6
Continuous
 62
     4
100
AcDbPolyline
 90
        2
 70
     0
 43
0.0
 10
4077.604539177672
 20
1041.71670376551
 10
4077.839539177658
 20
1040.565703765498
  0
LWPOLYLINE
  5
9A1A
330
1E
100
AcDbEntity
  8
躯体と製品
  6
Continuous
 62
     4
100
AcDbPolyline
 90
        2
 70
     0
 43
0.0
 10
4127.439539177664
 20
1040.565703765498
 10
4127.439539177664
 20
1040.116703765504
  0
LWPOLYLINE
  5
9A1B
330
1E
100
AcDbEntity
  8
躯体と製品
  6
Continuous
 62
     4
100
AcDbPolyline
 90
        2
 70
     0
 43
0.0
 10
4119.439539177664
 20
1040.565703765498
 10
4119.439539177664
 20
1040.116703765504
  0
LWPOLYLINE
  5
9A1C
330
1E
100
AcDbEntity
  8
躯体と製品
  6
Continuous
 62
     4
100
AcDbPolyline
 90
        2
 70
     0
 43
0.0
 10
4127.239539177652
 20
1039.916703765493
 10
4123.439539177663
 20
1039.916703765493
  0
LWPOLYLINE
  5
9A1D
330
1E
100
AcDbEntity
  8
躯体と製品
  6
Continuous
 62
     4
100
AcDbPolyline
 90
        2
 70
     0
 43
0.0
 10
4119.439539177664
 20
1040.11670374455
 42
0.41421351636737
 10
4119.639539167198
 20
1039.916703765493
  0
LWPOLYLINE
  5
9A1E
330
1E
100
AcDbEntity
  8
躯体と製品
  6
Continuous
 62
     4
100
AcDbPolyline
 90
        2
 70
     0
 43
0.0
 10
4119.639539177675
 20
1039.916703765493
 10
4123.439539177663
 20
1039.916703765493
  0
LWPOLYLINE
  5
9A1F
330
1E
100
AcDbEntity
  8
躯体と製品
  6
Continuous
 62
     4
100
AcDbPolyline
 90
        2
 70
     0
 43
0.0
 10
4127.239539167174
 20
1039.916703765493
 42
0.4142135777083371
 10
4127.439539177664
 20
1040.116703765504
  0
LWPOLYLINE
  5
9A20
330
1E
100
AcDbEntity
  8
躯体と製品
  6
Continuous
 62
     4
100
AcDbPolyline
 90
        2
 70
     0
 43
0.0
 10
4127.204539177677
 20
1041.71670376551
 10
4123.439539177663
 20
1041.71670376551
  0
LWPOLYLINE
  5
9A21
330
1E
100
AcDbEntity
  8
躯体と製品
  6
Continuous
 62
     4
100
AcDbPolyline
 90
        2
 70
     0
 43
0.0
 10
4127.20408830684
 20
1041.716201305718
 42
0.2144073790574085
 10
4123.439555344317
 20
1042.91656024685
  0
LWPOLYLINE
  5
9A22
330
1E
100
AcDbEntity
  8
躯体と製品
  6
Continuous
 62
     4
100
AcDbPolyline
 90
        2
 70
     0
 43
0.0
 10
4119.674539177649
 20
1041.71670376551
 10
4119.439539177664
 20
1040.565703765498
  0
LWPOLYLINE
  5
9A23
330
1E
100
AcDbEntity
  8
躯体と製品
  6
Continuous
 62
     4
100
AcDbPolyline
 90
        2
 70
     0
 43
0.0
 10
4123.439522593049
 20
1042.91656029461
 42
0.2144073836089342
 10
4119.674989672843
 20
1041.71620096887
  0
LWPOLYLINE
  5
9A24
330
1E
100
AcDbEntity
  8
躯体と製品
  6
Continuous
 62
     4
100
AcDbPolyline
 90
        2
 70
     0
 43
0.0
 10
4119.674539177649
 20
1041.71670376551
 10
4123.439539177663
 20
1041.71670376551
  0
LWPOLYLINE
  5
9A25
330
1E
100
AcDbEntity
  8
躯体と製品
  6
Continuous
 62
     4
100
AcDbPolyline
 90
        2
 70
     0
 43
0.0
 10
4127.204539177677
 20
1041.71670376551
 10
4127.439539177664
 20
1040.565703765498
  0
LINE
  5
9A26
330
1E
100
AcDbEntity
  8
躯体と製品
  6
Continuous
 62
     4
100
AcDbLine
 10
4392.638539177674
 20
1049.916703765493
 30
0.0
 11
4404.638539177675
 21
1049.916703765493
 31
0.0
  0
LINE
  5
9A27
330
1E
100
AcDbEntity
  8
躯体と製品
  6
Continuous
 62
     4
100
AcDbLine
 10
4392.638539177674
 20
1038.716703765493
 30
0.0
 11
4392.638539177674
 21
1049.916703765493
 31
0.0
  0
LINE
  5
9A28
330
1E
100
AcDbEntity
  8
躯体と製品
  6
Continuous
 62
     4
100
AcDbLine
 10
4393.438539177674
 20
1038.716703765493
 30
0.0
 11
4393.438539177674
 21
1050.716703765493
 31
0.0
  0
LINE
  5
9A29
330
1E
100
AcDbEntity
  8
躯体と製品
  6
Continuous
 62
     4
100
AcDbLine
 10
4404.638539177675
 20
1038.716703765493
 30
0.0
 11
4404.638539177675
 21
1049.916703765493
 31
0.0
  0
LINE
  5
9A2A
330
1E
100
AcDbEntity
  8
躯体と製品
  6
Continuous
 62
     4
100
AcDbLine
 10
4403.838539177676
 20
1038.716703765493
 30
0.0
 11
4403.838539177676
 21
1050.716703765493
 31
0.0
  0
LINE
  5
9A2B
330
1E
100
AcDbEntity
  8
躯体と製品
  6
Continuous
 62
     4
100
AcDbLine
 10
4392.638539177674
 20
1049.916703765493
 30
0.0
 11
4393.438539177674
 21
1050.716703765493
 31
0.0
  0
LINE
  5
9A2C
330
1E
100
AcDbEntity
  8
躯体と製品
  6
Continuous
 62
     4
100
AcDbLine
 10
4404.638539177675
 20
1049.916703765493
 30
0.0
 11
4403.838539177676
 21
1050.716703765493
 31
0.0
  0
LINE
  5
9A2D
330
1E
100
AcDbEntity
  8
躯体と製品
  6
Continuous
 62
     4
100
AcDbLine
 10
4393.438539177674
 20
1050.716703765493
 30
0.0
 11
4403.838539177676
 21
1050.716703765493
 31
0.0
  0
LWPOLYLINE
  5
9A2E
330
1E
100
AcDbEntity
  8
躯体と製品
  6
Continuous
 62
     4
100
AcDbPolyline
 90
       13
 70
     0
 43
0.0
 10
4364.638539177675
 20
1036.716703765493
 10
4432.638539177674
 20
1036.716703765493
 10
4432.638539177674
 20
1043.716703765493
 10
4427.638539177674
 20
1043.716703765493
 10
4427.638539177674
 20
1041.716703765493
 10
4430.638539177675
 20
1041.716703765493
 10
4430.638539177675
 20
1038.716703765493
 10
4366.638539177674
 20
1038.716703765493
 10
4366.638539177674
 20
1041.716703765493
 10
4369.638539177675
 20
1041.716703765493
 10
4369.638539177675
 20
1043.716703765493
 10
4364.638539177675
 20
1043.716703765493
 10
4364.638539177675
 20
1036.716703765493
  0
LWPOLYLINE
  5
9A2F
330
1E
100
AcDbEntity
  8
躯体と製品
  6
Continuous
 62
     4
100
AcDbPolyline
 90
       28
 70
     1
 43
0.0
 10
4414.438539177676
 20
1067.716703765493
 42
-0.4142135623730951
 10
4416.138539177675
 20
1066.016703765493
 10
4416.138539177675
 20
1040.416703765493
 42
0.4142135623730951
 10
4416.638539177674
 20
1039.916703765493
 10
4428.938539177676
 20
1039.916703765493
 42
0.4142135623730951
 10
4429.438539177676
 20
1040.416703765493
 10
4429.438539177676
 20
1041.716703765493
 10
4430.638539177675
 20
1041.716703765493
 10
4430.638539177675
 20
1040.416703765493
 42
-0.4142135623730951
 10
4428.938539177676
 20
1038.716703765493
 10
4416.638539177674
 20
1038.716703765493
 42
-0.4142135623730951
 10
4414.938539177676
 20
1040.416703765493
 10
4414.938539177676
 20
1066.016703765493
 42
0.4142135623730951
 10
4414.438539177676
 20
1066.516703765493
 10
4382.838539177675
 20
1066.516703765493
 42
0.4142135623730951
 10
4382.338539177675
 20
1066.016703765493
 10
4382.338539177675
 20
1040.416703765493
 42
-0.4142135623730951
 10
4380.638539177675
 20
1038.716703765493
 10
4368.338539177676
 20
1038.716703765493
 42
-0.4142135623730951
 10
4366.638539177674
 20
1040.416703765493
 10
4366.638539177674
 20
1041.716703765493
 10
4367.838539177675
 20
1041.716703765493
 10
4367.838539177675
 20
1040.416703765493
 42
0.4142135623730951
 10
4368.338539177676
 20
1039.916703765493
 10
4380.638539177675
 20
1039.916703765493
 42
0.4142135623730951
 10
4381.138539177674
 20
1040.416703765493
 10
4381.138539177674
 20
1066.016703765493
 42
-0.4142135623730951
 10
4382.838539177675
 20
1067.716703765493
  0
LWPOLYLINE
  5
9A30
330
1E
100
AcDbEntity
  8
躯体と製品
  6
Continuous
 62
     4
100
AcDbPolyline
 90
        2
 70
     0
 43
0.0
 10
4377.839539177657
 20
1040.565703765498
 10
4377.839539177657
 20
1040.116703765504
  0
LWPOLYLINE
  5
9A31
330
1E
100
AcDbEntity
  8
躯体と製品
  6
Continuous
 62
     4
100
AcDbPolyline
 90
        2
 70
     0
 43
0.0
 10
4369.839539177657
 20
1040.565703765498
 10
4369.839539177657
 20
1040.116703765504
  0
LWPOLYLINE
  5
9A32
330
1E
100
AcDbEntity
  8
躯体と製品
  6
Continuous
 62
     4
100
AcDbPolyline
 90
        2
 70
     0
 43
0.0
 10
4377.639539177675
 20
1039.916703765493
 10
4373.839539177658
 20
1039.916703765493
  0
LWPOLYLINE
  5
9A33
330
1E
100
AcDbEntity
  8
躯体と製品
  6
Continuous
 62
     4
100
AcDbPolyline
 90
        2
 70
     0
 43
0.0
 10
4369.839539177657
 20
1040.11670374455
 42
0.41421351636737
 10
4370.039539167192
 20
1039.916703765493
  0
LWPOLYLINE
  5
9A34
330
1E
100
AcDbEntity
  8
躯体と製品
  6
Continuous
 62
     4
100
AcDbPolyline
 90
        2
 70
     0
 43
0.0
 10
4370.039539177669
 20
1039.916703765493
 10
4373.839539177658
 20
1039.916703765493
  0
LWPOLYLINE
  5
9A35
330
1E
100
AcDbEntity
  8
躯体と製品
  6
Continuous
 62
     4
100
AcDbPolyline
 90
        2
 70
     0
 43
0.0
 10
4377.639539167197
 20
1039.916703765493
 42
0.4142135777083371
 10
4377.839539177687
 20
1040.116703765504
  0
LWPOLYLINE
  5
9A36
330
1E
100
AcDbEntity
  8
躯体と製品
  6
Continuous
 62
     4
100
AcDbPolyline
 90
        2
 70
     0
 43
0.0
 10
4377.604539177672
 20
1041.71670376551
 10
4373.839539177658
 20
1041.71670376551
  0
LWPOLYLINE
  5
9A37
330
1E
100
AcDbEntity
  8
躯体と製品
  6
Continuous
 62
     4
100
AcDbPolyline
 90
        2
 70
     0
 43
0.0
 10
4377.604088306834
 20
1041.716201305718
 42
0.2144073790574085
 10
4373.839555344312
 20
1042.91656024685
  0
LWPOLYLINE
  5
9A38
330
1E
100
AcDbEntity
  8
躯体と製品
  6
Continuous
 62
     4
100
AcDbPolyline
 90
        2
 70
     0
 43
0.0
 10
4370.074539177672
 20
1041.71670376551
 10
4369.839539177657
 20
1040.565703765498
  0
LWPOLYLINE
  5
9A39
330
1E
100
AcDbEntity
  8
躯体と製品
  6
Continuous
 62
     4
100
AcDbPolyline
 90
        2
 70
     0
 43
0.0
 10
4373.839522593072
 20
1042.91656029461
 42
0.2144073836089342
 10
4370.074989672867
 20
1041.71620096887
  0
LWPOLYLINE
  5
9A3A
330
1E
100
AcDbEntity
  8
躯体と製品
  6
Continuous
 62
     4
100
AcDbPolyline
 90
        2
 70
     0
 43
0.0
 10
4370.074539177672
 20
1041.71670376551
 10
4373.839539177658
 20
1041.71670376551
  0
LWPOLYLINE
  5
9A3B
330
1E
100
AcDbEntity
  8
躯体と製品
  6
Continuous
 62
     4
100
AcDbPolyline
 90
        2
 70
     0
 43
0.0
 10
4377.604539177672
 20
1041.71670376551
 10
4377.839539177657
 20
1040.565703765498
  0
LWPOLYLINE
  5
9A3C
330
1E
100
AcDbEntity
  8
躯体と製品
  6
Continuous
 62
     4
100
AcDbPolyline
 90
        2
 70
     0
 43
0.0
 10
4427.439539177663
 20
1040.565703765498
 10
4427.439539177663
 20
1040.116703765504
  0
LWPOLYLINE
  5
9A3D
330
1E
100
AcDbEntity
  8
躯体と製品
  6
Continuous
 62
     4
100
AcDbPolyline
 90
        2
 70
     0
 43
0.0
 10
4419.439539177663
 20
1040.565703765498
 10
4419.439539177663
 20
1040.116703765504
  0
LWPOLYLINE
  5
9A3E
330
1E
100
AcDbEntity
  8
躯体と製品
  6
Continuous
 62
     4
100
AcDbPolyline
 90
        2
 70
     0
 43
0.0
 10
4427.239539177652
 20
1039.916703765493
 10
4423.439539177663
 20
1039.916703765493
  0
LWPOLYLINE
  5
9A3F
330
1E
100
AcDbEntity
  8
躯体と製品
  6
Continuous
 62
     4
100
AcDbPolyline
 90
        2
 70
     0
 43
0.0
 10
4419.439539177663
 20
1040.11670374455
 42
0.41421351636737
 10
4419.639539167198
 20
1039.916703765493
  0
LWPOLYLINE
  5
9A40
330
1E
100
AcDbEntity
  8
躯体と製品
  6
Continuous
 62
     4
100
AcDbPolyline
 90
        2
 70
     0
 43
0.0
 10
4419.639539177675
 20
1039.916703765493
 10
4423.439539177663
 20
1039.916703765493
  0
LWPOLYLINE
  5
9A41
330
1E
100
AcDbEntity
  8
躯体と製品
  6
Continuous
 62
     4
100
AcDbPolyline
 90
        2
 70
     0
 43
0.0
 10
4427.239539167174
 20
1039.916703765493
 42
0.4142135777083371
 10
4427.439539177663
 20
1040.116703765504
  0
LWPOLYLINE
  5
9A42
330
1E
100
AcDbEntity
  8
躯体と製品
  6
Continuous
 62
     4
100
AcDbPolyline
 90
        2
 70
     0
 43
0.0
 10
4427.204539177677
 20
1041.71670376551
 10
4423.439539177663
 20
1041.71670376551
  0
LWPOLYLINE
  5
9A43
330
1E
100
AcDbEntity
  8
躯体と製品
  6
Continuous
 62
     4
100
AcDbPolyline
 90
        2
 70
     0
 43
0.0
 10
4427.20408830684
 20
1041.716201305718
 42
0.2144073790574085
 10
4423.439555344317
 20
1042.91656024685
  0
LWPOLYLINE
  5
9A44
330
1E
100
AcDbEntity
  8
躯体と製品
  6
Continuous
 62
     4
100
AcDbPolyline
 90
        2
 70
     0
 43
0.0
 10
4419.674539177649
 20
1041.71670376551
 10
4419.439539177663
 20
1040.565703765498
  0
LWPOLYLINE
  5
9A45
330
1E
100
AcDbEntity
  8
躯体と製品
  6
Continuous
 62
     4
100
AcDbPolyline
 90
        2
 70
     0
 43
0.0
 10
4423.439522593048
 20
1042.91656029461
 42
0.2144073836089342
 10
4419.674989672843
 20
1041.71620096887
  0
LWPOLYLINE
  5
9A46
330
1E
100
AcDbEntity
  8
躯体と製品
  6
Continuous
 62
     4
100
AcDbPolyline
 90
        2
 70
     0
 43
0.0
 10
4419.674539177649
 20
1041.71670376551
 10
4423.439539177663
 20
1041.71670376551
  0
LWPOLYLINE
  5
9A47
330
1E
100
AcDbEntity
  8
躯体と製品
  6
Continuous
 62
     4
100
AcDbPolyline
 90
        2
 70
     0
 43
0.0
 10
4427.204539177677
 20
1041.71670376551
 10
4427.439539177663
 20
1040.565703765498
  0
LINE
  5
9A48
330
1E
100
AcDbEntity
  8
躯体と製品
  6
Continuous
 62
     4
100
AcDbLine
 10
4692.638539177674
 20
1049.916703765493
 30
0.0
 11
4704.638539177675
 21
1049.916703765493
 31
0.0
  0
LINE
  5
9A49
330
1E
100
AcDbEntity
  8
躯体と製品
  6
Continuous
 62
     4
100
AcDbLine
 10
4692.638539177674
 20
1038.716703765493
 30
0.0
 11
4692.638539177674
 21
1049.916703765493
 31
0.0
  0
LINE
  5
9A4A
330
1E
100
AcDbEntity
  8
躯体と製品
  6
Continuous
 62
     4
100
AcDbLine
 10
4693.438539177674
 20
1038.716703765493
 30
0.0
 11
4693.438539177674
 21
1050.716703765493
 31
0.0
  0
LINE
  5
9A4B
330
1E
100
AcDbEntity
  8
躯体と製品
  6
Continuous
 62
     4
100
AcDbLine
 10
4704.638539177675
 20
1038.716703765493
 30
0.0
 11
4704.638539177675
 21
1049.916703765493
 31
0.0
  0
LINE
  5
9A4C
330
1E
100
AcDbEntity
  8
躯体と製品
  6
Continuous
 62
     4
100
AcDbLine
 10
4703.838539177676
 20
1038.716703765493
 30
0.0
 11
4703.838539177676
 21
1050.716703765493
 31
0.0
  0
LINE
  5
9A4D
330
1E
100
AcDbEntity
  8
躯体と製品
  6
Continuous
 62
     4
100
AcDbLine
 10
4692.638539177674
 20
1049.916703765493
 30
0.0
 11
4693.438539177674
 21
1050.716703765493
 31
0.0
  0
LINE
  5
9A4E
330
1E
100
AcDbEntity
  8
躯体と製品
  6
Continuous
 62
     4
100
AcDbLine
 10
4704.638539177675
 20
1049.916703765493
 30
0.0
 11
4703.838539177676
 21
1050.716703765493
 31
0.0
  0
LINE
  5
9A4F
330
1E
100
AcDbEntity
  8
躯体と製品
  6
Continuous
 62
     4
100
AcDbLine
 10
4693.438539177674
 20
1050.716703765493
 30
0.0
 11
4703.838539177676
 21
1050.716703765493
 31
0.0
  0
LWPOLYLINE
  5
9A50
330
1E
100
AcDbEntity
  8
躯体と製品
  6
Continuous
 62
     4
100
AcDbPolyline
 90
       13
 70
     0
 43
0.0
 10
4664.638539177675
 20
1036.716703765493
 10
4732.638539177674
 20
1036.716703765493
 10
4732.638539177674
 20
1043.716703765493
 10
4727.638539177674
 20
1043.716703765493
 10
4727.638539177674
 20
1041.716703765493
 10
4730.638539177674
 20
1041.716703765493
 10
4730.638539177674
 20
1038.716703765493
 10
4666.638539177674
 20
1038.716703765493
 10
4666.638539177674
 20
1041.716703765493
 10
4669.638539177674
 20
1041.716703765493
 10
4669.638539177674
 20
1043.716703765493
 10
4664.638539177675
 20
1043.716703765493
 10
4664.638539177675
 20
1036.716703765493
  0
LWPOLYLINE
  5
9A51
330
1E
100
AcDbEntity
  8
躯体と製品
  6
Continuous
 62
     4
100
AcDbPolyline
 90
       28
 70
     1
 43
0.0
 10
4714.438539177676
 20
1067.716703765493
 42
-0.4142135623730951
 10
4716.138539177674
 20
1066.016703765493
 10
4716.138539177674
 20
1040.416703765493
 42
0.4142135623730951
 10
4716.638539177675
 20
1039.916703765493
 10
4728.938539177676
 20
1039.916703765493
 42
0.4142135623730951
 10
4729.438539177675
 20
1040.416703765493
 10
4729.438539177675
 20
1041.716703765493
 10
4730.638539177674
 20
1041.716703765493
 10
4730.638539177674
 20
1040.416703765493
 42
-0.4142135623730951
 10
4728.938539177676
 20
1038.716703765493
 10
4716.638539177675
 20
1038.716703765493
 42
-0.4142135623730951
 10
4714.938539177675
 20
1040.416703765493
 10
4714.938539177675
 20
1066.016703765493
 42
0.4142135623730951
 10
4714.438539177676
 20
1066.516703765493
 10
4682.838539177676
 20
1066.516703765493
 42
0.4142135623730951
 10
4682.338539177675
 20
1066.016703765493
 10
4682.338539177675
 20
1040.416703765493
 42
-0.4142135623730951
 10
4680.638539177675
 20
1038.716703765493
 10
4668.338539177676
 20
1038.716703765493
 42
-0.4142135623730951
 10
4666.638539177674
 20
1040.416703765493
 10
4666.638539177674
 20
1041.716703765493
 10
4667.838539177675
 20
1041.716703765493
 10
4667.838539177675
 20
1040.416703765493
 42
0.4142135623730951
 10
4668.338539177676
 20
1039.916703765493
 10
4680.638539177675
 20
1039.916703765493
 42
0.4142135623730951
 10
4681.138539177674
 20
1040.416703765493
 10
4681.138539177674
 20
1066.016703765493
 42
-0.4142135623730951
 10
4682.838539177676
 20
1067.716703765493
  0
LWPOLYLINE
  5
9A52
330
1E
100
AcDbEntity
  8
躯体と製品
  6
Continuous
 62
     4
100
AcDbPolyline
 90
        2
 70
     0
 43
0.0
 10
4677.839539177657
 20
1040.565703765498
 10
4677.839539177657
 20
1040.116703765504
  0
LWPOLYLINE
  5
9A53
330
1E
100
AcDbEntity
  8
躯体と製品
  6
Continuous
 62
     4
100
AcDbPolyline
 90
        2
 70
     0
 43
0.0
 10
4669.839539177657
 20
1040.565703765498
 10
4669.839539177657
 20
1040.116703765504
  0
LWPOLYLINE
  5
9A54
330
1E
100
AcDbEntity
  8
躯体と製品
  6
Continuous
 62
     4
100
AcDbPolyline
 90
        2
 70
     0
 43
0.0
 10
4677.639539177675
 20
1039.916703765493
 10
4673.839539177658
 20
1039.916703765493
  0
LWPOLYLINE
  5
9A55
330
1E
100
AcDbEntity
  8
躯体と製品
  6
Continuous
 62
     4
100
AcDbPolyline
 90
        2
 70
     0
 43
0.0
 10
4669.839539177657
 20
1040.11670374455
 42
0.41421351636737
 10
4670.039539167191
 20
1039.916703765493
  0
LWPOLYLINE
  5
9A56
330
1E
100
AcDbEntity
  8
躯体と製品
  6
Continuous
 62
     4
100
AcDbPolyline
 90
        2
 70
     0
 43
0.0
 10
4670.039539177669
 20
1039.916703765493
 10
4673.839539177658
 20
1039.916703765493
  0
LWPOLYLINE
  5
9A57
330
1E
100
AcDbEntity
  8
躯体と製品
  6
Continuous
 62
     4
100
AcDbPolyline
 90
        2
 70
     0
 43
0.0
 10
4677.639539167198
 20
1039.916703765493
 42
0.4142135777083371
 10
4677.839539177687
 20
1040.116703765504
  0
LWPOLYLINE
  5
9A58
330
1E
100
AcDbEntity
  8
躯体と製品
  6
Continuous
 62
     4
100
AcDbPolyline
 90
        2
 70
     0
 43
0.0
 10
4677.604539177671
 20
1041.71670376551
 10
4673.839539177658
 20
1041.71670376551
  0
LWPOLYLINE
  5
9A59
330
1E
100
AcDbEntity
  8
躯体と製品
  6
Continuous
 62
     4
100
AcDbPolyline
 90
        2
 70
     0
 43
0.0
 10
4677.604088306835
 20
1041.716201305718
 42
0.2144073790574085
 10
4673.839555344311
 20
1042.91656024685
  0
LWPOLYLINE
  5
9A5A
330
1E
100
AcDbEntity
  8
躯体と製品
  6
Continuous
 62
     4
100
AcDbPolyline
 90
        2
 70
     0
 43
0.0
 10
4670.074539177672
 20
1041.71670376551
 10
4669.839539177657
 20
1040.565703765498
  0
LWPOLYLINE
  5
9A5B
330
1E
100
AcDbEntity
  8
躯体と製品
  6
Continuous
 62
     4
100
AcDbPolyline
 90
        2
 70
     0
 43
0.0
 10
4673.839522593072
 20
1042.91656029461
 42
0.2144073836089342
 10
4670.074989672866
 20
1041.71620096887
  0
LWPOLYLINE
  5
9A5C
330
1E
100
AcDbEntity
  8
躯体と製品
  6
Continuous
 62
     4
100
AcDbPolyline
 90
        2
 70
     0
 43
0.0
 10
4670.074539177672
 20
1041.71670376551
 10
4673.839539177658
 20
1041.71670376551
  0
LWPOLYLINE
  5
9A5D
330
1E
100
AcDbEntity
  8
躯体と製品
  6
Continuous
 62
     4
100
AcDbPolyline
 90
        2
 70
     0
 43
0.0
 10
4677.604539177671
 20
1041.71670376551
 10
4677.839539177657
 20
1040.565703765498
  0
LWPOLYLINE
  5
9A5E
330
1E
100
AcDbEntity
  8
躯体と製品
  6
Continuous
 62
     4
100
AcDbPolyline
 90
        2
 70
     0
 43
0.0
 10
4727.439539177663
 20
1040.565703765498
 10
4727.439539177663
 20
1040.116703765504
  0
LWPOLYLINE
  5
9A5F
330
1E
100
AcDbEntity
  8
躯体と製品
  6
Continuous
 62
     4
100
AcDbPolyline
 90
        2
 70
     0
 43
0.0
 10
4719.439539177663
 20
1040.565703765498
 10
4719.439539177663
 20
1040.116703765504
  0
LWPOLYLINE
  5
9A60
330
1E
100
AcDbEntity
  8
躯体と製品
  6
Continuous
 62
     4
100
AcDbPolyline
 90
        2
 70
     0
 43
0.0
 10
4727.239539177651
 20
1039.916703765493
 10
4723.439539177664
 20
1039.916703765493
  0
LWPOLYLINE
  5
9A61
330
1E
100
AcDbEntity
  8
躯体と製品
  6
Continuous
 62
     4
100
AcDbPolyline
 90
        2
 70
     0
 43
0.0
 10
4719.439539177663
 20
1040.11670374455
 42
0.41421351636737
 10
4719.639539167197
 20
1039.916703765493
  0
LWPOLYLINE
  5
9A62
330
1E
100
AcDbEntity
  8
躯体と製品
  6
Continuous
 62
     4
100
AcDbPolyline
 90
        2
 70
     0
 43
0.0
 10
4719.639539177675
 20
1039.916703765493
 10
4723.439539177664
 20
1039.916703765493
  0
LWPOLYLINE
  5
9A63
330
1E
100
AcDbEntity
  8
躯体と製品
  6
Continuous
 62
     4
100
AcDbPolyline
 90
        2
 70
     0
 43
0.0
 10
4727.239539167174
 20
1039.916703765493
 42
0.4142135777083371
 10
4727.439539177663
 20
1040.116703765504
  0
LWPOLYLINE
  5
9A64
330
1E
100
AcDbEntity
  8
躯体と製品
  6
Continuous
 62
     4
100
AcDbPolyline
 90
        2
 70
     0
 43
0.0
 10
4727.204539177677
 20
1041.71670376551
 10
4723.439539177664
 20
1041.71670376551
  0
LWPOLYLINE
  5
9A65
330
1E
100
AcDbEntity
  8
躯体と製品
  6
Continuous
 62
     4
100
AcDbPolyline
 90
        2
 70
     0
 43
0.0
 10
4727.20408830684
 20
1041.716201305718
 42
0.2144073790574085
 10
4723.439555344317
 20
1042.91656024685
  0
LWPOLYLINE
  5
9A66
330
1E
100
AcDbEntity
  8
躯体と製品
  6
Continuous
 62
     4
100
AcDbPolyline
 90
        2
 70
     0
 43
0.0
 10
4719.674539177649
 20
1041.71670376551
 10
4719.439539177663
 20
1040.565703765498
  0
LWPOLYLINE
  5
9A67
330
1E
100
AcDbEntity
  8
躯体と製品
  6
Continuous
 62
     4
100
AcDbPolyline
 90
        2
 70
     0
 43
0.0
 10
4723.439522593049
 20
1042.91656029461
 42
0.2144073836089342
 10
4719.674989672843
 20
1041.71620096887
  0
LWPOLYLINE
  5
9A68
330
1E
100
AcDbEntity
  8
躯体と製品
  6
Continuous
 62
     4
100
AcDbPolyline
 90
        2
 70
     0
 43
0.0
 10
4719.674539177649
 20
1041.71670376551
 10
4723.439539177664
 20
1041.71670376551
  0
LWPOLYLINE
  5
9A69
330
1E
100
AcDbEntity
  8
躯体と製品
  6
Continuous
 62
     4
100
AcDbPolyline
 90
        2
 70
     0
 43
0.0
 10
4727.204539177677
 20
1041.71670376551
 10
4727.439539177663
 20
1040.565703765498
  0
LWPOLYLINE
  5
9A6A
330
1E
100
AcDbEntity
  8
文字-記号
  6
Continuous
 62
     7
100
AcDbPolyline
 90
        4
 70
     0
 43
0.0
 10
4116.148419727618
 20
1051.207375543641
 10
4126.148419727619
 20
1068.52788361933
 10
4171.56942982228
 20
1147.199380834384
 10
4340.573604387584
 20
1147.199380834384
1001
ACAD
1000
DSTYLE
1002
{
1070
   147
1040
0.09
1070
    77
1070
     1
1002
}
  0
LWPOLYLINE
  5
9A6B
330
1E
100
AcDbEntity
  8
文字-記号
  6
Continuous
 62
     7
100
AcDbPolyline
 90
        4
 70
     0
 43
0.0
 10
4102.347404196229
 20
985.5397586667448
 10
4112.347404196229
 20
968.219250591056
 10
4147.437805582121
 20
907.4408925327045
 10
4316.441980147424
 20
907.4408925327045
1001
ACAD
1000
DSTYLE
1002
{
1070
   147
1040
0.09
1070
    77
1070
     1
1002
}
  0
LWPOLYLINE
  5
9A6C
330
1E
100
AcDbEntity
  8
文字-記号
  6
Continuous
 62
     7
100
AcDbPolyline
 90
        4
 70
     0
 43
0.0
 10
3059.299088554461
 20
985.539758666745
 10
3049.299088554461
 20
968.2192505910562
 10
3014.208687168568
 20
907.4408925327047
 10
2845.204512603265
 20
907.4408925327047
1001
ACAD
1000
DSTYLE
1002
{
1070
   147
1040
0.09
1070
    77
1070
     1
1002
}
  0
LWPOLYLINE
  5
9A6D
330
1E
100
AcDbEntity
  8
文字-記号
  6
Continuous
 62
     7
100
AcDbPolyline
 90
        4
 70
     0
 43
0.0
 10
2902.819769778691
 20
1051.207375543641
 10
2912.819769778691
 20
1068.52788361933
 10
2958.240779873354
 20
1147.199380834384
 10
3127.244954438657
 20
1147.199380834384
1001
ACAD
1000
DSTYLE
1002
{
1070
   147
1040
0.09
1070
    77
1070
     1
1002
}
  0
LWPOLYLINE
  5
9A6E
330
1E
100
AcDbEntity
  8
文字-記号
  6
Continuous
 62
     7
100
AcDbPolyline
 90
        4
 70
     0
 43
0.0
 10
2669.189994917718
 20
1076.716703765491
 10
2679.189994917718
 20
1094.03721184118
 10
2708.298249680363
 20
1144.454188009739
 10
2846.467813056465
 20
1144.454188009739
1001
ACAD
1000
DSTYLE
1002
{
1070
   147
1040
0.09
1070
    77
1070
     1
1002
}
  0
LWPOLYLINE
  5
9A6F
330
1E
100
AcDbEntity
  8
文字-記号
  6
Continuous
 62
     7
100
AcDbPolyline
 90
        4
 70
     0
 43
0.0
 10
2563.423701786809
 20
1100.716703765492
 10
2573.423701786809
 20
1118.037211841181
 10
2628.094145080669
 20
1212.729197298459
 10
2897.662350353723
 20
1212.729197298459
1001
ACAD
1000
DSTYLE
1002
{
1070
   147
1040
0.09
1070
    77
1070
     1
1002
}
  0
LWPOLYLINE
  5
9A70
330
1E
100
AcDbEntity
  8
文字-記号
  6
Continuous
 62
     7
100
AcDbPolyline
 90
        4
 70
     0
 43
0.0
 10
2303.184713651134
 20
1195.587003765492
 10
2313.184713651133
 20
1212.907511841181
 10
2363.273196799357
 20
1299.663309527961
 10
2468.538008008032
 20
1299.663309527961
1001
ACAD
1000
DSTYLE
1002
{
1070
   147
1040
0.09
1070
    77
1070
     1
1002
}
  0
TEXT
  5
9A71
330
1E
100
AcDbEntity
  8
文字-記号
  6
Continuous
 62
     3
100
AcDbText
 10
2195.373023270885
 20
1777.013907006997
 30
0.0
 40
60.0
  1
■スリーベース512-P型（公共施設・一般事務室等：低床タイプ）
  7
ACAD
100
AcDbText
  0
TEXT
  5
9A72
330
1E
100
AcDbEntity
  8
文字-記号
  6
Continuous
 62
     3
100
AcDbText
 10
3795.878665866908
 20
1666.588356889747
 30
0.0
 40
60.0
  1
（ネタ・シングル）
  7
ACAD
100
AcDbText
  0
ENDSEC
  0
SECTION
  2
OBJECTS
  0
DICTIONARY
  5
C
330
0
100
AcDbDictionary
281
     1
  3
ACAD_2007HEADERVARS_RT
350
9BCE
  3
ACAD_CIP_PREVIOUS_PRODUCT_INFO
350
683B
  3
ACAD_COLOR
350
6413
  3
ACAD_GROUP
350
D
  3
ACAD_LAYOUT
350
19
  3
ACAD_MATERIAL
350
6412
  3
ACAD_MLEADERSTYLE
350
6833
  3
ACAD_MLINESTYLE
350
16
  3
ACAD_PLOTSETTINGS
350
18
  3
ACAD_PLOTSTYLENAME
350
E
  3
ACAD_SCALELIST
350
6821
  3
ACAD_TABLESTYLE
350
6414
  3
ACAD_VISUALSTYLE
350
6808
  3
AcadDim
350
67E7
  3
ACDB_RECOMPOSE_DATA
350
9BCD
  3
AcDbVariableDictionary
350
169
  3
AEC_PROPERTY_SET_DEFS
350
70A8
  0
DICTIONARY
  5
8F49
330
8
100
AcDbDictionary
280
     1
281
     1
  0
DICTIONARY
  5
175
330
2
100
AcDbDictionary
280
     1
281
     1
  3
ACAD_LAYERFILTERS
360
185
  3
ACAD_LAYERSTATES
360
176
  0
DICTIONARY
  5
899C
330
10
100
AcDbDictionary
280
     1
281
     1
  3
ADSK_XREC_LAYER_RECONCILED
360
899D
  0
DICTIONARY
  5
899E
330
178
100
AcDbDictionary
280
     1
281
     1
  3
ADSK_XREC_LAYER_RECONCILED
360
899F
  0
DICTIONARY
  5
89A0
330
179
100
AcDbDictionary
280
     1
281
     1
  3
ADSK_XREC_LAYER_RECONCILED
360
89A1
  0
DICTIONARY
  5
89A2
330
4F62
100
AcDbDictionary
280
     1
281
     1
  3
ADSK_XREC_LAYER_RECONCILED
360
89A3
  0
DICTIONARY
  5
89A4
330
68D7
100
AcDbDictionary
280
     1
281
     1
  3
ADSK_XREC_LAYER_RECONCILED
360
89A5
  0
DICTIONARY
  5
28B
330
1E
100
AcDbDictionary
280
     1
281
     1
  3
ACAD_LAYOUTSELFREF
360
640B
  3
ACAD_SORTENTS
360
7D7E
  0
DICTIONARY
  5
28D
330
1A
100
AcDbDictionary
280
     1
281
     1
  3
ACAD_LAYOUTSELFREF
360
640A
  0
DICTIONARY
  5
9BCE
102
{ACAD_REACTORS
330
C
102
}
330
C
100
AcDbDictionary
281
     1
  3
DIMFXL
350
9BCF
  0
XRECORD
  5
683B
102
{ACAD_REACTORS
330
C
102
}
330
C
100
AcDbXrecord
280
     1
300
ACD
300
2012
300
ACD_F_S
  0
DICTIONARY
  5
6413
102
{ACAD_REACTORS
330
C
102
}
330
C
100
AcDbDictionary
281
     1
  0
DICTIONARY
  5
D
102
{ACAD_REACTORS
330
C
102
}
330
C
100
AcDbDictionary
281
     1
  0
DICTIONARY
  5
19
102
{ACAD_REACTORS
330
C
102
}
330
C
100
AcDbDictionary
281
     1
  3
Model
350
21
  3
ﾚｲｱｳﾄ1
350
1D
  0
DICTIONARY
  5
6412
102
{ACAD_REACTORS
330
C
102
}
330
C
100
AcDbDictionary
281
     1
  3
ByBlock
350
67F8
  3
ByLayer
350
67F0
  3
Global
350
6800
  0
DICTIONARY
  5
6833
102
{ACAD_REACTORS
330
C
102
}
330
C
100
AcDbDictionary
281
     1
  3
Standard
350
6834
  0
DICTIONARY
  5
16
102
{ACAD_REACTORS
330
C
102
}
330
C
100
AcDbDictionary
281
     1
  3
Standard
350
17
  0
DICTIONARY
  5
18
102
{ACAD_REACTORS
330
C
102
}
330
C
100
AcDbDictionary
281
     1
  0
ACDBDICTIONARYWDFLT
  5
E
102
{ACAD_REACTORS
330
C
102
}
330
C
100
AcDbDictionary
281
     1
  3
Normal
350
F
100
AcDbDictionaryWithDefault
340
F
  0
DICTIONARY
  5
6821
102
{ACAD_REACTORS
330
C
102
}
330
C
100
AcDbDictionary
281
     1
  3
A0
350
6822
  3
A1
350
6823
  3
A2
350
6824
  3
A3
350
6825
  3
A4
350
6826
  3
A5
350
6827
  3
A6
350
6828
  3
A7
350
6829
  3
A8
350
682A
  3
A9
350
682B
  3
B0
350
682C
  3
B1
350
682D
  3
B2
350
682E
  3
B3
350
682F
  3
B4
350
6830
  3
B5
350
6831
  3
B6
350
6832
  0
DICTIONARY
  5
6414
102
{ACAD_REACTORS
330
C
102
}
330
C
100
AcDbDictionary
281
     1
  3
Standard
350
6415
  0
DICTIONARY
  5
6808
102
{ACAD_REACTORS
330
C
102
}
330
C
100
AcDbDictionary
281
     1
  3
2dWireframe
350
680E
  3
Basic
350
680D
  3
Brighten
350
6814
  3
ColorChange
350
6818
  3
Conceptual
350
6811
  3
Dim
350
6813
  3
EdgeColorOff
350
6820
  3
Facepattern
350
6817
  3
Flat
350
6809
  3
FlatWithEdges
350
680A
  3
Gouraud
350
680B
  3
GouraudWithEdges
350
680C
  3
Hidden
350
6810
  3
JitterOff
350
681E
  3
Linepattern
350
6816
  3
OverhangOff
350
681F
  3
Realistic
350
6812
  3
Shaded
350
681D
  3
Shaded with edges
350
681C
  3
Shades of Gray
350
6819
  3
Sketchy
350
681A
  3
Thicken
350
6815
  3
Wireframe
350
680F
  3
X-Ray
350
681B
  0
XRECORD
  5
67E7
102
{ACAD_REACTORS
330
C
102
}
330
C
100
AcDbXrecord
280
     1
 90
   990106
  3

 60
     0
 61
     0
 62
     4
 63
     4
 64
     1
 65
     0
 66
     0
 67
     3
 68
     1
 69
     0
 70
     4
 71
     1
 72
     0
 40
0.0
170
     2
  0
XRECORD
  5
9BCD
102
{ACAD_REACTORS
330
C
102
}
330
C
100
AcDbXrecord
280
     1
 90
        1
330
6415
  0
DICTIONARY
  5
169
102
{ACAD_REACTORS
330
C
102
}
330
C
100
AcDbDictionary
281
     1
  3
CANNOSCALE
350
7FE2
  3
CMLEADERSTYLE
350
7FE0
  3
CTABLESTYLE
350
67EE
  3
DIMASSOC
350
16A
  3
LAYEREVAL
350
7FE4
  3
LAYERNOTIFY
350
7FE5
  3
LIGHTINGUNITS
350
7FE3
  3
MSLTSCALE
350
7FE1
  0
DICTIONARY
  5
70A8
102
{ACAD_REACTORS
330
C
102
}
330
C
100
AcDbDictionary
281
     1
  0
DICTIONARY
  5
185
102
{ACAD_REACTORS
330
175
102
}
330
175
100
AcDbDictionary
280
     1
281
     1
  0
DICTIONARY
  5
176
102
{ACAD_REACTORS
330
175
102
}
330
175
100
AcDbDictionary
281
     1
  3
ACAD
350
177
  0
XRECORD
  5
899D
102
{ACAD_REACTORS
330
899C
102
}
330
899C
100
AcDbXrecord
280
     1
290
     1
  0
XRECORD
  5
899F
102
{ACAD_REACTORS
330
899E
102
}
330
899E
100
AcDbXrecord
280
     1
290
     1
  0
XRECORD
  5
89A1
102
{ACAD_REACTORS
330
89A0
102
}
330
89A0
100
AcDbXrecord
280
     1
290
     1
  0
XRECORD
  5
89A3
102
{ACAD_REACTORS
330
89A2
102
}
330
89A2
100
AcDbXrecord
280
     1
290
     1
  0
XRECORD
  5
89A5
102
{ACAD_REACTORS
330
89A4
102
}
330
89A4
100
AcDbXrecord
280
     1
290
     1
  0
XRECORD
  5
640B
102
{ACAD_REACTORS
330
28B
102
}
330
28B
100
AcDbXrecord
280
     1
340
1E
  0
SORTENTSTABLE
  5
7D7E
102
{ACAD_REACTORS
330
28B
102
}
330
28B
100
AcDbSortentsTable
330
1E
  0
XRECORD
  5
640A
102
{ACAD_REACTORS
330
28D
102
}
330
28D
100
AcDbXrecord
280
     1
340
1A
  0
XRECORD
  5
9BCF
102
{ACAD_REACTORS
330
9BCE
102
}
330
9BCE
100
AcDbXrecord
280
     1
 40
0.18
  0
LAYOUT
  5
21
102
{ACAD_XDICTIONARY
360
7FDC
102
}
102
{ACAD_REACTORS
330
19
102
}
330
19
100
AcDbPlotSettings
  1

  2
none_device
  4
Letter_(8.50_x_11.00_Inches)
  6

 40
6.349999904632568
 41
6.349999904632568
 42
6.350006103515625
 43
6.350006103515625
 44
215.8999938964844
 45
279.3999938964844
 46
0.0
 47
0.0
 48
0.0
 49
0.0
140
0.0
141
0.0
142
1.0
143
497.4563994367951
 70
 11952
 72
     0
 73
     1
 74
     0
  7
monochrome.ctb
 75
     0
147
0.0020102264261394
 76
     0
 77
     2
 78
   300
148
6198.056100199001
149
-14474.14953153637
100
AcDbLayout
  1
Model
 70
     1
 71
     0
 10
0.0
 20
0.0
 11
12.0
 21
9.0
 12
0.0
 22
0.0
 32
0.0
 14
0.0
 24
0.0
 34
0.0
 15
0.0
 25
0.0
 35
0.0
146
0.0
 13
0.0
 23
0.0
 33
0.0
 16
1.0
 26
0.0
 36
0.0
 17
0.0
 27
1.0
 37
0.0
 76
     0
330
1E
331
67ED
1001
ACAD_PSEXT
1000
なし
1000
なし
1000
適切ではありません
1000
新しいプロッタ環境設定名を選択しない限り、レイアウトは印刷されません。
1070
     0
  0
LAYOUT
  5
1D
102
{ACAD_REACTORS
330
19
102
}
330
19
100
AcDbPlotSettings
  1

  2
\\MEISEI-1\EPSON Stylus Photo EX3
  4

  6

 40
0.0
 41
0.0
 42
0.0
 43
0.0
 44
0.0
 45
0.0
 46
0.0
 47
0.0
 48
0.0
 49
0.0
140
0.0
141
0.0
142
1.0
143
1.0
 70
   688
 72
     0
 73
     0
 74
     5
  7
monochrome.ctb
 75
    16
147
1.0
 76
     0
 77
     2
 78
   300
148
0.0
149
0.0
100
AcDbLayout
  1
ﾚｲｱｳﾄ1
 70
     1
 71
     1
 10
0.0
 20
0.0
 11
12.0
 21
9.0
 12
0.0
 22
0.0
 32
0.0
 14
1.000000000000000E+20
 24
1.000000000000000E+20
 34
1.000000000000000E+20
 15
-1.000000000000000E+20
 25
-1.000000000000000E+20
 35
-1.000000000000000E+20
146
0.0
 13
0.0
 23
0.0
 33
0.0
 16
1.0
 26
0.0
 36
0.0
 17
0.0
 27
1.0
 37
0.0
 76
     0
330
1A
  0
MATERIAL
  5
67F8
102
{ACAD_XDICTIONARY
360
67F9
102
}
102
{ACAD_REACTORS
330
6412
102
}
330
6412
100
AcDbMaterial
  1
ByBlock
 72
     0
 43
0.0208333333333333
 43
0.0
 43
0.0
 43
0.0
 43
0.0
 43
0.0208333333333333
 43
0.0
 43
0.0
 43
0.0
 43
0.0
 43
1.0
 43
0.0
 43
0.0
 43
0.0
 43
0.0
 43
1.0
 77
     0
 47
0.0208333333333333
 47
0.0
 47
0.0
 47
0.0
 47
0.0
 47
0.0208333333333333
 47
0.0
 47
0.0
 47
0.0
 47
0.0
 47
1.0
 47
0.0
 47
0.0
 47
0.0
 47
0.0
 47
1.0
171
     0
 49
0.0208333333333333
 49
0.0
 49
0.0
 49
0.0
 49
0.0
 49
0.0208333333333333
 49
0.0
 49
0.0
 49
0.0
 49
0.0
 49
1.0
 49
0.0
 49
0.0
 49
0.0
 49
0.0
 49
1.0
175
     0
142
0.0208333333333333
142
0.0
142
0.0
142
0.0
142
0.0
142
0.0208333333333333
142
0.0
142
0.0
142
0.0
142
0.0
142
1.0
142
0.0
142
0.0
142
0.0
142
0.0
142
1.0
179
     0
144
0.0208333333333333
144
0.0
144
0.0
144
0.0
144
0.0
144
0.0208333333333333
144
0.0
144
0.0
144
0.0
144
0.0
144
1.0
144
0.0
144
0.0
144
0.0
144
0.0
144
1.0
147
0.0208333333333333
147
0.0
147
0.0
147
0.0
147
0.0
147
0.0208333333333333
147
0.0
147
0.0
147
0.0
147
0.0
147
1.0
147
0.0
147
0.0
147
0.0
147
0.0
147
1.0
  0
MATERIAL
  5
67F0
102
{ACAD_XDICTIONARY
360
67F1
102
}
102
{ACAD_REACTORS
330
6412
102
}
330
6412
100
AcDbMaterial
  1
ByLayer
 72
     0
 43
0.0208333333333333
 43
0.0
 43
0.0
 43
0.0
 43
0.0
 43
0.0208333333333333
 43
0.0
 43
0.0
 43
0.0
 43
0.0
 43
1.0
 43
0.0
 43
0.0
 43
0.0
 43
0.0
 43
1.0
 77
     0
 47
0.0208333333333333
 47
0.0
 47
0.0
 47
0.0
 47
0.0
 47
0.0208333333333333
 47
0.0
 47
0.0
 47
0.0
 47
0.0
 47
1.0
 47
0.0
 47
0.0
 47
0.0
 47
0.0
 47
1.0
171
     0
 49
0.0208333333333333
 49
0.0
 49
0.0
 49
0.0
 49
0.0
 49
0.0208333333333333
 49
0.0
 49
0.0
 49
0.0
 49
0.0
 49
1.0
 49
0.0
 49
0.0
 49
0.0
 49
0.0
 49
1.0
175
     0
142
0.0208333333333333
142
0.0
142
0.0
142
0.0
142
0.0
142
0.0208333333333333
142
0.0
142
0.0
142
0.0
142
0.0
142
1.0
142
0.0
142
0.0
142
0.0
142
0.0
142
1.0
179
     0
144
0.0208333333333333
144
0.0
144
0.0
144
0.0
144
0.0
144
0.0208333333333333
144
0.0
144
0.0
144
0.0
144
0.0
144
1.0
144
0.0
144
0.0
144
0.0
144
0.0
144
1.0
147
0.0208333333333333
147
0.0
147
0.0
147
0.0
147
0.0
147
0.0208333333333333
147
0.0
147
0.0
147
0.0
147
0.0
147
1.0
147
0.0
147
0.0
147
0.0
147
0.0
147
1.0
  0
MATERIAL
  5
6800
102
{ACAD_XDICTIONARY
360
6801
102
}
102
{ACAD_REACTORS
330
6412
102
}
330
6412
100
AcDbMaterial
  1
Global
 72
     0
 43
0.0208333333333333
 43
0.0
 43
0.0
 43
0.0
 43
0.0
 43
0.0208333333333333
 43
0.0
 43
0.0
 43
0.0
 43
0.0
 43
1.0
 43
0.0
 43
0.0
 43
0.0
 43
0.0
 43
1.0
 77
     0
 47
0.0208333333333333
 47
0.0
 47
0.0
 47
0.0
 47
0.0
 47
0.0208333333333333
 47
0.0
 47
0.0
 47
0.0
 47
0.0
 47
1.0
 47
0.0
 47
0.0
 47
0.0
 47
0.0
 47
1.0
171
     0
 49
0.0208333333333333
 49
0.0
 49
0.0
 49
0.0
 49
0.0
 49
0.0208333333333333
 49
0.0
 49
0.0
 49
0.0
 49
0.0
 49
1.0
 49
0.0
 49
0.0
 49
0.0
 49
0.0
 49
1.0
175
     0
142
0.0208333333333333
142
0.0
142
0.0
142
0.0
142
0.0
142
0.0208333333333333
142
0.0
142
0.0
142
0.0
142
0.0
142
1.0
142
0.0
142
0.0
142
0.0
142
0.0
142
1.0
179
     0
144
0.0208333333333333
144
0.0
144
0.0
144
0.0
144
0.0
144
0.0208333333333333
144
0.0
144
0.0
144
0.0
144
0.0
144
1.0
144
0.0
144
0.0
144
0.0
144
0.0
144
1.0
147
0.0208333333333333
147
0.0
147
0.0
147
0.0
147
0.0
147
0.0208333333333333
147
0.0
147
0.0
147
0.0
147
0.0
147
1.0
147
0.0
147
0.0
147
0.0
147
0.0
147
1.0
  0
MLEADERSTYLE
  5
6834
102
{ACAD_XDICTIONARY
360
9BCB
102
}
102
{ACAD_REACTORS
330
6833
102
}
330
6833
100
AcDbMLeaderStyle
170
     2
171
     1
172
     0
 90
        2
 40
0.0
 41
0.0
173
     1
 91
-1056964608
340
13
 92
       -2
290
     1
 42
0.09
291
     1
 43
0.36
  3
Standard
 44
0.18
300

342
11
174
     1
178
     6
175
     1
176
     0
 93
-1056964608
 45
0.18
292
     0
297
     0
 46
0.18
 94
-1056964608
 47
1.0
 49
1.0
140
1.0
293
     1
141
0.0
294
     1
177
     0
142
1.0
295
     0
296
     0
143
0.125
1001
ACAD_MLEADERVER
1070
     2
  0
MLINESTYLE
  5
17
102
{ACAD_REACTORS
330
16
102
}
330
16
100
AcDbMlineStyle
  2
STANDARD
 70
     0
  3

 62
   256
 51
90.0
 52
90.0
 71
     2
 49
0.5
 62
   256
  6
BYLAYER
 49
-0.5
 62
   256
  6
BYLAYER
  0
ACDBPLACEHOLDER
  5
F
102
{ACAD_REACTORS
330
E
102
}
330
E
  0
SCALE
  5
6822
102
{ACAD_REACTORS
330
6821
102
}
330
6821
100
AcDbScale
 70
     0
300
1:1
140
1.0
141
1.0
290
     1
  0
SCALE
  5
6823
102
{ACAD_REACTORS
330
6821
102
}
330
6821
100
AcDbScale
 70
     0
300
1/128" = 1'-0"
140
0.0078125
141
12.0
290
     0
  0
SCALE
  5
6824
102
{ACAD_REACTORS
330
6821
102
}
330
6821
100
AcDbScale
 70
     0
300
1/64" = 1'-0"
140
0.015625
141
12.0
290
     0
  0
SCALE
  5
6825
102
{ACAD_REACTORS
330
6821
102
}
330
6821
100
AcDbScale
 70
     0
300
1/32" = 1'-0"
140
0.03125
141
12.0
290
     0
  0
SCALE
  5
6826
102
{ACAD_REACTORS
330
6821
102
}
330
6821
100
AcDbScale
 70
     0
300
1/16" = 1'-0"
140
0.0625
141
12.0
290
     0
  0
SCALE
  5
6827
102
{ACAD_REACTORS
330
6821
102
}
330
6821
100
AcDbScale
 70
     0
300
3/32" = 1'-0"
140
0.09375
141
12.0
290
     0
  0
SCALE
  5
6828
102
{ACAD_REACTORS
330
6821
102
}
330
6821
100
AcDbScale
 70
     0
300
1/8" = 1'-0"
140
0.125
141
12.0
290
     0
  0
SCALE
  5
6829
102
{ACAD_REACTORS
330
6821
102
}
330
6821
100
AcDbScale
 70
     0
300
3/16" = 1'-0"
140
0.1875
141
12.0
290
     0
  0
SCALE
  5
682A
102
{ACAD_REACTORS
330
6821
102
}
330
6821
100
AcDbScale
 70
     0
300
1/4" = 1'-0"
140
0.25
141
12.0
290
     0
  0
SCALE
  5
682B
102
{ACAD_REACTORS
330
6821
102
}
330
6821
100
AcDbScale
 70
     0
300
3/8" = 1'-0"
140
0.375
141
12.0
290
     0
  0
SCALE
  5
682C
102
{ACAD_REACTORS
330
6821
102
}
330
6821
100
AcDbScale
 70
     0
300
1/2" = 1'-0"
140
0.5
141
12.0
290
     0
  0
SCALE
  5
682D
102
{ACAD_REACTORS
330
6821
102
}
330
6821
100
AcDbScale
 70
     0
300
3/4" = 1'-0"
140
0.75
141
12.0
290
     0
  0
SCALE
  5
682E
102
{ACAD_REACTORS
330
6821
102
}
330
6821
100
AcDbScale
 70
     0
300
1" = 1'-0"
140
1.0
141
12.0
290
     0
  0
SCALE
  5
682F
102
{ACAD_REACTORS
330
6821
102
}
330
6821
100
AcDbScale
 70
     0
300
1-1/2" = 1'-0"
140
1.5
141
12.0
290
     0
  0
SCALE
  5
6830
102
{ACAD_REACTORS
330
6821
102
}
330
6821
100
AcDbScale
 70
     0
300
3" = 1'-0"
140
3.0
141
12.0
290
     0
  0
SCALE
  5
6831
102
{ACAD_REACTORS
330
6821
102
}
330
6821
100
AcDbScale
 70
     0
300
6" = 1'-0"
140
6.0
141
12.0
290
     0
  0
SCALE
  5
6832
102
{ACAD_REACTORS
330
6821
102
}
330
6821
100
AcDbScale
 70
     0
300
1'-0" = 1'-0"
140
12.0
141
12.0
290
     0
  0
TABLESTYLE
  5
6415
102
{ACAD_XDICTIONARY
360
8F42
102
}
102
{ACAD_REACTORS
330
6414
102
}
330
6414
100
AcDbTableStyle
  3
Standard
 70
     0
 71
     0
 40
0.06
 41
0.06
280
     0
281
     0
  7
STANDARD
140
0.18
170
     2
 62
     0
 63
     7
283
     0
274
    -2
284
     1
 64
     0
275
    -2
285
     1
 65
     0
276
    -2
286
     1
 66
     0
277
    -2
287
     1
 67
     0
278
    -2
288
     1
 68
     0
279
    -2
289
     1
 69
     0
  7
STANDARD
140
0.25
170
     5
 62
     0
 63
     7
283
     0
274
    -2
284
     1
 64
     0
275
    -2
285
     1
 65
     0
276
    -2
286
     1
 66
     0
277
    -2
287
     1
 67
     0
278
    -2
288
     1
 68
     0
279
    -2
289
     1
 69
     0
  7
STANDARD
140
0.18
170
     5
 62
     0
 63
     7
283
     0
274
    -2
284
     1
 64
     0
275
    -2
285
     1
 65
     0
276
    -2
286
     1
 66
     0
277
    -2
287
     1
 67
     0
278
    -2
288
     1
 68
     0
279
    -2
289
     1
 69
     0
  0
VISUALSTYLE
  5
680E
102
{ACAD_XDICTIONARY
360
9BDE
102
}
102
{ACAD_REACTORS
330
6808
102
}
330
6808
100
AcDbVisualStyle
  2
2dWireframe
 70
     4
 71
     0
 72
     2
 73
     0
 90
        0
 40
-0.6
 41
-30.0
 62
     5
 63
     7
421
 16777215
 74
     1
 91
        4
 64
     7
 65
   257
 75
     1
175
     1
 42
1.0
 92
        0
 66
   257
 43
1.0
 76
     1
 77
     6
 78
     2
 67
     7
 79
     5
170
     0
171
     0
290
     0
174
     0
 93
        1
 44
0.0
173
     0
291
     0
 45
0.0
1001
ACAD
1000
AcDbSavedByObjectVersion
1070
     0
  0
VISUALSTYLE
  5
680D
102
{ACAD_XDICTIONARY
360
9BDC
102
}
102
{ACAD_REACTORS
330
6808
102
}
330
6808
100
AcDbVisualStyle
  2
Basic
 70
     7
 71
     1
 72
     0
 73
     1
 90
        0
 40
-0.6
 41
-30.0
 62
     5
 63
     7
421
 16777215
 74
     0
 91
        4
 64
     7
 65
   257
 75
     1
175
     1
 42
1.0
 92
        8
 66
     7
 43
1.0
 76
     1
 77
     6
 78
     2
 67
     7
 79
     5
170
     0
171
     0
290
     0
174
     0
 93
        1
 44
0.0
173
     0
291
     1
 45
0.0
1001
ACAD
1000
AcDbSavedByObjectVersion
1070
     0
  0
VISUALSTYLE
  5
6814
102
{ACAD_XDICTIONARY
360
9BEA
102
}
102
{ACAD_REACTORS
330
6808
102
}
330
6808
100
AcDbVisualStyle
  2
Brighten
 70
    12
 71
     2
 72
     2
 73
     0
 90
        0
 40
-0.6
 41
-30.0
 62
     5
 63
     7
421
 16777215
 74
     1
 91
        4
 64
     7
 65
   257
 75
     1
175
     1
 42
1.0
 92
        8
 66
     7
 43
1.0
 76
     1
 77
     6
 78
     2
 67
     7
 79
     5
170
     0
171
     0
290
     0
174
     0
 93
        1
 44
50.0
173
     0
291
     1
 45
0.0
1001
ACAD
1000
AcDbSavedByObjectVersion
1070
     0
  0
VISUALSTYLE
  5
6818
102
{ACAD_XDICTIONARY
360
9BF2
102
}
102
{ACAD_REACTORS
330
6808
102
}
330
6808
100
AcDbVisualStyle
  2
ColorChange
 70
    16
 71
     2
 72
     2
 73
     3
 90
        0
 40
-0.6
 41
-30.0
 62
     5
 63
     8
421
  8421504
 74
     1
 91
        4
 64
     7
 65
   257
 75
     1
175
     1
 42
1.0
 92
        8
 66
     8
424
  8421504
 43
1.0
 76
     1
 77
     6
 78
     2
 67
     7
 79
     5
170
     0
171
     0
290
     0
174
     0
 93
        1
 44
0.0
173
     0
291
     1
 45
0.0
1001
ACAD
1000
AcDbSavedByObjectVersion
1070
     0
  0
VISUALSTYLE
  5
6811
102
{ACAD_XDICTIONARY
360
9BE4
102
}
102
{ACAD_REACTORS
330
6808
102
}
330
6808
100
AcDbVisualStyle
  2
Conceptual
 70
     9
 71
     3
 72
     2
 73
     0
 90
        0
 40
-0.6
 41
-30.0
 62
     5
 63
     7
421
 16777215
 74
     2
 91
        2
 64
     7
 65
   257
 75
     1
175
     1
 42
179.0
 92
        8
 66
     7
 43
1.0
 76
     1
 77
     6
 78
     2
 67
     7
 79
     3
170
     0
171
     0
290
     0
174
     0
 93
        1
 44
0.0
173
     0
291
     0
 45
0.0
1001
ACAD
1000
AcDbSavedByObjectVersion
1070
     0
  0
VISUALSTYLE
  5
6813
102
{ACAD_XDICTIONARY
360
9BE8
102
}
102
{ACAD_REACTORS
330
6808
102
}
330
6808
100
AcDbVisualStyle
  2
Dim
 70
    11
 71
     2
 72
     2
 73
     0
 90
        0
 40
-0.6
 41
-30.0
 62
     5
 63
     7
421
 16777215
 74
     1
 91
        4
 64
     7
 65
   257
 75
     1
175
     1
 42
1.0
 92
        8
 66
     7
 43
1.0
 76
     1
 77
     6
 78
     2
 67
     7
 79
     5
170
     0
171
     0
290
     0
174
     0
 93
        1
 44
-50.0
173
     0
291
     1
 45
0.0
1001
ACAD
1000
AcDbSavedByObjectVersion
1070
     0
  0
VISUALSTYLE
  5
6820
102
{ACAD_XDICTIONARY
360
9C02
102
}
102
{ACAD_REACTORS
330
6808
102
}
330
6808
100
AcDbVisualStyle
  2
EdgeColorOff
 70
    22
 71
     2
 72
     2
 73
     0
 90
        0
 40
-0.6
 41
-30.0
 62
     5
 63
     7
421
 16777215
 74
     1
 91
        4
 64
     7
 65
   257
 75
     1
175
     1
 42
1.0
 92
        8
 66
     7
 43
1.0
 76
     1
 77
     6
 78
     2
 67
     7
 79
     5
170
     0
171
     0
290
     0
174
     0
 93
        1
 44
0.0
173
     0
291
     1
 45
0.0
1001
ACAD
1000
AcDbSavedByObjectVersion
1070
     0
  0
VISUALSTYLE
  5
6817
102
{ACAD_XDICTIONARY
360
9BF0
102
}
102
{ACAD_REACTORS
330
6808
102
}
330
6808
100
AcDbVisualStyle
  2
Facepattern
 70
    15
 71
     2
 72
     2
 73
     0
 90
        0
 40
-0.6
 41
-30.0
 62
     5
 63
     7
421
 16777215
 74
     1
 91
        4
 64
     7
 65
   257
 75
     1
175
     1
 42
1.0
 92
        8
 66
     7
 43
1.0
 76
     1
 77
     6
 78
     2
 67
     7
 79
     5
170
     0
171
     0
290
     0
174
     0
 93
        1
 44
0.0
173
     0
291
     1
 45
0.0
1001
ACAD
1000
AcDbSavedByObjectVersion
1070
     0
  0
VISUALSTYLE
  5
6809
102
{ACAD_XDICTIONARY
360
9BD4
102
}
102
{ACAD_REACTORS
330
6808
102
}
330
6808
100
AcDbVisualStyle
  2
Flat
 70
     0
 71
     2
 72
     1
 73
     1
 90
        2
 40
-0.6
 41
30.0
 62
     5
 63
     7
421
 16777215
 74
     0
 91
        0
 64
     7
 65
   257
 75
     1
175
     1
 42
1.0
 92
        8
 66
     7
 43
1.0
 76
     1
 77
     6
 78
     2
 67
     7
 79
     5
170
     0
171
     0
290
     0
174
     0
 93
       13
 44
0.0
173
     0
291
     1
 45
0.0
1001
ACAD
1000
AcDbSavedByObjectVersion
1070
     0
  0
VISUALSTYLE
  5
680A
102
{ACAD_XDICTIONARY
360
9BD6
102
}
102
{ACAD_REACTORS
330
6808
102
}
330
6808
100
AcDbVisualStyle
  2
FlatWithEdges
 70
     1
 71
     2
 72
     1
 73
     1
 90
        2
 40
-0.6
 41
30.0
 62
     5
 63
     7
421
 16777215
 74
     1
 91
        0
 64
     7
 65
   257
 75
     1
175
     1
 42
1.0
 92
        0
 66
   257
 43
1.0
 76
     1
 77
     6
 78
     2
 67
     7
 79
     5
170
     0
171
     0
290
     0
174
     0
 93
       13
 44
0.0
173
     0
291
     1
 45
0.0
1001
ACAD
1000
AcDbSavedByObjectVersion
1070
     0
  0
VISUALSTYLE
  5
680B
102
{ACAD_XDICTIONARY
360
9BD8
102
}
102
{ACAD_REACTORS
330
6808
102
}
330
6808
100
AcDbVisualStyle
  2
Gouraud
 70
     2
 71
     2
 72
     2
 73
     1
 90
        2
 40
-0.6
 41
30.0
 62
     5
 63
     7
421
 16777215
 74
     0
 91
        0
 64
     7
 65
   257
 75
     1
175
     1
 42
1.0
 92
        0
 66
     7
 43
1.0
 76
     1
 77
     6
 78
     2
 67
     7
 79
     5
170
     0
171
     0
290
     0
174
     0
 93
       13
 44
0.0
173
     0
291
     1
 45
0.0
1001
ACAD
1000
AcDbSavedByObjectVersion
1070
     0
  0
VISUALSTYLE
  5
680C
102
{ACAD_XDICTIONARY
360
9BDA
102
}
102
{ACAD_REACTORS
330
6808
102
}
330
6808
100
AcDbVisualStyle
  2
GouraudWithEdges
 70
     3
 71
     2
 72
     2
 73
     1
 90
        2
 40
-0.6
 41
30.0
 62
     5
 63
     7
421
 16777215
 74
     1
 91
        0
 64
     7
 65
   257
 75
     1
175
     1
 42
1.0
 92
        0
 66
   257
 43
1.0
 76
     1
 77
     6
 78
     2
 67
     7
 79
     5
170
     0
171
     0
290
     0
174
     0
 93
       13
 44
0.0
173
     0
291
     1
 45
0.0
1001
ACAD
1000
AcDbSavedByObjectVersion
1070
     0
  0
VISUALSTYLE
  5
6810
102
{ACAD_XDICTIONARY
360
9BE2
102
}
102
{ACAD_REACTORS
330
6808
102
}
330
6808
100
AcDbVisualStyle
  2
Hidden
 70
     6
 71
     1
 72
     2
 73
     2
 90
        0
 40
-0.6
 41
-30.0
 62
     5
 63
     7
421
 16777215
 74
     2
 91
        2
 64
     7
 65
   257
 75
     2
175
     1
 42
40.0
 92
        0
 66
   257
 43
1.0
 76
     1
 77
     6
 78
     2
 67
     7
 79
     3
170
     0
171
     0
290
     0
174
     0
 93
        1
 44
0.0
173
     0
291
     0
 45
0.0
1001
ACAD
1000
AcDbSavedByObjectVersion
1070
     0
  0
VISUALSTYLE
  5
681E
102
{ACAD_XDICTIONARY
360
9BFE
102
}
102
{ACAD_REACTORS
330
6808
102
}
330
6808
100
AcDbVisualStyle
  2
JitterOff
 70
    20
 71
     2
 72
     2
 73
     0
 90
        0
 40
-0.6
 41
-30.0
 62
     5
 63
     7
421
 16777215
 74
     1
 91
        4
 64
     7
 65
   257
 75
     1
175
     1
 42
1.0
 92
       10
 66
     7
 43
1.0
 76
     1
 77
     6
 78
     2
 67
     7
 79
     5
170
     0
171
     0
290
     0
174
     0
 93
        1
 44
0.0
173
     0
291
     1
 45
0.0
1001
ACAD
1000
AcDbSavedByObjectVersion
1070
     0
  0
VISUALSTYLE
  5
6816
102
{ACAD_XDICTIONARY
360
9BEE
102
}
102
{ACAD_REACTORS
330
6808
102
}
330
6808
100
AcDbVisualStyle
  2
Linepattern
 70
    14
 71
     2
 72
     2
 73
     0
 90
        0
 40
-0.6
 41
-30.0
 62
     5
 63
     7
421
 16777215
 74
     1
 91
        4
 64
     7
 65
   257
 75
     7
175
     7
 42
1.0
 92
        8
 66
     7
 43
1.0
 76
     1
 77
     6
 78
     2
 67
     7
 79
     5
170
     0
171
     0
290
     0
174
     0
 93
        1
 44
0.0
173
     0
291
     1
 45
0.0
1001
ACAD
1000
AcDbSavedByObjectVersion
1070
     0
  0
VISUALSTYLE
  5
681F
102
{ACAD_XDICTIONARY
360
9C00
102
}
102
{ACAD_REACTORS
330
6808
102
}
330
6808
100
AcDbVisualStyle
  2
OverhangOff
 70
    21
 71
     2
 72
     2
 73
     0
 90
        0
 40
-0.6
 41
-30.0
 62
     5
 63
     7
421
 16777215
 74
     1
 91
        4
 64
     7
 65
   257
 75
     1
175
     1
 42
1.0
 92
        9
 66
     7
 43
1.0
 76
     1
 77
     6
 78
     2
 67
     7
 79
     5
170
     0
171
     0
290
     0
174
     0
 93
        1
 44
0.0
173
     0
291
     1
 45
0.0
1001
ACAD
1000
AcDbSavedByObjectVersion
1070
     0
  0
VISUALSTYLE
  5
6812
102
{ACAD_XDICTIONARY
360
9BE6
102
}
102
{ACAD_REACTORS
330
6808
102
}
330
6808
100
AcDbVisualStyle
  2
Realistic
 70
     8
 71
     2
 72
     2
 73
     0
 90
        2
 40
-0.6
 41
30.0
 62
     5
 63
     7
421
 16777215
 74
     0
 91
        0
 64
     7
 65
   257
 75
     1
175
     1
 42
1.0
 92
        8
 66
   257
 43
1.0
 76
     1
 77
     6
 78
     2
 67
     7
 79
     3
170
     0
171
     0
290
     0
174
     0
 93
       13
 44
0.0
173
     0
291
     0
 45
0.0
1001
ACAD
1000
AcDbSavedByObjectVersion
1070
     0
  0
VISUALSTYLE
  5
681D
102
{ACAD_XDICTIONARY
360
9BFC
102
}
102
{ACAD_REACTORS
330
6808
102
}
330
6808
100
AcDbVisualStyle
  2
Shaded
 70
    27
 71
     2
 72
     2
 73
     1
 90
        2
 40
-0.6
 41
30.0
 62
     5
 63
     7
421
 16777215
 74
     0
 91
        4
 64
     7
 65
   257
 75
     1
175
     1
 42
1.0
 92
        8
 66
   257
 43
1.0
 76
     1
 77
     6
 78
     2
 67
     8
425
  7895160
 79
     3
170
     0
171
     0
290
     0
174
     0
 93
        5
 44
0.0
173
     0
291
     0
 45
0.0
1001
ACAD
1000
AcDbSavedByObjectVersion
1070
     0
  0
VISUALSTYLE
  5
681C
102
{ACAD_XDICTIONARY
360
9BFA
102
}
102
{ACAD_REACTORS
330
6808
102
}
330
6808
100
AcDbVisualStyle
  2
Shaded with edges
 70
    26
 71
     2
 72
     2
 73
     1
 90
        2
 40
-0.6
 41
30.0
 62
     5
 63
     7
421
 16777215
 74
     1
 91
       10
 64
     7
 65
   257
 75
     2
175
     1
 42
1.0
 92
        8
 66
   257
 43
1.0
 76
     1
 77
     6
 78
     2
 67
     7
 79
     3
170
     0
171
     0
290
     0
174
     0
 93
        5
 44
0.0
173
     0
291
     0
 45
0.0
1001
ACAD
1000
AcDbSavedByObjectVersion
1070
     0
  0
VISUALSTYLE
  5
6819
102
{ACAD_XDICTIONARY
360
9BF4
102
}
102
{ACAD_REACTORS
330
6808
102
}
330
6808
100
AcDbVisualStyle
  2
Shades of Gray
 70
    23
 71
     2
 72
     2
 73
     3
 90
        0
 40
-0.6
 41
-30.0
 62
     5
 63
     7
421
 16777215
 74
     2
 91
        2
 64
     7
 65
     7
 75
     1
175
     1
 42
40.0
 92
        8
 66
     7
 43
1.0
 76
     1
 77
     6
 78
     2
 67
     7
 79
     3
170
     0
171
     0
290
     0
174
     0
 93
        1
 44
0.0
173
     0
291
     0
 45
0.0
1001
ACAD
1000
AcDbSavedByObjectVersion
1070
     0
  0
VISUALSTYLE
  5
681A
102
{ACAD_XDICTIONARY
360
9BF6
102
}
102
{ACAD_REACTORS
330
6808
102
}
330
6808
100
AcDbVisualStyle
  2
Sketchy
 70
    24
 71
     1
 72
     2
 73
     2
 90
        0
 40
-0.6
 41
-30.0
 62
     5
 63
     7
421
 16777215
 74
     2
 91
        2
 64
     7
 65
     7
 75
     1
175
     1
 42
40.0
 92
       11
 66
     7
 43
1.0
 76
     1
 77
     6
 78
     2
 67
     7
 79
     6
170
     0
171
     0
290
     0
174
     0
 93
        1
 44
0.0
173
     0
291
     0
 45
0.0
1001
ACAD
1000
AcDbSavedByObjectVersion
1070
     0
  0
VISUALSTYLE
  5
6815
102
{ACAD_XDICTIONARY
360
9BEC
102
}
102
{ACAD_REACTORS
330
6808
102
}
330
6808
100
AcDbVisualStyle
  2
Thicken
 70
    13
 71
     2
 72
     2
 73
     0
 90
        0
 40
-0.6
 41
-30.0
 62
     5
 63
     7
421
 16777215
 74
     1
 91
        4
 64
     7
 65
   257
 75
     1
175
     1
 42
1.0
 92
       12
 66
     7
 43
1.0
 76
     1
 77
     6
 78
     2
 67
     7
 79
     5
170
     0
171
     0
290
     0
174
     0
 93
        1
 44
0.0
173
     0
291
     1
 45
0.0
1001
ACAD
1000
AcDbSavedByObjectVersion
1070
     0
  0
VISUALSTYLE
  5
680F
102
{ACAD_XDICTIONARY
360
9BE0
102
}
102
{ACAD_REACTORS
330
6808
102
}
330
6808
100
AcDbVisualStyle
  2
Wireframe
 70
     5
 71
     0
 72
     2
 73
     0
 90
        0
 40
-0.6
 41
-30.0
 62
     5
 63
     7
421
 16777215
 74
     1
 91
        4
 64
     7
 65
   257
 75
     1
175
     1
 42
1.0
 92
        0
 66
   257
 43
1.0
 76
     1
 77
     6
 78
     2
 67
     7
 79
     3
170
     0
171
     0
290
     0
174
     0
 93
        1
 44
0.0
173
     0
291
     0
 45
0.0
1001
ACAD
1000
AcDbSavedByObjectVersion
1070
     0
  0
VISUALSTYLE
  5
681B
102
{ACAD_XDICTIONARY
360
9BF8
102
}
102
{ACAD_REACTORS
330
6808
102
}
330
6808
100
AcDbVisualStyle
  2
X-Ray
 70
    25
 71
     2
 72
     2
 73
     1
 90
        1
 40
0.5
 41
-30.0
 62
     5
 63
     7
421
 16777215
 74
     1
 91
        0
 64
     7
 65
   257
 75
     1
175
     1
 42
1.0
 92
        8
 66
     7
 43
1.0
 76
     1
 77
     6
 78
     2
 67
     7
 79
     3
170
     0
171
     0
290
     0
174
     0
 93
       13
 44
0.0
173
     0
291
     0
 45
0.0
1001
ACAD
1000
AcDbSavedByObjectVersion
1070
     0
  0
DICTIONARYVAR
  5
7FE2
102
{ACAD_REACTORS
330
169
102
}
330
169
100
DictionaryVariables
280
     0
  1
1:1
  0
DICTIONARYVAR
  5
7FE0
102
{ACAD_REACTORS
330
169
102
}
330
169
100
DictionaryVariables
280
     0
  1
STANDARD
  0
DICTIONARYVAR
  5
67EE
102
{ACAD_REACTORS
330
169
102
}
330
169
100
DictionaryVariables
280
     0
  1
STANDARD
  0
DICTIONARYVAR
  5
16A
102
{ACAD_REACTORS
330
169
102
}
330
169
100
DictionaryVariables
280
     0
  1
1
  0
DICTIONARYVAR
  5
7FE4
102
{ACAD_REACTORS
330
169
102
}
330
169
100
DictionaryVariables
280
     0
  1
1
  0
DICTIONARYVAR
  5
7FE5
102
{ACAD_REACTORS
330
169
102
}
330
169
100
DictionaryVariables
280
     0
  1
15
  0
DICTIONARYVAR
  5
7FE3
102
{ACAD_REACTORS
330
169
102
}
330
169
100
DictionaryVariables
280
     0
  1
0
  0
DICTIONARYVAR
  5
7FE1
102
{ACAD_REACTORS
330
169
102
}
330
169
100
DictionaryVariables
280
     0
  1
0
  0
XRECORD
  5
177
102
{ACAD_REACTORS
330
176
102
}
330
176
100
AcDbXrecord
280
     1
 91
      476
330
179
 90
        8
 62
     7
370
    -3
331
15
  1
Color_7
330
178
 90
        8
 62
     7
370
    -3
331
15
  1
Color_7
330
128
 90
        0
 62
     7
370
    -3
331
15
  1
Color_7
330
10
 90
        8
 62
     7
370
    -3
331
15
  1
Color_7
  0
DICTIONARY
  5
7FDC
330
21
100
AcDbDictionary
280
     1
281
     1
  3
ADSK_XREC_LAYOUTTHUMBNAIL
360
7FDD
  0
DICTIONARY
  5
67F9
330
67F8
100
AcDbDictionary
280
     1
281
     1
  3
ACAD_XREC_ROUNDTRIP
360
9BD2
  3
BUMPTILE
360
67FB
  3
DIFFUSETILE
360
67FA
  3
OPACITYTILE
360
67FE
  3
REFLECTIONTILE
360
67FD
  3
REFRACTIONTILE
360
67FF
  3
SPECULARTILE
360
67FC
  0
DICTIONARY
  5
67F1
330
67F0
100
AcDbDictionary
280
     1
281
     1
  3
ACAD_XREC_ROUNDTRIP
360
9BD1
  3
BUMPTILE
360
67F3
  3
DIFFUSETILE
360
67F2
  3
OPACITYTILE
360
67F6
  3
REFLECTIONTILE
360
67F5
  3
REFRACTIONTILE
360
67F7
  3
SPECULARTILE
360
67F4
  0
DICTIONARY
  5
6801
330
6800
100
AcDbDictionary
280
     1
281
     1
  3
ACAD_XREC_ROUNDTRIP
360
9BD3
  3
BUMPTILE
360
6803
  3
DIFFUSETILE
360
6802
  3
OPACITYTILE
360
6806
  3
REFLECTIONTILE
360
6805
  3
REFRACTIONTILE
360
6807
  3
SPECULARTILE
360
6804
  0
DICTIONARY
  5
9BCB
330
6834
100
AcDbDictionary
280
     1
281
     1
  3
ACAD_XREC_ROUNDTRIP
360
9BCC
  0
DICTIONARY
  5
8F42
330
6415
100
AcDbDictionary
280
     1
281
     1
  3
ACAD_ROUNDTRIP_2008_TABLESTYLE_CELLSTYLEMAP
360
9BCA
  3
ACAD_XREC_ROUNDTRIP
360
9BD0
  0
DICTIONARY
  5
9BDE
330
680E
100
AcDbDictionary
280
     1
281
     1
  3
ACAD_XREC_ROUNDTRIP
360
9BDF
  0
DICTIONARY
  5
9BDC
330
680D
100
AcDbDictionary
280
     1
281
     1
  3
ACAD_XREC_ROUNDTRIP
360
9BDD
  0
DICTIONARY
  5
9BEA
330
6814
100
AcDbDictionary
280
     1
281
     1
  3
ACAD_XREC_ROUNDTRIP
360
9BEB
  0
DICTIONARY
  5
9BF2
330
6818
100
AcDbDictionary
280
     1
281
     1
  3
ACAD_XREC_ROUNDTRIP
360
9BF3
  0
DICTIONARY
  5
9BE4
330
6811
100
AcDbDictionary
280
     1
281
     1
  3
ACAD_XREC_ROUNDTRIP
360
9BE5
  0
DICTIONARY
  5
9BE8
330
6813
100
AcDbDictionary
280
     1
281
     1
  3
ACAD_XREC_ROUNDTRIP
360
9BE9
  0
DICTIONARY
  5
9C02
330
6820
100
AcDbDictionary
280
     1
281
     1
  3
ACAD_XREC_ROUNDTRIP
360
9C03
  0
DICTIONARY
  5
9BF0
330
6817
100
AcDbDictionary
280
     1
281
     1
  3
ACAD_XREC_ROUNDTRIP
360
9BF1
  0
DICTIONARY
  5
9BD4
330
6809
100
AcDbDictionary
280
     1
281
     1
  3
ACAD_XREC_ROUNDTRIP
360
9BD5
  0
DICTIONARY
  5
9BD6
330
680A
100
AcDbDictionary
280
     1
281
     1
  3
ACAD_XREC_ROUNDTRIP
360
9BD7
  0
DICTIONARY
  5
9BD8
330
680B
100
AcDbDictionary
280
     1
281
     1
  3
ACAD_XREC_ROUNDTRIP
360
9BD9
  0
DICTIONARY
  5
9BDA
330
680C
100
AcDbDictionary
280
     1
281
     1
  3
ACAD_XREC_ROUNDTRIP
360
9BDB
  0
DICTIONARY
  5
9BE2
330
6810
100
AcDbDictionary
280
     1
281
     1
  3
ACAD_XREC_ROUNDTRIP
360
9BE3
  0
DICTIONARY
  5
9BFE
330
681E
100
AcDbDictionary
280
     1
281
     1
  3
ACAD_XREC_ROUNDTRIP
360
9BFF
  0
DICTIONARY
  5
9BEE
330
6816
100
AcDbDictionary
280
     1
281
     1
  3
ACAD_XREC_ROUNDTRIP
360
9BEF
  0
DICTIONARY
  5
9C00
330
681F
100
AcDbDictionary
280
     1
281
     1
  3
ACAD_XREC_ROUNDTRIP
360
9C01
  0
DICTIONARY
  5
9BE6
330
6812
100
AcDbDictionary
280
     1
281
     1
  3
ACAD_XREC_ROUNDTRIP
360
9BE7
  0
DICTIONARY
  5
9BFC
330
681D
100
AcDbDictionary
280
     1
281
     1
  3
ACAD_XREC_ROUNDTRIP
360
9BFD
  0
DICTIONARY
  5
9BFA
330
681C
100
AcDbDictionary
280
     1
281
     1
  3
ACAD_XREC_ROUNDTRIP
360
9BFB
  0
DICTIONARY
  5
9BF4
330
6819
100
AcDbDictionary
280
     1
281
     1
  3
ACAD_XREC_ROUNDTRIP
360
9BF5
  0
DICTIONARY
  5
9BF6
330
681A
100
AcDbDictionary
280
     1
281
     1
  3
ACAD_XREC_ROUNDTRIP
360
9BF7
  0
DICTIONARY
  5
9BEC
330
6815
100
AcDbDictionary
280
     1
281
     1
  3
ACAD_XREC_ROUNDTRIP
360
9BED
  0
DICTIONARY
  5
9BE0
330
680F
100
AcDbDictionary
280
     1
281
     1
  3
ACAD_XREC_ROUNDTRIP
360
9BE1
  0
DICTIONARY
  5
9BF8
330
681B
100
AcDbDictionary
280
     1
281
     1
  3
ACAD_XREC_ROUNDTRIP
360
9BF9
  0
XRECORD
  5
7FDD
102
{ACAD_REACTORS
330
7FDC
102
}
330
7FDC
100
AcDbXrecord
280
     1
310
280000000001000065000000010008000000000000650000000000000000000000010000000000003028210000000000FFFFFF000000000000000000000000000000000000000000000000000000000000000000330000006600000099000000CC000000FF00000000330000333300006633000099330000CC330000FF3300
310
0000660000336600006666000099660000CC660000FF66000000990000339900006699000099990000CC990000FF99000000CC000033CC000066CC000099CC0000CCCC0000FFCC000000FF000033FF000066FF000099FF0000CCFF0000FFFF000000003300330033006600330099003300CC003300FF003300003333003333
310
33006633330099333300CC333300FF33330000663300336633006666330099663300CC663300FF66330000993300339933006699330099993300CC993300FF99330000CC330033CC330066CC330099CC3300CCCC3300FFCC330000FF330033FF330066FF330099FF3300CCFF3300FFFF330000006600330066006600660099
310
006600CC006600FF00660000336600333366006633660099336600CC336600FF33660000666600336666006666660099666600CC666600FF66660000996600339966006699660099996600CC996600FF99660000CC660033CC660066CC660099CC6600CCCC6600FFCC660000FF660033FF660066FF660099FF6600CCFF6600
310
FFFF660000009900330099006600990099009900CC009900FF00990000339900333399006633990099339900CC339900FF33990000669900336699006666990099669900CC669900FF66990000999900339999006699990099999900CC999900FF99990000CC990033CC990066CC990099CC9900CCCC9900FFCC990000FF99
310
0033FF990066FF990099FF9900CCFF9900FFFF99000000CC003300CC006600CC009900CC00CC00CC00FF00CC000033CC003333CC006633CC009933CC00CC33CC00FF33CC000066CC003366CC006666CC009966CC00CC66CC00FF66CC000099CC003399CC006699CC009999CC00CC99CC00FF99CC0000CCCC0033CCCC0066CC
310
CC0099CCCC00CCCCCC00FFCCCC0000FFCC0033FFCC0066FFCC0099FFCC00CCFFCC00FFFFCC000000FF003300FF006600FF009900FF00CC00FF00FF00FF000033FF003333FF006633FF009933FF00CC33FF00FF33FF000066FF003366FF006666FF009966FF00CC66FF00FF66FF000099FF003399FF006699FF009999FF00CC
310
99FF00FF99FF0000CCFF0033CCFF0066CCFF0099CCFF00CCCCFF00FFCCFF0000FFFF0033FFFF0066FFFF0099FFFF00CCFFFF00FFFFFF00000000000D0D0D001A1A1A00282828003535350043434300505050005D5D5D006B6B6B00787878008686860093939300A1A1A100AEAEAE00BBBBBB00C9C9C900D6D6D600E4E4E400
310
F1F1F100FFFFFF000000000000000000000000000000000000000000000000000000000000000000000000000000000000000000000000000000000000000000000000000000000000000000000000000000000000000000000000000000000000000000000000000000000000000000000000000000000000000000000000
310
00000000000000000000000000000000000000000000000000000000000000000000000000000000000000000000000000000000000000000000000000000000000000000000000000000000000000000000000000000000000000000000000000000000000000000000000000000000000000000000000000000000000000
310
00000000000000000000000000000000000000000000000000000000000000000000000000000000000000000000000000000000000000000000000000000000000000000000000000000000000000000000000000000000000000000000000000000000000000000000000000000000000000000000000000000000000000
310
00000000000000000000000000000000000000000000000000000000000000000000000000000000000000000000000000000000000000000000000000000000000000000000000000000000000000000000000000000000000000000000000000000000000000000000000000000000000000000000000000000000000000
310
00000000000000000000000000000000000000000000000000000000000000000000000000000000000000000000000000000000000000000000000000000000000000000000000000000000000000000000000000000000000000000000000000000000000000000000000000000000000000000000000000000000000000
310
00000000000000000000000000000000000000000000000000000000000000000000000000000000000000000000000000000000000000000000000000000000000000000000000000000000000000000000000000000000000000000000000000000000000000000000000000000000000000000000000000000000000000
310
00000000000000000000000000000000000000000000000000000000000000000000000000000000000000000000000000000000000000000000000000000000000000000000000000000000000000000000000000000000000000000000000000000000000000000000000000000000000000000000000000000000000000
310
00000000000000000000000000000000000000000000000000000000000000000000000000000000000000000000000000000000000000000000000000000000000000000000000000000000000000000000000000000000000000000000000000000000000000000000000000000000000000000000000000000000000000
310
00000000000000000000000000000000000000000000000000000000000000000000000000000000000000000000000000000000000000000000000000000000000000000000000000000000000000000000000000000000000000000000000000000000000000000000000000000000000000000000000000000000000000
310
00000000000000000000000000000000000000000000000000000000000000000000000000000000000000000000000000000000000000000000000000000000000000000000000000000000000000000000000000000000000000000000000000000000000000000000000000000000000000000000000000000000000000
310
00000000000000000000000000000000000000000000000000000000000000000000000000000000000000000000000000000000000000000000000000000000000000000000000000000000000000000000000000000000000000000000000000000000000000000000000000000000000000000000000000000000000000
310
00000000000000000000000000000000000000000000000000000000000000000000000000000000000000000000000000000000000000000000000000000000000000000000000000000000000000000000000000000000000000000000000000000000000000000000000000000000000000000000000000000000000000
310
00000000000000000000000000000000000000000000000000000000000000000000000000000000000000000000000000000000000000000000000000000000000000000000000000000000000000000000000000000000000000000000000000000000000000000000000000000000000000000000000000000000000000
310
00000000000000000000000000000000000000000000000000000000000000000000000000000000000000000000000000000000000000000000000000000000000000000000000000000000000000000000000000000000000000000000000000000000000000000000000000000000000000000000000000000000000000
310
00000000000000000000000000000000000000000000000000000000000000000000000000000000000000000000000000000000000000000000000000000000000000000000002D2D2D2D2D2D2D2D2D2D2D2D2D2D2D2D2D2D2D2D2D2D2D2D2D2D2D2D2D2D2D2D2D2D2D2D2D2D2D2D2D2D2D2D2D2D2D2D2D2D2D2D2D2D2D2D
310
2D2D2D2D2D2D2D2D2D2D2D2D2D2D2D2D2D2D2D2D2D2D2D2D2D2D2D2D2D2D2D2D2D2D2D2D2D2D2D00000000000000000000000000000000000000000000000000000000000000000000000000000000000000000000000000000000000000000000000000000000000000000000000000000000000000000000000000000000
310
000000000000000000000000000000000000000000000000000000000000000000000000000000000000000000000000000000000000000000000000000000000000000000000000002D0000280000280000282800002D00000000000000000000000000000000000028000028280000280000280000280028280000000000
310
0000000000000000000000002D000000000000000000000000000000000000000000000000000000000000000000000000000000000000000000000000000000000000000000000000000000000000000000000000000000000000000000000000000000000000000000000000000000000000000000000000000000000000
310
0000000000000000000000000000000000000000000000000000000000000000000000000000000000000000000000000000000000000000000000000000000000000000000000000000002D0000280028002828282800002D0000000000000000000000000000000000282828002828282800282828282828000028000000
310
00000000000000000000000000002D00000000000000282828002828002828280028280000000000000000000000000000000000000000000000000000000000000000000000000000000000000000000000000000000000000000000000000000000000000000000000000000000000000000000000000000000000000000
310
00000000000000000000000000000000000000000000000000000000000000000000000000000000000000000000000000000000000000000000000000000000000000000000000000000000002D0000280000002828002800002D000000000000000000000000000000000000282828000028280028282828002828282800
310
000000000000000000000000000000002D0000000000000028282828002828280028280028000000000000000000000000000000000000000000000000000000000000000000000000000000000000000000000000000000000000000000000000000000000000000000000000000000000000000000000000000000000000
310
000000000000000000000000000000000000000000000000000000000000000000000000000000000000000000000000000000000000000000000000000000000000000000000000000000000000002D0000280028282828002800002D00000000000000000000000000000000002800282800002828002828282800282800
310
2800000000000000000000000000000000002D000000000000282800282828282828002828000028000000000000000000000000000000000000000000000000000000000000000000000000000000000000000000000000000000000000000000000000000000000000000000000000000000000000000000000000000000
310
0000000000000000000000000000000000000000000000000000000000000000000000000000000000000000000000000000000000000000000000000000000000000000000000000000000000000000002D0028280028000028282800002D0000000000000000000000000000000000282828002828282800282828280028
310
28282800000000000000000000000000000000002D00000000000000282828282800282800282800280000000000000000000000000000000000000000000000000000000000000000000000000000000000000000000000000000000000000000000000000000000000000000000000000000000000000000000000000000
310
00000000000000000000000000000000000000000000000000000000000000000000000000000000000000000000000000000000000000000000000000000000000000000000000000000000000000000000002D0000280028282800282800002D000000000000000000000000000000000000280000282800002800280028
310
000028000000000000000000000000000000000000002D0000000000000028282800282800282828002828000000000000000000000000000000000000000000000000000000000000000000000000000000000000000000000000000000000000000000000000000000000000000000000000000000000000000000000000
310
000000000000000000000000000000000000000000000000000000000000000000000000000000000000000000000000000000000000000000000000000000000000000000000000000000000000000000000000002D0000000000000000000000002D00000000000000000000000000000000000000000000000000000000
310
0000000000000000000000000000000000000000000000002D000000000000000000000000000000000000000000000000000000000000000000000000000000000000000000000000000000000000000000000000000000000000000000000000000000000000000000000000000000000000000000000000000000000000
310
0000000000000000000000000000000000000000000000000000000000000000000000000000000000000000000000000000000000000000000000000000000000000000000000000000000000000000000000000000002D0000000000000000000000002D0000000000000000000000000000000000000000000000000000
310
00000000000000F5F5F5F5F5F5F5F5F5F5F5F5F5F5F5F50000002D0000000000000000000000000000000000000000000000000000000000000000000000000000000000000000000000000000000000000000000000000000000000000000000000000000000000000000000000000000000000000000F5F5F5F5F5F5F5F5
310
F5F5F5F5F5F5F5000000000000000000000000000000000000000000000000000000000000000000000000000000000000000000000000000000000000000000000000000000000000000000000000000000000000000000002D0000000000000000000000002D000000000000000000000000000000000000000000000000
310
000000000000000000000000F5F5F5F5F5F5F500F5F5F50000F500002D00000000000000000000000000000000000000000000000000000000000000000000000000000000000000000000000000000000000000000000000000000000000000000000000000000000000000000000000000000000000000F500F5F5F5F5F5
310
F5F500F5F5F5000000000000000000000000000000000000000000000000000000000000000000000000000000000000000000000000000000000000000000000000000000000000000000000000000000000000000000000000002D0000000000000000000000002D00000000002828280000000000000000000000000000
310
000000000000000000000000000000F5F500F5F5F500F5F5F50000F500002D00282828000000000000000000000000000000000000000000000000000000000000000000000000000000000000000000000000000000000000000000000000000000000000000000000000002828280000000000000000000000F50000F5F5
310
00F5F5F5F5F5F5F5000000000000282828000000000000000000000000000000000000000000000000000000000000000000000000002828280000000000000000000000000000000000000000000000000000000000000000000000002D0000000000000000000000002D0000000000002828280000000000000000000000
310
00000000000000000000000000000000F5F5F500F5F5F5F5F5F5F5000000F5002D000028282800000000000000000000000000000000000000000000000000000000000000000000000000000000000000000000000000000000000000000000000000000000000000000000000000282828000000000000000000F5000000
310
F5F5F5F5F5F5F5F5F5F5000000000000002828280000000000000000000000000000000000000000000000000000000000000000000000000028282800000000000000000000000000000000000000000000000000000000000000000000002D0000000000000000000000002D000000000000002828282800000000000000
310
000000000000000000000000000000000000F5F5F5F5F5F5F500F5F500000000F5002D000000282828000000000000000000000000000000000000000000000000000000000000000000000000000000000000000000000000000000000000000000000000000000000000000000000000002828282800000000000000F500
310
00F5F5F5F5F5F5F500F5F5F5000000000000000028282828000000000000000000000000000000000000000000000000000000000000000000000000282828280000000000000000000000000000000000000000000000002800000000000000002D000000000000000000000000F500000000000000002828002800000000
310
000000000000000000000000000000000000000000F50000F500F50000F500000000F5F5F50000000028282800000000000000000000000000000000000000000000000000000000000000000000000000000000000028000000000000000000000000F500000000000000000000000000000000002800282800000000F5F5
310
0000000000F500F500F50000F500000000000000000000F500282800000000000000000000000000000000000000000000F5000000000000000000000000002828002800000000000000000000000000000000000000000000002828000000002D2D2DF52D2D2D2D2D2D2D2D2D2D2D2DF52D2D2D2D2D2D2D2D2D28282D282D
310
2D2D2D2D2D2D2D2D2D2D2D2D2D2D2D2D2D2D2D2D2D2D2D2D2D2D2D2D2D2D2D2D2D2D2D2D2DF5F52D2D2D2D2D2828282D2D2D2D2D2D2D2D2D2D2D2D2D2D2D2D2D2DF52D2D2D2D2D2D2D2D2D2D2D2D2D2D2D2D2D2D000000002828000000002D2D2D2D2D2D2DF52D2D2D2D2D2D2D2D2D2D2D2D2D2D2D2D2D2D282D282D2D2D2D
310
F52D2D2D2D2D2D2D2D2D2D2D2D2D2D2D2D2D2D2D2D2D2D2D2DF52D2D2D2D2D2D2D2D2D2D2D2D2D2D2D2D2D2D2D2D2D2D2D2D2DF52D2D2D2D2D2D2D2D2D2D2D2D2D2D28282D282D2D00F52D2D2D2D2D2D2D2D2D2D2D2D2D2D2D2D2D2D2828282800002D00000000000000000000000000002DF5000000000000000000000000
310
0000000000000000000000000000000000000000000000000000000000000000000000000000002DF52D00000000000000000000000000000000000000000000000000000000000000000000002D000000000000002D000000002828282800002D00000000002DF52D00000000000000000000000000000000000000000000
310
002DF5000000000000000000000000000000000000000000000000F52D000000000000000000000000000000000000000000000000F52D0000000000000000000000000000000000000000000000000000000000002D0000000000002D000028282828002D00000000000000000000000000002DF500000000000000000000
310
00000000000000000000000000000000000000000000000000000000000000000000000000000000002DF52D00000000000000000000000000000000000000000000000000000000000000000000002D000000000000002D000000000028282828002D00000000002DF52D0000000000000000000000000000000000000000
310
0000002DF5000000000000000000000000000000000000000000000000F52D000000000000000000000000000000000000000000000000F52D0000000000000000000000000000000000000000000000000000000000002D0000000000002D000000280028282D00000000000000000000000000002DF52D00000000000000
310
000000000000000000000000000000000000000000000000000000000000000000000000000000000000002DF52D00000000000000000000000000000000000000000000000000000000000028282828282D000000000000002D000000000000280028282D00000000002DF52D000000000000000000000000000000000000
310
00000000002DF52D000000000000000000000000000000000000000000002DF52D00000000000000000000000000000000000000000000002DF52D0000000000000000000000000000000000000000000000002828282828282D0000000000002D0000000028002828000000000000000000002D2D2D2D2DF52D2D2D2D0000
310
0000000000000000000000000000000000000000000000000000000000000000000000000000000000002D2D2D2DF52D2D2D2D00000000000000000000000000000000000000000000000000000000280000002D002828282828002D000000000000002800282800002D2D2D2DF52D2D2D2D00000000000000000000000000
310
0000002D2D2D2D2DF52D2D2D2D000000000000000000000000000000002D2D2D2DF52D2D2D2D2D000000000000000000000000000000002D2D2D2DF52D2D2D2D0000000000000000000000000000000000000000000000280000002D0028282828282D000000000028002800002D2D2D2D2D2D2D2D2D2D2D2D2DF52D2D2D2D
310
2D2D2D2D2D2D2D2D2D2D2D2D2D2D2D2D2D2D2D2D2D2D2D2D2D2D2D2D2D2D2D2D2D2D2D2D2D2D2D2D2D2D2D2D2D2D2D2DF52D2D2D2D2D2D2D2D2D2D2D2D2D2D2D2D2D2D2D2D2D2D2D2D2D2D000000000000002828282D000000280000002D000000000000000028002800002D2D2D2D2D2D2D2D2D0000000000000000000000
310
0000000000002D2D2D2D2D2D2D2D2D000000000000000000000000000000002D2D2D2D2D2D2D2D2D00000000000000000000000000000000002D2D2D2D2D2D2D2D2D0000000000000000000000000000000000000000000000002828282D0000002800002D000000000000282D00002D000000000000000000000000F50000
310
000000000000000000000000000000000000000000000000000000000000000000000000F500000000000000000000000000F50000000000000000000000000000000000000000000000000000000000000000000000002D002828282828002D000000000000000000282D000000002D2DF52D000000000000000000000000
310
000000000000000000002D2D2DF5000000000000000000000000000000000000000000002D2D2D2D000000000000000000000000000000000000000000002D2D2D2D00000000000000000000000000000000000000000000000000000000002D0028282828282D000000000000002800002D2D2D2D2D2D2D2D2D2D2D2D2D2D
310
2D2D2D2D2D2D2D2D2D2D2D2D2D2D2D2D2D2D2D2D2D2D2D2D2D2D2D2D2D2D2D2D2D2D2D2D2D2D2DF52D2D2D2D2D2D2D2D2D2D2D2D2D2D2D2D2D2D2D2D2D2D2D2D2D2D2D2D2D2D2D2D2D2D2D2D2D2D2DF52D2D2D2D2D2D2D2D2DF5000000000000002D0000000000000000000028002D2D2D2D2D2D2D2D2D2D2D2D2D2D2D2D2D
310
2D2D2D2D2D2D2D2D2D2D2D2D2D2D2D2DF52D2D2D2D2D2D2D2D2D2D2D2D2D2D2D2D2D2D2D2D2D2D2D2D2D2D2D2D2D2D2D2D2D2D2D2D2D2D2D2D2D2D2D2D2D2D2D2D2D2D2D2D2D2D2D2D2D2D2D2D2D2D2D2D2D2D2D2D2D00F52D2D2D2D2D2D2D2D2DF50000000000002D000000000000002D00002D2D2D2D2D2D2D2D2D2D2D2D
310
2D2D2D2D2D2D2D2D2D2D2D2D2D2D2D2D2D2D2D2DF52D2D2D2D2D2D2D2D2D2D2D2D2D2D2D2D2D2D2D2D2DF52D2D2D2D2D2D2D2D2D2D2D2D2D2D2D2D2D2D2D2D2D2D2D2D2D2D2D2D2D2D2D2D2D2D2D2D2D2D000000000000000000002D000000000000002D000000000000000000002D002D2D2D2D2DF52D2D2D2D2D2D2D2D2D
310
2D2D2D2D2D2D2D2D2D2D2D2D2D2D2D2DF52DF5F52D2D2D2D2D2D2D2D2D2D2D2D2D2D2D2D2D2D2D2D2DF52D2D2D2D2D2D2D2D2D2D2D2D2D2D2D2D2D2D2D2D2D2D2D2D2DF52D2D2D2D2D2D2D2D2D2D2D2D2D2D2D2D2D2D2D2D00000000000000000000002D0000000000002D000000000000002D00002D2D2D2D2D2D2D2D2D2D
310
2D2D2D2D2D2D2D2D2D2D2D2D2D2D2D2D2D2D2D2D2D2D2DF52D2D2D2D2D2D2D2D2D2D2D2D2D2D2D2D2D2D2D2DF52D2D2D2D2D2D2D2D2D2D2D2D2D2D2D2D2D2D2D2D2D2D2D2D2D2D2D2D2D2D2D2D2D2D2D2D2D2D0000000000000000000000000000000000002D000000000000000000002D002D2D2D2D2D2D2D2D2D2D2D2D2D
310
2D2D2D2D2D2D2D2D2D2D2D2D2D2D2D2D2D2D2D2D2DF52D2D2D2D2D2D2D2D2D2D2D2D2D2D2D2D2D2D2D2D2D2D2D2D2D2D2D2D2D2D2D2D2D2D2D2D2D2D2D2D2D2D2D2D2D2D2D2D2D2D2D2D2D2D2D2D2D2D2D2D2D2D2D2D2D2D2D2D0000000000000000000000000000000000002D000000000000002D00002D2D2D2D2D2D2D2D
310
2D2D2D2D2D2D2D2D2D2D2D2D2D2D2DF52D2D2D2D2D2D2D2D2DF52D2D2D2D2D2D2D2D2D2D2D2D2D2D2D2D2D2D2D2D2DF52D2D2D2D2D2D2D2D2D2D2D2D2D2D2D2D2D2D2D2D2D2D2D2D2D2D2D2D2D2D2D2D2D2D2D2D2DF52D2D2D2D2D2D2D2D2D2D2D2D2D2D2D2D2DF5000000000000000000002D002D2D2D2D2D2D2D2D2D2D2D
310
2D2D2D2D2D2D2D2D2D2D2D2D2D2D2D2D2D2D2D2D2D2D2D2DF52D2D2D2D2D2D2D2D2D2D2D2D2D2D2D2D2D2D2D2D2D2D2D2D2D2D2D2D2D2D2D2D2D2D2D2D2D2D2D2D2D2D2D2D2D2D2D2D2D2D2D2D2D2D2D2D2D2D2D2D2D2D2D2D2D2D2D00F52D2D2D2D2D2D2D2D2D2D2D2D2D2D2D2DF52D0000000000002D0028282800000000
310
000000000000000000000000000000000000F5F50000000000000000F50000000000000000000000000000000000000000F50000000000000000000000000000000000000000000000000000000000000000000000000000000000000000000000000000000000000000000000000000000000002D0028C3C3000000000000
310
0000000000000000000000000000000000000000000000000000F50000000000000000000000000000000000000000000000000000000000000000000000000000000000000000000000000000000000000000000000000000000000000000000000000000000000000000000000000000000000000000002828C3C3280000
310
0000000000000000000000000000000000000000F500000000000000000000F50000000000000000000000000000000000000000F500000000000000000000000000000000000000000000000000000000000000000000000000000000000000000000000000000000000000000000000000000000002828C3C32800000000
310
0000000000000000000000000000000000000000000000000000000000F500000000000000000000000000000000000000000000000000000000000000000000000000000000000000000000000000000000000000000000000000000000000000000000000000000000000000000000000000000000000000002D0028C328
310
0000000000000000000000000000000000000000000000F5000000000000000000F50000000000000000000000000000000000000000F500000000000000000000000000000000000000000000000000000000000000000000000000000000000000000000000000000000000000000000000000000000002D00C3C3280000
310
F500000000000000000000000000000000000000000000000000F500000000F500000000000000000000000000000000000000F500000000000000000000000000000000000000000000000000F5000000000000000000000000000000000000000000000000000000000000000000000000000000000000000000002D2828
310
C3C30000000000000000000000000000000000000000000000F500000000000000000000F5F5F5F5F5F5F5F5F5F5F5F5000000000000000000F5F5F5F5F5F5F5F5F5F5F5F5F5F5F5F5000000000000000000000000000000000000000000000000000000000000000000000000000000000000000000000000002D2828C3C3
310
00002D000000000000000000000000000000000000000000000000002D0000000000F5F5F5F5F5F5F5F5F5F5F5F5F5F5F5000000002D000000000000000000000000000000000000000000000000002D000000000000000000000000000000000000000000000000000000000000000000000000000000000000000000002D
310
28C300C3000000000000000000000000000000000000000000000000F50000000000000000000000F5F5F5F5F5F5F5F500000000000000000000000000F5F5F5F5F5F5F5F5F5F5F5000000000000000000000000000000000000000000000000000000000000000000000000000000000000000000000000000000002D28C3
310
00C300002D000000000000000000000000000000000000000000000000002D00000000000000F5F5F500F5F5F5F5F5F5F50000000000002D000000000000000000000000000000000000000000000000002D000000000000000000000000000000000000000000000000000000000000000000000000000000000000000000
310
002800C3C32800000000000000000000000000000000000000000000000000F500000000000000000000F5F5F5F5F5F5F50000000000000000000000000000F5F5F500F5F500F5F5F5F50000000000000000000000000000000000000000000000000000000000000000000000000000000000000000000000000000000028
310
00C3C32800002D000000000000000000000000000000000000000000000000002D00000000000000F5F5F500F5F500F5F5F5F50000000000002D000000000000000000000000000000000000000000000000002D00000000000000000000000000000000000000000000000000000000000000000000000000000000000000
310
0000002828C3C3C300000000000000000000000000000000000000000000000000F500000000000000000000F5F5F5F5F5F5F5F500000000000000000000000000F5F5F5F5F5F5F5F5F5F5F5000000000000000000000000000000000000000000000000000000000000000000000000000000000000000000000000000000
310
002828C3C3C300002D000000000000000000000000000000000000000000000000002D00000000000000F5F5F5F5F5F5F5F5F5F5F50000000000002D000000000000000000000000000000000000000000000000002D0000000000000000000000000000000000000000000000000000000000000000000000000000000000
310
000000000028282828F50000000000000000000000000000000000000000000000000000F500000000000000000000F5F500F5F5F5F500000000000000000000000000F5F5F50000F500F5F5F5F500000000000000000000000000000000000000000000000000000000000000000000000000000000000000000000000000
310
00000028282828C300002D000000000000000000000000000000000000000000000000002D00000000000000F5F5F50000F500F5F5F5F50000000000002D000000000000000000000000000000000000000000000000002D000000000000000000000000000000000000000000000000000000000000000000000000000000
310
000000000000002D002828F5F500000000000000000000000000000000000000000000000000F500000000000000000000000000000000000000000000000000000000000000000000000000000000000000000000000000000000000000000000000000000000000000000000000000000000000000000000000000000000
310
00000000002D0028282800002D000000000000000000000000000000000000000000000000002D0000000000000000000000000000000000000000000000002D000000000000000000000000000000000000000000000000002D00000000000000000000000000000000000000000000000000000000000000000000000000
310
0000000000000000002D282828F5F50000000000000000000000000000000000000000000000000000F5F5F5F5F5F5F5F5F5F5F5F5F5F5F5F5F5F5F5F5F5F5F5F50000000000000000000000000000000000000000000000000000000000000000000000000000000000000000000000000000000000000000000000000000
310
000000000000002D2828280000002D2D2D2D2D2D2D2D2D2D2D2D2D2D2D2D2D2D2D2D2D2D2D2D2D2DF52D2D2D2D2D2D2D2D2D2D2D2D2D2D2D2D2D2D2D2D2D2D2D2D2D2D2D2D2D2D2D2D2D2D2D2D2D2D2D2D2D2D2D2D2D2D2D2D2D2D2D2D2D2D2D2D2D2D2D2D2D2D2D2D2D2D2D2D2D2D2D000000000000000000000000000000
310
00000000000000000000002D2828280000F50000000000000000000000000000000000000000000000000000F50000F5F5F50000000000F5F50000F50000F5F5000000000000000000000000000000000000000000000000000000000000000000000000000000000000000000000000000000000000000000000000000000
310
0000000000000000002D2828280000000000000000282800002800002800002800002800002800000000000000000000000000280000282800002800000000000000000000000000000000000028000028000028280000000000000000000000002800000028000028000028280000002D0000000000000000000000000000
310
00000000000000000000000000280028280000F5000000000000000000000000000000000000000000000000000000F500F500F5F5F5F5F500F5F500F500F500F5F500000000000000000000000000000000000000000000000000000000000000000000000000000000000000000000000000000000000000000000000000
310
00000000000000000000002800282800000000000000002828282800282828282828282828000028000000000000000000000000280028002828002828280000000000000000000000000000000028002828282828282800000000000000000000002828280028002828282800282800000000000000000000000000000000
310
00000000000000000000000000000028282828000000F5000000000000000000000000000000000000000000000000F5F5F500F5F5F50000000000F5F500F500F500F5F5F500000000000000000000000000000000000000000000000000000000000000000000000000000000000000000000000000000000000000000000
310
00000000000000000000000000282828280000000000000000000028280028280028282828002828282800000000000000000000000000002828000028280028000000000000000000000000000000000000282800282800002800000000000000000028282828280000282800282800002800000000000000000000000000
310
00000000000000000000000000000000002D002828000000F50000000000000000000000000000000000000000000000000000000000000000000000000000000000000000F5F50000000000000000000000000000000000000000000000000000000000000000000000000000000000000000000000000000000000000000
310
0000000000000000000000000000002D002828000000000000000000282828002828002828002800282828280000000000000000000000000028282800002828002800000000000000000000000000000000002828280028280000280000000000000000002828282828002828280028280000280000000000000000000000
310
000000000000000000000000000000000000002D00282800000000F5000000000000000000000000000000000000000000000000000000000000000000000000000000000000000000000000000000000000000000000000000000000000000000000000000000000000000000000000000000000000000000000000000000
310
00000000000000000000000000000000002D00282800000000000000000000282800282828282828280028282828000000000000000000000000000028002828002828280000000000000000000000000000000000002828282828282800000000000000000000002828282800002828282800282800000000000000000000
310
0000000000000000000000000000000000000000002D00282800000000F500000000000000000000000000000000000000000000000000000000000000000000000000000000000000000000000000000000000000000000000000000000000000000000000000000000000000000000000000000000000000000000000000
310
000000000000000000000000000000000000002D0028280000000000000000282828002800002800280028000000280000000000000000000000000028282800282800002800000000000000000000000000000000002828280028000028280000000000000000000000002800002828280028000028280000000000000000
310
00000000000000000000000000000000000000000000002D0028280000000000F5F5F5F5F5F5F5F5F5F500000000000000000000000000000000000000000000000000000000000000000000000000000000000000000000000000000000000000000000000000000000000000000000000000000000000000000000000000
310
0000000000000000000000000000000000000000002D002828000000000000000000000000000000000000000000000000000000000000000000000000000000000000000000000000000000000000000000000000000000000000000000000000000000000000000000000000000000000000000000000000000000000000
310
000000000000000000000000000000000000000000000000002D002828000000000000F5F5F5F500F5F500000000000000000000000000000000000000000000000000000000000000000000000000000000000000000000000000000000000000000000000000000000000000000000000000000000000000000000000000
310
00000000000000000000000000000000000000000000002D00282800000000000000000000000000000000000000000000000000000000000000000000000000000000000000000000000000000000000000000000000000000000000000000000000000000000000000000000000000000000000000000000000000000000
310
0000000000000000000000000000000000000000000000000000002D002828000000000000F5F5F500F5F5F50000000000000000000000000000000000000000000000000000000000000000000000000000000000000000000000000000000000000000000000000000000000000000000000000000000000000000000000
310
000000000000000000000000000000000000000000000000002D0028280000000000000000000000000000000000000000000000000000000000000000000000000000000000000000000000000000000000000000000000000000000000000000000000000000000000000000000000000000000000000000000000000000
310
00000000000000000000000000000000000000000000000000000000002D002828000000000000F5F5F500F5F5F5000000000000000000000000000000000000000000000000000000000000000000000000000000000000000000000000000000000000000000000000000000000000000000000000000000000000000000
310
0000000000000000000000000000000000000000000000000000002D002828000000000000000000000000000000000000000000000000000000000000000000000000000000000000000000000000000000000000000000000000000000000000000000000000000000000000000000000000000000000000000000000000
310
000000000000000000000000000000000000000000000000000000000000002D00282800000000000000F5000000F50000000000000000000000000000000000000000000000000000000000000000000000000000000000000000000000000000000000000000000000000000000000000000000000000000000000000000
310
00000000000000000000000000000000000000000000000000000000002D00282800000000000000000000000000000000000000000000000000000000000000000000000000000000000000000000000000000000000000000000000000000000000000000000000000000000000000000000000000000000000000000000
310
0000000000000000000000000000000000000000000000000000000000000000002D002828000000000000000000000000000000000000000000000000000000000000000000000000000000000000000000000000000000000000000000000000000000000000000000000000000000000000000000000000000000000000
310
000000000000000000000000000000000000000000000000000000000000002D0028280000000000000000000000000000000000000000000000000000000000000000000000000000000000000000000000000000000000000000000000000000000000000000000000000000000000000000000000000000000000000000
310
00000000000000000000000000000000000000000000000000000000002800000000002D00282800000000000000000000000000000000000000000000000000000000000000000000000000000000000000000000000000000000000000000000000000000000000000000000000000000000000000000000000000000000
310
0000000000000000000000000000000000000000000000000000002800000000002D002828000000000000000000000000000000000000000000000000000000000000000000000000000000000000000000000000000000000000000000000000000000000000000000000000000000000000000000000000000000000000
310
000000000000000000000000000000000000000000000000000000000000002828000000002D0028280000000000000000000000000000000000000000000000000000000000000000000000000000000000000000000000000000000000000000000000000000000000000000000000000000000000000000000000000000
310
00000000000000000000000000000000000000000000000000000000002828000000002D00282800000000000000000000000000000000000000000000000000000000000000000000000000000000000000000000000000000000000000000000000000000000000000000000000000000000000000000000000000000000
310
0000000000000000000000000000000000000000000000000000000000000000002828280000002D002828000000000000000000000000000000000000000000000000000000000000000000000000000000000000000000000000000000000000000000000000000000000000000000000000000000000000000000000000
310
000000000000000000000000000000000000000000000000000000000000002828280000002D0028280000000000000000000000000000000000000000000000000000000000000000000000000000000000000000000000000000000000000000000000000000000000000000000000000000000000000000000000000000
310
00000000000000000000000000000000000000000000000000000000000000000000000028282828002D00282800000000000000000000000000000000000000000000000000000000000000000000000000000000000000000000000000000000000000000000000000000000000000000000000000000000000000000000
310
0000000000000000000000000000000000000000000000000000000000000000000028282828002D002828000000000000000000000000000000000000000000000000000000000000000000000000000000000000000000000000000000000000000000000000000000000000000000000000000000000000000000000000
310
000000000000000000000000000000000000000000000000000000000000000000000000000000282828282D0028280000000000000000000000000000000000000000000000000000000000000000000000000000000000000000000000000000000000000000000000000000000000000000000000000000000000000000
310
00000000000000000000000000000000000000000000000000000000000000000000000000282828282D00282800000000000000000000000000000000000000000000000000000000000000000000000000000000000000000000000000000000000000000000000000000000000000000000000000000000000000000000
310
00000000000000000000000000000000000000000000000000000000000000000000000000000000000000282828002828000000000000000000000000000000000000000000000000000000000000000000000000000000000000000000000000000000000000000000000000000000000000000000000000000000000000
310
00000000000000000000000000000000000000000000000000000000000000000000000000000000002828280028280000000000000000000000000000000000000000000000000000000000000000000000000000000000000000000000000000000000000000000000000000000000000000000000000000000000000000
310
00000000000000000000000000000000000000000000000000000000000000000000000000000000000000000000282800282800000000000000000000000000000000000000000000000000000000000000000000000000000000000000000000000000000000000000000000000000000000000000000000000000000000
310
00000000000000000000000000000000000000000000000000000000000000000000000000000000000000002828002828000000000000000000000000000000000000000000000000000000000000000000000000000000000000000000000000000000000000000000000000000000000000000000000000000000000000
310
00000000000000000000000000000000000000000000000000000000000000000000000000000000000000000000000000280028280000000000000000000000000000000000000000000000000000000000000000000000000000000000000000000000000000000000000000000000000000000000000000000000000000
310
00000000000000000000000000000000000000000000000000000000000000000000000000000000000000000000002800282800000000000000000000000000000000000000000000000000000000000000000000000000000000000000000000000000000000000000000000000000000000000000000000000000000000
310
0000000000000000000000000000000000000000000000000000000000000000000000000000000000000000000000000000002D002828000000000000000000000000000000000000000000000000000000000000000000000000000000000000000000000000000000000000000000000000000000000000000000000000
310
000000000000000000000000000000000000000000000000000000000000000000000000000000000000000000000000002D0028280000000000000000000000000000000000000000000000000000000000000000000000000000000000000000000000000000000000000000000000000000000000000000000000000000
310
00000000000000000000000000000000000000000000000000000000000000000000000000000000000000000000000000000000002D00282800000000000000000000000000000000000000000000000000000000000000000000000000000000000000000000000000000000000000000000000000000000000000000000
310
0000000000000000000000000000000000000000000000000000000000000000000000000000000000000000000000000000002D002828000000000000000000000000000000000000000000000000000000000000000000000000000000000000000000000000000000000000000000000000000000000000000000000000
310
000000000000000000000000000000000000000000000000000000000000000000000000000000000000000000000000000000000000002D0028280000000000000000000000000000000000000000000000000028282828282800282828000028000028282800280028282800002828000000000028282828282828280028
310
28282800282800280000280028000000000000000000000000000000000000000000000000000000000000000000000000000000002D00282800000000000000000000000000000000000000000000000000000000000000282828282800282828000028280028282800280028282828000028000000000028282828282828
310
2828282828282828282828000000282800282800280000280028000000000000000000000000000000000000000000000000000000000000002D002828000000000000000000000000000000000000000000000000000028282828002828002800280028000028282828002828280000280028000000002800282828280000
310
282800000028002800282828280000280000000000000000000000000000000000000000000000000000000000000000000000000000002D0028280000000000000000000000000000000000000000000000000000000000000028282828002828002800002828000028282828002828280000280028000000002800002828
310
28280028280000282828280000282828000028002800282828280000280000000000000000000000000000000000000000000000000000000000002D00282800000000000000000000000000000000000000000000000000282828280000282828280028282800282828282800002828000028002800000028000028282828
310
0000002800000028002800282800280000280000000000000000000000000000000000000000000000000000000000000000000000000000002D002828000000000000000000000000000000000000000000000000000000000000002828280028002828280028282800282828282800282828000028282800000000280000
310
282828280000280000282828280028280028280028282800282828280000280000000000000000000000000000000000000000000000000000000000002D0028280000000000000000000000000000000000000000000000000000282828282828282828002800280000282828280028282800002800280000002800000028
310
28280028282828280028282800282828280000280000000000000000000000000000000000000000000000000000000000000000000000000000002D00282800000000000000000000000000000000000000000000000000000000000000282828280028282828002800280000282828280028282828002800280000000028
310
00002828282828282828282828282800002800280000280000002800002800002800000000000000000000000000000000000000000000000000000000000000000000000000000000000000000000000000000000000000000000000028282828002828282800280028000028282828002828280000280028000000002800
310
28282828000000280000282828282828282828002800000000000000000000000000000000000000000000000000000000000000000000000000000000000000000000000000000000000000000000000000000000000000000000000000000028282828000028282800002828000028282828000028002800280028000000
310
00282828282828280000280000282828282828282828282828282828282828280028000000000000000000000000000000000000000000000000000000000000000000000000000000000000000000000000000000000000000000000000002828280028282828280028000000002800280000002800000028000000000000
310
00280028282800000028000000002800000028000000280000000000000000000000000000000000000000000000000000000000000000000000000000000000000000000000000000000000000000000000000000000000000000000000000000002828280028282828280000000000002800280000000000000000000000
310
00000000000028000000000028000000002800000000280000000028000000280000000000000000000000000000000000000000000000000000000000000000000000000000000000000000000000000000000000000000000000000000000000000000000000000000000000000000000000000000000000000000000000
310
00000000000000000000000000000000000000000000000000000000000000000000000000000000000000000000000000000000000000000000000000000000000000000000000000000000000000000000000000000000000000000000000000000000000000000000000000000000000000000000000000000000000000
310
00000000000000000000000000000000000000000000000000000000000000000000000000000000000000000000000000000000000000000000000000000000000000000000000000000000000000000000000000000000000000000000000000000000000000000000000000000000000000000000000000000000000000
310
00000000000000000000000000000000000000000000000000000000000000000000000000000000000000000000000000000000000000000000000000000000000000000000000000000000000000000000000000000000000000000000000000000000000000000000000000000000000000000000000000000000000000
310
00000000000000000000000000000000000000000000000000000000000000000000000000000000000000000000000000000000000000000000000000000000000000000000000000000000000000000000000000000000000000000000000000000000000000000000000000000000000000000000000000000000000000
310
00000000000000000000000000000000000000000000000000000000000000000000000000000000000000000000000000000000000000000000000000000000000000000000000000000000000000000000000000000000000000000000000000000000000000000000000000000000000000000000000000000000000000
310
00000000000000000000000000000000000000000000000000000000000000000000000000000000000000000000000000000000000000000000000000000000000000000000000000000000000000000000000000000000000000000000000000000000000000000000000000000000000000000000000000000000000000
310
00000000000000000000000000000000000000000000000000000000000000000000000000000000000000000000000000000000000000000000000000000000000000000000000000000000000000000000000000000000000000000000000000000000000000000000000000000000000000000000000000000000000000
310
00000000000000000000000000000000000000000000000000000000000000000000000000000000000000000000000000000000000000000000000000000000000000000000000000000000000000000000000000000000000000000000000000000000000000000000000000000000000000000000000000000000000000
310
00000000000000000000000000000000000000000000000000000000000000000000000000000000000000000000000000000000000000000000000000000000000000000000000000000000000000000000000000000000000000000000000000000000000000000000000000000000000000000000000000000000000000
310
00000000000000000000000000000000000000000000000000000000000000000000000000000000000000000000000000000000000000000000000000000000000000000000000000000000000000000000000000000000000000000000000000000000000000000000000000000000000000000000000000000000000000
310
00000000000000000000000000000000000000000000000000000000000000000000000000000000000000000000000000000000000000000000000000000000000000000000000000000000000000000000000000000000000000000000000000000000000000000000000000000000000000000000000000000000000000
310
00000000000000000000000000000000000000000000000000000000000000000000000000000000000000000000000000000000000000000000000000000000000000000000000000000000000000000000000000000000000000000000000000000000000000000000000000000000000000000000000000000000000000
310
00000000000000000000000000000000000000000000000000000000000000000000000000000000000000000000000000000000000000000000000000000000000000000000000000000000000000000000000000000000000000000000000000000000000000000000000000000000000000000000000000000000000000
310
00000000000000000000000000000000000000000000000000000000000000000000000000000000000000000000000000000000000000000000000000000000000000000000000000000000000000000000000000000000000000000000000000000000000000000000000000000000000000000000000000000000000000
310
00000000000000000000000000000000000000000000000000000000000000000000000000000000000000000000000000000000000000000000000000000000000000000000000000000000000000000000000000000000000000000000000000000000000000000000000000000000000000000000000000000000000000
310
00000000000000000000000000000000000000000000000000000000000000000000000000000000000000000000000000000000000000000000000000000000000000000000000000000000000000000000000000000000000000000000000000000000000000000000000000000000000000000000000000000000000000
310
00000000000000000000000000000000000000000000000000000000000000000000000000000000000000000000000000000000000000000000000000000000000000000000000000000000000000000000000000000000000000000000000000000000000000000000000000000000000000000000000000000000000000
310
00000000000000000000000000000000000000000000000000000000000000000000000000000000000000000000000000000000000000000000000000000000000000000000000000000000000000000000000000000000000000000000000000000000000000000000000000000000000000000000000000000000000000
310
00000000000000000000000000000000000000000000000000000000000000000000000000000000000000000000000000000000000000000000000000000000000000000000000000000000000000000000000000000000000000000000280000002800000000280000000000000000000000280000000000282800000000
310
00280000000000282800000028000000000000000000000000000000000000000000000000000000000000000000000000000000000000000000000000000000000000000000000000000000000000000000000000000000000000000000000000000000000000000000000000000000000000000000000000000000000000
310
00000000000000000000000000000000000000000000000000000000000000000000000000000000000000000000000000000000000000000000000000000000000000000000000000000000000000000000000000000000000000000000000028000028282828000000282800000000000000000000282800000000002800
310
00000000280000000028282800000028000000000000000000000000000000000000000000000000000000000000000000000000000000000000000000000000000000000000000000000000000000000000000000000000000000000000000000000000000000000000000000000000000000000000000000000000000000
310
00000000000000000000000000000000000000000000000000000000000000000000000000000000000000000000000000000000000000000000000000000000000000000000000000000000000000000000000000000000000000000000000000280000000028000000002800002800000028280000000028002800000000
310
00280000002800280000002828002800000028000000000000000000000000000000000000000000000000000000000000000000000000000000000000000000000000000000000000000000000000000000000000000000000000000000000000000000000000000000000000000000000000000000000000000000000000
310
00000000000000000000000000000000000000000000000000000000000000000000000000000000000000000000000000000000000000000000000000000000000000000000000000000000000000000000000000000000000000000000000000000028000000000028000000002828280000002800000000282800280000
310
00280028000000280000280000282800000000002800000000000000000000000000000000000000000000000000000000000000000000000000000000000000000000000000000000000000000000000000000000000000000000000000000000000000000000000000000000000000000000000000000000000000000000
310
00000000000000000000000000000000000000000000000000000000000000000000000000000000000000000000000000000000000000000000000000000000000000000000000000000000000000000000000000000000000000000000000000000000000028000028282828000000282828000000000000000028000000
310
28002800000028000000282828000028280000000028000000000000000000000000000000000000000000000000000000000000000000000000000000000000000000000000000000000000000000000000000000000000000000000000000000000000000000000000000000000000000000000000000000000000000000
310
00000000000000000000000000000000000000000000000000000000000000000000000000000000000000000000000000000000000000000000000000000000000000000000000000000000000000000000000000000000000000000000000000000000000000002800000028000000000000000000000000000000000000
310
00000000000000000000000000282828000000000000280000000000000000000000000000000000000000000000000000000000000000000000000000000000000000000000000000000000000000000000000000000000000000000000000000000000000000000000000000000000000000000000000000000000000000
310
00000000000000000000000000000000000000000000000000000000000000000000000000000000000000000000000000000000000000000000000000000000000000000000000000000000000000000000000000000000000000000000000000000000000000000000000000000000000000000000000000000000000000
310
00000000000000000000000000000000000000000000000000000000000000000000000000000000000000000000000000000000000000000000000000000000000000000000000000000000000000000000000000000000000000000000000000000000000000000000000000000000000000000000000000000000000000
310
00000000000000000000000000000000000000000000000000000000000000000000000000000000000000000000000000000000000000000000000000000000000000000000000000000000000000000000000000000000000000000000000000000000000000000000000000000000000000000000000000000000000000
310
00000000000000000000000000000000000000000000000000000000000000000000000000000000000000000000000000000000000000000000000000000000000000000000000000000000000000000000000000000000000000000000000000000000000000000000000000000000000000000000000000000000000000
310
00000000000000000000000000000000000000000000000000000000000000000000000000000000000000000000000000000000000000000000000000000000000000000000000000000000000000000000000000000000000000000000000000000000000000000000000000000000000000000000000000000000000000
310
00000000000000000000000000000000000000000000000000000000000000000000000000000000000000000000000000000000000000000000000000000000000000000000000000000000000000000000000000000000000000000000000000000000000000000000000000000000000000000000000000000000000000
310
00000000000000000000000000000000282800000028000028282828280000000000000028000000282828282828000000000000002828280028002800000028002828002828000000280000280000000000000000000000002800280000280000282800000000282828280028282828282800000028000000000000000000
310
28282828280028002800000000000000000000000000000000000000000000000000000000000000000000000000000000000000000000000000000000000000000000000000000000000000000000000000000000000000000000000000000000000000282828282800002800002800000028280000000000000000000000
310
00000000000000000000282800002800002800282800002800000028000000000000000000002800000000002800000000000000282800002800280000002800002800282828280028282828282800000000000000000000000000002828282800002828282828002828002828000000280000000028002800000000282800
310
00002828282828002828280028000028280000000000280000000028280000000028000000000000000000000000000000000000000000000000000000000000000000000000000000000000000000000000000000000000000000000000000000000000000028282828280000002828000000280028000000000000000000
310
28000028280000000000000000002828000000000000280000280000000028000000282828282800280000002828282828280000002800000000280028000028282828280028282828282828282828280000002828000000000000000000282828002800282828282800002828282800282828282800282828282828000028
310
28000000282800280000280028280000000028000000002828000000000000280000000028000000000000000000000000000000000000000000000000000000000000000000000000000000000000000000000000000000000000000000000000000000000000002828282828000000002800000028000028000028282828
310
00002800280000002828282828000000282800000028002828000028000000000028000000000000000028282828282828002828000000280000282800280028000028002800002828282828282828282828000000282800002828282828282828282828280028282828280028282828280028282828280028282828282800
310
00282800002828282828280028002800000000282828000000002800000000000028000000002800000000000000000000000000000000000000000000000000000000000000000000000000000000000000000000000000000000000000000000000000000000000000282828282800000000280000002800002800000000
310
00000000002828282800000000000000000000280000002828280000282800000028000028000000000000002800002828282828282800000000280000282800280000282828282800282828280000282828282828000000000000000000000000002828282828002828282828000028282828002828282828002828282828
310
00000028280000002828002800002828282828000000282828000000002800000028282828000000280000000000000000000000000000000000000000000000000000000000000000000000000000000000000000000000000000000000000000000000000000000000000028282828280000282828000000280000280000
310
00000000000000000028000000000000000000282828000000282828280000280000002828280000000000000000282828282828282828280000000028280000282800000000280028000000282828282828280028280000000000000000000000000000282828280000282828282800282828282800282828282828002828
310
28282800000000000000002828282800282828282800000028000000000000002800000000002828002800000000000000000000000000000000000000000000000000000000000000000000000000000000000000000000000000000000000000000000000000000000000000000000000000000000000000000000000000
310
00000000000000000000000000000000000000000000000000000000000000000000000000000000000000000000000000000000000000000000000000000000000000000000000000000000000000000000000000000000000000000000000000000000000000000000000000000000000000000000000000000000000000
310
00000000000000000000000000000000000000000000000000000000000000000000000000000000000000000000000000000000000000000000000000000000000000000000000000000000000000000000000000000000000000000000000000000000000000000000000000000000000000000000000000000000000000
310
00000000000000000000000000000000000000000000000000000000000000000000000000000000000000000000000000000000000000000000000000000000000000000000000000000000000000000000000000000000000000000000000000000000000000000000000000000000000000000000000000000000000000
310
00000000000000000000000000000000000000000000000000000000000000000000000000000000000000000000000000000000000000000000000000000000000000000000000000000000000000000000000000000000000000000000000000000000000000000000000000000000000000000000000000000000000000
310
00000000000000000000000000000000000000000000000000000000000000000000000000000000000000000000000000000000000000000000000000000000000000000000000000000000000000000000000000000000000000000000000000000000000000000000000000000000000000000000000000000000000000
310
00000000000000000000000000000000000000000000000000000000000000000000000000000000000000000000000000000000000000000000000000000000000000000000000000000000000000000000000000000000000000000000000000000000000000000000000000000000000000000000000000000000000000
310
00000000000000000000000000000000000000000000000000000000000000000000000000000000000000000000000000000000000000000000000000000000000000000000000000000000000000000000000000000000000000000000000000000000000000000000000000000000000000000000000000000000000000
310
00000000000000000000000000000000000000000000000000000000000000000000000000000000000000000000000000000000000000000000000000000000000000000000000000000000000000000000000000000000000000000000000000000000000000000000000000000000000000000000000000000000000000
310
00000000000000000000000000000000000000000000000000000000000000000000000000000000000000000000000000000000000000000000000000000000000000000000000000000000000000000000000000000000000000000000000000000000000000000000000000000000000000000000000000000000000000
310
00000000000000000000000000000000000000000000000000000000000000000000000000000000000000000000000000000000000000000000000000000000000000000000000000000000000000000000000000000000000000000000000000000000000000000000000000000000000000000000000000000000000000
310
00000000000000000000000000000000000000000000000000000000000000000000000000000000000000000000000000000000000000000000000000000000000000000000000000000000000000000000000000000000000000000000000000000000000000000000000000000000000000000000000000000000000000
310
00000000000000000000000000000000000000000000000000000000000000000000000000000000000000000000000000000000000000000000000000000000000000000000000000000000000000000000000000000000000000000000000000000000000000000000000000000000000000000000000000000000000000
310
00000000000000000000000000000000000000000000000000000000000000000000000000000000000000000000000000000000000000000000000000000000000000000000000000000000000000000000000000000000000000000000000000000000000000000000000000000000000000000000000000000000000000
310
000000000000000000000000000000000000000000000000000000000000000000000000000000000000000000000000000000000000000000000000000000000000000000000000000000000000000000000000000000000000000000000000000000000000000000000000000000000000000000000000000000
  0
XRECORD
  5
9BD2
102
{ACAD_REACTORS
330
67F9
102
}
330
67F9
100
AcDbXrecord
280
     1
102
MATERIAL
148
0.0
149
0.0
149
0.0
 93
        0
 94
      127
282
     0
 72
     0
 77
     0
171
     0
175
     0
179
     0
273
     0
  0
XRECORD
  5
67FB
102
{ACAD_REACTORS
330
67F9
102
}
330
67F9
100
AcDbXrecord
280
     1
270
     1
271
     1
  0
XRECORD
  5
67FA
102
{ACAD_REACTORS
330
67F9
102
}
330
67F9
100
AcDbXrecord
280
     1
270
     1
271
     1
  0
XRECORD
  5
67FE
102
{ACAD_REACTORS
330
67F9
102
}
330
67F9
100
AcDbXrecord
280
     1
270
     1
271
     1
  0
XRECORD
  5
67FD
102
{ACAD_REACTORS
330
67F9
102
}
330
67F9
100
AcDbXrecord
280
     1
270
     1
271
     1
  0
XRECORD
  5
67FF
102
{ACAD_REACTORS
330
67F9
102
}
330
67F9
100
AcDbXrecord
280
     1
270
     1
271
     1
  0
XRECORD
  5
67FC
102
{ACAD_REACTORS
330
67F9
102
}
330
67F9
100
AcDbXrecord
280
     1
270
     1
271
     1
  0
XRECORD
  5
9BD1
102
{ACAD_REACTORS
330
67F1
102
}
330
67F1
100
AcDbXrecord
280
     1
102
MATERIAL
148
0.0
149
0.0
149
0.0
 93
        0
 94
      127
282
     0
 72
     0
 77
     0
171
     0
175
     0
179
     0
273
     0
  0
XRECORD
  5
67F3
102
{ACAD_REACTORS
330
67F1
102
}
330
67F1
100
AcDbXrecord
280
     1
270
     1
271
     1
  0
XRECORD
  5
67F2
102
{ACAD_REACTORS
330
67F1
102
}
330
67F1
100
AcDbXrecord
280
     1
270
     1
271
     1
  0
XRECORD
  5
67F6
102
{ACAD_REACTORS
330
67F1
102
}
330
67F1
100
AcDbXrecord
280
     1
270
     1
271
     1
  0
XRECORD
  5
67F5
102
{ACAD_REACTORS
330
67F1
102
}
330
67F1
100
AcDbXrecord
280
     1
270
     1
271
     1
  0
XRECORD
  5
67F7
102
{ACAD_REACTORS
330
67F1
102
}
330
67F1
100
AcDbXrecord
280
     1
270
     1
271
     1
  0
XRECORD
  5
67F4
102
{ACAD_REACTORS
330
67F1
102
}
330
67F1
100
AcDbXrecord
280
     1
270
     1
271
     1
  0
XRECORD
  5
9BD3
102
{ACAD_REACTORS
330
6801
102
}
330
6801
100
AcDbXrecord
280
     1
102
MATERIAL
148
0.0
149
0.0
149
0.0
 93
        0
 94
      127
282
     0
 72
     0
 77
     0
171
     0
175
     0
179
     0
273
     0
  0
XRECORD
  5
6803
102
{ACAD_REACTORS
330
6801
102
}
330
6801
100
AcDbXrecord
280
     1
270
     1
271
     1
  0
XRECORD
  5
6802
102
{ACAD_REACTORS
330
6801
102
}
330
6801
100
AcDbXrecord
280
     1
270
     1
271
     1
  0
XRECORD
  5
6806
102
{ACAD_REACTORS
330
6801
102
}
330
6801
100
AcDbXrecord
280
     1
270
     1
271
     1
  0
XRECORD
  5
6805
102
{ACAD_REACTORS
330
6801
102
}
330
6801
100
AcDbXrecord
280
     1
270
     1
271
     1
  0
XRECORD
  5
6807
102
{ACAD_REACTORS
330
6801
102
}
330
6801
100
AcDbXrecord
280
     1
270
     1
271
     1
  0
XRECORD
  5
6804
102
{ACAD_REACTORS
330
6801
102
}
330
6801
100
AcDbXrecord
280
     1
270
     1
271
     1
  0
XRECORD
  5
9BCC
102
{ACAD_REACTORS
330
9BCB
102
}
330
9BCB
100
AcDbXrecord
280
     1
102
ACAD_ROUNDTRIP_2012_MLEADER_STYLE
298
     1
  0
CELLSTYLEMAP
  5
9BCA
102
{ACAD_REACTORS
330
8F42
102
}
330
8F42
100
AcDbCellStyleMap
 90
        3
300
CELLSTYLE
  1
TABLEFORMAT_BEGIN
 90
        5
170
     1
 91
        0
 92
    32768
 62
   257
 93
        1
300
CONTENTFORMAT
  1
CONTENTFORMAT_BEGIN
 90
        0
 91
        0
 92
        4
 93
        0
300

 40
0.0
140
1.0
 94
        5
 62
     0
340
11
144
0.25
309
CONTENTFORMAT_END
171
     0
 94
        6
 95
        1
302
GRIDFORMAT
  1
GRIDFORMAT_BEGIN
 90
        0
 91
        1
 62
     0
 92
       -2
340
0
 93
        0
 40
0.045
309
GRIDFORMAT_END
 95
        2
302
GRIDFORMAT
  1
GRIDFORMAT_BEGIN
 90
        0
 91
        1
 62
     0
 92
       -2
340
0
 93
        0
 40
0.045
309
GRIDFORMAT_END
 95
        4
302
GRIDFORMAT
  1
GRIDFORMAT_BEGIN
 90
        0
 91
        1
 62
     0
 92
       -2
340
0
 93
        0
 40
0.045
309
GRIDFORMAT_END
 95
        8
302
GRIDFORMAT
  1
GRIDFORMAT_BEGIN
 90
        0
 91
        1
 62
     0
 92
       -2
340
0
 93
        0
 40
0.045
309
GRIDFORMAT_END
 95
       16
302
GRIDFORMAT
  1
GRIDFORMAT_BEGIN
 90
        0
 91
        1
 62
     0
 92
       -2
340
0
 93
        0
 40
0.045
309
GRIDFORMAT_END
 95
       32
302
GRIDFORMAT
  1
GRIDFORMAT_BEGIN
 90
        0
 91
        1
 62
     0
 92
       -2
340
0
 93
        0
 40
0.045
309
GRIDFORMAT_END
309
TABLEFORMAT_END
  1
CELLSTYLE_BEGIN
 90
        1
 91
        1
300
_TITLE
309
CELLSTYLE_END
300
CELLSTYLE
  1
TABLEFORMAT_BEGIN
 90
        5
170
     1
 91
        0
 92
        0
 62
   257
 93
        1
300
CONTENTFORMAT
  1
CONTENTFORMAT_BEGIN
 90
        0
 91
        0
 92
        4
 93
        0
300

 40
0.0
140
1.0
 94
        5
 62
     0
340
11
144
0.18
309
CONTENTFORMAT_END
171
     0
 94
        6
 95
        1
302
GRIDFORMAT
  1
GRIDFORMAT_BEGIN
 90
        0
 91
        1
 62
     0
 92
       -2
340
0
 93
        0
 40
0.045
309
GRIDFORMAT_END
 95
        2
302
GRIDFORMAT
  1
GRIDFORMAT_BEGIN
 90
        0
 91
        1
 62
     0
 92
       -2
340
0
 93
        0
 40
0.045
309
GRIDFORMAT_END
 95
        4
302
GRIDFORMAT
  1
GRIDFORMAT_BEGIN
 90
        0
 91
        1
 62
     0
 92
       -2
340
0
 93
        0
 40
0.045
309
GRIDFORMAT_END
 95
        8
302
GRIDFORMAT
  1
GRIDFORMAT_BEGIN
 90
        0
 91
        1
 62
     0
 92
       -2
340
0
 93
        0
 40
0.045
309
GRIDFORMAT_END
 95
       16
302
GRIDFORMAT
  1
GRIDFORMAT_BEGIN
 90
        0
 91
        1
 62
     0
 92
       -2
340
0
 93
        0
 40
0.045
309
GRIDFORMAT_END
 95
       32
302
GRIDFORMAT
  1
GRIDFORMAT_BEGIN
 90
        0
 91
        1
 62
     0
 92
       -2
340
0
 93
        0
 40
0.045
309
GRIDFORMAT_END
309
TABLEFORMAT_END
  1
CELLSTYLE_BEGIN
 90
        2
 91
        1
300
_HEADER
309
CELLSTYLE_END
300
CELLSTYLE
  1
TABLEFORMAT_BEGIN
 90
        5
170
     1
 91
        0
 92
        0
 62
   257
 93
        1
300
CONTENTFORMAT
  1
CONTENTFORMAT_BEGIN
 90
        0
 91
        0
 92
        4
 93
        0
300

 40
0.0
140
1.0
 94
        2
 62
     0
340
11
144
0.18
309
CONTENTFORMAT_END
171
     0
 94
        6
 95
        1
302
GRIDFORMAT
  1
GRIDFORMAT_BEGIN
 90
        0
 91
        1
 62
     0
 92
       -2
340
0
 93
        0
 40
0.045
309
GRIDFORMAT_END
 95
        2
302
GRIDFORMAT
  1
GRIDFORMAT_BEGIN
 90
        0
 91
        1
 62
     0
 92
       -2
340
0
 93
        0
 40
0.045
309
GRIDFORMAT_END
 95
        4
302
GRIDFORMAT
  1
GRIDFORMAT_BEGIN
 90
        0
 91
        1
 62
     0
 92
       -2
340
0
 93
        0
 40
0.045
309
GRIDFORMAT_END
 95
        8
302
GRIDFORMAT
  1
GRIDFORMAT_BEGIN
 90
        0
 91
        1
 62
     0
 92
       -2
340
0
 93
        0
 40
0.045
309
GRIDFORMAT_END
 95
       16
302
GRIDFORMAT
  1
GRIDFORMAT_BEGIN
 90
        0
 91
        1
 62
     0
 92
       -2
340
0
 93
        0
 40
0.045
309
GRIDFORMAT_END
 95
       32
302
GRIDFORMAT
  1
GRIDFORMAT_BEGIN
 90
        0
 91
        1
 62
     0
 92
       -2
340
0
 93
        0
 40
0.045
309
GRIDFORMAT_END
309
TABLEFORMAT_END
  1
CELLSTYLE_BEGIN
 90
        3
 91
        2
300
_DATA
309
CELLSTYLE_END
  0
XRECORD
  5
9BD0
102
{ACAD_REACTORS
330
8F42
102
}
330
8F42
100
AcDbXrecord
280
     1
102
ACAD_ROUNDTRIP_PRE2007_TABLESTYLE
 90
        4
 91
        0
  1

 92
        4
 93
        0
  2

 94
        4
 95
        0
  3

  0
XRECORD
  5
9BDF
102
{ACAD_REACTORS
330
9BDE
102
}
330
9BDE
100
AcDbXrecord
280
     1
102
RTVSPropertyOp0
 70
     1
102
RTVSPropertyOp1
 70
     1
102
RTVSPropertyOp2
 70
     1
102
RTVSPropertyOp3
 70
     1
102
RTVSPropertyOp4
 70
     1
102
RTVSPropertyOp5
 70
     1
102
RTVSPropertyOp6
 70
     1
102
RTVSPropertyOp7
 70
     1
102
RTVSPropertyOp8
 70
     1
102
RTVSPropertyOp9
 70
     1
102
RTVSPropertyOp10
 70
     1
102
RTVSPropertyOp11
 70
     1
102
RTVSPropertyOp12
 70
     1
102
RTVSPropertyOp13
 70
     1
102
RTVSPropertyOp14
 70
     1
102
RTVSPropertyOp15
 70
     1
102
RTVSPropertyOp16
 70
     1
102
RTVSPropertyOp17
 70
     1
102
RTVSPropertyOp18
 70
     1
102
RTVSPropertyOp19
 70
     1
102
RTVSPropertyOp20
 70
     1
102
RTVSPropertyOp21
 70
     1
102
RTVSPropertyOp22
 70
     1
102
RTVSPropertyOp23
 70
     1
102
RTVSPropertyOp24
 70
     1
102
RTVSPropertyOp25
 70
     1
102
RTVSPropertyOp26
 70
     1
102
RTVSPropertyOp27
 70
     1
102
RTVSPropertyOp28
 70
     1
102
RTVSPropertyOp29
 70
     1
102
RTVSPropertyOp30
 70
     1
102
RTVSPropertyOp31
 70
     1
102
RTVSPropertyOp32
 70
     1
  0
XRECORD
  5
9BDD
102
{ACAD_REACTORS
330
9BDC
102
}
330
9BDC
100
AcDbXrecord
280
     1
102
RTVSPropertyOp0
 70
     1
102
RTVSPropertyOp1
 70
     1
102
RTVSPropertyOp2
 70
     1
102
RTVSPropertyOp3
 70
     1
102
RTVSPropertyOp4
 70
     1
102
RTVSPropertyOp5
 70
     1
102
RTVSPropertyOp6
 70
     1
102
RTVSPropertyOp7
 70
     1
102
RTVSPropertyOp8
 70
     1
102
RTVSPropertyOp9
 70
     1
102
RTVSPropertyOp10
 70
     1
102
RTVSPropertyOp11
 70
     1
102
RTVSPropertyOp12
 70
     1
102
RTVSPropertyOp13
 70
     1
102
RTVSPropertyOp14
 70
     1
102
RTVSPropertyOp15
 70
     1
102
RTVSPropertyOp16
 70
     1
102
RTVSPropertyOp17
 70
     1
102
RTVSPropertyOp18
 70
     1
102
RTVSPropertyOp19
 70
     1
102
RTVSPropertyOp20
 70
     1
102
RTVSPropertyOp21
 70
     1
102
RTVSPropertyOp22
 70
     1
102
RTVSPropertyOp23
 70
     1
102
RTVSPropertyOp24
 70
     1
102
RTVSPropertyOp25
 70
     1
102
RTVSPropertyOp26
 70
     1
102
RTVSPropertyOp27
 70
     1
102
RTVSPropertyOp28
 70
     1
102
RTVSPropertyOp29
 70
     1
102
RTVSPropertyOp30
 70
     1
102
RTVSPropertyOp31
 70
     1
102
RTVSPropertyOp32
 70
     1
  0
XRECORD
  5
9BEB
102
{ACAD_REACTORS
330
9BEA
102
}
330
9BEA
100
AcDbXrecord
280
     1
102
RTVSPropertyOp0
 70
     1
102
RTVSPropertyOp1
 70
     1
102
RTVSPropertyOp2
 70
     1
102
RTVSPropertyOp3
 70
     1
102
RTVSPropertyOp4
 70
     1
102
RTVSPropertyOp5
 70
     1
102
RTVSPropertyOp6
 70
     1
102
RTVSPropertyOp7
 70
     1
102
RTVSPropertyOp8
 70
     1
102
RTVSPropertyOp9
 70
     1
102
RTVSPropertyOp10
 70
     1
102
RTVSPropertyOp11
 70
     1
102
RTVSPropertyOp12
 70
     1
102
RTVSPropertyOp13
 70
     1
102
RTVSPropertyOp14
 70
     1
102
RTVSPropertyOp15
 70
     1
102
RTVSPropertyOp16
 70
     1
102
RTVSPropertyOp17
 70
     1
102
RTVSPropertyOp18
 70
     1
102
RTVSPropertyOp19
 70
     1
102
RTVSPropertyOp20
 70
     1
102
RTVSPropertyOp21
 70
     1
102
RTVSPropertyOp22
 70
     1
102
RTVSPropertyOp23
 70
     1
102
RTVSPropertyOp24
 70
     1
102
RTVSPropertyOp25
 70
     1
102
RTVSPropertyOp26
 70
     1
102
RTVSPropertyOp27
 70
     1
102
RTVSPropertyOp28
 70
     1
102
RTVSPropertyOp29
 70
     1
102
RTVSPropertyOp30
 70
     1
102
RTVSPropertyOp31
 70
     1
102
RTVSPropertyOp32
 70
     1
  0
XRECORD
  5
9BF3
102
{ACAD_REACTORS
330
9BF2
102
}
330
9BF2
100
AcDbXrecord
280
     1
102
RTVSPropertyOp0
 70
     1
102
RTVSPropertyOp1
 70
     1
102
RTVSPropertyOp2
 70
     1
102
RTVSPropertyOp3
 70
     1
102
RTVSPropertyOp4
 70
     1
102
RTVSPropertyOp5
 70
     1
102
RTVSPropertyOp6
 70
     1
102
RTVSPropertyOp7
 70
     1
102
RTVSPropertyOp8
 70
     1
102
RTVSPropertyOp9
 70
     1
102
RTVSPropertyOp10
 70
     1
102
RTVSPropertyOp11
 70
     1
102
RTVSPropertyOp12
 70
     1
102
RTVSPropertyOp13
 70
     1
102
RTVSPropertyOp14
 70
     1
102
RTVSPropertyOp15
 70
     1
102
RTVSPropertyOp16
 70
     1
102
RTVSPropertyOp17
 70
     1
102
RTVSPropertyOp18
 70
     1
102
RTVSPropertyOp19
 70
     1
102
RTVSPropertyOp20
 70
     1
102
RTVSPropertyOp21
 70
     1
102
RTVSPropertyOp22
 70
     1
102
RTVSPropertyOp23
 70
     1
102
RTVSPropertyOp24
 70
     1
102
RTVSPropertyOp25
 70
     1
102
RTVSPropertyOp26
 70
     1
102
RTVSPropertyOp27
 70
     1
102
RTVSPropertyOp28
 70
     1
102
RTVSPropertyOp29
 70
     1
102
RTVSPropertyOp30
 70
     1
102
RTVSPropertyOp31
 70
     1
102
RTVSPropertyOp32
 70
     1
  0
XRECORD
  5
9BE5
102
{ACAD_REACTORS
330
9BE4
102
}
330
9BE4
100
AcDbXrecord
280
     1
102
RTVSPropertyOp0
 70
     1
102
RTVSPropertyOp1
 70
     1
102
RTVSPropertyOp2
 70
     1
102
RTVSPropertyOp3
 70
     1
102
RTVSPropertyOp4
 70
     1
102
RTVSPropertyOp5
 70
     1
102
RTVSPropertyOp6
 70
     1
102
RTVSPropertyOp7
 70
     1
102
RTVSPropertyOp8
 70
     1
102
RTVSPropertyOp9
 70
     1
102
RTVSPropertyOp10
 70
     1
102
RTVSPropertyOp11
 70
     1
102
RTVSPropertyOp12
 70
     1
102
RTVSPropertyOp13
 70
     1
102
RTVSPropertyOp14
 70
     1
102
RTVSPropertyOp15
 70
     1
102
RTVSPropertyOp16
 70
     1
102
RTVSPropertyOp17
 70
     1
102
RTVSPropertyOp18
 70
     1
102
RTVSPropertyOp19
 70
     1
102
RTVSPropertyOp20
 70
     1
102
RTVSPropertyOp21
 70
     1
102
RTVSPropertyOp22
 70
     1
102
RTVSPropertyOp23
 70
     1
102
RTVSPropertyOp24
 70
     1
102
RTVSPropertyOp25
 70
     1
102
RTVSPropertyOp26
 70
     1
102
RTVSPropertyOp27
 70
     1
102
RTVSPropertyOp28
 70
     1
102
RTVSPropertyOp29
 70
     1
102
RTVSPropertyOp30
 70
     1
102
RTVSPropertyOp31
 70
     1
102
RTVSPropertyOp32
 70
     1
  0
XRECORD
  5
9BE9
102
{ACAD_REACTORS
330
9BE8
102
}
330
9BE8
100
AcDbXrecord
280
     1
102
RTVSPropertyOp0
 70
     1
102
RTVSPropertyOp1
 70
     1
102
RTVSPropertyOp2
 70
     1
102
RTVSPropertyOp3
 70
     1
102
RTVSPropertyOp4
 70
     1
102
RTVSPropertyOp5
 70
     1
102
RTVSPropertyOp6
 70
     1
102
RTVSPropertyOp7
 70
     1
102
RTVSPropertyOp8
 70
     1
102
RTVSPropertyOp9
 70
     1
102
RTVSPropertyOp10
 70
     1
102
RTVSPropertyOp11
 70
     1
102
RTVSPropertyOp12
 70
     1
102
RTVSPropertyOp13
 70
     1
102
RTVSPropertyOp14
 70
     1
102
RTVSPropertyOp15
 70
     1
102
RTVSPropertyOp16
 70
     1
102
RTVSPropertyOp17
 70
     1
102
RTVSPropertyOp18
 70
     1
102
RTVSPropertyOp19
 70
     1
102
RTVSPropertyOp20
 70
     1
102
RTVSPropertyOp21
 70
     1
102
RTVSPropertyOp22
 70
     1
102
RTVSPropertyOp23
 70
     1
102
RTVSPropertyOp24
 70
     1
102
RTVSPropertyOp25
 70
     1
102
RTVSPropertyOp26
 70
     1
102
RTVSPropertyOp27
 70
     1
102
RTVSPropertyOp28
 70
     1
102
RTVSPropertyOp29
 70
     1
102
RTVSPropertyOp30
 70
     1
102
RTVSPropertyOp31
 70
     1
102
RTVSPropertyOp32
 70
     1
  0
XRECORD
  5
9C03
102
{ACAD_REACTORS
330
9C02
102
}
330
9C02
100
AcDbXrecord
280
     1
102
RTVSPropertyOp0
 70
     0
102
RTVSPropertyOp1
 70
     0
102
RTVSPropertyOp2
 70
     0
102
RTVSPropertyOp3
 70
     0
102
RTVSPropertyOp4
 70
     0
102
RTVSPropertyOp5
 70
     0
102
RTVSPropertyOp6
 70
     0
102
RTVSPropertyOp7
 70
     0
102
RTVSPropertyOp8
 70
     0
102
RTVSPropertyOp9
 70
     0
102
RTVSPropertyOp10
 70
     0
102
RTVSPropertyOp11
 70
     0
102
RTVSPropertyOp12
 70
     0
102
RTVSPropertyOp13
 70
     0
102
RTVSPropertyOp14
 70
     2
102
RTVSPropertyOp15
 70
     0
102
RTVSPropertyOp16
 70
     0
102
RTVSPropertyOp17
 70
     0
102
RTVSPropertyOp18
 70
     0
102
RTVSPropertyOp19
 70
     0
102
RTVSPropertyOp20
 70
     0
102
RTVSPropertyOp21
 70
     0
102
RTVSPropertyOp22
 70
     0
102
RTVSPropertyOp23
 70
     0
102
RTVSPropertyOp24
 70
     0
102
RTVSPropertyOp25
 70
     0
102
RTVSPropertyOp26
 70
     0
102
RTVSPropertyOp27
 70
     0
102
RTVSPropertyOp28
 70
     1
102
RTVSPropertyOp29
 70
     1
102
RTVSPropertyOp30
 70
     1
102
RTVSPropertyOp31
 70
     1
102
RTVSPropertyOp32
 70
     1
  0
XRECORD
  5
9BF1
102
{ACAD_REACTORS
330
9BF0
102
}
330
9BF0
100
AcDbXrecord
280
     1
102
RTVSPropertyOp0
 70
     1
102
RTVSPropertyOp1
 70
     1
102
RTVSPropertyOp2
 70
     1
102
RTVSPropertyOp3
 70
     1
102
RTVSPropertyOp4
 70
     1
102
RTVSPropertyOp5
 70
     1
102
RTVSPropertyOp6
 70
     1
102
RTVSPropertyOp7
 70
     1
102
RTVSPropertyOp8
 70
     1
102
RTVSPropertyOp9
 70
     1
102
RTVSPropertyOp10
 70
     1
102
RTVSPropertyOp11
 70
     1
102
RTVSPropertyOp12
 70
     1
102
RTVSPropertyOp13
 70
     1
102
RTVSPropertyOp14
 70
     1
102
RTVSPropertyOp15
 70
     1
102
RTVSPropertyOp16
 70
     1
102
RTVSPropertyOp17
 70
     1
102
RTVSPropertyOp18
 70
     1
102
RTVSPropertyOp19
 70
     1
102
RTVSPropertyOp20
 70
     1
102
RTVSPropertyOp21
 70
     1
102
RTVSPropertyOp22
 70
     1
102
RTVSPropertyOp23
 70
     1
102
RTVSPropertyOp24
 70
     1
102
RTVSPropertyOp25
 70
     1
102
RTVSPropertyOp26
 70
     1
102
RTVSPropertyOp27
 70
     1
102
RTVSPropertyOp28
 70
     1
102
RTVSPropertyOp29
 70
     1
102
RTVSPropertyOp30
 70
     1
102
RTVSPropertyOp31
 70
     1
102
RTVSPropertyOp32
 70
     1
  0
XRECORD
  5
9BD5
102
{ACAD_REACTORS
330
9BD4
102
}
330
9BD4
100
AcDbXrecord
280
     1
102
RTVSPropertyOp0
 70
     1
102
RTVSPropertyOp1
 70
     1
102
RTVSPropertyOp2
 70
     1
102
RTVSPropertyOp3
 70
     1
102
RTVSPropertyOp4
 70
     1
102
RTVSPropertyOp5
 70
     1
102
RTVSPropertyOp6
 70
     1
102
RTVSPropertyOp7
 70
     1
102
RTVSPropertyOp8
 70
     1
102
RTVSPropertyOp9
 70
     1
102
RTVSPropertyOp10
 70
     1
102
RTVSPropertyOp11
 70
     1
102
RTVSPropertyOp12
 70
     1
102
RTVSPropertyOp13
 70
     1
102
RTVSPropertyOp14
 70
     1
102
RTVSPropertyOp15
 70
     1
102
RTVSPropertyOp16
 70
     1
102
RTVSPropertyOp17
 70
     1
102
RTVSPropertyOp18
 70
     1
102
RTVSPropertyOp19
 70
     1
102
RTVSPropertyOp20
 70
     1
102
RTVSPropertyOp21
 70
     1
102
RTVSPropertyOp22
 70
     1
102
RTVSPropertyOp23
 70
     1
102
RTVSPropertyOp24
 70
     1
102
RTVSPropertyOp25
 70
     1
102
RTVSPropertyOp26
 70
     1
102
RTVSPropertyOp27
 70
     1
102
RTVSPropertyOp28
 70
     1
102
RTVSPropertyOp29
 70
     1
102
RTVSPropertyOp30
 70
     1
102
RTVSPropertyOp31
 70
     1
102
RTVSPropertyOp32
 70
     1
  0
XRECORD
  5
9BD7
102
{ACAD_REACTORS
330
9BD6
102
}
330
9BD6
100
AcDbXrecord
280
     1
102
RTVSPropertyOp0
 70
     1
102
RTVSPropertyOp1
 70
     1
102
RTVSPropertyOp2
 70
     1
102
RTVSPropertyOp3
 70
     1
102
RTVSPropertyOp4
 70
     1
102
RTVSPropertyOp5
 70
     1
102
RTVSPropertyOp6
 70
     1
102
RTVSPropertyOp7
 70
     1
102
RTVSPropertyOp8
 70
     1
102
RTVSPropertyOp9
 70
     1
102
RTVSPropertyOp10
 70
     1
102
RTVSPropertyOp11
 70
     1
102
RTVSPropertyOp12
 70
     1
102
RTVSPropertyOp13
 70
     1
102
RTVSPropertyOp14
 70
     1
102
RTVSPropertyOp15
 70
     1
102
RTVSPropertyOp16
 70
     1
102
RTVSPropertyOp17
 70
     1
102
RTVSPropertyOp18
 70
     1
102
RTVSPropertyOp19
 70
     1
102
RTVSPropertyOp20
 70
     1
102
RTVSPropertyOp21
 70
     1
102
RTVSPropertyOp22
 70
     1
102
RTVSPropertyOp23
 70
     1
102
RTVSPropertyOp24
 70
     1
102
RTVSPropertyOp25
 70
     1
102
RTVSPropertyOp26
 70
     1
102
RTVSPropertyOp27
 70
     1
102
RTVSPropertyOp28
 70
     1
102
RTVSPropertyOp29
 70
     1
102
RTVSPropertyOp30
 70
     1
102
RTVSPropertyOp31
 70
     1
102
RTVSPropertyOp32
 70
     1
  0
XRECORD
  5
9BD9
102
{ACAD_REACTORS
330
9BD8
102
}
330
9BD8
100
AcDbXrecord
280
     1
102
RTVSPropertyOp0
 70
     1
102
RTVSPropertyOp1
 70
     1
102
RTVSPropertyOp2
 70
     1
102
RTVSPropertyOp3
 70
     1
102
RTVSPropertyOp4
 70
     1
102
RTVSPropertyOp5
 70
     1
102
RTVSPropertyOp6
 70
     1
102
RTVSPropertyOp7
 70
     1
102
RTVSPropertyOp8
 70
     1
102
RTVSPropertyOp9
 70
     1
102
RTVSPropertyOp10
 70
     1
102
RTVSPropertyOp11
 70
     1
102
RTVSPropertyOp12
 70
     1
102
RTVSPropertyOp13
 70
     1
102
RTVSPropertyOp14
 70
     1
102
RTVSPropertyOp15
 70
     1
102
RTVSPropertyOp16
 70
     1
102
RTVSPropertyOp17
 70
     1
102
RTVSPropertyOp18
 70
     1
102
RTVSPropertyOp19
 70
     1
102
RTVSPropertyOp20
 70
     1
102
RTVSPropertyOp21
 70
     1
102
RTVSPropertyOp22
 70
     1
102
RTVSPropertyOp23
 70
     1
102
RTVSPropertyOp24
 70
     1
102
RTVSPropertyOp25
 70
     1
102
RTVSPropertyOp26
 70
     1
102
RTVSPropertyOp27
 70
     1
102
RTVSPropertyOp28
 70
     1
102
RTVSPropertyOp29
 70
     1
102
RTVSPropertyOp30
 70
     1
102
RTVSPropertyOp31
 70
     1
102
RTVSPropertyOp32
 70
     1
  0
XRECORD
  5
9BDB
102
{ACAD_REACTORS
330
9BDA
102
}
330
9BDA
100
AcDbXrecord
280
     1
102
RTVSPropertyOp0
 70
     1
102
RTVSPropertyOp1
 70
     1
102
RTVSPropertyOp2
 70
     1
102
RTVSPropertyOp3
 70
     1
102
RTVSPropertyOp4
 70
     1
102
RTVSPropertyOp5
 70
     1
102
RTVSPropertyOp6
 70
     1
102
RTVSPropertyOp7
 70
     1
102
RTVSPropertyOp8
 70
     1
102
RTVSPropertyOp9
 70
     1
102
RTVSPropertyOp10
 70
     1
102
RTVSPropertyOp11
 70
     1
102
RTVSPropertyOp12
 70
     1
102
RTVSPropertyOp13
 70
     1
102
RTVSPropertyOp14
 70
     1
102
RTVSPropertyOp15
 70
     1
102
RTVSPropertyOp16
 70
     1
102
RTVSPropertyOp17
 70
     1
102
RTVSPropertyOp18
 70
     1
102
RTVSPropertyOp19
 70
     1
102
RTVSPropertyOp20
 70
     1
102
RTVSPropertyOp21
 70
     1
102
RTVSPropertyOp22
 70
     1
102
RTVSPropertyOp23
 70
     1
102
RTVSPropertyOp24
 70
     1
102
RTVSPropertyOp25
 70
     1
102
RTVSPropertyOp26
 70
     1
102
RTVSPropertyOp27
 70
     1
102
RTVSPropertyOp28
 70
     1
102
RTVSPropertyOp29
 70
     1
102
RTVSPropertyOp30
 70
     1
102
RTVSPropertyOp31
 70
     1
102
RTVSPropertyOp32
 70
     1
  0
XRECORD
  5
9BE3
102
{ACAD_REACTORS
330
9BE2
102
}
330
9BE2
100
AcDbXrecord
280
     1
102
RTVSPropertyOp0
 70
     1
102
RTVSPropertyOp1
 70
     1
102
RTVSPropertyOp2
 70
     1
102
RTVSPropertyOp3
 70
     1
102
RTVSPropertyOp4
 70
     1
102
RTVSPropertyOp5
 70
     1
102
RTVSPropertyOp6
 70
     1
102
RTVSPropertyOp7
 70
     1
102
RTVSPropertyOp8
 70
     1
102
RTVSPropertyOp9
 70
     1
102
RTVSPropertyOp10
 70
     1
102
RTVSPropertyOp11
 70
     1
102
RTVSPropertyOp12
 70
     1
102
RTVSPropertyOp13
 70
     1
102
RTVSPropertyOp14
 70
     1
102
RTVSPropertyOp15
 70
     1
102
RTVSPropertyOp16
 70
     1
102
RTVSPropertyOp17
 70
     1
102
RTVSPropertyOp18
 70
     1
102
RTVSPropertyOp19
 70
     1
102
RTVSPropertyOp20
 70
     1
102
RTVSPropertyOp21
 70
     1
102
RTVSPropertyOp22
 70
     1
102
RTVSPropertyOp23
 70
     1
102
RTVSPropertyOp24
 70
     1
102
RTVSPropertyOp25
 70
     1
102
RTVSPropertyOp26
 70
     1
102
RTVSPropertyOp27
 70
     1
102
RTVSPropertyOp28
 70
     1
102
RTVSPropertyOp29
 70
     1
102
RTVSPropertyOp30
 70
     1
102
RTVSPropertyOp31
 70
     1
102
RTVSPropertyOp32
 70
     1
  0
XRECORD
  5
9BFF
102
{ACAD_REACTORS
330
9BFE
102
}
330
9BFE
100
AcDbXrecord
280
     1
102
RTVSPropertyOp0
 70
     0
102
RTVSPropertyOp1
 70
     0
102
RTVSPropertyOp2
 70
     0
102
RTVSPropertyOp3
 70
     0
102
RTVSPropertyOp4
 70
     0
102
RTVSPropertyOp5
 70
     0
102
RTVSPropertyOp6
 70
     0
102
RTVSPropertyOp7
 70
     0
102
RTVSPropertyOp8
 70
     0
102
RTVSPropertyOp9
 70
     0
102
RTVSPropertyOp10
 70
     0
102
RTVSPropertyOp11
 70
     0
102
RTVSPropertyOp12
 70
     0
102
RTVSPropertyOp13
 70
     0
102
RTVSPropertyOp14
 70
     2
102
RTVSPropertyOp15
 70
     0
102
RTVSPropertyOp16
 70
     0
102
RTVSPropertyOp17
 70
     0
102
RTVSPropertyOp18
 70
     0
102
RTVSPropertyOp19
 70
     0
102
RTVSPropertyOp20
 70
     0
102
RTVSPropertyOp21
 70
     0
102
RTVSPropertyOp22
 70
     0
102
RTVSPropertyOp23
 70
     0
102
RTVSPropertyOp24
 70
     0
102
RTVSPropertyOp25
 70
     0
102
RTVSPropertyOp26
 70
     0
102
RTVSPropertyOp27
 70
     0
102
RTVSPropertyOp28
 70
     1
102
RTVSPropertyOp29
 70
     1
102
RTVSPropertyOp30
 70
     1
102
RTVSPropertyOp31
 70
     1
102
RTVSPropertyOp32
 70
     1
  0
XRECORD
  5
9BEF
102
{ACAD_REACTORS
330
9BEE
102
}
330
9BEE
100
AcDbXrecord
280
     1
102
RTVSPropertyOp0
 70
     1
102
RTVSPropertyOp1
 70
     1
102
RTVSPropertyOp2
 70
     1
102
RTVSPropertyOp3
 70
     1
102
RTVSPropertyOp4
 70
     1
102
RTVSPropertyOp5
 70
     1
102
RTVSPropertyOp6
 70
     1
102
RTVSPropertyOp7
 70
     1
102
RTVSPropertyOp8
 70
     1
102
RTVSPropertyOp9
 70
     1
102
RTVSPropertyOp10
 70
     1
102
RTVSPropertyOp11
 70
     1
102
RTVSPropertyOp12
 70
     1
102
RTVSPropertyOp13
 70
     1
102
RTVSPropertyOp14
 70
     1
102
RTVSPropertyOp15
 70
     1
102
RTVSPropertyOp16
 70
     1
102
RTVSPropertyOp17
 70
     1
102
RTVSPropertyOp18
 70
     1
102
RTVSPropertyOp19
 70
     1
102
RTVSPropertyOp20
 70
     1
102
RTVSPropertyOp21
 70
     1
102
RTVSPropertyOp22
 70
     1
102
RTVSPropertyOp23
 70
     1
102
RTVSPropertyOp24
 70
     1
102
RTVSPropertyOp25
 70
     1
102
RTVSPropertyOp26
 70
     1
102
RTVSPropertyOp27
 70
     1
102
RTVSPropertyOp28
 70
     1
102
RTVSPropertyOp29
 70
     1
102
RTVSPropertyOp30
 70
     1
102
RTVSPropertyOp31
 70
     1
102
RTVSPropertyOp32
 70
     1
  0
XRECORD
  5
9C01
102
{ACAD_REACTORS
330
9C00
102
}
330
9C00
100
AcDbXrecord
280
     1
102
RTVSPropertyOp0
 70
     0
102
RTVSPropertyOp1
 70
     0
102
RTVSPropertyOp2
 70
     0
102
RTVSPropertyOp3
 70
     0
102
RTVSPropertyOp4
 70
     0
102
RTVSPropertyOp5
 70
     0
102
RTVSPropertyOp6
 70
     0
102
RTVSPropertyOp7
 70
     0
102
RTVSPropertyOp8
 70
     0
102
RTVSPropertyOp9
 70
     0
102
RTVSPropertyOp10
 70
     0
102
RTVSPropertyOp11
 70
     0
102
RTVSPropertyOp12
 70
     0
102
RTVSPropertyOp13
 70
     0
102
RTVSPropertyOp14
 70
     2
102
RTVSPropertyOp15
 70
     0
102
RTVSPropertyOp16
 70
     0
102
RTVSPropertyOp17
 70
     0
102
RTVSPropertyOp18
 70
     0
102
RTVSPropertyOp19
 70
     0
102
RTVSPropertyOp20
 70
     0
102
RTVSPropertyOp21
 70
     0
102
RTVSPropertyOp22
 70
     0
102
RTVSPropertyOp23
 70
     0
102
RTVSPropertyOp24
 70
     0
102
RTVSPropertyOp25
 70
     0
102
RTVSPropertyOp26
 70
     0
102
RTVSPropertyOp27
 70
     0
102
RTVSPropertyOp28
 70
     1
102
RTVSPropertyOp29
 70
     1
102
RTVSPropertyOp30
 70
     1
102
RTVSPropertyOp31
 70
     1
102
RTVSPropertyOp32
 70
     1
  0
XRECORD
  5
9BE7
102
{ACAD_REACTORS
330
9BE6
102
}
330
9BE6
100
AcDbXrecord
280
     1
102
RTVSPropertyOp0
 70
     1
102
RTVSPropertyOp1
 70
     1
102
RTVSPropertyOp2
 70
     1
102
RTVSPropertyOp3
 70
     1
102
RTVSPropertyOp4
 70
     1
102
RTVSPropertyOp5
 70
     1
102
RTVSPropertyOp6
 70
     1
102
RTVSPropertyOp7
 70
     1
102
RTVSPropertyOp8
 70
     1
102
RTVSPropertyOp9
 70
     1
102
RTVSPropertyOp10
 70
     1
102
RTVSPropertyOp11
 70
     1
102
RTVSPropertyOp12
 70
     1
102
RTVSPropertyOp13
 70
     1
102
RTVSPropertyOp14
 70
     1
102
RTVSPropertyOp15
 70
     1
102
RTVSPropertyOp16
 70
     1
102
RTVSPropertyOp17
 70
     1
102
RTVSPropertyOp18
 70
     1
102
RTVSPropertyOp19
 70
     1
102
RTVSPropertyOp20
 70
     1
102
RTVSPropertyOp21
 70
     1
102
RTVSPropertyOp22
 70
     1
102
RTVSPropertyOp23
 70
     1
102
RTVSPropertyOp24
 70
     1
102
RTVSPropertyOp25
 70
     1
102
RTVSPropertyOp26
 70
     1
102
RTVSPropertyOp27
 70
     1
102
RTVSPropertyOp28
 70
     1
102
RTVSPropertyOp29
 70
     1
102
RTVSPropertyOp30
 70
     1
102
RTVSPropertyOp31
 70
     1
102
RTVSPropertyOp32
 70
     1
  0
XRECORD
  5
9BFD
102
{ACAD_REACTORS
330
9BFC
102
}
330
9BFC
100
AcDbXrecord
280
     1
102
RTVSPropertyOp0
 70
     1
102
RTVSPropertyOp1
 70
     1
102
RTVSPropertyOp2
 70
     1
102
RTVSPropertyOp3
 70
     1
102
RTVSPropertyOp4
 70
     1
102
RTVSPropertyOp5
 70
     1
102
RTVSPropertyOp6
 70
     1
102
RTVSPropertyOp7
 70
     1
102
RTVSPropertyOp8
 70
     1
102
RTVSPropertyOp9
 70
     1
102
RTVSPropertyOp10
 70
     1
102
RTVSPropertyOp11
 70
     1
102
RTVSPropertyOp12
 70
     1
102
RTVSPropertyOp13
 70
     1
102
RTVSPropertyOp14
 70
     1
102
RTVSPropertyOp15
 70
     1
102
RTVSPropertyOp16
 70
     1
102
RTVSPropertyOp17
 70
     1
102
RTVSPropertyOp18
 70
     1
102
RTVSPropertyOp19
 70
     1
102
RTVSPropertyOp20
 70
     1
102
RTVSPropertyOp21
 70
     1
102
RTVSPropertyOp22
 70
     1
102
RTVSPropertyOp23
 70
     1
102
RTVSPropertyOp24
 70
     1
102
RTVSPropertyOp25
 70
     1
102
RTVSPropertyOp26
 70
     1
102
RTVSPropertyOp27
 70
     1
102
RTVSPropertyOp28
 70
     1
102
RTVSPropertyOp29
 70
     1
102
RTVSPropertyOp30
 70
     1
102
RTVSPropertyOp31
 70
     1
102
RTVSPropertyOp32
 70
     1
  0
XRECORD
  5
9BFB
102
{ACAD_REACTORS
330
9BFA
102
}
330
9BFA
100
AcDbXrecord
280
     1
102
RTVSPropertyOp0
 70
     1
102
RTVSPropertyOp1
 70
     1
102
RTVSPropertyOp2
 70
     1
102
RTVSPropertyOp3
 70
     1
102
RTVSPropertyOp4
 70
     1
102
RTVSPropertyOp5
 70
     1
102
RTVSPropertyOp6
 70
     1
102
RTVSPropertyOp7
 70
     1
102
RTVSPropertyOp8
 70
     1
102
RTVSPropertyOp9
 70
     1
102
RTVSPropertyOp10
 70
     1
102
RTVSPropertyOp11
 70
     1
102
RTVSPropertyOp12
 70
     1
102
RTVSPropertyOp13
 70
     1
102
RTVSPropertyOp14
 70
     1
102
RTVSPropertyOp15
 70
     1
102
RTVSPropertyOp16
 70
     1
102
RTVSPropertyOp17
 70
     1
102
RTVSPropertyOp18
 70
     1
102
RTVSPropertyOp19
 70
     1
102
RTVSPropertyOp20
 70
     1
102
RTVSPropertyOp21
 70
     1
102
RTVSPropertyOp22
 70
     1
102
RTVSPropertyOp23
 70
     1
102
RTVSPropertyOp24
 70
     1
102
RTVSPropertyOp25
 70
     1
102
RTVSPropertyOp26
 70
     1
102
RTVSPropertyOp27
 70
     1
102
RTVSPropertyOp28
 70
     1
102
RTVSPropertyOp29
 70
     1
102
RTVSPropertyOp30
 70
     1
102
RTVSPropertyOp31
 70
     1
102
RTVSPropertyOp32
 70
     1
  0
XRECORD
  5
9BF5
102
{ACAD_REACTORS
330
9BF4
102
}
330
9BF4
100
AcDbXrecord
280
     1
102
RTVSPropertyOp0
 70
     1
102
RTVSPropertyOp1
 70
     1
102
RTVSPropertyOp2
 70
     1
102
RTVSPropertyOp3
 70
     1
102
RTVSPropertyOp4
 70
     1
102
RTVSPropertyOp5
 70
     1
102
RTVSPropertyOp6
 70
     1
102
RTVSPropertyOp7
 70
     1
102
RTVSPropertyOp8
 70
     1
102
RTVSPropertyOp9
 70
     1
102
RTVSPropertyOp10
 70
     1
102
RTVSPropertyOp11
 70
     1
102
RTVSPropertyOp12
 70
     1
102
RTVSPropertyOp13
 70
     1
102
RTVSPropertyOp14
 70
     1
102
RTVSPropertyOp15
 70
     1
102
RTVSPropertyOp16
 70
     1
102
RTVSPropertyOp17
 70
     1
102
RTVSPropertyOp18
 70
     1
102
RTVSPropertyOp19
 70
     1
102
RTVSPropertyOp20
 70
     1
102
RTVSPropertyOp21
 70
     1
102
RTVSPropertyOp22
 70
     1
102
RTVSPropertyOp23
 70
     1
102
RTVSPropertyOp24
 70
     1
102
RTVSPropertyOp25
 70
     1
102
RTVSPropertyOp26
 70
     1
102
RTVSPropertyOp27
 70
     1
102
RTVSPropertyOp28
 70
     1
102
RTVSPropertyOp29
 70
     1
102
RTVSPropertyOp30
 70
     1
102
RTVSPropertyOp31
 70
     1
102
RTVSPropertyOp32
 70
     1
  0
XRECORD
  5
9BF7
102
{ACAD_REACTORS
330
9BF6
102
}
330
9BF6
100
AcDbXrecord
280
     1
102
RTVSPropertyOp0
 70
     1
102
RTVSPropertyOp1
 70
     1
102
RTVSPropertyOp2
 70
     1
102
RTVSPropertyOp3
 70
     1
102
RTVSPropertyOp4
 70
     1
102
RTVSPropertyOp5
 70
     1
102
RTVSPropertyOp6
 70
     1
102
RTVSPropertyOp7
 70
     1
102
RTVSPropertyOp8
 70
     1
102
RTVSPropertyOp9
 70
     1
102
RTVSPropertyOp10
 70
     1
102
RTVSPropertyOp11
 70
     1
102
RTVSPropertyOp12
 70
     1
102
RTVSPropertyOp13
 70
     1
102
RTVSPropertyOp14
 70
     1
102
RTVSPropertyOp15
 70
     1
102
RTVSPropertyOp16
 70
     1
102
RTVSPropertyOp17
 70
     1
102
RTVSPropertyOp18
 70
     1
102
RTVSPropertyOp19
 70
     1
102
RTVSPropertyOp20
 70
     1
102
RTVSPropertyOp21
 70
     1
102
RTVSPropertyOp22
 70
     1
102
RTVSPropertyOp23
 70
     1
102
RTVSPropertyOp24
 70
     1
102
RTVSPropertyOp25
 70
     1
102
RTVSPropertyOp26
 70
     1
102
RTVSPropertyOp27
 70
     1
102
RTVSPropertyOp28
 70
     1
102
RTVSPropertyOp29
 70
     1
102
RTVSPropertyOp30
 70
     1
102
RTVSPropertyOp31
 70
     1
102
RTVSPropertyOp32
 70
     1
  0
XRECORD
  5
9BED
102
{ACAD_REACTORS
330
9BEC
102
}
330
9BEC
100
AcDbXrecord
280
     1
102
RTVSPropertyOp0
 70
     1
102
RTVSPropertyOp1
 70
     1
102
RTVSPropertyOp2
 70
     1
102
RTVSPropertyOp3
 70
     1
102
RTVSPropertyOp4
 70
     1
102
RTVSPropertyOp5
 70
     1
102
RTVSPropertyOp6
 70
     1
102
RTVSPropertyOp7
 70
     1
102
RTVSPropertyOp8
 70
     1
102
RTVSPropertyOp9
 70
     1
102
RTVSPropertyOp10
 70
     1
102
RTVSPropertyOp11
 70
     1
102
RTVSPropertyOp12
 70
     1
102
RTVSPropertyOp13
 70
     1
102
RTVSPropertyOp14
 70
     1
102
RTVSPropertyOp15
 70
     1
102
RTVSPropertyOp16
 70
     1
102
RTVSPropertyOp17
 70
     1
102
RTVSPropertyOp18
 70
     1
102
RTVSPropertyOp19
 70
     1
102
RTVSPropertyOp20
 70
     1
102
RTVSPropertyOp21
 70
     1
102
RTVSPropertyOp22
 70
     1
102
RTVSPropertyOp23
 70
     1
102
RTVSPropertyOp24
 70
     1
102
RTVSPropertyOp25
 70
     1
102
RTVSPropertyOp26
 70
     1
102
RTVSPropertyOp27
 70
     1
102
RTVSPropertyOp28
 70
     1
102
RTVSPropertyOp29
 70
     1
102
RTVSPropertyOp30
 70
     1
102
RTVSPropertyOp31
 70
     1
102
RTVSPropertyOp32
 70
     1
  0
XRECORD
  5
9BE1
102
{ACAD_REACTORS
330
9BE0
102
}
330
9BE0
100
AcDbXrecord
280
     1
102
RTVSPropertyOp0
 70
     1
102
RTVSPropertyOp1
 70
     1
102
RTVSPropertyOp2
 70
     1
102
RTVSPropertyOp3
 70
     1
102
RTVSPropertyOp4
 70
     1
102
RTVSPropertyOp5
 70
     1
102
RTVSPropertyOp6
 70
     1
102
RTVSPropertyOp7
 70
     1
102
RTVSPropertyOp8
 70
     1
102
RTVSPropertyOp9
 70
     1
102
RTVSPropertyOp10
 70
     1
102
RTVSPropertyOp11
 70
     1
102
RTVSPropertyOp12
 70
     1
102
RTVSPropertyOp13
 70
     1
102
RTVSPropertyOp14
 70
     1
102
RTVSPropertyOp15
 70
     1
102
RTVSPropertyOp16
 70
     1
102
RTVSPropertyOp17
 70
     1
102
RTVSPropertyOp18
 70
     1
102
RTVSPropertyOp19
 70
     1
102
RTVSPropertyOp20
 70
     1
102
RTVSPropertyOp21
 70
     1
102
RTVSPropertyOp22
 70
     1
102
RTVSPropertyOp23
 70
     1
102
RTVSPropertyOp24
 70
     1
102
RTVSPropertyOp25
 70
     1
102
RTVSPropertyOp26
 70
     1
102
RTVSPropertyOp27
 70
     1
102
RTVSPropertyOp28
 70
     1
102
RTVSPropertyOp29
 70
     1
102
RTVSPropertyOp30
 70
     1
102
RTVSPropertyOp31
 70
     1
102
RTVSPropertyOp32
 70
     1
  0
XRECORD
  5
9BF9
102
{ACAD_REACTORS
330
9BF8
102
}
330
9BF8
100
AcDbXrecord
280
     1
102
RTVSPropertyOp0
 70
     1
102
RTVSPropertyOp1
 70
     1
102
RTVSPropertyOp2
 70
     1
102
RTVSPropertyOp3
 70
     1
102
RTVSPropertyOp4
 70
     1
102
RTVSPropertyOp5
 70
     1
102
RTVSPropertyOp6
 70
     1
102
RTVSPropertyOp7
 70
     1
102
RTVSPropertyOp8
 70
     1
102
RTVSPropertyOp9
 70
     1
102
RTVSPropertyOp10
 70
     1
102
RTVSPropertyOp11
 70
     1
102
RTVSPropertyOp12
 70
     1
102
RTVSPropertyOp13
 70
     1
102
RTVSPropertyOp14
 70
     1
102
RTVSPropertyOp15
 70
     1
102
RTVSPropertyOp16
 70
     1
102
RTVSPropertyOp17
 70
     1
102
RTVSPropertyOp18
 70
     1
102
RTVSPropertyOp19
 70
     1
102
RTVSPropertyOp20
 70
     1
102
RTVSPropertyOp21
 70
     1
102
RTVSPropertyOp22
 70
     1
102
RTVSPropertyOp23
 70
     1
102
RTVSPropertyOp24
 70
     1
102
RTVSPropertyOp25
 70
     1
102
RTVSPropertyOp26
 70
     1
102
RTVSPropertyOp27
 70
     1
102
RTVSPropertyOp28
 70
     1
102
RTVSPropertyOp29
 70
     1
102
RTVSPropertyOp30
 70
     1
102
RTVSPropertyOp31
 70
     1
102
RTVSPropertyOp32
 70
     1
  0
ENDSEC
  0
EOF
