  0
SECTION
  2
HEADER
  9
$ACADVER
  1
AC1018
  9
$ACADMAINTVER
 70
   104
  9
$DWGCODEPAGE
  3
ANSI_932
  9
$LASTSAVEDBY
  1
HON1000CV
  9
$INSBASE
 10
0.0
 20
0.0
 30
0.0
  9
$EXTMIN
 10
1290.378469014712
 20
503.0254041339436
 30
0.0
  9
$EXTMAX
 10
3638.936061972865
 20
1741.354026039406
 30
0.0
  9
$LIMMIN
 10
0.0
 20
0.0
  9
$LIMMAX
 10
420.0
 20
297.0
  9
$ORTHOMODE
 70
     0
  9
$REGENMODE
 70
     1
  9
$FILLMODE
 70
     1
  9
$QTEXTMODE
 70
     0
  9
$MIRRTEXT
 70
     1
  9
$LTSCALE
 40
10.0
  9
$ATTMODE
 70
     1
  9
$TEXTSIZE
 40
50.0
  9
$TRACEWID
 40
0.05
  9
$TEXTSTYLE
  7
ACAD
  9
$CLAYER
  8
0
  9
$CELTYPE
  6
CONTINUOUS
  9
$CECOLOR
 62
     3
  9
$CELTSCALE
 40
1.0
  9
$DISPSILH
 70
     0
  9
$DIMSCALE
 40
1.0
  9
$DIMASZ
 40
20.0
  9
$DIMEXO
 40
0.0625
  9
$DIMDLI
 40
0.38
  9
$DIMRND
 40
0.0
  9
$DIMDLE
 40
0.0
  9
$DIMEXE
 40
0.18
  9
$DIMTP
 40
0.0
  9
$DIMTM
 40
0.0
  9
$DIMTXT
 40
50.0
  9
$DIMCEN
 40
20.0
  9
$DIMTSZ
 40
0.0
  9
$DIMTOL
 70
     0
  9
$DIMLIM
 70
     0
  9
$DIMTIH
 70
     1
  9
$DIMTOH
 70
     1
  9
$DIMSE1
 70
     0
  9
$DIMSE2
 70
     0
  9
$DIMTAD
 70
     0
  9
$DIMZIN
 70
     0
  9
$DIMBLK
  1
Open30
  9
$DIMASO
 70
     1
  9
$DIMSHO
 70
     1
  9
$DIMPOST
  1

  9
$DIMAPOST
  1

  9
$DIMALT
 70
     0
  9
$DIMALTD
 70
     2
  9
$DIMALTF
 40
25.4
  9
$DIMLFAC
 40
1.0
  9
$DIMTOFL
 70
     0
  9
$DIMTVP
 40
0.0
  9
$DIMTIX
 70
     0
  9
$DIMSOXD
 70
     0
  9
$DIMSAH
 70
     0
  9
$DIMBLK1
  1

  9
$DIMBLK2
  1

  9
$DIMSTYLE
  2
Standard
  9
$DIMCLRD
 70
     0
  9
$DIMCLRE
 70
     0
  9
$DIMCLRT
 70
     0
  9
$DIMTFAC
 40
1.0
  9
$DIMGAP
 40
0.09
  9
$DIMJUST
 70
     0
  9
$DIMSD1
 70
     0
  9
$DIMSD2
 70
     0
  9
$DIMTOLJ
 70
     1
  9
$DIMTZIN
 70
     0
  9
$DIMALTZ
 70
     0
  9
$DIMALTTZ
 70
     0
  9
$DIMUPT
 70
     0
  9
$DIMDEC
 70
     4
  9
$DIMTDEC
 70
     4
  9
$DIMALTU
 70
     2
  9
$DIMALTTD
 70
     2
  9
$DIMTXSTY
  7
STANDARD
  9
$DIMAUNIT
 70
     0
  9
$DIMADEC
 70
     0
  9
$DIMALTRND
 40
0.0
  9
$DIMAZIN
 70
     0
  9
$DIMDSEP
 70
    46
  9
$DIMATFIT
 70
     3
  9
$DIMFRAC
 70
     0
  9
$DIMLDRBLK
  1
Open30
  9
$DIMLUNIT
 70
     2
  9
$DIMLWD
 70
    -2
  9
$DIMLWE
 70
    -2
  9
$DIMTMOVE
 70
     0
  9
$LUNITS
 70
     2
  9
$LUPREC
 70
     4
  9
$SKETCHINC
 40
0.1
  9
$FILLETRAD
 40
0.0
  9
$AUNITS
 70
     0
  9
$AUPREC
 70
     0
  9
$MENU
  1
.
  9
$ELEVATION
 40
0.0
  9
$PELEVATION
 40
0.0
  9
$THICKNESS
 40
0.0
  9
$LIMCHECK
 70
     0
  9
$CHAMFERA
 40
0.0
  9
$CHAMFERB
 40
0.0
  9
$CHAMFERC
 40
0.0
  9
$CHAMFERD
 40
0.0
  9
$SKPOLY
 70
     0
  9
$TDCREATE
 40
2454316.693457674
  9
$TDUCREATE
 40
2454316.318457674
  9
$TDUPDATE
 40
2455961.449968183
  9
$TDUUPDATE
 40
2455961.074968183
  9
$TDINDWG
 40
0.5626324537
  9
$TDUSRTIMER
 40
0.5626324537
  9
$USRTIMER
 70
     1
  9
$ANGBASE
 50
0.0
  9
$ANGDIR
 70
     0
  9
$PDMODE
 70
     0
  9
$PDSIZE
 40
0.0
  9
$PLINEWID
 40
0.0
  9
$SPLFRAME
 70
     0
  9
$SPLINETYPE
 70
     6
  9
$SPLINESEGS
 70
     8
  9
$HANDSEED
  5
D16C
  9
$SURFTAB1
 70
     6
  9
$SURFTAB2
 70
     6
  9
$SURFTYPE
 70
     6
  9
$SURFU
 70
     6
  9
$SURFV
 70
     6
  9
$UCSBASE
  2

  9
$UCSNAME
  2

  9
$UCSORG
 10
0.0
 20
0.0
 30
0.0
  9
$UCSXDIR
 10
1.0
 20
0.0
 30
0.0
  9
$UCSYDIR
 10
0.0
 20
1.0
 30
0.0
  9
$UCSORTHOREF
  2

  9
$UCSORTHOVIEW
 70
     0
  9
$UCSORGTOP
 10
0.0
 20
0.0
 30
0.0
  9
$UCSORGBOTTOM
 10
0.0
 20
0.0
 30
0.0
  9
$UCSORGLEFT
 10
0.0
 20
0.0
 30
0.0
  9
$UCSORGRIGHT
 10
0.0
 20
0.0
 30
0.0
  9
$UCSORGFRONT
 10
0.0
 20
0.0
 30
0.0
  9
$UCSORGBACK
 10
0.0
 20
0.0
 30
0.0
  9
$PUCSBASE
  2

  9
$PUCSNAME
  2

  9
$PUCSORG
 10
0.0
 20
0.0
 30
0.0
  9
$PUCSXDIR
 10
1.0
 20
0.0
 30
0.0
  9
$PUCSYDIR
 10
0.0
 20
1.0
 30
0.0
  9
$PUCSORTHOREF
  2

  9
$PUCSORTHOVIEW
 70
     0
  9
$PUCSORGTOP
 10
0.0
 20
0.0
 30
0.0
  9
$PUCSORGBOTTOM
 10
0.0
 20
0.0
 30
0.0
  9
$PUCSORGLEFT
 10
0.0
 20
0.0
 30
0.0
  9
$PUCSORGRIGHT
 10
0.0
 20
0.0
 30
0.0
  9
$PUCSORGFRONT
 10
0.0
 20
0.0
 30
0.0
  9
$PUCSORGBACK
 10
0.0
 20
0.0
 30
0.0
  9
$USERI1
 70
     0
  9
$USERI2
 70
     0
  9
$USERI3
 70
     0
  9
$USERI4
 70
     0
  9
$USERI5
 70
     0
  9
$USERR1
 40
0.0
  9
$USERR2
 40
0.0
  9
$USERR3
 40
0.0
  9
$USERR4
 40
0.0
  9
$USERR5
 40
0.0
  9
$WORLDVIEW
 70
     1
  9
$SHADEDGE
 70
     3
  9
$SHADEDIF
 70
    70
  9
$TILEMODE
 70
     1
  9
$MAXACTVP
 70
    48
  9
$PINSBASE
 10
0.0
 20
0.0
 30
0.0
  9
$PLIMCHECK
 70
     0
  9
$PEXTMIN
 10
1.000000000000000E+20
 20
1.000000000000000E+20
 30
1.000000000000000E+20
  9
$PEXTMAX
 10
-1.000000000000000E+20
 20
-1.000000000000000E+20
 30
-1.000000000000000E+20
  9
$PLIMMIN
 10
0.0
 20
0.0
  9
$PLIMMAX
 10
12.0
 20
9.0
  9
$UNITMODE
 70
     0
  9
$VISRETAIN
 70
     0
  9
$PLINEGEN
 70
     0
  9
$PSLTSCALE
 70
     1
  9
$TREEDEPTH
 70
  3020
  9
$CMLSTYLE
  2
Standard
  9
$CMLJUST
 70
     0
  9
$CMLSCALE
 40
1.0
  9
$PROXYGRAPHICS
 70
     1
  9
$MEASUREMENT
 70
     0
  9
$CELWEIGHT
370
    -1
  9
$ENDCAPS
280
     0
  9
$JOINSTYLE
280
     0
  9
$LWDISPLAY
290
     0
  9
$INSUNITS
 70
     0
  9
$HYPERLINKBASE
  1

  9
$STYLESHEET
  1
monochrome.ctb
  9
$XEDIT
290
     1
  9
$CEPSNTYPE
380
     0
  9
$PSTYLEMODE
290
     1
  9
$FINGERPRINTGUID
  2
{CC7D6DEE-A9F1-4F3E-AC95-C84B62CCA3FD}
  9
$VERSIONGUID
  2
{2D96309A-24F6-4D82-AB80-E16E87CB60A0}
  9
$EXTNAMES
290
     1
  9
$PSVPSCALE
 40
0.0
  9
$OLESTARTUP
290
     0
  9
$SORTENTS
280
   127
  9
$INDEXCTL
280
     0
  9
$HIDETEXT
280
     0
  9
$XCLIPFRAME
290
     0
  9
$HALOGAP
280
     0
  9
$OBSCOLOR
 70
   257
  9
$OBSLTYPE
280
     0
  9
$INTERSECTIONDISPLAY
280
     0
  9
$INTERSECTIONCOLOR
 70
   257
  9
$DIMASSOC
280
     1
  9
$PROJECTNAME
  1

  0
ENDSEC
  0
SECTION
  2
CLASSES
  0
CLASS
  1
ACDBDICTIONARYWDFLT
  2
AcDbDictionaryWithDefault
  3
ObjectDBX Classes
 90
        0
 91
        1
280
     0
281
     0
  0
CLASS
  1
DICTIONARYVAR
  2
AcDbDictionaryVar
  3
ObjectDBX Classes
 90
        0
 91
        8
280
     0
281
     0
  0
CLASS
  1
TABLESTYLE
  2
AcDbTableStyle
  3
ObjectDBX Classes
 90
     4095
 91
        1
280
     0
281
     0
  0
CLASS
  1
MATERIAL
  2
AcDbMaterial
  3
ObjectDBX Classes
 90
     1153
 91
        3
280
     0
281
     0
  0
CLASS
  1
VISUALSTYLE
  2
AcDbVisualStyle
  3
ObjectDBX Classes
 90
     4095
 91
       24
280
     0
281
     0
  0
CLASS
  1
SCALE
  2
AcDbScale
  3
ObjectDBX Classes
 90
     1153
 91
       17
280
     0
281
     0
  0
CLASS
  1
MLEADERSTYLE
  2
AcDbMLeaderStyle
  3
ACDB_MLEADERSTYLE_CLASS
 90
     4095
 91
        1
280
     0
281
     0
  0
CLASS
  1
SORTENTSTABLE
  2
AcDbSortentsTable
  3
ObjectDBX Classes
 90
        0
 91
        1
280
     0
281
     0
  0
CLASS
  1
CELLSTYLEMAP
  2
AcDbCellStyleMap
  3
ObjectDBX Classes
 90
     1152
 91
        2
280
     0
281
     0
  0
ENDSEC
  0
SECTION
  2
TABLES
  0
TABLE
  2
VPORT
  5
8
102
{ACAD_XDICTIONARY
360
C00A
102
}
330
0
100
AcDbSymbolTable
 70
     1
  0
VPORT
  5
765D
330
8
100
AcDbSymbolTableRecord
100
AcDbViewportTableRecord
  2
*Active
 70
     0
 10
0.0
 20
0.0
 11
1.0
 21
1.0
 12
2464.788690842738
 22
1122.160664186852
 13
0.0
 23
0.0
 14
1.0
 24
1.0
 15
0.0
 25
0.0
 16
0.0
 26
0.0
 36
1.0
 17
0.0
 27
0.0
 37
0.0
 40
1248.754158102743
 41
2.519736842105263
 42
50.0
 43
0.0
 44
0.0
 50
0.0
 51
0.0
 71
     0
 72
   100
 73
     1
 74
     1
 75
     0
 76
     0
 77
     0
 78
     0
281
     0
 65
     1
110
0.0
120
0.0
130
0.0
111
1.0
121
0.0
131
0.0
112
0.0
122
1.0
132
0.0
 79
     0
146
0.0
1001
ACAD_NAV_VCDISPLAY
1070
     3
  0
ENDTAB
  0
TABLE
  2
LTYPE
  5
5
330
0
100
AcDbSymbolTable
 70
     2
  0
LTYPE
  5
13
330
5
100
AcDbSymbolTableRecord
100
AcDbLinetypeTableRecord
  2
ByBlock
 70
     0
  3

 72
    65
 73
     0
 40
0.0
  0
LTYPE
  5
14
330
5
100
AcDbSymbolTableRecord
100
AcDbLinetypeTableRecord
  2
ByLayer
 70
     0
  3

 72
    65
 73
     0
 40
0.0
  0
LTYPE
  5
15
330
5
100
AcDbSymbolTableRecord
100
AcDbLinetypeTableRecord
  2
CONTINUOUS
 70
     0
  3
実線
 72
    65
 73
     0
 40
0.0
  0
LTYPE
  5
25
330
5
100
AcDbSymbolTableRecord
100
AcDbLinetypeTableRecord
  2
CENTER1
 70
     0
  3
----- - ----- - ----- - ----- - 
 72
    65
 73
     4
 40
10.0
 49
6.25
 74
     0
 49
-1.25
 74
     0
 49
1.25
 74
     0
 49
-1.25
 74
     0
  0
ENDTAB
  0
TABLE
  2
LAYER
  5
2
102
{ACAD_XDICTIONARY
360
175
102
}
330
0
100
AcDbSymbolTable
 70
     6
  0
LAYER
  5
10
102
{ACAD_XDICTIONARY
360
908C
102
}
330
2
100
AcDbSymbolTableRecord
100
AcDbLayerTableRecord
  2
0
 70
     0
 62
     7
  6
CONTINUOUS
370
    -3
390
F
  0
LAYER
  5
128
330
2
100
AcDbSymbolTableRecord
100
AcDbLayerTableRecord
  2
Defpoints
 70
     0
 62
     7
  6
CONTINUOUS
290
     0
370
    -3
390
F
  0
LAYER
  5
178
102
{ACAD_XDICTIONARY
360
908E
102
}
330
2
100
AcDbSymbolTableRecord
100
AcDbLayerTableRecord
  2
寸法
 70
     0
 62
     7
  6
CONTINUOUS
370
    -3
390
F
  0
LAYER
  5
179
102
{ACAD_XDICTIONARY
360
9090
102
}
330
2
100
AcDbSymbolTableRecord
100
AcDbLayerTableRecord
  2
躯体と製品
 70
     0
 62
     7
  6
CONTINUOUS
370
    -3
390
F
  0
LAYER
  5
4F62
102
{ACAD_XDICTIONARY
360
9092
102
}
330
2
100
AcDbSymbolTableRecord
100
AcDbLayerTableRecord
  2
文字-記号
 70
     0
 62
     7
  6
CONTINUOUS
370
    -3
390
F
  0
LAYER
  5
76F3
102
{ACAD_XDICTIONARY
360
9094
102
}
330
2
100
AcDbSymbolTableRecord
100
AcDbLayerTableRecord
  2
中心線
 70
     0
 62
     7
  6
CONTINUOUS
370
    -3
390
F
1001
AcAecLayerStandard
1000

1000

1001
AcCmTransparency
1071
        0
  0
ENDTAB
  0
TABLE
  2
STYLE
  5
3
330
0
100
AcDbSymbolTable
 70
     2
  0
STYLE
  5
11
330
3
100
AcDbSymbolTableRecord
100
AcDbTextStyleTableRecord
  2
STANDARD
 70
     0
 40
0.0
 41
1.0
 50
0.0
 71
     0
 42
0.2
  3
txt
  4
bigfont.shx
  0
STYLE
  5
123
330
3
100
AcDbSymbolTableRecord
100
AcDbTextStyleTableRecord
  2
ACAD
 70
     0
 40
50.0
 41
0.8
 50
0.0
 71
     0
 42
50.0
  3
romans.shx
  4
extfont.shx
  0
ENDTAB
  0
TABLE
  2
VIEW
  5
6
330
0
100
AcDbSymbolTable
 70
     0
  0
ENDTAB
  0
TABLE
  2
UCS
  5
7
330
0
100
AcDbSymbolTable
 70
     0
  0
ENDTAB
  0
TABLE
  2
APPID
  5
9
330
0
100
AcDbSymbolTable
 70
    18
  0
APPID
  5
12
330
9
100
AcDbSymbolTableRecord
100
AcDbRegAppTableRecord
  2
ACAD
 70
     0
  0
APPID
  5
727D
330
9
100
AcDbSymbolTableRecord
100
AcDbRegAppTableRecord
  2
ACAD_DSTYLE_DIMTEXT_FILL
 70
     0
  0
APPID
  5
727E
330
9
100
AcDbSymbolTableRecord
100
AcDbRegAppTableRecord
  2
ACAD_DSTYLE_DIMEXT_LENGTH
 70
     0
  0
APPID
  5
727F
330
9
100
AcDbSymbolTableRecord
100
AcDbRegAppTableRecord
  2
ACAD_DSTYLE_DIMEXT_ENABLED
 70
     0
  0
APPID
  5
7280
330
9
100
AcDbSymbolTableRecord
100
AcDbRegAppTableRecord
  2
ACAD_DSTYLE_DIM_LINETYPE
 70
     0
  0
APPID
  5
7281
330
9
100
AcDbSymbolTableRecord
100
AcDbRegAppTableRecord
  2
ACAD_DSTYLE_DIM_EXT1_LINETYPE
 70
     0
  0
APPID
  5
7282
330
9
100
AcDbSymbolTableRecord
100
AcDbRegAppTableRecord
  2
ACAD_DSTYLE_DIM_EXT2_LINETYPE
 70
     0
  0
APPID
  5
736E
330
9
100
AcDbSymbolTableRecord
100
AcDbRegAppTableRecord
  2
ACAD_DSTYLE_DIMJOGGED_JOGANGLE_SYMBOL
 70
     0
  0
APPID
  5
75B2
330
9
100
AcDbSymbolTableRecord
100
AcDbRegAppTableRecord
  2
ACAD_DSTYLE_DIMARC_LENGTH_SYMBOL
 70
     0
  0
APPID
  5
76F4
330
9
100
AcDbSymbolTableRecord
100
AcDbRegAppTableRecord
  2
ACAD_NAV_VCDISPLAY
 70
     0
  0
APPID
  5
76F5
330
9
100
AcDbSymbolTableRecord
100
AcDbRegAppTableRecord
  2
AcAecLayerStandard
 70
     0
  0
APPID
  5
76F6
330
9
100
AcDbSymbolTableRecord
100
AcDbRegAppTableRecord
  2
AcCmTransparency
 70
     0
  0
APPID
  5
8CF1
330
9
100
AcDbSymbolTableRecord
100
AcDbRegAppTableRecord
  2
ACAD_EXEMPT_FROM_CAD_STANDARDS
 70
     0
  0
APPID
  5
8F48
330
9
100
AcDbSymbolTableRecord
100
AcDbRegAppTableRecord
  2
ACAD_DSTYLE_DIMJAG
 70
     0
  0
APPID
  5
8F49
330
9
100
AcDbSymbolTableRecord
100
AcDbRegAppTableRecord
  2
ACAD_DSTYLE_DIMTALN
 70
     0
  0
APPID
  5
915C
330
9
100
AcDbSymbolTableRecord
100
AcDbRegAppTableRecord
  2
ACAD_PSEXT
 70
     0
  0
APPID
  5
B13E
330
9
100
AcDbSymbolTableRecord
100
AcDbRegAppTableRecord
  2
AcadAnnoPO
 70
     0
  0
APPID
  5
C040
330
9
100
AcDbSymbolTableRecord
100
AcDbRegAppTableRecord
  2
ACAD_MLEADERVER
 70
     0
  0
ENDTAB
  0
TABLE
  2
DIMSTYLE
  5
A
330
0
100
AcDbSymbolTable
 70
     2
100
AcDbDimStyleTable
 71
     2
340
11C
340
126
  0
DIMSTYLE
105
11C
330
A
100
AcDbSymbolTableRecord
100
AcDbDimStyleTableRecord
  2
Standard
 70
     0
 41
20.0
140
50.0
141
20.0
340
11
341
2CB5
342
2CB5
1001
ACAD_DSTYLE_DIMJOGGED_JOGANGLE_SYMBOL
1070
   384
1040
0.7853981633974483
1001
ACAD_DSTYLE_DIMJAG
1070
   388
1040
1.5
1001
ACAD_DSTYLE_DIMTALN
1070
   392
1070
     0
1001
ACAD_DSTYLE_DIMEXT_LENGTH
1070
   378
1040
0.18
  0
DIMSTYLE
105
126
102
{ACAD_REACTORS
330
705C
330
7069
330
7076
330
7090
330
709D
330
7083
330
AD49
330
AD4A
102
}
330
A
100
AcDbSymbolTableRecord
100
AcDbDimStyleTableRecord
  2
AutoCAD
 70
     0
 41
10.0
 42
0.0
 44
0.0
 73
     0
 77
     1
140
50.0
147
15.0
174
     1
176
     4
177
     4
178
     3
271
     0
272
     0
289
     0
340
123
341
15B0
342
C274
1001
ACAD_DSTYLE_DIMJAG
1070
   388
1040
1.5
1001
ACAD_DSTYLE_DIMTALN
1070
   392
1070
     0
  0
ENDTAB
  0
TABLE
  2
BLOCK_RECORD
  5
1
330
0
100
AcDbSymbolTable
 70
    11
  0
BLOCK_RECORD
  5
1E
102
{ACAD_XDICTIONARY
360
28B
102
}
330
1
100
AcDbSymbolTableRecord
100
AcDbBlockTableRecord
  2
*Model_Space
340
21
  0
BLOCK_RECORD
  5
1A
102
{ACAD_XDICTIONARY
360
28D
102
}
330
1
100
AcDbSymbolTableRecord
100
AcDbBlockTableRecord
  2
*Paper_Space
340
1D
  0
BLOCK_RECORD
  5
15B0
330
1
100
AcDbSymbolTableRecord
100
AcDbBlockTableRecord
  2
_None
340
0
  0
BLOCK_RECORD
  5
2CB5
330
1
100
AcDbSymbolTableRecord
100
AcDbBlockTableRecord
  2
_Open30
340
0
  0
BLOCK_RECORD
  5
705D
330
1
100
AcDbSymbolTableRecord
100
AcDbBlockTableRecord
  2
*D2
340
0
  0
BLOCK_RECORD
  5
706A
330
1
100
AcDbSymbolTableRecord
100
AcDbBlockTableRecord
  2
*D3
340
0
  0
BLOCK_RECORD
  5
7077
330
1
100
AcDbSymbolTableRecord
100
AcDbBlockTableRecord
  2
*D4
340
0
  0
BLOCK_RECORD
  5
7084
330
1
100
AcDbSymbolTableRecord
100
AcDbBlockTableRecord
  2
*D5
340
0
  0
BLOCK_RECORD
  5
7091
330
1
100
AcDbSymbolTableRecord
100
AcDbBlockTableRecord
  2
*D6
340
0
  0
BLOCK_RECORD
  5
709E
330
1
100
AcDbSymbolTableRecord
100
AcDbBlockTableRecord
  2
*D7
340
0
  0
BLOCK_RECORD
  5
AD4B
330
1
100
AcDbSymbolTableRecord
100
AcDbBlockTableRecord
  2
*D8
340
0
  0
BLOCK_RECORD
  5
AD57
330
1
100
AcDbSymbolTableRecord
100
AcDbBlockTableRecord
  2
*D9
340
0
  0
BLOCK_RECORD
  5
C274
330
1
100
AcDbSymbolTableRecord
100
AcDbBlockTableRecord
  2
_Small
340
0
102
{BLKREFS
331
CFD2
331
CFD3
331
CFDB
331
CFDC
331
CFE4
331
CFE5
331
CFED
331
CFEE
331
CFF6
331
CFF7
331
CFFF
331
D000
331
D008
331
D009
331
D011
331
D012
102
}
  0
ENDTAB
  0
ENDSEC
  0
SECTION
  2
BLOCKS
  0
BLOCK
  5
1F
330
1E
100
AcDbEntity
  8
0
100
AcDbBlockBegin
  2
*Model_Space
 70
     0
 10
0.0
 20
0.0
 30
0.0
  3
*Model_Space
  1

  0
ENDBLK
  5
20
330
1E
100
AcDbEntity
  8
0
100
AcDbBlockEnd
  0
BLOCK
  5
1B
330
1A
100
AcDbEntity
 67
     1
  8
0
100
AcDbBlockBegin
  2
*Paper_Space
 70
     0
 10
0.0
 20
0.0
 30
0.0
  3
*Paper_Space
  1

  0
ENDBLK
  5
1C
330
1A
100
AcDbEntity
 67
     1
  8
0
100
AcDbBlockEnd
  0
BLOCK
  5
15B1
330
15B0
100
AcDbEntity
  8
0
100
AcDbBlockBegin
  2
_None
 70
     0
 10
0.0
 20
0.0
 30
0.0
  3
_None
  1

  0
ENDBLK
  5
15B2
330
15B0
100
AcDbEntity
  8
0
100
AcDbBlockEnd
  0
BLOCK
  5
2CB9
330
2CB5
100
AcDbEntity
  8
0
100
AcDbBlockBegin
  2
_Open30
 70
     0
 10
0.0
 20
0.0
 30
0.0
  3
_Open30
  1

  0
LINE
  5
2CB6
330
2CB5
100
AcDbEntity
  8
0
  6
ByBlock
 62
     0
370
    -2
100
AcDbLine
 10
-1.0
 20
0.26794919
 30
0.0
 11
0.0
 21
0.0
 31
0.0
  0
LINE
  5
2CB7
330
2CB5
100
AcDbEntity
  8
0
  6
ByBlock
 62
     0
370
    -2
100
AcDbLine
 10
0.0
 20
0.0
 30
0.0
 11
-1.0
 21
-0.26794919
 31
0.0
  0
LINE
  5
2CB8
330
2CB5
100
AcDbEntity
  8
0
  6
ByBlock
 62
     0
370
    -2
100
AcDbLine
 10
0.0
 20
0.0
 30
0.0
 11
-1.0
 21
0.0
 31
0.0
  0
ENDBLK
  5
2CBA
330
2CB5
100
AcDbEntity
  8
0
100
AcDbBlockEnd
  0
BLOCK
  5
7067
330
705D
100
AcDbEntity
  8
0
100
AcDbBlockBegin
  2
*D2
 70
     1
 10
0.0
 20
0.0
 30
0.0
  3
*D2
  1

  0
LINE
  5
CFCF
330
705D
100
AcDbEntity
  8
寸法
  6
Continuous
 62
     4
440
 16777216
370
    -2
100
AcDbLine
 10
2390.347729014712
 20
1145.762479255398
 30
0.0
 11
2390.347729014712
 21
1195.703019255398
 31
0.0
  0
LINE
  5
CFD0
330
705D
100
AcDbEntity
  8
寸法
  6
Continuous
 62
     4
440
 16777216
370
    -2
100
AcDbLine
 10
2689.991019014711
 20
1145.762479255398
 30
0.0
 11
2689.991019014711
 21
1195.703019255398
 31
0.0
  0
LINE
  5
CFD1
330
705D
100
AcDbEntity
  8
寸法
  6
Continuous
 62
     4
440
 16777216
370
    -2
100
AcDbLine
 10
2390.347729014712
 20
1195.703019255398
 30
0.0
 11
2689.991019014711
 21
1195.703019255398
 31
0.0
  0
INSERT
  5
CFD2
330
705D
100
AcDbEntity
  8
寸法
  6
Continuous
 62
     4
440
 16777216
370
    -2
100
AcDbBlockReference
  2
_Small
 10
2390.347729014712
 20
1195.703019255398
 30
0.0
 41
10.0
 42
10.0
 43
10.0
 50
180.0
  0
INSERT
  5
CFD3
330
705D
100
AcDbEntity
  8
寸法
  6
Continuous
 62
     4
440
 16777216
370
    -2
100
AcDbBlockReference
  2
_Small
 10
2689.991019014711
 20
1195.703019255398
 30
0.0
 41
10.0
 42
10.0
 43
10.0
  0
MTEXT
  5
CFD4
330
705D
100
AcDbEntity
  8
寸法
  6
Continuous
 62
     3
440
 16777216
100
AcDbMText
 10
2540.169374014712
 20
1235.703019255398
 30
0.0
 40
50.0
 41
0.0
 71
     5
 72
     1
  1
\A1;300
  7
ACAD
 73
     1
 44
1.0
  0
POINT
  5
CFD5
330
705D
100
AcDbEntity
  8
Defpoints
  6
Continuous
 62
     0
440
 16777216
100
AcDbPoint
 10
2390.347729014712
 20
1145.762479255398
 30
0.0
  0
POINT
  5
CFD6
330
705D
100
AcDbEntity
  8
Defpoints
  6
Continuous
 62
     0
440
 16777216
100
AcDbPoint
 10
2689.991019014711
 20
1145.762479255398
 30
0.0
  0
POINT
  5
CFD7
330
705D
100
AcDbEntity
  8
Defpoints
  6
Continuous
 62
     0
440
 16777216
100
AcDbPoint
 10
2689.991019014711
 20
1195.703019255398
 30
0.0
  0
ENDBLK
  5
7068
330
705D
100
AcDbEntity
  8
0
100
AcDbBlockEnd
  0
BLOCK
  5
7074
330
706A
100
AcDbEntity
  8
0
100
AcDbBlockBegin
  2
*D3
 70
     1
 10
0.0
 20
0.0
 30
0.0
  3
*D3
  1

  0
LINE
  5
CFD8
330
706A
100
AcDbEntity
  8
寸法
  6
Continuous
 62
     4
440
 16777216
370
    -2
100
AcDbLine
 10
2689.991019014711
 20
1145.762479255398
 30
0.0
 11
2689.991019014711
 21
1195.703019255398
 31
0.0
  0
LINE
  5
CFD9
330
706A
100
AcDbEntity
  8
寸法
  6
Continuous
 62
     4
440
 16777216
370
    -2
100
AcDbLine
 10
2989.634299014712
 20
1145.762479255398
 30
0.0
 11
2989.634299014712
 21
1195.703019255398
 31
0.0
  0
LINE
  5
CFDA
330
706A
100
AcDbEntity
  8
寸法
  6
Continuous
 62
     4
440
 16777216
370
    -2
100
AcDbLine
 10
2689.991019014711
 20
1195.703019255398
 30
0.0
 11
2989.634299014712
 21
1195.703019255398
 31
0.0
  0
INSERT
  5
CFDB
330
706A
100
AcDbEntity
  8
寸法
  6
Continuous
 62
     4
440
 16777216
370
    -2
100
AcDbBlockReference
  2
_Small
 10
2689.991019014711
 20
1195.703019255398
 30
0.0
 41
10.0
 42
10.0
 43
10.0
 50
180.0
  0
INSERT
  5
CFDC
330
706A
100
AcDbEntity
  8
寸法
  6
Continuous
 62
     4
440
 16777216
370
    -2
100
AcDbBlockReference
  2
_Small
 10
2989.634299014712
 20
1195.703019255398
 30
0.0
 41
10.0
 42
10.0
 43
10.0
  0
MTEXT
  5
CFDD
330
706A
100
AcDbEntity
  8
寸法
  6
Continuous
 62
     3
440
 16777216
100
AcDbMText
 10
2839.812659014711
 20
1235.703019255398
 30
0.0
 40
50.0
 41
0.0
 71
     5
 72
     1
  1
\A1;300
  7
ACAD
 73
     1
 44
1.0
  0
POINT
  5
CFDE
330
706A
100
AcDbEntity
  8
Defpoints
  6
Continuous
 62
     0
440
 16777216
100
AcDbPoint
 10
2689.991019014711
 20
1145.762479255398
 30
0.0
  0
POINT
  5
CFDF
330
706A
100
AcDbEntity
  8
Defpoints
  6
Continuous
 62
     0
440
 16777216
100
AcDbPoint
 10
2989.634299014712
 20
1145.762479255398
 30
0.0
  0
POINT
  5
CFE0
330
706A
100
AcDbEntity
  8
Defpoints
  6
Continuous
 62
     0
440
 16777216
100
AcDbPoint
 10
2989.634299014712
 20
1195.703019255398
 30
0.0
  0
ENDBLK
  5
7075
330
706A
100
AcDbEntity
  8
0
100
AcDbBlockEnd
  0
BLOCK
  5
7081
330
7077
100
AcDbEntity
  8
0
100
AcDbBlockBegin
  2
*D4
 70
     1
 10
0.0
 20
0.0
 30
0.0
  3
*D4
  1

  0
LINE
  5
CFE1
330
7077
100
AcDbEntity
  8
寸法
  6
Continuous
 62
     4
440
 16777216
370
    -2
100
AcDbLine
 10
2989.634299014712
 20
1145.762479255398
 30
0.0
 11
2989.634299014712
 21
1195.703019255398
 31
0.0
  0
LINE
  5
CFE2
330
7077
100
AcDbEntity
  8
寸法
  6
Continuous
 62
     4
440
 16777216
370
    -2
100
AcDbLine
 10
3289.277579014712
 20
1145.762479255398
 30
0.0
 11
3289.277579014712
 21
1195.703019255398
 31
0.0
  0
LINE
  5
CFE3
330
7077
100
AcDbEntity
  8
寸法
  6
Continuous
 62
     4
440
 16777216
370
    -2
100
AcDbLine
 10
2989.634299014712
 20
1195.703019255398
 30
0.0
 11
3289.277579014712
 21
1195.703019255398
 31
0.0
  0
INSERT
  5
CFE4
330
7077
100
AcDbEntity
  8
寸法
  6
Continuous
 62
     4
440
 16777216
370
    -2
100
AcDbBlockReference
  2
_Small
 10
2989.634299014712
 20
1195.703019255398
 30
0.0
 41
10.0
 42
10.0
 43
10.0
 50
180.0
  0
INSERT
  5
CFE5
330
7077
100
AcDbEntity
  8
寸法
  6
Continuous
 62
     4
440
 16777216
370
    -2
100
AcDbBlockReference
  2
_Small
 10
3289.277579014712
 20
1195.703019255398
 30
0.0
 41
10.0
 42
10.0
 43
10.0
  0
MTEXT
  5
CFE6
330
7077
100
AcDbEntity
  8
寸法
  6
Continuous
 62
     3
440
 16777216
100
AcDbMText
 10
3139.455939014712
 20
1235.703019255398
 30
0.0
 40
50.0
 41
0.0
 71
     5
 72
     1
  1
\A1;300
  7
ACAD
 73
     1
 44
1.0
  0
POINT
  5
CFE7
330
7077
100
AcDbEntity
  8
Defpoints
  6
Continuous
 62
     0
440
 16777216
100
AcDbPoint
 10
2989.634299014712
 20
1145.762479255398
 30
0.0
  0
POINT
  5
CFE8
330
7077
100
AcDbEntity
  8
Defpoints
  6
Continuous
 62
     0
440
 16777216
100
AcDbPoint
 10
3289.277579014712
 20
1145.762479255398
 30
0.0
  0
POINT
  5
CFE9
330
7077
100
AcDbEntity
  8
Defpoints
  6
Continuous
 62
     0
440
 16777216
100
AcDbPoint
 10
3289.277579014712
 20
1195.703019255398
 30
0.0
  0
ENDBLK
  5
7082
330
7077
100
AcDbEntity
  8
0
100
AcDbBlockEnd
  0
BLOCK
  5
708E
330
7084
100
AcDbEntity
  8
0
100
AcDbBlockBegin
  2
*D5
 70
     1
 10
0.0
 20
0.0
 30
0.0
  3
*D5
  1

  0
LINE
  5
CFFC
330
7084
100
AcDbEntity
  8
寸法
  6
Continuous
 62
     4
440
 16777216
370
    -2
100
AcDbLine
 10
1389.278579014711
 20
666.8326292553979
 30
0.0
 11
1389.278579014711
 21
505.5254041339436
 31
0.0
  0
LINE
  5
CFFD
330
7084
100
AcDbEntity
  8
寸法
  6
Continuous
 62
     4
440
 16777216
370
    -2
100
AcDbLine
 10
1539.278579014711
 20
656.543593255398
 30
0.0
 11
1539.278579014711
 21
505.5254041339436
 31
0.0
  0
LINE
  5
CFFE
330
7084
100
AcDbEntity
  8
寸法
  6
Continuous
 62
     4
440
 16777216
370
    -2
100
AcDbLine
 10
1389.278579014711
 20
505.5254041339436
 30
0.0
 11
1539.278579014711
 21
505.5254041339436
 31
0.0
  0
INSERT
  5
CFFF
330
7084
100
AcDbEntity
  8
寸法
  6
Continuous
 62
     4
440
 16777216
370
    -2
100
AcDbBlockReference
  2
_Small
 10
1389.278579014711
 20
505.5254041339436
 30
0.0
 41
10.0
 42
10.0
 43
10.0
 50
180.0
  0
INSERT
  5
D000
330
7084
100
AcDbEntity
  8
寸法
  6
Continuous
 62
     4
440
 16777216
370
    -2
100
AcDbBlockReference
  2
_Small
 10
1539.278579014711
 20
505.5254041339436
 30
0.0
 41
10.0
 42
10.0
 43
10.0
  0
MTEXT
  5
D001
330
7084
100
AcDbEntity
  8
寸法
  6
Continuous
 62
     3
440
 16777216
100
AcDbMText
 10
1464.278579014711
 20
545.5254041339436
 30
0.0
 40
50.0
 41
0.0
 71
     5
 72
     1
  1
\A1;200以内
  7
ACAD
 73
     1
 44
1.0
  0
POINT
  5
D002
330
7084
100
AcDbEntity
  8
Defpoints
  6
Continuous
 62
     0
440
 16777216
100
AcDbPoint
 10
1389.278579014711
 20
666.8326292553979
 30
0.0
  0
POINT
  5
D003
330
7084
100
AcDbEntity
  8
Defpoints
  6
Continuous
 62
     0
440
 16777216
100
AcDbPoint
 10
1539.278579014711
 20
656.543593255398
 30
0.0
  0
POINT
  5
D004
330
7084
100
AcDbEntity
  8
Defpoints
  6
Continuous
 62
     0
440
 16777216
100
AcDbPoint
 10
1539.278579014711
 20
505.5254041339436
 30
0.0
  0
ENDBLK
  5
708F
330
7084
100
AcDbEntity
  8
0
100
AcDbBlockEnd
  0
BLOCK
  5
709B
330
7091
100
AcDbEntity
  8
0
100
AcDbBlockBegin
  2
*D6
 70
     1
 10
0.0
 20
0.0
 30
0.0
  3
*D6
  1

  0
LINE
  5
CFEA
330
7091
100
AcDbEntity
  8
寸法
  6
Continuous
 62
     4
440
 16777216
370
    -2
100
AcDbLine
 10
1539.278579014711
 20
656.543593255398
 30
0.0
 11
1539.278579014711
 21
505.5254041339436
 31
0.0
  0
LINE
  5
CFEB
330
7091
100
AcDbEntity
  8
寸法
  6
Continuous
 62
     4
440
 16777216
370
    -2
100
AcDbLine
 10
2239.278579014711
 20
654.0470154673731
 30
0.0
 11
2239.278579014711
 21
505.5254041339436
 31
0.0
  0
LINE
  5
CFEC
330
7091
100
AcDbEntity
  8
寸法
  6
Continuous
 62
     4
440
 16777216
370
    -2
100
AcDbLine
 10
1539.278579014711
 20
505.5254041339436
 30
0.0
 11
2239.278579014711
 21
505.5254041339436
 31
0.0
  0
INSERT
  5
CFED
330
7091
100
AcDbEntity
  8
寸法
  6
Continuous
 62
     4
440
 16777216
370
    -2
100
AcDbBlockReference
  2
_Small
 10
1539.278579014711
 20
505.5254041339436
 30
0.0
 41
10.0
 42
10.0
 43
10.0
 50
180.0
  0
INSERT
  5
CFEE
330
7091
100
AcDbEntity
  8
寸法
  6
Continuous
 62
     4
440
 16777216
370
    -2
100
AcDbBlockReference
  2
_Small
 10
2239.278579014711
 20
505.5254041339436
 30
0.0
 41
10.0
 42
10.0
 43
10.0
  0
MTEXT
  5
CFEF
330
7091
100
AcDbEntity
  8
寸法
  6
Continuous
 62
     3
440
 16777216
100
AcDbMText
 10
1889.278579014711
 20
545.5254041339436
 30
0.0
 40
50.0
 41
0.0
 71
     5
 72
     1
  1
\A1;900以内
  7
ACAD
 73
     1
 44
1.0
  0
POINT
  5
CFF0
330
7091
100
AcDbEntity
  8
Defpoints
  6
Continuous
 62
     0
440
 16777216
100
AcDbPoint
 10
1539.278579014711
 20
656.543593255398
 30
0.0
  0
POINT
  5
CFF1
330
7091
100
AcDbEntity
  8
Defpoints
  6
Continuous
 62
     0
440
 16777216
100
AcDbPoint
 10
2239.278579014711
 20
654.0470154673731
 30
0.0
  0
POINT
  5
CFF2
330
7091
100
AcDbEntity
  8
Defpoints
  6
Continuous
 62
     0
440
 16777216
100
AcDbPoint
 10
2239.278579014711
 20
505.5254041339436
 30
0.0
  0
ENDBLK
  5
709C
330
7091
100
AcDbEntity
  8
0
100
AcDbBlockEnd
  0
BLOCK
  5
70A8
330
709E
100
AcDbEntity
  8
0
100
AcDbBlockBegin
  2
*D7
 70
     1
 10
0.0
 20
0.0
 30
0.0
  3
*D7
  1

  0
LINE
  5
CFF3
330
709E
100
AcDbEntity
  8
寸法
  6
Continuous
 62
     4
440
 16777216
370
    -2
100
AcDbLine
 10
2239.278579014711
 20
654.0470154673731
 30
0.0
 11
2239.278579014711
 21
505.5254041339436
 31
0.0
  0
LINE
  5
CFF4
330
709E
100
AcDbEntity
  8
寸法
  6
Continuous
 62
     4
440
 16777216
370
    -2
100
AcDbLine
 10
3139.278579014711
 20
654.3701772553982
 30
0.0
 11
3139.278579014711
 21
505.5254041339436
 31
0.0
  0
LINE
  5
CFF5
330
709E
100
AcDbEntity
  8
寸法
  6
Continuous
 62
     4
440
 16777216
370
    -2
100
AcDbLine
 10
2239.278579014711
 20
505.5254041339436
 30
0.0
 11
3139.278579014711
 21
505.5254041339436
 31
0.0
  0
INSERT
  5
CFF6
330
709E
100
AcDbEntity
  8
寸法
  6
Continuous
 62
     4
440
 16777216
370
    -2
100
AcDbBlockReference
  2
_Small
 10
2239.278579014711
 20
505.5254041339436
 30
0.0
 41
10.0
 42
10.0
 43
10.0
 50
180.0
  0
INSERT
  5
CFF7
330
709E
100
AcDbEntity
  8
寸法
  6
Continuous
 62
     4
440
 16777216
370
    -2
100
AcDbBlockReference
  2
_Small
 10
3139.278579014711
 20
505.5254041339436
 30
0.0
 41
10.0
 42
10.0
 43
10.0
  0
MTEXT
  5
CFF8
330
709E
100
AcDbEntity
  8
寸法
  6
Continuous
 62
     3
440
 16777216
100
AcDbMText
 10
2689.278579014711
 20
545.5254041339436
 30
0.0
 40
50.0
 41
0.0
 71
     5
 72
     1
  1
\A1;900
  7
ACAD
 73
     1
 44
1.0
  0
POINT
  5
CFF9
330
709E
100
AcDbEntity
  8
Defpoints
  6
Continuous
 62
     0
440
 16777216
100
AcDbPoint
 10
2239.278579014711
 20
654.0470154673731
 30
0.0
  0
POINT
  5
CFFA
330
709E
100
AcDbEntity
  8
Defpoints
  6
Continuous
 62
     0
440
 16777216
100
AcDbPoint
 10
3139.278579014711
 20
654.3701772553982
 30
0.0
  0
POINT
  5
CFFB
330
709E
100
AcDbEntity
  8
Defpoints
  6
Continuous
 62
     0
440
 16777216
100
AcDbPoint
 10
3139.278579014711
 20
505.5254041339436
 30
0.0
  0
ENDBLK
  5
70A9
330
709E
100
AcDbEntity
  8
0
100
AcDbBlockEnd
  0
BLOCK
  5
AD4C
330
AD4B
100
AcDbEntity
  8
0
 62
     3
100
AcDbBlockBegin
  2
*D8
 70
     1
 10
0.0
 20
0.0
 30
0.0
  3
*D8
  1

  0
LINE
  5
D005
330
AD4B
100
AcDbEntity
  8
寸法
  6
Continuous
 62
     4
440
 16777216
370
    -2
100
AcDbLine
 10
3448.009837014719
 20
666.8326292553979
 30
0.0
 11
3531.827047014719
 21
666.8326292553979
 31
0.0
  0
LINE
  5
D006
330
AD4B
100
AcDbEntity
  8
寸法
  6
Continuous
 62
     4
440
 16777216
370
    -2
100
AcDbLine
 10
3448.009837014719
 20
1083.832629255398
 30
0.0
 11
3531.827047014719
 21
1083.832629255398
 31
0.0
  0
LINE
  5
D007
330
AD4B
100
AcDbEntity
  8
寸法
  6
Continuous
 62
     4
440
 16777216
370
    -2
100
AcDbLine
 10
3531.827047014719
 20
666.8326292553979
 30
0.0
 11
3531.827047014719
 21
1083.832629255398
 31
0.0
  0
INSERT
  5
D008
330
AD4B
100
AcDbEntity
  8
寸法
  6
Continuous
 62
     4
440
 16777216
370
    -2
100
AcDbBlockReference
  2
_Small
 10
3531.827047014719
 20
666.8326292553979
 30
0.0
 41
10.0
 42
10.0
 43
10.0
 50
270.0
  0
INSERT
  5
D009
330
AD4B
100
AcDbEntity
  8
寸法
  6
Continuous
 62
     4
440
 16777216
370
    -2
100
AcDbBlockReference
  2
_Small
 10
3531.827047014719
 20
1083.832629255398
 30
0.0
 41
10.0
 42
10.0
 43
10.0
 50
90.0
  0
MTEXT
  5
D00A
330
AD4B
100
AcDbEntity
  8
寸法
  6
Continuous
 62
     3
440
 16777216
100
AcDbMText
 10
3491.827047014719
 20
875.3326292553985
 30
0.0
 40
50.0
 41
0.0
 71
     5
 72
     1
  1
\A1;h
  7
ACAD
 11
0.0000000000000001
 21
1.0
 31
0.0
 73
     1
 44
1.0
  0
POINT
  5
D00B
330
AD4B
100
AcDbEntity
  8
Defpoints
  6
Continuous
 62
     0
440
 16777216
100
AcDbPoint
 10
3448.009837014719
 20
666.8326292553979
 30
0.0
  0
POINT
  5
D00C
330
AD4B
100
AcDbEntity
  8
Defpoints
  6
Continuous
 62
     0
440
 16777216
100
AcDbPoint
 10
3448.009837014719
 20
1083.832629255398
 30
0.0
  0
POINT
  5
D00D
330
AD4B
100
AcDbEntity
  8
Defpoints
  6
Continuous
 62
     0
440
 16777216
100
AcDbPoint
 10
3531.827047014719
 20
1083.832629255398
 30
0.0
  0
ENDBLK
  5
AD4D
330
AD4B
100
AcDbEntity
  8
0
 62
     3
100
AcDbBlockEnd
  0
BLOCK
  5
AD58
330
AD57
100
AcDbEntity
  8
0
 62
     3
100
AcDbBlockBegin
  2
*D9
 70
     1
 10
0.0
 20
0.0
 30
0.0
  3
*D9
  1

  0
LINE
  5
D00E
330
AD57
100
AcDbEntity
  8
寸法
  6
Continuous
 62
     4
440
 16777216
370
    -2
100
AcDbLine
 10
3448.009837014719
 20
666.8326292553979
 30
0.0
 11
3636.436061972864
 21
666.8326292553979
 31
0.0
  0
LINE
  5
D00F
330
AD57
100
AcDbEntity
  8
寸法
  6
Continuous
 62
     4
440
 16777216
370
    -2
100
AcDbLine
 10
3448.009837014719
 20
1116.832629255398
 30
0.0
 11
3636.436061972865
 21
1116.832629255398
 31
0.0
  0
LINE
  5
D010
330
AD57
100
AcDbEntity
  8
寸法
  6
Continuous
 62
     4
440
 16777216
370
    -2
100
AcDbLine
 10
3636.436061972864
 20
666.8326292553979
 30
0.0
 11
3636.436061972865
 21
1116.832629255398
 31
0.0
  0
INSERT
  5
D011
330
AD57
100
AcDbEntity
  8
寸法
  6
Continuous
 62
     4
440
 16777216
370
    -2
100
AcDbBlockReference
  2
_Small
 10
3636.436061972864
 20
666.8326292553979
 30
0.0
 41
10.0
 42
10.0
 43
10.0
 50
270.0
  0
INSERT
  5
D012
330
AD57
100
AcDbEntity
  8
寸法
  6
Continuous
 62
     4
440
 16777216
370
    -2
100
AcDbBlockReference
  2
_Small
 10
3636.436061972865
 20
1116.832629255398
 30
0.0
 41
10.0
 42
10.0
 43
10.0
 50
90.0
  0
MTEXT
  5
D013
330
AD57
100
AcDbEntity
  8
寸法
  6
Continuous
 62
     3
440
 16777216
100
AcDbMText
 10
3596.436061972865
 20
891.8326292553983
 30
0.0
 40
50.0
 41
0.0
 71
     5
 72
     1
  1
\A1;H
  7
ACAD
 11
0.0000000000000001
 21
1.0
 31
0.0
 73
     1
 44
1.0
  0
POINT
  5
D014
330
AD57
100
AcDbEntity
  8
Defpoints
  6
Continuous
 62
     0
440
 16777216
100
AcDbPoint
 10
3448.009837014719
 20
666.8326292553979
 30
0.0
  0
POINT
  5
D015
330
AD57
100
AcDbEntity
  8
Defpoints
  6
Continuous
 62
     0
440
 16777216
100
AcDbPoint
 10
3448.009837014719
 20
1116.832629255398
 30
0.0
  0
POINT
  5
D016
330
AD57
100
AcDbEntity
  8
Defpoints
  6
Continuous
 62
     0
440
 16777216
100
AcDbPoint
 10
3636.436061972865
 20
1116.832629255398
 30
0.0
  0
ENDBLK
  5
AD59
330
AD57
100
AcDbEntity
  8
0
 62
     3
100
AcDbBlockEnd
  0
BLOCK
  5
C275
330
C274
100
AcDbEntity
  8
0
100
AcDbBlockBegin
  2
_Small
 70
     0
 10
0.0
 20
0.0
 30
0.0
  3
_Small
  1

  0
CIRCLE
  5
C276
330
C274
100
AcDbEntity
  8
0
  6
ByBlock
 62
     0
370
    -2
100
AcDbCircle
 10
0.0
 20
0.0
 30
0.0
 40
0.25
  0
ENDBLK
  5
C277
330
C274
100
AcDbEntity
  8
0
100
AcDbBlockEnd
  0
ENDSEC
  0
SECTION
  2
ENTITIES
  0
TEXT
  5
6E5B
330
1E
100
AcDbEntity
  8
文字-記号
  6
Continuous
 62
     3
100
AcDbText
 10
2721.531717370198
 20
1404.085271528544
 30
0.0
 40
60.0
  1
■剣道場納まり図
 41
0.8
  7
ACAD
100
AcDbText
  0
DIMENSION
  5
705C
330
1E
100
AcDbEntity
  8
寸法
  6
Continuous
100
AcDbDimension
  2
*D2
 10
2689.991019014711
 20
1195.703019255398
 30
0.0
 11
2540.169374014712
 21
1235.703019255398
 31
0.0
 70
    32
 71
     5
 42
299.6432899999991
  3
AutoCAD
100
AcDbAlignedDimension
 13
2390.347729014712
 23
1145.762479255398
 33
0.0
 14
2689.991019014711
 24
1145.762479255398
 34
0.0
100
AcDbRotatedDimension
1001
ACAD
1000
DSTYLE
1002
{
1070
   140
1040
50.0
1002
}
  0
DIMENSION
  5
7069
330
1E
100
AcDbEntity
  8
寸法
  6
Continuous
100
AcDbDimension
  2
*D3
 10
2989.634299014712
 20
1195.703019255398
 30
0.0
 11
2839.812659014711
 21
1235.703019255398
 31
0.0
 70
    32
 71
     5
 42
299.6432800000002
  3
AutoCAD
100
AcDbAlignedDimension
 13
2689.991019014711
 23
1145.762479255398
 33
0.0
 14
2989.634299014712
 24
1145.762479255398
 34
0.0
100
AcDbRotatedDimension
1001
ACAD
1000
DSTYLE
1002
{
1070
   140
1040
50.0
1002
}
  0
DIMENSION
  5
7076
330
1E
100
AcDbEntity
  8
寸法
  6
Continuous
100
AcDbDimension
  2
*D4
 10
3289.277579014712
 20
1195.703019255398
 30
0.0
 11
3139.455939014712
 21
1235.703019255398
 31
0.0
 70
    32
 71
     5
 42
299.6432800000002
  3
AutoCAD
100
AcDbAlignedDimension
 13
2989.634299014712
 23
1145.762479255398
 33
0.0
 14
3289.277579014712
 24
1145.762479255398
 34
0.0
100
AcDbRotatedDimension
1001
ACAD
1000
DSTYLE
1002
{
1070
   140
1040
50.0
1002
}
  0
DIMENSION
  5
7083
330
1E
100
AcDbEntity
  8
寸法
  6
Continuous
100
AcDbDimension
  2
*D5
 10
1539.278579014711
 20
505.5254041339436
 30
0.0
 11
1464.278579014711
 21
505.5254041339436
 31
0.0
 70
   160
  1
200以内
 71
     5
 42
150.0
  3
AutoCAD
100
AcDbAlignedDimension
 13
1389.278579014711
 23
666.8326292553979
 33
0.0
 14
1539.278579014711
 24
656.543593255398
 34
0.0
100
AcDbRotatedDimension
1001
ACAD
1000
DSTYLE
1002
{
1070
   140
1040
50.0
1002
}
  0
DIMENSION
  5
7090
330
1E
100
AcDbEntity
  8
寸法
  6
Continuous
100
AcDbDimension
  2
*D6
 10
2239.278579014711
 20
505.5254041339436
 30
0.0
 11
1889.278579014711
 21
545.5254041339436
 31
0.0
 70
    32
  1
900以内
 71
     5
 42
700.0
  3
AutoCAD
100
AcDbAlignedDimension
 13
1539.278579014711
 23
656.543593255398
 33
0.0
 14
2239.278579014711
 24
654.0470154673731
 34
0.0
100
AcDbRotatedDimension
1001
ACAD
1000
DSTYLE
1002
{
1070
   140
1040
50.0
1002
}
  0
DIMENSION
  5
709D
330
1E
100
AcDbEntity
  8
寸法
  6
Continuous
100
AcDbDimension
  2
*D7
 10
3139.278579014711
 20
505.5254041339436
 30
0.0
 11
2689.278579014711
 21
545.5254041339436
 31
0.0
 70
    32
  1
900
 71
     5
 42
900.0
  3
AutoCAD
100
AcDbAlignedDimension
 13
2239.278579014711
 23
654.0470154673731
 33
0.0
 14
3139.278579014711
 24
654.3701772553982
 34
0.0
100
AcDbRotatedDimension
1001
ACAD
1000
DSTYLE
1002
{
1070
   140
1040
50.0
1002
}
  0
MTEXT
  5
98A4
330
1E
100
AcDbEntity
  8
文字-記号
  6
Continuous
 62
     3
100
AcDbMText
 10
3648.525799312412
 20
3516.479453260787
 30
0.0
 40
50.0
 41
0.0
 71
     7
 72
     1
  1
\A1;
 73
     1
 44
1.0
  0
MTEXT
  5
9A97
330
1E
100
AcDbEntity
  8
文字-記号
  6
Continuous
 62
     3
100
AcDbMText
 10
7121.765818099206
 20
2845.376709422389
 30
0.0
 40
50.0
 41
0.0
 71
     7
 72
     1
  1
\A1;
 73
     1
 44
1.0
  0
MTEXT
  5
9A98
330
1E
100
AcDbEntity
  8
文字-記号
  6
Continuous
 62
     3
100
AcDbMText
 10
7224.925156835576
 20
2592.820386395809
 30
0.0
 40
50.0
 41
0.0
 71
     7
 72
     1
  1
\A1;
 73
     1
 44
1.0
  0
MTEXT
  5
9A9A
330
1E
100
AcDbEntity
  8
文字-記号
  6
Continuous
 62
     3
100
AcDbMText
 10
7875.954617976041
 20
2874.884173339157
 30
0.0
 40
50.0
 41
0.0
 71
     7
 72
     1
  1
\A1;
 73
     1
 44
1.0
  0
LWPOLYLINE
  5
A9E9
330
1E
100
AcDbEntity
  8
中心線
  6
CENTER1
100
AcDbPolyline
 90
        2
 70
     0
 43
0.0
 10
1539.278579014711
 20
656.543593255398
 10
1539.278579014711
 20
1078.711979466173
  0
LWPOLYLINE
  5
A9F1
330
1E
100
AcDbEntity
  8
躯体と製品
  6
Continuous
 62
     4
100
AcDbPolyline
 90
        4
 70
     1
 43
0.0
 10
1525.278577729951
 20
772.8326305401574
 10
1553.27857776735
 20
772.8326305401574
 10
1553.27857776735
 20
768.8326305401574
 10
1525.278577729951
 20
768.8326305401574
  0
LWPOLYLINE
  5
A9F2
330
1E
100
AcDbEntity
  8
躯体と製品
  6
Continuous
 62
     4
100
AcDbPolyline
 90
        4
 70
     0
 43
0.0
 10
1564.278579014711
 20
672.0326292553805
 10
1564.278579014711
 20
763.2383423438591
 10
1514.278579014711
 20
763.2383423438591
 10
1514.278579014711
 20
672.0326292553805
  0
LWPOLYLINE
  5
A9F3
330
1E
100
AcDbEntity
  8
躯体と製品
  6
Continuous
 62
     4
100
AcDbPolyline
 90
        4
 70
     1
 43
0.0
 10
1509.278579014711
 20
668.8326292553979
 10
1569.278579014711
 20
668.8326292553979
 10
1569.278579014711
 20
672.0326292553805
 10
1509.278579014711
 20
672.0326292553805
  0
LWPOLYLINE
  5
A9F4
330
1E
100
AcDbEntity
  8
躯体と製品
  6
Continuous
 62
     4
100
AcDbPolyline
 90
        2
 70
     0
 43
0.0
 10
1517.478579014722
 20
768.8326292553979
 10
1517.478579014722
 20
672.0326292553805
  0
LWPOLYLINE
  5
A9F5
330
1E
100
AcDbEntity
  8
躯体と製品
  6
Continuous
 62
     4
100
AcDbPolyline
 90
        2
 70
     0
 43
0.0
 10
1561.078579014728
 20
768.8326292553979
 10
1561.078579014728
 20
672.0326292553805
  0
LWPOLYLINE
  5
A9F6
330
1E
100
AcDbEntity
  8
躯体と製品
  6
Continuous
 62
     4
100
AcDbPolyline
 90
        6
 70
     0
 43
0.0
 10
1517.478579014722
 20
765.6326292553862
 10
1509.278579014711
 20
765.6326292553862
 10
1509.278579014711
 20
768.8326292553979
 10
1569.278579014711
 20
768.8326292553979
 10
1569.278579014711
 20
765.6326292553862
 10
1561.078579014728
 20
765.6326292553862
  0
LWPOLYLINE
  5
A9F7
330
1E
100
AcDbEntity
  8
躯体と製品
  6
Continuous
 62
     4
100
AcDbPolyline
 90
        4
 70
     1
 43
0.0
 10
1569.278579014711
 20
666.8326292553979
 10
1509.278579014711
 20
666.8326292553979
 10
1509.278579014711
 20
668.8326292553979
 10
1569.278579014711
 20
668.8326292553979
  0
LWPOLYLINE
  5
A9F8
330
1E
100
AcDbEntity
  8
躯体と製品
  6
Continuous
 62
     4
100
AcDbPolyline
 90
        2
 70
     0
 43
0.0
 10
1533.278011697876
 20
785.8326299704499
 10
1545.278577001977
 20
785.832629907411
  0
LWPOLYLINE
  5
A9F9
330
1E
100
AcDbEntity
  8
躯体と製品
  6
Continuous
 62
     4
100
AcDbPolyline
 90
        5
 70
     0
 43
0.0
 10
1527.278577039114
 20
772.8326302675418
 10
1527.278577039114
 20
784.3326299389304
 42
-0.2500000085465462
 10
1539.278576981226
 20
784.3326299389304
 42
-0.2499999935419728
 10
1551.278577039114
 20
784.3326299389304
 10
1551.278577039114
 20
772.8326300953636
  0
LWPOLYLINE
  5
A9FA
330
1E
100
AcDbEntity
  8
躯体と製品
  6
Continuous
 62
     4
100
AcDbPolyline
 90
        2
 70
     0
 43
0.0
 10
1539.278576970487
 20
784.3326299389304
 10
1539.278576891295
 20
772.8326301814527
  0
LWPOLYLINE
  5
AA4B
330
1E
100
AcDbEntity
  8
中心線
  6
CENTER1
100
AcDbPolyline
 90
        2
 70
     0
 43
0.0
 10
2239.278579014711
 20
654.3701772553982
 10
2239.278579014711
 20
1078.538563466173
  0
LWPOLYLINE
  5
AA52
330
1E
100
AcDbEntity
  8
躯体と製品
  6
Continuous
 62
     4
100
AcDbPolyline
 90
        4
 70
     1
 43
0.0
 10
2225.278577729952
 20
772.8326305401574
 10
2253.27857776735
 20
772.8326305401574
 10
2253.27857776735
 20
768.8326305401574
 10
2225.278577729952
 20
768.8326305401574
  0
LWPOLYLINE
  5
AA53
330
1E
100
AcDbEntity
  8
躯体と製品
  6
Continuous
 62
     4
100
AcDbPolyline
 90
        4
 70
     0
 43
0.0
 10
2264.278579014711
 20
672.0326292553805
 10
2264.278579014711
 20
763.2383423438591
 10
2214.278579014711
 20
763.2383423438591
 10
2214.278579014711
 20
672.0326292553805
  0
LWPOLYLINE
  5
AA54
330
1E
100
AcDbEntity
  8
躯体と製品
  6
Continuous
 62
     4
100
AcDbPolyline
 90
        4
 70
     1
 43
0.0
 10
2209.278579014711
 20
668.8326292553979
 10
2269.278579014711
 20
668.8326292553979
 10
2269.278579014711
 20
672.0326292553805
 10
2209.278579014711
 20
672.0326292553805
  0
LWPOLYLINE
  5
AA55
330
1E
100
AcDbEntity
  8
躯体と製品
  6
Continuous
 62
     4
100
AcDbPolyline
 90
        2
 70
     0
 43
0.0
 10
2217.478579014723
 20
768.8326292553979
 10
2217.478579014723
 20
672.0326292553805
  0
LWPOLYLINE
  5
AA56
330
1E
100
AcDbEntity
  8
躯体と製品
  6
Continuous
 62
     4
100
AcDbPolyline
 90
        2
 70
     0
 43
0.0
 10
2261.078579014728
 20
768.8326292553979
 10
2261.078579014728
 20
672.0326292553805
  0
LWPOLYLINE
  5
AA57
330
1E
100
AcDbEntity
  8
躯体と製品
  6
Continuous
 62
     4
100
AcDbPolyline
 90
        6
 70
     0
 43
0.0
 10
2217.478579014723
 20
765.6326292553862
 10
2209.278579014711
 20
765.6326292553862
 10
2209.278579014711
 20
768.8326292553979
 10
2269.278579014711
 20
768.8326292553979
 10
2269.278579014711
 20
765.6326292553862
 10
2261.078579014728
 20
765.6326292553862
  0
LWPOLYLINE
  5
AA58
330
1E
100
AcDbEntity
  8
躯体と製品
  6
Continuous
 62
     4
100
AcDbPolyline
 90
        4
 70
     1
 43
0.0
 10
2269.278579014711
 20
666.8326292553979
 10
2209.278579014711
 20
666.8326292553979
 10
2209.278579014711
 20
668.8326292553979
 10
2269.278579014711
 20
668.8326292553979
  0
LWPOLYLINE
  5
AA59
330
1E
100
AcDbEntity
  8
躯体と製品
  6
Continuous
 62
     4
100
AcDbPolyline
 90
        2
 70
     0
 43
0.0
 10
2233.278011697876
 20
785.8326299704499
 10
2245.278577001977
 20
785.832629907411
  0
LWPOLYLINE
  5
AA5A
330
1E
100
AcDbEntity
  8
躯体と製品
  6
Continuous
 62
     4
100
AcDbPolyline
 90
        5
 70
     0
 43
0.0
 10
2227.278577039114
 20
772.8326302675418
 10
2227.278577039114
 20
784.3326299389304
 42
-0.2500000085465462
 10
2239.278576981226
 20
784.3326299389304
 42
-0.2499999935419728
 10
2251.278577039114
 20
784.3326299389304
 10
2251.278577039114
 20
772.8326300953636
  0
LWPOLYLINE
  5
AA5B
330
1E
100
AcDbEntity
  8
躯体と製品
  6
Continuous
 62
     4
100
AcDbPolyline
 90
        2
 70
     0
 43
0.0
 10
2239.278576970487
 20
784.3326299389304
 10
2239.278576891296
 20
772.8326301814527
  0
LWPOLYLINE
  5
AA9E
330
1E
100
AcDbEntity
  8
中心線
  6
CENTER1
100
AcDbPolyline
 90
        2
 70
     0
 43
0.0
 10
3139.278579014711
 20
654.3701772553982
 10
3139.278579014711
 20
1078.538563466173
  0
LWPOLYLINE
  5
AAA5
330
1E
100
AcDbEntity
  8
躯体と製品
  6
Continuous
 62
     4
100
AcDbPolyline
 90
        4
 70
     1
 43
0.0
 10
3125.278577729952
 20
772.8326305401574
 10
3153.27857776735
 20
772.8326305401574
 10
3153.27857776735
 20
768.8326305401574
 10
3125.278577729952
 20
768.8326305401574
  0
LWPOLYLINE
  5
AAA6
330
1E
100
AcDbEntity
  8
躯体と製品
  6
Continuous
 62
     4
100
AcDbPolyline
 90
        4
 70
     0
 43
0.0
 10
3164.278579014711
 20
672.0326292553805
 10
3164.278579014711
 20
763.2383423438591
 10
3114.278579014711
 20
763.2383423438591
 10
3114.278579014711
 20
672.0326292553805
  0
LWPOLYLINE
  5
AAA7
330
1E
100
AcDbEntity
  8
躯体と製品
  6
Continuous
 62
     4
100
AcDbPolyline
 90
        4
 70
     1
 43
0.0
 10
3109.278579014711
 20
668.8326292553979
 10
3169.278579014711
 20
668.8326292553979
 10
3169.278579014711
 20
672.0326292553805
 10
3109.278579014711
 20
672.0326292553805
  0
LWPOLYLINE
  5
AAA8
330
1E
100
AcDbEntity
  8
躯体と製品
  6
Continuous
 62
     4
100
AcDbPolyline
 90
        2
 70
     0
 43
0.0
 10
3117.478579014723
 20
768.8326292553979
 10
3117.478579014723
 20
672.0326292553805
  0
LWPOLYLINE
  5
AAA9
330
1E
100
AcDbEntity
  8
躯体と製品
  6
Continuous
 62
     4
100
AcDbPolyline
 90
        2
 70
     0
 43
0.0
 10
3161.078579014728
 20
768.8326292553979
 10
3161.078579014728
 20
672.0326292553805
  0
LWPOLYLINE
  5
AAAA
330
1E
100
AcDbEntity
  8
躯体と製品
  6
Continuous
 62
     4
100
AcDbPolyline
 90
        6
 70
     0
 43
0.0
 10
3117.478579014723
 20
765.6326292553862
 10
3109.278579014711
 20
765.6326292553862
 10
3109.278579014711
 20
768.8326292553979
 10
3169.278579014711
 20
768.8326292553979
 10
3169.278579014711
 20
765.6326292553862
 10
3161.078579014728
 20
765.6326292553862
  0
LWPOLYLINE
  5
AAAB
330
1E
100
AcDbEntity
  8
躯体と製品
  6
Continuous
 62
     4
100
AcDbPolyline
 90
        4
 70
     1
 43
0.0
 10
3169.278579014711
 20
666.8326292553979
 10
3109.278579014711
 20
666.8326292553979
 10
3109.278579014711
 20
668.8326292553979
 10
3169.278579014711
 20
668.8326292553979
  0
LWPOLYLINE
  5
AAAC
330
1E
100
AcDbEntity
  8
躯体と製品
  6
Continuous
 62
     4
100
AcDbPolyline
 90
        2
 70
     0
 43
0.0
 10
3133.278011697877
 20
785.8326299704499
 10
3145.278577001977
 20
785.832629907411
  0
LWPOLYLINE
  5
AAAD
330
1E
100
AcDbEntity
  8
躯体と製品
  6
Continuous
 62
     4
100
AcDbPolyline
 90
        5
 70
     0
 43
0.0
 10
3127.278577039114
 20
772.8326302675418
 10
3127.278577039114
 20
784.3326299389304
 42
-0.2500000085465462
 10
3139.278576981226
 20
784.3326299389304
 42
-0.2499999935419728
 10
3151.278577039114
 20
784.3326299389304
 10
3151.278577039114
 20
772.8326300953636
  0
LWPOLYLINE
  5
AAAE
330
1E
100
AcDbEntity
  8
躯体と製品
  6
Continuous
 62
     4
100
AcDbPolyline
 90
        2
 70
     0
 43
0.0
 10
3139.278576970487
 20
784.3326299389304
 10
3139.278576891296
 20
772.8326301814527
  0
DIMENSION
  5
AD49
330
1E
100
AcDbEntity
  8
寸法
  6
Continuous
100
AcDbDimension
  2
*D8
 10
3531.827047014719
 20
1083.832629255398
 30
0.0
 11
3491.827047014719
 21
875.3326292553985
 31
0.0
 70
    32
  1
h
 71
     5
 42
417.0
  3
AutoCAD
100
AcDbAlignedDimension
 13
3448.009837014719
 23
666.8326292553979
 33
0.0
 14
3448.009837014719
 24
1083.832629255398
 34
0.0
 50
90.0
100
AcDbRotatedDimension
1001
ACAD
1000
DSTYLE
1002
{
1070
   140
1040
50.0
1002
}
  0
DIMENSION
  5
AD4A
330
1E
100
AcDbEntity
  8
寸法
  6
Continuous
100
AcDbDimension
  2
*D9
 10
3636.436061972865
 20
1116.832629255398
 30
0.0
 11
3596.436061972865
 21
891.8326292553983
 31
0.0
 70
    32
  1
H
 71
     5
 42
449.9999999999999
  3
AutoCAD
100
AcDbAlignedDimension
 13
3448.009837014719
 23
666.8326292553979
 33
0.0
 14
3448.009837014719
 24
1116.832629255398
 34
0.0
 50
90.0
100
AcDbRotatedDimension
1001
ACAD
1000
DSTYLE
1002
{
1070
   140
1040
50.0
1002
}
  0
TEXT
  5
B052
330
1E
100
AcDbEntity
  8
文字-記号
  6
Continuous
 62
     7
100
AcDbText
 10
2518.630490052901
 20
922.0342512928976
 30
0.0
 40
45.0
  1
大引鋼
 50
0.0000100000010064
 41
0.8
  7
ACAD
100
AcDbText
  0
TEXT
  5
B055
330
1E
100
AcDbEntity
  8
文字-記号
  6
Continuous
 62
     7
100
AcDbText
 10
2792.702042209904
 20
944.5755717615201
 30
0.0
 40
45.0
  1
根太鋼
 41
0.8
  7
ACAD
100
AcDbText
  0
TEXT
  5
B058
330
1E
100
AcDbEntity
  8
文字-記号
  6
Continuous
 62
     7
100
AcDbText
 10
1641.134518374456
 20
908.848180264664
 30
0.0
 40
45.0
  1
外周１列のみ
 41
0.8
  7
ACAD
100
AcDbText
  0
TEXT
  5
B05B
330
1E
100
AcDbEntity
  8
文字-記号
  6
Continuous
 62
     7
100
AcDbText
 10
1638.667026564115
 20
853.1766460527922
 30
0.0
 40
45.0
  1
支持脚２０３等
 41
0.8
  7
ACAD
100
AcDbText
  0
TEXT
  5
B060
330
1E
100
AcDbEntity
  8
文字-記号
  6
Continuous
 62
     7
100
AcDbText
 10
2746.048531898058
 20
831.9886449496063
 30
0.0
 40
45.0
  1
支持脚ＳＳ１０
 41
0.8
  7
ACAD
100
AcDbText
  0
TEXT
  5
B063
330
1E
100
AcDbEntity
  8
文字-記号
  6
Continuous
 62
     7
100
AcDbText
 10
2090.146018432238
 20
1240.928498888224
 30
0.0
 40
45.0
  1
捨 板
 41
0.8
  7
ACAD
100
AcDbText
  0
TEXT
  5
B064
330
1E
100
AcDbEntity
  8
文字-記号
  6
Continuous
 62
     7
100
AcDbText
 10
2026.996010517035
 20
1320.577487331901
 30
0.0
 40
45.0
  1
フローリング
 41
0.8
  7
ACAD
100
AcDbText
  0
MTEXT
  5
B46B
330
1E
100
AcDbEntity
  8
寸法
  6
Continuous
 62
     3
100
AcDbMText
 10
3187.458671807406
 20
573.6353750466697
 30
0.0
 40
50.0
 41
80.0
 71
     1
 72
     5
  1
@900
  7
ACAD
 73
     1
 44
1.0
  0
LWPOLYLINE
  5
B880
330
1E
100
AcDbEntity
  8
躯体と製品
  6
Continuous
 62
     4
100
AcDbPolyline
 90
       13
 70
     0
 43
0.0
 10
3255.277579014712
 20
1052.832629255398
 10
3323.277579014712
 20
1052.832629255398
 10
3323.277579014712
 20
1059.832629255398
 10
3318.277579014712
 20
1059.832629255398
 10
3318.277579014712
 20
1057.832629255398
 10
3321.277579014712
 20
1057.832629255398
 10
3321.277579014712
 20
1054.832629255398
 10
3257.277579014712
 20
1054.832629255398
 10
3257.277579014712
 20
1057.832629255398
 10
3260.277579014712
 20
1057.832629255398
 10
3260.277579014712
 20
1059.832629255398
 10
3255.277579014712
 20
1059.832629255398
 10
3255.277579014712
 20
1052.832629255398
  0
LWPOLYLINE
  5
B881
330
1E
100
AcDbEntity
  8
躯体と製品
  6
Continuous
 62
     4
100
AcDbPolyline
 90
       28
 70
     1
 43
0.0
 10
3305.077579014712
 20
1083.832629255397
 42
-0.4142135623730951
 10
3306.777579014712
 20
1082.132629255397
 10
3306.777579014712
 20
1056.532629255398
 42
0.4142135623730951
 10
3307.277579014712
 20
1056.032629255398
 10
3319.577579014712
 20
1056.032629255398
 42
0.4142135623730951
 10
3320.077579014712
 20
1056.532629255398
 10
3320.077579014712
 20
1057.832629255398
 10
3321.277579014712
 20
1057.832629255398
 10
3321.277579014712
 20
1056.532629255398
 42
-0.4142135623730951
 10
3319.577579014712
 20
1054.832629255398
 10
3307.277579014712
 20
1054.832629255398
 42
-0.4142135623730951
 10
3305.577579014712
 20
1056.532629255398
 10
3305.577579014712
 20
1082.132629255397
 42
0.4142135623730951
 10
3305.077579014712
 20
1082.632629255398
 10
3273.477579014713
 20
1082.632629255398
 42
0.4142135623730951
 10
3272.977579014713
 20
1082.132629255397
 10
3272.977579014713
 20
1056.532629255398
 42
-0.4142135623730951
 10
3271.277579014712
 20
1054.832629255398
 10
3258.977579014712
 20
1054.832629255398
 42
-0.4142135623730951
 10
3257.277579014712
 20
1056.532629255398
 10
3257.277579014712
 20
1057.832629255398
 10
3258.477579014713
 20
1057.832629255398
 10
3258.477579014713
 20
1056.532629255398
 42
0.4142135623730951
 10
3258.977579014712
 20
1056.032629255398
 10
3271.277579014712
 20
1056.032629255398
 42
0.4142135623730951
 10
3271.777579014712
 20
1056.532629255398
 10
3271.777579014712
 20
1082.132629255397
 42
-0.4142135623730951
 10
3273.477579014713
 20
1083.832629255397
  0
LWPOLYLINE
  5
B882
330
1E
100
AcDbEntity
  8
躯体と製品
  6
Continuous
 62
     4
100
AcDbPolyline
 90
        2
 70
     0
 43
0.0
 10
3268.478579014695
 20
1056.681629255402
 10
3268.478579014695
 20
1056.232629255409
  0
LWPOLYLINE
  5
B883
330
1E
100
AcDbEntity
  8
躯体と製品
  6
Continuous
 62
     4
100
AcDbPolyline
 90
        2
 70
     0
 43
0.0
 10
3260.478579014694
 20
1056.681629255402
 10
3260.478579014694
 20
1056.232629255409
  0
LWPOLYLINE
  5
B884
330
1E
100
AcDbEntity
  8
躯体と製品
  6
Continuous
 62
     4
100
AcDbPolyline
 90
        2
 70
     0
 43
0.0
 10
3268.278579014712
 20
1056.032629255398
 10
3264.478579014694
 20
1056.032629255398
  0
LWPOLYLINE
  5
B885
330
1E
100
AcDbEntity
  8
躯体と製品
  6
Continuous
 62
     4
100
AcDbPolyline
 90
        2
 70
     0
 43
0.0
 10
3260.478579014694
 20
1056.232629234455
 42
0.41421351636737
 10
3260.678579004229
 20
1056.032629255398
  0
LWPOLYLINE
  5
B886
330
1E
100
AcDbEntity
  8
躯体と製品
  6
Continuous
 62
     4
100
AcDbPolyline
 90
        2
 70
     0
 43
0.0
 10
3260.678579014706
 20
1056.032629255398
 10
3264.478579014694
 20
1056.032629255398
  0
LWPOLYLINE
  5
B887
330
1E
100
AcDbEntity
  8
躯体と製品
  6
Continuous
 62
     4
100
AcDbPolyline
 90
        2
 70
     0
 43
0.0
 10
3268.278579004235
 20
1056.032629255398
 42
0.4142135777083371
 10
3268.478579014724
 20
1056.232629255409
  0
LWPOLYLINE
  5
B888
330
1E
100
AcDbEntity
  8
躯体と製品
  6
Continuous
 62
     4
100
AcDbPolyline
 90
        2
 70
     0
 43
0.0
 10
3268.243579014708
 20
1057.832629255415
 10
3264.478579014694
 20
1057.832629255415
  0
LWPOLYLINE
  5
B889
330
1E
100
AcDbEntity
  8
躯体と製品
  6
Continuous
 62
     4
100
AcDbPolyline
 90
        2
 70
     0
 43
0.0
 10
3268.243128143871
 20
1057.832126795623
 42
0.2144073790574085
 10
3264.478595181348
 20
1059.032485736755
  0
LWPOLYLINE
  5
B88A
330
1E
100
AcDbEntity
  8
躯体と製品
  6
Continuous
 62
     4
100
AcDbPolyline
 90
        2
 70
     0
 43
0.0
 10
3260.71357901471
 20
1057.832629255415
 10
3260.478579014694
 20
1056.681629255402
  0
LWPOLYLINE
  5
B88B
330
1E
100
AcDbEntity
  8
躯体と製品
  6
Continuous
 62
     4
100
AcDbPolyline
 90
        2
 70
     0
 43
0.0
 10
3264.47856243011
 20
1059.032485784515
 42
0.2144073836089342
 10
3260.714029509904
 20
1057.832126458775
  0
LWPOLYLINE
  5
B88C
330
1E
100
AcDbEntity
  8
躯体と製品
  6
Continuous
 62
     4
100
AcDbPolyline
 90
        2
 70
     0
 43
0.0
 10
3260.71357901471
 20
1057.832629255415
 10
3264.478579014694
 20
1057.832629255415
  0
LWPOLYLINE
  5
B88D
330
1E
100
AcDbEntity
  8
躯体と製品
  6
Continuous
 62
     4
100
AcDbPolyline
 90
        2
 70
     0
 43
0.0
 10
3268.243579014708
 20
1057.832629255415
 10
3268.478579014695
 20
1056.681629255402
  0
LWPOLYLINE
  5
B88E
330
1E
100
AcDbEntity
  8
躯体と製品
  6
Continuous
 62
     4
100
AcDbPolyline
 90
        2
 70
     0
 43
0.0
 10
3318.0785790147
 20
1056.681629255402
 10
3318.0785790147
 20
1056.232629255409
  0
LWPOLYLINE
  5
B88F
330
1E
100
AcDbEntity
  8
躯体と製品
  6
Continuous
 62
     4
100
AcDbPolyline
 90
        2
 70
     0
 43
0.0
 10
3310.0785790147
 20
1056.681629255402
 10
3310.0785790147
 20
1056.232629255409
  0
LWPOLYLINE
  5
B890
330
1E
100
AcDbEntity
  8
躯体と製品
  6
Continuous
 62
     4
100
AcDbPolyline
 90
        2
 70
     0
 43
0.0
 10
3317.878579014688
 20
1056.032629255398
 10
3314.0785790147
 20
1056.032629255398
  0
LWPOLYLINE
  5
B891
330
1E
100
AcDbEntity
  8
躯体と製品
  6
Continuous
 62
     4
100
AcDbPolyline
 90
        2
 70
     0
 43
0.0
 10
3310.0785790147
 20
1056.232629234455
 42
0.41421351636737
 10
3310.278579004235
 20
1056.032629255398
  0
LWPOLYLINE
  5
B892
330
1E
100
AcDbEntity
  8
躯体と製品
  6
Continuous
 62
     4
100
AcDbPolyline
 90
        2
 70
     0
 43
0.0
 10
3310.278579014712
 20
1056.032629255398
 10
3314.0785790147
 20
1056.032629255398
  0
LWPOLYLINE
  5
B893
330
1E
100
AcDbEntity
  8
躯体と製品
  6
Continuous
 62
     4
100
AcDbPolyline
 90
        2
 70
     0
 43
0.0
 10
3317.878579004212
 20
1056.032629255398
 42
0.4142135777083371
 10
3318.0785790147
 20
1056.232629255409
  0
LWPOLYLINE
  5
B894
330
1E
100
AcDbEntity
  8
躯体と製品
  6
Continuous
 62
     4
100
AcDbPolyline
 90
        2
 70
     0
 43
0.0
 10
3317.843579014714
 20
1057.832629255415
 10
3314.0785790147
 20
1057.832629255415
  0
LWPOLYLINE
  5
B895
330
1E
100
AcDbEntity
  8
躯体と製品
  6
Continuous
 62
     4
100
AcDbPolyline
 90
        2
 70
     0
 43
0.0
 10
3317.843128143877
 20
1057.832126795623
 42
0.2144073790574085
 10
3314.078595181354
 20
1059.032485736755
  0
LWPOLYLINE
  5
B896
330
1E
100
AcDbEntity
  8
躯体と製品
  6
Continuous
 62
     4
100
AcDbPolyline
 90
        2
 70
     0
 43
0.0
 10
3310.313579014687
 20
1057.832629255415
 10
3310.0785790147
 20
1056.681629255402
  0
LWPOLYLINE
  5
B897
330
1E
100
AcDbEntity
  8
躯体と製品
  6
Continuous
 62
     4
100
AcDbPolyline
 90
        2
 70
     0
 43
0.0
 10
3314.078562430086
 20
1059.032485784515
 42
0.2144073836089342
 10
3310.314029509881
 20
1057.832126458775
  0
LWPOLYLINE
  5
B898
330
1E
100
AcDbEntity
  8
躯体と製品
  6
Continuous
 62
     4
100
AcDbPolyline
 90
        2
 70
     0
 43
0.0
 10
3310.313579014687
 20
1057.832629255415
 10
3314.0785790147
 20
1057.832629255415
  0
LWPOLYLINE
  5
B899
330
1E
100
AcDbEntity
  8
躯体と製品
  6
Continuous
 62
     4
100
AcDbPolyline
 90
        2
 70
     0
 43
0.0
 10
3317.843579014714
 20
1057.832629255415
 10
3318.0785790147
 20
1056.681629255402
  0
LWPOLYLINE
  5
B89A
330
1E
100
AcDbEntity
  8
躯体と製品
  6
Continuous
 62
     4
100
AcDbPolyline
 90
       13
 70
     0
 43
0.0
 10
2955.277579014712
 20
1052.832629255398
 10
3023.277579014712
 20
1052.832629255398
 10
3023.277579014712
 20
1059.832629255398
 10
3018.277579014712
 20
1059.832629255398
 10
3018.277579014712
 20
1057.832629255398
 10
3021.277579014712
 20
1057.832629255398
 10
3021.277579014712
 20
1054.832629255398
 10
2957.277579014712
 20
1054.832629255398
 10
2957.277579014712
 20
1057.832629255398
 10
2960.277579014712
 20
1057.832629255398
 10
2960.277579014712
 20
1059.832629255398
 10
2955.277579014712
 20
1059.832629255398
 10
2955.277579014712
 20
1052.832629255398
  0
LWPOLYLINE
  5
B89B
330
1E
100
AcDbEntity
  8
躯体と製品
  6
Continuous
 62
     4
100
AcDbPolyline
 90
       28
 70
     1
 43
0.0
 10
3005.077579014712
 20
1083.832629255397
 42
-0.4142135623730951
 10
3006.777579014712
 20
1082.132629255397
 10
3006.777579014712
 20
1056.532629255398
 42
0.4142135623730951
 10
3007.277579014712
 20
1056.032629255398
 10
3019.577579014712
 20
1056.032629255398
 42
0.4142135623730951
 10
3020.077579014712
 20
1056.532629255398
 10
3020.077579014712
 20
1057.832629255398
 10
3021.277579014712
 20
1057.832629255398
 10
3021.277579014712
 20
1056.532629255398
 42
-0.4142135623730951
 10
3019.577579014712
 20
1054.832629255398
 10
3007.277579014712
 20
1054.832629255398
 42
-0.4142135623730951
 10
3005.577579014712
 20
1056.532629255398
 10
3005.577579014712
 20
1082.132629255397
 42
0.4142135623730951
 10
3005.077579014712
 20
1082.632629255398
 10
2973.477579014712
 20
1082.632629255398
 42
0.4142135623730951
 10
2972.977579014712
 20
1082.132629255397
 10
2972.977579014712
 20
1056.532629255398
 42
-0.4142135623730951
 10
2971.277579014712
 20
1054.832629255398
 10
2958.977579014712
 20
1054.832629255398
 42
-0.4142135623730951
 10
2957.277579014712
 20
1056.532629255398
 10
2957.277579014712
 20
1057.832629255398
 10
2958.477579014712
 20
1057.832629255398
 10
2958.477579014712
 20
1056.532629255398
 42
0.4142135623730951
 10
2958.977579014712
 20
1056.032629255398
 10
2971.277579014712
 20
1056.032629255398
 42
0.4142135623730951
 10
2971.777579014712
 20
1056.532629255398
 10
2971.777579014712
 20
1082.132629255397
 42
-0.4142135623730951
 10
2973.477579014712
 20
1083.832629255397
  0
LWPOLYLINE
  5
B89C
330
1E
100
AcDbEntity
  8
躯体と製品
  6
Continuous
 62
     4
100
AcDbPolyline
 90
        2
 70
     0
 43
0.0
 10
2968.478579014695
 20
1056.681629255402
 10
2968.478579014695
 20
1056.232629255409
  0
LWPOLYLINE
  5
B89D
330
1E
100
AcDbEntity
  8
躯体と製品
  6
Continuous
 62
     4
100
AcDbPolyline
 90
        2
 70
     0
 43
0.0
 10
2960.478579014695
 20
1056.681629255402
 10
2960.478579014695
 20
1056.232629255409
  0
LWPOLYLINE
  5
B89E
330
1E
100
AcDbEntity
  8
躯体と製品
  6
Continuous
 62
     4
100
AcDbPolyline
 90
        2
 70
     0
 43
0.0
 10
2968.278579014712
 20
1056.032629255398
 10
2964.478579014695
 20
1056.032629255398
  0
LWPOLYLINE
  5
B89F
330
1E
100
AcDbEntity
  8
躯体と製品
  6
Continuous
 62
     4
100
AcDbPolyline
 90
        2
 70
     0
 43
0.0
 10
2960.478579014695
 20
1056.232629234455
 42
0.41421351636737
 10
2960.678579004229
 20
1056.032629255398
  0
LWPOLYLINE
  5
B8A0
330
1E
100
AcDbEntity
  8
躯体と製品
  6
Continuous
 62
     4
100
AcDbPolyline
 90
        2
 70
     0
 43
0.0
 10
2960.678579014706
 20
1056.032629255398
 10
2964.478579014695
 20
1056.032629255398
  0
LWPOLYLINE
  5
B8A1
330
1E
100
AcDbEntity
  8
躯体と製品
  6
Continuous
 62
     4
100
AcDbPolyline
 90
        2
 70
     0
 43
0.0
 10
2968.278579004234
 20
1056.032629255398
 42
0.4142135777083371
 10
2968.478579014723
 20
1056.232629255409
  0
LWPOLYLINE
  5
B8A2
330
1E
100
AcDbEntity
  8
躯体と製品
  6
Continuous
 62
     4
100
AcDbPolyline
 90
        2
 70
     0
 43
0.0
 10
2968.243579014708
 20
1057.832629255415
 10
2964.478579014695
 20
1057.832629255415
  0
LWPOLYLINE
  5
B8A3
330
1E
100
AcDbEntity
  8
躯体と製品
  6
Continuous
 62
     4
100
AcDbPolyline
 90
        2
 70
     0
 43
0.0
 10
2968.243128143872
 20
1057.832126795623
 42
0.2144073790574085
 10
2964.478595181348
 20
1059.032485736755
  0
LWPOLYLINE
  5
B8A4
330
1E
100
AcDbEntity
  8
躯体と製品
  6
Continuous
 62
     4
100
AcDbPolyline
 90
        2
 70
     0
 43
0.0
 10
2960.71357901471
 20
1057.832629255415
 10
2960.478579014695
 20
1056.681629255402
  0
LWPOLYLINE
  5
B8A5
330
1E
100
AcDbEntity
  8
躯体と製品
  6
Continuous
 62
     4
100
AcDbPolyline
 90
        2
 70
     0
 43
0.0
 10
2964.478562430109
 20
1059.032485784515
 42
0.2144073836089342
 10
2960.714029509904
 20
1057.832126458775
  0
LWPOLYLINE
  5
B8A6
330
1E
100
AcDbEntity
  8
躯体と製品
  6
Continuous
 62
     4
100
AcDbPolyline
 90
        2
 70
     0
 43
0.0
 10
2960.71357901471
 20
1057.832629255415
 10
2964.478579014695
 20
1057.832629255415
  0
LWPOLYLINE
  5
B8A7
330
1E
100
AcDbEntity
  8
躯体と製品
  6
Continuous
 62
     4
100
AcDbPolyline
 90
        2
 70
     0
 43
0.0
 10
2968.243579014708
 20
1057.832629255415
 10
2968.478579014695
 20
1056.681629255402
  0
LWPOLYLINE
  5
B8A8
330
1E
100
AcDbEntity
  8
躯体と製品
  6
Continuous
 62
     4
100
AcDbPolyline
 90
        2
 70
     0
 43
0.0
 10
3018.0785790147
 20
1056.681629255402
 10
3018.0785790147
 20
1056.232629255409
  0
LWPOLYLINE
  5
B8A9
330
1E
100
AcDbEntity
  8
躯体と製品
  6
Continuous
 62
     4
100
AcDbPolyline
 90
        2
 70
     0
 43
0.0
 10
3010.0785790147
 20
1056.681629255402
 10
3010.0785790147
 20
1056.232629255409
  0
LWPOLYLINE
  5
B8AA
330
1E
100
AcDbEntity
  8
躯体と製品
  6
Continuous
 62
     4
100
AcDbPolyline
 90
        2
 70
     0
 43
0.0
 10
3017.878579014689
 20
1056.032629255398
 10
3014.078579014701
 20
1056.032629255398
  0
LWPOLYLINE
  5
B8AB
330
1E
100
AcDbEntity
  8
躯体と製品
  6
Continuous
 62
     4
100
AcDbPolyline
 90
        2
 70
     0
 43
0.0
 10
3010.0785790147
 20
1056.232629234455
 42
0.41421351636737
 10
3010.278579004234
 20
1056.032629255398
  0
LWPOLYLINE
  5
B8AC
330
1E
100
AcDbEntity
  8
躯体と製品
  6
Continuous
 62
     4
100
AcDbPolyline
 90
        2
 70
     0
 43
0.0
 10
3010.278579014712
 20
1056.032629255398
 10
3014.078579014701
 20
1056.032629255398
  0
LWPOLYLINE
  5
B8AD
330
1E
100
AcDbEntity
  8
躯体と製品
  6
Continuous
 62
     4
100
AcDbPolyline
 90
        2
 70
     0
 43
0.0
 10
3017.878579004211
 20
1056.032629255398
 42
0.4142135777083371
 10
3018.0785790147
 20
1056.232629255409
  0
LWPOLYLINE
  5
B8AE
330
1E
100
AcDbEntity
  8
躯体と製品
  6
Continuous
 62
     4
100
AcDbPolyline
 90
        2
 70
     0
 43
0.0
 10
3017.843579014714
 20
1057.832629255415
 10
3014.078579014701
 20
1057.832629255415
  0
LWPOLYLINE
  5
B8AF
330
1E
100
AcDbEntity
  8
躯体と製品
  6
Continuous
 62
     4
100
AcDbPolyline
 90
        2
 70
     0
 43
0.0
 10
3017.843128143877
 20
1057.832126795623
 42
0.2144073790574085
 10
3014.078595181354
 20
1059.032485736755
  0
LWPOLYLINE
  5
B8B0
330
1E
100
AcDbEntity
  8
躯体と製品
  6
Continuous
 62
     4
100
AcDbPolyline
 90
        2
 70
     0
 43
0.0
 10
3010.313579014686
 20
1057.832629255415
 10
3010.0785790147
 20
1056.681629255402
  0
LWPOLYLINE
  5
B8B1
330
1E
100
AcDbEntity
  8
躯体と製品
  6
Continuous
 62
     4
100
AcDbPolyline
 90
        2
 70
     0
 43
0.0
 10
3014.078562430086
 20
1059.032485784515
 42
0.2144073836089342
 10
3010.31402950988
 20
1057.832126458775
  0
LWPOLYLINE
  5
B8B2
330
1E
100
AcDbEntity
  8
躯体と製品
  6
Continuous
 62
     4
100
AcDbPolyline
 90
        2
 70
     0
 43
0.0
 10
3010.313579014686
 20
1057.832629255415
 10
3014.078579014701
 20
1057.832629255415
  0
LWPOLYLINE
  5
B8B3
330
1E
100
AcDbEntity
  8
躯体と製品
  6
Continuous
 62
     4
100
AcDbPolyline
 90
        2
 70
     0
 43
0.0
 10
3017.843579014714
 20
1057.832629255415
 10
3018.0785790147
 20
1056.681629255402
  0
LWPOLYLINE
  5
B8B4
330
1E
100
AcDbEntity
  8
躯体と製品
  6
Continuous
 62
     4
100
AcDbPolyline
 90
       13
 70
     0
 43
0.0
 10
2655.277579014712
 20
1052.832629255398
 10
2723.277579014712
 20
1052.832629255398
 10
2723.277579014712
 20
1059.832629255398
 10
2718.277579014712
 20
1059.832629255398
 10
2718.277579014712
 20
1057.832629255398
 10
2721.277579014712
 20
1057.832629255398
 10
2721.277579014712
 20
1054.832629255398
 10
2657.277579014712
 20
1054.832629255398
 10
2657.277579014712
 20
1057.832629255398
 10
2660.277579014712
 20
1057.832629255398
 10
2660.277579014712
 20
1059.832629255398
 10
2655.277579014712
 20
1059.832629255398
 10
2655.277579014712
 20
1052.832629255398
  0
LWPOLYLINE
  5
B8B5
330
1E
100
AcDbEntity
  8
躯体と製品
  6
Continuous
 62
     4
100
AcDbPolyline
 90
       28
 70
     1
 43
0.0
 10
2705.077579014712
 20
1083.832629255397
 42
-0.4142135623730951
 10
2706.777579014712
 20
1082.132629255397
 10
2706.777579014712
 20
1056.532629255398
 42
0.4142135623730951
 10
2707.277579014712
 20
1056.032629255398
 10
2719.577579014712
 20
1056.032629255398
 42
0.4142135623730951
 10
2720.077579014712
 20
1056.532629255398
 10
2720.077579014712
 20
1057.832629255398
 10
2721.277579014712
 20
1057.832629255398
 10
2721.277579014712
 20
1056.532629255398
 42
-0.4142135623730951
 10
2719.577579014712
 20
1054.832629255398
 10
2707.277579014712
 20
1054.832629255398
 42
-0.4142135623730951
 10
2705.577579014712
 20
1056.532629255398
 10
2705.577579014712
 20
1082.132629255397
 42
0.4142135623730951
 10
2705.077579014712
 20
1082.632629255398
 10
2673.477579014713
 20
1082.632629255398
 42
0.4142135623730951
 10
2672.977579014713
 20
1082.132629255397
 10
2672.977579014713
 20
1056.532629255398
 42
-0.4142135623730951
 10
2671.277579014712
 20
1054.832629255398
 10
2658.977579014712
 20
1054.832629255398
 42
-0.4142135623730951
 10
2657.277579014712
 20
1056.532629255398
 10
2657.277579014712
 20
1057.832629255398
 10
2658.477579014713
 20
1057.832629255398
 10
2658.477579014713
 20
1056.532629255398
 42
0.4142135623730951
 10
2658.977579014712
 20
1056.032629255398
 10
2671.277579014712
 20
1056.032629255398
 42
0.4142135623730951
 10
2671.777579014712
 20
1056.532629255398
 10
2671.777579014712
 20
1082.132629255397
 42
-0.4142135623730951
 10
2673.477579014713
 20
1083.832629255397
  0
LWPOLYLINE
  5
B8B6
330
1E
100
AcDbEntity
  8
躯体と製品
  6
Continuous
 62
     4
100
AcDbPolyline
 90
        2
 70
     0
 43
0.0
 10
2668.478579014694
 20
1056.681629255402
 10
2668.478579014694
 20
1056.232629255409
  0
LWPOLYLINE
  5
B8B7
330
1E
100
AcDbEntity
  8
躯体と製品
  6
Continuous
 62
     4
100
AcDbPolyline
 90
        2
 70
     0
 43
0.0
 10
2660.478579014695
 20
1056.681629255402
 10
2660.478579014695
 20
1056.232629255409
  0
LWPOLYLINE
  5
B8B8
330
1E
100
AcDbEntity
  8
躯体と製品
  6
Continuous
 62
     4
100
AcDbPolyline
 90
        2
 70
     0
 43
0.0
 10
2668.278579014712
 20
1056.032629255398
 10
2664.478579014695
 20
1056.032629255398
  0
LWPOLYLINE
  5
B8B9
330
1E
100
AcDbEntity
  8
躯体と製品
  6
Continuous
 62
     4
100
AcDbPolyline
 90
        2
 70
     0
 43
0.0
 10
2660.478579014695
 20
1056.232629234455
 42
0.41421351636737
 10
2660.678579004229
 20
1056.032629255398
  0
LWPOLYLINE
  5
B8BA
330
1E
100
AcDbEntity
  8
躯体と製品
  6
Continuous
 62
     4
100
AcDbPolyline
 90
        2
 70
     0
 43
0.0
 10
2660.678579014706
 20
1056.032629255398
 10
2664.478579014695
 20
1056.032629255398
  0
LWPOLYLINE
  5
B8BB
330
1E
100
AcDbEntity
  8
躯体と製品
  6
Continuous
 62
     4
100
AcDbPolyline
 90
        2
 70
     0
 43
0.0
 10
2668.278579004235
 20
1056.032629255398
 42
0.4142135777083371
 10
2668.478579014724
 20
1056.232629255409
  0
LWPOLYLINE
  5
B8BC
330
1E
100
AcDbEntity
  8
躯体と製品
  6
Continuous
 62
     4
100
AcDbPolyline
 90
        2
 70
     0
 43
0.0
 10
2668.243579014708
 20
1057.832629255415
 10
2664.478579014695
 20
1057.832629255415
  0
LWPOLYLINE
  5
B8BD
330
1E
100
AcDbEntity
  8
躯体と製品
  6
Continuous
 62
     4
100
AcDbPolyline
 90
        2
 70
     0
 43
0.0
 10
2668.243128143871
 20
1057.832126795623
 42
0.2144073790574085
 10
2664.478595181348
 20
1059.032485736755
  0
LWPOLYLINE
  5
B8BE
330
1E
100
AcDbEntity
  8
躯体と製品
  6
Continuous
 62
     4
100
AcDbPolyline
 90
        2
 70
     0
 43
0.0
 10
2660.713579014709
 20
1057.832629255415
 10
2660.478579014695
 20
1056.681629255402
  0
LWPOLYLINE
  5
B8BF
330
1E
100
AcDbEntity
  8
躯体と製品
  6
Continuous
 62
     4
100
AcDbPolyline
 90
        2
 70
     0
 43
0.0
 10
2664.478562430109
 20
1059.032485784515
 42
0.2144073836089342
 10
2660.714029509904
 20
1057.832126458775
  0
LWPOLYLINE
  5
B8C0
330
1E
100
AcDbEntity
  8
躯体と製品
  6
Continuous
 62
     4
100
AcDbPolyline
 90
        2
 70
     0
 43
0.0
 10
2660.713579014709
 20
1057.832629255415
 10
2664.478579014695
 20
1057.832629255415
  0
LWPOLYLINE
  5
B8C1
330
1E
100
AcDbEntity
  8
躯体と製品
  6
Continuous
 62
     4
100
AcDbPolyline
 90
        2
 70
     0
 43
0.0
 10
2668.243579014708
 20
1057.832629255415
 10
2668.478579014694
 20
1056.681629255402
  0
LWPOLYLINE
  5
B8C2
330
1E
100
AcDbEntity
  8
躯体と製品
  6
Continuous
 62
     4
100
AcDbPolyline
 90
        2
 70
     0
 43
0.0
 10
2718.0785790147
 20
1056.681629255402
 10
2718.0785790147
 20
1056.232629255409
  0
LWPOLYLINE
  5
B8C3
330
1E
100
AcDbEntity
  8
躯体と製品
  6
Continuous
 62
     4
100
AcDbPolyline
 90
        2
 70
     0
 43
0.0
 10
2710.0785790147
 20
1056.681629255402
 10
2710.0785790147
 20
1056.232629255409
  0
LWPOLYLINE
  5
B8C4
330
1E
100
AcDbEntity
  8
躯体と製品
  6
Continuous
 62
     4
100
AcDbPolyline
 90
        2
 70
     0
 43
0.0
 10
2717.878579014689
 20
1056.032629255398
 10
2714.0785790147
 20
1056.032629255398
  0
LWPOLYLINE
  5
B8C5
330
1E
100
AcDbEntity
  8
躯体と製品
  6
Continuous
 62
     4
100
AcDbPolyline
 90
        2
 70
     0
 43
0.0
 10
2710.0785790147
 20
1056.232629234455
 42
0.41421351636737
 10
2710.278579004234
 20
1056.032629255398
  0
LWPOLYLINE
  5
B8C6
330
1E
100
AcDbEntity
  8
躯体と製品
  6
Continuous
 62
     4
100
AcDbPolyline
 90
        2
 70
     0
 43
0.0
 10
2710.278579014712
 20
1056.032629255398
 10
2714.0785790147
 20
1056.032629255398
  0
LWPOLYLINE
  5
B8C7
330
1E
100
AcDbEntity
  8
躯体と製品
  6
Continuous
 62
     4
100
AcDbPolyline
 90
        2
 70
     0
 43
0.0
 10
2717.878579004211
 20
1056.032629255398
 42
0.4142135777083371
 10
2718.0785790147
 20
1056.232629255409
  0
LWPOLYLINE
  5
B8C8
330
1E
100
AcDbEntity
  8
躯体と製品
  6
Continuous
 62
     4
100
AcDbPolyline
 90
        2
 70
     0
 43
0.0
 10
2717.843579014714
 20
1057.832629255415
 10
2714.0785790147
 20
1057.832629255415
  0
LWPOLYLINE
  5
B8C9
330
1E
100
AcDbEntity
  8
躯体と製品
  6
Continuous
 62
     4
100
AcDbPolyline
 90
        2
 70
     0
 43
0.0
 10
2717.843128143877
 20
1057.832126795623
 42
0.2144073790574085
 10
2714.078595181354
 20
1059.032485736755
  0
LWPOLYLINE
  5
B8CA
330
1E
100
AcDbEntity
  8
躯体と製品
  6
Continuous
 62
     4
100
AcDbPolyline
 90
        2
 70
     0
 43
0.0
 10
2710.313579014686
 20
1057.832629255415
 10
2710.0785790147
 20
1056.681629255402
  0
LWPOLYLINE
  5
B8CB
330
1E
100
AcDbEntity
  8
躯体と製品
  6
Continuous
 62
     4
100
AcDbPolyline
 90
        2
 70
     0
 43
0.0
 10
2714.078562430086
 20
1059.032485784515
 42
0.2144073836089342
 10
2710.31402950988
 20
1057.832126458775
  0
LWPOLYLINE
  5
B8CC
330
1E
100
AcDbEntity
  8
躯体と製品
  6
Continuous
 62
     4
100
AcDbPolyline
 90
        2
 70
     0
 43
0.0
 10
2710.313579014686
 20
1057.832629255415
 10
2714.0785790147
 20
1057.832629255415
  0
LWPOLYLINE
  5
B8CD
330
1E
100
AcDbEntity
  8
躯体と製品
  6
Continuous
 62
     4
100
AcDbPolyline
 90
        2
 70
     0
 43
0.0
 10
2717.843579014714
 20
1057.832629255415
 10
2718.0785790147
 20
1056.681629255402
  0
LWPOLYLINE
  5
B8CE
330
1E
100
AcDbEntity
  8
躯体と製品
  6
Continuous
 62
     4
100
AcDbPolyline
 90
       13
 70
     0
 43
0.0
 10
2055.277579014711
 20
1052.832629255398
 10
2123.277579014712
 20
1052.832629255398
 10
2123.277579014712
 20
1059.832629255398
 10
2118.277579014712
 20
1059.832629255398
 10
2118.277579014712
 20
1057.832629255398
 10
2121.277579014712
 20
1057.832629255398
 10
2121.277579014712
 20
1054.832629255398
 10
2057.277579014712
 20
1054.832629255398
 10
2057.277579014712
 20
1057.832629255398
 10
2060.277579014712
 20
1057.832629255398
 10
2060.277579014712
 20
1059.832629255398
 10
2055.277579014711
 20
1059.832629255398
 10
2055.277579014711
 20
1052.832629255398
  0
LWPOLYLINE
  5
B8CF
330
1E
100
AcDbEntity
  8
躯体と製品
  6
Continuous
 62
     4
100
AcDbPolyline
 90
       28
 70
     1
 43
0.0
 10
2105.077579014712
 20
1083.832629255397
 42
-0.4142135623730951
 10
2106.777579014712
 20
1082.132629255397
 10
2106.777579014712
 20
1056.532629255398
 42
0.4142135623730951
 10
2107.277579014712
 20
1056.032629255398
 10
2119.577579014712
 20
1056.032629255398
 42
0.4142135623730951
 10
2120.077579014712
 20
1056.532629255398
 10
2120.077579014712
 20
1057.832629255398
 10
2121.277579014712
 20
1057.832629255398
 10
2121.277579014712
 20
1056.532629255398
 42
-0.4142135623730951
 10
2119.577579014712
 20
1054.832629255398
 10
2107.277579014712
 20
1054.832629255398
 42
-0.4142135623730951
 10
2105.577579014712
 20
1056.532629255398
 10
2105.577579014712
 20
1082.132629255397
 42
0.4142135623730951
 10
2105.077579014712
 20
1082.632629255398
 10
2073.477579014712
 20
1082.632629255398
 42
0.4142135623730951
 10
2072.977579014712
 20
1082.132629255397
 10
2072.977579014712
 20
1056.532629255398
 42
-0.4142135623730951
 10
2071.277579014711
 20
1054.832629255398
 10
2058.977579014712
 20
1054.832629255398
 42
-0.4142135623730951
 10
2057.277579014712
 20
1056.532629255398
 10
2057.277579014712
 20
1057.832629255398
 10
2058.477579014712
 20
1057.832629255398
 10
2058.477579014712
 20
1056.532629255398
 42
0.4142135623730951
 10
2058.977579014712
 20
1056.032629255398
 10
2071.277579014711
 20
1056.032629255398
 42
0.4142135623730951
 10
2071.777579014712
 20
1056.532629255398
 10
2071.777579014712
 20
1082.132629255397
 42
-0.4142135623730951
 10
2073.477579014712
 20
1083.832629255397
  0
LWPOLYLINE
  5
B8D0
330
1E
100
AcDbEntity
  8
躯体と製品
  6
Continuous
 62
     4
100
AcDbPolyline
 90
        2
 70
     0
 43
0.0
 10
2068.478579014694
 20
1056.681629255402
 10
2068.478579014694
 20
1056.232629255409
  0
LWPOLYLINE
  5
B8D1
330
1E
100
AcDbEntity
  8
躯体と製品
  6
Continuous
 62
     4
100
AcDbPolyline
 90
        2
 70
     0
 43
0.0
 10
2060.478579014695
 20
1056.681629255402
 10
2060.478579014695
 20
1056.232629255409
  0
LWPOLYLINE
  5
B8D2
330
1E
100
AcDbEntity
  8
躯体と製品
  6
Continuous
 62
     4
100
AcDbPolyline
 90
        2
 70
     0
 43
0.0
 10
2068.278579014712
 20
1056.032629255398
 10
2064.478579014695
 20
1056.032629255398
  0
LWPOLYLINE
  5
B8D3
330
1E
100
AcDbEntity
  8
躯体と製品
  6
Continuous
 62
     4
100
AcDbPolyline
 90
        2
 70
     0
 43
0.0
 10
2060.478579014695
 20
1056.232629234455
 42
0.41421351636737
 10
2060.678579004229
 20
1056.032629255398
  0
LWPOLYLINE
  5
B8D4
330
1E
100
AcDbEntity
  8
躯体と製品
  6
Continuous
 62
     4
100
AcDbPolyline
 90
        2
 70
     0
 43
0.0
 10
2060.678579014706
 20
1056.032629255398
 10
2064.478579014695
 20
1056.032629255398
  0
LWPOLYLINE
  5
B8D5
330
1E
100
AcDbEntity
  8
躯体と製品
  6
Continuous
 62
     4
100
AcDbPolyline
 90
        2
 70
     0
 43
0.0
 10
2068.278579004235
 20
1056.032629255398
 42
0.4142135777083371
 10
2068.478579014723
 20
1056.232629255409
  0
LWPOLYLINE
  5
B8D6
330
1E
100
AcDbEntity
  8
躯体と製品
  6
Continuous
 62
     4
100
AcDbPolyline
 90
        2
 70
     0
 43
0.0
 10
2068.243579014708
 20
1057.832629255415
 10
2064.478579014695
 20
1057.832629255415
  0
LWPOLYLINE
  5
B8D7
330
1E
100
AcDbEntity
  8
躯体と製品
  6
Continuous
 62
     4
100
AcDbPolyline
 90
        2
 70
     0
 43
0.0
 10
2068.243128143871
 20
1057.832126795623
 42
0.2144073790574085
 10
2064.478595181348
 20
1059.032485736755
  0
LWPOLYLINE
  5
B8D8
330
1E
100
AcDbEntity
  8
躯体と製品
  6
Continuous
 62
     4
100
AcDbPolyline
 90
        2
 70
     0
 43
0.0
 10
2060.713579014709
 20
1057.832629255415
 10
2060.478579014695
 20
1056.681629255402
  0
LWPOLYLINE
  5
B8D9
330
1E
100
AcDbEntity
  8
躯体と製品
  6
Continuous
 62
     4
100
AcDbPolyline
 90
        2
 70
     0
 43
0.0
 10
2064.478562430109
 20
1059.032485784515
 42
0.2144073836089342
 10
2060.714029509904
 20
1057.832126458775
  0
LWPOLYLINE
  5
B8DA
330
1E
100
AcDbEntity
  8
躯体と製品
  6
Continuous
 62
     4
100
AcDbPolyline
 90
        2
 70
     0
 43
0.0
 10
2060.713579014709
 20
1057.832629255415
 10
2064.478579014695
 20
1057.832629255415
  0
LWPOLYLINE
  5
B8DB
330
1E
100
AcDbEntity
  8
躯体と製品
  6
Continuous
 62
     4
100
AcDbPolyline
 90
        2
 70
     0
 43
0.0
 10
2068.243579014708
 20
1057.832629255415
 10
2068.478579014694
 20
1056.681629255402
  0
LWPOLYLINE
  5
B8DC
330
1E
100
AcDbEntity
  8
躯体と製品
  6
Continuous
 62
     4
100
AcDbPolyline
 90
        2
 70
     0
 43
0.0
 10
2118.0785790147
 20
1056.681629255402
 10
2118.0785790147
 20
1056.232629255409
  0
LWPOLYLINE
  5
B8DD
330
1E
100
AcDbEntity
  8
躯体と製品
  6
Continuous
 62
     4
100
AcDbPolyline
 90
        2
 70
     0
 43
0.0
 10
2110.0785790147
 20
1056.681629255402
 10
2110.0785790147
 20
1056.232629255409
  0
LWPOLYLINE
  5
B8DE
330
1E
100
AcDbEntity
  8
躯体と製品
  6
Continuous
 62
     4
100
AcDbPolyline
 90
        2
 70
     0
 43
0.0
 10
2117.878579014689
 20
1056.032629255398
 10
2114.0785790147
 20
1056.032629255398
  0
LWPOLYLINE
  5
B8DF
330
1E
100
AcDbEntity
  8
躯体と製品
  6
Continuous
 62
     4
100
AcDbPolyline
 90
        2
 70
     0
 43
0.0
 10
2110.0785790147
 20
1056.232629234455
 42
0.41421351636737
 10
2110.278579004234
 20
1056.032629255398
  0
LWPOLYLINE
  5
B8E0
330
1E
100
AcDbEntity
  8
躯体と製品
  6
Continuous
 62
     4
100
AcDbPolyline
 90
        2
 70
     0
 43
0.0
 10
2110.278579014712
 20
1056.032629255398
 10
2114.0785790147
 20
1056.032629255398
  0
LWPOLYLINE
  5
B8E1
330
1E
100
AcDbEntity
  8
躯体と製品
  6
Continuous
 62
     4
100
AcDbPolyline
 90
        2
 70
     0
 43
0.0
 10
2117.878579004211
 20
1056.032629255398
 42
0.4142135777083371
 10
2118.0785790147
 20
1056.232629255409
  0
LWPOLYLINE
  5
B8E2
330
1E
100
AcDbEntity
  8
躯体と製品
  6
Continuous
 62
     4
100
AcDbPolyline
 90
        2
 70
     0
 43
0.0
 10
2117.843579014714
 20
1057.832629255415
 10
2114.0785790147
 20
1057.832629255415
  0
LWPOLYLINE
  5
B8E3
330
1E
100
AcDbEntity
  8
躯体と製品
  6
Continuous
 62
     4
100
AcDbPolyline
 90
        2
 70
     0
 43
0.0
 10
2117.843128143877
 20
1057.832126795623
 42
0.2144073790574085
 10
2114.078595181354
 20
1059.032485736755
  0
LWPOLYLINE
  5
B8E4
330
1E
100
AcDbEntity
  8
躯体と製品
  6
Continuous
 62
     4
100
AcDbPolyline
 90
        2
 70
     0
 43
0.0
 10
2110.313579014686
 20
1057.832629255415
 10
2110.0785790147
 20
1056.681629255402
  0
LWPOLYLINE
  5
B8E5
330
1E
100
AcDbEntity
  8
躯体と製品
  6
Continuous
 62
     4
100
AcDbPolyline
 90
        2
 70
     0
 43
0.0
 10
2114.078562430086
 20
1059.032485784515
 42
0.2144073836089342
 10
2110.31402950988
 20
1057.832126458775
  0
LWPOLYLINE
  5
B8E6
330
1E
100
AcDbEntity
  8
躯体と製品
  6
Continuous
 62
     4
100
AcDbPolyline
 90
        2
 70
     0
 43
0.0
 10
2110.313579014686
 20
1057.832629255415
 10
2114.0785790147
 20
1057.832629255415
  0
LWPOLYLINE
  5
B8E7
330
1E
100
AcDbEntity
  8
躯体と製品
  6
Continuous
 62
     4
100
AcDbPolyline
 90
        2
 70
     0
 43
0.0
 10
2117.843579014714
 20
1057.832629255415
 10
2118.0785790147
 20
1056.681629255402
  0
LWPOLYLINE
  5
B8E8
330
1E
100
AcDbEntity
  8
躯体と製品
  6
Continuous
 62
     4
100
AcDbPolyline
 90
       13
 70
     0
 43
0.0
 10
1755.277579014711
 20
1052.832629255398
 10
1823.277579014711
 20
1052.832629255398
 10
1823.277579014711
 20
1059.832629255398
 10
1818.277579014711
 20
1059.832629255398
 10
1818.277579014711
 20
1057.832629255398
 10
1821.277579014711
 20
1057.832629255398
 10
1821.277579014711
 20
1054.832629255398
 10
1757.277579014711
 20
1054.832629255398
 10
1757.277579014711
 20
1057.832629255398
 10
1760.277579014712
 20
1057.832629255398
 10
1760.277579014712
 20
1059.832629255398
 10
1755.277579014711
 20
1059.832629255398
 10
1755.277579014711
 20
1052.832629255398
  0
LWPOLYLINE
  5
B8E9
330
1E
100
AcDbEntity
  8
躯体と製品
  6
Continuous
 62
     4
100
AcDbPolyline
 90
       28
 70
     1
 43
0.0
 10
1805.077579014712
 20
1083.832629255397
 42
-0.4142135623730951
 10
1806.777579014712
 20
1082.132629255397
 10
1806.777579014712
 20
1056.532629255398
 42
0.4142135623730951
 10
1807.277579014711
 20
1056.032629255398
 10
1819.577579014712
 20
1056.032629255398
 42
0.4142135623730951
 10
1820.077579014712
 20
1056.532629255398
 10
1820.077579014712
 20
1057.832629255398
 10
1821.277579014711
 20
1057.832629255398
 10
1821.277579014711
 20
1056.532629255398
 42
-0.4142135623730951
 10
1819.577579014712
 20
1054.832629255398
 10
1807.277579014711
 20
1054.832629255398
 42
-0.4142135623730951
 10
1805.577579014712
 20
1056.532629255398
 10
1805.577579014712
 20
1082.132629255397
 42
0.4142135623730951
 10
1805.077579014712
 20
1082.632629255398
 10
1773.477579014712
 20
1082.632629255398
 42
0.4142135623730951
 10
1772.977579014712
 20
1082.132629255397
 10
1772.977579014712
 20
1056.532629255398
 42
-0.4142135623730951
 10
1771.277579014711
 20
1054.832629255398
 10
1758.977579014712
 20
1054.832629255398
 42
-0.4142135623730951
 10
1757.277579014711
 20
1056.532629255398
 10
1757.277579014711
 20
1057.832629255398
 10
1758.477579014712
 20
1057.832629255398
 10
1758.477579014712
 20
1056.532629255398
 42
0.4142135623730951
 10
1758.977579014712
 20
1056.032629255398
 10
1771.277579014711
 20
1056.032629255398
 42
0.4142135623730951
 10
1771.777579014711
 20
1056.532629255398
 10
1771.777579014711
 20
1082.132629255397
 42
-0.4142135623730951
 10
1773.477579014712
 20
1083.832629255397
  0
LWPOLYLINE
  5
B8EA
330
1E
100
AcDbEntity
  8
躯体と製品
  6
Continuous
 62
     4
100
AcDbPolyline
 90
        2
 70
     0
 43
0.0
 10
1768.478579014694
 20
1056.681629255402
 10
1768.478579014694
 20
1056.232629255409
  0
LWPOLYLINE
  5
B8EB
330
1E
100
AcDbEntity
  8
躯体と製品
  6
Continuous
 62
     4
100
AcDbPolyline
 90
        2
 70
     0
 43
0.0
 10
1760.478579014694
 20
1056.681629255402
 10
1760.478579014694
 20
1056.232629255409
  0
LWPOLYLINE
  5
B8EC
330
1E
100
AcDbEntity
  8
躯体と製品
  6
Continuous
 62
     4
100
AcDbPolyline
 90
        2
 70
     0
 43
0.0
 10
1768.278579014712
 20
1056.032629255398
 10
1764.478579014694
 20
1056.032629255398
  0
LWPOLYLINE
  5
B8ED
330
1E
100
AcDbEntity
  8
躯体と製品
  6
Continuous
 62
     4
100
AcDbPolyline
 90
        2
 70
     0
 43
0.0
 10
1760.478579014694
 20
1056.232629234455
 42
0.41421351636737
 10
1760.678579004229
 20
1056.032629255398
  0
LWPOLYLINE
  5
B8EE
330
1E
100
AcDbEntity
  8
躯体と製品
  6
Continuous
 62
     4
100
AcDbPolyline
 90
        2
 70
     0
 43
0.0
 10
1760.678579014706
 20
1056.032629255398
 10
1764.478579014694
 20
1056.032629255398
  0
LWPOLYLINE
  5
B8EF
330
1E
100
AcDbEntity
  8
躯体と製品
  6
Continuous
 62
     4
100
AcDbPolyline
 90
        2
 70
     0
 43
0.0
 10
1768.278579004234
 20
1056.032629255398
 42
0.4142135777083371
 10
1768.478579014723
 20
1056.232629255409
  0
LWPOLYLINE
  5
B8F0
330
1E
100
AcDbEntity
  8
躯体と製品
  6
Continuous
 62
     4
100
AcDbPolyline
 90
        2
 70
     0
 43
0.0
 10
1768.243579014708
 20
1057.832629255415
 10
1764.478579014694
 20
1057.832629255415
  0
LWPOLYLINE
  5
B8F1
330
1E
100
AcDbEntity
  8
躯体と製品
  6
Continuous
 62
     4
100
AcDbPolyline
 90
        2
 70
     0
 43
0.0
 10
1768.243128143871
 20
1057.832126795623
 42
0.2144073790574085
 10
1764.478595181348
 20
1059.032485736755
  0
LWPOLYLINE
  5
B8F2
330
1E
100
AcDbEntity
  8
躯体と製品
  6
Continuous
 62
     4
100
AcDbPolyline
 90
        2
 70
     0
 43
0.0
 10
1760.713579014709
 20
1057.832629255415
 10
1760.478579014694
 20
1056.681629255402
  0
LWPOLYLINE
  5
B8F3
330
1E
100
AcDbEntity
  8
躯体と製品
  6
Continuous
 62
     4
100
AcDbPolyline
 90
        2
 70
     0
 43
0.0
 10
1764.478562430109
 20
1059.032485784515
 42
0.2144073836089342
 10
1760.714029509903
 20
1057.832126458775
  0
LWPOLYLINE
  5
B8F4
330
1E
100
AcDbEntity
  8
躯体と製品
  6
Continuous
 62
     4
100
AcDbPolyline
 90
        2
 70
     0
 43
0.0
 10
1760.713579014709
 20
1057.832629255415
 10
1764.478579014694
 20
1057.832629255415
  0
LWPOLYLINE
  5
B8F5
330
1E
100
AcDbEntity
  8
躯体と製品
  6
Continuous
 62
     4
100
AcDbPolyline
 90
        2
 70
     0
 43
0.0
 10
1768.243579014708
 20
1057.832629255415
 10
1768.478579014694
 20
1056.681629255402
  0
LWPOLYLINE
  5
B8F6
330
1E
100
AcDbEntity
  8
躯体と製品
  6
Continuous
 62
     4
100
AcDbPolyline
 90
        2
 70
     0
 43
0.0
 10
1818.0785790147
 20
1056.681629255402
 10
1818.0785790147
 20
1056.232629255409
  0
LWPOLYLINE
  5
B8F7
330
1E
100
AcDbEntity
  8
躯体と製品
  6
Continuous
 62
     4
100
AcDbPolyline
 90
        2
 70
     0
 43
0.0
 10
1810.0785790147
 20
1056.681629255402
 10
1810.0785790147
 20
1056.232629255409
  0
LWPOLYLINE
  5
B8F8
330
1E
100
AcDbEntity
  8
躯体と製品
  6
Continuous
 62
     4
100
AcDbPolyline
 90
        2
 70
     0
 43
0.0
 10
1817.878579014688
 20
1056.032629255398
 10
1814.0785790147
 20
1056.032629255398
  0
LWPOLYLINE
  5
B8F9
330
1E
100
AcDbEntity
  8
躯体と製品
  6
Continuous
 62
     4
100
AcDbPolyline
 90
        2
 70
     0
 43
0.0
 10
1810.0785790147
 20
1056.232629234455
 42
0.41421351636737
 10
1810.278579004234
 20
1056.032629255398
  0
LWPOLYLINE
  5
B8FA
330
1E
100
AcDbEntity
  8
躯体と製品
  6
Continuous
 62
     4
100
AcDbPolyline
 90
        2
 70
     0
 43
0.0
 10
1810.278579014712
 20
1056.032629255398
 10
1814.0785790147
 20
1056.032629255398
  0
LWPOLYLINE
  5
B8FB
330
1E
100
AcDbEntity
  8
躯体と製品
  6
Continuous
 62
     4
100
AcDbPolyline
 90
        2
 70
     0
 43
0.0
 10
1817.878579004211
 20
1056.032629255398
 42
0.4142135777083371
 10
1818.0785790147
 20
1056.232629255409
  0
LWPOLYLINE
  5
B8FC
330
1E
100
AcDbEntity
  8
躯体と製品
  6
Continuous
 62
     4
100
AcDbPolyline
 90
        2
 70
     0
 43
0.0
 10
1817.843579014714
 20
1057.832629255415
 10
1814.0785790147
 20
1057.832629255415
  0
LWPOLYLINE
  5
B8FD
330
1E
100
AcDbEntity
  8
躯体と製品
  6
Continuous
 62
     4
100
AcDbPolyline
 90
        2
 70
     0
 43
0.0
 10
1817.843128143877
 20
1057.832126795623
 42
0.2144073790574085
 10
1814.078595181354
 20
1059.032485736755
  0
LWPOLYLINE
  5
B8FE
330
1E
100
AcDbEntity
  8
躯体と製品
  6
Continuous
 62
     4
100
AcDbPolyline
 90
        2
 70
     0
 43
0.0
 10
1810.313579014686
 20
1057.832629255415
 10
1810.0785790147
 20
1056.681629255402
  0
LWPOLYLINE
  5
B8FF
330
1E
100
AcDbEntity
  8
躯体と製品
  6
Continuous
 62
     4
100
AcDbPolyline
 90
        2
 70
     0
 43
0.0
 10
1814.078562430086
 20
1059.032485784515
 42
0.2144073836089342
 10
1810.31402950988
 20
1057.832126458775
  0
LWPOLYLINE
  5
B900
330
1E
100
AcDbEntity
  8
躯体と製品
  6
Continuous
 62
     4
100
AcDbPolyline
 90
        2
 70
     0
 43
0.0
 10
1810.313579014686
 20
1057.832629255415
 10
1814.0785790147
 20
1057.832629255415
  0
LWPOLYLINE
  5
B901
330
1E
100
AcDbEntity
  8
躯体と製品
  6
Continuous
 62
     4
100
AcDbPolyline
 90
        2
 70
     0
 43
0.0
 10
1817.843579014714
 20
1057.832629255415
 10
1818.0785790147
 20
1056.681629255402
  0
LWPOLYLINE
  5
B902
330
1E
100
AcDbEntity
  8
躯体と製品
  6
Continuous
 62
     4
100
AcDbPolyline
 90
       13
 70
     0
 43
0.0
 10
1580.277579014711
 20
1052.832629255398
 10
1648.277579014711
 20
1052.832629255398
 10
1648.277579014711
 20
1059.832629255398
 10
1643.277579014711
 20
1059.832629255398
 10
1643.277579014711
 20
1057.832629255398
 10
1646.277579014711
 20
1057.832629255398
 10
1646.277579014711
 20
1054.832629255398
 10
1582.277579014711
 20
1054.832629255398
 10
1582.277579014711
 20
1057.832629255398
 10
1585.277579014712
 20
1057.832629255398
 10
1585.277579014712
 20
1059.832629255398
 10
1580.277579014711
 20
1059.832629255398
 10
1580.277579014711
 20
1052.832629255398
  0
LWPOLYLINE
  5
B903
330
1E
100
AcDbEntity
  8
躯体と製品
  6
Continuous
 62
     4
100
AcDbPolyline
 90
       28
 70
     1
 43
0.0
 10
1630.077579014711
 20
1083.832629255397
 42
-0.4142135623730951
 10
1631.777579014712
 20
1082.132629255397
 10
1631.777579014712
 20
1056.532629255398
 42
0.4142135623730951
 10
1632.277579014711
 20
1056.032629255398
 10
1644.577579014711
 20
1056.032629255398
 42
0.4142135623730951
 10
1645.077579014712
 20
1056.532629255398
 10
1645.077579014712
 20
1057.832629255398
 10
1646.277579014711
 20
1057.832629255398
 10
1646.277579014711
 20
1056.532629255398
 42
-0.4142135623730951
 10
1644.577579014711
 20
1054.832629255398
 10
1632.277579014711
 20
1054.832629255398
 42
-0.4142135623730951
 10
1630.577579014711
 20
1056.532629255398
 10
1630.577579014711
 20
1082.132629255397
 42
0.4142135623730951
 10
1630.077579014711
 20
1082.632629255398
 10
1598.477579014712
 20
1082.632629255398
 42
0.4142135623730951
 10
1597.977579014712
 20
1082.132629255397
 10
1597.977579014712
 20
1056.532629255398
 42
-0.4142135623730951
 10
1596.277579014711
 20
1054.832629255398
 10
1583.977579014712
 20
1054.832629255398
 42
-0.4142135623730951
 10
1582.277579014711
 20
1056.532629255398
 10
1582.277579014711
 20
1057.832629255398
 10
1583.477579014712
 20
1057.832629255398
 10
1583.477579014712
 20
1056.532629255398
 42
0.4142135623730951
 10
1583.977579014712
 20
1056.032629255398
 10
1596.277579014711
 20
1056.032629255398
 42
0.4142135623730951
 10
1596.777579014712
 20
1056.532629255398
 10
1596.777579014712
 20
1082.132629255397
 42
-0.4142135623730951
 10
1598.477579014712
 20
1083.832629255397
  0
LWPOLYLINE
  5
B904
330
1E
100
AcDbEntity
  8
躯体と製品
  6
Continuous
 62
     4
100
AcDbPolyline
 90
        2
 70
     0
 43
0.0
 10
1593.478579014694
 20
1056.681629255402
 10
1593.478579014694
 20
1056.232629255409
  0
LWPOLYLINE
  5
B905
330
1E
100
AcDbEntity
  8
躯体と製品
  6
Continuous
 62
     4
100
AcDbPolyline
 90
        2
 70
     0
 43
0.0
 10
1585.478579014694
 20
1056.681629255402
 10
1585.478579014694
 20
1056.232629255409
  0
LWPOLYLINE
  5
B906
330
1E
100
AcDbEntity
  8
躯体と製品
  6
Continuous
 62
     4
100
AcDbPolyline
 90
        2
 70
     0
 43
0.0
 10
1593.278579014712
 20
1056.032629255398
 10
1589.478579014694
 20
1056.032629255398
  0
LWPOLYLINE
  5
B907
330
1E
100
AcDbEntity
  8
躯体と製品
  6
Continuous
 62
     4
100
AcDbPolyline
 90
        2
 70
     0
 43
0.0
 10
1585.478579014694
 20
1056.232629234455
 42
0.41421351636737
 10
1585.678579004228
 20
1056.032629255398
  0
LWPOLYLINE
  5
B908
330
1E
100
AcDbEntity
  8
躯体と製品
  6
Continuous
 62
     4
100
AcDbPolyline
 90
        2
 70
     0
 43
0.0
 10
1585.678579014706
 20
1056.032629255398
 10
1589.478579014694
 20
1056.032629255398
  0
LWPOLYLINE
  5
B909
330
1E
100
AcDbEntity
  8
躯体と製品
  6
Continuous
 62
     4
100
AcDbPolyline
 90
        2
 70
     0
 43
0.0
 10
1593.278579004234
 20
1056.032629255398
 42
0.4142135777083371
 10
1593.478579014723
 20
1056.232629255409
  0
LWPOLYLINE
  5
B90A
330
1E
100
AcDbEntity
  8
躯体と製品
  6
Continuous
 62
     4
100
AcDbPolyline
 90
        2
 70
     0
 43
0.0
 10
1593.243579014708
 20
1057.832629255415
 10
1589.478579014694
 20
1057.832629255415
  0
LWPOLYLINE
  5
B90B
330
1E
100
AcDbEntity
  8
躯体と製品
  6
Continuous
 62
     4
100
AcDbPolyline
 90
        2
 70
     0
 43
0.0
 10
1593.243128143871
 20
1057.832126795623
 42
0.2144073790574085
 10
1589.478595181348
 20
1059.032485736755
  0
LWPOLYLINE
  5
B90C
330
1E
100
AcDbEntity
  8
躯体と製品
  6
Continuous
 62
     4
100
AcDbPolyline
 90
        2
 70
     0
 43
0.0
 10
1585.713579014709
 20
1057.832629255415
 10
1585.478579014694
 20
1056.681629255402
  0
LWPOLYLINE
  5
B90D
330
1E
100
AcDbEntity
  8
躯体と製品
  6
Continuous
 62
     4
100
AcDbPolyline
 90
        2
 70
     0
 43
0.0
 10
1589.478562430109
 20
1059.032485784515
 42
0.2144073836089342
 10
1585.714029509903
 20
1057.832126458775
  0
LWPOLYLINE
  5
B90E
330
1E
100
AcDbEntity
  8
躯体と製品
  6
Continuous
 62
     4
100
AcDbPolyline
 90
        2
 70
     0
 43
0.0
 10
1585.713579014709
 20
1057.832629255415
 10
1589.478579014694
 20
1057.832629255415
  0
LWPOLYLINE
  5
B90F
330
1E
100
AcDbEntity
  8
躯体と製品
  6
Continuous
 62
     4
100
AcDbPolyline
 90
        2
 70
     0
 43
0.0
 10
1593.243579014708
 20
1057.832629255415
 10
1593.478579014694
 20
1056.681629255402
  0
LWPOLYLINE
  5
B910
330
1E
100
AcDbEntity
  8
躯体と製品
  6
Continuous
 62
     4
100
AcDbPolyline
 90
        2
 70
     0
 43
0.0
 10
1643.0785790147
 20
1056.681629255402
 10
1643.0785790147
 20
1056.232629255409
  0
LWPOLYLINE
  5
B911
330
1E
100
AcDbEntity
  8
躯体と製品
  6
Continuous
 62
     4
100
AcDbPolyline
 90
        2
 70
     0
 43
0.0
 10
1635.0785790147
 20
1056.681629255402
 10
1635.0785790147
 20
1056.232629255409
  0
LWPOLYLINE
  5
B912
330
1E
100
AcDbEntity
  8
躯体と製品
  6
Continuous
 62
     4
100
AcDbPolyline
 90
        2
 70
     0
 43
0.0
 10
1642.878579014688
 20
1056.032629255398
 10
1639.0785790147
 20
1056.032629255398
  0
LWPOLYLINE
  5
B913
330
1E
100
AcDbEntity
  8
躯体と製品
  6
Continuous
 62
     4
100
AcDbPolyline
 90
        2
 70
     0
 43
0.0
 10
1635.0785790147
 20
1056.232629234455
 42
0.41421351636737
 10
1635.278579004234
 20
1056.032629255398
  0
LWPOLYLINE
  5
B914
330
1E
100
AcDbEntity
  8
躯体と製品
  6
Continuous
 62
     4
100
AcDbPolyline
 90
        2
 70
     0
 43
0.0
 10
1635.278579014712
 20
1056.032629255398
 10
1639.0785790147
 20
1056.032629255398
  0
LWPOLYLINE
  5
B915
330
1E
100
AcDbEntity
  8
躯体と製品
  6
Continuous
 62
     4
100
AcDbPolyline
 90
        2
 70
     0
 43
0.0
 10
1642.878579004211
 20
1056.032629255398
 42
0.4142135777083371
 10
1643.0785790147
 20
1056.232629255409
  0
LWPOLYLINE
  5
B916
330
1E
100
AcDbEntity
  8
躯体と製品
  6
Continuous
 62
     4
100
AcDbPolyline
 90
        2
 70
     0
 43
0.0
 10
1642.843579014714
 20
1057.832629255415
 10
1639.0785790147
 20
1057.832629255415
  0
LWPOLYLINE
  5
B917
330
1E
100
AcDbEntity
  8
躯体と製品
  6
Continuous
 62
     4
100
AcDbPolyline
 90
        2
 70
     0
 43
0.0
 10
1642.843128143877
 20
1057.832126795623
 42
0.2144073790574085
 10
1639.078595181354
 20
1059.032485736755
  0
LWPOLYLINE
  5
B918
330
1E
100
AcDbEntity
  8
躯体と製品
  6
Continuous
 62
     4
100
AcDbPolyline
 90
        2
 70
     0
 43
0.0
 10
1635.313579014686
 20
1057.832629255415
 10
1635.0785790147
 20
1056.681629255402
  0
LWPOLYLINE
  5
B919
330
1E
100
AcDbEntity
  8
躯体と製品
  6
Continuous
 62
     4
100
AcDbPolyline
 90
        2
 70
     0
 43
0.0
 10
1639.078562430086
 20
1059.032485784515
 42
0.2144073836089342
 10
1635.31402950988
 20
1057.832126458775
  0
LWPOLYLINE
  5
B91A
330
1E
100
AcDbEntity
  8
躯体と製品
  6
Continuous
 62
     4
100
AcDbPolyline
 90
        2
 70
     0
 43
0.0
 10
1635.313579014686
 20
1057.832629255415
 10
1639.0785790147
 20
1057.832629255415
  0
LWPOLYLINE
  5
B91B
330
1E
100
AcDbEntity
  8
躯体と製品
  6
Continuous
 62
     4
100
AcDbPolyline
 90
        2
 70
     0
 43
0.0
 10
1642.843579014714
 20
1057.832629255415
 10
1643.0785790147
 20
1056.681629255402
  0
LWPOLYLINE
  5
B91C
330
1E
100
AcDbEntity
  8
躯体と製品
  6
Continuous
 62
     4
100
AcDbPolyline
 90
       13
 70
     0
 43
0.0
 10
1395.277579014712
 20
1052.832629255398
 10
1463.277579014711
 20
1052.832629255398
 10
1463.277579014711
 20
1059.832629255398
 10
1458.277579014711
 20
1059.832629255398
 10
1458.277579014711
 20
1057.832629255398
 10
1461.277579014711
 20
1057.832629255398
 10
1461.277579014711
 20
1054.832629255398
 10
1397.277579014711
 20
1054.832629255398
 10
1397.277579014711
 20
1057.832629255398
 10
1400.277579014711
 20
1057.832629255398
 10
1400.277579014711
 20
1059.832629255398
 10
1395.277579014712
 20
1059.832629255398
 10
1395.277579014712
 20
1052.832629255398
  0
LWPOLYLINE
  5
B91D
330
1E
100
AcDbEntity
  8
躯体と製品
  6
Continuous
 62
     4
100
AcDbPolyline
 90
       28
 70
     1
 43
0.0
 10
1445.077579014712
 20
1083.832629255397
 42
-0.4142135623730951
 10
1446.777579014711
 20
1082.132629255397
 10
1446.777579014711
 20
1056.532629255398
 42
0.4142135623730951
 10
1447.277579014711
 20
1056.032629255398
 10
1459.577579014712
 20
1056.032629255398
 42
0.4142135623730951
 10
1460.077579014711
 20
1056.532629255398
 10
1460.077579014711
 20
1057.832629255398
 10
1461.277579014711
 20
1057.832629255398
 10
1461.277579014711
 20
1056.532629255398
 42
-0.4142135623730951
 10
1459.577579014712
 20
1054.832629255398
 10
1447.277579014711
 20
1054.832629255398
 42
-0.4142135623730951
 10
1445.577579014712
 20
1056.532629255398
 10
1445.577579014712
 20
1082.132629255397
 42
0.4142135623730951
 10
1445.077579014712
 20
1082.632629255398
 10
1413.477579014712
 20
1082.632629255398
 42
0.4142135623730951
 10
1412.977579014712
 20
1082.132629255397
 10
1412.977579014712
 20
1056.532629255398
 42
-0.4142135623730951
 10
1411.277579014712
 20
1054.832629255398
 10
1398.977579014712
 20
1054.832629255398
 42
-0.4142135623730951
 10
1397.277579014711
 20
1056.532629255398
 10
1397.277579014711
 20
1057.832629255398
 10
1398.477579014712
 20
1057.832629255398
 10
1398.477579014712
 20
1056.532629255398
 42
0.4142135623730951
 10
1398.977579014712
 20
1056.032629255398
 10
1411.277579014712
 20
1056.032629255398
 42
0.4142135623730951
 10
1411.777579014711
 20
1056.532629255398
 10
1411.777579014711
 20
1082.132629255397
 42
-0.4142135623730951
 10
1413.477579014712
 20
1083.832629255397
  0
LWPOLYLINE
  5
B91E
330
1E
100
AcDbEntity
  8
躯体と製品
  6
Continuous
 62
     4
100
AcDbPolyline
 90
        2
 70
     0
 43
0.0
 10
1408.478579014694
 20
1056.681629255402
 10
1408.478579014694
 20
1056.232629255409
  0
LWPOLYLINE
  5
B91F
330
1E
100
AcDbEntity
  8
躯体と製品
  6
Continuous
 62
     4
100
AcDbPolyline
 90
        2
 70
     0
 43
0.0
 10
1400.478579014694
 20
1056.681629255402
 10
1400.478579014694
 20
1056.232629255409
  0
LWPOLYLINE
  5
B920
330
1E
100
AcDbEntity
  8
躯体と製品
  6
Continuous
 62
     4
100
AcDbPolyline
 90
        2
 70
     0
 43
0.0
 10
1408.278579014712
 20
1056.032629255398
 10
1404.478579014694
 20
1056.032629255398
  0
LWPOLYLINE
  5
B921
330
1E
100
AcDbEntity
  8
躯体と製品
  6
Continuous
 62
     4
100
AcDbPolyline
 90
        2
 70
     0
 43
0.0
 10
1400.478579014694
 20
1056.232629234455
 42
0.41421351636737
 10
1400.678579004228
 20
1056.032629255398
  0
LWPOLYLINE
  5
B922
330
1E
100
AcDbEntity
  8
躯体と製品
  6
Continuous
 62
     4
100
AcDbPolyline
 90
        2
 70
     0
 43
0.0
 10
1400.678579014706
 20
1056.032629255398
 10
1404.478579014694
 20
1056.032629255398
  0
LWPOLYLINE
  5
B923
330
1E
100
AcDbEntity
  8
躯体と製品
  6
Continuous
 62
     4
100
AcDbPolyline
 90
        2
 70
     0
 43
0.0
 10
1408.278579004234
 20
1056.032629255398
 42
0.4142135777083371
 10
1408.478579014723
 20
1056.232629255409
  0
LWPOLYLINE
  5
B924
330
1E
100
AcDbEntity
  8
躯体と製品
  6
Continuous
 62
     4
100
AcDbPolyline
 90
        2
 70
     0
 43
0.0
 10
1408.243579014708
 20
1057.832629255415
 10
1404.478579014694
 20
1057.832629255415
  0
LWPOLYLINE
  5
B925
330
1E
100
AcDbEntity
  8
躯体と製品
  6
Continuous
 62
     4
100
AcDbPolyline
 90
        2
 70
     0
 43
0.0
 10
1408.243128143871
 20
1057.832126795623
 42
0.2144073790574085
 10
1404.478595181348
 20
1059.032485736755
  0
LWPOLYLINE
  5
B926
330
1E
100
AcDbEntity
  8
躯体と製品
  6
Continuous
 62
     4
100
AcDbPolyline
 90
        2
 70
     0
 43
0.0
 10
1400.713579014709
 20
1057.832629255415
 10
1400.478579014694
 20
1056.681629255402
  0
LWPOLYLINE
  5
B927
330
1E
100
AcDbEntity
  8
躯体と製品
  6
Continuous
 62
     4
100
AcDbPolyline
 90
        2
 70
     0
 43
0.0
 10
1404.478562430109
 20
1059.032485784515
 42
0.2144073836089342
 10
1400.714029509903
 20
1057.832126458775
  0
LWPOLYLINE
  5
B928
330
1E
100
AcDbEntity
  8
躯体と製品
  6
Continuous
 62
     4
100
AcDbPolyline
 90
        2
 70
     0
 43
0.0
 10
1400.713579014709
 20
1057.832629255415
 10
1404.478579014694
 20
1057.832629255415
  0
LWPOLYLINE
  5
B929
330
1E
100
AcDbEntity
  8
躯体と製品
  6
Continuous
 62
     4
100
AcDbPolyline
 90
        2
 70
     0
 43
0.0
 10
1408.243579014708
 20
1057.832629255415
 10
1408.478579014694
 20
1056.681629255402
  0
LWPOLYLINE
  5
B92A
330
1E
100
AcDbEntity
  8
躯体と製品
  6
Continuous
 62
     4
100
AcDbPolyline
 90
        2
 70
     0
 43
0.0
 10
1458.0785790147
 20
1056.681629255402
 10
1458.0785790147
 20
1056.232629255409
  0
LWPOLYLINE
  5
B92B
330
1E
100
AcDbEntity
  8
躯体と製品
  6
Continuous
 62
     4
100
AcDbPolyline
 90
        2
 70
     0
 43
0.0
 10
1450.0785790147
 20
1056.681629255402
 10
1450.0785790147
 20
1056.232629255409
  0
LWPOLYLINE
  5
B92C
330
1E
100
AcDbEntity
  8
躯体と製品
  6
Continuous
 62
     4
100
AcDbPolyline
 90
        2
 70
     0
 43
0.0
 10
1457.878579014688
 20
1056.032629255398
 10
1454.0785790147
 20
1056.032629255398
  0
LWPOLYLINE
  5
B92D
330
1E
100
AcDbEntity
  8
躯体と製品
  6
Continuous
 62
     4
100
AcDbPolyline
 90
        2
 70
     0
 43
0.0
 10
1450.0785790147
 20
1056.232629234455
 42
0.41421351636737
 10
1450.278579004234
 20
1056.032629255398
  0
LWPOLYLINE
  5
B92E
330
1E
100
AcDbEntity
  8
躯体と製品
  6
Continuous
 62
     4
100
AcDbPolyline
 90
        2
 70
     0
 43
0.0
 10
1450.278579014712
 20
1056.032629255398
 10
1454.0785790147
 20
1056.032629255398
  0
LWPOLYLINE
  5
B92F
330
1E
100
AcDbEntity
  8
躯体と製品
  6
Continuous
 62
     4
100
AcDbPolyline
 90
        2
 70
     0
 43
0.0
 10
1457.878579004211
 20
1056.032629255398
 42
0.4142135777083371
 10
1458.0785790147
 20
1056.232629255409
  0
LWPOLYLINE
  5
B930
330
1E
100
AcDbEntity
  8
躯体と製品
  6
Continuous
 62
     4
100
AcDbPolyline
 90
        2
 70
     0
 43
0.0
 10
1457.843579014714
 20
1057.832629255415
 10
1454.0785790147
 20
1057.832629255415
  0
LWPOLYLINE
  5
B931
330
1E
100
AcDbEntity
  8
躯体と製品
  6
Continuous
 62
     4
100
AcDbPolyline
 90
        2
 70
     0
 43
0.0
 10
1457.843128143877
 20
1057.832126795623
 42
0.2144073790574085
 10
1454.078595181354
 20
1059.032485736755
  0
LWPOLYLINE
  5
B932
330
1E
100
AcDbEntity
  8
躯体と製品
  6
Continuous
 62
     4
100
AcDbPolyline
 90
        2
 70
     0
 43
0.0
 10
1450.313579014686
 20
1057.832629255415
 10
1450.0785790147
 20
1056.681629255402
  0
LWPOLYLINE
  5
B933
330
1E
100
AcDbEntity
  8
躯体と製品
  6
Continuous
 62
     4
100
AcDbPolyline
 90
        2
 70
     0
 43
0.0
 10
1454.078562430086
 20
1059.032485784515
 42
0.2144073836089342
 10
1450.31402950988
 20
1057.832126458775
  0
LWPOLYLINE
  5
B934
330
1E
100
AcDbEntity
  8
躯体と製品
  6
Continuous
 62
     4
100
AcDbPolyline
 90
        2
 70
     0
 43
0.0
 10
1450.313579014686
 20
1057.832629255415
 10
1454.0785790147
 20
1057.832629255415
  0
LWPOLYLINE
  5
B935
330
1E
100
AcDbEntity
  8
躯体と製品
  6
Continuous
 62
     4
100
AcDbPolyline
 90
        2
 70
     0
 43
0.0
 10
1457.843579014714
 20
1057.832629255415
 10
1458.0785790147
 20
1056.681629255402
  0
LWPOLYLINE
  5
B936
330
1E
100
AcDbEntity
  8
躯体と製品
  6
Continuous
 62
     4
100
AcDbPolyline
 90
       13
 70
     0
 43
0.0
 10
2355.277579014712
 20
1052.832629255398
 10
2423.277579014712
 20
1052.832629255398
 10
2423.277579014712
 20
1059.832629255398
 10
2418.277579014711
 20
1059.832629255398
 10
2418.277579014711
 20
1057.832629255398
 10
2421.277579014712
 20
1057.832629255398
 10
2421.277579014712
 20
1054.832629255398
 10
2357.277579014712
 20
1054.832629255398
 10
2357.277579014712
 20
1057.832629255398
 10
2360.277579014712
 20
1057.832629255398
 10
2360.277579014712
 20
1059.832629255398
 10
2355.277579014712
 20
1059.832629255398
 10
2355.277579014712
 20
1052.832629255398
  0
LWPOLYLINE
  5
B937
330
1E
100
AcDbEntity
  8
躯体と製品
  6
Continuous
 62
     4
100
AcDbPolyline
 90
       28
 70
     1
 43
0.0
 10
2405.077579014712
 20
1083.832629255398
 42
-0.4142135623730951
 10
2406.777579014712
 20
1082.132629255398
 10
2406.777579014712
 20
1056.532629255398
 42
0.4142135623730951
 10
2407.277579014712
 20
1056.032629255398
 10
2419.577579014712
 20
1056.032629255398
 42
0.4142135623730951
 10
2420.077579014712
 20
1056.532629255398
 10
2420.077579014712
 20
1057.832629255398
 10
2421.277579014712
 20
1057.832629255398
 10
2421.277579014712
 20
1056.532629255398
 42
-0.4142135623730951
 10
2419.577579014712
 20
1054.832629255398
 10
2407.277579014712
 20
1054.832629255398
 42
-0.4142135623730951
 10
2405.577579014712
 20
1056.532629255398
 10
2405.577579014712
 20
1082.132629255398
 42
0.4142135623730951
 10
2405.077579014712
 20
1082.632629255398
 10
2373.477579014712
 20
1082.632629255398
 42
0.4142135623730951
 10
2372.977579014712
 20
1082.132629255398
 10
2372.977579014712
 20
1056.532629255398
 42
-0.4142135623730951
 10
2371.277579014712
 20
1054.832629255398
 10
2358.977579014712
 20
1054.832629255398
 42
-0.4142135623730951
 10
2357.277579014712
 20
1056.532629255398
 10
2357.277579014712
 20
1057.832629255398
 10
2358.477579014712
 20
1057.832629255398
 10
2358.477579014712
 20
1056.532629255398
 42
0.4142135623730951
 10
2358.977579014712
 20
1056.032629255398
 10
2371.277579014712
 20
1056.032629255398
 42
0.4142135623730951
 10
2371.777579014711
 20
1056.532629255398
 10
2371.777579014711
 20
1082.132629255398
 42
-0.4142135623730951
 10
2373.477579014712
 20
1083.832629255398
  0
LWPOLYLINE
  5
B938
330
1E
100
AcDbEntity
  8
躯体と製品
  6
Continuous
 62
     4
100
AcDbPolyline
 90
        2
 70
     0
 43
0.0
 10
2368.478579014694
 20
1056.681629255403
 10
2368.478579014694
 20
1056.23262925541
  0
LWPOLYLINE
  5
B939
330
1E
100
AcDbEntity
  8
躯体と製品
  6
Continuous
 62
     4
100
AcDbPolyline
 90
        2
 70
     0
 43
0.0
 10
2360.478579014694
 20
1056.681629255403
 10
2360.478579014694
 20
1056.23262925541
  0
LWPOLYLINE
  5
B93A
330
1E
100
AcDbEntity
  8
躯体と製品
  6
Continuous
 62
     4
100
AcDbPolyline
 90
        2
 70
     0
 43
0.0
 10
2368.278579014712
 20
1056.032629255398
 10
2364.478579014694
 20
1056.032629255398
  0
LWPOLYLINE
  5
B93B
330
1E
100
AcDbEntity
  8
躯体と製品
  6
Continuous
 62
     4
100
AcDbPolyline
 90
        2
 70
     0
 43
0.0
 10
2360.478579014694
 20
1056.232629234455
 42
0.41421351636737
 10
2360.678579004229
 20
1056.032629255398
  0
LWPOLYLINE
  5
B93C
330
1E
100
AcDbEntity
  8
躯体と製品
  6
Continuous
 62
     4
100
AcDbPolyline
 90
        2
 70
     0
 43
0.0
 10
2360.678579014706
 20
1056.032629255398
 10
2364.478579014694
 20
1056.032629255398
  0
LWPOLYLINE
  5
B93D
330
1E
100
AcDbEntity
  8
躯体と製品
  6
Continuous
 62
     4
100
AcDbPolyline
 90
        2
 70
     0
 43
0.0
 10
2368.278579004234
 20
1056.032629255398
 42
0.4142135777083371
 10
2368.478579014723
 20
1056.23262925541
  0
LWPOLYLINE
  5
B93E
330
1E
100
AcDbEntity
  8
躯体と製品
  6
Continuous
 62
     4
100
AcDbPolyline
 90
        2
 70
     0
 43
0.0
 10
2368.243579014708
 20
1057.832629255415
 10
2364.478579014694
 20
1057.832629255415
  0
LWPOLYLINE
  5
B93F
330
1E
100
AcDbEntity
  8
躯体と製品
  6
Continuous
 62
     4
100
AcDbPolyline
 90
        2
 70
     0
 43
0.0
 10
2368.243128143872
 20
1057.832126795623
 42
0.2144073790574085
 10
2364.478595181348
 20
1059.032485736755
  0
LWPOLYLINE
  5
B940
330
1E
100
AcDbEntity
  8
躯体と製品
  6
Continuous
 62
     4
100
AcDbPolyline
 90
        2
 70
     0
 43
0.0
 10
2360.71357901471
 20
1057.832629255415
 10
2360.478579014694
 20
1056.681629255403
  0
LWPOLYLINE
  5
B941
330
1E
100
AcDbEntity
  8
躯体と製品
  6
Continuous
 62
     4
100
AcDbPolyline
 90
        2
 70
     0
 43
0.0
 10
2364.478562430109
 20
1059.032485784515
 42
0.2144073836089342
 10
2360.714029509904
 20
1057.832126458775
  0
LWPOLYLINE
  5
B942
330
1E
100
AcDbEntity
  8
躯体と製品
  6
Continuous
 62
     4
100
AcDbPolyline
 90
        2
 70
     0
 43
0.0
 10
2360.71357901471
 20
1057.832629255415
 10
2364.478579014694
 20
1057.832629255415
  0
LWPOLYLINE
  5
B943
330
1E
100
AcDbEntity
  8
躯体と製品
  6
Continuous
 62
     4
100
AcDbPolyline
 90
        2
 70
     0
 43
0.0
 10
2368.243579014708
 20
1057.832629255415
 10
2368.478579014694
 20
1056.681629255403
  0
LWPOLYLINE
  5
B944
330
1E
100
AcDbEntity
  8
躯体と製品
  6
Continuous
 62
     4
100
AcDbPolyline
 90
        2
 70
     0
 43
0.0
 10
2418.078579014701
 20
1056.681629255403
 10
2418.078579014701
 20
1056.23262925541
  0
LWPOLYLINE
  5
B945
330
1E
100
AcDbEntity
  8
躯体と製品
  6
Continuous
 62
     4
100
AcDbPolyline
 90
        2
 70
     0
 43
0.0
 10
2410.0785790147
 20
1056.681629255403
 10
2410.0785790147
 20
1056.23262925541
  0
LWPOLYLINE
  5
B946
330
1E
100
AcDbEntity
  8
躯体と製品
  6
Continuous
 62
     4
100
AcDbPolyline
 90
        2
 70
     0
 43
0.0
 10
2417.878579014689
 20
1056.032629255398
 10
2414.078579014701
 20
1056.032629255398
  0
LWPOLYLINE
  5
B947
330
1E
100
AcDbEntity
  8
躯体と製品
  6
Continuous
 62
     4
100
AcDbPolyline
 90
        2
 70
     0
 43
0.0
 10
2410.0785790147
 20
1056.232629234455
 42
0.41421351636737
 10
2410.278579004235
 20
1056.032629255398
  0
LWPOLYLINE
  5
B948
330
1E
100
AcDbEntity
  8
躯体と製品
  6
Continuous
 62
     4
100
AcDbPolyline
 90
        2
 70
     0
 43
0.0
 10
2410.278579014712
 20
1056.032629255398
 10
2414.078579014701
 20
1056.032629255398
  0
LWPOLYLINE
  5
B949
330
1E
100
AcDbEntity
  8
躯体と製品
  6
Continuous
 62
     4
100
AcDbPolyline
 90
        2
 70
     0
 43
0.0
 10
2417.878579004212
 20
1056.032629255398
 42
0.4142135777083371
 10
2418.078579014701
 20
1056.23262925541
  0
LWPOLYLINE
  5
B94A
330
1E
100
AcDbEntity
  8
躯体と製品
  6
Continuous
 62
     4
100
AcDbPolyline
 90
        2
 70
     0
 43
0.0
 10
2417.843579014714
 20
1057.832629255415
 10
2414.078579014701
 20
1057.832629255415
  0
LWPOLYLINE
  5
B94B
330
1E
100
AcDbEntity
  8
躯体と製品
  6
Continuous
 62
     4
100
AcDbPolyline
 90
        2
 70
     0
 43
0.0
 10
2417.843128143877
 20
1057.832126795623
 42
0.2144073790574085
 10
2414.078595181354
 20
1059.032485736755
  0
LWPOLYLINE
  5
B94C
330
1E
100
AcDbEntity
  8
躯体と製品
  6
Continuous
 62
     4
100
AcDbPolyline
 90
        2
 70
     0
 43
0.0
 10
2410.313579014686
 20
1057.832629255415
 10
2410.0785790147
 20
1056.681629255403
  0
LWPOLYLINE
  5
B94D
330
1E
100
AcDbEntity
  8
躯体と製品
  6
Continuous
 62
     4
100
AcDbPolyline
 90
        2
 70
     0
 43
0.0
 10
2414.078562430086
 20
1059.032485784515
 42
0.2144073836089342
 10
2410.31402950988
 20
1057.832126458775
  0
LWPOLYLINE
  5
B94E
330
1E
100
AcDbEntity
  8
躯体と製品
  6
Continuous
 62
     4
100
AcDbPolyline
 90
        2
 70
     0
 43
0.0
 10
2410.313579014686
 20
1057.832629255415
 10
2414.078579014701
 20
1057.832629255415
  0
LWPOLYLINE
  5
B94F
330
1E
100
AcDbEntity
  8
躯体と製品
  6
Continuous
 62
     4
100
AcDbPolyline
 90
        2
 70
     0
 43
0.0
 10
2417.843579014714
 20
1057.832629255415
 10
2418.078579014701
 20
1056.681629255403
  0
LWPOLYLINE
  5
BB00
330
1E
100
AcDbEntity
  8
0
  6
Continuous
 62
     7
100
AcDbPolyline
 90
        3
 70
     0
 43
0.0
 10
3106.488698005811
 20
907.2306760829615
 10
3111.847681896542
 20
927.2306760586502
 10
3097.206665787273
 20
912.5896598829616
  0
LWPOLYLINE
  5
BB12
330
1E
100
AcDbEntity
  8
文字-記号
  6
Continuous
 62
     7
100
AcDbPolyline
 90
        3
 70
     0
 43
0.0
 10
1899.905670371452
 20
1116.839871953343
 10
2013.161361027071
 20
1313.004482415178
 10
2308.821907832607
 20
1313.004482415178
1001
ACAD
1000
DSTYLE
1002
{
1070
   147
1040
0.09
1070
    77
1070
     1
1002
}
  0
LWPOLYLINE
  5
BB14
330
1E
100
AcDbEntity
  8
0
  6
Continuous
 62
     7
100
AcDbPolyline
 90
        3
 70
     0
 43
0.0
 10
1914.546686480721
 20
1131.480888129032
 10
1899.905670371452
 20
1116.839871953343
 10
1905.264654262183
 20
1136.839871929032
  0
LWPOLYLINE
  5
BB16
330
1E
100
AcDbEntity
  8
文字-記号
  6
Continuous
 62
     7
100
AcDbPolyline
 90
        3
 70
     0
 43
0.0
 10
1979.393885234436
 20
1092.097225100453
 10
2060.235049543491
 20
1232.11822902676
 10
2209.786504917905
 20
1232.11822902676
1001
ACAD
1000
DSTYLE
1002
{
1070
   147
1040
0.09
1070
    77
1070
     1
1002
}
  0
LWPOLYLINE
  5
BB18
330
1E
100
AcDbEntity
  8
0
  6
Continuous
 62
     7
100
AcDbPolyline
 90
        3
 70
     0
 43
0.0
 10
1994.034901343705
 20
1106.738241276141
 10
1979.393885234436
 20
1092.097225100453
 10
1984.752869125167
 20
1112.097225076142
  0
LWPOLYLINE
  5
BB1A
330
1E
100
AcDbEntity
  8
文字-記号
  6
Continuous
 62
     7
100
AcDbPolyline
 90
        3
 70
     0
 43
0.0
 10
3111.847681896542
 20
927.2306760586497
 10
3049.358205661594
 20
818.995728281353
 10
2741.863854683369
 20
818.995728281353
1001
ACAD
1000
DSTYLE
1002
{
1070
   147
1040
0.09
1070
    77
1070
     1
1002
}
  0
LWPOLYLINE
  5
BB20
330
1E
100
AcDbEntity
  8
文字-記号
  6
Continuous
 62
     7
100
AcDbPolyline
 90
        3
 70
     0
 43
0.0
 10
1557.702858214458
 20
971.6395644684928
 10
1631.065978166971
 20
844.5709133089749
 10
1938.974305181599
 20
844.5709133089749
1001
ACAD
1000
DSTYLE
1002
{
1070
   147
1040
0.09
1070
    77
1070
     1
1002
}
  0
LWPOLYLINE
  5
BB22
330
1E
100
AcDbEntity
  8
0
  6
Continuous
 62
     7
100
AcDbPolyline
 90
        3
 70
     0
 43
0.0
 10
1563.061842105189
 20
951.6395644928048
 10
1557.702858214458
 20
971.6395644684935
 10
1572.343874323727
 20
956.9985482928048
  0
LWPOLYLINE
  5
BB24
330
1E
100
AcDbEntity
  8
文字-記号
  6
Continuous
 62
     7
100
AcDbPolyline
 90
        3
 70
     0
 43
0.0
 10
2706.729385999219
 20
1073.95037129194
 10
2785.60189873148
 20
937.339171919041
 10
2926.779712960946
 20
937.339171919041
1001
ACAD
1000
DSTYLE
1002
{
1070
   147
1040
0.09
1070
    77
1070
     1
1002
}
  0
LWPOLYLINE
  5
BB26
330
1E
100
AcDbEntity
  8
0
  6
Continuous
 62
     7
100
AcDbPolyline
 90
        3
 70
     0
 43
0.0
 10
2712.08836988995
 20
1053.950371316252
 10
2706.729385999219
 20
1073.95037129194
 10
2721.370402108488
 20
1059.309355116252
  0
LWPOLYLINE
  5
BB28
330
1E
100
AcDbEntity
  8
文字-記号
  6
Continuous
 62
     7
100
AcDbPolyline
 90
        3
 70
     0
 43
0.0
 10
2461.270399763815
 20
1002.832629255398
 10
2511.67885019276
 20
915.5226319816472
 10
2671.167538274407
 20
915.5226319816472
1001
ACAD
1000
DSTYLE
1002
{
1070
   147
1040
0.09
1070
    77
1070
     1
1002
}
  0
LWPOLYLINE
  5
BB2A
330
1E
100
AcDbEntity
  8
0
  6
Continuous
 62
     7
100
AcDbPolyline
 90
        3
 70
     0
 43
0.0
 10
2466.629383654546
 20
982.8326292797099
 10
2461.270399763815
 20
1002.832629255398
 10
2475.911415873083
 20
988.1916130797097
  0
LWPOLYLINE
  5
BB9B
330
1E
100
AcDbEntity
  8
寸法
  6
Continuous
 62
     4
100
AcDbPolyline
 90
        2
 70
     0
 43
0.0
 10
3139.278579014711
 20
505.5254041339436
 10
3434.075867014719
 20
505.5254041339436
  0
LWPOLYLINE
  5
BC38
330
1E
100
AcDbEntity
  8
躯体と製品
  6
Continuous
 62
     4
100
AcDbPolyline
 90
        2
 70
     0
 43
0.0
 10
3147.278579014711
 20
908.3884397618547
 10
3147.278579014711
 20
785.6747898529156
  0
LWPOLYLINE
  5
BC39
330
1E
100
AcDbEntity
  8
躯体と製品
  6
Continuous
 62
     4
100
AcDbPolyline
 90
        2
 70
     0
 43
0.0
 10
3131.278579014711
 20
908.388439722322
 10
3131.278579014711
 20
785.6747905552242
  0
LWPOLYLINE
  5
BC3A
330
1E
100
AcDbEntity
  8
躯体と製品
  6
Continuous
 62
     3
100
AcDbPolyline
 90
        2
 70
     0
 43
0.0
 10
3145.77858701471
 20
908.2404080429833
 10
3145.77858701471
 20
785.8228218212894
  0
LWPOLYLINE
  5
BC3B
330
1E
100
AcDbEntity
  8
躯体と製品
  6
Continuous
 62
     3
100
AcDbPolyline
 90
        2
 70
     0
 43
0.0
 10
3132.77857101471
 20
908.2404079744712
 10
3132.778571014711
 20
785.8228220535729
  0
LWPOLYLINE
  5
BC67
330
1E
100
AcDbEntity
  8
躯体と製品
  6
Continuous
 62
     4
100
AcDbPolyline
 90
        2
 70
     0
 43
0.0
 10
2247.278579014711
 20
908.3884397618547
 10
2247.278579014711
 20
785.6747898529156
  0
LWPOLYLINE
  5
BC68
330
1E
100
AcDbEntity
  8
躯体と製品
  6
Continuous
 62
     4
100
AcDbPolyline
 90
        2
 70
     0
 43
0.0
 10
2231.278579014711
 20
908.388439722322
 10
2231.278579014711
 20
785.6747905552242
  0
LWPOLYLINE
  5
BC69
330
1E
100
AcDbEntity
  8
躯体と製品
  6
Continuous
 62
     3
100
AcDbPolyline
 90
        2
 70
     0
 43
0.0
 10
2245.77858701471
 20
908.2404080429833
 10
2245.77858701471
 20
785.8228218212894
  0
LWPOLYLINE
  5
BC6A
330
1E
100
AcDbEntity
  8
躯体と製品
  6
Continuous
 62
     3
100
AcDbPolyline
 90
        2
 70
     0
 43
0.0
 10
2232.77857101471
 20
908.2404079744712
 10
2232.778571014711
 20
785.8228220535729
  0
LWPOLYLINE
  5
BED1
330
1E
100
AcDbEntity
  8
躯体と製品
  6
Continuous
 62
     4
100
AcDbPolyline
 90
        2
 70
     0
 43
0.0
 10
3164.278579014711
 20
1002.832629255398
 10
3434.075867014719
 20
1002.832629255398
  0
LWPOLYLINE
  5
BED2
330
1E
100
AcDbEntity
  8
躯体と製品
  6
Continuous
 62
     4
100
AcDbPolyline
 90
        2
 70
     0
 43
0.0
 10
3164.278579014711
 20
1052.832629255398
 10
3434.075867014719
 20
1052.832629255398
  0
LWPOLYLINE
  5
BED3
330
1E
100
AcDbEntity
  8
躯体と製品
  6
Continuous
 62
     3
100
AcDbPolyline
 90
        2
 70
     0
 43
0.0
 10
2844.286299014712
 20
666.8326292553979
 10
2784.286289014711
 20
606.8326292553979
  0
LWPOLYLINE
  5
BED4
330
1E
100
AcDbEntity
  8
躯体と製品
  6
Continuous
 62
     3
100
AcDbPolyline
 90
        2
 70
     0
 43
0.0
 10
2866.886809014712
 20
666.8326292553979
 10
2806.886809014712
 20
606.8326292553979
  0
LWPOLYLINE
  5
BED5
330
1E
100
AcDbEntity
  8
躯体と製品
  6
Continuous
 62
     3
100
AcDbPolyline
 90
        2
 70
     0
 43
0.0
 10
2855.586559014711
 20
666.8326292553979
 10
2795.586549014712
 20
606.8326292553979
  0
LWPOLYLINE
  5
BED6
330
1E
100
AcDbEntity
  8
躯体と製品
  6
Continuous
 62
     3
100
AcDbPolyline
 90
        2
 70
     0
 43
0.0
 10
3266.411179014711
 20
666.8326292553979
 10
3206.411179014712
 20
606.8326292553979
  0
LWPOLYLINE
  5
BED7
330
1E
100
AcDbEntity
  8
躯体と製品
  6
Continuous
 62
     3
100
AcDbPolyline
 90
        2
 70
     0
 43
0.0
 10
3255.110929014712
 20
666.8326292553979
 10
3195.110929014712
 20
606.8326292553979
  0
LWPOLYLINE
  5
BED8
330
1E
100
AcDbEntity
  8
躯体と製品
  6
Continuous
 62
     3
100
AcDbPolyline
 90
        2
 70
     0
 43
0.0
 10
3243.81067901471
 20
666.8326292553979
 10
3183.810669014711
 20
606.8326292553979
  0
LWPOLYLINE
  5
BF88
330
1E
100
AcDbEntity
  8
躯体と製品
  6
Continuous
 62
     4
100
AcDbPolyline
 90
        2
 70
     0
 43
0.0
 10
2214.27857901471
 20
1002.832629255398
 10
1564.278579014764
 20
1002.832629255398
  0
LWPOLYLINE
  5
BF89
330
1E
100
AcDbEntity
  8
躯体と製品
  6
Continuous
 62
     4
100
AcDbPolyline
 90
        2
 70
     0
 43
0.0
 10
2214.278579014689
 20
1052.832629255398
 10
1564.278579014714
 20
1052.832629255398
  0
LWPOLYLINE
  5
BF8A
330
1E
100
AcDbEntity
  8
躯体と製品
  6
Continuous
 62
     3
100
AcDbPolyline
 90
        2
 70
     0
 43
0.0
 10
2467.362439014711
 20
666.8326292553979
 10
2407.362429014712
 20
606.8326292553979
  0
LWPOLYLINE
  5
BF8B
330
1E
100
AcDbEntity
  8
躯体と製品
  6
Continuous
 62
     3
100
AcDbPolyline
 90
        2
 70
     0
 43
0.0
 10
2456.062179014713
 20
666.8326292553979
 10
2396.062169014712
 20
606.8326292553979
  0
LWPOLYLINE
  5
BF8C
330
1E
100
AcDbEntity
  8
躯体と製品
  6
Continuous
 62
     3
100
AcDbPolyline
 90
        2
 70
     0
 43
0.0
 10
2444.761919014712
 20
666.8326292553979
 10
2384.761919014712
 20
606.8326292553979
  0
LWPOLYLINE
  5
BF8D
330
1E
100
AcDbEntity
  8
躯体と製品
  6
Continuous
 62
     3
100
AcDbPolyline
 90
        2
 70
     0
 43
0.0
 10
1668.313679014712
 20
666.8326292553979
 10
1608.313679014712
 20
606.8326292553979
  0
LWPOLYLINE
  5
BF8E
330
1E
100
AcDbEntity
  8
躯体と製品
  6
Continuous
 62
     3
100
AcDbPolyline
 90
        2
 70
     0
 43
0.0
 10
1657.01342901471
 20
666.8326292553979
 10
1597.013419014712
 20
606.8326292553979
  0
LWPOLYLINE
  5
BF8F
330
1E
100
AcDbEntity
  8
躯体と製品
  6
Continuous
 62
     3
100
AcDbPolyline
 90
        2
 70
     0
 43
0.0
 10
1645.713169014712
 20
666.8326292553979
 10
1585.713169014712
 20
606.8326292553979
  0
LWPOLYLINE
  5
BF90
330
1E
100
AcDbEntity
  8
躯体と製品
  6
Continuous
 62
     3
100
AcDbPolyline
 90
        2
 70
     0
 43
0.0
 10
2067.838059014713
 20
666.8326292553979
 10
2007.838049014711
 20
606.8326292553979
  0
LWPOLYLINE
  5
BF91
330
1E
100
AcDbEntity
  8
躯体と製品
  6
Continuous
 62
     3
100
AcDbPolyline
 90
        2
 70
     0
 43
0.0
 10
2056.537799014712
 20
666.8326292553979
 10
1996.537799014712
 20
606.8326292553979
  0
LWPOLYLINE
  5
BF92
330
1E
100
AcDbEntity
  8
躯体と製品
  6
Continuous
 62
     3
100
AcDbPolyline
 90
        2
 70
     0
 43
0.0
 10
2045.237549014711
 20
666.8326292553979
 10
1985.237539014711
 20
606.8326292553979
  0
LWPOLYLINE
  5
BF96
330
1E
100
AcDbEntity
  8
躯体と製品
  6
Continuous
 62
     3
100
AcDbPolyline
 90
        2
 70
     0
 43
0.0
 10
1374.278579014711
 20
1159.319649255398
 10
1389.278579014711
 20
1174.319649255397
  0
LWPOLYLINE
  5
BF97
330
1E
100
AcDbEntity
  8
躯体と製品
  6
Continuous
 62
     3
100
AcDbPolyline
 90
        2
 70
     0
 43
0.0
 10
1389.278579014711
 20
1179.404769255398
 10
1374.29640901471
 20
1164.422599255397
  0
LWPOLYLINE
  5
BF98
330
1E
100
AcDbEntity
  8
躯体と製品
  6
Continuous
 62
     3
100
AcDbPolyline
 90
        2
 70
     0
 43
0.0
 10
1374.278579014711
 20
1169.489889267299
 10
1389.278579014711
 20
1184.489879255398
  0
LWPOLYLINE
  5
BF99
330
1E
100
AcDbEntity
  8
躯体と製品
  6
Continuous
 62
     3
100
AcDbPolyline
 90
        2
 70
     0
 43
0.0
 10
1389.278579014711
 20
1189.574989255398
 10
1374.278579014711
 20
1174.574999267299
  0
LWPOLYLINE
  5
BF9A
330
1E
100
AcDbEntity
  8
躯体と製品
  6
Continuous
 62
     3
100
AcDbPolyline
 90
        2
 70
     0
 43
0.0
 10
1374.278579014711
 20
1179.660119267299
 10
1389.278579014711
 20
1194.660109255398
  0
LWPOLYLINE
  5
BF9B
330
1E
100
AcDbEntity
  8
躯体と製品
  6
Continuous
 62
     3
100
AcDbPolyline
 90
        2
 70
     0
 43
0.0
 10
1381.740539014711
 20
1192.207189255397
 10
1374.278579014711
 20
1184.745229255398
  0
LWPOLYLINE
  5
BF9C
330
1E
100
AcDbEntity
  8
躯体と製品
  6
Continuous
 62
     3
100
AcDbPolyline
 90
        2
 70
     0
 43
0.0
 10
1388.732209014711
 20
1199.198859255397
 10
1383.285709014711
 20
1193.752359255398
  0
LWPOLYLINE
  5
BF9D
330
1E
100
AcDbEntity
  8
躯体と製品
  6
Continuous
 62
     3
100
AcDbPolyline
 90
        2
 70
     0
 43
0.0
 10
1383.285709014711
 20
1198.837479255398
 10
1383.647099014712
 20
1199.198859255397
  0
LWPOLYLINE
  5
BF9E
330
1E
100
AcDbEntity
  8
躯体と製品
  6
Continuous
 62
     3
100
AcDbPolyline
 90
        2
 70
     0
 43
0.0
 10
1374.278579014711
 20
1189.830339179815
 10
1376.65541901471
 20
1192.207189255397
  0
LWPOLYLINE
  5
BF9F
330
1E
100
AcDbEntity
  8
躯体と製品
  6
Continuous
 62
     4
100
AcDbPolyline
 90
        2
 70
     0
 43
0.0
 10
1383.285709014711
 20
1207.189349255398
 10
1383.285709014711
 20
1192.207189255397
  0
LWPOLYLINE
  5
BFA0
330
1E
100
AcDbEntity
  8
躯体と製品
  6
Continuous
 62
     4
100
AcDbPolyline
 90
        2
 70
     0
 43
0.0
 10
1389.278579014711
 20
1199.198859255397
 10
1383.285709014711
 20
1199.198859255397
  0
LWPOLYLINE
  5
BFA1
330
1E
100
AcDbEntity
  8
躯体と製品
  6
Continuous
 62
     4
100
AcDbPolyline
 90
        2
 70
     0
 43
0.0
 10
1383.285709014711
 20
1192.207189255397
 10
1374.278579014711
 20
1192.207189255397
  0
LWPOLYLINE
  5
BFA2
330
1E
100
AcDbEntity
  8
躯体と製品
  6
Continuous
 62
     4
100
AcDbPolyline
 90
        2
 70
     0
 43
0.0
 10
1389.278579014711
 20
1207.189349255398
 10
1383.285709014711
 20
1207.189349255398
  0
LWPOLYLINE
  5
BFA3
330
1E
100
AcDbEntity
  8
躯体と製品
  6
Continuous
 62
     4
100
AcDbPolyline
 90
        2
 70
     0
 43
0.0
 10
1374.278579014711
 20
1169.234529255397
 10
1349.278579014711
 20
1169.234529255397
  0
LWPOLYLINE
  5
BFA4
330
1E
100
AcDbEntity
  8
躯体と製品
  6
Continuous
 62
     3
100
AcDbPolyline
 90
        2
 70
     0
 43
0.0
 10
1389.278579014711
 20
1128.553609255397
 10
1385.012999014712
 20
1124.288039255397
  0
LWPOLYLINE
  5
BFA5
330
1E
100
AcDbEntity
  8
躯体と製品
  6
Continuous
 62
     3
100
AcDbPolyline
 90
        2
 70
     0
 43
0.0
 10
1379.927889014712
 20
1124.288039255397
 10
1389.278579014711
 20
1133.638729255397
  0
LWPOLYLINE
  5
BFA6
330
1E
100
AcDbEntity
  8
躯体と製品
  6
Continuous
 62
     3
100
AcDbPolyline
 90
        2
 70
     0
 43
0.0
 10
1389.278579014711
 20
1138.723839255397
 10
1374.842769014711
 20
1124.288039255397
  0
LWPOLYLINE
  5
BFA7
330
1E
100
AcDbEntity
  8
躯体と製品
  6
Continuous
 62
     3
100
AcDbPolyline
 90
        2
 70
     0
 43
0.0
 10
1374.278579014711
 20
1128.808959255398
 10
1389.278579014711
 20
1143.808959255397
  0
LWPOLYLINE
  5
BFA8
330
1E
100
AcDbEntity
  8
躯体と製品
  6
Continuous
 62
     3
100
AcDbPolyline
 90
        2
 70
     0
 43
0.0
 10
1389.278579014711
 20
1148.894079255397
 10
1374.278579014711
 20
1133.894079255398
  0
LWPOLYLINE
  5
BFA9
330
1E
100
AcDbEntity
  8
躯体と製品
  6
Continuous
 62
     3
100
AcDbPolyline
 90
        2
 70
     0
 43
0.0
 10
1374.278579014711
 20
1138.979189255398
 10
1389.278579014711
 20
1153.979189255397
  0
LWPOLYLINE
  5
BFAA
330
1E
100
AcDbEntity
  8
躯体と製品
  6
Continuous
 62
     4
100
AcDbPolyline
 90
        2
 70
     0
 43
0.0
 10
1349.278579014711
 20
1124.288039255397
 10
1389.278579014711
 20
1124.288039255397
  0
LWPOLYLINE
  5
BFAB
330
1E
100
AcDbEntity
  8
躯体と製品
  6
Continuous
 62
     3
100
AcDbPolyline
 90
        2
 70
     0
 43
0.0
 10
1389.278579014711
 20
1159.064299255397
 10
1374.278579014711
 20
1144.064309267299
  0
LWPOLYLINE
  5
BFAC
330
1E
100
AcDbEntity
  8
躯体と製品
  6
Continuous
 62
     3
100
AcDbPolyline
 90
        2
 70
     0
 43
0.0
 10
1374.278579014711
 20
1149.149429267299
 10
1389.278579014711
 20
1164.149419255397
  0
LWPOLYLINE
  5
BFAD
330
1E
100
AcDbEntity
  8
躯体と製品
  6
Continuous
 62
     3
100
AcDbPolyline
 90
        2
 70
     0
 43
0.0
 10
1389.278579014711
 20
1169.234529255397
 10
1374.278579014711
 20
1154.234539267299
  0
LWPOLYLINE
  5
BFAE
330
1E
100
AcDbEntity
  8
躯体と製品
  6
Continuous
 62
     3
100
AcDbPolyline
 90
        2
 70
     0
 43
0.0
 10
1349.278579014711
 20
1169.234529255397
 10
1374.278579014711
 20
1124.288039255397
  0
LWPOLYLINE
  5
BFAF
330
1E
100
AcDbEntity
  8
躯体と製品
  6
Continuous
 62
     3
100
AcDbPolyline
 90
        2
 70
     0
 43
0.0
 10
1374.278579014711
 20
1124.288039255397
 10
1374.278579014711
 20
1169.234529255397
  0
LWPOLYLINE
  5
BFB0
330
1E
100
AcDbEntity
  8
躯体と製品
  6
Continuous
 62
     4
100
AcDbPolyline
 90
        2
 70
     0
 43
0.0
 10
1389.278579014711
 20
1124.288039255397
 10
1389.278579014711
 20
1199.198859255397
  0
LWPOLYLINE
  5
BFB1
330
1E
100
AcDbEntity
  8
躯体と製品
  6
Continuous
 62
     4
100
AcDbPolyline
 90
        2
 70
     0
 43
0.0
 10
1364.278579014711
 20
1052.832629255398
 10
1364.278579014711
 20
1002.832629255398
  0
LWPOLYLINE
  5
BFB2
330
1E
100
AcDbEntity
  8
躯体と製品
  6
Continuous
 62
     4
100
AcDbPolyline
 90
        2
 70
     0
 43
0.0
 10
1364.278579014711
 20
1116.832629255398
 10
1364.278579014711
 20
1083.871869255398
  0
LWPOLYLINE
  5
BFB3
330
1E
100
AcDbEntity
  8
躯体と製品
  6
Continuous
 62
     4
100
AcDbPolyline
 90
        2
 70
     0
 43
0.0
 10
1374.278579014711
 20
1124.288039255397
 10
1374.278579014711
 20
1302.335849255398
  0
LWPOLYLINE
  5
BFB4
330
1E
100
AcDbEntity
  8
躯体と製品
  6
Continuous
 62
     4
100
AcDbPolyline
 90
        2
 70
     0
 43
0.0
 10
1389.278579014711
 20
1207.189349255398
 10
1389.278579014711
 20
1302.335849255398
  0
LWPOLYLINE
  5
BFB5
330
1E
100
AcDbEntity
  8
躯体と製品
  6
Continuous
 62
     3
100
AcDbPolyline
 90
        2
 70
     0
 43
0.0
 10
1350.378469014712
 20
906.5766592553979
 10
1290.378469014712
 20
846.5766592553979
  0
LWPOLYLINE
  5
BFB6
330
1E
100
AcDbEntity
  8
躯体と製品
  6
Continuous
 62
     3
100
AcDbPolyline
 90
        2
 70
     0
 43
0.0
 10
1350.378469014712
 20
917.8769192553971
 10
1290.378469014712
 20
857.8769192553972
  0
LWPOLYLINE
  5
BFB7
330
1E
100
AcDbEntity
  8
躯体と製品
  6
Continuous
 62
     3
100
AcDbPolyline
 90
        2
 70
     0
 43
0.0
 10
1350.378469014712
 20
929.1771692553977
 10
1290.378469014712
 20
869.1771692553976
  0
LWPOLYLINE
  5
BFB8
330
1E
100
AcDbEntity
  8
躯体と製品
  6
Continuous
 62
     4
100
AcDbPolyline
 90
        2
 70
     0
 43
0.0
 10
1349.278579014711
 20
1302.335849255398
 10
1349.278579014711
 20
666.8326292553979
  0
LWPOLYLINE
  5
BFB9
330
1E
100
AcDbEntity
  8
躯体と製品
  6
Continuous
 62
     4
100
AcDbPolyline
 90
        2
 70
     0
 43
0.0
 10
1364.278579014711
 20
1002.832629255398
 10
1514.278579014779
 20
1002.832629255398
  0
LWPOLYLINE
  5
BFBA
330
1E
100
AcDbEntity
  8
躯体と製品
  6
Continuous
 62
     4
100
AcDbPolyline
 90
        2
 70
     0
 43
0.0
 10
1364.278579014711
 20
1052.832629255398
 10
1514.278579014728
 20
1052.832629255398
  0
LWPOLYLINE
  5
BFC8
330
1E
100
AcDbEntity
  8
躯体と製品
  6
Continuous
 62
     4
100
AcDbPolyline
 90
        2
 70
     0
 43
0.0
 10
1349.278579014711
 20
666.8326292553979
 10
3434.075867014719
 20
666.8326292553979
  0
LWPOLYLINE
  5
BFC9
330
1E
100
AcDbEntity
  8
躯体と製品
  6
Continuous
 62
     4
100
AcDbPolyline
 90
        2
 70
     0
 43
0.0
 10
3114.27857901471
 20
1002.832629255398
 10
2264.278579014711
 20
1002.832629255398
  0
LWPOLYLINE
  5
BFCA
330
1E
100
AcDbEntity
  8
躯体と製品
  6
Continuous
 62
     4
100
AcDbPolyline
 90
        2
 70
     0
 43
0.0
 10
3114.278579014689
 20
1052.832629255398
 10
2264.278579014711
 20
1052.832629255398
  0
LWPOLYLINE
  5
BFCB
330
1E
100
AcDbEntity
  8
躯体と製品
  6
Continuous
 62
     4
100
AcDbPolyline
 90
        2
 70
     0
 43
0.0
 10
1364.278579014711
 20
1083.832629255398
 10
3434.075867014719
 20
1083.832629255398
  0
LWPOLYLINE
  5
BFCC
330
1E
100
AcDbEntity
  8
躯体と製品
  6
Continuous
 62
     3
100
AcDbPolyline
 90
        2
 70
     0
 43
0.0
 10
1364.278579014711
 20
1088.832629255398
 10
3434.075867014719
 20
1088.832629255398
  0
LWPOLYLINE
  5
BFCD
330
1E
100
AcDbEntity
  8
躯体と製品
  6
Continuous
 62
     3
100
AcDbPolyline
 90
        2
 70
     0
 43
0.0
 10
1364.278579014711
 20
1093.832629255397
 10
3434.075867014719
 20
1093.832629255398
  0
LWPOLYLINE
  5
BFCE
330
1E
100
AcDbEntity
  8
躯体と製品
  6
Continuous
 62
     4
100
AcDbPolyline
 90
        2
 70
     0
 43
0.0
 10
1364.278579014711
 20
1098.832629255397
 10
3434.075867014719
 20
1098.832629255398
  0
LWPOLYLINE
  5
BFCF
330
1E
100
AcDbEntity
  8
躯体と製品
  6
Continuous
 62
     4
100
AcDbPolyline
 90
        2
 70
     0
 43
0.0
 10
1364.278579014711
 20
1116.832629255398
 10
3434.075867014719
 20
1116.832629255398
  0
LWPOLYLINE
  5
C09B
330
1E
100
AcDbEntity
  8
寸法
  6
Continuous
 62
     4
100
AcDbPolyline
 90
        2
 70
     0
 43
0.0
 10
3434.075867014719
 20
505.5254041339435
 10
3368.362086762701
 20
523.1333584840681
  0
LWPOLYLINE
  5
CBFD
330
1E
100
AcDbEntity
  8
躯体と製品
  6
Continuous
 62
     4
100
AcDbPolyline
 90
        2
 70
     0
 43
0.0
 10
1547.278579014711
 20
940.6904770767759
 10
1547.278579014712
 20
785.6747898529155
  0
LWPOLYLINE
  5
CBFE
330
1E
100
AcDbEntity
  8
躯体と製品
  6
Continuous
 62
     4
100
AcDbPolyline
 90
        2
 70
     0
 43
0.0
 10
1531.278579014711
 20
940.6904770372747
 10
1531.278579014711
 20
785.6747905552242
  0
LWPOLYLINE
  5
CBFF
330
1E
100
AcDbEntity
  8
躯体と製品
  6
Continuous
 62
     3
100
AcDbPolyline
 90
        2
 70
     0
 43
0.0
 10
1545.778579014711
 20
940.5424450439468
 10
1545.778579014711
 20
785.8228221352601
  0
LWPOLYLINE
  5
CC00
330
1E
100
AcDbEntity
  8
躯体と製品
  6
Continuous
 62
     3
100
AcDbPolyline
 90
        2
 70
     0
 43
0.0
 10
1532.778579014711
 20
940.5424449754423
 10
1532.778579014711
 20
785.8228223675411
  0
LWPOLYLINE
  5
CC01
330
1E
100
AcDbEntity
  8
躯体と製品
  6
Continuous
 62
     3
100
AcDbPolyline
 90
        2
 70
     0
 43
0.0
 10
1549.278578014698
 20
1063.832655255398
 10
1549.278578014797
 20
984.086317619106
  0
LWPOLYLINE
  5
CC02
330
1E
100
AcDbEntity
  8
躯体と製品
  6
Continuous
 62
     3
100
AcDbPolyline
 90
        2
 70
     0
 43
0.0
 10
1529.278603514791
 20
983.8323896190937
 10
1529.278603514692
 20
1063.832655255385
  0
LWPOLYLINE
  5
CC03
330
1E
100
AcDbEntity
  8
躯体と製品
  6
Continuous
 62
     3
100
AcDbPolyline
 90
        2
 70
     0
 43
0.0
 10
1519.278655514693
 20
1063.832655255385
 10
1519.278655514792
 20
984.0863176190932
  0
LWPOLYLINE
  5
CC04
330
1E
100
AcDbEntity
  8
躯体と製品
  6
Continuous
 62
     3
100
AcDbPolyline
 90
        2
 70
     0
 43
0.0
 10
1559.278528014798
 20
983.8323896191059
 10
1559.278528014698
 20
1063.832655255398
  0
LWPOLYLINE
  5
CC05
330
1E
100
AcDbEntity
  8
躯体と製品
  6
Continuous
 62
     4
100
AcDbPolyline
 90
        2
 70
     0
 43
0.0
 10
1564.278579014696
 20
1069.845425255398
 10
1564.278579014795
 20
971.5326292553982
  0
LWPOLYLINE
  5
CC06
330
1E
100
AcDbEntity
  8
躯体と製品
  6
Continuous
 62
     4
100
AcDbPolyline
 90
        2
 70
     0
 43
0.0
 10
1514.278579014711
 20
1069.845425255398
 10
1514.27857901481
 20
971.5326292553982
  0
LWPOLYLINE
  5
CC07
330
1E
100
AcDbEntity
  8
躯体と製品
  6
Continuous
 62
     4
100
AcDbPolyline
 90
        2
 70
     0
 43
0.0
 10
1564.278579014795
 20
971.5326292553982
 10
1514.27857901481
 20
971.5326292553982
  0
LWPOLYLINE
  5
CC08
330
1E
100
AcDbEntity
  8
躯体と製品
  6
Continuous
 62
     4
100
AcDbPolyline
 90
        2
 70
     0
 43
0.0
 10
1512.27857901481
 20
973.5206232553982
 10
1512.278579014805
 20
976.5326292553982
  0
LWPOLYLINE
  5
CC09
330
1E
100
AcDbEntity
  8
躯体と製品
  6
Continuous
 62
     4
100
AcDbPolyline
 90
        2
 70
     0
 43
0.0
 10
1520.692786920218
 20
970.5326292553982
 10
1557.864371109204
 20
970.5326292553982
  0
LWPOLYLINE
  5
CC0A
330
1E
100
AcDbEntity
  8
躯体と製品
  6
Continuous
 62
     4
100
AcDbPolyline
 90
        2
 70
     0
 43
0.0
 10
1512.27858101481
 20
973.5206232553982
 42
0.4159832427946089
 10
1514.27857901481
 20
971.5326654972905
  0
LWPOLYLINE
  5
CC0B
330
1E
100
AcDbEntity
  8
躯体と製品
  6
Continuous
 62
     4
100
AcDbPolyline
 90
        2
 70
     0
 43
0.0
 10
1519.278579014711
 20
971.5326292553982
 42
0.3178382832530243
 10
1520.692786920218
 20
970.5326292553982
  0
LWPOLYLINE
  5
CC0C
330
1E
100
AcDbEntity
  8
躯体と製品
  6
Continuous
 62
     4
100
AcDbPolyline
 90
        2
 70
     0
 43
0.0
 10
1557.864371109204
 20
970.5326292553982
 42
0.3178382832530243
 10
1559.278579014711
 20
971.5326292553982
 42
0.3178382832530243
  0
LWPOLYLINE
  5
CC0D
330
1E
100
AcDbEntity
  8
躯体と製品
  6
Continuous
 62
     4
100
AcDbPolyline
 90
        2
 70
     0
 43
0.0
 10
1514.278579014805
 20
976.5326292553982
 10
1512.278579014805
 20
976.5326292553982
  0
LWPOLYLINE
  5
CC0E
330
1E
100
AcDbEntity
  8
躯体と製品
  6
Continuous
 62
     3
100
AcDbPolyline
 90
        2
 70
     0
 43
0.0
 10
1519.285107636722
 20
984.0863172739851
 42
1.025732055974223
 10
1529.278603514791
 20
983.8323896190937
  0
LWPOLYLINE
  5
CC0F
330
1E
100
AcDbEntity
  8
躯体と製品
  6
Continuous
 62
     3
100
AcDbPolyline
 90
        2
 70
     0
 43
0.0
 10
1549.285030136728
 20
984.0863172739974
 42
1.025732055974223
 10
1559.278526014798
 20
983.8323896191059
  0
LWPOLYLINE
  5
CC10
330
1E
100
AcDbEntity
  8
躯体と製品
  6
Continuous
 62
     4
100
AcDbPolyline
 90
        2
 70
     0
 43
0.0
 10
1566.278579014795
 20
973.5206232553982
 10
1566.27857901479
 20
976.5326292553982
  0
LWPOLYLINE
  5
CC11
330
1E
100
AcDbEntity
  8
躯体と製品
  6
Continuous
 62
     4
100
AcDbPolyline
 90
        2
 70
     0
 43
0.0
 10
1564.278579014795
 20
971.5326655093686
 42
0.4159835378315743
 10
1566.278579014795
 20
973.5206232553982
  0
LWPOLYLINE
  5
CC12
330
1E
100
AcDbEntity
  8
躯体と製品
  6
Continuous
 62
     4
100
AcDbPolyline
 90
        2
 70
     0
 43
0.0
 10
1564.27857901479
 20
976.5326292553982
 10
1566.27857901479
 20
976.5326292553982
  0
LWPOLYLINE
  5
CC13
330
1E
100
AcDbEntity
  8
躯体と製品
  6
Continuous
 62
     3
100
AcDbPolyline
 90
        2
 70
     0
 43
0.0
 10
1559.278528014698
 20
1053.832629255398
 10
1564.278579014696
 20
1053.832629255398
  0
LWPOLYLINE
  5
CC14
330
1E
100
AcDbEntity
  8
躯体と製品
  6
Continuous
 62
     3
100
AcDbPolyline
 90
        2
 70
     0
 43
0.0
 10
1559.278528014698
 20
1059.832629255398
 10
1564.278579014696
 20
1059.832629255398
  0
LWPOLYLINE
  5
CC15
330
1E
100
AcDbEntity
  8
躯体と製品
  6
Continuous
 62
     4
100
AcDbPolyline
 90
        2
 70
     0
 43
0.0
 10
1564.278599014696
 20
1069.832649255398
 42
0.4142069350098757
 10
1560.278471014711
 20
1073.832649255398
  0
LWPOLYLINE
  5
CC16
330
1E
100
AcDbEntity
  8
躯体と製品
  6
Continuous
 62
     3
100
AcDbPolyline
 90
        2
 70
     0
 43
0.0
 10
1529.278603514692
 20
1053.832629255385
 10
1549.278578014698
 20
1053.832629255398
  0
LWPOLYLINE
  5
CC17
330
1E
100
AcDbEntity
  8
躯体と製品
  6
Continuous
 62
     3
100
AcDbPolyline
 90
        2
 70
     0
 43
0.0
 10
1514.278579014711
 20
1053.832629255398
 10
1519.278655514693
 20
1053.832629255385
  0
LWPOLYLINE
  5
CC18
330
1E
100
AcDbEntity
  8
躯体と製品
  6
Continuous
 62
     3
100
AcDbPolyline
 90
        2
 70
     0
 43
0.0
 10
1537.938885521204
 20
1059.832629255398
 10
1529.278603514692
 20
1059.832629255385
  0
LWPOLYLINE
  5
CC19
330
1E
100
AcDbEntity
  8
躯体と製品
  6
Continuous
 62
     4
100
AcDbPolyline
 90
        2
 70
     0
 43
0.0
 10
1560.291247014711
 20
1073.832629255398
 10
1518.265783014711
 20
1073.832629255398
  0
LWPOLYLINE
  5
CC1A
330
1E
100
AcDbEntity
  8
躯体と製品
  6
Continuous
 62
     3
100
AcDbPolyline
 90
        2
 70
     0
 43
0.0
 10
1514.278579014711
 20
1059.832629255398
 10
1519.278655514693
 20
1059.832629255385
  0
LWPOLYLINE
  5
CC1B
330
1E
100
AcDbEntity
  8
躯体と製品
  6
Continuous
 62
     4
100
AcDbPolyline
 90
        2
 70
     0
 43
0.0
 10
1518.278559014711
 20
1073.832649255398
 42
0.4142135623730951
 10
1514.278559014711
 20
1069.832649255398
  0
LWPOLYLINE
  5
CC1C
330
1E
100
AcDbEntity
  8
躯体と製品
  6
Continuous
 62
     3
100
AcDbPolyline
 90
        2
 70
     0
 43
0.0
 10
1529.278603514692
 20
1063.832655255385
 42
0.9999999999999998
 10
1519.278655514692
 20
1063.832655255385
  0
LWPOLYLINE
  5
CC1D
330
1E
100
AcDbEntity
  8
躯体と製品
  6
Continuous
 62
     3
100
AcDbPolyline
 90
        2
 70
     0
 43
0.0
 10
1540.618193014711
 20
1059.832629255398
 10
1549.278578014699
 20
1059.832629255398
  0
LWPOLYLINE
  5
CC1E
330
1E
100
AcDbEntity
  8
躯体と製品
  6
Continuous
 62
     3
100
AcDbPolyline
 90
        2
 70
     0
 43
0.0
 10
1539.278579014711
 20
1070.606103255398
 10
1544.27855301471
 20
1067.719367255398
  0
LWPOLYLINE
  5
CC1F
330
1E
100
AcDbEntity
  8
躯体と製品
  6
Continuous
 62
     3
100
AcDbPolyline
 90
        2
 70
     0
 43
0.0
 10
1534.278603014711
 20
1067.719367255398
 10
1539.278579014711
 20
1070.606103255398
  0
CIRCLE
  5
CC20
330
1E
100
AcDbEntity
  8
躯体と製品
  6
Continuous
 62
     3
100
AcDbCircle
 10
1539.278579014711
 20
1064.832629255398
 30
0.0
 40
4.999973999999999
  0
LWPOLYLINE
  5
CC21
330
1E
100
AcDbEntity
  8
躯体と製品
  6
Continuous
 62
     3
100
AcDbPolyline
 90
        2
 70
     0
 43
0.0
 10
1539.278579014711
 20
1059.059157255398
 10
1534.278603014711
 20
1061.945893255398
  0
CIRCLE
  5
CC22
330
1E
100
AcDbEntity
  8
躯体と製品
  6
Continuous
 62
     3
100
AcDbCircle
 10
1539.278579014711
 20
1064.832629255398
 30
0.0
 40
2.499988
  0
CIRCLE
  5
CC23
330
1E
100
AcDbEntity
  8
躯体と製品
  6
Continuous
 62
     3
100
AcDbCircle
 10
1539.278579014711
 20
1064.832629255398
 30
0.0
 40
2.999983999999999
  0
LWPOLYLINE
  5
CC24
330
1E
100
AcDbEntity
  8
躯体と製品
  6
Continuous
 62
     3
100
AcDbPolyline
 90
        2
 70
     0
 43
0.0
 10
1534.278603014711
 20
1061.945893255398
 10
1534.278603014711
 20
1067.719367255398
  0
LWPOLYLINE
  5
CC25
330
1E
100
AcDbEntity
  8
躯体と製品
  6
Continuous
 62
     4
100
AcDbPolyline
 90
        2
 70
     0
 43
0.0
 10
1533.778607014711
 20
1063.582635255398
 10
1534.179585014711
 20
1063.582635255398
  0
LWPOLYLINE
  5
CC26
330
1E
100
AcDbEntity
  8
躯体と製品
  6
Continuous
 62
     4
100
AcDbPolyline
 90
        2
 70
     0
 43
0.0
 10
1533.278609014711
 20
1064.082633255398
 42
0.4142135623730951
 10
1533.778607014711
 20
1063.582635255398
  0
LWPOLYLINE
  5
CC27
330
1E
100
AcDbEntity
  8
躯体と製品
  6
Continuous
 62
     4
100
AcDbPolyline
 90
        2
 70
     0
 43
0.0
 10
1533.27860901471
 20
1065.582625255398
 10
1533.27860901471
 20
1064.082633255398
  0
LWPOLYLINE
  5
CC28
330
1E
100
AcDbEntity
  8
躯体と製品
  6
Continuous
 62
     4
100
AcDbPolyline
 90
        2
 70
     0
 43
0.0
 10
1533.778607014711
 20
1066.082623255398
 42
0.4142135623730951
 10
1533.278609014711
 20
1065.582625255398
  0
LWPOLYLINE
  5
CC29
330
1E
100
AcDbEntity
  8
躯体と製品
  6
Continuous
 62
     4
100
AcDbPolyline
 90
        2
 70
     0
 43
0.0
 10
1534.179585014711
 20
1066.082623255398
 10
1533.778607014711
 20
1066.082623255398
  0
LWPOLYLINE
  5
CC2A
330
1E
100
AcDbEntity
  8
躯体と製品
  6
Continuous
 62
     3
100
AcDbPolyline
 90
        2
 70
     0
 43
0.0
 10
1544.27855301471
 20
1061.945893255398
 10
1539.278579014711
 20
1059.059157255398
  0
LWPOLYLINE
  5
CC2B
330
1E
100
AcDbEntity
  8
躯体と製品
  6
Continuous
 62
     3
100
AcDbPolyline
 90
        2
 70
     0
 43
0.0
 10
1544.27855301471
 20
1067.719367255398
 10
1544.27855301471
 20
1061.945893255398
  0
LWPOLYLINE
  5
CC2C
330
1E
100
AcDbEntity
  8
躯体と製品
  6
Continuous
 62
     4
100
AcDbPolyline
 90
        2
 70
     0
 43
0.0
 10
1544.778551014711
 20
1063.582635255398
 10
1544.37757101471
 20
1063.582635255398
  0
LWPOLYLINE
  5
CC2D
330
1E
100
AcDbEntity
  8
躯体と製品
  6
Continuous
 62
     4
100
AcDbPolyline
 90
        2
 70
     0
 43
0.0
 10
1544.778551014711
 20
1063.582635255398
 42
0.4142135623730951
 10
1545.27854901471
 20
1064.082633255398
  0
LWPOLYLINE
  5
CC2E
330
1E
100
AcDbEntity
  8
躯体と製品
  6
Continuous
 62
     4
100
AcDbPolyline
 90
        2
 70
     0
 43
0.0
 10
1545.278547014711
 20
1065.582625255398
 10
1545.278547014711
 20
1064.082633255398
  0
LWPOLYLINE
  5
CC2F
330
1E
100
AcDbEntity
  8
躯体と製品
  6
Continuous
 62
     4
100
AcDbPolyline
 90
        2
 70
     0
 43
0.0
 10
1545.27854901471
 20
1065.582625255398
 42
0.4142135623730951
 10
1544.778551014711
 20
1066.082623255398
  0
LWPOLYLINE
  5
CC30
330
1E
100
AcDbEntity
  8
躯体と製品
  6
Continuous
 62
     4
100
AcDbPolyline
 90
        2
 70
     0
 43
0.0
 10
1544.37757101471
 20
1066.082623255398
 10
1544.778551014711
 20
1066.082623255398
  0
LWPOLYLINE
  5
CC31
330
1E
100
AcDbEntity
  8
躯体と製品
  6
Continuous
 62
     3
100
AcDbPolyline
 90
        2
 70
     0
 43
0.0
 10
1559.278526014699
 20
1063.832655255398
 42
0.9999999999999998
 10
1549.278578014698
 20
1063.832655255398
  0
LWPOLYLINE
  5
CC32
330
1E
100
AcDbEntity
  8
躯体と製品
  6
Continuous
 62
     4
100
AcDbPolyline
 90
        2
 70
     0
 43
0.0
 10
1533.278013632994
 20
957.532637102693
 10
1545.278578937124
 20
957.532637165732
  0
LWPOLYLINE
  5
CC33
330
1E
100
AcDbEntity
  8
躯体と製品
  6
Continuous
 62
     4
100
AcDbPolyline
 90
        4
 70
     1
 43
0.0
 10
1525.278578969895
 20
953.5326370796429
 10
1553.278579007293
 20
953.5326370796429
 10
1553.278579007293
 20
957.5326370796428
 10
1525.278578969895
 20
957.5326370796428
  0
LWPOLYLINE
  5
CC34
330
1E
100
AcDbEntity
  8
躯体と製品
  6
Continuous
 62
     4
100
AcDbPolyline
 90
        5
 70
     0
 43
0.0
 10
1527.27857897426
 20
970.5326368056011
 10
1527.27857897426
 20
959.0326370796429
 42
0.249999996945716
 10
1539.278578930459
 20
959.0326370796429
 42
0.2499999847397634
 10
1551.27857897426
 20
959.0326370796429
 10
1551.27857897426
 20
970.5326369777795
  0
LWPOLYLINE
  5
CC35
330
1E
100
AcDbEntity
  8
躯体と製品
  6
Continuous
 62
     4
100
AcDbPolyline
 90
        2
 70
     0
 43
0.0
 10
1533.278013784421
 20
940.5326372906456
 10
1545.278579088522
 20
940.5326373536846
  0
LWPOLYLINE
  5
CC36
330
1E
100
AcDbEntity
  8
躯体と製品
  6
Continuous
 62
     4
100
AcDbPolyline
 90
        5
 70
     0
 43
0.0
 10
1527.278579125659
 20
953.5326369935537
 10
1527.278579125659
 20
942.0326373221652
 42
0.2500000085465462
 10
1539.278579067771
 20
942.0326373221652
 42
0.2499999935419728
 10
1551.278579125659
 20
942.0326373221652
 10
1551.278579125659
 20
953.5326371657319
  0
LWPOLYLINE
  5
CC37
330
1E
100
AcDbEntity
  8
躯体と製品
  6
Continuous
 62
     4
100
AcDbPolyline
 90
        2
 70
     0
 43
0.0
 10
1539.278578930459
 20
959.0326370796429
 10
1539.278578837181
 20
970.5326368916903
  0
LWPOLYLINE
  5
CC38
330
1E
100
AcDbEntity
  8
躯体と製品
  6
Continuous
 62
     4
100
AcDbPolyline
 90
        2
 70
     0
 43
0.0
 10
1539.278579057003
 20
942.0326373221652
 10
1539.27857897784
 20
953.5326370796429
  0
LWPOLYLINE
  5
CC3A
330
1E
100
AcDbEntity
  8
躯体と製品
  6
Continuous
 62
     3
100
AcDbPolyline
 90
        2
 70
     0
 43
0.0
 10
2244.27855501471
 20
1059.945893255397
 10
2239.278579014711
 20
1057.059155255398
  0
LWPOLYLINE
  5
CC3B
330
1E
100
AcDbEntity
  8
躯体と製品
  6
Continuous
 62
     3
100
AcDbPolyline
 90
        2
 70
     0
 43
0.0
 10
2244.27855501471
 20
1065.719365255398
 10
2244.27855501471
 20
1059.945893255397
  0
LWPOLYLINE
  5
CC3C
330
1E
100
AcDbEntity
  8
躯体と製品
  6
Continuous
 62
     3
100
AcDbPolyline
 90
        2
 70
     0
 43
0.0
 10
2239.278579014711
 20
1068.606103255398
 10
2244.27855501471
 20
1065.719365255398
  0
LWPOLYLINE
  5
CC3D
330
1E
100
AcDbEntity
  8
躯体と製品
  6
Continuous
 62
     3
100
AcDbPolyline
 90
        2
 70
     0
 43
0.0
 10
2234.278605014711
 20
1065.719365255398
 10
2239.278579014711
 20
1068.606103255398
  0
LWPOLYLINE
  5
CC3E
330
1E
100
AcDbEntity
  8
躯体と製品
  6
Continuous
 62
     3
100
AcDbPolyline
 90
        2
 70
     0
 43
0.0
 10
2234.278605014711
 20
1059.945893255397
 10
2234.278605014711
 20
1065.719365255398
  0
LWPOLYLINE
  5
CC3F
330
1E
100
AcDbEntity
  8
躯体と製品
  6
Continuous
 62
     3
100
AcDbPolyline
 90
        2
 70
     0
 43
0.0
 10
2239.278579014711
 20
1057.059155255398
 10
2234.278605014711
 20
1059.945893255397
  0
CIRCLE
  5
CC40
330
1E
100
AcDbEntity
  8
躯体と製品
  6
Continuous
 62
     3
100
AcDbCircle
 10
2239.278579014711
 20
1062.832629255398
 30
0.0
 40
2.499988
  0
CIRCLE
  5
CC41
330
1E
100
AcDbEntity
  8
躯体と製品
  6
Continuous
 62
     3
100
AcDbCircle
 10
2239.278579014711
 20
1062.832629255398
 30
0.0
 40
2.999983999999999
  0
CIRCLE
  5
CC42
330
1E
100
AcDbEntity
  8
躯体と製品
  6
Continuous
 62
     3
100
AcDbCircle
 10
2239.278579014711
 20
1062.832629255398
 30
0.0
 40
4.999973999999999
  0
LWPOLYLINE
  5
CC43
330
1E
100
AcDbEntity
  8
躯体と製品
  6
Continuous
 62
     4
100
AcDbPolyline
 90
        2
 70
     0
 43
0.0
 10
2233.77860701471
 20
1061.582635255398
 10
2234.17958701471
 20
1061.582635255398
  0
LWPOLYLINE
  5
CC44
330
1E
100
AcDbEntity
  8
躯体と製品
  6
Continuous
 62
     4
100
AcDbPolyline
 90
        2
 70
     0
 43
0.0
 10
2233.278609014709
 20
1062.082633255398
 42
0.4142135623730951
 10
2233.77860701471
 20
1061.582635255399
  0
LWPOLYLINE
  5
CC45
330
1E
100
AcDbEntity
  8
躯体と製品
  6
Continuous
 62
     4
100
AcDbPolyline
 90
        2
 70
     0
 43
0.0
 10
2233.278611014711
 20
1063.582625255398
 10
2233.278611014711
 20
1062.082633255398
  0
LWPOLYLINE
  5
CC46
330
1E
100
AcDbEntity
  8
躯体と製品
  6
Continuous
 62
     4
100
AcDbPolyline
 90
        2
 70
     0
 43
0.0
 10
2233.77860701471
 20
1064.082623255399
 42
0.4142135623730951
 10
2233.278609014709
 20
1063.582625255398
  0
LWPOLYLINE
  5
CC47
330
1E
100
AcDbEntity
  8
躯体と製品
  6
Continuous
 62
     4
100
AcDbPolyline
 90
        2
 70
     0
 43
0.0
 10
2234.17958701471
 20
1064.082623255397
 10
2233.77860701471
 20
1064.082623255397
  0
LWPOLYLINE
  5
CC48
330
1E
100
AcDbEntity
  8
躯体と製品
  6
Continuous
 62
     4
100
AcDbPolyline
 90
        2
 70
     0
 43
0.0
 10
2244.778551014711
 20
1061.582635255398
 10
2244.377573014711
 20
1061.582635255398
  0
LWPOLYLINE
  5
CC49
330
1E
100
AcDbEntity
  8
躯体と製品
  6
Continuous
 62
     4
100
AcDbPolyline
 90
        2
 70
     0
 43
0.0
 10
2244.778551014711
 20
1061.582635255399
 42
0.4142135623730951
 10
2245.278549014711
 20
1062.082633255398
  0
LWPOLYLINE
  5
CC4A
330
1E
100
AcDbEntity
  8
躯体と製品
  6
Continuous
 62
     4
100
AcDbPolyline
 90
        2
 70
     0
 43
0.0
 10
2245.27854901471
 20
1063.582625255398
 10
2245.27854901471
 20
1062.082633255398
  0
LWPOLYLINE
  5
CC4B
330
1E
100
AcDbEntity
  8
躯体と製品
  6
Continuous
 62
     4
100
AcDbPolyline
 90
        2
 70
     0
 43
0.0
 10
2245.278549014711
 20
1063.582625255398
 42
0.4142135623730951
 10
2244.778551014711
 20
1064.082623255399
  0
LWPOLYLINE
  5
CC4C
330
1E
100
AcDbEntity
  8
躯体と製品
  6
Continuous
 62
     4
100
AcDbPolyline
 90
        2
 70
     0
 43
0.0
 10
2244.377573014711
 20
1064.082623255397
 10
2244.778551014711
 20
1064.082623255397
  0
LWPOLYLINE
  5
CC4D
330
1E
100
AcDbEntity
  8
躯体と製品
  6
Continuous
 62
     3
100
AcDbPolyline
 90
        4
 70
     0
 43
0.0
 10
2214.278579014711
 20
1049.332629255398
 10
2216.778579014711
 20
1049.332629255398
 42
0.9999999999999998
 10
2216.778579014711
 20
1054.332629255398
 10
2214.278579014711
 20
1054.332629255398
  0
LWPOLYLINE
  5
CC4E
330
1E
100
AcDbEntity
  8
躯体と製品
  6
Continuous
 62
     3
100
AcDbPolyline
 90
        4
 70
     1
 43
0.0
 10
2246.778579014682
 20
1054.332629255398
 42
-0.9999999999999998
 10
2246.778579014682
 20
1049.332629255398
 10
2231.778579014711
 20
1049.332629255398
 42
-0.9999999999999998
 10
2231.778579014711
 20
1054.332629255398
  0
LWPOLYLINE
  5
CC4F
330
1E
100
AcDbEntity
  8
躯体と製品
  6
Continuous
 62
     3
100
AcDbPolyline
 90
        4
 70
     0
 43
0.0
 10
2264.278579014711
 20
1049.332629255398
 10
2261.778579014682
 20
1049.332629255398
 42
-0.9999999999999998
 10
2261.778579014682
 20
1054.332629255398
 10
2264.278579014711
 20
1054.332629255398
  0
LWPOLYLINE
  5
CC50
330
1E
100
AcDbEntity
  8
躯体と製品
  6
Continuous
 62
     4
100
AcDbPolyline
 90
        6
 70
     1
 43
0.0
 10
2262.078579014728
 20
1072.832629255398
 42
-0.4142135623730951
 10
2264.278579014711
 20
1070.632629255386
 10
2264.278579014711
 20
999.232629255392
 10
2214.278579014711
 20
999.232629255392
 10
2214.278579014682
 20
1070.632629255386
 42
-0.4142135623730951
 10
2216.478579014693
 20
1072.832629255398
  0
LWPOLYLINE
  5
CC51
330
1E
100
AcDbEntity
  8
躯体と製品
  6
Continuous
 62
     3
100
AcDbPolyline
 90
        4
 70
     1
 43
0.0
 10
2249.278579014682
 20
1063.832629255398
 42
-0.9999999999999998
 10
2259.278579014711
 20
1063.832629255398
 10
2259.278579014711
 20
1008.232629255392
 42
-0.9999999999999998
 10
2249.278579014711
 20
1008.232629255392
  0
LWPOLYLINE
  5
CC52
330
1E
100
AcDbEntity
  8
躯体と製品
  6
Continuous
 62
     3
100
AcDbPolyline
 90
        4
 70
     1
 43
0.0
 10
2229.278579014711
 20
1063.832629255398
 42
0.9999999999999998
 10
2219.278579014711
 20
1063.832629255398
 10
2219.278579014711
 20
1008.232629255392
 42
0.9999999999999998
 10
2229.278579014711
 20
1008.232629255392
  0
LWPOLYLINE
  5
CC53
330
1E
100
AcDbEntity
  8
躯体と製品
  6
Continuous
 62
     4
100
AcDbPolyline
 90
        2
 70
     0
 43
0.0
 10
2233.278013632894
 20
986.2326294663947
 10
2245.278578937023
 20
986.2326295294336
  0
LWPOLYLINE
  5
CC54
330
1E
100
AcDbEntity
  8
躯体と製品
  6
Continuous
 62
     4
100
AcDbPolyline
 90
        4
 70
     1
 43
0.0
 10
2225.278578969795
 20
982.2326294433445
 10
2253.278579007193
 20
982.2326294433445
 10
2253.278579007193
 20
986.2326294433445
 10
2225.278578969795
 20
986.2326294433445
  0
LWPOLYLINE
  5
CC55
330
1E
100
AcDbEntity
  8
躯体と製品
  6
Continuous
 62
     4
100
AcDbPolyline
 90
        5
 70
     0
 43
0.0
 10
2227.27857897416
 20
999.2326291693029
 10
2227.27857897416
 20
987.7326294433444
 42
0.249999996945716
 10
2239.278578930359
 20
987.7326294433444
 42
0.2499999847397634
 10
2251.27857897416
 20
987.7326294433444
 10
2251.27857897416
 20
999.232629341481
  0
LWPOLYLINE
  5
CC56
330
1E
100
AcDbEntity
  8
躯体と製品
  6
Continuous
 62
     4
100
AcDbPolyline
 90
        2
 70
     0
 43
0.0
 10
2239.278578930359
 20
987.7326294433444
 10
2239.278578837081
 20
999.232629255392
  0
LWPOLYLINE
  5
CC57
330
1E
100
AcDbEntity
  8
躯体と製品
  6
Continuous
 62
     4
100
AcDbPolyline
 90
        2
 70
     0
 43
0.0
 10
2233.278013632894
 20
925.2305997877559
 10
2245.278578937023
 20
925.2305998507948
  0
LWPOLYLINE
  5
CC58
330
1E
100
AcDbEntity
  8
躯体と製品
  6
Continuous
 62
     4
100
AcDbPolyline
 90
        4
 70
     1
 43
0.0
 10
2225.278578969795
 20
921.2305997647057
 10
2253.278579007193
 20
921.2305997647057
 10
2253.278579007193
 20
925.2305997647058
 10
2225.278578969795
 20
925.2305997647058
  0
LWPOLYLINE
  5
CC59
330
1E
100
AcDbEntity
  8
躯体と製品
  6
Continuous
 62
     4
100
AcDbPolyline
 90
        5
 70
     0
 43
0.0
 10
2227.27857897416
 20
927.2306760586511
 10
2227.27857897416
 20
926.7305997647056
 42
0.249999996945716
 10
2239.278578930359
 20
926.7305997647056
 42
0.2499999847397634
 10
2251.27857897416
 20
926.7305997647056
 10
2251.27857897416
 20
927.2306760586511
  0
LWPOLYLINE
  5
CC5A
330
1E
100
AcDbEntity
  8
躯体と製品
  6
Continuous
 62
     4
100
AcDbPolyline
 90
        2
 70
     0
 43
0.0
 10
2233.278013784321
 20
908.2305999757085
 10
2245.278579088422
 20
908.2306000387474
  0
LWPOLYLINE
  5
CC5B
330
1E
100
AcDbEntity
  8
躯体と製品
  6
Continuous
 62
     4
100
AcDbPolyline
 90
        5
 70
     0
 43
0.0
 10
2227.278579125558
 20
921.2305996786167
 10
2227.278579125558
 20
909.7306000072279
 42
0.2500000085465462
 10
2239.278579067671
 20
909.7306000072279
 42
0.2499999935419728
 10
2251.278579125559
 20
909.7306000072279
 10
2251.278579125559
 20
921.2305998507948
  0
LWPOLYLINE
  5
CC5C
330
1E
100
AcDbEntity
  8
躯体と製品
  6
Continuous
 62
     4
100
AcDbPolyline
 90
        2
 70
     0
 43
0.0
 10
2239.278578930359
 20
926.7305997647056
 10
2239.278578926302
 20
927.2306760586511
  0
LWPOLYLINE
  5
CC5D
330
1E
100
AcDbEntity
  8
躯体と製品
  6
Continuous
 62
     4
100
AcDbPolyline
 90
        2
 70
     0
 43
0.0
 10
2239.278579056902
 20
909.7306000072279
 10
2239.27857897774
 20
921.2305997647057
  0
LWPOLYLINE
  5
CC5E
330
1E
100
AcDbEntity
  8
躯体と製品
  6
Continuous
 62
     4
100
AcDbPolyline
 90
        2
 70
     0
 43
0.0
 10
2219.278578948219
 20
982.232629183651
 10
2259.278578948219
 20
982.232629183651
  0
LWPOLYLINE
  5
CC5F
330
1E
100
AcDbEntity
  8
躯体と製品
  6
Continuous
 62
     4
100
AcDbPolyline
 90
        2
 70
     0
 43
0.0
 10
2202.278884124
 20
979.2326291836511
 10
2276.271610254582
 20
979.2326291836511
  0
LWPOLYLINE
  5
CC60
330
1E
100
AcDbEntity
  8
躯体と製品
  6
Continuous
 62
     4
100
AcDbPolyline
 90
        2
 70
     0
 43
0.0
 10
2194.278578948219
 20
927.2306760586511
 10
2284.278579081203
 20
927.2306760586511
  0
LWPOLYLINE
  5
CC61
330
1E
100
AcDbEntity
  8
躯体と製品
  6
Continuous
 62
     4
100
AcDbPolyline
 90
        2
 70
     0
 43
0.0
 10
2194.278578948219
 20
971.2323316372643
 10
2194.278578948219
 20
927.2306760586511
  0
LWPOLYLINE
  5
CC62
330
1E
100
AcDbEntity
  8
躯体と製品
  6
Continuous
 62
     4
100
AcDbPolyline
 90
        2
 70
     0
 43
0.0
 10
2202.278883774297
 20
979.232632044674
 42
0.4142135751758166
 10
2194.27858371659
 20
971.2323309378584
  0
LWPOLYLINE
  5
CC63
330
1E
100
AcDbEntity
  8
躯体と製品
  6
Continuous
 62
     4
100
AcDbPolyline
 90
        2
 70
     0
 43
0.0
 10
2284.27857918315
 20
971.2323315330044
 10
2284.278579081203
 20
927.2306760586511
  0
LWPOLYLINE
  5
CC64
330
1E
100
AcDbEntity
  8
躯体と製品
  6
Continuous
 62
     4
100
AcDbPolyline
 90
        2
 70
     0
 43
0.0
 10
2284.278574414779
 20
971.2323308335943
 42
0.4144575715773068
 10
2276.271610254584
 20
979.2326291837033
  0
LWPOLYLINE
  5
CC65
330
1E
100
AcDbEntity
  8
躯体と製品
  6
Continuous
 62
     4
100
AcDbPolyline
 90
        2
 70
     0
 43
0.0
 10
2259.278578948219
 20
982.232629183651
 10
2259.278578948219
 20
979.2326291836511
  0
LWPOLYLINE
  5
CC66
330
1E
100
AcDbEntity
  8
躯体と製品
  6
Continuous
 62
     4
100
AcDbPolyline
 90
        2
 70
     0
 43
0.0
 10
2219.278579081203
 20
982.232629183651
 10
2219.278579081203
 20
979.2326291836511
  0
LWPOLYLINE
  5
CC67
330
1E
100
AcDbEntity
  8
躯体と製品
  6
Continuous
 62
     3
100
AcDbPolyline
 90
        2
 70
     0
 43
0.0
 10
3144.27855501471
 20
1059.945893255397
 10
3139.278579014711
 20
1057.059155255398
  0
LWPOLYLINE
  5
CC68
330
1E
100
AcDbEntity
  8
躯体と製品
  6
Continuous
 62
     3
100
AcDbPolyline
 90
        2
 70
     0
 43
0.0
 10
3144.27855501471
 20
1065.719365255398
 10
3144.27855501471
 20
1059.945893255397
  0
LWPOLYLINE
  5
CC69
330
1E
100
AcDbEntity
  8
躯体と製品
  6
Continuous
 62
     3
100
AcDbPolyline
 90
        2
 70
     0
 43
0.0
 10
3139.278579014711
 20
1068.606103255398
 10
3144.27855501471
 20
1065.719365255398
  0
LWPOLYLINE
  5
CC6A
330
1E
100
AcDbEntity
  8
躯体と製品
  6
Continuous
 62
     3
100
AcDbPolyline
 90
        2
 70
     0
 43
0.0
 10
3134.278605014711
 20
1065.719365255398
 10
3139.278579014711
 20
1068.606103255398
  0
LWPOLYLINE
  5
CC6B
330
1E
100
AcDbEntity
  8
躯体と製品
  6
Continuous
 62
     3
100
AcDbPolyline
 90
        2
 70
     0
 43
0.0
 10
3134.278605014711
 20
1059.945893255397
 10
3134.278605014711
 20
1065.719365255398
  0
LWPOLYLINE
  5
CC6C
330
1E
100
AcDbEntity
  8
躯体と製品
  6
Continuous
 62
     3
100
AcDbPolyline
 90
        2
 70
     0
 43
0.0
 10
3139.278579014711
 20
1057.059155255398
 10
3134.278605014711
 20
1059.945893255397
  0
CIRCLE
  5
CC6D
330
1E
100
AcDbEntity
  8
躯体と製品
  6
Continuous
 62
     3
100
AcDbCircle
 10
3139.278579014711
 20
1062.832629255398
 30
0.0
 40
2.499988
  0
CIRCLE
  5
CC6E
330
1E
100
AcDbEntity
  8
躯体と製品
  6
Continuous
 62
     3
100
AcDbCircle
 10
3139.278579014711
 20
1062.832629255398
 30
0.0
 40
2.999983999999999
  0
CIRCLE
  5
CC6F
330
1E
100
AcDbEntity
  8
躯体と製品
  6
Continuous
 62
     3
100
AcDbCircle
 10
3139.278579014711
 20
1062.832629255398
 30
0.0
 40
4.999973999999999
  0
LWPOLYLINE
  5
CC70
330
1E
100
AcDbEntity
  8
躯体と製品
  6
Continuous
 62
     4
100
AcDbPolyline
 90
        2
 70
     0
 43
0.0
 10
3133.77860701471
 20
1061.582635255398
 10
3134.17958701471
 20
1061.582635255398
  0
LWPOLYLINE
  5
CC71
330
1E
100
AcDbEntity
  8
躯体と製品
  6
Continuous
 62
     4
100
AcDbPolyline
 90
        2
 70
     0
 43
0.0
 10
3133.27860901471
 20
1062.082633255398
 42
0.4142135623730951
 10
3133.77860701471
 20
1061.582635255399
  0
LWPOLYLINE
  5
CC72
330
1E
100
AcDbEntity
  8
躯体と製品
  6
Continuous
 62
     4
100
AcDbPolyline
 90
        2
 70
     0
 43
0.0
 10
3133.278611014711
 20
1063.582625255398
 10
3133.278611014711
 20
1062.082633255398
  0
LWPOLYLINE
  5
CC73
330
1E
100
AcDbEntity
  8
躯体と製品
  6
Continuous
 62
     4
100
AcDbPolyline
 90
        2
 70
     0
 43
0.0
 10
3133.77860701471
 20
1064.082623255399
 42
0.4142135623730951
 10
3133.27860901471
 20
1063.582625255398
  0
LWPOLYLINE
  5
CC74
330
1E
100
AcDbEntity
  8
躯体と製品
  6
Continuous
 62
     4
100
AcDbPolyline
 90
        2
 70
     0
 43
0.0
 10
3134.17958701471
 20
1064.082623255397
 10
3133.77860701471
 20
1064.082623255397
  0
LWPOLYLINE
  5
CC75
330
1E
100
AcDbEntity
  8
躯体と製品
  6
Continuous
 62
     4
100
AcDbPolyline
 90
        2
 70
     0
 43
0.0
 10
3144.778551014711
 20
1061.582635255398
 10
3144.377573014711
 20
1061.582635255398
  0
LWPOLYLINE
  5
CC76
330
1E
100
AcDbEntity
  8
躯体と製品
  6
Continuous
 62
     4
100
AcDbPolyline
 90
        2
 70
     0
 43
0.0
 10
3144.778551014711
 20
1061.582635255399
 42
0.4142135623730951
 10
3145.278549014711
 20
1062.082633255398
  0
LWPOLYLINE
  5
CC77
330
1E
100
AcDbEntity
  8
躯体と製品
  6
Continuous
 62
     4
100
AcDbPolyline
 90
        2
 70
     0
 43
0.0
 10
3145.27854901471
 20
1063.582625255398
 10
3145.27854901471
 20
1062.082633255398
  0
LWPOLYLINE
  5
CC78
330
1E
100
AcDbEntity
  8
躯体と製品
  6
Continuous
 62
     4
100
AcDbPolyline
 90
        2
 70
     0
 43
0.0
 10
3145.278549014711
 20
1063.582625255398
 42
0.4142135623730951
 10
3144.778551014711
 20
1064.082623255399
  0
LWPOLYLINE
  5
CC79
330
1E
100
AcDbEntity
  8
躯体と製品
  6
Continuous
 62
     4
100
AcDbPolyline
 90
        2
 70
     0
 43
0.0
 10
3144.377573014711
 20
1064.082623255397
 10
3144.778551014711
 20
1064.082623255397
  0
LWPOLYLINE
  5
CC7A
330
1E
100
AcDbEntity
  8
躯体と製品
  6
Continuous
 62
     3
100
AcDbPolyline
 90
        4
 70
     0
 43
0.0
 10
3114.278579014711
 20
1049.332629255398
 10
3116.778579014711
 20
1049.332629255398
 42
0.9999999999999998
 10
3116.778579014711
 20
1054.332629255398
 10
3114.278579014711
 20
1054.332629255398
  0
LWPOLYLINE
  5
CC7B
330
1E
100
AcDbEntity
  8
躯体と製品
  6
Continuous
 62
     3
100
AcDbPolyline
 90
        4
 70
     1
 43
0.0
 10
3146.778579014682
 20
1054.332629255398
 42
-0.9999999999999998
 10
3146.778579014682
 20
1049.332629255398
 10
3131.778579014711
 20
1049.332629255398
 42
-0.9999999999999998
 10
3131.778579014711
 20
1054.332629255398
  0
LWPOLYLINE
  5
CC7C
330
1E
100
AcDbEntity
  8
躯体と製品
  6
Continuous
 62
     3
100
AcDbPolyline
 90
        4
 70
     0
 43
0.0
 10
3164.278579014711
 20
1049.332629255398
 10
3161.778579014682
 20
1049.332629255398
 42
-0.9999999999999998
 10
3161.778579014682
 20
1054.332629255398
 10
3164.278579014711
 20
1054.332629255398
  0
LWPOLYLINE
  5
CC7D
330
1E
100
AcDbEntity
  8
躯体と製品
  6
Continuous
 62
     4
100
AcDbPolyline
 90
        6
 70
     1
 43
0.0
 10
3162.078579014729
 20
1072.832629255398
 42
-0.4142135623730951
 10
3164.278579014711
 20
1070.632629255386
 10
3164.278579014711
 20
999.232629255392
 10
3114.278579014711
 20
999.232629255392
 10
3114.278579014682
 20
1070.632629255386
 42
-0.4142135623730951
 10
3116.478579014694
 20
1072.832629255398
  0
LWPOLYLINE
  5
CC7E
330
1E
100
AcDbEntity
  8
躯体と製品
  6
Continuous
 62
     3
100
AcDbPolyline
 90
        4
 70
     1
 43
0.0
 10
3149.278579014682
 20
1063.832629255398
 42
-0.9999999999999998
 10
3159.278579014711
 20
1063.832629255398
 10
3159.278579014711
 20
1008.232629255392
 42
-0.9999999999999998
 10
3149.278579014711
 20
1008.232629255392
  0
LWPOLYLINE
  5
CC7F
330
1E
100
AcDbEntity
  8
躯体と製品
  6
Continuous
 62
     3
100
AcDbPolyline
 90
        4
 70
     1
 43
0.0
 10
3129.278579014711
 20
1063.832629255398
 42
0.9999999999999998
 10
3119.278579014711
 20
1063.832629255398
 10
3119.278579014711
 20
1008.232629255392
 42
0.9999999999999998
 10
3129.278579014711
 20
1008.232629255392
  0
LWPOLYLINE
  5
CC80
330
1E
100
AcDbEntity
  8
躯体と製品
  6
Continuous
 62
     4
100
AcDbPolyline
 90
        2
 70
     0
 43
0.0
 10
3133.278013632894
 20
986.2326294663947
 10
3145.278578937024
 20
986.2326295294336
  0
LWPOLYLINE
  5
CC81
330
1E
100
AcDbEntity
  8
躯体と製品
  6
Continuous
 62
     4
100
AcDbPolyline
 90
        4
 70
     1
 43
0.0
 10
3125.278578969794
 20
982.2326294433445
 10
3153.278579007193
 20
982.2326294433445
 10
3153.278579007193
 20
986.2326294433445
 10
3125.278578969794
 20
986.2326294433445
  0
LWPOLYLINE
  5
CC82
330
1E
100
AcDbEntity
  8
躯体と製品
  6
Continuous
 62
     4
100
AcDbPolyline
 90
        5
 70
     0
 43
0.0
 10
3127.27857897416
 20
999.2326291693029
 10
3127.27857897416
 20
987.7326294433444
 42
0.249999996945716
 10
3139.278578930359
 20
987.7326294433444
 42
0.2499999847397634
 10
3151.278578974161
 20
987.7326294433444
 10
3151.278578974161
 20
999.232629341481
  0
LWPOLYLINE
  5
CC83
330
1E
100
AcDbEntity
  8
躯体と製品
  6
Continuous
 62
     4
100
AcDbPolyline
 90
        2
 70
     0
 43
0.0
 10
3139.278578930359
 20
987.7326294433444
 10
3139.278578837081
 20
999.232629255392
  0
LWPOLYLINE
  5
CC84
330
1E
100
AcDbEntity
  8
躯体と製品
  6
Continuous
 62
     4
100
AcDbPolyline
 90
        2
 70
     0
 43
0.0
 10
3133.278013632894
 20
925.2305997877559
 10
3145.278578937024
 20
925.2305998507948
  0
LWPOLYLINE
  5
CC85
330
1E
100
AcDbEntity
  8
躯体と製品
  6
Continuous
 62
     4
100
AcDbPolyline
 90
        4
 70
     1
 43
0.0
 10
3125.278578969794
 20
921.2305997647057
 10
3153.278579007193
 20
921.2305997647057
 10
3153.278579007193
 20
925.2305997647058
 10
3125.278578969794
 20
925.2305997647058
  0
LWPOLYLINE
  5
CC86
330
1E
100
AcDbEntity
  8
躯体と製品
  6
Continuous
 62
     4
100
AcDbPolyline
 90
        5
 70
     0
 43
0.0
 10
3127.27857897416
 20
927.2306760586511
 10
3127.27857897416
 20
926.7305997647056
 42
0.249999996945716
 10
3139.278578930359
 20
926.7305997647056
 42
0.2499999847397634
 10
3151.278578974161
 20
926.7305997647056
 10
3151.278578974161
 20
927.2306760586511
  0
LWPOLYLINE
  5
CC87
330
1E
100
AcDbEntity
  8
躯体と製品
  6
Continuous
 62
     4
100
AcDbPolyline
 90
        2
 70
     0
 43
0.0
 10
3133.278013784321
 20
908.2305999757085
 10
3145.278579088422
 20
908.2306000387474
  0
LWPOLYLINE
  5
CC88
330
1E
100
AcDbEntity
  8
躯体と製品
  6
Continuous
 62
     4
100
AcDbPolyline
 90
        5
 70
     0
 43
0.0
 10
3127.278579125559
 20
921.2305996786167
 10
3127.278579125559
 20
909.7306000072279
 42
0.2500000085465462
 10
3139.278579067671
 20
909.7306000072279
 42
0.2499999935419728
 10
3151.278579125559
 20
909.7306000072279
 10
3151.278579125559
 20
921.2305998507948
  0
LWPOLYLINE
  5
CC89
330
1E
100
AcDbEntity
  8
躯体と製品
  6
Continuous
 62
     4
100
AcDbPolyline
 90
        2
 70
     0
 43
0.0
 10
3139.278578930359
 20
926.7305997647056
 10
3139.278578926303
 20
927.2306760586511
  0
LWPOLYLINE
  5
CC8A
330
1E
100
AcDbEntity
  8
躯体と製品
  6
Continuous
 62
     4
100
AcDbPolyline
 90
        2
 70
     0
 43
0.0
 10
3139.278579056903
 20
909.7306000072279
 10
3139.27857897774
 20
921.2305997647057
  0
LWPOLYLINE
  5
CC8B
330
1E
100
AcDbEntity
  8
躯体と製品
  6
Continuous
 62
     4
100
AcDbPolyline
 90
        2
 70
     0
 43
0.0
 10
3119.278578948219
 20
982.232629183651
 10
3159.278578948219
 20
982.232629183651
  0
LWPOLYLINE
  5
CC8C
330
1E
100
AcDbEntity
  8
躯体と製品
  6
Continuous
 62
     4
100
AcDbPolyline
 90
        2
 70
     0
 43
0.0
 10
3102.278884124
 20
979.2326291836511
 10
3176.271610254582
 20
979.2326291836511
  0
LWPOLYLINE
  5
CC8D
330
1E
100
AcDbEntity
  8
躯体と製品
  6
Continuous
 62
     4
100
AcDbPolyline
 90
        2
 70
     0
 43
0.0
 10
3094.278578948219
 20
927.2306760586511
 10
3184.278579081203
 20
927.2306760586511
  0
LWPOLYLINE
  5
CC8E
330
1E
100
AcDbEntity
  8
躯体と製品
  6
Continuous
 62
     4
100
AcDbPolyline
 90
        2
 70
     0
 43
0.0
 10
3094.278578948219
 20
971.2323316372643
 10
3094.278578948219
 20
927.2306760586511
  0
LWPOLYLINE
  5
CC8F
330
1E
100
AcDbEntity
  8
躯体と製品
  6
Continuous
 62
     4
100
AcDbPolyline
 90
        2
 70
     0
 43
0.0
 10
3102.278883774297
 20
979.232632044674
 42
0.4142135751758166
 10
3094.278583716591
 20
971.2323309378584
  0
LWPOLYLINE
  5
CC90
330
1E
100
AcDbEntity
  8
躯体と製品
  6
Continuous
 62
     4
100
AcDbPolyline
 90
        2
 70
     0
 43
0.0
 10
3184.27857918315
 20
971.2323315330044
 10
3184.278579081203
 20
927.2306760586511
  0
LWPOLYLINE
  5
CC91
330
1E
100
AcDbEntity
  8
躯体と製品
  6
Continuous
 62
     4
100
AcDbPolyline
 90
        2
 70
     0
 43
0.0
 10
3184.278574414779
 20
971.2323308335943
 42
0.4144575715773068
 10
3176.271610254584
 20
979.2326291837033
  0
LWPOLYLINE
  5
CC92
330
1E
100
AcDbEntity
  8
躯体と製品
  6
Continuous
 62
     4
100
AcDbPolyline
 90
        2
 70
     0
 43
0.0
 10
3159.278578948219
 20
982.232629183651
 10
3159.278578948219
 20
979.2326291836511
  0
LWPOLYLINE
  5
CC93
330
1E
100
AcDbEntity
  8
躯体と製品
  6
Continuous
 62
     4
100
AcDbPolyline
 90
        2
 70
     0
 43
0.0
 10
3119.278579081203
 20
982.232629183651
 10
3119.278579081203
 20
979.2326291836511
  0
TEXT
  5
CE62
330
1E
100
AcDbEntity
  8
文字-記号
  6
Continuous
 62
     3
100
AcDbText
 10
1693.106788842201
 20
1661.461459641288
 30
0.0
 40
59.99999985
  1
スリーベースＳＳ標準床組（高遮音鋼製床下地システム）
 41
0.8
  7
ACAD
100
AcDbText
  0
LWPOLYLINE
  5
CE63
330
1E
100
AcDbEntity
  8
文字-記号
  6
Continuous
 62
     3
100
AcDbPolyline
 90
        4
 70
     1
 43
0.0
 10
1628.694153862891
 20
1640.150737852106
 10
1628.694153862891
 20
1741.354026039406
 10
3208.171148003245
 20
1741.354026039406
 10
3208.171148003245
 20
1640.150737852106
  0
TEXT
  5
CE64
330
1E
100
AcDbEntity
  8
文字-記号
  6
Continuous
 62
     3
100
AcDbText
 10
1693.106788842201
 20
1525.405736192502
 30
0.0
 40
59.99999985
  1
【スリーベースＳＳ10】h=145mm～1,020mm
 41
0.8
  7
ACAD
100
AcDbText
  0
TEXT
  5
D091
330
1E
100
AcDbEntity
  8
文字-記号
  6
Continuous
 62
     7
100
AcDbText
 10
1488.196518975667
 20
1334.081449446538
 30
0.0
 40
45.0
  1
巾木
 41
0.8
  7
ACAD
100
AcDbText
  0
TEXT
  5
D092
330
1E
100
AcDbEntity
  8
文字-記号
  6
Continuous
 62
     7
100
AcDbText
 10
1455.019617320923
 20
1207.035297756877
 30
0.0
 40
45.0
  1
または巾木のみ込み
 41
0.8
  7
ACAD
100
AcDbText
  0
LWPOLYLINE
  5
D093
330
1E
100
AcDbEntity
  8
文字-記号
  6
Continuous
 62
     7
100
AcDbPolyline
 90
        3
 70
     0
 43
0.0
 10
1404.204807252209
 20
1131.473646458733
 10
1389.563791142939
 20
1116.832630283044
 10
1394.92277503367
 20
1136.832630258733
  0
LWPOLYLINE
  5
D094
330
1E
100
AcDbEntity
  8
文字-記号
  6
Continuous
 62
     7
100
AcDbPolyline
 90
        3
 70
     0
 43
0.0
 10
1403.396329678056
 20
1212.015547884022
 10
1388.755313568787
 20
1197.374531708333
 10
1394.114297459517
 20
1217.374531684022
  0
LWPOLYLINE
  5
D095
330
1E
100
AcDbEntity
  8
文字-記号
  6
Continuous
 62
     7
100
AcDbPolyline
 90
        4
 70
     0
 43
0.0
 10
1389.563791142939
 20
1116.832630283044
 10
1399.563791142939
 20
1134.153138358733
 10
1437.270049063335
 20
1199.462292840155
 10
1829.747025670655
 20
1199.462292840155
1001
ACAD
1000
DSTYLE
1002
{
1070
   147
1040
0.09
1070
    77
1070
     1
1002
}
  0
LWPOLYLINE
  5
D096
330
1E
100
AcDbEntity
  8
文字-記号
  6
Continuous
 62
     7
100
AcDbPolyline
 90
        4
 70
     0
 43
0.0
 10
1388.755313568787
 20
1197.374531708333
 10
1398.755313568787
 20
1214.695039784022
 10
1467.739078161671
 20
1334.178424956268
 10
1588.661810822081
 20
1334.178424956268
1001
ACAD
1000
DSTYLE
1002
{
1070
   147
1040
0.09
1070
    77
1070
     1
1002
}
  0
TEXT
  5
D097
330
1E
100
AcDbEntity
  8
文字-記号
  6
Continuous
 62
     7
100
AcDbText
 10
1462.509395713733
 20
1260.647699554621
 30
0.0
 40
45.0
  1
ｴｷｽﾊﾟﾝｼｮﾝｺﾞﾑ取付
 41
0.8
  7
ACAD
100
AcDbText
  0
ENDSEC
  0
SECTION
  2
OBJECTS
  0
DICTIONARY
  5
C
330
0
100
AcDbDictionary
281
     1
  3
ACAD_2007HEADERVARS_RT
350
D136
  3
ACAD_CIP_PREVIOUS_PRODUCT_INFO
350
76AA
  3
ACAD_COLOR
350
7275
  3
ACAD_GROUP
350
D
  3
ACAD_LAYOUT
350
19
  3
ACAD_MATERIAL
350
7274
  3
ACAD_MLEADERSTYLE
350
76A2
  3
ACAD_MLINESTYLE
350
16
  3
ACAD_PLOTSETTINGS
350
18
  3
ACAD_PLOTSTYLENAME
350
E
  3
ACAD_SCALELIST
350
7690
  3
ACAD_TABLESTYLE
350
7276
  3
ACAD_VISUALSTYLE
350
7677
  3
AcadDim
350
764A
  3
ACDB_RECOMPOSE_DATA
350
D135
  3
AcDbVariableDictionary
350
169
  0
DICTIONARY
  5
C00A
330
8
100
AcDbDictionary
280
     1
281
     1
  0
DICTIONARY
  5
175
330
2
100
AcDbDictionary
280
     1
281
     1
  3
ACAD_LAYERFILTERS
360
185
  3
ACAD_LAYERSTATES
360
176
  0
DICTIONARY
  5
908C
330
10
100
AcDbDictionary
280
     1
281
     1
  3
ADSK_XREC_LAYER_RECONCILED
360
908D
  0
DICTIONARY
  5
908E
330
178
100
AcDbDictionary
280
     1
281
     1
  3
ADSK_XREC_LAYER_RECONCILED
360
908F
  0
DICTIONARY
  5
9090
330
179
100
AcDbDictionary
280
     1
281
     1
  3
ADSK_XREC_LAYER_RECONCILED
360
9091
  0
DICTIONARY
  5
9092
330
4F62
100
AcDbDictionary
280
     1
281
     1
  3
ADSK_XREC_LAYER_RECONCILED
360
9093
  0
DICTIONARY
  5
9094
330
76F3
100
AcDbDictionary
280
     1
281
     1
  3
ADSK_XREC_LAYER_RECONCILED
360
9095
  0
DICTIONARY
  5
28B
330
1E
100
AcDbDictionary
280
     1
281
     1
  3
ACAD_LAYOUTSELFREF
360
726D
  3
ACAD_SORTENTS
360
8DF9
  0
DICTIONARY
  5
28D
330
1A
100
AcDbDictionary
280
     1
281
     1
  3
ACAD_LAYOUTSELFREF
360
726C
  0
DICTIONARY
  5
D136
102
{ACAD_REACTORS
330
C
102
}
330
C
100
AcDbDictionary
281
     1
  3
DIMFXL
350
D137
  0
XRECORD
  5
76AA
102
{ACAD_REACTORS
330
C
102
}
330
C
100
AcDbXrecord
280
     1
300
ACD
300
2012
300
ACD_F_S
  0
DICTIONARY
  5
7275
102
{ACAD_REACTORS
330
C
102
}
330
C
100
AcDbDictionary
281
     1
  0
DICTIONARY
  5
D
102
{ACAD_REACTORS
330
C
102
}
330
C
100
AcDbDictionary
281
     1
  0
DICTIONARY
  5
19
102
{ACAD_REACTORS
330
C
102
}
330
C
100
AcDbDictionary
281
     1
  3
Model
350
21
  3
ﾚｲｱｳﾄ1
350
1D
  0
DICTIONARY
  5
7274
102
{ACAD_REACTORS
330
C
102
}
330
C
100
AcDbDictionary
281
     1
  3
ByBlock
350
7667
  3
ByLayer
350
765F
  3
Global
350
766F
  0
DICTIONARY
  5
76A2
102
{ACAD_REACTORS
330
C
102
}
330
C
100
AcDbDictionary
281
     1
  3
Standard
350
76A3
  0
DICTIONARY
  5
16
102
{ACAD_REACTORS
330
C
102
}
330
C
100
AcDbDictionary
281
     1
  3
Standard
350
17
  0
DICTIONARY
  5
18
102
{ACAD_REACTORS
330
C
102
}
330
C
100
AcDbDictionary
281
     1
  0
ACDBDICTIONARYWDFLT
  5
E
102
{ACAD_REACTORS
330
C
102
}
330
C
100
AcDbDictionary
281
     1
  3
Normal
350
F
100
AcDbDictionaryWithDefault
340
F
  0
DICTIONARY
  5
7690
102
{ACAD_REACTORS
330
C
102
}
330
C
100
AcDbDictionary
281
     1
  3
A0
350
7691
  3
A1
350
7692
  3
A2
350
7693
  3
A3
350
7694
  3
A4
350
7695
  3
A5
350
7696
  3
A6
350
7697
  3
A7
350
7698
  3
A8
350
7699
  3
A9
350
769A
  3
B0
350
769B
  3
B1
350
769C
  3
B2
350
769D
  3
B3
350
769E
  3
B4
350
769F
  3
B5
350
76A0
  3
B6
350
76A1
  0
DICTIONARY
  5
7276
102
{ACAD_REACTORS
330
C
102
}
330
C
100
AcDbDictionary
281
     1
  3
Standard
350
7277
  0
DICTIONARY
  5
7677
102
{ACAD_REACTORS
330
C
102
}
330
C
100
AcDbDictionary
281
     1
  3
2dWireframe
350
767D
  3
Basic
350
767C
  3
Brighten
350
7683
  3
ColorChange
350
7687
  3
Conceptual
350
7680
  3
Dim
350
7682
  3
EdgeColorOff
350
768F
  3
Facepattern
350
7686
  3
Flat
350
7678
  3
FlatWithEdges
350
7679
  3
Gouraud
350
767A
  3
GouraudWithEdges
350
767B
  3
Hidden
350
767F
  3
JitterOff
350
768D
  3
Linepattern
350
7685
  3
OverhangOff
350
768E
  3
Realistic
350
7681
  3
Shaded
350
768C
  3
Shaded with edges
350
768B
  3
Shades of Gray
350
7688
  3
Sketchy
350
7689
  3
Thicken
350
7684
  3
Wireframe
350
767E
  3
X-Ray
350
768A
  0
XRECORD
  5
764A
102
{ACAD_REACTORS
330
C
102
}
330
C
100
AcDbXrecord
280
     1
 90
   990106
  3

 60
     0
 61
     0
 62
     4
 63
     4
 64
     1
 65
     0
 66
     0
 67
     3
 68
     1
 69
     0
 70
     4
 71
     1
 72
     0
 40
0.0
170
     2
  0
XRECORD
  5
D135
102
{ACAD_REACTORS
330
C
102
}
330
C
100
AcDbXrecord
280
     1
 90
        1
330
7277
  0
DICTIONARY
  5
169
102
{ACAD_REACTORS
330
C
102
}
330
C
100
AcDbDictionary
281
     1
  3
CANNOSCALE
350
B4C5
  3
CMLEADERSTYLE
350
B4C3
  3
CTABLESTYLE
350
764E
  3
DIMASSOC
350
16A
  3
LAYEREVAL
350
B4C7
  3
LAYERNOTIFY
350
B4C8
  3
LIGHTINGUNITS
350
B4C6
  3
MSLTSCALE
350
B4C4
  0
DICTIONARY
  5
185
102
{ACAD_REACTORS
330
175
102
}
330
175
100
AcDbDictionary
280
     1
281
     1
  0
DICTIONARY
  5
176
102
{ACAD_REACTORS
330
175
102
}
330
175
100
AcDbDictionary
281
     1
  3
ACAD
350
177
  0
XRECORD
  5
908D
102
{ACAD_REACTORS
330
908C
102
}
330
908C
100
AcDbXrecord
280
     1
290
     1
  0
XRECORD
  5
908F
102
{ACAD_REACTORS
330
908E
102
}
330
908E
100
AcDbXrecord
280
     1
290
     1
  0
XRECORD
  5
9091
102
{ACAD_REACTORS
330
9090
102
}
330
9090
100
AcDbXrecord
280
     1
290
     1
  0
XRECORD
  5
9093
102
{ACAD_REACTORS
330
9092
102
}
330
9092
100
AcDbXrecord
280
     1
290
     1
  0
XRECORD
  5
9095
102
{ACAD_REACTORS
330
9094
102
}
330
9094
100
AcDbXrecord
280
     1
290
     1
  0
XRECORD
  5
726D
102
{ACAD_REACTORS
330
28B
102
}
330
28B
100
AcDbXrecord
280
     1
340
1E
  0
SORTENTSTABLE
  5
8DF9
102
{ACAD_REACTORS
330
28B
102
}
330
28B
100
AcDbSortentsTable
330
1E
331
9A98
  5
B8D1
331
AAA7
  5
BCE2
331
B881
  5
BEA9
331
B8C0
  5
BEE8
331
B889
  5
BEB1
331
B8C8
  5
BEF0
331
B8FF
  5
BF27
331
B93E
  5
BF66
331
B891
  5
BEB9
331
B8D0
  5
BEF8
331
B907
  5
BF2F
331
B946
  5
BF6E
331
BF9C
  5
8D6F
331
B899
  5
BEC1
331
B8D8
  5
BF00
331
B90F
  5
BF37
331
B94E
  5
BF76
331
BFA4
  5
8D67
331
B917
  5
BF3F
331
BFAC
  5
8D1F
331
C09B
  5
C09B
331
A9F8
  5
BC34
331
B8A1
  5
BEC9
331
B8E0
  5
BF08
331
B8A9
  5
BED1
331
B8E8
  5
BF10
331
B91F
  5
BF47
331
BB16
  5
BDFC
331
BFB4
  5
8D17
331
B8B1
  5
BED9
331
B8F0
  5
BF18
331
B927
  5
BF4F
331
BED5
  5
AA67
331
B8B9
  5
BEE1
331
B92F
  5
BF57
331
BB26
  5
BDED
331
BFCC
  5
6FB3
331
CC03
  5
CC03
331
B937
  5
BF5F
331
BF8D
  5
8D9C
331
AA58
  5
BC93
331
709D
  5
AAB6
331
A9E9
  5
BC2C
331
AAA8
  5
BCE3
331
A9F1
  5
BC2D
331
B8F8
  5
BF20
331
B882
  5
BEAA
331
B8C1
  5
BEE9
331
B88A
  5
BEB2
331
B8C9
  5
BEF1
331
B900
  5
BF28
331
B93F
  5
BF67
331
B892
  5
BEBA
331
B8D1
  5
BEF9
331
B908
  5
BF30
331
B947
  5
BF6F
331
BF9D
  5
8D6E
331
B89A
  5
BEC2
331
B8D9
  5
BF01
331
B910
  5
BF38
331
B94F
  5
BF77
331
BFA5
  5
8D66
331
BFAD
  5
8D1E
331
A9F9
  5
BC35
331
7076
  5
AAB3
331
B8E1
  5
BF09
331
B8A2
  5
BECA
331
B918
  5
BF40
331
B8AA
  5
BED2
331
B8E9
  5
BF11
331
B920
  5
BF48
331
BFB5
  5
8D16
331
B8B2
  5
BEDA
331
B8F1
  5
BF19
331
B928
  5
BF50
331
BED6
  5
AA66
331
B8BA
  5
BEE2
331
B930
  5
BF58
331
BFCD
  5
6F8B
331
CC04
  5
CC04
331
BF8E
  5
8D9B
331
AA59
  5
BC94
331
9A9A
  5
B8D2
331
B058
  5
BDEF
331
B060
  5
BDF7
331
A9F2
  5
BC2E
331
AAA9
  5
BCE4
331
B8C2
  5
BEEA
331
B883
  5
BEAB
331
B8F9
  5
BF21
331
B938
  5
BF60
331
B88B
  5
BEB3
331
B8CA
  5
BEF2
331
B901
  5
BF29
331
B940
  5
BF68
331
BF96
  5
8D93
331
B893
  5
BEBB
331
B8D2
  5
BEFA
331
B909
  5
BF31
331
B948
  5
BF70
331
BF9E
  5
8D6D
331
B89B
  5
BEC3
331
B8DA
  5
BF02
331
B911
  5
BF39
331
BB00
  5
BFCE
331
BFA6
  5
8D65
331
BC67
  5
BC85
331
BFAE
  5
8D1D
331
A9FA
  5
BC36
331
AD49
  5
BD15
331
AA52
  5
BC8D
331
B8A3
  5
BECB
331
B8E2
  5
BF0A
331
B919
  5
BF41
331
B8AB
  5
BED3
331
B8EA
  5
BF12
331
B921
  5
BF49
331
BB18
  5
BDFB
331
BFB6
  5
8D15
331
B8B3
  5
BEDB
331
B8F2
  5
BF1A
331
B929
  5
BF51
331
BB20
  5
BDF1
331
BED7
  5
AA65
331
CBFD
  5
CBFD
331
B8BB
  5
BEE3
331
B931
  5
BF59
331
BFCE
  5
6EE3
331
CC05
  5
CC05
331
BF8F
  5
8D9A
331
AA5A
  5
BC95
331
A9F3
  5
BC2F
331
AAAA
  5
BCE5
331
B884
  5
BEAC
331
B8C3
  5
BEEB
331
B8FA
  5
BF22
331
B939
  5
BF61
331
BB28
  5
BDEB
331
B88C
  5
BEB4
331
B8CB
  5
BEF3
331
B902
  5
BF2A
331
B941
  5
BF69
331
BF97
  5
8D92
331
B894
  5
BEBC
331
B8D3
  5
BEFB
331
B90A
  5
BF32
331
B949
  5
BF71
331
BC38
  5
BCD8
331
BF9F
  5
8D6C
331
B89C
  5
BEC4
331
B8DB
  5
BF03
331
B912
  5
BF3A
331
BFA7
  5
8D24
331
BFAF
  5
8D1C
331
AD4A
  5
BD16
331
AA4B
  5
BC86
331
AA53
  5
BC8E
331
98A4
  5
B8CD
331
B8A4
  5
BECC
331
B8E3
  5
BF0B
331
B91A
  5
BF42
331
BC68
  5
BC84
331
B8AC
  5
BED4
331
B8EB
  5
BF13
331
B922
  5
BF4A
331
BFB7
  5
8D14
331
B8B4
  5
BEDC
331
B8F3
  5
BF1B
331
B92A
  5
BF52
331
BED8
  5
AA64
331
CBFE
  5
CBFE
331
B8BC
  5
BEE4
331
B932
  5
BF5A
331
BF88
  5
8DA1
331
BFCF
  5
6E5B
331
CC06
  5
CC06
331
7090
  5
AAB5
331
AA5B
  5
BC96
331
B052
  5
BDE9
331
A9F4
  5
BC30
331
AAAB
  5
BCE6
331
B885
  5
BEAD
331
B8C4
  5
BEEC
331
B8FB
  5
BF23
331
B93A
  5
BF62
331
BF90
  5
8D99
331
B88D
  5
BEB5
331
B8CC
  5
BEF4
331
B903
  5
BF2B
331
B942
  5
BF6A
331
BF98
  5
8D91
331
B895
  5
BEBD
331
B8D4
  5
BEFC
331
B90B
  5
BF33
331
B94A
  5
BF72
331
BC39
  5
BCD7
331
BFA0
  5
8D6B
331
B89D
  5
BEC5
331
B8DC
  5
BF04
331
B913
  5
BF3B
331
BFA8
  5
8D23
331
7069
  5
AAB2
331
AA54
  5
BC8F
331
B8A5
  5
BECD
331
B8E4
  5
BF0C
331
B91B
  5
BF43
331
BB12
  5
BDFE
331
BC69
  5
BC83
331
BFB0
  5
8D1B
331
B8AD
  5
BED5
331
B8EC
  5
BF14
331
B923
  5
BF4B
331
BB1A
  5
BDF8
331
BED1
  5
AA6B
331
BFB8
  5
8D00
331
B8B5
  5
BEDD
331
B8F4
  5
BF1C
331
B92B
  5
BF53
331
BB22
  5
BDF0
331
BFC8
  5
6FF4
331
CBFF
  5
CBFF
331
B8BD
  5
BEE5
331
B933
  5
BF5B
331
BF89
  5
8DA0
331
B05B
  5
BDF2
331
B063
  5
BDF9
331
A9F5
  5
BC31
331
AAAC
  5
BCE7
331
B886
  5
BEAE
331
B8C5
  5
BEED
331
B8FC
  5
BF24
331
B93B
  5
BF63
331
BB2A
  5
BDEA
331
BF91
  5
8D98
331
B88E
  5
BEB6
331
B8CD
  5
BEF5
331
B904
  5
BF2C
331
B943
  5
BF6B
331
BF99
  5
8D82
331
B896
  5
BEBE
331
B8D5
  5
BEFD
331
B90C
  5
BF34
331
B94B
  5
BF73
331
BC3A
  5
BCD6
331
BFA1
  5
8D6A
331
B89E
  5
BEC6
331
B8DD
  5
BF05
331
B914
  5
BF3C
331
BFA9
  5
8D22
331
B46B
  5
BE0B
331
AA55
  5
BC90
331
B8A6
  5
BECE
331
B8E5
  5
BF0D
331
B91C
  5
BF44
331
BC6A
  5
BC82
331
BFB1
  5
8D1A
331
B8AE
  5
BED6
331
B8ED
  5
BF15
331
B924
  5
BF4C
331
BED2
  5
AA6A
331
BFB9
  5
8CFF
331
B8B6
  5
BEDE
331
B8F5
  5
BF1D
331
B92C
  5
BF54
331
BFC9
  5
6FE7
331
CC00
  5
CC00
331
B8BE
  5
BEE6
331
B934
  5
BF5C
331
BF8A
  5
8D9F
331
6E5B
  5
AA93
331
AAA5
  5
BCE0
331
B064
  5
BDFA
331
A9F6
  5
BC32
331
AAAD
  5
BCE8
331
B887
  5
BEAF
331
B8C6
  5
BEEE
331
B8FD
  5
BF25
331
B93C
  5
BF64
331
BF92
  5
8D97
331
B88F
  5
BEB7
331
B8CE
  5
BEF6
331
B905
  5
BF2D
331
B944
  5
BF6C
331
BB9B
  5
BDBD
331
BF9A
  5
8D81
331
B897
  5
BEBF
331
B8D6
  5
BEFE
331
B90D
  5
BF35
331
B94C
  5
BF74
331
BC3B
  5
BCD5
331
BFA2
  5
8D69
331
B89F
  5
BEC7
331
B8DE
  5
BF06
331
B915
  5
BF3D
331
BFAA
  5
8D21
331
7083
  5
AAB4
331
AA56
  5
BC91
331
B8A7
  5
BECF
331
B8E6
  5
BF0E
331
B91D
  5
BF45
331
BB14
  5
BDFD
331
BFB2
  5
8D19
331
B8AF
  5
BED7
331
B8EE
  5
BF16
331
B925
  5
BF4D
331
BED3
  5
AA69
331
BFBA
  5
8CFE
331
B8B7
  5
BEDF
331
B8F6
  5
BF1E
331
B92D
  5
BF55
331
BB24
  5
BDEE
331
BFCA
  5
6FCD
331
CC01
  5
CC01
331
B8BF
  5
BEE7
331
B935
  5
BF5D
331
BF8B
  5
8D9E
331
9A97
  5
B8D0
331
B055
  5
BDEC
331
AA9E
  5
BCD9
331
705C
  5
AAB1
331
AAA6
  5
BCE1
331
A9F7
  5
BC33
331
AAAE
  5
BCE9
331
B880
  5
BEA8
331
B888
  5
BEB0
331
B8C7
  5
BEEF
331
B8FE
  5
BF26
331
B93D
  5
BF65
331
B890
  5
BEB8
331
B8CF
  5
BEF7
331
B906
  5
BF2E
331
B945
  5
BF6D
331
BF9B
  5
8D80
331
B898
  5
BEC0
331
B8D7
  5
BEFF
331
B90E
  5
BF36
331
B94D
  5
BF75
331
BFA3
  5
8D68
331
B8DF
  5
BF07
331
B916
  5
BF3E
331
BFAB
  5
8D20
331
AA57
  5
BC92
331
B8A0
  5
BEC8
331
B8A8
  5
BED0
331
B8E7
  5
BF0F
331
B91E
  5
BF46
331
BFB3
  5
8D18
331
B8B0
  5
BED8
331
B8EF
  5
BF17
331
B926
  5
BF4E
331
BED4
  5
AA68
331
B8B8
  5
BEE0
331
B8F7
  5
BF1F
331
B92E
  5
BF56
331
BFCB
  5
6FC0
331
CC02
  5
CC02
331
B936
  5
BF5E
331
BF8C
  5
8D9D
  0
XRECORD
  5
726C
102
{ACAD_REACTORS
330
28D
102
}
330
28D
100
AcDbXrecord
280
     1
340
1A
  0
XRECORD
  5
D137
102
{ACAD_REACTORS
330
D136
102
}
330
D136
100
AcDbXrecord
280
     1
 40
0.18
  0
LAYOUT
  5
21
102
{ACAD_XDICTIONARY
360
AF8A
102
}
102
{ACAD_REACTORS
330
19
102
}
330
19
100
AcDbPlotSettings
  1

  2
none_device
  4
Letter_(8.50_x_11.00_Inches)
  6

 40
6.349999904632568
 41
6.349999904632568
 42
6.350006103515625
 43
6.350006103515625
 44
215.8999938964844
 45
279.3999938964844
 46
0.0
 47
0.0
 48
0.0
 49
0.0
140
0.0
141
0.0
142
1.0
143
730.2358150400955
 70
 11952
 72
     0
 73
     1
 74
     0
  7
monochrome.ctb
 75
     0
147
0.0013694206438575
 76
     0
 77
     2
 78
   300
148
34800.58948677863
149
-13617.63366529848
100
AcDbLayout
  1
Model
 70
     1
 71
     0
 10
0.0
 20
0.0
 11
12.0
 21
9.0
 12
0.0
 22
0.0
 32
0.0
 14
0.0
 24
0.0
 34
0.0
 15
0.0
 25
0.0
 35
0.0
146
0.0
 13
0.0
 23
0.0
 33
0.0
 16
1.0
 26
0.0
 36
0.0
 17
0.0
 27
1.0
 37
0.0
 76
     0
330
1E
331
765D
1001
ACAD_PSEXT
1000
なし
1000
なし
1000
適切ではありません
1000
新しいプロッタ環境設定名を選択しない限り、レイアウトは印刷されません。
1070
     0
  0
LAYOUT
  5
1D
102
{ACAD_REACTORS
330
19
102
}
330
19
100
AcDbPlotSettings
  1

  2
\\MEISEI-1\EPSON Stylus Photo EX3
  4

  6

 40
0.0
 41
0.0
 42
0.0
 43
0.0
 44
0.0
 45
0.0
 46
0.0
 47
0.0
 48
0.0
 49
0.0
140
0.0
141
0.0
142
1.0
143
1.0
 70
   688
 72
     0
 73
     0
 74
     5
  7
monochrome.ctb
 75
    16
147
1.0
 76
     0
 77
     2
 78
   300
148
0.0
149
0.0
100
AcDbLayout
  1
ﾚｲｱｳﾄ1
 70
     1
 71
     1
 10
0.0
 20
0.0
 11
12.0
 21
9.0
 12
0.0
 22
0.0
 32
0.0
 14
1.000000000000000E+20
 24
1.000000000000000E+20
 34
1.000000000000000E+20
 15
-1.000000000000000E+20
 25
-1.000000000000000E+20
 35
-1.000000000000000E+20
146
0.0
 13
0.0
 23
0.0
 33
0.0
 16
1.0
 26
0.0
 36
0.0
 17
0.0
 27
1.0
 37
0.0
 76
     0
330
1A
  0
MATERIAL
  5
7667
102
{ACAD_XDICTIONARY
360
7668
102
}
102
{ACAD_REACTORS
330
7274
102
}
330
7274
100
AcDbMaterial
  1
ByBlock
 72
     0
 43
0.0208333333333333
 43
0.0
 43
0.0
 43
0.0
 43
0.0
 43
0.0208333333333333
 43
0.0
 43
0.0
 43
0.0
 43
0.0
 43
1.0
 43
0.0
 43
0.0
 43
0.0
 43
0.0
 43
1.0
 77
     0
 47
0.0208333333333333
 47
0.0
 47
0.0
 47
0.0
 47
0.0
 47
0.0208333333333333
 47
0.0
 47
0.0
 47
0.0
 47
0.0
 47
1.0
 47
0.0
 47
0.0
 47
0.0
 47
0.0
 47
1.0
171
     0
 49
0.0208333333333333
 49
0.0
 49
0.0
 49
0.0
 49
0.0
 49
0.0208333333333333
 49
0.0
 49
0.0
 49
0.0
 49
0.0
 49
1.0
 49
0.0
 49
0.0
 49
0.0
 49
0.0
 49
1.0
175
     0
142
0.0208333333333333
142
0.0
142
0.0
142
0.0
142
0.0
142
0.0208333333333333
142
0.0
142
0.0
142
0.0
142
0.0
142
1.0
142
0.0
142
0.0
142
0.0
142
0.0
142
1.0
179
     0
144
0.0208333333333333
144
0.0
144
0.0
144
0.0
144
0.0
144
0.0208333333333333
144
0.0
144
0.0
144
0.0
144
0.0
144
1.0
144
0.0
144
0.0
144
0.0
144
0.0
144
1.0
147
0.0208333333333333
147
0.0
147
0.0
147
0.0
147
0.0
147
0.0208333333333333
147
0.0
147
0.0
147
0.0
147
0.0
147
1.0
147
0.0
147
0.0
147
0.0
147
0.0
147
1.0
  0
MATERIAL
  5
765F
102
{ACAD_XDICTIONARY
360
7660
102
}
102
{ACAD_REACTORS
330
7274
102
}
330
7274
100
AcDbMaterial
  1
ByLayer
 72
     0
 43
0.0208333333333333
 43
0.0
 43
0.0
 43
0.0
 43
0.0
 43
0.0208333333333333
 43
0.0
 43
0.0
 43
0.0
 43
0.0
 43
1.0
 43
0.0
 43
0.0
 43
0.0
 43
0.0
 43
1.0
 77
     0
 47
0.0208333333333333
 47
0.0
 47
0.0
 47
0.0
 47
0.0
 47
0.0208333333333333
 47
0.0
 47
0.0
 47
0.0
 47
0.0
 47
1.0
 47
0.0
 47
0.0
 47
0.0
 47
0.0
 47
1.0
171
     0
 49
0.0208333333333333
 49
0.0
 49
0.0
 49
0.0
 49
0.0
 49
0.0208333333333333
 49
0.0
 49
0.0
 49
0.0
 49
0.0
 49
1.0
 49
0.0
 49
0.0
 49
0.0
 49
0.0
 49
1.0
175
     0
142
0.0208333333333333
142
0.0
142
0.0
142
0.0
142
0.0
142
0.0208333333333333
142
0.0
142
0.0
142
0.0
142
0.0
142
1.0
142
0.0
142
0.0
142
0.0
142
0.0
142
1.0
179
     0
144
0.0208333333333333
144
0.0
144
0.0
144
0.0
144
0.0
144
0.0208333333333333
144
0.0
144
0.0
144
0.0
144
0.0
144
1.0
144
0.0
144
0.0
144
0.0
144
0.0
144
1.0
147
0.0208333333333333
147
0.0
147
0.0
147
0.0
147
0.0
147
0.0208333333333333
147
0.0
147
0.0
147
0.0
147
0.0
147
1.0
147
0.0
147
0.0
147
0.0
147
0.0
147
1.0
  0
MATERIAL
  5
766F
102
{ACAD_XDICTIONARY
360
7670
102
}
102
{ACAD_REACTORS
330
7274
102
}
330
7274
100
AcDbMaterial
  1
Global
 72
     0
 43
0.0208333333333333
 43
0.0
 43
0.0
 43
0.0
 43
0.0
 43
0.0208333333333333
 43
0.0
 43
0.0
 43
0.0
 43
0.0
 43
1.0
 43
0.0
 43
0.0
 43
0.0
 43
0.0
 43
1.0
 77
     0
 47
0.0208333333333333
 47
0.0
 47
0.0
 47
0.0
 47
0.0
 47
0.0208333333333333
 47
0.0
 47
0.0
 47
0.0
 47
0.0
 47
1.0
 47
0.0
 47
0.0
 47
0.0
 47
0.0
 47
1.0
171
     0
 49
0.0208333333333333
 49
0.0
 49
0.0
 49
0.0
 49
0.0
 49
0.0208333333333333
 49
0.0
 49
0.0
 49
0.0
 49
0.0
 49
1.0
 49
0.0
 49
0.0
 49
0.0
 49
0.0
 49
1.0
175
     0
142
0.0208333333333333
142
0.0
142
0.0
142
0.0
142
0.0
142
0.0208333333333333
142
0.0
142
0.0
142
0.0
142
0.0
142
1.0
142
0.0
142
0.0
142
0.0
142
0.0
142
1.0
179
     0
144
0.0208333333333333
144
0.0
144
0.0
144
0.0
144
0.0
144
0.0208333333333333
144
0.0
144
0.0
144
0.0
144
0.0
144
1.0
144
0.0
144
0.0
144
0.0
144
0.0
144
1.0
147
0.0208333333333333
147
0.0
147
0.0
147
0.0
147
0.0
147
0.0208333333333333
147
0.0
147
0.0
147
0.0
147
0.0
147
1.0
147
0.0
147
0.0
147
0.0
147
0.0
147
1.0
  0
MLEADERSTYLE
  5
76A3
102
{ACAD_XDICTIONARY
360
D133
102
}
102
{ACAD_REACTORS
330
76A2
102
}
330
76A2
100
AcDbMLeaderStyle
170
     2
171
     1
172
     0
 90
        2
 40
0.0
 41
0.0
173
     1
 91
-1056964608
340
13
 92
       -2
290
     1
 42
0.09
291
     1
 43
0.36
  3
Standard
 44
0.18
300

342
11
174
     1
178
     6
175
     1
176
     0
 93
-1056964608
 45
0.18
292
     0
297
     0
 46
0.18
 94
-1056964608
 47
1.0
 49
1.0
140
1.0
293
     1
141
0.0
294
     1
177
     0
142
1.0
295
     0
296
     0
143
0.125
1001
ACAD_MLEADERVER
1070
     2
  0
MLINESTYLE
  5
17
102
{ACAD_REACTORS
330
16
102
}
330
16
100
AcDbMlineStyle
  2
STANDARD
 70
     0
  3

 62
   256
 51
90.0
 52
90.0
 71
     2
 49
0.5
 62
   256
  6
BYLAYER
 49
-0.5
 62
   256
  6
BYLAYER
  0
ACDBPLACEHOLDER
  5
F
102
{ACAD_REACTORS
330
E
102
}
330
E
  0
SCALE
  5
7691
102
{ACAD_REACTORS
330
7690
102
}
330
7690
100
AcDbScale
 70
     0
300
1:1
140
1.0
141
1.0
290
     1
  0
SCALE
  5
7692
102
{ACAD_REACTORS
330
7690
102
}
330
7690
100
AcDbScale
 70
     0
300
1/128" = 1'-0"
140
0.0078125
141
12.0
290
     0
  0
SCALE
  5
7693
102
{ACAD_REACTORS
330
7690
102
}
330
7690
100
AcDbScale
 70
     0
300
1/64" = 1'-0"
140
0.015625
141
12.0
290
     0
  0
SCALE
  5
7694
102
{ACAD_REACTORS
330
7690
102
}
330
7690
100
AcDbScale
 70
     0
300
1/32" = 1'-0"
140
0.03125
141
12.0
290
     0
  0
SCALE
  5
7695
102
{ACAD_REACTORS
330
7690
102
}
330
7690
100
AcDbScale
 70
     0
300
1/16" = 1'-0"
140
0.0625
141
12.0
290
     0
  0
SCALE
  5
7696
102
{ACAD_REACTORS
330
7690
102
}
330
7690
100
AcDbScale
 70
     0
300
3/32" = 1'-0"
140
0.09375
141
12.0
290
     0
  0
SCALE
  5
7697
102
{ACAD_REACTORS
330
7690
102
}
330
7690
100
AcDbScale
 70
     0
300
1/8" = 1'-0"
140
0.125
141
12.0
290
     0
  0
SCALE
  5
7698
102
{ACAD_REACTORS
330
7690
102
}
330
7690
100
AcDbScale
 70
     0
300
3/16" = 1'-0"
140
0.1875
141
12.0
290
     0
  0
SCALE
  5
7699
102
{ACAD_REACTORS
330
7690
102
}
330
7690
100
AcDbScale
 70
     0
300
1/4" = 1'-0"
140
0.25
141
12.0
290
     0
  0
SCALE
  5
769A
102
{ACAD_REACTORS
330
7690
102
}
330
7690
100
AcDbScale
 70
     0
300
3/8" = 1'-0"
140
0.375
141
12.0
290
     0
  0
SCALE
  5
769B
102
{ACAD_REACTORS
330
7690
102
}
330
7690
100
AcDbScale
 70
     0
300
1/2" = 1'-0"
140
0.5
141
12.0
290
     0
  0
SCALE
  5
769C
102
{ACAD_REACTORS
330
7690
102
}
330
7690
100
AcDbScale
 70
     0
300
3/4" = 1'-0"
140
0.75
141
12.0
290
     0
  0
SCALE
  5
769D
102
{ACAD_REACTORS
330
7690
102
}
330
7690
100
AcDbScale
 70
     0
300
1" = 1'-0"
140
1.0
141
12.0
290
     0
  0
SCALE
  5
769E
102
{ACAD_REACTORS
330
7690
102
}
330
7690
100
AcDbScale
 70
     0
300
1-1/2" = 1'-0"
140
1.5
141
12.0
290
     0
  0
SCALE
  5
769F
102
{ACAD_REACTORS
330
7690
102
}
330
7690
100
AcDbScale
 70
     0
300
3" = 1'-0"
140
3.0
141
12.0
290
     0
  0
SCALE
  5
76A0
102
{ACAD_REACTORS
330
7690
102
}
330
7690
100
AcDbScale
 70
     0
300
6" = 1'-0"
140
6.0
141
12.0
290
     0
  0
SCALE
  5
76A1
102
{ACAD_REACTORS
330
7690
102
}
330
7690
100
AcDbScale
 70
     0
300
1'-0" = 1'-0"
140
12.0
141
12.0
290
     0
  0
TABLESTYLE
  5
7277
102
{ACAD_XDICTIONARY
360
C003
102
}
102
{ACAD_REACTORS
330
7276
102
}
330
7276
100
AcDbTableStyle
  3
Standard
 70
     0
 71
     0
 40
0.06
 41
0.06
280
     0
281
     0
  7
STANDARD
140
0.18
170
     2
 62
     0
 63
     7
283
     0
274
    -2
284
     1
 64
     0
275
    -2
285
     1
 65
     0
276
    -2
286
     1
 66
     0
277
    -2
287
     1
 67
     0
278
    -2
288
     1
 68
     0
279
    -2
289
     1
 69
     0
  7
STANDARD
140
0.25
170
     5
 62
     0
 63
     7
283
     0
274
    -2
284
     1
 64
     0
275
    -2
285
     1
 65
     0
276
    -2
286
     1
 66
     0
277
    -2
287
     1
 67
     0
278
    -2
288
     1
 68
     0
279
    -2
289
     1
 69
     0
  7
STANDARD
140
0.18
170
     5
 62
     0
 63
     7
283
     0
274
    -2
284
     1
 64
     0
275
    -2
285
     1
 65
     0
276
    -2
286
     1
 66
     0
277
    -2
287
     1
 67
     0
278
    -2
288
     1
 68
     0
279
    -2
289
     1
 69
     0
  0
VISUALSTYLE
  5
767D
102
{ACAD_XDICTIONARY
360
D146
102
}
102
{ACAD_REACTORS
330
7677
102
}
330
7677
100
AcDbVisualStyle
  2
2dWireframe
 70
     4
 71
     0
 72
     2
 73
     0
 90
        0
 40
-0.6
 41
-30.0
 62
     5
 63
     7
421
 16777215
 74
     1
 91
        4
 64
     7
 65
   257
 75
     1
175
     1
 42
1.0
 92
        0
 66
   257
 43
1.0
 76
     1
 77
     6
 78
     2
 67
     7
 79
     5
170
     0
171
     0
290
     0
174
     0
 93
        1
 44
0.0
173
     0
291
     0
 45
0.0
1001
ACAD
1000
AcDbSavedByObjectVersion
1070
     0
  0
VISUALSTYLE
  5
767C
102
{ACAD_XDICTIONARY
360
D144
102
}
102
{ACAD_REACTORS
330
7677
102
}
330
7677
100
AcDbVisualStyle
  2
Basic
 70
     7
 71
     1
 72
     0
 73
     1
 90
        0
 40
-0.6
 41
-30.0
 62
     5
 63
     7
421
 16777215
 74
     0
 91
        4
 64
     7
 65
   257
 75
     1
175
     1
 42
1.0
 92
        8
 66
     7
 43
1.0
 76
     1
 77
     6
 78
     2
 67
     7
 79
     5
170
     0
171
     0
290
     0
174
     0
 93
        1
 44
0.0
173
     0
291
     1
 45
0.0
1001
ACAD
1000
AcDbSavedByObjectVersion
1070
     0
  0
VISUALSTYLE
  5
7683
102
{ACAD_XDICTIONARY
360
D152
102
}
102
{ACAD_REACTORS
330
7677
102
}
330
7677
100
AcDbVisualStyle
  2
Brighten
 70
    12
 71
     2
 72
     2
 73
     0
 90
        0
 40
-0.6
 41
-30.0
 62
     5
 63
     7
421
 16777215
 74
     1
 91
        4
 64
     7
 65
   257
 75
     1
175
     1
 42
1.0
 92
        8
 66
     7
 43
1.0
 76
     1
 77
     6
 78
     2
 67
     7
 79
     5
170
     0
171
     0
290
     0
174
     0
 93
        1
 44
50.0
173
     0
291
     1
 45
0.0
1001
ACAD
1000
AcDbSavedByObjectVersion
1070
     0
  0
VISUALSTYLE
  5
7687
102
{ACAD_XDICTIONARY
360
D15A
102
}
102
{ACAD_REACTORS
330
7677
102
}
330
7677
100
AcDbVisualStyle
  2
ColorChange
 70
    16
 71
     2
 72
     2
 73
     3
 90
        0
 40
-0.6
 41
-30.0
 62
     5
 63
     8
421
  8421504
 74
     1
 91
        4
 64
     7
 65
   257
 75
     1
175
     1
 42
1.0
 92
        8
 66
     8
424
  8421504
 43
1.0
 76
     1
 77
     6
 78
     2
 67
     7
 79
     5
170
     0
171
     0
290
     0
174
     0
 93
        1
 44
0.0
173
     0
291
     1
 45
0.0
1001
ACAD
1000
AcDbSavedByObjectVersion
1070
     0
  0
VISUALSTYLE
  5
7680
102
{ACAD_XDICTIONARY
360
D14C
102
}
102
{ACAD_REACTORS
330
7677
102
}
330
7677
100
AcDbVisualStyle
  2
Conceptual
 70
     9
 71
     3
 72
     2
 73
     0
 90
        0
 40
-0.6
 41
-30.0
 62
     5
 63
     7
421
 16777215
 74
     2
 91
        2
 64
     7
 65
   257
 75
     1
175
     1
 42
179.0
 92
        8
 66
     7
 43
1.0
 76
     1
 77
     6
 78
     2
 67
     7
 79
     3
170
     0
171
     0
290
     0
174
     0
 93
        1
 44
0.0
173
     0
291
     0
 45
0.0
1001
ACAD
1000
AcDbSavedByObjectVersion
1070
     0
  0
VISUALSTYLE
  5
7682
102
{ACAD_XDICTIONARY
360
D150
102
}
102
{ACAD_REACTORS
330
7677
102
}
330
7677
100
AcDbVisualStyle
  2
Dim
 70
    11
 71
     2
 72
     2
 73
     0
 90
        0
 40
-0.6
 41
-30.0
 62
     5
 63
     7
421
 16777215
 74
     1
 91
        4
 64
     7
 65
   257
 75
     1
175
     1
 42
1.0
 92
        8
 66
     7
 43
1.0
 76
     1
 77
     6
 78
     2
 67
     7
 79
     5
170
     0
171
     0
290
     0
174
     0
 93
        1
 44
-50.0
173
     0
291
     1
 45
0.0
1001
ACAD
1000
AcDbSavedByObjectVersion
1070
     0
  0
VISUALSTYLE
  5
768F
102
{ACAD_XDICTIONARY
360
D16A
102
}
102
{ACAD_REACTORS
330
7677
102
}
330
7677
100
AcDbVisualStyle
  2
EdgeColorOff
 70
    22
 71
     2
 72
     2
 73
     0
 90
        0
 40
-0.6
 41
-30.0
 62
     5
 63
     7
421
 16777215
 74
     1
 91
        4
 64
     7
 65
   257
 75
     1
175
     1
 42
1.0
 92
        8
 66
     7
 43
1.0
 76
     1
 77
     6
 78
     2
 67
     7
 79
     5
170
     0
171
     0
290
     0
174
     0
 93
        1
 44
0.0
173
     0
291
     1
 45
0.0
1001
ACAD
1000
AcDbSavedByObjectVersion
1070
     0
  0
VISUALSTYLE
  5
7686
102
{ACAD_XDICTIONARY
360
D158
102
}
102
{ACAD_REACTORS
330
7677
102
}
330
7677
100
AcDbVisualStyle
  2
Facepattern
 70
    15
 71
     2
 72
     2
 73
     0
 90
        0
 40
-0.6
 41
-30.0
 62
     5
 63
     7
421
 16777215
 74
     1
 91
        4
 64
     7
 65
   257
 75
     1
175
     1
 42
1.0
 92
        8
 66
     7
 43
1.0
 76
     1
 77
     6
 78
     2
 67
     7
 79
     5
170
     0
171
     0
290
     0
174
     0
 93
        1
 44
0.0
173
     0
291
     1
 45
0.0
1001
ACAD
1000
AcDbSavedByObjectVersion
1070
     0
  0
VISUALSTYLE
  5
7678
102
{ACAD_XDICTIONARY
360
D13C
102
}
102
{ACAD_REACTORS
330
7677
102
}
330
7677
100
AcDbVisualStyle
  2
Flat
 70
     0
 71
     2
 72
     1
 73
     1
 90
        2
 40
-0.6
 41
30.0
 62
     5
 63
     7
421
 16777215
 74
     0
 91
        0
 64
     7
 65
   257
 75
     1
175
     1
 42
1.0
 92
        8
 66
     7
 43
1.0
 76
     1
 77
     6
 78
     2
 67
     7
 79
     5
170
     0
171
     0
290
     0
174
     0
 93
       13
 44
0.0
173
     0
291
     1
 45
0.0
1001
ACAD
1000
AcDbSavedByObjectVersion
1070
     0
  0
VISUALSTYLE
  5
7679
102
{ACAD_XDICTIONARY
360
D13E
102
}
102
{ACAD_REACTORS
330
7677
102
}
330
7677
100
AcDbVisualStyle
  2
FlatWithEdges
 70
     1
 71
     2
 72
     1
 73
     1
 90
        2
 40
-0.6
 41
30.0
 62
     5
 63
     7
421
 16777215
 74
     1
 91
        0
 64
     7
 65
   257
 75
     1
175
     1
 42
1.0
 92
        0
 66
   257
 43
1.0
 76
     1
 77
     6
 78
     2
 67
     7
 79
     5
170
     0
171
     0
290
     0
174
     0
 93
       13
 44
0.0
173
     0
291
     1
 45
0.0
1001
ACAD
1000
AcDbSavedByObjectVersion
1070
     0
  0
VISUALSTYLE
  5
767A
102
{ACAD_XDICTIONARY
360
D140
102
}
102
{ACAD_REACTORS
330
7677
102
}
330
7677
100
AcDbVisualStyle
  2
Gouraud
 70
     2
 71
     2
 72
     2
 73
     1
 90
        2
 40
-0.6
 41
30.0
 62
     5
 63
     7
421
 16777215
 74
     0
 91
        0
 64
     7
 65
   257
 75
     1
175
     1
 42
1.0
 92
        0
 66
     7
 43
1.0
 76
     1
 77
     6
 78
     2
 67
     7
 79
     5
170
     0
171
     0
290
     0
174
     0
 93
       13
 44
0.0
173
     0
291
     1
 45
0.0
1001
ACAD
1000
AcDbSavedByObjectVersion
1070
     0
  0
VISUALSTYLE
  5
767B
102
{ACAD_XDICTIONARY
360
D142
102
}
102
{ACAD_REACTORS
330
7677
102
}
330
7677
100
AcDbVisualStyle
  2
GouraudWithEdges
 70
     3
 71
     2
 72
     2
 73
     1
 90
        2
 40
-0.6
 41
30.0
 62
     5
 63
     7
421
 16777215
 74
     1
 91
        0
 64
     7
 65
   257
 75
     1
175
     1
 42
1.0
 92
        0
 66
   257
 43
1.0
 76
     1
 77
     6
 78
     2
 67
     7
 79
     5
170
     0
171
     0
290
     0
174
     0
 93
       13
 44
0.0
173
     0
291
     1
 45
0.0
1001
ACAD
1000
AcDbSavedByObjectVersion
1070
     0
  0
VISUALSTYLE
  5
767F
102
{ACAD_XDICTIONARY
360
D14A
102
}
102
{ACAD_REACTORS
330
7677
102
}
330
7677
100
AcDbVisualStyle
  2
Hidden
 70
     6
 71
     1
 72
     2
 73
     2
 90
        0
 40
-0.6
 41
-30.0
 62
     5
 63
     7
421
 16777215
 74
     2
 91
        2
 64
     7
 65
   257
 75
     2
175
     1
 42
40.0
 92
        0
 66
   257
 43
1.0
 76
     1
 77
     6
 78
     2
 67
     7
 79
     3
170
     0
171
     0
290
     0
174
     0
 93
        1
 44
0.0
173
     0
291
     0
 45
0.0
1001
ACAD
1000
AcDbSavedByObjectVersion
1070
     0
  0
VISUALSTYLE
  5
768D
102
{ACAD_XDICTIONARY
360
D166
102
}
102
{ACAD_REACTORS
330
7677
102
}
330
7677
100
AcDbVisualStyle
  2
JitterOff
 70
    20
 71
     2
 72
     2
 73
     0
 90
        0
 40
-0.6
 41
-30.0
 62
     5
 63
     7
421
 16777215
 74
     1
 91
        4
 64
     7
 65
   257
 75
     1
175
     1
 42
1.0
 92
       10
 66
     7
 43
1.0
 76
     1
 77
     6
 78
     2
 67
     7
 79
     5
170
     0
171
     0
290
     0
174
     0
 93
        1
 44
0.0
173
     0
291
     1
 45
0.0
1001
ACAD
1000
AcDbSavedByObjectVersion
1070
     0
  0
VISUALSTYLE
  5
7685
102
{ACAD_XDICTIONARY
360
D156
102
}
102
{ACAD_REACTORS
330
7677
102
}
330
7677
100
AcDbVisualStyle
  2
Linepattern
 70
    14
 71
     2
 72
     2
 73
     0
 90
        0
 40
-0.6
 41
-30.0
 62
     5
 63
     7
421
 16777215
 74
     1
 91
        4
 64
     7
 65
   257
 75
     7
175
     7
 42
1.0
 92
        8
 66
     7
 43
1.0
 76
     1
 77
     6
 78
     2
 67
     7
 79
     5
170
     0
171
     0
290
     0
174
     0
 93
        1
 44
0.0
173
     0
291
     1
 45
0.0
1001
ACAD
1000
AcDbSavedByObjectVersion
1070
     0
  0
VISUALSTYLE
  5
768E
102
{ACAD_XDICTIONARY
360
D168
102
}
102
{ACAD_REACTORS
330
7677
102
}
330
7677
100
AcDbVisualStyle
  2
OverhangOff
 70
    21
 71
     2
 72
     2
 73
     0
 90
        0
 40
-0.6
 41
-30.0
 62
     5
 63
     7
421
 16777215
 74
     1
 91
        4
 64
     7
 65
   257
 75
     1
175
     1
 42
1.0
 92
        9
 66
     7
 43
1.0
 76
     1
 77
     6
 78
     2
 67
     7
 79
     5
170
     0
171
     0
290
     0
174
     0
 93
        1
 44
0.0
173
     0
291
     1
 45
0.0
1001
ACAD
1000
AcDbSavedByObjectVersion
1070
     0
  0
VISUALSTYLE
  5
7681
102
{ACAD_XDICTIONARY
360
D14E
102
}
102
{ACAD_REACTORS
330
7677
102
}
330
7677
100
AcDbVisualStyle
  2
Realistic
 70
     8
 71
     2
 72
     2
 73
     0
 90
        2
 40
-0.6
 41
30.0
 62
     5
 63
     7
421
 16777215
 74
     0
 91
        0
 64
     7
 65
   257
 75
     1
175
     1
 42
1.0
 92
        8
 66
   257
 43
1.0
 76
     1
 77
     6
 78
     2
 67
     7
 79
     3
170
     0
171
     0
290
     0
174
     0
 93
       13
 44
0.0
173
     0
291
     0
 45
0.0
1001
ACAD
1000
AcDbSavedByObjectVersion
1070
     0
  0
VISUALSTYLE
  5
768C
102
{ACAD_XDICTIONARY
360
D164
102
}
102
{ACAD_REACTORS
330
7677
102
}
330
7677
100
AcDbVisualStyle
  2
Shaded
 70
    27
 71
     2
 72
     2
 73
     1
 90
        2
 40
-0.6
 41
30.0
 62
     5
 63
     7
421
 16777215
 74
     0
 91
        4
 64
     7
 65
   257
 75
     1
175
     1
 42
1.0
 92
        8
 66
   257
 43
1.0
 76
     1
 77
     6
 78
     2
 67
     8
425
  7895160
 79
     3
170
     0
171
     0
290
     0
174
     0
 93
        5
 44
0.0
173
     0
291
     0
 45
0.0
1001
ACAD
1000
AcDbSavedByObjectVersion
1070
     0
  0
VISUALSTYLE
  5
768B
102
{ACAD_XDICTIONARY
360
D162
102
}
102
{ACAD_REACTORS
330
7677
102
}
330
7677
100
AcDbVisualStyle
  2
Shaded with edges
 70
    26
 71
     2
 72
     2
 73
     1
 90
        2
 40
-0.6
 41
30.0
 62
     5
 63
     7
421
 16777215
 74
     1
 91
       10
 64
     7
 65
   257
 75
     2
175
     1
 42
1.0
 92
        8
 66
   257
 43
1.0
 76
     1
 77
     6
 78
     2
 67
     7
 79
     3
170
     0
171
     0
290
     0
174
     0
 93
        5
 44
0.0
173
     0
291
     0
 45
0.0
1001
ACAD
1000
AcDbSavedByObjectVersion
1070
     0
  0
VISUALSTYLE
  5
7688
102
{ACAD_XDICTIONARY
360
D15C
102
}
102
{ACAD_REACTORS
330
7677
102
}
330
7677
100
AcDbVisualStyle
  2
Shades of Gray
 70
    23
 71
     2
 72
     2
 73
     3
 90
        0
 40
-0.6
 41
-30.0
 62
     5
 63
     7
421
 16777215
 74
     2
 91
        2
 64
     7
 65
     7
 75
     1
175
     1
 42
40.0
 92
        8
 66
     7
 43
1.0
 76
     1
 77
     6
 78
     2
 67
     7
 79
     3
170
     0
171
     0
290
     0
174
     0
 93
        1
 44
0.0
173
     0
291
     0
 45
0.0
1001
ACAD
1000
AcDbSavedByObjectVersion
1070
     0
  0
VISUALSTYLE
  5
7689
102
{ACAD_XDICTIONARY
360
D15E
102
}
102
{ACAD_REACTORS
330
7677
102
}
330
7677
100
AcDbVisualStyle
  2
Sketchy
 70
    24
 71
     1
 72
     2
 73
     2
 90
        0
 40
-0.6
 41
-30.0
 62
     5
 63
     7
421
 16777215
 74
     2
 91
        2
 64
     7
 65
     7
 75
     1
175
     1
 42
40.0
 92
       11
 66
     7
 43
1.0
 76
     1
 77
     6
 78
     2
 67
     7
 79
     6
170
     0
171
     0
290
     0
174
     0
 93
        1
 44
0.0
173
     0
291
     0
 45
0.0
1001
ACAD
1000
AcDbSavedByObjectVersion
1070
     0
  0
VISUALSTYLE
  5
7684
102
{ACAD_XDICTIONARY
360
D154
102
}
102
{ACAD_REACTORS
330
7677
102
}
330
7677
100
AcDbVisualStyle
  2
Thicken
 70
    13
 71
     2
 72
     2
 73
     0
 90
        0
 40
-0.6
 41
-30.0
 62
     5
 63
     7
421
 16777215
 74
     1
 91
        4
 64
     7
 65
   257
 75
     1
175
     1
 42
1.0
 92
       12
 66
     7
 43
1.0
 76
     1
 77
     6
 78
     2
 67
     7
 79
     5
170
     0
171
     0
290
     0
174
     0
 93
        1
 44
0.0
173
     0
291
     1
 45
0.0
1001
ACAD
1000
AcDbSavedByObjectVersion
1070
     0
  0
VISUALSTYLE
  5
767E
102
{ACAD_XDICTIONARY
360
D148
102
}
102
{ACAD_REACTORS
330
7677
102
}
330
7677
100
AcDbVisualStyle
  2
Wireframe
 70
     5
 71
     0
 72
     2
 73
     0
 90
        0
 40
-0.6
 41
-30.0
 62
     5
 63
     7
421
 16777215
 74
     1
 91
        4
 64
     7
 65
   257
 75
     1
175
     1
 42
1.0
 92
        0
 66
   257
 43
1.0
 76
     1
 77
     6
 78
     2
 67
     7
 79
     3
170
     0
171
     0
290
     0
174
     0
 93
        1
 44
0.0
173
     0
291
     0
 45
0.0
1001
ACAD
1000
AcDbSavedByObjectVersion
1070
     0
  0
VISUALSTYLE
  5
768A
102
{ACAD_XDICTIONARY
360
D160
102
}
102
{ACAD_REACTORS
330
7677
102
}
330
7677
100
AcDbVisualStyle
  2
X-Ray
 70
    25
 71
     2
 72
     2
 73
     1
 90
        1
 40
0.5
 41
-30.0
 62
     5
 63
     7
421
 16777215
 74
     1
 91
        0
 64
     7
 65
   257
 75
     1
175
     1
 42
1.0
 92
        8
 66
     7
 43
1.0
 76
     1
 77
     6
 78
     2
 67
     7
 79
     3
170
     0
171
     0
290
     0
174
     0
 93
       13
 44
0.0
173
     0
291
     0
 45
0.0
1001
ACAD
1000
AcDbSavedByObjectVersion
1070
     0
  0
DICTIONARYVAR
  5
B4C5
102
{ACAD_REACTORS
330
169
102
}
330
169
100
DictionaryVariables
280
     0
  1
1:1
  0
DICTIONARYVAR
  5
B4C3
102
{ACAD_REACTORS
330
169
102
}
330
169
100
DictionaryVariables
280
     0
  1
STANDARD
  0
DICTIONARYVAR
  5
764E
102
{ACAD_REACTORS
330
169
102
}
330
169
100
DictionaryVariables
280
     0
  1
STANDARD
  0
DICTIONARYVAR
  5
16A
102
{ACAD_REACTORS
330
169
102
}
330
169
100
DictionaryVariables
280
     0
  1
1
  0
DICTIONARYVAR
  5
B4C7
102
{ACAD_REACTORS
330
169
102
}
330
169
100
DictionaryVariables
280
     0
  1
1
  0
DICTIONARYVAR
  5
B4C8
102
{ACAD_REACTORS
330
169
102
}
330
169
100
DictionaryVariables
280
     0
  1
15
  0
DICTIONARYVAR
  5
B4C6
102
{ACAD_REACTORS
330
169
102
}
330
169
100
DictionaryVariables
280
     0
  1
0
  0
DICTIONARYVAR
  5
B4C4
102
{ACAD_REACTORS
330
169
102
}
330
169
100
DictionaryVariables
280
     0
  1
0
  0
XRECORD
  5
177
102
{ACAD_REACTORS
330
176
102
}
330
176
100
AcDbXrecord
280
     1
 91
      476
330
179
 90
        8
 62
     7
370
    -3
331
15
  1
Color_7
330
178
 90
        8
 62
     7
370
    -3
331
15
  1
Color_7
330
128
 90
        0
 62
     7
370
    -3
331
15
  1
Color_7
330
10
 90
        8
 62
     7
370
    -3
331
15
  1
Color_7
  0
DICTIONARY
  5
AF8A
330
21
100
AcDbDictionary
280
     1
281
     1
  3
ADSK_XREC_LAYOUTTHUMBNAIL
360
AF8B
  0
DICTIONARY
  5
7668
330
7667
100
AcDbDictionary
280
     1
281
     1
  3
ACAD_XREC_ROUNDTRIP
360
D13A
  3
BUMPTILE
360
766A
  3
DIFFUSETILE
360
7669
  3
OPACITYTILE
360
766D
  3
REFLECTIONTILE
360
766C
  3
REFRACTIONTILE
360
766E
  3
SPECULARTILE
360
766B
  0
DICTIONARY
  5
7660
330
765F
100
AcDbDictionary
280
     1
281
     1
  3
ACAD_XREC_ROUNDTRIP
360
D139
  3
BUMPTILE
360
7662
  3
DIFFUSETILE
360
7661
  3
OPACITYTILE
360
7665
  3
REFLECTIONTILE
360
7664
  3
REFRACTIONTILE
360
7666
  3
SPECULARTILE
360
7663
  0
DICTIONARY
  5
7670
330
766F
100
AcDbDictionary
280
     1
281
     1
  3
ACAD_XREC_ROUNDTRIP
360
D13B
  3
BUMPTILE
360
7672
  3
DIFFUSETILE
360
7671
  3
OPACITYTILE
360
7675
  3
REFLECTIONTILE
360
7674
  3
REFRACTIONTILE
360
7676
  3
SPECULARTILE
360
7673
  0
DICTIONARY
  5
D133
330
76A3
100
AcDbDictionary
280
     1
281
     1
  3
ACAD_XREC_ROUNDTRIP
360
D134
  0
DICTIONARY
  5
C003
330
7277
100
AcDbDictionary
280
     1
281
     1
  3
ACAD_ROUNDTRIP_2008_TABLESTYLE_CELLSTYLEMAP
360
D132
  3
ACAD_XREC_ROUNDTRIP
360
D138
  0
DICTIONARY
  5
D146
330
767D
100
AcDbDictionary
280
     1
281
     1
  3
ACAD_XREC_ROUNDTRIP
360
D147
  0
DICTIONARY
  5
D144
330
767C
100
AcDbDictionary
280
     1
281
     1
  3
ACAD_XREC_ROUNDTRIP
360
D145
  0
DICTIONARY
  5
D152
330
7683
100
AcDbDictionary
280
     1
281
     1
  3
ACAD_XREC_ROUNDTRIP
360
D153
  0
DICTIONARY
  5
D15A
330
7687
100
AcDbDictionary
280
     1
281
     1
  3
ACAD_XREC_ROUNDTRIP
360
D15B
  0
DICTIONARY
  5
D14C
330
7680
100
AcDbDictionary
280
     1
281
     1
  3
ACAD_XREC_ROUNDTRIP
360
D14D
  0
DICTIONARY
  5
D150
330
7682
100
AcDbDictionary
280
     1
281
     1
  3
ACAD_XREC_ROUNDTRIP
360
D151
  0
DICTIONARY
  5
D16A
330
768F
100
AcDbDictionary
280
     1
281
     1
  3
ACAD_XREC_ROUNDTRIP
360
D16B
  0
DICTIONARY
  5
D158
330
7686
100
AcDbDictionary
280
     1
281
     1
  3
ACAD_XREC_ROUNDTRIP
360
D159
  0
DICTIONARY
  5
D13C
330
7678
100
AcDbDictionary
280
     1
281
     1
  3
ACAD_XREC_ROUNDTRIP
360
D13D
  0
DICTIONARY
  5
D13E
330
7679
100
AcDbDictionary
280
     1
281
     1
  3
ACAD_XREC_ROUNDTRIP
360
D13F
  0
DICTIONARY
  5
D140
330
767A
100
AcDbDictionary
280
     1
281
     1
  3
ACAD_XREC_ROUNDTRIP
360
D141
  0
DICTIONARY
  5
D142
330
767B
100
AcDbDictionary
280
     1
281
     1
  3
ACAD_XREC_ROUNDTRIP
360
D143
  0
DICTIONARY
  5
D14A
330
767F
100
AcDbDictionary
280
     1
281
     1
  3
ACAD_XREC_ROUNDTRIP
360
D14B
  0
DICTIONARY
  5
D166
330
768D
100
AcDbDictionary
280
     1
281
     1
  3
ACAD_XREC_ROUNDTRIP
360
D167
  0
DICTIONARY
  5
D156
330
7685
100
AcDbDictionary
280
     1
281
     1
  3
ACAD_XREC_ROUNDTRIP
360
D157
  0
DICTIONARY
  5
D168
330
768E
100
AcDbDictionary
280
     1
281
     1
  3
ACAD_XREC_ROUNDTRIP
360
D169
  0
DICTIONARY
  5
D14E
330
7681
100
AcDbDictionary
280
     1
281
     1
  3
ACAD_XREC_ROUNDTRIP
360
D14F
  0
DICTIONARY
  5
D164
330
768C
100
AcDbDictionary
280
     1
281
     1
  3
ACAD_XREC_ROUNDTRIP
360
D165
  0
DICTIONARY
  5
D162
330
768B
100
AcDbDictionary
280
     1
281
     1
  3
ACAD_XREC_ROUNDTRIP
360
D163
  0
DICTIONARY
  5
D15C
330
7688
100
AcDbDictionary
280
     1
281
     1
  3
ACAD_XREC_ROUNDTRIP
360
D15D
  0
DICTIONARY
  5
D15E
330
7689
100
AcDbDictionary
280
     1
281
     1
  3
ACAD_XREC_ROUNDTRIP
360
D15F
  0
DICTIONARY
  5
D154
330
7684
100
AcDbDictionary
280
     1
281
     1
  3
ACAD_XREC_ROUNDTRIP
360
D155
  0
DICTIONARY
  5
D148
330
767E
100
AcDbDictionary
280
     1
281
     1
  3
ACAD_XREC_ROUNDTRIP
360
D149
  0
DICTIONARY
  5
D160
330
768A
100
AcDbDictionary
280
     1
281
     1
  3
ACAD_XREC_ROUNDTRIP
360
D161
  0
XRECORD
  5
AF8B
102
{ACAD_REACTORS
330
AF8A
102
}
330
AF8A
100
AcDbXrecord
280
     1
310
280000000001000065000000010008000000000000650000000000000000000000010000000000003028210000000000FFFFFF000000000000000000000000000000000000000000000000000000000000000000330000006600000099000000CC000000FF00000000330000333300006633000099330000CC330000FF3300
310
0000660000336600006666000099660000CC660000FF66000000990000339900006699000099990000CC990000FF99000000CC000033CC000066CC000099CC0000CCCC0000FFCC000000FF000033FF000066FF000099FF0000CCFF0000FFFF000000003300330033006600330099003300CC003300FF003300003333003333
310
33006633330099333300CC333300FF33330000663300336633006666330099663300CC663300FF66330000993300339933006699330099993300CC993300FF99330000CC330033CC330066CC330099CC3300CCCC3300FFCC330000FF330033FF330066FF330099FF3300CCFF3300FFFF330000006600330066006600660099
310
006600CC006600FF00660000336600333366006633660099336600CC336600FF33660000666600336666006666660099666600CC666600FF66660000996600339966006699660099996600CC996600FF99660000CC660033CC660066CC660099CC6600CCCC6600FFCC660000FF660033FF660066FF660099FF6600CCFF6600
310
FFFF660000009900330099006600990099009900CC009900FF00990000339900333399006633990099339900CC339900FF33990000669900336699006666990099669900CC669900FF66990000999900339999006699990099999900CC999900FF99990000CC990033CC990066CC990099CC9900CCCC9900FFCC990000FF99
310
0033FF990066FF990099FF9900CCFF9900FFFF99000000CC003300CC006600CC009900CC00CC00CC00FF00CC000033CC003333CC006633CC009933CC00CC33CC00FF33CC000066CC003366CC006666CC009966CC00CC66CC00FF66CC000099CC003399CC006699CC009999CC00CC99CC00FF99CC0000CCCC0033CCCC0066CC
310
CC0099CCCC00CCCCCC00FFCCCC0000FFCC0033FFCC0066FFCC0099FFCC00CCFFCC00FFFFCC000000FF003300FF006600FF009900FF00CC00FF00FF00FF000033FF003333FF006633FF009933FF00CC33FF00FF33FF000066FF003366FF006666FF009966FF00CC66FF00FF66FF000099FF003399FF006699FF009999FF00CC
310
99FF00FF99FF0000CCFF0033CCFF0066CCFF0099CCFF00CCCCFF00FFCCFF0000FFFF0033FFFF0066FFFF0099FFFF00CCFFFF00FFFFFF00000000000D0D0D001A1A1A00282828003535350043434300505050005D5D5D006B6B6B00787878008686860093939300A1A1A100AEAEAE00BBBBBB00C9C9C900D6D6D600E4E4E400
310
F1F1F100FFFFFF0000000000000000000000000000000000000000000000000000000000000000000000000000000000000000000000000000000000000000000000000000000000000000000000000000000000000000002D00000000000000000000002D2D00000000000000000000000000000000000000000000000000
310
0000000000000000000000000000000000000000000000000000000000002D0000000000000000000000000000000000000000000000000000000000000000000000000000000000000000000000000000000000000000000000000000000000000000000000002D0000000000000000000000000000000000000000000000
310
0000000000000000000000000000000000000000000000000000000000000000000000000000000000000000000000000000000000000000000000000000000000000000000000000000000000000000000000000000000000002D2D2D2D2D2D2D2D2D2D2D2D2D2D2D2D2D2D2D2D2D2D2D2D2D2D2D2D2D2D2D2D2D2D2D2D2D
310
2D2D2D2D2D2D2D2D2D2D2D2D2D2D2D2D2D2D2D2D2D2D2D2D2D2D2D2D2D2D2D2D2D2D2D2D2D2D2D2D2D2D2D2D2D2D2D2D2D2D2D2D2D2D2D2D2D2D2D2D2D2D2D2D2D2D2D2D2D2D2D2D2D2D2D2D2D2D2D2D2D2D2D2D2D2D2D2D2D2D2D2D2D2D2D2D2D2D2D2D2D2D2D2D2D2D2D2D2D2D2D2D2D2D2D2D2D2D2D2D2D2D2D2D2D2D2D
310
2D2D2D00000000000000000000000000000000000000000000000000000000000000000000000000000000000000000000000000000000000000000000000000000000000000000000000000000000000000000000000000000000282828282800282828002828002D00280000000000000000000000000000000000002828
310
280028280028282828282828002828000000000000000000000000000000000000002D0000000000000000000000000000000000000000000000000000000000000000282800282800282800000000000000000000000000000000000000000000000000000000000000002D0000000028282800282800282800282800002D
310
2D2D00000000000000000000000000000000000000000000000000000000000000000000000000000000000000000000000000000000000000000000000000000000000000000000000000000000000000000000000000000000000000002800280028280028282828002D0028000000000000000000000000000000000000
310
0028282800282800282828282828282828000000000000000000000000000000000000002D0000000000000000000000000000000000000000000000000000000000000000282800280028280028000000000000000000000000000000000000000000000000000000000000002D0000002828282828002800282800282800
310
0000000000000000000000000000000000000000000000000000000000000000000000000000000000000000000000000000000000000000000000000000000000000000000000000000000000000000000000000000000000000000000000002800280028280028282828002D282800000000000000000000000000000000
310
00002828282800282800282800280028282828000000000000000000000000000000000000002D0000000000000000000000000000000000000000000000000000000000000000282828280028280028000000000000000000000000000000000000000000000000000000000000002D000000282828282828282800002800
310
00280000000000000000000000000000000000000000000000000000000000000000000000000000000000000000000000000000000000000000000000000000000000000000000000000000000000000000000000000000000000000000000000282828280028280028282828002D28280000000000000000000000000000
310
000000002800282800282800282828280028282828000000000000000000000000000000000000002D0000000000000000000000000000000000000000000000000000000000000000282800280028280028000000000000000000000000000000000000000000000000000000000000002D00000028282828280028002828
310
002828000000000000000000000000000000000000000000000000000000000000000000000000000000000000000000000000000000000000000000000000000000000000000000000000000000000000000000000000000000000000000000000000282800282800282828280028002D2800000000000000000000000000
310
0000000000000028280028280028282800280000280000000000000000000000000000000000000000002D0000000000000000000000000000000000000000000000000000000000000000282800282800282800000000000000000000000000000000000000000000000000000000000000002D0000000028282800282800
310
2828002828000000000000000000000000000000000000000000000000000000000000000000000000000000000000000000000000000000000000000000000000000000000000000000000000000000000000000000000000000000000000000000000000002D00000000000000000000002D000000000000000000000000
310
00000000000000000000000000000000000000000000000000000000000000000000000000000000000000002D0000000000000000000000000000000000000000000000000000000000000000000000000000000000000000000000000000000000000000000000000000000000000000000000002D000000000000000000
310
00000000000000000000000000000000000000000000000000000000000000000000000000000000000000000000000000000000000000000000000000000000000000000000000000000000000000000000000000000000000000000000000000000000000000002D00000000000000000000002D00000000000000000000
310
000000000000000000000000000000000000000000000000000000000000000000000000000000000000000000002D0000000000000000000000000000000000000000000000000000000000000000000000000000000000000000000000000000000000000000000000000000000000000000000000002D00000000000000
310
000000000000000000000000000000000000000000000000000000000000000000000000000000000000000000000000000000000000000000000000000000000000000000000000000000000000000000000000000000000000000000000000000000000000000000002D00000000000000000000002D0000002828280000
310
0000000000000000000000000000000000000000000000000000000028280000000000000000000000000000000000002D0000000000000000000000282828000000000000000000000000000000000000000000000000000000000028282800000000000000000000000000000000000000000000000000002D0000002828
310
2800000000000000000000000000000000000000000000000000000000000000000000000000000000000000000000000000000000000000000000000000000000000000000000000000000000000000000000000000000000000000000000000000000000000000000000002D00000000000000000000002D000000002828
310
28000000000000000000000000000000000000000000000000000000000000282800000000000000000000000000000000002D0000000000000000000000002828280000000000000000000000000000000000000000000000000000000000282828000000000000000000000000000000000000000000000000002D000000
310
00282828000000000000000000000000000000000000000000000000000000000000000000000000000000000000000000000000000000000000000000000000000000000000000000000000000000000000000000000000000000000000000000000000000000000000000000002D00000000000000000000002D00000000
310
002828280000000000000000000000000000000000000000000000000000000000002828000000000000000000000000000000002D0000000000000000000000000028282800000000000000000000000000000000000000000000000000000000002828280000000000000000000000000000000000000000000000002D00
310
000000002828280000000000000000000000000000000000000000000000000000000000000000000000000000000000000000000000000000000000000000000000000000000000000000000000000000000000000000000000000000000000000000000000000000000000000000002D00000000000000000000002D0000
310
000000002828280000000000000000000000000000000000000000000000000000000000282828000000000000000000000000000000F5000000000000000000000000000028282800000000000000000000000000000000000000000000000000000000002828280000000000000000000000000000000000000000000000
310
2D00000000000028280000000000000000000000000000000000000000000000000000000000000000000000000000000000000000000000000000000000000000000000000000000000000000000000000000000000000000000000000000000000000000000000000000000000000000002D0000000000000000000000F5
310
0000000000000028282800000000000000000000000000000000000000000000000000000000002828280000000000000000000000000000F500000000000000000000000000000028282800000000000000000000000000000000000000000000000000000000002828280000000000000000000000000000000000000000
310
0000F5000000000000002828000000000000000000000000000000000000000000002D000000000000002D2D0000000000000000000000000000000000000000000000000000000000000000000000000000000000000000000000000000000000000000000000000000000000000000002D2D2DF52D2D2D2D2D2D2D2D2D2D
310
2D2D2D2D2D2D2D2D2D2D2828282D2D2D2D2D2D2D2D2D2D2D2D2D2D2D2D2D2D2D2D2D2D2D2D2D2D2D2D2D2828282D2D2D2D2D2D2D2D2D2D2D2D2D2D2D2D2D2D2D2D2D2D2D2D2D2D2D2D2D2D2828282D2D2D2D2D2D2D2D2D2D2D2D2D2D2D2D2D2D2D2D2D2D2D2D2D2D2D2D2D2828282D2D2D2D2D2D2D2D2D2D2D2D2D2D2D2D2D
310
2D2D2D2D2D2D2D2D2D2D2D2D2D28282D2D2D2D2D2D2D2D2D2D2D2D2D2DF52D2D2D2D2D2D2D2D2D2D2D2D2D2D2D2D0000000000000000000000000000000000000000000000000000000000000000000000000000000000000000000000000000000000000000000000000000000000000000002D0000000000000000000000
310
002D2DF5002D000000000000000000000000000000000000000000000000000000000000000000000000000000000000000000000000000000002D00F5002D00000000000000000000000000000000000000000000000000000000000000000000000000000000000000000000000000000000000000000000000000000000
310
000000002D00F5002D00000000000000000000000000000000000000000000000000000000002D000000000000002D000000000000000000000000000000000000000000000000000000000000000000000000000000000000000000000000000000000000000000000000000000000000000000002D000000000000000000
310
0000002D2DF5002D000000000000000000000000000000000000000000000000000000000000000000000000000000000000000000000000000000002D00F5002D0000000000000000000000000000000000000000000000000000000000000000000000000000000000000000000000000000000000000000000000000000
310
0000000000002D00F5002D00000000000000000000000000000000000000000000000000000000002D000000000000002D000000000000000000000000000000000000000000000000000000000000000000000000000000000000000000000000000000000000000000000000000000000000000000002D00000000000000
310
00000000002D2DF5002D000000000000000000000000000000000000000000000000000000000000000000000000000000000000000000000000000000002D00F5002D000000000000000000000000000000000000000000000000000000000000000000000000000000000000000000000000000000000000000000000000
310
00000000000000002D00F5002D00000000000000000000000000000000000000000000000000000000002D000000000000002D000000000000000000000000000000000000000000000000000000000000000000000000000000000000000000000000000000000000000000000000000000000000000000002D0000000000
310
000000000000002D2DF5002D000000000000000000000000000000000000000000000000000000000000000000000000000000000000000000000000000000002D00F5002D00000000000000000000000000000000000000000000000000000000000000000000000000000000000000000000000000000000000000000000
310
000000000000000000002D00F5002D00000000000000000000000000000000000000000000000000000000002D000000000000002D000000000000000000000000000000000000000000000000000000000000000000000000000000000000000000000000000000000000000000000000000000000000000000002D000000
310
0000000000000000002D2DF5002D000000000000000000000000000000000000000000000000000000000000000000000000000000000000000000000000000000002D00F5002D0000000000000000000000000000000000000000000000000000000000000000000000000000000000000000000000000000000000000000
310
0000000000000000000000002D00F5002D00000000000000000000000000000000000000000000000000000000002D000000000000002D000000000000000000000000000000000000000000000000000000000000000000000000000000000000000000000000000000000000000000000000000000000000000000002D00
310
00000000000000000000002D2DF5002D000000000000000000000000000000000000000000000000000000000000000000000000000000000000000000000000000000002D00F5002D000000000000000000000000000000000000000000000000000000000000000000000000000000000000000000000000000000000000
310
00000000000000000000000000002D00F5002D00000000000000000000000000000000000000000000000000000000002D000000000000002D00000000000000000000000000000000000000000000000000000000000000000000000000000000000000000000000000000000000000000000000000000000000000000000
310
2D0000000000000000000000002D2D2D2D2D2D0000000000000000000000000000000000000000000000000000000000000000000000000000000000000000000000000000002D2D2D2D2D2D000000000000000000000000000000000000000000000000000000000000000000000000000000000000000000000000000000
310
000000000000000000000000000000002D2D2D2D2D2D000000000000000000000000000000000000000000000000000000002D000000000000002D0000000000000000000000000000000000000000000000000000000000000000000000000000000000000000000000000000000000000000000000000000000000000000
310
00002D0000000000000000000000002D2D2D2D2D2D0000000000000000000000000000000000000000000000000000000000000000000000000000000000000000000000000000002D2D2D2D2D2D00000000000000000000000000000000000000000000000000000000000000000000000000000000000000000000000000
310
0000000000000000000000000000000000002D2D2D2D2D2D000000000000000000000000000000000000000000000000000000002D000000000000002D000000000000000000000000000000000000000000000000000000000000000000000000000000000000000000000000000000000000000000000000000000000000
310
000000002D000000000000000000000000002D28280000000000000000000000000000000000000000000000000000000000000000000000000000000000000000000000000000000000002D2D2D00000000000000000000000000000000000000000000000000000000000000000000000000000000000000000000000000
310
0000000000000000000000000000000000000000002D2D2D0000000000000000000000000000000000000000000000000000000000002D000000000000002D00000000000000000000000000000000000000000000000000000000000000000000000000000000000000000000000000000000000000000000000000000000
310
0000000000002D0000000000000000000000000000282800000000000000000000000000000000000000000000000000000000000000000000000000000000000000000000000000000000000000F52D0000000000000000000000000000000000000000000000000000000000000000000000000000000000000000000000
310
000000000000000000000000000000000000000000000000F52D0000000000000000000000000000000000000000000000000000000000002D000000000000002D0000000000000000000000000000000000000000000000000000000000000000000000000000000000000000000000000000000000000000000000000000
310
00000000000000002D0000000000000000000000000000282800000000000000000000000000000000000000000000000000000000000000000000000000000000000000000000000000000000000000F52D000000000000000000000000000000000000000000000000000000000000000000000000000000000000000000
310
0000000000000000000000000000000000000000000000000000F52D0000000000000000000000000000000000000000000000000000000000002D000000000000002D000000000000000000000000000000000000000000000000000000000000000000000000000000000000000000000000000000000000000000000000
310
000000000000000000002D0000000000000000000000000000282800000000000000000000000000000000000000000000000000000000000000000000000000000000000000000000000000000000000000F52D000000000000000000000000000000000000000000000000000000000000000000000000000000F5F5F5F5
310
F5F5F5F5F5F5F5F5F5F5F5F5F5F5F5F5F5F5F5F5F5F5000000000000F52D0000000000000000000000000000000000000000000000000000000000002D000000000000002D00000000000000000000000000000000000000000000000000000000000000000000000000000000000000000000000000000000000000000000
310
0000000000000000000000002D0000000000000000000000000000282800000000000000000000000000000000000000000000000000000000000000000000000000000000000000000000000000000000000000F52D000000000000000000000000000000000000000000000000000000000000000000000000000000F5F5
310
F5F5F5F5F5F5F5F500F5F5F500F5F50000F5F500F5F50000F50000000000F52D0000000000000000000000000000000000000000000000000000000000002D000000000000002D0000000000000000000000000000000000000000000000000000000000000000000000000000000000000000000000000000000000000000
310
00000000000000000028000000002D00000000000000000000000000002828000000000000F5F5F5F5F5F5F5F5F5F5F5F5F5F5F5F5F5F5F5F5F5F5F5F5F5F50000000000000000000000000000000000000000000000F52D000000000000000000000000000000000000000000000000000000000000000000000000000000
310
00F5F500F5F5F5F5F5F5F5F500F500F5F5F500F50000F5F50000F50000000000F52D0000000000000000000000000000000000000000000000000000000000002D000000000000002D000000000000000000000000000000000000000000000000000000000000000000000000000000000000000000000000000000000000
310
000000000000000000000028280000002D000000000000000000000000000028280000000000F50000F5F5F5F5F500F5F500F5F5F500F5F5F5F5F5F500F5F500000000000000000000000000000000000000000000000000F52D00000000000000000000000000000000000000000000000000000000000000000000000000
310
000000F5F5F5F5F5F5F5F5F5F5F5F5F500F5F50000F50000F5F5000000F500000000F52D0000000000000000000000000000000000000000000000000028282828282D000000000000002D00000000000000000000000000000000000000000000000000000000000000000000000000000000000000000000000000000000
310
0000000000000000000000000028282800002D000000000000000000000000000028280000000000F500F500F500F5F5F5F5F5F500F5F500F500F5F5F5F500F5F5F5000000000000000000000000000000000000000000000000F52D0000000000000000000000000000000000000000000000000000000000000000000000
310
00000000F5F5F5F5F5F5F5F5F5F5F5F5F5F500F5F5F500F50000F5F500000000F5000000F52D0000000000000000000000000000000000000000000000000000280000002D000028282828282D0000000000000000000000000000000000000000000000000000000000000000000000000000000000000000000000000000
310
00000000000000000000000000000000282828002D0000000000000000000000000000282800000000F50000F5F5F5F5F5F5F5F5F5F5F500F500F500F5F500F500F5F5F5000000000000000000000000000000000000000000000000F52D000000000000000000000000000000000000000000000000000000000000000000
310
00000000000000000000000000000000000000000000000000000000000000000000F5000000F52D0000000000000000000000000000000000000000000000000000282828282D000000002800002D000000000000000000000000000000000000000000000000000000000000000000000000000000000000000000000000
310
000000000000000000000000000000000000002828282D0000000000000000000000000000282800000000F50000F5F5F500F5F500F5F5F500F5F500F5F50000F5F500F5F5F5000000000000000000000000000000000000000000000000F52D00000000000000000000000000000000000000000000000000000000000000
310
00000000000000000000000000000000000000000000000000000000000000000000000000F50000F52D0000000000000000000000000000000000000000000000000000000000002D000000002800002D00000000000000000000000000000000000000000000000000000000000000000000000000000000000000000000
310
0000000000000000000000000000000000000000000028282800000000000000000000000000002828000000F5000000F500F5F5F5F5F500F500F5F500F500F500F5F5F50000000000000000000000000000000000000000000000000000002D2D2D0000000000000000000000000000000000000000F5F5F5F5F5F5F5F5F5
310
F5F5F5F5F500000000000000000000000000000000000000000000000000000000000000000000F5F52D2D2D0000000000000000000000000000000000000000000000000000000000002D000028282828282D0000000000000000000000000000000000000000000000000000000000000000000000000000000000000000
310
000000000000000000000000000000000000000000000000002828000000000000000000000000000028280000F500000000F500F5F5F5F5F500F500F5F5F5F5F5F5F5F5F5F5F50000000000000000000000000000000000000000000000002D2D2D2D2D2D2D2D00000000000000000000000000000000F500F500F5F5F5F5
310
F5F5F5F5F50000000000000000000000000000000000000000000000000000000000000000000000002D2D2D2D2D2D2D2D0000000000000000000000000000000000000000000000000000002D000000000000002D000000000000000000000000000000000000000000000000000000000000000000000000000000000000
310
000000000000000000000000000000000000000000000000000000002800000000000000000000000000002D2D0000F500000000F5F5F500F5F5F500F50000F5F5F5F5F5F500F5F5000000000000000000000000000000000000000000000000002D0000F50000002D00000000000000000000000000000000F50000F5F500
310
00F5F5F5F5F5F50000000000000000000000F5F5F5F5F5F5F5F5F5F5F5F5000000000000000000000000002D0000F50000002D0000000000000000000000000000000000000000000000000000002D000000000000002D00000000000000000000000000000000000000000000000000000000000000000000000000000000
310
0000000000000000000000000000000000000000000000000000000000002D000000000000000000000000002D2D2D2DF50000000000F5F5F500F5F5F500F500F5F5F5F500F5F500F5F5000000000000000000000000000000000000000000000000002D0000F50000002D000000000000000000000000000000F50000F5F5
310
F5F5F5F5F5F5F5F5F500000000000000000000F5F5F5F5F5F5F5F5F5F5F5F500000000000000000000000000002D0000F50000002D0000000000000000000000000000000000000000000000000000002D000000000000002D0000000000000000000000000000000000000000000000000000000000000000000000000000
310
00000000000000000000000000000000000000000000000000000000000000002D000000000000000000000000002D2D2D2DF50000000000F500F500000000000000000000F5000000000000000000000000000000000000000000000000000000000000002D0000F50000002D000000000000000000000000000000F50000
310
00F500F5F5F5F5F5F5F5F500000000000000000000F5F5F5F5F500F500F5F5F5F500000000000000000000000000002D0000F50000002D0000000000000000000000000000000000000000000000000000002D000000000000002D000000000000000000000000000000000000000000000000000000000000000000000000
310
000000000000000000000000000000000000000000000000000000000000000000002D0000000000000000000000002D2D2D2D2D2D00000000000000000000000000000000000000000000000000000000000000000000000000000000000000000000000000002D0000F50000002D0000000000000000000000000000F500
310
000000F500F5F5F5F5F5000000000000000000000000F50000F5F5F5F5F5F5F5F5F5F500000000000000000000000000002D0000F50000002D0000000000000000000000000000000000000000000000000000002D000000000000002D00000000000000000000000000000000000000000000000000000000000000000000
310
0000000000000000000000000000000000000000000000000000000000000000000000002D0000000000000000000000002D282828280000000000000000000000000000000000000000000000000000000000000000000000000000000000000000000000000000002D2D2D2D2D2D2D000000000000000000000000000000
310
F500000000000000000000000000000000000000000000F50000F5F5F5F500F500F5F5F5F500000000000000000000000000002D2D2D2D2D2D2D000000000000000000000000000000000000000000000000000000002D000000000000002D0000000000000000000000000000000000000000000000000000000000000000
310
00000000000000000000000000000000000000000000000000000000000000000000000000002D2D2D2D2D2D2D2D2D2D2D2D2D2D2828282D2D2D2D2D2D2D2D2D2D2D2D2D2D2D2D2D2D2D2D2D2D2D2D2D2D2D2D2D2D2D2D2D2D2D2D2D2D2D2D2D2D2D2D2D2D2D2D2D2D2D2D2D2D2D2D2D2D2D2D2D2D2D2D2D2D2D2D2D2D2D2D
310
2DF52D2D2D2D2D2D2D2D2D2D2D2D2D2D2D2D2D2D2D2D2D2D2DF52D2D2D2D2D2D2D2D2D2D2D2D2D2D2D2D2D2D2D2D2D2D2D2D2D2D2D2D2D2D2D2D2D2D2D2D2D2D2D2D2D2D2D2D2D2D2D2D2D2D2D2D2D2D2D000000000000002D000000000000002D000000000000000000000000000000000000000000000000000000000000
310
000000000000000000000000000000000000000000000000000000000000000000000000000000002D2D00000000000000000000002D2828282D000000000000000000000000000000000000000000000000000000000000000000000000000000000000000000000000000000002D28F52828000000000000000000000000
310
0000000000000000000000000000000000000000000000000000F500000000000000000000000000000000000000000000000000000000002D28F5282800000000000000000000000000000000000000000000000000000000002D000000000000002D00000000000000000000000000000000000000000000000000000000
310
0000000000000000000000000000000000000000000000000000000000000000000000000000000000002D2D00000000000000000000002D2828282D000000000000000000000000000000000000000000000000000000000000000000000000000000000000000000000000000000002D28F5282800000000000000000000
310
00000000000000000000000000000000000000000000000000000000F500000000000000000000000000000000000000000000000000000000002D28F5282800000000000000000000000000000000000000000000000000000000002D000000000000002D0000000000000000000000000000000000000000000000000000
310
00000000000000000000000000000000000000000000000000000000000000000000000000000000000000002D2D00000000000000000000002D2828282D000000000000000000000000000000000000000000000000000000000000000000000000000000000000000000000000000000002D28F528280000000000000000
310
0000000000000000000000000000000000000000000000000000000000F50000000000000000000000000000000000000000000000000000000000002D28F5282800000000000000000000000000000000000000000000000000000000002D000000000000002D000000000000000000000000000000000000000000000000
310
000000000000000000000000000000000000000000000000000000000000000000000000000000000000000000002D2D2D2D2D2D2D2D2D2D2D2D2D2D2828282D2D2D2D2D2D2D2D2D2D2D2D2D2D2D2D2D2D2D2D2D2D2D2D2D2D2D2D2D2D2D2D2D2D2D2D2D2D2D2D2D2D2D2D2D2D2D2D2D2D2D2D2D2D282828282D2D2D2D2D2D
310
2D2D2D2D2D2D2D2D2D2D2D2D2D2D2D2D2D2D2D2D2D2D2D2D2D2D2D2D2D2D2D2D2D2D2D2D2D2D2D2D2D2D2D2D2D2D2D2D2D2D2D2D2D2D2D2D2D2D2D2D2D2D2D282828282D2D2D2D2D2D2D2D2D2D2D2D2D2D2D2D2D2D2D2D2D2D000000000000002D000000000000002D00000000000000000000000000000000000000000000
310
0000000000000000000000000000000000000000000000000000000000000000000000000000000000000000000000002D0000002D2D2D2D2D2D0000002828282828002D2D2D2D2D2D00000000000000002D2D2D2D2D2D0000000000000000000000000000000000002D2D2D2D2D2D2D0000000000002D2828282800000000
310
0000002D2D2D2D2D2D0000000000000000000000000000000000002D2D2D2D2D2D0000000000000000000000000000000000002D2D2D2D2D2D2D0000000000002D28282828000000000000002D2D2D2D2D2D000000000000000000000000000000002D000000000000002D0000000000000000000000000000000000000000
310
00000000000000000000000000000000000000000000000000000000000000000000000000000000000000000000000000002D000000002D00002D000000002D282D282800002D00002D000000000000000000002D00002D0000000000000000000000000000000000000000002D002D00000000000000002D282D28280000
310
0000000000002D00002D00000000000000000000000000000000000000002D00002D0000000000000000000000000000000000000000002D002D00000000000000002D282D282800000000000000002D00002D00000000000000000000000000000000002D000000000000002D000000000000000000000000000000000000
310
000000000000000000000000000000000000000000000000000000000000000000000000000000000000000000000000000000002D2D2D2D2D2D2D2D2D2D2D2D2D2D2DF52D2D2D2D2D2D2D2D2D2D2D2D2D2D2D2D2D2D2D2D2D2D2D2D2D2D2D2D2D2D2D2D2D2D2D2D2D2D2D2D2D2D2D2D2D2D2D2D2D2D2D2D2D2D2D2DF52D2D
310
2D2D2D2D2D2D2D2D2D2D2D2D2D2D2D2D2D2D2D2D2D2D2D2D2D2D2D2D2D2D2D2D2D2D2D2D2D2D2D2D2D2D2D2D2D2D2D2D2D2D2D2D2D2D2D2D2D2D2D2D2D2D2D2D2D2D2D2D2D2DF52D2D2D2D2D2D2D2D2D2D2D2D2D2D2D2D2D2D2D2D2D2D2D2DF52D2D2D2D2D2DF5000000000000002D00000000000000000000000000000000
310
0000000000000000000000000000000000000000000000000000000000000000000000000000000000000000000000000000000000002D2D28282828282828282828282828282828282828282828282828282828282828282828282828282828282828282828282828F5282828282828282828282828282828282828282828
310
282828282828282828282828282828282828282828282828282828282828282828282828282828282828282828282828282828282828282828282828282828282828282828282828282828282828282828282828282828282828282828282828280000000000000000000000000000002D0000000000000000000000000000
310
00000000000000000000000000000000000000000000000000000000000000000000000000000000000000000000000000000000000000002D2D0000000000000000000000000000000000000000000000000000000000000000000000000000000000000000000000000000F5000000000000000000000000000000000000
310
0000000000000000000000000000000000000000000000000000000000000000000000000000000000000000000000000000000000000000000000000000000000000000000000000000000000000000000000000000000000000000000000000000000000000000000000000000000000002D2D0000000000000000000000
310
000000000000000000000000000000000000000000000000000000000000000000000000000000000000000000000000000000000000000000002D2D28F52D2D2D2D2D2D2D2D2D2D2D2D2D2D2D2D2D2D2D2D2D2D2D2D2D2D2D2D2D2D2D2D2D2D2D2D2D2D2D2D2DF52D2D2D2D2D2DF52D2D2D2D2D2D2D2D2D2D2D2D2D2D2D2D
310
2D2D2D2D2D2D2D2D2D2D2D2D2D2D2D2D2D2D2D2D2D2D2D2D2D2D2D2D2D2D2D2D2D2D2D2D2D2D2D2D2D2D2D2D2D2D2D2D2D2D2D2D2D2D2D2D2D2D2D2D2D2D2D2D2D2D2D2D2D2D2D2D2D2D2D2D2D2D2D2D2D2D2D2D2D2D2D2D2D2D2D2D2D2D2D2D2D2D2D2D2DF52D2D2D2D2D2D2D2D2D2D2D2D2D2DF52D000000000000000000
310
0000000000000000000000000000000000000000000000000000000000000000000000000000000000000000000000000000000000000000000000002D002828F5F5000000000000000000000000000000000000000000000000000000000000000000000000000000F5F5000000000000F500000000000000000000000000
310
00000000000000000000000000000000000000000000000000000000000000000000000000000000000000000000000000000000000000000000000000000000000000000000000000000000000000000000000000000000000000000000000000000000000000000000000000000000000000000000000000000000000000
310
00000000000000000000000000000000000000000000000000000000000000000000000000000000000000000000000000000000000000000000000000002D28282800F500000000000000000000000000000000000000000000000000000000000000000000000000000000F500000000000000F500000000000000000000
310
00000000000000000000000000000000000000F5000000000000000000000000000000000000000000000000F50000000000000000000000000000000000000000000000F50000000000000000000000000000000000000000000000F500000000000000000000000000000000000000000000000000000000000000000000
310
000000000000000000000000000000000000000000000000000000000000000000000000000000000000000000000000000000000000000000000000000000002D28282800F50000000000000000000000000000000000000000000000000000000000000000000000000000000000F5000000000000F50000000000000000
310
0000000000000000000000000000000000000000002D0000000000000000000000000000000000000000000000002D00000000000000000000000000000000000000000000002D00000000000000000000000000000000000000000000002D0000000000000000000000000000000000000000000000000000000000000000
310
0000000000000000000000000000000000000000000000000000000000000000000000000000000000000000000000000000000000000000000000000000000000002D2D28280000F500000000000000000000000000000000000000000000000000000000000000000000000000000000F500000000000000F50000000000
310
00000000000000000000000000000000000000000000002D0000000000000000000000000000000000000000000000002D00000000000000000000000000000000000000000000002D00000000000000000000000000000000000000000000002D000000000000000000000000000000000000000000000000000000000000
310
00000000000000000000000000000000000000000000000000000000000000000000000000000000000000000000000000000000000000000000000000000000000000002D0028280000F50000000000000000000000000000000000000000000000000000000000000000000000000000000000F5000000000000F5000000
310
000000000000000000000000000000000000000000000000002D0000000000000000000000000000000000000000000000002D00000000000000000000000000000000000000000000002D00000000000000000000000000000000000000000000002D00000000000000000000000000000000000000000000000000000000
310
000000000000000000000000000000000000000000000000000000000000000000000000000000000000000000000000000000000000000000000000000000000000000000002D0028F5000000F5F5F5F5F5F5F5F5F5F5F5F5F5F5F5F5F5F5F5F5F5F5F5F5F5F5F5F5F5F5F5F5F5000000000000000000F5000000000000F5
310
0000000000000000000000000000000000000000000000000000002D2D2D2D2D2D2D2D2D2D2D2D2D2D2D2D2D2D2D2D2D2D2D2D2D2D2D2D2D2D2D2D2D2D2D2D2D2D2D2D2D2D2D2D2D2D2D2D2D2D2D2D2D2D2D2D2D2D2D2D2D2D2D2D2D2D2D2D2D2D2D2D2DF52D00000000000000000000000000000000000000000000000000
310
0000000000000000000000000000000000000000000000000000000000000000000000000000000000000000000000000000000000000000000000000000000000000000000000002D002D2DF500000000F5F5F5F500F500F5F5F500F50000F5F5F50000F500F5F500F5F5F5F5F5F500000000000000000000F50000000000
310
0000F500000000000000000000000000000000000000000000000000000000000000000000002828002828002828000000000000000000000000000000002828002828282828280000000000000000000000000000002828280028280028280000000000000000000000000000000000000000000000000000000000000000
310
00000000000000000000000000000000000000000000000000000000000000000000000000000000000000000000000000000000000000000000000000000000000000000000000000002D002D2DF5F5000000F5F5F500F5F500F5F5F5F5F5F5F5F5F5F5F5F5F5F5F5F5F500F5F500F5F5F500000000000000000000F50000
310
00000000F50000000000000000000000000000000000000000000000000000000000000000000028002828280028280028000000000000000000000000000000280028280028280028000000000000000000000000000000280028280028280028000000000000000000000000000000000000000000000000000000000000
310
000000000000000000000000000000000000000000000000000000000000000000000000000000000000000000000000000000000000000000000000000000000000000000000000000000002D002D2D00F5000000F5F5F5F5F5F500F5F5F5F5F500F500F500F5F5F5F500F5F5F5F5F50000F5F500000000000000000000F5
310
00000000000000F5F5F5F5F5F5F5F5F5F5F5F5F50000000000000000000000000000000000000000000000282828002828002800000000000000000000000000000000002828002828002800000000000000000000000000000000002828002828002800000000000000000000000000000000000000000000000000000000
310
0000000000000000000000000000000000000000000000000000000000000000000000000000000000000000000000000000000000000000000000000000000000000000000000000000000000002D002D2D0000F5000000F5F500F50000F500F5F5F5F5F5F5F5F500F5F500F5F500F5F5F500F5F500000000000000000000
310
0000F50000000000000000F5F5F50000F5F5F5F50000000000000000000000000000000000000000000000000028002800282800280000000000000000000000000000000028002800282800280000000000000000000000000000000028282800282800280000000000000000000000000000000000000000000000000000
310
00000000000000000000000000000000000000000000000000000000000000000000000000000000000000000000000000000000000000000000000000000000000000000000000000000000000000002D002D2D0000F50000000000F5F5F500F500F5F5F500F500000000F5F500F5F5F500F5000000000000000000000000
310
0000000000F50000000000000000F5F5F50000F5F5F5000000000000000000000000000000000000000000000000282800282800282800000000000000000000000000000000282828282828282828000000000000000000000000000000282828002828002828000000000000000000000000000000000000000000000000
310
000000000000000000000000000000000000000000000000000000000000000000000000000000000000000000000000000000000000000000000000000000000000000000000000000000000000000000002D002D2D000000F500F5F500F5F5F5F5F500F500F5F500F5F5F500F5F5F5F5F5F5F5F500000000000000000000
310
00000000000000F500000000000000F5F5F5F500F5F5F5F500000000000000000000000000000000000000000000000000000000000000000000000000000000000000000000000000000000000000000000000000000000000000000000000000000000000000000000000000000000000000000000000000000000000000
310
0000000000000000000000000000000000000000000000000000000000000000000000000000000000000000000000000000000000000000000000000000000000000000000000000000000000000000000000002D002D2D00000000F500F5F5F500F5F50000F5F5F5F500F500F500F5F5F5F5F5F5F5F50000000000000000
310
00000000000000000000F500000000000000F5F5000000F5F5F50000000000000000000000000000000000000000000000000000000000000000000000000000000000000000000000000000000000000000000000000000000000000000000000000000000000000000000000000000000000000000000000000000000000
310
00000000000000000000000000000000000000000000000000000000000000000000000000000000000000000000000000000000000000000000000000000000000000000000000000000000000000000000000000002D002D2D00000000F5F5F5F5F5F5F5F5F5F500F5F500F5F5F5F5F5F5F5F5F5F5F5F5F5F50000000000
310
000000000000000000000000F5000000000000000000000000000000000000000000000000000000000000000000000000000000000000000000000000000000000000000000000000000000000000000000000000000000000000000000000000000000000000000000000000000000000000000000000000000000000000
310
00000000000000000000000000000000000000000000000000000000000000000000000000000000000000000000000000000000000000000000000000000000000000000000000000000000000000000000000000000000000000000000000000F50000000000000000000000000000000000000000000000F5F500000000
310
000000000000000000000000000000F5F5F5F5F5F5F5F5F5F5F5F5F5F5F5F5F5F5F5F5F5F5F5F5F5000000000000000000000000000000000000000000000000000000000000000000000000000000000000000000000000000000000000000000000000000000000000000000000000000000000000000000000000000000
310
000000000000000000000000000000000000000000000000000000000000000000000000000000000000000000000000000000000000000000000000000000000000000000000000000000000000000000000000000000000000000000000000000000F5000000000000000000000000000000000000000000000000000000
310
00000000000000000000000000000000000000F50000F5F5F50000000000F500F5F50000F5F50000000000000000000000000000000000000000000000000000000000000000000000000000000000000000000000000000000000000000000000000000000000000000000000000000000000000000000000000000000000
310
000000000000000000000000000000000000000000000000000000000000000000000000000000000000000000000000000000000000000000000000000000000000000000000000000000000000000000000000000000000000000000000000000000000000F5F5F5F5F5F5F5F5F5F5000000000000000000000000000000
310
000000000000000000000000000000000000000000F5F500F500F500000000F5F5000000F50000F5000000000000000000000000000000000000000000000000000000000000000000000000000000000000000000000000000000000000000000000000000000000000000000000000000000000000000000000000000000
310
00000000000000000000000000000000000000000000000000000000000000000000000000000000000000000000000000000000000000000000000000000000000000000000000000000000000000000000000000000000000000000000000000000000000000000000F5F5F500F5F5000000000000000000000000000000
310
000000000000000000000000000000000000000000000000F500F500F5F5F5F500F5F50000F5F500F5F500000000000000000000000000000000000000000000000000000000000000000000000000000000000000000000000000000000000000000000000000000000000000000000000000000000000000000000000000
310
000000000000000000000000000000000000000000000000000000000000000000000000000000000000000000000000000000000000000000000000000000000000000000000000000000000000000000000000000000000000000000000000000000000000000000000000F5F5F500F50000000000000000000000000000
310
000000000000000000000000000000000000000000000000F5F5F500F5F5F500000000F5F500F500F50000F5F500000000000000000000000000000000000000000000000000000000000000000000000000000000000000000000000000000000000000000000000000000000000000000000000000000000000000000000
310
0000000000000000000000000000000000000000000000000000000000000000000000000000000000000000000000000000000000000000000000000000000000000000000000000000000000000000000000000000000000000000000000000000000000000000000000000000F5F5F5F5F5F50000000000000000000000
310
000000000000000000000000000000000000000000000000000000000000000000000000000000000000000000F5F50000000000000000000000000000000000000000000000000000000000000000000000000000000000000000000000000000000000000000000000000000000000000000000000000000000000000000
310
0000000000000000000000000000000000000000000000000000000000000000000000000000000000000000000000000000000000000000000000000000000000000000000000000000000000000000000000000000000000000000000000000000000000000000000000000000000000F50000F500000000000000000000
310
00000000000000000000000000000000000000000000000000000000000000000000000000000000000000000000000000000000000000000000000000000000000000000000000000000000000000000000000000000000000000000000000000000000000000000000000000000000000000000000000000000000000000
310
00000000000000000000000000000000000000000000000000000000000000000000000000000000000000000000000000000000000000000000000000000000000000000000000000000000000000000000000000000000000000000000000000000000000000000000000000000000000000000000000000000000000000
310
00000000000000000000000000000000000000000000000000000000000000000000000000000000000000000000000000000000000000000000000000000000000000000000000000000000000000000000000000000000000000000000000000000000000000000000000000000000000000000000000000000000000000
310
00000000000000000000000000000000000000000000000000000000000000000000000000000000000000000000000000000000000000000000000000000000000000000000000000000000000000000000000000000000000000000000000000000000000000000000000000000000000000000000000000000000000000
310
00000000000000000000000000000000000000000000000000000000000000000000000000000000000000000000000000000000000000000000000000000000000000000000000000000000000000000000000000000000002828280028002828002828282828002828282828282828282828280000280000282828280000
310
00000000000000000000000000000000000000000000000000000000000000000000000000000000000000000000000000000000000000000000000000000000000000000000000000000000000000000000000000000000000000000000000000000000000000000000000000000000000000000000000000000000000000
310
00000000000000000000000000000000000000000000000000000000000000000000000000000000000000000000000000000000000000000000000000000000000000000000000000000000000000000000000000000000000000282828002828282800282828280028282828282828282828282828002800280028002828
310
00000000000000000000000000000000000000000000000000000000000000000000000000000000000000000000000000000000000000000000000000000000000000000000000000000000000000000000000000000000000000000000000000000000000000000000000000000000000000000000000000000000000000
310
00000000000000000000000000000000000000000000000000000000000000000000000000000000000000000000000000000000000000000000000000000000000000000000000000000000000000000000000000000000000000000028282800282828280028282828002828282828282828282828282800282828002828
310
28280000000000000000000000000000000000000000000000000000000000000000000000000000000000000000000000000000000000000000000000000000000000000000000000000000000000000000000000000000000000000000000000000000000000000000000000000000000000000000000000000000000000
310
00000000000000000000000000000000000000000000000000000000000000000000000000000000000000000000000000000000000000000000000000000000000000000000000000000000000000000000000000000000000000000000002828280028282828002828282828282828282828282828282828280028002800
310
28282828000000000000000000000000000000000000000000000000000000000000000000000000000000000000000000000000000000000000000000000000000000000000000000000000000000000000000000000000000000000000000000000000000000000000000000000000000000000000000000000000000000
310
00000000000000000000000000000000000000000000000000000000000000000000000000000000000000000000000000000000000000000000000000000000000000000000000000000000000000000000000000000000000000000000000000282828000028002800282828280028282828002800280000002800002800
310
28002828282800000000000000000000000000000000000000000000000000000000000000000000000000000000000000000000000000000000000000000000000000000000000000000000000000000000000000000000000000000000000000000000000000000000000000000000000000000000000000000000000000
310
00000000000000000000000000000000000000000000000000000000000000000000000000000000000000000000000000000000000000000000000000000000000000000000000000000000000000000000000000000000000000000000000000000000000000000000000000000000000000000000000000000000000000
310
00000000000000000000000000000000000000000000000000000000000000000000000000000000000000000000000000000000000000000000000000000000000000000000000000000000000000000000000000000000000000000000000000000000000000000000000000000000000000000000000000000000000000
310
00000000000000000000000000000000000000000000000000000000000000000000000000000000000000000000000000000000000000000000000000000000000000000000000000000000000000000000000000000000000000000000000000000000000000000000000000000000000000000000000000000000000000
310
00000000000000000000000000000000000000000000000000000000000000000000000000000000000000000000000000000000000000000000000000000000000000000000000000000000000000000000000000000000000000000000000000000000000000000000000000000000000000000000000000000000000000
310
00000000000000000000000000000000000000000000000000000000000000000000000000000000000000000000000000000000000000000000000000000000000000000000000000000000000000000000000000000000000000000000000000000000000000000000000000000000000000000000000000000000000000
310
00000000000000000000000000000000000000000000000000000000000000000000000000000000000000000000000000000000000000000000000000000000000000000000000000000000000000000000000000000000000000000000000000000000000000000000000000000000000000000000000000000000000000
310
00000000000000000000000000000000000000000000000000000000000000000000000000000000000000000000000000000000000000000000000000000000000000000000000000000000000000000000000000000000000000000000000000000000000000000000000000000000000000280000000000000000000000
310
00000000000000000000000000000000000000000000000000000000000000000000000000000000000000000000000000000000000000000000000000000000000000000000000000000000000000000000000000000000000000000000000000000000000000000000000000000000000000000000000000000000000000
310
00000000000000000000000000000000000000000000000000000000000000000000000000000000000000000000000000000000000000000000000000000000000000280000282800000000000028002800000000000028000000002800282800280028002800280028002800000000000028000028000028002828282800
310
28000028002800282800280028000000000000000000000000000000000000000000000000000000000000000000000000000000000000000000000000000000000000000000000000000000000000000000000000000000000000000000000000000000000000000000000000000000000000000000000000000000000000
310
00000000000000000000000000000000000000000000000000000000280028280028000028000000000000000000000000000000002828002800282828000028282800000028002828282828000000002800280000000000002800000000282828282828002800280028002800280000000000002800002800282828002800
310
00280028002800280028280028002800000000000000000000000000000000000000000000000000000000000000000000000000000000000000000000000000000000000000000000000000000000000000000000000000000000000000000000000000000000000000000000000000000000000000000000000000000000
310
00000000000000000000000000000000000000000000000000000000000028000028280000280028000000000000280028280000000000000028280028000028002800280000002800280000282800000000280028282828282800280000282828000000282800280028002800280028280028000000280000002800002800
310
28000028002800280028002828002800280000000000000000000000000000000000000000000000000000000000000000000000000000000000000000000000000000000000000000000000000000000000000000000000000000000000000000000000000000000000000000000000000000000000000000000000000000
310
00000000000000000000000000000000000000000000000000000000000000002800000028000028002800282828280028002800002828280000002800002828280000282828000000280028000028280000000028002828282828280028000000282800282828282828282800280028002800280028000028000000280000
310
28000028002800280028002800282828282828000000000000000000000000000000000000000000000000000000000000000000000000000000000000000000000000000000000000000000000000000000000000000000000000000000000000000000000000000000000000000000000000000000000000000000000000
310
00000000000000000000000000000000000000000000000000000000000000000000280028282800002800280000000000000028282800000000000028282800280028280028002800002828002800002828000000002828000000000000282800000028280028280028282828280028280028000000000000282800000000
310
28002828000028280028002828002800282828282800000000000000000000000000000000000000000000000000000000000000000000000000000000000000000000000000000000000000000000000000000000000000000000000000000000000000000000000000000000000000000000000000000000000000000000
310
00000000000000000000000000000000000000000000000000000000000000000000000028000000000000000000000000000000000000000000000000000000000000282800000028280000002800002828002800000000280000000000000000280000000028002828280000000000000000000000000000000000280000
310
00002828002828280028282800000000000000000000000000000000000000000000000000000000000000000000000000000000000000000000000000000000000000000000000000000000000000000000000000000000000000000000000000000000000000000000000000000000000000000000000000000000000000
310
00000000000000000000000000000000000000000000000000000000000000000000000000000000000000000000000000000000000000000000000000000000000000000000000000000000000000000000000000000000000000000000000000000000000000000000000000000000000000000000000000000000000000
310
00000000000000000000000000000000000000000000000000000000000000000000000000000000000000000000000000000000000000000000000000000000000000000000000000000000000000000000000000000000000000000000000000000000000000000000000000000000000000000000000000000000000000
310
00000000000000000000000000000000000000000000000000000000000000000000000000000000000000000000000000000000000000000000000000000000000000000000000000000000000000000000000000000000000000000000000000000000000000000000000000000000000000000000000000000000000000
310
00000000000000000000000000000000000000000000000000000000000000000000000000000000000000000000000000000000000000000000000000000000000000000000000000000000000000000000000000000000000000000000000000000000000000000000000000000000000000000000000000000000000000
310
00000000000000000000000000000000000000000000000000000000000000000000000000000000000000000000000000000000000000000000000000000000000000000000000000000000000000000000000000000000000000000000000000000000000000000000000000000000000000000000000000000000000000
310
00000000000000000000000000000000000000000000000000000000000000000000000000000000000000000000000000000000000000000000000000000000000000000000000000000000000000000000000000000000000000000000000000000000000000000000000000000000000000000000000000000000000000
310
00000000000000000000000000000000000000000000000000000000000000000000000000000000000000000000000000000000000000000000000000000000000000000000000000000000000000000000000000000000000000000000000000000000000000000000000000000000000000000000000000000000000000
310
00000000000000000000000000000000000000000000000000000000000000000000000000000000000000000000000000000000000000000000000000000000000000000000000000000000000000000000000000000000000000000000000000000000000000000000000000000000000000000000000000000000000000
310
00000000000000000000000000000000000000000000000000000000000000000000000000002828282828282828282828282828282828282828282828282828282828282828282828282828282828282828282828282828282828282828282828282828282828282828282828282828282828282828282828282828282828
310
28282828282828282828282828282828282828282828282828282828282828282828282828282828000000000000000000000000000000000000000000000000000000000000000000000000000000000000000000000000000000000000000000000000000000000000000000000000000000000000000000000000000000
310
00000000000000000000000000000000000000000000000000000000000000000000000000000000280000000000000000000000000000000000000000000000000000000000000000000000000000000000002828282800002800002800280000282828280000000000280000282828282828002828280028280028002828
310
28282800280000002800000000282828000000000000000000000000000000000000000000000000002800000000000000000000000000000000000000000000000000000000000000000000000000000000000000000000000000000000000000000000000000000000000000000000000000000000000000000000000000
310
00000000000000000000000000000000000000000000000000000000000000000000000000000000000028000000002828002800002828000000000000000000280000000000002828280028282828002828282828282828282828282828280028282828282800000000280028282828002828282800282828002828282828
310
28002800282828002800280000282828282800282800002828002800002800000028282800280000000000280000000000000000000000000000000000000000000000000000000000000000000000000000000000000000000000000000000000000000000000000000000000000000000000000000000000000000000000
310
00000000000000000000000000000000000000000000000000000000000000000000000000000000000000002800000000000028280000282800000000000028280028000000000000002828000000002800000028280028282828282828280028282800282828280000002800002828282800282828280028282800282828
310
28282828282800282828000028002800282828280028002800000028000000280000002800280000280000000028000000000000000000000000000000000000000000000000000000000000000000000000000000000000000000000000000000000000000000000000000000000000000000000000000000000000000000
310
00000000000000000000000000000000000000000000000000000000000000000000000000000000000000000000280000000000002800000028280000282828000028280000282828280000002800282828000028282800002828282800282828002828282800282828000000280000282828002828282828282828282828
310
28282800282828280028282800002828002828282828002828280000002800002828280000002800000028000000002800000000000000000000000000000000000000000000000000000000000000000000000000000000000000000000000000000000000000000000000000000000000000000000000000000000000000
310
00000000000000000000000000000000000000000000000000000000000000000000000000000000000000000000000028000000000028282800002828000000000000000028280000000000002828280028280028002800282828282828282828282800282828280028282800000000280028282828002828280028282828
310
00282828282828282828002828282800280000002828280000280028002828280000282828000000280000280000000000280000000000000000000000000000000000000000000000000000000000000000000000000000000000000000000000000000000000000000000000000000000000000000000000000000000000
310
00000000000000000000000000000000000000000000000000000000000000000000000000000000000000000000000000002800000000000000000000000000000000000000000000000000000000000000000028280000002828000028282828280028280000002800002828280000000028000028000000002828280000
310
28000028282828002828282800002800002828282800280028000000000000000000000000000000000000000028000000000028000000000000000000000000000000000000000000000000000000000000000000000000000000000000000000000000000000000000000000000000000000000000000000000000000000
310
00000000000000000000000000000000000000000000000000000000000000000000000000000000000000000000000000000000280000000000000000000000000000000000000000000000000000000000000000000000000000000000000000000000000000000000000000000000000000000000000000000000000000
310
00000000000000000000000000000000000000000000000000000000000000000000000000000000000000000000000000000000002800000000000000000000000000000000000000000000000000000000000000000000000000000000000000000000000000000000000000000000000000000000000000000000000000
310
00000000000000000000000000000000000000000000000000000000000000000000000000000000000000000000000000000000000028282828282828282828282828282828282828282828282828282828282828282828282828282828282828282828282828282828282828282828282828282828282828282828282828
310
282828282828282828282828282828282828282828282828282828282828282828282828282828282828282828282828282828282828282800000000000000000000000000000000000000000000000000000000000000000000000000000000000000000000000000000000000000000000000000000000000000
  0
XRECORD
  5
D13A
102
{ACAD_REACTORS
330
7668
102
}
330
7668
100
AcDbXrecord
280
     1
102
MATERIAL
148
0.0
149
0.0
149
0.0
 93
        0
 94
      127
282
     0
 72
     0
 77
     0
171
     0
175
     0
179
     0
273
     0
  0
XRECORD
  5
766A
102
{ACAD_REACTORS
330
7668
102
}
330
7668
100
AcDbXrecord
280
     1
270
     1
271
     1
  0
XRECORD
  5
7669
102
{ACAD_REACTORS
330
7668
102
}
330
7668
100
AcDbXrecord
280
     1
270
     1
271
     1
  0
XRECORD
  5
766D
102
{ACAD_REACTORS
330
7668
102
}
330
7668
100
AcDbXrecord
280
     1
270
     1
271
     1
  0
XRECORD
  5
766C
102
{ACAD_REACTORS
330
7668
102
}
330
7668
100
AcDbXrecord
280
     1
270
     1
271
     1
  0
XRECORD
  5
766E
102
{ACAD_REACTORS
330
7668
102
}
330
7668
100
AcDbXrecord
280
     1
270
     1
271
     1
  0
XRECORD
  5
766B
102
{ACAD_REACTORS
330
7668
102
}
330
7668
100
AcDbXrecord
280
     1
270
     1
271
     1
  0
XRECORD
  5
D139
102
{ACAD_REACTORS
330
7660
102
}
330
7660
100
AcDbXrecord
280
     1
102
MATERIAL
148
0.0
149
0.0
149
0.0
 93
        0
 94
      127
282
     0
 72
     0
 77
     0
171
     0
175
     0
179
     0
273
     0
  0
XRECORD
  5
7662
102
{ACAD_REACTORS
330
7660
102
}
330
7660
100
AcDbXrecord
280
     1
270
     1
271
     1
  0
XRECORD
  5
7661
102
{ACAD_REACTORS
330
7660
102
}
330
7660
100
AcDbXrecord
280
     1
270
     1
271
     1
  0
XRECORD
  5
7665
102
{ACAD_REACTORS
330
7660
102
}
330
7660
100
AcDbXrecord
280
     1
270
     1
271
     1
  0
XRECORD
  5
7664
102
{ACAD_REACTORS
330
7660
102
}
330
7660
100
AcDbXrecord
280
     1
270
     1
271
     1
  0
XRECORD
  5
7666
102
{ACAD_REACTORS
330
7660
102
}
330
7660
100
AcDbXrecord
280
     1
270
     1
271
     1
  0
XRECORD
  5
7663
102
{ACAD_REACTORS
330
7660
102
}
330
7660
100
AcDbXrecord
280
     1
270
     1
271
     1
  0
XRECORD
  5
D13B
102
{ACAD_REACTORS
330
7670
102
}
330
7670
100
AcDbXrecord
280
     1
102
MATERIAL
148
0.0
149
0.0
149
0.0
 93
        0
 94
      127
282
     0
 72
     0
 77
     0
171
     0
175
     0
179
     0
273
     0
  0
XRECORD
  5
7672
102
{ACAD_REACTORS
330
7670
102
}
330
7670
100
AcDbXrecord
280
     1
270
     1
271
     1
  0
XRECORD
  5
7671
102
{ACAD_REACTORS
330
7670
102
}
330
7670
100
AcDbXrecord
280
     1
270
     1
271
     1
  0
XRECORD
  5
7675
102
{ACAD_REACTORS
330
7670
102
}
330
7670
100
AcDbXrecord
280
     1
270
     1
271
     1
  0
XRECORD
  5
7674
102
{ACAD_REACTORS
330
7670
102
}
330
7670
100
AcDbXrecord
280
     1
270
     1
271
     1
  0
XRECORD
  5
7676
102
{ACAD_REACTORS
330
7670
102
}
330
7670
100
AcDbXrecord
280
     1
270
     1
271
     1
  0
XRECORD
  5
7673
102
{ACAD_REACTORS
330
7670
102
}
330
7670
100
AcDbXrecord
280
     1
270
     1
271
     1
  0
XRECORD
  5
D134
102
{ACAD_REACTORS
330
D133
102
}
330
D133
100
AcDbXrecord
280
     1
102
ACAD_ROUNDTRIP_2012_MLEADER_STYLE
298
     1
  0
CELLSTYLEMAP
  5
D132
102
{ACAD_REACTORS
330
C003
102
}
330
C003
100
AcDbCellStyleMap
 90
        3
300
CELLSTYLE
  1
TABLEFORMAT_BEGIN
 90
        5
170
     1
 91
        0
 92
    32768
 62
   257
 93
        1
300
CONTENTFORMAT
  1
CONTENTFORMAT_BEGIN
 90
        0
 91
        0
 92
        4
 93
        0
300

 40
0.0
140
1.0
 94
        5
 62
     0
340
11
144
0.25
309
CONTENTFORMAT_END
171
     0
 94
        6
 95
        1
302
GRIDFORMAT
  1
GRIDFORMAT_BEGIN
 90
        0
 91
        1
 62
     0
 92
       -2
340
0
 93
        0
 40
0.045
309
GRIDFORMAT_END
 95
        2
302
GRIDFORMAT
  1
GRIDFORMAT_BEGIN
 90
        0
 91
        1
 62
     0
 92
       -2
340
0
 93
        0
 40
0.045
309
GRIDFORMAT_END
 95
        4
302
GRIDFORMAT
  1
GRIDFORMAT_BEGIN
 90
        0
 91
        1
 62
     0
 92
       -2
340
0
 93
        0
 40
0.045
309
GRIDFORMAT_END
 95
        8
302
GRIDFORMAT
  1
GRIDFORMAT_BEGIN
 90
        0
 91
        1
 62
     0
 92
       -2
340
0
 93
        0
 40
0.045
309
GRIDFORMAT_END
 95
       16
302
GRIDFORMAT
  1
GRIDFORMAT_BEGIN
 90
        0
 91
        1
 62
     0
 92
       -2
340
0
 93
        0
 40
0.045
309
GRIDFORMAT_END
 95
       32
302
GRIDFORMAT
  1
GRIDFORMAT_BEGIN
 90
        0
 91
        1
 62
     0
 92
       -2
340
0
 93
        0
 40
0.045
309
GRIDFORMAT_END
309
TABLEFORMAT_END
  1
CELLSTYLE_BEGIN
 90
        1
 91
        1
300
_TITLE
309
CELLSTYLE_END
300
CELLSTYLE
  1
TABLEFORMAT_BEGIN
 90
        5
170
     1
 91
        0
 92
        0
 62
   257
 93
        1
300
CONTENTFORMAT
  1
CONTENTFORMAT_BEGIN
 90
        0
 91
        0
 92
        4
 93
        0
300

 40
0.0
140
1.0
 94
        5
 62
     0
340
11
144
0.18
309
CONTENTFORMAT_END
171
     0
 94
        6
 95
        1
302
GRIDFORMAT
  1
GRIDFORMAT_BEGIN
 90
        0
 91
        1
 62
     0
 92
       -2
340
0
 93
        0
 40
0.045
309
GRIDFORMAT_END
 95
        2
302
GRIDFORMAT
  1
GRIDFORMAT_BEGIN
 90
        0
 91
        1
 62
     0
 92
       -2
340
0
 93
        0
 40
0.045
309
GRIDFORMAT_END
 95
        4
302
GRIDFORMAT
  1
GRIDFORMAT_BEGIN
 90
        0
 91
        1
 62
     0
 92
       -2
340
0
 93
        0
 40
0.045
309
GRIDFORMAT_END
 95
        8
302
GRIDFORMAT
  1
GRIDFORMAT_BEGIN
 90
        0
 91
        1
 62
     0
 92
       -2
340
0
 93
        0
 40
0.045
309
GRIDFORMAT_END
 95
       16
302
GRIDFORMAT
  1
GRIDFORMAT_BEGIN
 90
        0
 91
        1
 62
     0
 92
       -2
340
0
 93
        0
 40
0.045
309
GRIDFORMAT_END
 95
       32
302
GRIDFORMAT
  1
GRIDFORMAT_BEGIN
 90
        0
 91
        1
 62
     0
 92
       -2
340
0
 93
        0
 40
0.045
309
GRIDFORMAT_END
309
TABLEFORMAT_END
  1
CELLSTYLE_BEGIN
 90
        2
 91
        1
300
_HEADER
309
CELLSTYLE_END
300
CELLSTYLE
  1
TABLEFORMAT_BEGIN
 90
        5
170
     1
 91
        0
 92
        0
 62
   257
 93
        1
300
CONTENTFORMAT
  1
CONTENTFORMAT_BEGIN
 90
        0
 91
        0
 92
        4
 93
        0
300

 40
0.0
140
1.0
 94
        2
 62
     0
340
11
144
0.18
309
CONTENTFORMAT_END
171
     0
 94
        6
 95
        1
302
GRIDFORMAT
  1
GRIDFORMAT_BEGIN
 90
        0
 91
        1
 62
     0
 92
       -2
340
0
 93
        0
 40
0.045
309
GRIDFORMAT_END
 95
        2
302
GRIDFORMAT
  1
GRIDFORMAT_BEGIN
 90
        0
 91
        1
 62
     0
 92
       -2
340
0
 93
        0
 40
0.045
309
GRIDFORMAT_END
 95
        4
302
GRIDFORMAT
  1
GRIDFORMAT_BEGIN
 90
        0
 91
        1
 62
     0
 92
       -2
340
0
 93
        0
 40
0.045
309
GRIDFORMAT_END
 95
        8
302
GRIDFORMAT
  1
GRIDFORMAT_BEGIN
 90
        0
 91
        1
 62
     0
 92
       -2
340
0
 93
        0
 40
0.045
309
GRIDFORMAT_END
 95
       16
302
GRIDFORMAT
  1
GRIDFORMAT_BEGIN
 90
        0
 91
        1
 62
     0
 92
       -2
340
0
 93
        0
 40
0.045
309
GRIDFORMAT_END
 95
       32
302
GRIDFORMAT
  1
GRIDFORMAT_BEGIN
 90
        0
 91
        1
 62
     0
 92
       -2
340
0
 93
        0
 40
0.045
309
GRIDFORMAT_END
309
TABLEFORMAT_END
  1
CELLSTYLE_BEGIN
 90
        3
 91
        2
300
_DATA
309
CELLSTYLE_END
  0
XRECORD
  5
D138
102
{ACAD_REACTORS
330
C003
102
}
330
C003
100
AcDbXrecord
280
     1
102
ACAD_ROUNDTRIP_PRE2007_TABLESTYLE
 90
        4
 91
        0
  1

 92
        4
 93
        0
  2

 94
        4
 95
        0
  3

  0
XRECORD
  5
D147
102
{ACAD_REACTORS
330
D146
102
}
330
D146
100
AcDbXrecord
280
     1
102
RTVSPropertyOp0
 70
     1
102
RTVSPropertyOp1
 70
     1
102
RTVSPropertyOp2
 70
     1
102
RTVSPropertyOp3
 70
     1
102
RTVSPropertyOp4
 70
     1
102
RTVSPropertyOp5
 70
     1
102
RTVSPropertyOp6
 70
     1
102
RTVSPropertyOp7
 70
     1
102
RTVSPropertyOp8
 70
     1
102
RTVSPropertyOp9
 70
     1
102
RTVSPropertyOp10
 70
     1
102
RTVSPropertyOp11
 70
     1
102
RTVSPropertyOp12
 70
     1
102
RTVSPropertyOp13
 70
     1
102
RTVSPropertyOp14
 70
     1
102
RTVSPropertyOp15
 70
     1
102
RTVSPropertyOp16
 70
     1
102
RTVSPropertyOp17
 70
     1
102
RTVSPropertyOp18
 70
     1
102
RTVSPropertyOp19
 70
     1
102
RTVSPropertyOp20
 70
     1
102
RTVSPropertyOp21
 70
     1
102
RTVSPropertyOp22
 70
     1
102
RTVSPropertyOp23
 70
     1
102
RTVSPropertyOp24
 70
     1
102
RTVSPropertyOp25
 70
     1
102
RTVSPropertyOp26
 70
     1
102
RTVSPropertyOp27
 70
     1
102
RTVSPropertyOp28
 70
     1
102
RTVSPropertyOp29
 70
     1
102
RTVSPropertyOp30
 70
     1
102
RTVSPropertyOp31
 70
     1
102
RTVSPropertyOp32
 70
     1
  0
XRECORD
  5
D145
102
{ACAD_REACTORS
330
D144
102
}
330
D144
100
AcDbXrecord
280
     1
102
RTVSPropertyOp0
 70
     1
102
RTVSPropertyOp1
 70
     1
102
RTVSPropertyOp2
 70
     1
102
RTVSPropertyOp3
 70
     1
102
RTVSPropertyOp4
 70
     1
102
RTVSPropertyOp5
 70
     1
102
RTVSPropertyOp6
 70
     1
102
RTVSPropertyOp7
 70
     1
102
RTVSPropertyOp8
 70
     1
102
RTVSPropertyOp9
 70
     1
102
RTVSPropertyOp10
 70
     1
102
RTVSPropertyOp11
 70
     1
102
RTVSPropertyOp12
 70
     1
102
RTVSPropertyOp13
 70
     1
102
RTVSPropertyOp14
 70
     1
102
RTVSPropertyOp15
 70
     1
102
RTVSPropertyOp16
 70
     1
102
RTVSPropertyOp17
 70
     1
102
RTVSPropertyOp18
 70
     1
102
RTVSPropertyOp19
 70
     1
102
RTVSPropertyOp20
 70
     1
102
RTVSPropertyOp21
 70
     1
102
RTVSPropertyOp22
 70
     1
102
RTVSPropertyOp23
 70
     1
102
RTVSPropertyOp24
 70
     1
102
RTVSPropertyOp25
 70
     1
102
RTVSPropertyOp26
 70
     1
102
RTVSPropertyOp27
 70
     1
102
RTVSPropertyOp28
 70
     1
102
RTVSPropertyOp29
 70
     1
102
RTVSPropertyOp30
 70
     1
102
RTVSPropertyOp31
 70
     1
102
RTVSPropertyOp32
 70
     1
  0
XRECORD
  5
D153
102
{ACAD_REACTORS
330
D152
102
}
330
D152
100
AcDbXrecord
280
     1
102
RTVSPropertyOp0
 70
     1
102
RTVSPropertyOp1
 70
     1
102
RTVSPropertyOp2
 70
     1
102
RTVSPropertyOp3
 70
     1
102
RTVSPropertyOp4
 70
     1
102
RTVSPropertyOp5
 70
     1
102
RTVSPropertyOp6
 70
     1
102
RTVSPropertyOp7
 70
     1
102
RTVSPropertyOp8
 70
     1
102
RTVSPropertyOp9
 70
     1
102
RTVSPropertyOp10
 70
     1
102
RTVSPropertyOp11
 70
     1
102
RTVSPropertyOp12
 70
     1
102
RTVSPropertyOp13
 70
     1
102
RTVSPropertyOp14
 70
     1
102
RTVSPropertyOp15
 70
     1
102
RTVSPropertyOp16
 70
     1
102
RTVSPropertyOp17
 70
     1
102
RTVSPropertyOp18
 70
     1
102
RTVSPropertyOp19
 70
     1
102
RTVSPropertyOp20
 70
     1
102
RTVSPropertyOp21
 70
     1
102
RTVSPropertyOp22
 70
     1
102
RTVSPropertyOp23
 70
     1
102
RTVSPropertyOp24
 70
     1
102
RTVSPropertyOp25
 70
     1
102
RTVSPropertyOp26
 70
     1
102
RTVSPropertyOp27
 70
     1
102
RTVSPropertyOp28
 70
     1
102
RTVSPropertyOp29
 70
     1
102
RTVSPropertyOp30
 70
     1
102
RTVSPropertyOp31
 70
     1
102
RTVSPropertyOp32
 70
     1
  0
XRECORD
  5
D15B
102
{ACAD_REACTORS
330
D15A
102
}
330
D15A
100
AcDbXrecord
280
     1
102
RTVSPropertyOp0
 70
     1
102
RTVSPropertyOp1
 70
     1
102
RTVSPropertyOp2
 70
     1
102
RTVSPropertyOp3
 70
     1
102
RTVSPropertyOp4
 70
     1
102
RTVSPropertyOp5
 70
     1
102
RTVSPropertyOp6
 70
     1
102
RTVSPropertyOp7
 70
     1
102
RTVSPropertyOp8
 70
     1
102
RTVSPropertyOp9
 70
     1
102
RTVSPropertyOp10
 70
     1
102
RTVSPropertyOp11
 70
     1
102
RTVSPropertyOp12
 70
     1
102
RTVSPropertyOp13
 70
     1
102
RTVSPropertyOp14
 70
     1
102
RTVSPropertyOp15
 70
     1
102
RTVSPropertyOp16
 70
     1
102
RTVSPropertyOp17
 70
     1
102
RTVSPropertyOp18
 70
     1
102
RTVSPropertyOp19
 70
     1
102
RTVSPropertyOp20
 70
     1
102
RTVSPropertyOp21
 70
     1
102
RTVSPropertyOp22
 70
     1
102
RTVSPropertyOp23
 70
     1
102
RTVSPropertyOp24
 70
     1
102
RTVSPropertyOp25
 70
     1
102
RTVSPropertyOp26
 70
     1
102
RTVSPropertyOp27
 70
     1
102
RTVSPropertyOp28
 70
     1
102
RTVSPropertyOp29
 70
     1
102
RTVSPropertyOp30
 70
     1
102
RTVSPropertyOp31
 70
     1
102
RTVSPropertyOp32
 70
     1
  0
XRECORD
  5
D14D
102
{ACAD_REACTORS
330
D14C
102
}
330
D14C
100
AcDbXrecord
280
     1
102
RTVSPropertyOp0
 70
     1
102
RTVSPropertyOp1
 70
     1
102
RTVSPropertyOp2
 70
     1
102
RTVSPropertyOp3
 70
     1
102
RTVSPropertyOp4
 70
     1
102
RTVSPropertyOp5
 70
     1
102
RTVSPropertyOp6
 70
     1
102
RTVSPropertyOp7
 70
     1
102
RTVSPropertyOp8
 70
     1
102
RTVSPropertyOp9
 70
     1
102
RTVSPropertyOp10
 70
     1
102
RTVSPropertyOp11
 70
     1
102
RTVSPropertyOp12
 70
     1
102
RTVSPropertyOp13
 70
     1
102
RTVSPropertyOp14
 70
     1
102
RTVSPropertyOp15
 70
     1
102
RTVSPropertyOp16
 70
     1
102
RTVSPropertyOp17
 70
     1
102
RTVSPropertyOp18
 70
     1
102
RTVSPropertyOp19
 70
     1
102
RTVSPropertyOp20
 70
     1
102
RTVSPropertyOp21
 70
     1
102
RTVSPropertyOp22
 70
     1
102
RTVSPropertyOp23
 70
     1
102
RTVSPropertyOp24
 70
     1
102
RTVSPropertyOp25
 70
     1
102
RTVSPropertyOp26
 70
     1
102
RTVSPropertyOp27
 70
     1
102
RTVSPropertyOp28
 70
     1
102
RTVSPropertyOp29
 70
     1
102
RTVSPropertyOp30
 70
     1
102
RTVSPropertyOp31
 70
     1
102
RTVSPropertyOp32
 70
     1
  0
XRECORD
  5
D151
102
{ACAD_REACTORS
330
D150
102
}
330
D150
100
AcDbXrecord
280
     1
102
RTVSPropertyOp0
 70
     1
102
RTVSPropertyOp1
 70
     1
102
RTVSPropertyOp2
 70
     1
102
RTVSPropertyOp3
 70
     1
102
RTVSPropertyOp4
 70
     1
102
RTVSPropertyOp5
 70
     1
102
RTVSPropertyOp6
 70
     1
102
RTVSPropertyOp7
 70
     1
102
RTVSPropertyOp8
 70
     1
102
RTVSPropertyOp9
 70
     1
102
RTVSPropertyOp10
 70
     1
102
RTVSPropertyOp11
 70
     1
102
RTVSPropertyOp12
 70
     1
102
RTVSPropertyOp13
 70
     1
102
RTVSPropertyOp14
 70
     1
102
RTVSPropertyOp15
 70
     1
102
RTVSPropertyOp16
 70
     1
102
RTVSPropertyOp17
 70
     1
102
RTVSPropertyOp18
 70
     1
102
RTVSPropertyOp19
 70
     1
102
RTVSPropertyOp20
 70
     1
102
RTVSPropertyOp21
 70
     1
102
RTVSPropertyOp22
 70
     1
102
RTVSPropertyOp23
 70
     1
102
RTVSPropertyOp24
 70
     1
102
RTVSPropertyOp25
 70
     1
102
RTVSPropertyOp26
 70
     1
102
RTVSPropertyOp27
 70
     1
102
RTVSPropertyOp28
 70
     1
102
RTVSPropertyOp29
 70
     1
102
RTVSPropertyOp30
 70
     1
102
RTVSPropertyOp31
 70
     1
102
RTVSPropertyOp32
 70
     1
  0
XRECORD
  5
D16B
102
{ACAD_REACTORS
330
D16A
102
}
330
D16A
100
AcDbXrecord
280
     1
102
RTVSPropertyOp0
 70
     0
102
RTVSPropertyOp1
 70
     0
102
RTVSPropertyOp2
 70
     0
102
RTVSPropertyOp3
 70
     0
102
RTVSPropertyOp4
 70
     0
102
RTVSPropertyOp5
 70
     0
102
RTVSPropertyOp6
 70
     0
102
RTVSPropertyOp7
 70
     0
102
RTVSPropertyOp8
 70
     0
102
RTVSPropertyOp9
 70
     0
102
RTVSPropertyOp10
 70
     0
102
RTVSPropertyOp11
 70
     0
102
RTVSPropertyOp12
 70
     0
102
RTVSPropertyOp13
 70
     0
102
RTVSPropertyOp14
 70
     2
102
RTVSPropertyOp15
 70
     0
102
RTVSPropertyOp16
 70
     0
102
RTVSPropertyOp17
 70
     0
102
RTVSPropertyOp18
 70
     0
102
RTVSPropertyOp19
 70
     0
102
RTVSPropertyOp20
 70
     0
102
RTVSPropertyOp21
 70
     0
102
RTVSPropertyOp22
 70
     0
102
RTVSPropertyOp23
 70
     0
102
RTVSPropertyOp24
 70
     0
102
RTVSPropertyOp25
 70
     0
102
RTVSPropertyOp26
 70
     0
102
RTVSPropertyOp27
 70
     0
102
RTVSPropertyOp28
 70
     1
102
RTVSPropertyOp29
 70
     1
102
RTVSPropertyOp30
 70
     1
102
RTVSPropertyOp31
 70
     1
102
RTVSPropertyOp32
 70
     1
  0
XRECORD
  5
D159
102
{ACAD_REACTORS
330
D158
102
}
330
D158
100
AcDbXrecord
280
     1
102
RTVSPropertyOp0
 70
     1
102
RTVSPropertyOp1
 70
     1
102
RTVSPropertyOp2
 70
     1
102
RTVSPropertyOp3
 70
     1
102
RTVSPropertyOp4
 70
     1
102
RTVSPropertyOp5
 70
     1
102
RTVSPropertyOp6
 70
     1
102
RTVSPropertyOp7
 70
     1
102
RTVSPropertyOp8
 70
     1
102
RTVSPropertyOp9
 70
     1
102
RTVSPropertyOp10
 70
     1
102
RTVSPropertyOp11
 70
     1
102
RTVSPropertyOp12
 70
     1
102
RTVSPropertyOp13
 70
     1
102
RTVSPropertyOp14
 70
     1
102
RTVSPropertyOp15
 70
     1
102
RTVSPropertyOp16
 70
     1
102
RTVSPropertyOp17
 70
     1
102
RTVSPropertyOp18
 70
     1
102
RTVSPropertyOp19
 70
     1
102
RTVSPropertyOp20
 70
     1
102
RTVSPropertyOp21
 70
     1
102
RTVSPropertyOp22
 70
     1
102
RTVSPropertyOp23
 70
     1
102
RTVSPropertyOp24
 70
     1
102
RTVSPropertyOp25
 70
     1
102
RTVSPropertyOp26
 70
     1
102
RTVSPropertyOp27
 70
     1
102
RTVSPropertyOp28
 70
     1
102
RTVSPropertyOp29
 70
     1
102
RTVSPropertyOp30
 70
     1
102
RTVSPropertyOp31
 70
     1
102
RTVSPropertyOp32
 70
     1
  0
XRECORD
  5
D13D
102
{ACAD_REACTORS
330
D13C
102
}
330
D13C
100
AcDbXrecord
280
     1
102
RTVSPropertyOp0
 70
     1
102
RTVSPropertyOp1
 70
     1
102
RTVSPropertyOp2
 70
     1
102
RTVSPropertyOp3
 70
     1
102
RTVSPropertyOp4
 70
     1
102
RTVSPropertyOp5
 70
     1
102
RTVSPropertyOp6
 70
     1
102
RTVSPropertyOp7
 70
     1
102
RTVSPropertyOp8
 70
     1
102
RTVSPropertyOp9
 70
     1
102
RTVSPropertyOp10
 70
     1
102
RTVSPropertyOp11
 70
     1
102
RTVSPropertyOp12
 70
     1
102
RTVSPropertyOp13
 70
     1
102
RTVSPropertyOp14
 70
     1
102
RTVSPropertyOp15
 70
     1
102
RTVSPropertyOp16
 70
     1
102
RTVSPropertyOp17
 70
     1
102
RTVSPropertyOp18
 70
     1
102
RTVSPropertyOp19
 70
     1
102
RTVSPropertyOp20
 70
     1
102
RTVSPropertyOp21
 70
     1
102
RTVSPropertyOp22
 70
     1
102
RTVSPropertyOp23
 70
     1
102
RTVSPropertyOp24
 70
     1
102
RTVSPropertyOp25
 70
     1
102
RTVSPropertyOp26
 70
     1
102
RTVSPropertyOp27
 70
     1
102
RTVSPropertyOp28
 70
     1
102
RTVSPropertyOp29
 70
     1
102
RTVSPropertyOp30
 70
     1
102
RTVSPropertyOp31
 70
     1
102
RTVSPropertyOp32
 70
     1
  0
XRECORD
  5
D13F
102
{ACAD_REACTORS
330
D13E
102
}
330
D13E
100
AcDbXrecord
280
     1
102
RTVSPropertyOp0
 70
     1
102
RTVSPropertyOp1
 70
     1
102
RTVSPropertyOp2
 70
     1
102
RTVSPropertyOp3
 70
     1
102
RTVSPropertyOp4
 70
     1
102
RTVSPropertyOp5
 70
     1
102
RTVSPropertyOp6
 70
     1
102
RTVSPropertyOp7
 70
     1
102
RTVSPropertyOp8
 70
     1
102
RTVSPropertyOp9
 70
     1
102
RTVSPropertyOp10
 70
     1
102
RTVSPropertyOp11
 70
     1
102
RTVSPropertyOp12
 70
     1
102
RTVSPropertyOp13
 70
     1
102
RTVSPropertyOp14
 70
     1
102
RTVSPropertyOp15
 70
     1
102
RTVSPropertyOp16
 70
     1
102
RTVSPropertyOp17
 70
     1
102
RTVSPropertyOp18
 70
     1
102
RTVSPropertyOp19
 70
     1
102
RTVSPropertyOp20
 70
     1
102
RTVSPropertyOp21
 70
     1
102
RTVSPropertyOp22
 70
     1
102
RTVSPropertyOp23
 70
     1
102
RTVSPropertyOp24
 70
     1
102
RTVSPropertyOp25
 70
     1
102
RTVSPropertyOp26
 70
     1
102
RTVSPropertyOp27
 70
     1
102
RTVSPropertyOp28
 70
     1
102
RTVSPropertyOp29
 70
     1
102
RTVSPropertyOp30
 70
     1
102
RTVSPropertyOp31
 70
     1
102
RTVSPropertyOp32
 70
     1
  0
XRECORD
  5
D141
102
{ACAD_REACTORS
330
D140
102
}
330
D140
100
AcDbXrecord
280
     1
102
RTVSPropertyOp0
 70
     1
102
RTVSPropertyOp1
 70
     1
102
RTVSPropertyOp2
 70
     1
102
RTVSPropertyOp3
 70
     1
102
RTVSPropertyOp4
 70
     1
102
RTVSPropertyOp5
 70
     1
102
RTVSPropertyOp6
 70
     1
102
RTVSPropertyOp7
 70
     1
102
RTVSPropertyOp8
 70
     1
102
RTVSPropertyOp9
 70
     1
102
RTVSPropertyOp10
 70
     1
102
RTVSPropertyOp11
 70
     1
102
RTVSPropertyOp12
 70
     1
102
RTVSPropertyOp13
 70
     1
102
RTVSPropertyOp14
 70
     1
102
RTVSPropertyOp15
 70
     1
102
RTVSPropertyOp16
 70
     1
102
RTVSPropertyOp17
 70
     1
102
RTVSPropertyOp18
 70
     1
102
RTVSPropertyOp19
 70
     1
102
RTVSPropertyOp20
 70
     1
102
RTVSPropertyOp21
 70
     1
102
RTVSPropertyOp22
 70
     1
102
RTVSPropertyOp23
 70
     1
102
RTVSPropertyOp24
 70
     1
102
RTVSPropertyOp25
 70
     1
102
RTVSPropertyOp26
 70
     1
102
RTVSPropertyOp27
 70
     1
102
RTVSPropertyOp28
 70
     1
102
RTVSPropertyOp29
 70
     1
102
RTVSPropertyOp30
 70
     1
102
RTVSPropertyOp31
 70
     1
102
RTVSPropertyOp32
 70
     1
  0
XRECORD
  5
D143
102
{ACAD_REACTORS
330
D142
102
}
330
D142
100
AcDbXrecord
280
     1
102
RTVSPropertyOp0
 70
     1
102
RTVSPropertyOp1
 70
     1
102
RTVSPropertyOp2
 70
     1
102
RTVSPropertyOp3
 70
     1
102
RTVSPropertyOp4
 70
     1
102
RTVSPropertyOp5
 70
     1
102
RTVSPropertyOp6
 70
     1
102
RTVSPropertyOp7
 70
     1
102
RTVSPropertyOp8
 70
     1
102
RTVSPropertyOp9
 70
     1
102
RTVSPropertyOp10
 70
     1
102
RTVSPropertyOp11
 70
     1
102
RTVSPropertyOp12
 70
     1
102
RTVSPropertyOp13
 70
     1
102
RTVSPropertyOp14
 70
     1
102
RTVSPropertyOp15
 70
     1
102
RTVSPropertyOp16
 70
     1
102
RTVSPropertyOp17
 70
     1
102
RTVSPropertyOp18
 70
     1
102
RTVSPropertyOp19
 70
     1
102
RTVSPropertyOp20
 70
     1
102
RTVSPropertyOp21
 70
     1
102
RTVSPropertyOp22
 70
     1
102
RTVSPropertyOp23
 70
     1
102
RTVSPropertyOp24
 70
     1
102
RTVSPropertyOp25
 70
     1
102
RTVSPropertyOp26
 70
     1
102
RTVSPropertyOp27
 70
     1
102
RTVSPropertyOp28
 70
     1
102
RTVSPropertyOp29
 70
     1
102
RTVSPropertyOp30
 70
     1
102
RTVSPropertyOp31
 70
     1
102
RTVSPropertyOp32
 70
     1
  0
XRECORD
  5
D14B
102
{ACAD_REACTORS
330
D14A
102
}
330
D14A
100
AcDbXrecord
280
     1
102
RTVSPropertyOp0
 70
     1
102
RTVSPropertyOp1
 70
     1
102
RTVSPropertyOp2
 70
     1
102
RTVSPropertyOp3
 70
     1
102
RTVSPropertyOp4
 70
     1
102
RTVSPropertyOp5
 70
     1
102
RTVSPropertyOp6
 70
     1
102
RTVSPropertyOp7
 70
     1
102
RTVSPropertyOp8
 70
     1
102
RTVSPropertyOp9
 70
     1
102
RTVSPropertyOp10
 70
     1
102
RTVSPropertyOp11
 70
     1
102
RTVSPropertyOp12
 70
     1
102
RTVSPropertyOp13
 70
     1
102
RTVSPropertyOp14
 70
     1
102
RTVSPropertyOp15
 70
     1
102
RTVSPropertyOp16
 70
     1
102
RTVSPropertyOp17
 70
     1
102
RTVSPropertyOp18
 70
     1
102
RTVSPropertyOp19
 70
     1
102
RTVSPropertyOp20
 70
     1
102
RTVSPropertyOp21
 70
     1
102
RTVSPropertyOp22
 70
     1
102
RTVSPropertyOp23
 70
     1
102
RTVSPropertyOp24
 70
     1
102
RTVSPropertyOp25
 70
     1
102
RTVSPropertyOp26
 70
     1
102
RTVSPropertyOp27
 70
     1
102
RTVSPropertyOp28
 70
     1
102
RTVSPropertyOp29
 70
     1
102
RTVSPropertyOp30
 70
     1
102
RTVSPropertyOp31
 70
     1
102
RTVSPropertyOp32
 70
     1
  0
XRECORD
  5
D167
102
{ACAD_REACTORS
330
D166
102
}
330
D166
100
AcDbXrecord
280
     1
102
RTVSPropertyOp0
 70
     0
102
RTVSPropertyOp1
 70
     0
102
RTVSPropertyOp2
 70
     0
102
RTVSPropertyOp3
 70
     0
102
RTVSPropertyOp4
 70
     0
102
RTVSPropertyOp5
 70
     0
102
RTVSPropertyOp6
 70
     0
102
RTVSPropertyOp7
 70
     0
102
RTVSPropertyOp8
 70
     0
102
RTVSPropertyOp9
 70
     0
102
RTVSPropertyOp10
 70
     0
102
RTVSPropertyOp11
 70
     0
102
RTVSPropertyOp12
 70
     0
102
RTVSPropertyOp13
 70
     0
102
RTVSPropertyOp14
 70
     2
102
RTVSPropertyOp15
 70
     0
102
RTVSPropertyOp16
 70
     0
102
RTVSPropertyOp17
 70
     0
102
RTVSPropertyOp18
 70
     0
102
RTVSPropertyOp19
 70
     0
102
RTVSPropertyOp20
 70
     0
102
RTVSPropertyOp21
 70
     0
102
RTVSPropertyOp22
 70
     0
102
RTVSPropertyOp23
 70
     0
102
RTVSPropertyOp24
 70
     0
102
RTVSPropertyOp25
 70
     0
102
RTVSPropertyOp26
 70
     0
102
RTVSPropertyOp27
 70
     0
102
RTVSPropertyOp28
 70
     1
102
RTVSPropertyOp29
 70
     1
102
RTVSPropertyOp30
 70
     1
102
RTVSPropertyOp31
 70
     1
102
RTVSPropertyOp32
 70
     1
  0
XRECORD
  5
D157
102
{ACAD_REACTORS
330
D156
102
}
330
D156
100
AcDbXrecord
280
     1
102
RTVSPropertyOp0
 70
     1
102
RTVSPropertyOp1
 70
     1
102
RTVSPropertyOp2
 70
     1
102
RTVSPropertyOp3
 70
     1
102
RTVSPropertyOp4
 70
     1
102
RTVSPropertyOp5
 70
     1
102
RTVSPropertyOp6
 70
     1
102
RTVSPropertyOp7
 70
     1
102
RTVSPropertyOp8
 70
     1
102
RTVSPropertyOp9
 70
     1
102
RTVSPropertyOp10
 70
     1
102
RTVSPropertyOp11
 70
     1
102
RTVSPropertyOp12
 70
     1
102
RTVSPropertyOp13
 70
     1
102
RTVSPropertyOp14
 70
     1
102
RTVSPropertyOp15
 70
     1
102
RTVSPropertyOp16
 70
     1
102
RTVSPropertyOp17
 70
     1
102
RTVSPropertyOp18
 70
     1
102
RTVSPropertyOp19
 70
     1
102
RTVSPropertyOp20
 70
     1
102
RTVSPropertyOp21
 70
     1
102
RTVSPropertyOp22
 70
     1
102
RTVSPropertyOp23
 70
     1
102
RTVSPropertyOp24
 70
     1
102
RTVSPropertyOp25
 70
     1
102
RTVSPropertyOp26
 70
     1
102
RTVSPropertyOp27
 70
     1
102
RTVSPropertyOp28
 70
     1
102
RTVSPropertyOp29
 70
     1
102
RTVSPropertyOp30
 70
     1
102
RTVSPropertyOp31
 70
     1
102
RTVSPropertyOp32
 70
     1
  0
XRECORD
  5
D169
102
{ACAD_REACTORS
330
D168
102
}
330
D168
100
AcDbXrecord
280
     1
102
RTVSPropertyOp0
 70
     0
102
RTVSPropertyOp1
 70
     0
102
RTVSPropertyOp2
 70
     0
102
RTVSPropertyOp3
 70
     0
102
RTVSPropertyOp4
 70
     0
102
RTVSPropertyOp5
 70
     0
102
RTVSPropertyOp6
 70
     0
102
RTVSPropertyOp7
 70
     0
102
RTVSPropertyOp8
 70
     0
102
RTVSPropertyOp9
 70
     0
102
RTVSPropertyOp10
 70
     0
102
RTVSPropertyOp11
 70
     0
102
RTVSPropertyOp12
 70
     0
102
RTVSPropertyOp13
 70
     0
102
RTVSPropertyOp14
 70
     2
102
RTVSPropertyOp15
 70
     0
102
RTVSPropertyOp16
 70
     0
102
RTVSPropertyOp17
 70
     0
102
RTVSPropertyOp18
 70
     0
102
RTVSPropertyOp19
 70
     0
102
RTVSPropertyOp20
 70
     0
102
RTVSPropertyOp21
 70
     0
102
RTVSPropertyOp22
 70
     0
102
RTVSPropertyOp23
 70
     0
102
RTVSPropertyOp24
 70
     0
102
RTVSPropertyOp25
 70
     0
102
RTVSPropertyOp26
 70
     0
102
RTVSPropertyOp27
 70
     0
102
RTVSPropertyOp28
 70
     1
102
RTVSPropertyOp29
 70
     1
102
RTVSPropertyOp30
 70
     1
102
RTVSPropertyOp31
 70
     1
102
RTVSPropertyOp32
 70
     1
  0
XRECORD
  5
D14F
102
{ACAD_REACTORS
330
D14E
102
}
330
D14E
100
AcDbXrecord
280
     1
102
RTVSPropertyOp0
 70
     1
102
RTVSPropertyOp1
 70
     1
102
RTVSPropertyOp2
 70
     1
102
RTVSPropertyOp3
 70
     1
102
RTVSPropertyOp4
 70
     1
102
RTVSPropertyOp5
 70
     1
102
RTVSPropertyOp6
 70
     1
102
RTVSPropertyOp7
 70
     1
102
RTVSPropertyOp8
 70
     1
102
RTVSPropertyOp9
 70
     1
102
RTVSPropertyOp10
 70
     1
102
RTVSPropertyOp11
 70
     1
102
RTVSPropertyOp12
 70
     1
102
RTVSPropertyOp13
 70
     1
102
RTVSPropertyOp14
 70
     1
102
RTVSPropertyOp15
 70
     1
102
RTVSPropertyOp16
 70
     1
102
RTVSPropertyOp17
 70
     1
102
RTVSPropertyOp18
 70
     1
102
RTVSPropertyOp19
 70
     1
102
RTVSPropertyOp20
 70
     1
102
RTVSPropertyOp21
 70
     1
102
RTVSPropertyOp22
 70
     1
102
RTVSPropertyOp23
 70
     1
102
RTVSPropertyOp24
 70
     1
102
RTVSPropertyOp25
 70
     1
102
RTVSPropertyOp26
 70
     1
102
RTVSPropertyOp27
 70
     1
102
RTVSPropertyOp28
 70
     1
102
RTVSPropertyOp29
 70
     1
102
RTVSPropertyOp30
 70
     1
102
RTVSPropertyOp31
 70
     1
102
RTVSPropertyOp32
 70
     1
  0
XRECORD
  5
D165
102
{ACAD_REACTORS
330
D164
102
}
330
D164
100
AcDbXrecord
280
     1
102
RTVSPropertyOp0
 70
     1
102
RTVSPropertyOp1
 70
     1
102
RTVSPropertyOp2
 70
     1
102
RTVSPropertyOp3
 70
     1
102
RTVSPropertyOp4
 70
     1
102
RTVSPropertyOp5
 70
     1
102
RTVSPropertyOp6
 70
     1
102
RTVSPropertyOp7
 70
     1
102
RTVSPropertyOp8
 70
     1
102
RTVSPropertyOp9
 70
     1
102
RTVSPropertyOp10
 70
     1
102
RTVSPropertyOp11
 70
     1
102
RTVSPropertyOp12
 70
     1
102
RTVSPropertyOp13
 70
     1
102
RTVSPropertyOp14
 70
     1
102
RTVSPropertyOp15
 70
     1
102
RTVSPropertyOp16
 70
     1
102
RTVSPropertyOp17
 70
     1
102
RTVSPropertyOp18
 70
     1
102
RTVSPropertyOp19
 70
     1
102
RTVSPropertyOp20
 70
     1
102
RTVSPropertyOp21
 70
     1
102
RTVSPropertyOp22
 70
     1
102
RTVSPropertyOp23
 70
     1
102
RTVSPropertyOp24
 70
     1
102
RTVSPropertyOp25
 70
     1
102
RTVSPropertyOp26
 70
     1
102
RTVSPropertyOp27
 70
     1
102
RTVSPropertyOp28
 70
     1
102
RTVSPropertyOp29
 70
     1
102
RTVSPropertyOp30
 70
     1
102
RTVSPropertyOp31
 70
     1
102
RTVSPropertyOp32
 70
     1
  0
XRECORD
  5
D163
102
{ACAD_REACTORS
330
D162
102
}
330
D162
100
AcDbXrecord
280
     1
102
RTVSPropertyOp0
 70
     1
102
RTVSPropertyOp1
 70
     1
102
RTVSPropertyOp2
 70
     1
102
RTVSPropertyOp3
 70
     1
102
RTVSPropertyOp4
 70
     1
102
RTVSPropertyOp5
 70
     1
102
RTVSPropertyOp6
 70
     1
102
RTVSPropertyOp7
 70
     1
102
RTVSPropertyOp8
 70
     1
102
RTVSPropertyOp9
 70
     1
102
RTVSPropertyOp10
 70
     1
102
RTVSPropertyOp11
 70
     1
102
RTVSPropertyOp12
 70
     1
102
RTVSPropertyOp13
 70
     1
102
RTVSPropertyOp14
 70
     1
102
RTVSPropertyOp15
 70
     1
102
RTVSPropertyOp16
 70
     1
102
RTVSPropertyOp17
 70
     1
102
RTVSPropertyOp18
 70
     1
102
RTVSPropertyOp19
 70
     1
102
RTVSPropertyOp20
 70
     1
102
RTVSPropertyOp21
 70
     1
102
RTVSPropertyOp22
 70
     1
102
RTVSPropertyOp23
 70
     1
102
RTVSPropertyOp24
 70
     1
102
RTVSPropertyOp25
 70
     1
102
RTVSPropertyOp26
 70
     1
102
RTVSPropertyOp27
 70
     1
102
RTVSPropertyOp28
 70
     1
102
RTVSPropertyOp29
 70
     1
102
RTVSPropertyOp30
 70
     1
102
RTVSPropertyOp31
 70
     1
102
RTVSPropertyOp32
 70
     1
  0
XRECORD
  5
D15D
102
{ACAD_REACTORS
330
D15C
102
}
330
D15C
100
AcDbXrecord
280
     1
102
RTVSPropertyOp0
 70
     1
102
RTVSPropertyOp1
 70
     1
102
RTVSPropertyOp2
 70
     1
102
RTVSPropertyOp3
 70
     1
102
RTVSPropertyOp4
 70
     1
102
RTVSPropertyOp5
 70
     1
102
RTVSPropertyOp6
 70
     1
102
RTVSPropertyOp7
 70
     1
102
RTVSPropertyOp8
 70
     1
102
RTVSPropertyOp9
 70
     1
102
RTVSPropertyOp10
 70
     1
102
RTVSPropertyOp11
 70
     1
102
RTVSPropertyOp12
 70
     1
102
RTVSPropertyOp13
 70
     1
102
RTVSPropertyOp14
 70
     1
102
RTVSPropertyOp15
 70
     1
102
RTVSPropertyOp16
 70
     1
102
RTVSPropertyOp17
 70
     1
102
RTVSPropertyOp18
 70
     1
102
RTVSPropertyOp19
 70
     1
102
RTVSPropertyOp20
 70
     1
102
RTVSPropertyOp21
 70
     1
102
RTVSPropertyOp22
 70
     1
102
RTVSPropertyOp23
 70
     1
102
RTVSPropertyOp24
 70
     1
102
RTVSPropertyOp25
 70
     1
102
RTVSPropertyOp26
 70
     1
102
RTVSPropertyOp27
 70
     1
102
RTVSPropertyOp28
 70
     1
102
RTVSPropertyOp29
 70
     1
102
RTVSPropertyOp30
 70
     1
102
RTVSPropertyOp31
 70
     1
102
RTVSPropertyOp32
 70
     1
  0
XRECORD
  5
D15F
102
{ACAD_REACTORS
330
D15E
102
}
330
D15E
100
AcDbXrecord
280
     1
102
RTVSPropertyOp0
 70
     1
102
RTVSPropertyOp1
 70
     1
102
RTVSPropertyOp2
 70
     1
102
RTVSPropertyOp3
 70
     1
102
RTVSPropertyOp4
 70
     1
102
RTVSPropertyOp5
 70
     1
102
RTVSPropertyOp6
 70
     1
102
RTVSPropertyOp7
 70
     1
102
RTVSPropertyOp8
 70
     1
102
RTVSPropertyOp9
 70
     1
102
RTVSPropertyOp10
 70
     1
102
RTVSPropertyOp11
 70
     1
102
RTVSPropertyOp12
 70
     1
102
RTVSPropertyOp13
 70
     1
102
RTVSPropertyOp14
 70
     1
102
RTVSPropertyOp15
 70
     1
102
RTVSPropertyOp16
 70
     1
102
RTVSPropertyOp17
 70
     1
102
RTVSPropertyOp18
 70
     1
102
RTVSPropertyOp19
 70
     1
102
RTVSPropertyOp20
 70
     1
102
RTVSPropertyOp21
 70
     1
102
RTVSPropertyOp22
 70
     1
102
RTVSPropertyOp23
 70
     1
102
RTVSPropertyOp24
 70
     1
102
RTVSPropertyOp25
 70
     1
102
RTVSPropertyOp26
 70
     1
102
RTVSPropertyOp27
 70
     1
102
RTVSPropertyOp28
 70
     1
102
RTVSPropertyOp29
 70
     1
102
RTVSPropertyOp30
 70
     1
102
RTVSPropertyOp31
 70
     1
102
RTVSPropertyOp32
 70
     1
  0
XRECORD
  5
D155
102
{ACAD_REACTORS
330
D154
102
}
330
D154
100
AcDbXrecord
280
     1
102
RTVSPropertyOp0
 70
     1
102
RTVSPropertyOp1
 70
     1
102
RTVSPropertyOp2
 70
     1
102
RTVSPropertyOp3
 70
     1
102
RTVSPropertyOp4
 70
     1
102
RTVSPropertyOp5
 70
     1
102
RTVSPropertyOp6
 70
     1
102
RTVSPropertyOp7
 70
     1
102
RTVSPropertyOp8
 70
     1
102
RTVSPropertyOp9
 70
     1
102
RTVSPropertyOp10
 70
     1
102
RTVSPropertyOp11
 70
     1
102
RTVSPropertyOp12
 70
     1
102
RTVSPropertyOp13
 70
     1
102
RTVSPropertyOp14
 70
     1
102
RTVSPropertyOp15
 70
     1
102
RTVSPropertyOp16
 70
     1
102
RTVSPropertyOp17
 70
     1
102
RTVSPropertyOp18
 70
     1
102
RTVSPropertyOp19
 70
     1
102
RTVSPropertyOp20
 70
     1
102
RTVSPropertyOp21
 70
     1
102
RTVSPropertyOp22
 70
     1
102
RTVSPropertyOp23
 70
     1
102
RTVSPropertyOp24
 70
     1
102
RTVSPropertyOp25
 70
     1
102
RTVSPropertyOp26
 70
     1
102
RTVSPropertyOp27
 70
     1
102
RTVSPropertyOp28
 70
     1
102
RTVSPropertyOp29
 70
     1
102
RTVSPropertyOp30
 70
     1
102
RTVSPropertyOp31
 70
     1
102
RTVSPropertyOp32
 70
     1
  0
XRECORD
  5
D149
102
{ACAD_REACTORS
330
D148
102
}
330
D148
100
AcDbXrecord
280
     1
102
RTVSPropertyOp0
 70
     1
102
RTVSPropertyOp1
 70
     1
102
RTVSPropertyOp2
 70
     1
102
RTVSPropertyOp3
 70
     1
102
RTVSPropertyOp4
 70
     1
102
RTVSPropertyOp5
 70
     1
102
RTVSPropertyOp6
 70
     1
102
RTVSPropertyOp7
 70
     1
102
RTVSPropertyOp8
 70
     1
102
RTVSPropertyOp9
 70
     1
102
RTVSPropertyOp10
 70
     1
102
RTVSPropertyOp11
 70
     1
102
RTVSPropertyOp12
 70
     1
102
RTVSPropertyOp13
 70
     1
102
RTVSPropertyOp14
 70
     1
102
RTVSPropertyOp15
 70
     1
102
RTVSPropertyOp16
 70
     1
102
RTVSPropertyOp17
 70
     1
102
RTVSPropertyOp18
 70
     1
102
RTVSPropertyOp19
 70
     1
102
RTVSPropertyOp20
 70
     1
102
RTVSPropertyOp21
 70
     1
102
RTVSPropertyOp22
 70
     1
102
RTVSPropertyOp23
 70
     1
102
RTVSPropertyOp24
 70
     1
102
RTVSPropertyOp25
 70
     1
102
RTVSPropertyOp26
 70
     1
102
RTVSPropertyOp27
 70
     1
102
RTVSPropertyOp28
 70
     1
102
RTVSPropertyOp29
 70
     1
102
RTVSPropertyOp30
 70
     1
102
RTVSPropertyOp31
 70
     1
102
RTVSPropertyOp32
 70
     1
  0
XRECORD
  5
D161
102
{ACAD_REACTORS
330
D160
102
}
330
D160
100
AcDbXrecord
280
     1
102
RTVSPropertyOp0
 70
     1
102
RTVSPropertyOp1
 70
     1
102
RTVSPropertyOp2
 70
     1
102
RTVSPropertyOp3
 70
     1
102
RTVSPropertyOp4
 70
     1
102
RTVSPropertyOp5
 70
     1
102
RTVSPropertyOp6
 70
     1
102
RTVSPropertyOp7
 70
     1
102
RTVSPropertyOp8
 70
     1
102
RTVSPropertyOp9
 70
     1
102
RTVSPropertyOp10
 70
     1
102
RTVSPropertyOp11
 70
     1
102
RTVSPropertyOp12
 70
     1
102
RTVSPropertyOp13
 70
     1
102
RTVSPropertyOp14
 70
     1
102
RTVSPropertyOp15
 70
     1
102
RTVSPropertyOp16
 70
     1
102
RTVSPropertyOp17
 70
     1
102
RTVSPropertyOp18
 70
     1
102
RTVSPropertyOp19
 70
     1
102
RTVSPropertyOp20
 70
     1
102
RTVSPropertyOp21
 70
     1
102
RTVSPropertyOp22
 70
     1
102
RTVSPropertyOp23
 70
     1
102
RTVSPropertyOp24
 70
     1
102
RTVSPropertyOp25
 70
     1
102
RTVSPropertyOp26
 70
     1
102
RTVSPropertyOp27
 70
     1
102
RTVSPropertyOp28
 70
     1
102
RTVSPropertyOp29
 70
     1
102
RTVSPropertyOp30
 70
     1
102
RTVSPropertyOp31
 70
     1
102
RTVSPropertyOp32
 70
     1
  0
ENDSEC
  0
EOF
