  0
SECTION
  2
HEADER
  9
$ACADVER
  1
AC1018
  9
$ACADMAINTVER
 70
   104
  9
$DWGCODEPAGE
  3
ANSI_932
  9
$LASTSAVEDBY
  1
HON1000CV
  9
$INSBASE
 10
0.0
 20
0.0
 30
0.0
  9
$EXTMIN
 10
1290.330909014711
 20
3593.898187199265
 30
0.0
  9
$EXTMAX
 10
3034.477663972858
 20
4861.908956964082
 30
0.0
  9
$LIMMIN
 10
0.0
 20
0.0
  9
$LIMMAX
 10
420.0
 20
297.0
  9
$ORTHOMODE
 70
     0
  9
$REGENMODE
 70
     1
  9
$FILLMODE
 70
     1
  9
$QTEXTMODE
 70
     0
  9
$MIRRTEXT
 70
     1
  9
$LTSCALE
 40
10.0
  9
$ATTMODE
 70
     1
  9
$TEXTSIZE
 40
50.0
  9
$TRACEWID
 40
0.05
  9
$TEXTSTYLE
  7
ACAD
  9
$CLAYER
  8
0
  9
$CELTYPE
  6
CONTINUOUS
  9
$CECOLOR
 62
     3
  9
$CELTSCALE
 40
1.0
  9
$DISPSILH
 70
     0
  9
$DIMSCALE
 40
1.0
  9
$DIMASZ
 40
20.0
  9
$DIMEXO
 40
0.0625
  9
$DIMDLI
 40
0.38
  9
$DIMRND
 40
0.0
  9
$DIMDLE
 40
0.0
  9
$DIMEXE
 40
0.18
  9
$DIMTP
 40
0.0
  9
$DIMTM
 40
0.0
  9
$DIMTXT
 40
50.0
  9
$DIMCEN
 40
20.0
  9
$DIMTSZ
 40
0.0
  9
$DIMTOL
 70
     0
  9
$DIMLIM
 70
     0
  9
$DIMTIH
 70
     1
  9
$DIMTOH
 70
     1
  9
$DIMSE1
 70
     0
  9
$DIMSE2
 70
     0
  9
$DIMTAD
 70
     0
  9
$DIMZIN
 70
     0
  9
$DIMBLK
  1
Open30
  9
$DIMASO
 70
     1
  9
$DIMSHO
 70
     1
  9
$DIMPOST
  1

  9
$DIMAPOST
  1

  9
$DIMALT
 70
     0
  9
$DIMALTD
 70
     2
  9
$DIMALTF
 40
25.4
  9
$DIMLFAC
 40
1.0
  9
$DIMTOFL
 70
     0
  9
$DIMTVP
 40
0.0
  9
$DIMTIX
 70
     0
  9
$DIMSOXD
 70
     0
  9
$DIMSAH
 70
     0
  9
$DIMBLK1
  1

  9
$DIMBLK2
  1

  9
$DIMSTYLE
  2
Standard
  9
$DIMCLRD
 70
     0
  9
$DIMCLRE
 70
     0
  9
$DIMCLRT
 70
     0
  9
$DIMTFAC
 40
1.0
  9
$DIMGAP
 40
0.09
  9
$DIMJUST
 70
     0
  9
$DIMSD1
 70
     0
  9
$DIMSD2
 70
     0
  9
$DIMTOLJ
 70
     1
  9
$DIMTZIN
 70
     0
  9
$DIMALTZ
 70
     0
  9
$DIMALTTZ
 70
     0
  9
$DIMUPT
 70
     0
  9
$DIMDEC
 70
     4
  9
$DIMTDEC
 70
     4
  9
$DIMALTU
 70
     2
  9
$DIMALTTD
 70
     2
  9
$DIMTXSTY
  7
STANDARD
  9
$DIMAUNIT
 70
     0
  9
$DIMADEC
 70
     0
  9
$DIMALTRND
 40
0.0
  9
$DIMAZIN
 70
     0
  9
$DIMDSEP
 70
    46
  9
$DIMATFIT
 70
     3
  9
$DIMFRAC
 70
     0
  9
$DIMLDRBLK
  1
Open30
  9
$DIMLUNIT
 70
     2
  9
$DIMLWD
 70
    -2
  9
$DIMLWE
 70
    -2
  9
$DIMTMOVE
 70
     0
  9
$LUNITS
 70
     2
  9
$LUPREC
 70
     4
  9
$SKETCHINC
 40
0.1
  9
$FILLETRAD
 40
0.0
  9
$AUNITS
 70
     0
  9
$AUPREC
 70
     0
  9
$MENU
  1
.
  9
$ELEVATION
 40
0.0
  9
$PELEVATION
 40
0.0
  9
$THICKNESS
 40
0.0
  9
$LIMCHECK
 70
     0
  9
$CHAMFERA
 40
0.0
  9
$CHAMFERB
 40
0.0
  9
$CHAMFERC
 40
0.0
  9
$CHAMFERD
 40
0.0
  9
$SKPOLY
 70
     0
  9
$TDCREATE
 40
2454316.693457674
  9
$TDUCREATE
 40
2454316.318457674
  9
$TDUPDATE
 40
2455961.450074607
  9
$TDUUPDATE
 40
2455961.075074607
  9
$TDINDWG
 40
0.5636867940
  9
$TDUSRTIMER
 40
0.5636867940
  9
$USRTIMER
 70
     1
  9
$ANGBASE
 50
0.0
  9
$ANGDIR
 70
     0
  9
$PDMODE
 70
     0
  9
$PDSIZE
 40
0.0
  9
$PLINEWID
 40
0.0
  9
$SPLFRAME
 70
     0
  9
$SPLINETYPE
 70
     6
  9
$SPLINESEGS
 70
     8
  9
$HANDSEED
  5
D16C
  9
$SURFTAB1
 70
     6
  9
$SURFTAB2
 70
     6
  9
$SURFTYPE
 70
     6
  9
$SURFU
 70
     6
  9
$SURFV
 70
     6
  9
$UCSBASE
  2

  9
$UCSNAME
  2

  9
$UCSORG
 10
0.0
 20
0.0
 30
0.0
  9
$UCSXDIR
 10
1.0
 20
0.0
 30
0.0
  9
$UCSYDIR
 10
0.0
 20
1.0
 30
0.0
  9
$UCSORTHOREF
  2

  9
$UCSORTHOVIEW
 70
     0
  9
$UCSORGTOP
 10
0.0
 20
0.0
 30
0.0
  9
$UCSORGBOTTOM
 10
0.0
 20
0.0
 30
0.0
  9
$UCSORGLEFT
 10
0.0
 20
0.0
 30
0.0
  9
$UCSORGRIGHT
 10
0.0
 20
0.0
 30
0.0
  9
$UCSORGFRONT
 10
0.0
 20
0.0
 30
0.0
  9
$UCSORGBACK
 10
0.0
 20
0.0
 30
0.0
  9
$PUCSBASE
  2

  9
$PUCSNAME
  2

  9
$PUCSORG
 10
0.0
 20
0.0
 30
0.0
  9
$PUCSXDIR
 10
1.0
 20
0.0
 30
0.0
  9
$PUCSYDIR
 10
0.0
 20
1.0
 30
0.0
  9
$PUCSORTHOREF
  2

  9
$PUCSORTHOVIEW
 70
     0
  9
$PUCSORGTOP
 10
0.0
 20
0.0
 30
0.0
  9
$PUCSORGBOTTOM
 10
0.0
 20
0.0
 30
0.0
  9
$PUCSORGLEFT
 10
0.0
 20
0.0
 30
0.0
  9
$PUCSORGRIGHT
 10
0.0
 20
0.0
 30
0.0
  9
$PUCSORGFRONT
 10
0.0
 20
0.0
 30
0.0
  9
$PUCSORGBACK
 10
0.0
 20
0.0
 30
0.0
  9
$USERI1
 70
     0
  9
$USERI2
 70
     0
  9
$USERI3
 70
     0
  9
$USERI4
 70
     0
  9
$USERI5
 70
     0
  9
$USERR1
 40
0.0
  9
$USERR2
 40
0.0
  9
$USERR3
 40
0.0
  9
$USERR4
 40
0.0
  9
$USERR5
 40
0.0
  9
$WORLDVIEW
 70
     1
  9
$SHADEDGE
 70
     3
  9
$SHADEDIF
 70
    70
  9
$TILEMODE
 70
     1
  9
$MAXACTVP
 70
    48
  9
$PINSBASE
 10
0.0
 20
0.0
 30
0.0
  9
$PLIMCHECK
 70
     0
  9
$PEXTMIN
 10
1.000000000000000E+20
 20
1.000000000000000E+20
 30
1.000000000000000E+20
  9
$PEXTMAX
 10
-1.000000000000000E+20
 20
-1.000000000000000E+20
 30
-1.000000000000000E+20
  9
$PLIMMIN
 10
0.0
 20
0.0
  9
$PLIMMAX
 10
12.0
 20
9.0
  9
$UNITMODE
 70
     0
  9
$VISRETAIN
 70
     0
  9
$PLINEGEN
 70
     0
  9
$PSLTSCALE
 70
     1
  9
$TREEDEPTH
 70
  3020
  9
$CMLSTYLE
  2
Standard
  9
$CMLJUST
 70
     0
  9
$CMLSCALE
 40
1.0
  9
$PROXYGRAPHICS
 70
     1
  9
$MEASUREMENT
 70
     0
  9
$CELWEIGHT
370
    -1
  9
$ENDCAPS
280
     0
  9
$JOINSTYLE
280
     0
  9
$LWDISPLAY
290
     0
  9
$INSUNITS
 70
     0
  9
$HYPERLINKBASE
  1

  9
$STYLESHEET
  1
monochrome.ctb
  9
$XEDIT
290
     1
  9
$CEPSNTYPE
380
     0
  9
$PSTYLEMODE
290
     1
  9
$FINGERPRINTGUID
  2
{CC7D6DEE-A9F1-4F3E-AC95-C84B62CCA3FD}
  9
$VERSIONGUID
  2
{1228B742-EAF2-4813-8086-6D4929080940}
  9
$EXTNAMES
290
     1
  9
$PSVPSCALE
 40
0.0
  9
$OLESTARTUP
290
     0
  9
$SORTENTS
280
   127
  9
$INDEXCTL
280
     0
  9
$HIDETEXT
280
     0
  9
$XCLIPFRAME
290
     0
  9
$HALOGAP
280
     0
  9
$OBSCOLOR
 70
   257
  9
$OBSLTYPE
280
     0
  9
$INTERSECTIONDISPLAY
280
     0
  9
$INTERSECTIONCOLOR
 70
   257
  9
$DIMASSOC
280
     1
  9
$PROJECTNAME
  1

  0
ENDSEC
  0
SECTION
  2
CLASSES
  0
CLASS
  1
ACDBDICTIONARYWDFLT
  2
AcDbDictionaryWithDefault
  3
ObjectDBX Classes
 90
        0
 91
        1
280
     0
281
     0
  0
CLASS
  1
DICTIONARYVAR
  2
AcDbDictionaryVar
  3
ObjectDBX Classes
 90
        0
 91
        8
280
     0
281
     0
  0
CLASS
  1
TABLESTYLE
  2
AcDbTableStyle
  3
ObjectDBX Classes
 90
     4095
 91
        1
280
     0
281
     0
  0
CLASS
  1
MATERIAL
  2
AcDbMaterial
  3
ObjectDBX Classes
 90
     1153
 91
        3
280
     0
281
     0
  0
CLASS
  1
VISUALSTYLE
  2
AcDbVisualStyle
  3
ObjectDBX Classes
 90
     4095
 91
       24
280
     0
281
     0
  0
CLASS
  1
SCALE
  2
AcDbScale
  3
ObjectDBX Classes
 90
     1153
 91
       17
280
     0
281
     0
  0
CLASS
  1
MLEADERSTYLE
  2
AcDbMLeaderStyle
  3
ACDB_MLEADERSTYLE_CLASS
 90
     4095
 91
        1
280
     0
281
     0
  0
CLASS
  1
SORTENTSTABLE
  2
AcDbSortentsTable
  3
ObjectDBX Classes
 90
        0
 91
        1
280
     0
281
     0
  0
CLASS
  1
CELLSTYLEMAP
  2
AcDbCellStyleMap
  3
ObjectDBX Classes
 90
     1152
 91
        2
280
     0
281
     0
  0
ENDSEC
  0
SECTION
  2
TABLES
  0
TABLE
  2
VPORT
  5
8
102
{ACAD_XDICTIONARY
360
C00A
102
}
330
0
100
AcDbSymbolTable
 70
     1
  0
VPORT
  5
765D
330
8
100
AcDbSymbolTableRecord
100
AcDbViewportTableRecord
  2
*Active
 70
     0
 10
0.0
 20
0.0
 11
1.0
 21
1.0
 12
2162.436548035264
 22
4227.835954040622
 13
0.0
 23
0.0
 14
1.0
 24
1.0
 15
0.0
 25
0.0
 16
0.0
 26
0.0
 36
1.0
 17
0.0
 27
0.0
 37
0.0
 40
1278.796547925821
 41
2.519736842105263
 42
50.0
 43
0.0
 44
0.0
 50
0.0
 51
0.0
 71
     0
 72
   100
 73
     1
 74
     1
 75
     0
 76
     0
 77
     0
 78
     0
281
     0
 65
     1
110
0.0
120
0.0
130
0.0
111
1.0
121
0.0
131
0.0
112
0.0
122
1.0
132
0.0
 79
     0
146
0.0
1001
ACAD_NAV_VCDISPLAY
1070
     3
  0
ENDTAB
  0
TABLE
  2
LTYPE
  5
5
330
0
100
AcDbSymbolTable
 70
     2
  0
LTYPE
  5
13
330
5
100
AcDbSymbolTableRecord
100
AcDbLinetypeTableRecord
  2
ByBlock
 70
     0
  3

 72
    65
 73
     0
 40
0.0
  0
LTYPE
  5
14
330
5
100
AcDbSymbolTableRecord
100
AcDbLinetypeTableRecord
  2
ByLayer
 70
     0
  3

 72
    65
 73
     0
 40
0.0
  0
LTYPE
  5
15
330
5
100
AcDbSymbolTableRecord
100
AcDbLinetypeTableRecord
  2
CONTINUOUS
 70
     0
  3
実線
 72
    65
 73
     0
 40
0.0
  0
LTYPE
  5
25
330
5
100
AcDbSymbolTableRecord
100
AcDbLinetypeTableRecord
  2
CENTER1
 70
     0
  3
----- - ----- - ----- - ----- - 
 72
    65
 73
     4
 40
10.0
 49
6.25
 74
     0
 49
-1.25
 74
     0
 49
1.25
 74
     0
 49
-1.25
 74
     0
  0
ENDTAB
  0
TABLE
  2
LAYER
  5
2
102
{ACAD_XDICTIONARY
360
175
102
}
330
0
100
AcDbSymbolTable
 70
     6
  0
LAYER
  5
10
102
{ACAD_XDICTIONARY
360
908C
102
}
330
2
100
AcDbSymbolTableRecord
100
AcDbLayerTableRecord
  2
0
 70
     0
 62
     7
  6
CONTINUOUS
370
    -3
390
F
  0
LAYER
  5
128
330
2
100
AcDbSymbolTableRecord
100
AcDbLayerTableRecord
  2
Defpoints
 70
     0
 62
     7
  6
CONTINUOUS
290
     0
370
    -3
390
F
  0
LAYER
  5
178
102
{ACAD_XDICTIONARY
360
908E
102
}
330
2
100
AcDbSymbolTableRecord
100
AcDbLayerTableRecord
  2
寸法
 70
     0
 62
     7
  6
CONTINUOUS
370
    -3
390
F
  0
LAYER
  5
179
102
{ACAD_XDICTIONARY
360
9090
102
}
330
2
100
AcDbSymbolTableRecord
100
AcDbLayerTableRecord
  2
躯体と製品
 70
     0
 62
     7
  6
CONTINUOUS
370
    -3
390
F
  0
LAYER
  5
4F62
102
{ACAD_XDICTIONARY
360
9092
102
}
330
2
100
AcDbSymbolTableRecord
100
AcDbLayerTableRecord
  2
文字-記号
 70
     0
 62
     7
  6
CONTINUOUS
370
    -3
390
F
  0
LAYER
  5
76F3
102
{ACAD_XDICTIONARY
360
9094
102
}
330
2
100
AcDbSymbolTableRecord
100
AcDbLayerTableRecord
  2
中心線
 70
     0
 62
     7
  6
CONTINUOUS
370
    -3
390
F
1001
AcAecLayerStandard
1000

1000

1001
AcCmTransparency
1071
        0
  0
ENDTAB
  0
TABLE
  2
STYLE
  5
3
330
0
100
AcDbSymbolTable
 70
     2
  0
STYLE
  5
11
330
3
100
AcDbSymbolTableRecord
100
AcDbTextStyleTableRecord
  2
STANDARD
 70
     0
 40
0.0
 41
1.0
 50
0.0
 71
     0
 42
0.2
  3
txt
  4
bigfont.shx
  0
STYLE
  5
123
330
3
100
AcDbSymbolTableRecord
100
AcDbTextStyleTableRecord
  2
ACAD
 70
     0
 40
50.0
 41
0.8
 50
0.0
 71
     0
 42
50.0
  3
romans.shx
  4
extfont.shx
  0
ENDTAB
  0
TABLE
  2
VIEW
  5
6
330
0
100
AcDbSymbolTable
 70
     0
  0
ENDTAB
  0
TABLE
  2
UCS
  5
7
330
0
100
AcDbSymbolTable
 70
     0
  0
ENDTAB
  0
TABLE
  2
APPID
  5
9
330
0
100
AcDbSymbolTable
 70
    18
  0
APPID
  5
12
330
9
100
AcDbSymbolTableRecord
100
AcDbRegAppTableRecord
  2
ACAD
 70
     0
  0
APPID
  5
727D
330
9
100
AcDbSymbolTableRecord
100
AcDbRegAppTableRecord
  2
ACAD_DSTYLE_DIMTEXT_FILL
 70
     0
  0
APPID
  5
727E
330
9
100
AcDbSymbolTableRecord
100
AcDbRegAppTableRecord
  2
ACAD_DSTYLE_DIMEXT_LENGTH
 70
     0
  0
APPID
  5
727F
330
9
100
AcDbSymbolTableRecord
100
AcDbRegAppTableRecord
  2
ACAD_DSTYLE_DIMEXT_ENABLED
 70
     0
  0
APPID
  5
7280
330
9
100
AcDbSymbolTableRecord
100
AcDbRegAppTableRecord
  2
ACAD_DSTYLE_DIM_LINETYPE
 70
     0
  0
APPID
  5
7281
330
9
100
AcDbSymbolTableRecord
100
AcDbRegAppTableRecord
  2
ACAD_DSTYLE_DIM_EXT1_LINETYPE
 70
     0
  0
APPID
  5
7282
330
9
100
AcDbSymbolTableRecord
100
AcDbRegAppTableRecord
  2
ACAD_DSTYLE_DIM_EXT2_LINETYPE
 70
     0
  0
APPID
  5
736E
330
9
100
AcDbSymbolTableRecord
100
AcDbRegAppTableRecord
  2
ACAD_DSTYLE_DIMJOGGED_JOGANGLE_SYMBOL
 70
     0
  0
APPID
  5
75B2
330
9
100
AcDbSymbolTableRecord
100
AcDbRegAppTableRecord
  2
ACAD_DSTYLE_DIMARC_LENGTH_SYMBOL
 70
     0
  0
APPID
  5
76F4
330
9
100
AcDbSymbolTableRecord
100
AcDbRegAppTableRecord
  2
ACAD_NAV_VCDISPLAY
 70
     0
  0
APPID
  5
76F5
330
9
100
AcDbSymbolTableRecord
100
AcDbRegAppTableRecord
  2
AcAecLayerStandard
 70
     0
  0
APPID
  5
76F6
330
9
100
AcDbSymbolTableRecord
100
AcDbRegAppTableRecord
  2
AcCmTransparency
 70
     0
  0
APPID
  5
8CF1
330
9
100
AcDbSymbolTableRecord
100
AcDbRegAppTableRecord
  2
ACAD_EXEMPT_FROM_CAD_STANDARDS
 70
     0
  0
APPID
  5
8F48
330
9
100
AcDbSymbolTableRecord
100
AcDbRegAppTableRecord
  2
ACAD_DSTYLE_DIMJAG
 70
     0
  0
APPID
  5
8F49
330
9
100
AcDbSymbolTableRecord
100
AcDbRegAppTableRecord
  2
ACAD_DSTYLE_DIMTALN
 70
     0
  0
APPID
  5
915C
330
9
100
AcDbSymbolTableRecord
100
AcDbRegAppTableRecord
  2
ACAD_PSEXT
 70
     0
  0
APPID
  5
B13E
330
9
100
AcDbSymbolTableRecord
100
AcDbRegAppTableRecord
  2
AcadAnnoPO
 70
     0
  0
APPID
  5
C040
330
9
100
AcDbSymbolTableRecord
100
AcDbRegAppTableRecord
  2
ACAD_MLEADERVER
 70
     0
  0
ENDTAB
  0
TABLE
  2
DIMSTYLE
  5
A
330
0
100
AcDbSymbolTable
 70
     2
100
AcDbDimStyleTable
 71
     2
340
11C
340
126
  0
DIMSTYLE
105
11C
330
A
100
AcDbSymbolTableRecord
100
AcDbDimStyleTableRecord
  2
Standard
 70
     0
 41
20.0
140
50.0
141
20.0
340
11
341
2CB5
342
2CB5
1001
ACAD_DSTYLE_DIMJOGGED_JOGANGLE_SYMBOL
1070
   384
1040
0.7853981633974483
1001
ACAD_DSTYLE_DIMJAG
1070
   388
1040
1.5
1001
ACAD_DSTYLE_DIMTALN
1070
   392
1070
     0
1001
ACAD_DSTYLE_DIMEXT_LENGTH
1070
   378
1040
0.18
  0
DIMSTYLE
105
126
102
{ACAD_REACTORS
330
6FC0
330
6FCD
330
6FE7
330
6FF4
330
AFA6
330
AFA7
102
}
330
A
100
AcDbSymbolTableRecord
100
AcDbDimStyleTableRecord
  2
AutoCAD
 70
     0
 41
10.0
 42
0.0
 44
0.0
 73
     0
 77
     1
140
50.0
147
15.0
174
     1
176
     4
177
     4
178
     3
271
     0
272
     0
289
     0
340
123
341
15B0
342
C274
1001
ACAD_DSTYLE_DIMJAG
1070
   388
1040
1.5
1001
ACAD_DSTYLE_DIMTALN
1070
   392
1070
     0
  0
ENDTAB
  0
TABLE
  2
BLOCK_RECORD
  5
1
330
0
100
AcDbSymbolTable
 70
     9
  0
BLOCK_RECORD
  5
1E
102
{ACAD_XDICTIONARY
360
28B
102
}
330
1
100
AcDbSymbolTableRecord
100
AcDbBlockTableRecord
  2
*Model_Space
340
21
  0
BLOCK_RECORD
  5
1A
102
{ACAD_XDICTIONARY
360
28D
102
}
330
1
100
AcDbSymbolTableRecord
100
AcDbBlockTableRecord
  2
*Paper_Space
340
1D
  0
BLOCK_RECORD
  5
15B0
330
1
100
AcDbSymbolTableRecord
100
AcDbBlockTableRecord
  2
_None
340
0
  0
BLOCK_RECORD
  5
2CB5
330
1
100
AcDbSymbolTableRecord
100
AcDbBlockTableRecord
  2
_Open30
340
0
  0
BLOCK_RECORD
  5
6FC1
330
1
100
AcDbSymbolTableRecord
100
AcDbBlockTableRecord
  2
*D2
340
0
  0
BLOCK_RECORD
  5
6FCE
330
1
100
AcDbSymbolTableRecord
100
AcDbBlockTableRecord
  2
*D3
340
0
  0
BLOCK_RECORD
  5
6FE8
330
1
100
AcDbSymbolTableRecord
100
AcDbBlockTableRecord
  2
*D4
340
0
  0
BLOCK_RECORD
  5
6FF5
330
1
100
AcDbSymbolTableRecord
100
AcDbBlockTableRecord
  2
*D5
340
0
  0
BLOCK_RECORD
  5
AFA8
330
1
100
AcDbSymbolTableRecord
100
AcDbBlockTableRecord
  2
*D6
340
0
  0
BLOCK_RECORD
  5
AFB4
330
1
100
AcDbSymbolTableRecord
100
AcDbBlockTableRecord
  2
*D7
340
0
  0
BLOCK_RECORD
  5
C274
330
1
100
AcDbSymbolTableRecord
100
AcDbBlockTableRecord
  2
_Small
340
0
102
{BLKREFS
331
CF3F
331
CF40
331
CF48
331
CF49
331
CF51
331
CF52
331
CF5A
331
CF5B
331
CFEA
331
CFEB
331
CFF3
331
CFF4
102
}
  0
ENDTAB
  0
ENDSEC
  0
SECTION
  2
BLOCKS
  0
BLOCK
  5
1F
330
1E
100
AcDbEntity
  8
0
100
AcDbBlockBegin
  2
*Model_Space
 70
     0
 10
0.0
 20
0.0
 30
0.0
  3
*Model_Space
  1

  0
ENDBLK
  5
20
330
1E
100
AcDbEntity
  8
0
100
AcDbBlockEnd
  0
BLOCK
  5
1B
330
1A
100
AcDbEntity
 67
     1
  8
0
100
AcDbBlockBegin
  2
*Paper_Space
 70
     0
 10
0.0
 20
0.0
 30
0.0
  3
*Paper_Space
  1

  0
ENDBLK
  5
1C
330
1A
100
AcDbEntity
 67
     1
  8
0
100
AcDbBlockEnd
  0
BLOCK
  5
15B1
330
15B0
100
AcDbEntity
  8
0
100
AcDbBlockBegin
  2
_None
 70
     0
 10
0.0
 20
0.0
 30
0.0
  3
_None
  1

  0
ENDBLK
  5
15B2
330
15B0
100
AcDbEntity
  8
0
100
AcDbBlockEnd
  0
BLOCK
  5
2CB9
330
2CB5
100
AcDbEntity
  8
0
100
AcDbBlockBegin
  2
_Open30
 70
     0
 10
0.0
 20
0.0
 30
0.0
  3
_Open30
  1

  0
LINE
  5
2CB6
330
2CB5
100
AcDbEntity
  8
0
  6
ByBlock
 62
     0
370
    -2
100
AcDbLine
 10
-1.0
 20
0.26794919
 30
0.0
 11
0.0
 21
0.0
 31
0.0
  0
LINE
  5
2CB7
330
2CB5
100
AcDbEntity
  8
0
  6
ByBlock
 62
     0
370
    -2
100
AcDbLine
 10
0.0
 20
0.0
 30
0.0
 11
-1.0
 21
-0.26794919
 31
0.0
  0
LINE
  5
2CB8
330
2CB5
100
AcDbEntity
  8
0
  6
ByBlock
 62
     0
370
    -2
100
AcDbLine
 10
0.0
 20
0.0
 30
0.0
 11
-1.0
 21
0.0
 31
0.0
  0
ENDBLK
  5
2CBA
330
2CB5
100
AcDbEntity
  8
0
100
AcDbBlockEnd
  0
BLOCK
  5
6FCB
330
6FC1
100
AcDbEntity
  8
0
100
AcDbBlockBegin
  2
*D2
 70
     1
 10
0.0
 20
0.0
 30
0.0
  3
*D2
  1

  0
LINE
  5
CF3C
330
6FC1
100
AcDbEntity
  8
寸法
  6
Continuous
 62
     4
440
 16777216
370
    -2
100
AcDbLine
 10
2140.687619014713
 20
4202.437427199265
 30
0.0
 11
2140.687619014713
 21
4252.377977199265
 31
0.0
  0
LINE
  5
CF3D
330
6FC1
100
AcDbEntity
  8
寸法
  6
Continuous
 62
     4
440
 16777216
370
    -2
100
AcDbLine
 10
2440.330909014712
 20
4202.437427199265
 30
0.0
 11
2440.330909014712
 21
4252.377977199265
 31
0.0
  0
LINE
  5
CF3E
330
6FC1
100
AcDbEntity
  8
寸法
  6
Continuous
 62
     4
440
 16777216
370
    -2
100
AcDbLine
 10
2140.687619014713
 20
4252.377977199265
 30
0.0
 11
2440.330909014712
 21
4252.377977199265
 31
0.0
  0
INSERT
  5
CF3F
330
6FC1
100
AcDbEntity
  8
寸法
  6
Continuous
 62
     4
440
 16777216
370
    -2
100
AcDbBlockReference
  2
_Small
 10
2140.687619014713
 20
4252.377977199265
 30
0.0
 41
10.0
 42
10.0
 43
10.0
 50
180.0
  0
INSERT
  5
CF40
330
6FC1
100
AcDbEntity
  8
寸法
  6
Continuous
 62
     4
440
 16777216
370
    -2
100
AcDbBlockReference
  2
_Small
 10
2440.330909014712
 20
4252.377977199265
 30
0.0
 41
10.0
 42
10.0
 43
10.0
  0
MTEXT
  5
CF41
330
6FC1
100
AcDbEntity
  8
寸法
  6
Continuous
 62
     3
440
 16777216
100
AcDbMText
 10
2290.509264014712
 20
4292.377977199264
 30
0.0
 40
50.0
 41
0.0
 71
     5
 72
     1
  1
\A1;300
  7
ACAD
 73
     1
 44
1.0
  0
POINT
  5
CF42
330
6FC1
100
AcDbEntity
  8
Defpoints
  6
Continuous
 62
     0
440
 16777216
100
AcDbPoint
 10
2140.687619014713
 20
4202.437427199265
 30
0.0
  0
POINT
  5
CF43
330
6FC1
100
AcDbEntity
  8
Defpoints
  6
Continuous
 62
     0
440
 16777216
100
AcDbPoint
 10
2440.330909014712
 20
4202.437427199265
 30
0.0
  0
POINT
  5
CF44
330
6FC1
100
AcDbEntity
  8
Defpoints
  6
Continuous
 62
     0
440
 16777216
100
AcDbPoint
 10
2440.330909014712
 20
4252.377977199265
 30
0.0
  0
ENDBLK
  5
6FCC
330
6FC1
100
AcDbEntity
  8
0
100
AcDbBlockEnd
  0
BLOCK
  5
6FD8
330
6FCE
100
AcDbEntity
  8
0
100
AcDbBlockBegin
  2
*D3
 70
     1
 10
0.0
 20
0.0
 30
0.0
  3
*D3
  1

  0
LINE
  5
CF45
330
6FCE
100
AcDbEntity
  8
寸法
  6
Continuous
 62
     4
440
 16777216
370
    -2
100
AcDbLine
 10
2440.330909014712
 20
4202.437427199265
 30
0.0
 11
2440.330909014712
 21
4252.377977199265
 31
0.0
  0
LINE
  5
CF46
330
6FCE
100
AcDbEntity
  8
寸法
  6
Continuous
 62
     4
440
 16777216
370
    -2
100
AcDbLine
 10
2739.974189014712
 20
4202.437427199265
 30
0.0
 11
2739.974189014712
 21
4252.377977199265
 31
0.0
  0
LINE
  5
CF47
330
6FCE
100
AcDbEntity
  8
寸法
  6
Continuous
 62
     4
440
 16777216
370
    -2
100
AcDbLine
 10
2440.330909014712
 20
4252.377977199265
 30
0.0
 11
2739.974189014712
 21
4252.377977199265
 31
0.0
  0
INSERT
  5
CF48
330
6FCE
100
AcDbEntity
  8
寸法
  6
Continuous
 62
     4
440
 16777216
370
    -2
100
AcDbBlockReference
  2
_Small
 10
2440.330909014712
 20
4252.377977199265
 30
0.0
 41
10.0
 42
10.0
 43
10.0
 50
180.0
  0
INSERT
  5
CF49
330
6FCE
100
AcDbEntity
  8
寸法
  6
Continuous
 62
     4
440
 16777216
370
    -2
100
AcDbBlockReference
  2
_Small
 10
2739.974189014712
 20
4252.377977199265
 30
0.0
 41
10.0
 42
10.0
 43
10.0
  0
MTEXT
  5
CF4A
330
6FCE
100
AcDbEntity
  8
寸法
  6
Continuous
 62
     3
440
 16777216
100
AcDbMText
 10
2590.152549014712
 20
4292.377977199264
 30
0.0
 40
50.0
 41
0.0
 71
     5
 72
     1
  1
\A1;300
  7
ACAD
 73
     1
 44
1.0
  0
POINT
  5
CF4B
330
6FCE
100
AcDbEntity
  8
Defpoints
  6
Continuous
 62
     0
440
 16777216
100
AcDbPoint
 10
2440.330909014712
 20
4202.437427199265
 30
0.0
  0
POINT
  5
CF4C
330
6FCE
100
AcDbEntity
  8
Defpoints
  6
Continuous
 62
     0
440
 16777216
100
AcDbPoint
 10
2739.974189014712
 20
4202.437427199265
 30
0.0
  0
POINT
  5
CF4D
330
6FCE
100
AcDbEntity
  8
Defpoints
  6
Continuous
 62
     0
440
 16777216
100
AcDbPoint
 10
2739.974189014712
 20
4252.377977199265
 30
0.0
  0
ENDBLK
  5
6FD9
330
6FCE
100
AcDbEntity
  8
0
100
AcDbBlockEnd
  0
BLOCK
  5
6FF2
330
6FE8
100
AcDbEntity
  8
0
100
AcDbBlockBegin
  2
*D4
 70
     1
 10
0.0
 20
0.0
 30
0.0
  3
*D4
  1

  0
LINE
  5
CF4E
330
6FE8
100
AcDbEntity
  8
寸法
  6
Continuous
 62
     4
440
 16777216
370
    -2
100
AcDbLine
 10
1390.330909014711
 20
3736.731127199265
 30
0.0
 11
1390.330909014711
 21
3596.398187199265
 31
0.0
  0
LINE
  5
CF4F
330
6FE8
100
AcDbEntity
  8
寸法
  6
Continuous
 62
     4
440
 16777216
370
    -2
100
AcDbLine
 10
1540.330909014711
 20
3724.268675199265
 30
0.0
 11
1540.330909014711
 21
3596.398187199265
 31
0.0
  0
LINE
  5
CF50
330
6FE8
100
AcDbEntity
  8
寸法
  6
Continuous
 62
     4
440
 16777216
370
    -2
100
AcDbLine
 10
1390.330909014711
 20
3596.398187199265
 30
0.0
 11
1540.330909014711
 21
3596.398187199265
 31
0.0
  0
INSERT
  5
CF51
330
6FE8
100
AcDbEntity
  8
寸法
  6
Continuous
 62
     4
440
 16777216
370
    -2
100
AcDbBlockReference
  2
_Small
 10
1390.330909014711
 20
3596.398187199265
 30
0.0
 41
10.0
 42
10.0
 43
10.0
 50
180.0
  0
INSERT
  5
CF52
330
6FE8
100
AcDbEntity
  8
寸法
  6
Continuous
 62
     4
440
 16777216
370
    -2
100
AcDbBlockReference
  2
_Small
 10
1540.330909014711
 20
3596.398187199265
 30
0.0
 41
10.0
 42
10.0
 43
10.0
  0
MTEXT
  5
CF53
330
6FE8
100
AcDbEntity
  8
寸法
  6
Continuous
 62
     3
440
 16777216
100
AcDbMText
 10
1465.330909014711
 20
3636.398187199264
 30
0.0
 40
50.0
 41
0.0
 71
     5
 72
     1
  1
\A1;200以内
  7
ACAD
 73
     1
 44
1.0
  0
POINT
  5
CF54
330
6FE8
100
AcDbEntity
  8
Defpoints
  6
Continuous
 62
     0
440
 16777216
100
AcDbPoint
 10
1390.330909014711
 20
3736.731127199265
 30
0.0
  0
POINT
  5
CF55
330
6FE8
100
AcDbEntity
  8
Defpoints
  6
Continuous
 62
     0
440
 16777216
100
AcDbPoint
 10
1540.330909014711
 20
3724.268675199265
 30
0.0
  0
POINT
  5
CF56
330
6FE8
100
AcDbEntity
  8
Defpoints
  6
Continuous
 62
     0
440
 16777216
100
AcDbPoint
 10
1540.330909014711
 20
3596.398187199265
 30
0.0
  0
ENDBLK
  5
6FF3
330
6FE8
100
AcDbEntity
  8
0
100
AcDbBlockEnd
  0
BLOCK
  5
6FFF
330
6FF5
100
AcDbEntity
  8
0
100
AcDbBlockBegin
  2
*D5
 70
     1
 10
0.0
 20
0.0
 30
0.0
  3
*D5
  1

  0
LINE
  5
CF57
330
6FF5
100
AcDbEntity
  8
寸法
  6
Continuous
 62
     4
440
 16777216
370
    -2
100
AcDbLine
 10
1540.330909014711
 20
3724.268675199265
 30
0.0
 11
1540.330909014711
 21
3596.398187199265
 31
0.0
  0
LINE
  5
CF58
330
6FF5
100
AcDbEntity
  8
寸法
  6
Continuous
 62
     4
440
 16777216
370
    -2
100
AcDbLine
 10
2290.330909014711
 20
3724.268675199265
 30
0.0
 11
2290.330909014711
 21
3596.398187199265
 31
0.0
  0
LINE
  5
CF59
330
6FF5
100
AcDbEntity
  8
寸法
  6
Continuous
 62
     4
440
 16777216
370
    -2
100
AcDbLine
 10
1540.330909014711
 20
3596.398187199265
 30
0.0
 11
2290.330909014711
 21
3596.398187199265
 31
0.0
  0
INSERT
  5
CF5A
330
6FF5
100
AcDbEntity
  8
寸法
  6
Continuous
 62
     4
440
 16777216
370
    -2
100
AcDbBlockReference
  2
_Small
 10
1540.330909014711
 20
3596.398187199265
 30
0.0
 41
10.0
 42
10.0
 43
10.0
 50
180.0
  0
INSERT
  5
CF5B
330
6FF5
100
AcDbEntity
  8
寸法
  6
Continuous
 62
     4
440
 16777216
370
    -2
100
AcDbBlockReference
  2
_Small
 10
2290.330909014711
 20
3596.398187199265
 30
0.0
 41
10.0
 42
10.0
 43
10.0
  0
MTEXT
  5
CF5C
330
6FF5
100
AcDbEntity
  8
寸法
  6
Continuous
 62
     3
440
 16777216
100
AcDbMText
 10
1915.330909014711
 20
3636.398187199264
 30
0.0
 40
50.0
 41
0.0
 71
     5
 72
     1
  1
\A1;900以内
  7
ACAD
 73
     1
 44
1.0
  0
POINT
  5
CF5D
330
6FF5
100
AcDbEntity
  8
Defpoints
  6
Continuous
 62
     0
440
 16777216
100
AcDbPoint
 10
1540.330909014711
 20
3724.268675199265
 30
0.0
  0
POINT
  5
CF5E
330
6FF5
100
AcDbEntity
  8
Defpoints
  6
Continuous
 62
     0
440
 16777216
100
AcDbPoint
 10
2290.330909014711
 20
3724.268675199265
 30
0.0
  0
POINT
  5
CF5F
330
6FF5
100
AcDbEntity
  8
Defpoints
  6
Continuous
 62
     0
440
 16777216
100
AcDbPoint
 10
2290.330909014711
 20
3596.398187199265
 30
0.0
  0
ENDBLK
  5
7000
330
6FF5
100
AcDbEntity
  8
0
100
AcDbBlockEnd
  0
BLOCK
  5
AFA9
330
AFA8
100
AcDbEntity
  8
0
 62
     3
100
AcDbBlockBegin
  2
*D6
 70
     1
 10
0.0
 20
0.0
 30
0.0
  3
*D6
  1

  0
LINE
  5
CFE7
330
AFA8
100
AcDbEntity
  8
寸法
  6
Continuous
 62
     4
440
 16777216
370
    -2
100
AcDbLine
 10
2843.551439014712
 20
3736.731127199265
 30
0.0
 11
2927.368649014712
 21
3736.731127199265
 31
0.0
  0
LINE
  5
CFE8
330
AFA8
100
AcDbEntity
  8
寸法
  6
Continuous
 62
     4
440
 16777216
370
    -2
100
AcDbLine
 10
2843.551439014712
 20
4153.731127199264
 30
0.0
 11
2927.368649014712
 21
4153.731127199264
 31
0.0
  0
LINE
  5
CFE9
330
AFA8
100
AcDbEntity
  8
寸法
  6
Continuous
 62
     4
440
 16777216
370
    -2
100
AcDbLine
 10
2927.368649014712
 20
3736.731127199265
 30
0.0
 11
2927.368649014712
 21
4153.731127199264
 31
0.0
  0
INSERT
  5
CFEA
330
AFA8
100
AcDbEntity
  8
寸法
  6
Continuous
 62
     4
440
 16777216
370
    -2
100
AcDbBlockReference
  2
_Small
 10
2927.368649014712
 20
3736.731127199265
 30
0.0
 41
10.0
 42
10.0
 43
10.0
 50
270.0
  0
INSERT
  5
CFEB
330
AFA8
100
AcDbEntity
  8
寸法
  6
Continuous
 62
     4
440
 16777216
370
    -2
100
AcDbBlockReference
  2
_Small
 10
2927.368649014712
 20
4153.731127199264
 30
0.0
 41
10.0
 42
10.0
 43
10.0
 50
90.0
  0
MTEXT
  5
CFEC
330
AFA8
100
AcDbEntity
  8
寸法
  6
Continuous
 62
     3
440
 16777216
100
AcDbMText
 10
2887.368649014711
 20
3945.231127199266
 30
0.0
 40
50.0
 41
0.0
 71
     5
 72
     1
  1
\A1;h
  7
ACAD
 11
0.0000000000000001
 21
1.0
 31
0.0
 73
     1
 44
1.0
  0
POINT
  5
CFED
330
AFA8
100
AcDbEntity
  8
Defpoints
  6
Continuous
 62
     0
440
 16777216
100
AcDbPoint
 10
2843.551439014712
 20
3736.731127199265
 30
0.0
  0
POINT
  5
CFEE
330
AFA8
100
AcDbEntity
  8
Defpoints
  6
Continuous
 62
     0
440
 16777216
100
AcDbPoint
 10
2843.551439014712
 20
4153.731127199264
 30
0.0
  0
POINT
  5
CFEF
330
AFA8
100
AcDbEntity
  8
Defpoints
  6
Continuous
 62
     0
440
 16777216
100
AcDbPoint
 10
2927.368649014712
 20
4153.731127199264
 30
0.0
  0
ENDBLK
  5
AFAA
330
AFA8
100
AcDbEntity
  8
0
 62
     3
100
AcDbBlockEnd
  0
BLOCK
  5
AFB5
330
AFB4
100
AcDbEntity
  8
0
 62
     3
100
AcDbBlockBegin
  2
*D7
 70
     1
 10
0.0
 20
0.0
 30
0.0
  3
*D7
  1

  0
LINE
  5
CFF0
330
AFB4
100
AcDbEntity
  8
寸法
  6
Continuous
 62
     4
440
 16777216
370
    -2
100
AcDbLine
 10
2843.551439014712
 20
3736.731127199265
 30
0.0
 11
3031.977663972858
 21
3736.731127199265
 31
0.0
  0
LINE
  5
CFF1
330
AFB4
100
AcDbEntity
  8
寸法
  6
Continuous
 62
     4
440
 16777216
370
    -2
100
AcDbLine
 10
2843.551439014712
 20
4186.731127199265
 30
0.0
 11
3031.977663972858
 21
4186.731127199265
 31
0.0
  0
LINE
  5
CFF2
330
AFB4
100
AcDbEntity
  8
寸法
  6
Continuous
 62
     4
440
 16777216
370
    -2
100
AcDbLine
 10
3031.977663972858
 20
3736.731127199265
 30
0.0
 11
3031.977663972858
 21
4186.731127199265
 31
0.0
  0
INSERT
  5
CFF3
330
AFB4
100
AcDbEntity
  8
寸法
  6
Continuous
 62
     4
440
 16777216
370
    -2
100
AcDbBlockReference
  2
_Small
 10
3031.977663972858
 20
3736.731127199265
 30
0.0
 41
10.0
 42
10.0
 43
10.0
 50
270.0
  0
INSERT
  5
CFF4
330
AFB4
100
AcDbEntity
  8
寸法
  6
Continuous
 62
     4
440
 16777216
370
    -2
100
AcDbBlockReference
  2
_Small
 10
3031.977663972858
 20
4186.731127199265
 30
0.0
 41
10.0
 42
10.0
 43
10.0
 50
90.0
  0
MTEXT
  5
CFF5
330
AFB4
100
AcDbEntity
  8
寸法
  6
Continuous
 62
     3
440
 16777216
100
AcDbMText
 10
2991.977663972857
 20
3961.731127199266
 30
0.0
 40
50.0
 41
0.0
 71
     5
 72
     1
  1
\A1;H
  7
ACAD
 11
0.0000000000000001
 21
1.0
 31
0.0
 73
     1
 44
1.0
  0
POINT
  5
CFF6
330
AFB4
100
AcDbEntity
  8
Defpoints
  6
Continuous
 62
     0
440
 16777216
100
AcDbPoint
 10
2843.551439014712
 20
3736.731127199265
 30
0.0
  0
POINT
  5
CFF7
330
AFB4
100
AcDbEntity
  8
Defpoints
  6
Continuous
 62
     0
440
 16777216
100
AcDbPoint
 10
2843.551439014712
 20
4186.731127199265
 30
0.0
  0
POINT
  5
CFF8
330
AFB4
100
AcDbEntity
  8
Defpoints
  6
Continuous
 62
     0
440
 16777216
100
AcDbPoint
 10
3031.977663972858
 20
4186.731127199265
 30
0.0
  0
ENDBLK
  5
AFB6
330
AFB4
100
AcDbEntity
  8
0
 62
     3
100
AcDbBlockEnd
  0
BLOCK
  5
C275
330
C274
100
AcDbEntity
  8
0
100
AcDbBlockBegin
  2
_Small
 70
     0
 10
0.0
 20
0.0
 30
0.0
  3
_Small
  1

  0
CIRCLE
  5
C276
330
C274
100
AcDbEntity
  8
0
  6
ByBlock
 62
     0
370
    -2
100
AcDbCircle
 10
0.0
 20
0.0
 30
0.0
 40
0.25
  0
ENDBLK
  5
C277
330
C274
100
AcDbEntity
  8
0
100
AcDbBlockEnd
  0
ENDSEC
  0
SECTION
  2
ENTITIES
  0
TEXT
  5
6F8B
330
1E
100
AcDbEntity
  8
文字-記号
  6
Continuous
 62
     3
100
AcDbText
 10
2111.957727044893
 20
4550.588298159659
 30
0.0
 40
60.0
  1
■体育館／アリーナ納まり図
 41
0.8
  7
ACAD
100
AcDbText
  0
DIMENSION
  5
6FC0
330
1E
100
AcDbEntity
  8
寸法
  6
Continuous
100
AcDbDimension
  2
*D2
 10
2440.330909014712
 20
4252.377977199265
 30
0.0
 11
2290.509264014712
 21
4292.377977199264
 31
0.0
 70
    32
 71
     5
 42
299.6432899999991
  3
AutoCAD
100
AcDbAlignedDimension
 13
2140.687619014713
 23
4202.437427199265
 33
0.0
 14
2440.330909014712
 24
4202.437427199265
 34
0.0
100
AcDbRotatedDimension
1001
ACAD
1000
DSTYLE
1002
{
1070
   140
1040
50.0
1002
}
  0
DIMENSION
  5
6FCD
330
1E
100
AcDbEntity
  8
寸法
  6
Continuous
100
AcDbDimension
  2
*D3
 10
2739.974189014712
 20
4252.377977199265
 30
0.0
 11
2590.152549014712
 21
4292.377977199264
 31
0.0
 70
    32
 71
     5
 42
299.6432800000002
  3
AutoCAD
100
AcDbAlignedDimension
 13
2440.330909014712
 23
4202.437427199265
 33
0.0
 14
2739.974189014712
 24
4202.437427199265
 34
0.0
100
AcDbRotatedDimension
1001
ACAD
1000
DSTYLE
1002
{
1070
   140
1040
50.0
1002
}
  0
DIMENSION
  5
6FE7
330
1E
100
AcDbEntity
  8
寸法
  6
Continuous
100
AcDbDimension
  2
*D4
 10
1540.330909014711
 20
3596.398187199265
 30
0.0
 11
1465.330909014711
 21
3596.398187199265
 31
0.0
 70
   160
  1
200以内
 71
     5
 42
150.0
  3
AutoCAD
100
AcDbAlignedDimension
 13
1390.330909014711
 23
3736.731127199265
 33
0.0
 14
1540.330909014711
 24
3724.268675199265
 34
0.0
100
AcDbRotatedDimension
1001
ACAD
1000
DSTYLE
1002
{
1070
   140
1040
50.0
1002
}
  0
DIMENSION
  5
6FF4
330
1E
100
AcDbEntity
  8
寸法
  6
Continuous
100
AcDbDimension
  2
*D5
 10
2290.330909014711
 20
3596.398187199265
 30
0.0
 11
1915.330909014711
 21
3636.398187199264
 31
0.0
 70
    32
  1
900以内
 71
     5
 42
750.0
  3
AutoCAD
100
AcDbAlignedDimension
 13
1540.330909014711
 23
3724.268675199265
 33
0.0
 14
2290.330909014711
 24
3724.268675199265
 34
0.0
100
AcDbRotatedDimension
1001
ACAD
1000
DSTYLE
1002
{
1070
   140
1040
50.0
1002
}
  0
MTEXT
  5
70AF
330
1E
100
AcDbEntity
  8
寸法
  6
Continuous
 62
     3
100
AcDbMText
 10
2464.68649696182
 20
3612.306008879356
 30
0.0
 40
50.0
 41
80.0
 71
     7
 72
     5
  1
@900
  7
ACAD
 73
     1
 44
1.0
  0
CIRCLE
  5
8CFE
330
1E
100
AcDbEntity
  8
躯体と製品
  6
Continuous
 62
     3
100
AcDbCircle
 10
1540.330909014711
 20
4132.731127199265
 30
0.0
 40
2.499988
  0
CIRCLE
  5
8CFF
330
1E
100
AcDbEntity
  8
躯体と製品
  6
Continuous
 62
     3
100
AcDbCircle
 10
1540.330909014711
 20
4132.731127199265
 30
0.0
 40
2.999983999999999
  0
CIRCLE
  5
8D00
330
1E
100
AcDbEntity
  8
躯体と製品
  6
Continuous
 62
     3
100
AcDbCircle
 10
1540.330909014711
 20
4132.731127199265
 30
0.0
 40
4.999973999999999
  0
LWPOLYLINE
  5
8D13
330
1E
100
AcDbEntity
  8
中心線
  6
CENTER1
100
AcDbPolyline
 90
        2
 70
     0
 43
0.0
 10
1540.330909014711
 20
3724.268675199265
 10
1540.330909014711
 20
4148.43706141004
  0
LWPOLYLINE
  5
8D14
330
1E
100
AcDbEntity
  8
躯体と製品
  6
Continuous
 62
     3
100
AcDbPolyline
 90
        4
 70
     0
 43
0.0
 10
1515.330909014711
 20
4119.231127199265
 10
1517.830909014711
 20
4119.231127199265
 42
0.9999999999999998
 10
1517.830909014711
 20
4124.231127199265
 10
1515.330909014711
 20
4124.231127199265
  0
LWPOLYLINE
  5
8D15
330
1E
100
AcDbEntity
  8
躯体と製品
  6
Continuous
 62
     3
100
AcDbPolyline
 90
        4
 70
     1
 43
0.0
 10
1547.830909014682
 20
4124.231127199265
 42
-0.9999999999999998
 10
1547.830909014682
 20
4119.231127199265
 10
1532.830909014711
 20
4119.231127199265
 42
-0.9999999999999998
 10
1532.830909014711
 20
4124.231127199265
  0
LWPOLYLINE
  5
8D16
330
1E
100
AcDbEntity
  8
躯体と製品
  6
Continuous
 62
     3
100
AcDbPolyline
 90
        4
 70
     0
 43
0.0
 10
1565.330909014711
 20
4119.231127199265
 10
1562.830909014682
 20
4119.231127199265
 42
-0.9999999999999998
 10
1562.830909014682
 20
4124.231127199265
 10
1565.330909014711
 20
4124.231127199265
  0
LWPOLYLINE
  5
8D17
330
1E
100
AcDbEntity
  8
躯体と製品
  6
Continuous
 62
     4
100
AcDbPolyline
 90
        6
 70
     1
 43
0.0
 10
1563.130909014729
 20
4142.731127199264
 42
-0.4142135623730951
 10
1565.330909014711
 20
4140.531127199253
 10
1565.330909014711
 20
4069.131127199258
 10
1515.330909014711
 20
4069.131127199258
 10
1515.330909014682
 20
4140.531127199253
 42
-0.4142135623730951
 10
1517.530909014694
 20
4142.731127199264
  0
LWPOLYLINE
  5
8D18
330
1E
100
AcDbEntity
  8
躯体と製品
  6
Continuous
 62
     3
100
AcDbPolyline
 90
        4
 70
     1
 43
0.0
 10
1550.330909014682
 20
4133.731127199264
 42
-0.9999999999999998
 10
1560.330909014711
 20
4133.731127199264
 10
1560.330909014711
 20
4078.131127199259
 42
-0.9999999999999998
 10
1550.330909014711
 20
4078.131127199259
  0
LWPOLYLINE
  5
8D19
330
1E
100
AcDbEntity
  8
躯体と製品
  6
Continuous
 62
     3
100
AcDbPolyline
 90
        4
 70
     1
 43
0.0
 10
1530.330909014711
 20
4133.731127199264
 42
0.9999999999999998
 10
1520.330909014711
 20
4133.731127199264
 10
1520.330909014711
 20
4078.131127199259
 42
0.9999999999999998
 10
1530.330909014711
 20
4078.131127199259
  0
LWPOLYLINE
  5
8D1A
330
1E
100
AcDbEntity
  8
躯体と製品
  6
Continuous
 62
     4
100
AcDbPolyline
 90
        4
 70
     1
 43
0.0
 10
1526.330907729952
 20
3842.731128484024
 10
1554.33090776735
 20
3842.731128484024
 10
1554.33090776735
 20
3838.731128484024
 10
1526.330907729952
 20
3838.731128484024
  0
LWPOLYLINE
  5
8D1B
330
1E
100
AcDbEntity
  8
躯体と製品
  6
Continuous
 62
     4
100
AcDbPolyline
 90
        4
 70
     0
 43
0.0
 10
1565.330909014711
 20
3741.931127199248
 10
1565.330909014711
 20
3833.136840287726
 10
1515.330909014711
 20
3833.136840287726
 10
1515.330909014711
 20
3741.931127199248
  0
LWPOLYLINE
  5
8D1C
330
1E
100
AcDbEntity
  8
躯体と製品
  6
Continuous
 62
     4
100
AcDbPolyline
 90
        4
 70
     1
 43
0.0
 10
1510.330909014711
 20
3738.731127199265
 10
1570.330909014711
 20
3738.731127199265
 10
1570.330909014711
 20
3741.931127199248
 10
1510.330909014711
 20
3741.931127199248
  0
LWPOLYLINE
  5
8D1D
330
1E
100
AcDbEntity
  8
躯体と製品
  6
Continuous
 62
     4
100
AcDbPolyline
 90
        2
 70
     0
 43
0.0
 10
1518.530909014723
 20
3838.731127199265
 10
1518.530909014723
 20
3741.931127199248
  0
LWPOLYLINE
  5
8D1E
330
1E
100
AcDbEntity
  8
躯体と製品
  6
Continuous
 62
     4
100
AcDbPolyline
 90
        2
 70
     0
 43
0.0
 10
1562.130909014729
 20
3838.731127199265
 10
1562.130909014729
 20
3741.931127199248
  0
LWPOLYLINE
  5
8D1F
330
1E
100
AcDbEntity
  8
躯体と製品
  6
Continuous
 62
     4
100
AcDbPolyline
 90
        6
 70
     0
 43
0.0
 10
1518.530909014723
 20
3835.531127199253
 10
1510.330909014711
 20
3835.531127199253
 10
1510.330909014711
 20
3838.731127199265
 10
1570.330909014711
 20
3838.731127199265
 10
1570.330909014711
 20
3835.531127199253
 10
1562.130909014729
 20
3835.531127199253
  0
LWPOLYLINE
  5
8D20
330
1E
100
AcDbEntity
  8
躯体と製品
  6
Continuous
 62
     4
100
AcDbPolyline
 90
        4
 70
     1
 43
0.0
 10
1570.330909014711
 20
3736.731127199265
 10
1510.330909014711
 20
3736.731127199265
 10
1510.330909014711
 20
3738.731127199265
 10
1570.330909014711
 20
3738.731127199265
  0
LWPOLYLINE
  5
8D21
330
1E
100
AcDbEntity
  8
躯体と製品
  6
Continuous
 62
     4
100
AcDbPolyline
 90
        2
 70
     0
 43
0.0
 10
1534.330341697877
 20
3855.731127914317
 10
1546.330907001977
 20
3855.731127851278
  0
LWPOLYLINE
  5
8D22
330
1E
100
AcDbEntity
  8
躯体と製品
  6
Continuous
 62
     4
100
AcDbPolyline
 90
        5
 70
     0
 43
0.0
 10
1528.330907039114
 20
3842.731128211409
 10
1528.330907039114
 20
3854.231127882798
 42
-0.2500000085465462
 10
1540.330906981227
 20
3854.231127882798
 42
-0.2499999935419728
 10
1552.330907039114
 20
3854.231127882798
 10
1552.330907039114
 20
3842.73112803923
  0
LWPOLYLINE
  5
8D23
330
1E
100
AcDbEntity
  8
躯体と製品
  6
Continuous
 62
     4
100
AcDbPolyline
 90
        2
 70
     0
 43
0.0
 10
1540.330906970487
 20
3854.231127882798
 10
1540.330906891296
 20
3842.73112812532
  0
LWPOLYLINE
  5
8D64
330
1E
100
AcDbEntity
  8
躯体と製品
  6
Continuous
 62
     4
100
AcDbPolyline
 90
        2
 70
     0
 43
0.0
 10
1534.330343632894
 20
4056.131127410262
 10
1546.330908937024
 20
4056.1311274733
  0
LWPOLYLINE
  5
8D65
330
1E
100
AcDbEntity
  8
躯体と製品
  6
Continuous
 62
     4
100
AcDbPolyline
 90
        4
 70
     1
 43
0.0
 10
1526.330908969795
 20
4052.131127387212
 10
1554.330909007193
 20
4052.131127387212
 10
1554.330909007193
 20
4056.131127387211
 10
1526.330908969795
 20
4056.131127387211
  0
LWPOLYLINE
  5
8D66
330
1E
100
AcDbEntity
  8
躯体と製品
  6
Continuous
 62
     4
100
AcDbPolyline
 90
        5
 70
     0
 43
0.0
 10
1528.330908974161
 20
4069.13112711317
 10
1528.330908974161
 20
4057.631127387211
 42
0.249999996945716
 10
1540.330908930359
 20
4057.631127387211
 42
0.2499999847397634
 10
1552.33090897416
 20
4057.631127387211
 10
1552.33090897416
 20
4069.131127285348
  0
LWPOLYLINE
  5
8D67
330
1E
100
AcDbEntity
  8
躯体と製品
  6
Continuous
 62
     4
100
AcDbPolyline
 90
        2
 70
     0
 43
0.0
 10
1540.330908930359
 20
4057.631127387211
 10
1540.330908837082
 20
4069.131127199258
  0
LWPOLYLINE
  5
8D68
330
1E
100
AcDbEntity
  8
躯体と製品
  6
Continuous
 62
     4
100
AcDbPolyline
 90
        2
 70
     0
 43
0.0
 10
1534.330343632894
 20
3995.129097731624
 10
1546.330908937024
 20
3995.129097794662
  0
LWPOLYLINE
  5
8D69
330
1E
100
AcDbEntity
  8
躯体と製品
  6
Continuous
 62
     4
100
AcDbPolyline
 90
        4
 70
     1
 43
0.0
 10
1526.330908969795
 20
3991.129097708573
 10
1554.330909007193
 20
3991.129097708573
 10
1554.330909007193
 20
3995.129097708573
 10
1526.330908969795
 20
3995.129097708573
  0
LWPOLYLINE
  5
8D6A
330
1E
100
AcDbEntity
  8
躯体と製品
  6
Continuous
 62
     4
100
AcDbPolyline
 90
        5
 70
     0
 43
0.0
 10
1528.330908974161
 20
3997.129174002518
 10
1528.330908974161
 20
3996.629097708573
 42
0.249999996945716
 10
1540.330908930359
 20
3996.629097708573
 42
0.2499999847397634
 10
1552.33090897416
 20
3996.629097708573
 10
1552.33090897416
 20
3997.129174002518
  0
LWPOLYLINE
  5
8D6B
330
1E
100
AcDbEntity
  8
躯体と製品
  6
Continuous
 62
     4
100
AcDbPolyline
 90
        2
 70
     0
 43
0.0
 10
1534.330343784321
 20
3978.129097919576
 10
1546.330909088422
 20
3978.129097982615
  0
LWPOLYLINE
  5
8D6C
330
1E
100
AcDbEntity
  8
躯体と製品
  6
Continuous
 62
     4
100
AcDbPolyline
 90
        5
 70
     0
 43
0.0
 10
1528.330909125559
 20
3991.129097622484
 10
1528.330909125559
 20
3979.629097951095
 42
0.2500000085465462
 10
1540.330909067671
 20
3979.629097951095
 42
0.2499999935419728
 10
1552.330909125559
 20
3979.629097951095
 10
1552.330909125559
 20
3991.129097794662
  0
LWPOLYLINE
  5
8D6D
330
1E
100
AcDbEntity
  8
躯体と製品
  6
Continuous
 62
     4
100
AcDbPolyline
 90
        2
 70
     0
 43
0.0
 10
1540.330908930359
 20
3996.629097708573
 10
1540.330908926303
 20
3997.129174002518
  0
LWPOLYLINE
  5
8D6E
330
1E
100
AcDbEntity
  8
躯体と製品
  6
Continuous
 62
     4
100
AcDbPolyline
 90
        2
 70
     0
 43
0.0
 10
1540.330909056903
 20
3979.629097951095
 10
1540.33090897774
 20
3991.129097708573
  0
CIRCLE
  5
8D7F
330
1E
100
AcDbEntity
  8
躯体と製品
  6
Continuous
 62
     3
100
AcDbCircle
 10
2290.330909014711
 20
4132.731127199265
 30
0.0
 40
2.499988
  0
CIRCLE
  5
8D80
330
1E
100
AcDbEntity
  8
躯体と製品
  6
Continuous
 62
     3
100
AcDbCircle
 10
2290.330909014711
 20
4132.731127199265
 30
0.0
 40
2.999983999999999
  0
CIRCLE
  5
8D81
330
1E
100
AcDbEntity
  8
躯体と製品
  6
Continuous
 62
     3
100
AcDbCircle
 10
2290.330909014711
 20
4132.731127199265
 30
0.0
 40
4.999973999999999
  0
LWPOLYLINE
  5
8D90
330
1E
100
AcDbEntity
  8
中心線
  6
CENTER1
100
AcDbPolyline
 90
        2
 70
     0
 43
0.0
 10
2290.330909014711
 20
3724.268675199265
 10
2290.330909014711
 20
4148.43706141004
  0
LWPOLYLINE
  5
8D91
330
1E
100
AcDbEntity
  8
躯体と製品
  6
Continuous
 62
     3
100
AcDbPolyline
 90
        4
 70
     0
 43
0.0
 10
2265.330909014712
 20
4119.231127199265
 10
2267.830909014711
 20
4119.231127199265
 42
0.9999999999999998
 10
2267.830909014711
 20
4124.231127199265
 10
2265.330909014712
 20
4124.231127199265
  0
LWPOLYLINE
  5
8D92
330
1E
100
AcDbEntity
  8
躯体と製品
  6
Continuous
 62
     3
100
AcDbPolyline
 90
        4
 70
     1
 43
0.0
 10
2297.830909014682
 20
4124.231127199265
 42
-0.9999999999999998
 10
2297.830909014682
 20
4119.231127199265
 10
2282.830909014711
 20
4119.231127199265
 42
-0.9999999999999998
 10
2282.830909014711
 20
4124.231127199265
  0
LWPOLYLINE
  5
8D93
330
1E
100
AcDbEntity
  8
躯体と製品
  6
Continuous
 62
     3
100
AcDbPolyline
 90
        4
 70
     0
 43
0.0
 10
2315.330909014711
 20
4119.231127199265
 10
2312.830909014682
 20
4119.231127199265
 42
-0.9999999999999998
 10
2312.830909014682
 20
4124.231127199265
 10
2315.330909014711
 20
4124.231127199265
  0
LWPOLYLINE
  5
8D94
330
1E
100
AcDbEntity
  8
躯体と製品
  6
Continuous
 62
     4
100
AcDbPolyline
 90
        6
 70
     1
 43
0.0
 10
2313.130909014729
 20
4142.731127199264
 42
-0.4142135623730951
 10
2315.330909014711
 20
4140.531127199253
 10
2315.330909014711
 20
4069.131127199258
 10
2265.330909014712
 20
4069.131127199258
 10
2265.330909014682
 20
4140.531127199253
 42
-0.4142135623730951
 10
2267.530909014694
 20
4142.731127199264
  0
LWPOLYLINE
  5
8D95
330
1E
100
AcDbEntity
  8
躯体と製品
  6
Continuous
 62
     3
100
AcDbPolyline
 90
        4
 70
     1
 43
0.0
 10
2300.330909014682
 20
4133.731127199264
 42
-0.9999999999999998
 10
2310.330909014711
 20
4133.731127199264
 10
2310.330909014711
 20
4078.131127199259
 42
-0.9999999999999998
 10
2300.330909014711
 20
4078.131127199259
  0
LWPOLYLINE
  5
8D96
330
1E
100
AcDbEntity
  8
躯体と製品
  6
Continuous
 62
     3
100
AcDbPolyline
 90
        4
 70
     1
 43
0.0
 10
2280.330909014711
 20
4133.731127199264
 42
0.9999999999999998
 10
2270.330909014711
 20
4133.731127199264
 10
2270.330909014711
 20
4078.131127199259
 42
0.9999999999999998
 10
2280.330909014711
 20
4078.131127199259
  0
LWPOLYLINE
  5
8D97
330
1E
100
AcDbEntity
  8
躯体と製品
  6
Continuous
 62
     4
100
AcDbPolyline
 90
        4
 70
     1
 43
0.0
 10
2276.330907729952
 20
3842.731128484024
 10
2304.33090776735
 20
3842.731128484024
 10
2304.33090776735
 20
3838.731128484024
 10
2276.330907729952
 20
3838.731128484024
  0
LWPOLYLINE
  5
8D98
330
1E
100
AcDbEntity
  8
躯体と製品
  6
Continuous
 62
     4
100
AcDbPolyline
 90
        4
 70
     0
 43
0.0
 10
2315.330909014711
 20
3741.931127199248
 10
2315.330909014711
 20
3833.136840287726
 10
2265.330909014712
 20
3833.136840287726
 10
2265.330909014712
 20
3741.931127199248
  0
LWPOLYLINE
  5
8D99
330
1E
100
AcDbEntity
  8
躯体と製品
  6
Continuous
 62
     4
100
AcDbPolyline
 90
        4
 70
     1
 43
0.0
 10
2260.330909014712
 20
3738.731127199265
 10
2320.330909014711
 20
3738.731127199265
 10
2320.330909014711
 20
3741.931127199248
 10
2260.330909014712
 20
3741.931127199248
  0
LWPOLYLINE
  5
8D9A
330
1E
100
AcDbEntity
  8
躯体と製品
  6
Continuous
 62
     4
100
AcDbPolyline
 90
        2
 70
     0
 43
0.0
 10
2268.530909014723
 20
3838.731127199265
 10
2268.530909014723
 20
3741.931127199248
  0
LWPOLYLINE
  5
8D9B
330
1E
100
AcDbEntity
  8
躯体と製品
  6
Continuous
 62
     4
100
AcDbPolyline
 90
        2
 70
     0
 43
0.0
 10
2312.130909014729
 20
3838.731127199265
 10
2312.130909014729
 20
3741.931127199248
  0
LWPOLYLINE
  5
8D9C
330
1E
100
AcDbEntity
  8
躯体と製品
  6
Continuous
 62
     4
100
AcDbPolyline
 90
        6
 70
     0
 43
0.0
 10
2268.530909014723
 20
3835.531127199253
 10
2260.330909014712
 20
3835.531127199253
 10
2260.330909014712
 20
3838.731127199265
 10
2320.330909014711
 20
3838.731127199265
 10
2320.330909014711
 20
3835.531127199253
 10
2312.130909014729
 20
3835.531127199253
  0
LWPOLYLINE
  5
8D9D
330
1E
100
AcDbEntity
  8
躯体と製品
  6
Continuous
 62
     4
100
AcDbPolyline
 90
        4
 70
     1
 43
0.0
 10
2320.330909014711
 20
3736.731127199265
 10
2260.330909014712
 20
3736.731127199265
 10
2260.330909014712
 20
3738.731127199265
 10
2320.330909014711
 20
3738.731127199265
  0
LWPOLYLINE
  5
8D9E
330
1E
100
AcDbEntity
  8
躯体と製品
  6
Continuous
 62
     4
100
AcDbPolyline
 90
        2
 70
     0
 43
0.0
 10
2284.330341697877
 20
3855.731127914317
 10
2296.330907001978
 20
3855.731127851278
  0
LWPOLYLINE
  5
8D9F
330
1E
100
AcDbEntity
  8
躯体と製品
  6
Continuous
 62
     4
100
AcDbPolyline
 90
        5
 70
     0
 43
0.0
 10
2278.330907039114
 20
3842.731128211409
 10
2278.330907039114
 20
3854.231127882798
 42
-0.2500000085465462
 10
2290.330906981226
 20
3854.231127882798
 42
-0.2499999935419728
 10
2302.330907039114
 20
3854.231127882798
 10
2302.330907039114
 20
3842.73112803923
  0
LWPOLYLINE
  5
8DA0
330
1E
100
AcDbEntity
  8
躯体と製品
  6
Continuous
 62
     4
100
AcDbPolyline
 90
        2
 70
     0
 43
0.0
 10
2290.330906970488
 20
3854.231127882798
 10
2290.330906891296
 20
3842.73112812532
  0
LWPOLYLINE
  5
8DA1
330
1E
100
AcDbEntity
  8
躯体と製品
  6
Continuous
 62
     4
100
AcDbPolyline
 90
        2
 70
     0
 43
0.0
 10
2284.330343632894
 20
4056.131127410262
 10
2296.330908937024
 20
4056.1311274733
  0
LWPOLYLINE
  5
8DA2
330
1E
100
AcDbEntity
  8
躯体と製品
  6
Continuous
 62
     4
100
AcDbPolyline
 90
        4
 70
     1
 43
0.0
 10
2276.330908969795
 20
4052.131127387212
 10
2304.330909007194
 20
4052.131127387212
 10
2304.330909007194
 20
4056.131127387211
 10
2276.330908969795
 20
4056.131127387211
  0
LWPOLYLINE
  5
8DA3
330
1E
100
AcDbEntity
  8
躯体と製品
  6
Continuous
 62
     4
100
AcDbPolyline
 90
        5
 70
     0
 43
0.0
 10
2278.330908974161
 20
4069.13112711317
 10
2278.330908974161
 20
4057.631127387211
 42
0.249999996945716
 10
2290.330908930359
 20
4057.631127387211
 42
0.2499999847397634
 10
2302.330908974161
 20
4057.631127387211
 10
2302.330908974161
 20
4069.131127285348
  0
LWPOLYLINE
  5
8DA4
330
1E
100
AcDbEntity
  8
躯体と製品
  6
Continuous
 62
     4
100
AcDbPolyline
 90
        2
 70
     0
 43
0.0
 10
2290.330908930359
 20
4057.631127387211
 10
2290.330908837082
 20
4069.131127199258
  0
LWPOLYLINE
  5
8DA5
330
1E
100
AcDbEntity
  8
躯体と製品
  6
Continuous
 62
     4
100
AcDbPolyline
 90
        2
 70
     0
 43
0.0
 10
2284.330343632894
 20
3995.129097731624
 10
2296.330908937024
 20
3995.129097794662
  0
LWPOLYLINE
  5
8DA6
330
1E
100
AcDbEntity
  8
躯体と製品
  6
Continuous
 62
     4
100
AcDbPolyline
 90
        4
 70
     1
 43
0.0
 10
2276.330908969795
 20
3991.129097708573
 10
2304.330909007194
 20
3991.129097708573
 10
2304.330909007194
 20
3995.129097708573
 10
2276.330908969795
 20
3995.129097708573
  0
LWPOLYLINE
  5
8DA7
330
1E
100
AcDbEntity
  8
躯体と製品
  6
Continuous
 62
     4
100
AcDbPolyline
 90
        5
 70
     0
 43
0.0
 10
2278.330908974161
 20
3997.129174002518
 10
2278.330908974161
 20
3996.629097708573
 42
0.249999996945716
 10
2290.330908930359
 20
3996.629097708573
 42
0.2499999847397634
 10
2302.330908974161
 20
3996.629097708573
 10
2302.330908974161
 20
3997.129174002518
  0
LWPOLYLINE
  5
8DA8
330
1E
100
AcDbEntity
  8
躯体と製品
  6
Continuous
 62
     4
100
AcDbPolyline
 90
        2
 70
     0
 43
0.0
 10
2284.330343784322
 20
3978.129097919576
 10
2296.330909088422
 20
3978.129097982615
  0
LWPOLYLINE
  5
8DA9
330
1E
100
AcDbEntity
  8
躯体と製品
  6
Continuous
 62
     4
100
AcDbPolyline
 90
        5
 70
     0
 43
0.0
 10
2278.330909125559
 20
3991.129097622484
 10
2278.330909125559
 20
3979.629097951095
 42
0.2500000085465462
 10
2290.330909067671
 20
3979.629097951095
 42
0.2499999935419728
 10
2302.330909125559
 20
3979.629097951095
 10
2302.330909125559
 20
3991.129097794662
  0
LWPOLYLINE
  5
8DAA
330
1E
100
AcDbEntity
  8
躯体と製品
  6
Continuous
 62
     4
100
AcDbPolyline
 90
        2
 70
     0
 43
0.0
 10
2290.330908930359
 20
3996.629097708573
 10
2290.330908926303
 20
3997.129174002518
  0
LWPOLYLINE
  5
8DAB
330
1E
100
AcDbEntity
  8
躯体と製品
  6
Continuous
 62
     4
100
AcDbPolyline
 90
        2
 70
     0
 43
0.0
 10
2290.330909056903
 20
3979.629097951095
 10
2290.330908977741
 20
3991.129097708573
  0
MTEXT
  5
98A4
330
1E
100
AcDbEntity
  8
文字-記号
  6
Continuous
 62
     3
100
AcDbMText
 10
3648.525799312412
 20
3516.479453260787
 30
0.0
 40
50.0
 41
0.0
 71
     7
 72
     1
  1
\A1;
 73
     1
 44
1.0
  0
TEXT
  5
98A5
330
1E
100
AcDbEntity
  8
文字-記号
  6
Continuous
 62
     3
100
AcDbText
 10
1408.36034218829
 20
4782.016390565964
 30
0.0
 40
59.99999985
  1
スリーベースＳＳ標準床組（高遮音鋼製床下地システム）
 41
0.8
  7
ACAD
100
AcDbText
  0
MTEXT
  5
9A97
330
1E
100
AcDbEntity
  8
文字-記号
  6
Continuous
 62
     3
100
AcDbMText
 10
7121.765818099206
 20
2845.376709422389
 30
0.0
 40
50.0
 41
0.0
 71
     7
 72
     1
  1
\A1;
 73
     1
 44
1.0
  0
MTEXT
  5
9A98
330
1E
100
AcDbEntity
  8
文字-記号
  6
Continuous
 62
     3
100
AcDbMText
 10
7224.925156835576
 20
2592.820386395809
 30
0.0
 40
50.0
 41
0.0
 71
     7
 72
     1
  1
\A1;
 73
     1
 44
1.0
  0
MTEXT
  5
9A9A
330
1E
100
AcDbEntity
  8
文字-記号
  6
Continuous
 62
     3
100
AcDbMText
 10
7875.954617976041
 20
2874.884173339157
 30
0.0
 40
50.0
 41
0.0
 71
     7
 72
     1
  1
\A1;
 73
     1
 44
1.0
  0
TEXT
  5
AF51
330
1E
100
AcDbEntity
  8
文字-記号
  6
Continuous
 62
     7
100
AcDbText
 10
1727.988301657271
 20
3975.317827199265
 30
0.0
 40
45.0
  1
大引鋼
 50
0.0000100000010064
 41
0.8
  7
ACAD
100
AcDbText
  0
TEXT
  5
AF53
330
1E
100
AcDbEntity
  8
文字-記号
  6
Continuous
 62
     7
100
AcDbText
 10
1941.373001663298
 20
4010.349414927016
 30
0.0
 40
45.0
  1
根太鋼
 41
0.8
  7
ACAD
100
AcDbText
  0
TEXT
  5
AF55
330
1E
100
AcDbEntity
  8
文字-記号
  6
Continuous
 62
     7
100
AcDbText
 10
2387.690355764773
 20
3897.777037022502
 30
0.0
 40
45.0
  1
支持脚ＳＳ１０
 41
0.8
  7
ACAD
100
AcDbText
  0
TEXT
  5
AF5D
330
1E
100
AcDbEntity
  8
文字-記号
  6
Continuous
 62
     7
100
AcDbText
 10
2072.664754625636
 20
4360.046411159776
 30
0.0
 40
45.0
  1
捨 板
 41
0.8
  7
ACAD
100
AcDbText
  0
TEXT
  5
AF5E
330
1E
100
AcDbEntity
  8
文字-記号
  6
Continuous
 62
     7
100
AcDbText
 10
1984.245118955019
 20
4429.046891923897
 30
0.0
 40
45.0
  1
フローリング
 41
0.8
  7
ACAD
100
AcDbText
  0
DIMENSION
  5
AFA6
330
1E
100
AcDbEntity
  8
寸法
  6
Continuous
100
AcDbDimension
  2
*D6
 10
2927.368649014712
 20
4153.731127199264
 30
0.0
 11
2887.368649014711
 21
3945.231127199266
 31
0.0
 70
    32
  1
h
 71
     5
 42
417.0000000000004
  3
AutoCAD
100
AcDbAlignedDimension
 13
2843.551439014712
 23
3736.731127199265
 33
0.0
 14
2843.551439014712
 24
4153.731127199264
 34
0.0
 50
90.0
100
AcDbRotatedDimension
1001
ACAD
1000
DSTYLE
1002
{
1070
   140
1040
50.0
1002
}
  0
DIMENSION
  5
AFA7
330
1E
100
AcDbEntity
  8
寸法
  6
Continuous
100
AcDbDimension
  2
*D7
 10
3031.977663972858
 20
4186.731127199265
 30
0.0
 11
2991.977663972857
 21
3961.731127199266
 31
0.0
 70
    32
  1
H
 71
     5
 42
450.0000000000004
  3
AutoCAD
100
AcDbAlignedDimension
 13
2843.551439014712
 23
3736.731127199265
 33
0.0
 14
2843.551439014712
 24
4186.731127199265
 34
0.0
 50
90.0
100
AcDbRotatedDimension
1001
ACAD
1000
DSTYLE
1002
{
1070
   140
1040
50.0
1002
}
  0
LWPOLYLINE
  5
B7E0
330
1E
100
AcDbEntity
  8
躯体と製品
  6
Continuous
 62
     4
100
AcDbPolyline
 90
       13
 70
     0
 43
0.0
 10
1406.3309090147
 20
4122.731127199265
 10
1474.3309090147
 20
4122.731127199265
 10
1474.3309090147
 20
4129.731127199264
 10
1469.3309090147
 20
4129.731127199264
 10
1469.3309090147
 20
4127.731127199265
 10
1472.3309090147
 20
4127.731127199265
 10
1472.3309090147
 20
4124.731127199265
 10
1408.3309090147
 20
4124.731127199265
 10
1408.3309090147
 20
4127.731127199265
 10
1411.3309090147
 20
4127.731127199265
 10
1411.3309090147
 20
4129.731127199264
 10
1406.3309090147
 20
4129.731127199264
 10
1406.3309090147
 20
4122.731127199265
  0
LWPOLYLINE
  5
B7E1
330
1E
100
AcDbEntity
  8
躯体と製品
  6
Continuous
 62
     4
100
AcDbPolyline
 90
       28
 70
     1
 43
0.0
 10
1456.1309090147
 20
4153.731127199264
 42
-0.4142135623730951
 10
1457.8309090147
 20
4152.031127199265
 10
1457.8309090147
 20
4126.431127199264
 42
0.4142135623730951
 10
1458.3309090147
 20
4125.931127199264
 10
1470.6309090147
 20
4125.931127199264
 42
0.4142135623730951
 10
1471.1309090147
 20
4126.431127199264
 10
1471.1309090147
 20
4127.731127199265
 10
1472.3309090147
 20
4127.731127199265
 10
1472.3309090147
 20
4126.431127199264
 42
-0.4142135623730951
 10
1470.6309090147
 20
4124.731127199265
 10
1458.3309090147
 20
4124.731127199265
 42
-0.4142135623730951
 10
1456.6309090147
 20
4126.431127199264
 10
1456.6309090147
 20
4152.031127199265
 42
0.4142135623730951
 10
1456.1309090147
 20
4152.531127199265
 10
1424.530909014701
 20
4152.531127199265
 42
0.4142135623730951
 10
1424.030909014701
 20
4152.031127199265
 10
1424.030909014701
 20
4126.431127199264
 42
-0.4142135623730951
 10
1422.3309090147
 20
4124.731127199265
 10
1410.030909014701
 20
4124.731127199265
 42
-0.4142135623730951
 10
1408.3309090147
 20
4126.431127199264
 10
1408.3309090147
 20
4127.731127199265
 10
1409.530909014701
 20
4127.731127199265
 10
1409.530909014701
 20
4126.431127199264
 42
0.4142135623730951
 10
1410.030909014701
 20
4125.931127199264
 10
1422.3309090147
 20
4125.931127199264
 42
0.4142135623730951
 10
1422.8309090147
 20
4126.431127199264
 10
1422.8309090147
 20
4152.031127199265
 42
-0.4142135623730951
 10
1424.530909014701
 20
4153.731127199264
  0
LWPOLYLINE
  5
B7E2
330
1E
100
AcDbEntity
  8
躯体と製品
  6
Continuous
 62
     4
100
AcDbPolyline
 90
        2
 70
     0
 43
0.0
 10
1419.531909014683
 20
4126.580127199269
 10
1419.531909014683
 20
4126.131127199276
  0
LWPOLYLINE
  5
B7E3
330
1E
100
AcDbEntity
  8
躯体と製品
  6
Continuous
 62
     4
100
AcDbPolyline
 90
        2
 70
     0
 43
0.0
 10
1411.531909014683
 20
4126.580127199269
 10
1411.531909014683
 20
4126.131127199276
  0
LWPOLYLINE
  5
B7E4
330
1E
100
AcDbEntity
  8
躯体と製品
  6
Continuous
 62
     4
100
AcDbPolyline
 90
        2
 70
     0
 43
0.0
 10
1419.3319090147
 20
4125.931127199264
 10
1415.531909014683
 20
4125.931127199264
  0
LWPOLYLINE
  5
B7E5
330
1E
100
AcDbEntity
  8
躯体と製品
  6
Continuous
 62
     4
100
AcDbPolyline
 90
        2
 70
     0
 43
0.0
 10
1411.531909014683
 20
4126.131127178321
 42
0.41421351636737
 10
1411.731909004217
 20
4125.931127199264
  0
LWPOLYLINE
  5
B7E6
330
1E
100
AcDbEntity
  8
躯体と製品
  6
Continuous
 62
     4
100
AcDbPolyline
 90
        2
 70
     0
 43
0.0
 10
1411.731909014695
 20
4125.931127199264
 10
1415.531909014683
 20
4125.931127199264
  0
LWPOLYLINE
  5
B7E7
330
1E
100
AcDbEntity
  8
躯体と製品
  6
Continuous
 62
     4
100
AcDbPolyline
 90
        2
 70
     0
 43
0.0
 10
1419.331909004223
 20
4125.931127199264
 42
0.4142135777083371
 10
1419.531909014712
 20
4126.131127199276
  0
LWPOLYLINE
  5
B7E8
330
1E
100
AcDbEntity
  8
躯体と製品
  6
Continuous
 62
     4
100
AcDbPolyline
 90
        2
 70
     0
 43
0.0
 10
1419.296909014697
 20
4127.731127199282
 10
1415.531909014683
 20
4127.731127199282
  0
LWPOLYLINE
  5
B7E9
330
1E
100
AcDbEntity
  8
躯体と製品
  6
Continuous
 62
     4
100
AcDbPolyline
 90
        2
 70
     0
 43
0.0
 10
1419.29645814386
 20
4127.73062473949
 42
0.2144073790574085
 10
1415.531925181337
 20
4128.930983680622
  0
LWPOLYLINE
  5
B7EA
330
1E
100
AcDbEntity
  8
躯体と製品
  6
Continuous
 62
     4
100
AcDbPolyline
 90
        2
 70
     0
 43
0.0
 10
1411.766909014698
 20
4127.731127199282
 10
1411.531909014683
 20
4126.580127199269
  0
LWPOLYLINE
  5
B7EB
330
1E
100
AcDbEntity
  8
躯体と製品
  6
Continuous
 62
     4
100
AcDbPolyline
 90
        2
 70
     0
 43
0.0
 10
1415.531892430098
 20
4128.930983728381
 42
0.2144073836089342
 10
1411.767359509892
 20
4127.730624402642
  0
LWPOLYLINE
  5
B7EC
330
1E
100
AcDbEntity
  8
躯体と製品
  6
Continuous
 62
     4
100
AcDbPolyline
 90
        2
 70
     0
 43
0.0
 10
1411.766909014698
 20
4127.731127199282
 10
1415.531909014683
 20
4127.731127199282
  0
LWPOLYLINE
  5
B7ED
330
1E
100
AcDbEntity
  8
躯体と製品
  6
Continuous
 62
     4
100
AcDbPolyline
 90
        2
 70
     0
 43
0.0
 10
1419.296909014697
 20
4127.731127199282
 10
1419.531909014683
 20
4126.580127199269
  0
LWPOLYLINE
  5
B7EE
330
1E
100
AcDbEntity
  8
躯体と製品
  6
Continuous
 62
     4
100
AcDbPolyline
 90
        2
 70
     0
 43
0.0
 10
1469.131909014689
 20
4126.580127199269
 10
1469.131909014689
 20
4126.131127199276
  0
LWPOLYLINE
  5
B7EF
330
1E
100
AcDbEntity
  8
躯体と製品
  6
Continuous
 62
     4
100
AcDbPolyline
 90
        2
 70
     0
 43
0.0
 10
1461.131909014689
 20
4126.580127199269
 10
1461.131909014689
 20
4126.131127199276
  0
LWPOLYLINE
  5
B7F0
330
1E
100
AcDbEntity
  8
躯体と製品
  6
Continuous
 62
     4
100
AcDbPolyline
 90
        2
 70
     0
 43
0.0
 10
1468.931909014677
 20
4125.931127199264
 10
1465.131909014689
 20
4125.931127199264
  0
LWPOLYLINE
  5
B7F1
330
1E
100
AcDbEntity
  8
躯体と製品
  6
Continuous
 62
     4
100
AcDbPolyline
 90
        2
 70
     0
 43
0.0
 10
1461.131909014689
 20
4126.131127178321
 42
0.41421351636737
 10
1461.331909004223
 20
4125.931127199264
  0
LWPOLYLINE
  5
B7F2
330
1E
100
AcDbEntity
  8
躯体と製品
  6
Continuous
 62
     4
100
AcDbPolyline
 90
        2
 70
     0
 43
0.0
 10
1461.331909014701
 20
4125.931127199264
 10
1465.131909014689
 20
4125.931127199264
  0
LWPOLYLINE
  5
B7F3
330
1E
100
AcDbEntity
  8
躯体と製品
  6
Continuous
 62
     4
100
AcDbPolyline
 90
        2
 70
     0
 43
0.0
 10
1468.9319090042
 20
4125.931127199264
 42
0.4142135777083371
 10
1469.131909014689
 20
4126.131127199276
  0
LWPOLYLINE
  5
B7F4
330
1E
100
AcDbEntity
  8
躯体と製品
  6
Continuous
 62
     4
100
AcDbPolyline
 90
        2
 70
     0
 43
0.0
 10
1468.896909014703
 20
4127.731127199282
 10
1465.131909014689
 20
4127.731127199282
  0
LWPOLYLINE
  5
B7F5
330
1E
100
AcDbEntity
  8
躯体と製品
  6
Continuous
 62
     4
100
AcDbPolyline
 90
        2
 70
     0
 43
0.0
 10
1468.896458143866
 20
4127.73062473949
 42
0.2144073790574085
 10
1465.131925181343
 20
4128.930983680622
  0
LWPOLYLINE
  5
B7F6
330
1E
100
AcDbEntity
  8
躯体と製品
  6
Continuous
 62
     4
100
AcDbPolyline
 90
        2
 70
     0
 43
0.0
 10
1461.366909014675
 20
4127.731127199282
 10
1461.131909014689
 20
4126.580127199269
  0
LWPOLYLINE
  5
B7F7
330
1E
100
AcDbEntity
  8
躯体と製品
  6
Continuous
 62
     4
100
AcDbPolyline
 90
        2
 70
     0
 43
0.0
 10
1465.131892430075
 20
4128.930983728381
 42
0.2144073836089342
 10
1461.367359509869
 20
4127.730624402642
  0
LWPOLYLINE
  5
B7F8
330
1E
100
AcDbEntity
  8
躯体と製品
  6
Continuous
 62
     4
100
AcDbPolyline
 90
        2
 70
     0
 43
0.0
 10
1461.366909014675
 20
4127.731127199282
 10
1465.131909014689
 20
4127.731127199282
  0
LWPOLYLINE
  5
B7F9
330
1E
100
AcDbEntity
  8
躯体と製品
  6
Continuous
 62
     4
100
AcDbPolyline
 90
        2
 70
     0
 43
0.0
 10
1468.896909014703
 20
4127.731127199282
 10
1469.131909014689
 20
4126.580127199269
  0
LWPOLYLINE
  5
B7FA
330
1E
100
AcDbEntity
  8
躯体と製品
  6
Continuous
 62
     4
100
AcDbPolyline
 90
       13
 70
     0
 43
0.0
 10
1606.329909014712
 20
4122.731127199265
 10
1674.329909014712
 20
4122.731127199265
 10
1674.329909014712
 20
4129.731127199264
 10
1669.329909014712
 20
4129.731127199264
 10
1669.329909014712
 20
4127.731127199265
 10
1672.329909014712
 20
4127.731127199265
 10
1672.329909014712
 20
4124.731127199265
 10
1608.329909014712
 20
4124.731127199265
 10
1608.329909014712
 20
4127.731127199265
 10
1611.329909014712
 20
4127.731127199265
 10
1611.329909014712
 20
4129.731127199264
 10
1606.329909014712
 20
4129.731127199264
 10
1606.329909014712
 20
4122.731127199265
  0
LWPOLYLINE
  5
B7FB
330
1E
100
AcDbEntity
  8
躯体と製品
  6
Continuous
 62
     4
100
AcDbPolyline
 90
       28
 70
     1
 43
0.0
 10
1656.129909014712
 20
4153.731127199264
 42
-0.4142135623730951
 10
1657.829909014712
 20
4152.031127199265
 10
1657.829909014712
 20
4126.431127199264
 42
0.4142135623730951
 10
1658.329909014712
 20
4125.931127199264
 10
1670.629909014712
 20
4125.931127199264
 42
0.4142135623730951
 10
1671.129909014712
 20
4126.431127199264
 10
1671.129909014712
 20
4127.731127199265
 10
1672.329909014712
 20
4127.731127199265
 10
1672.329909014712
 20
4126.431127199264
 42
-0.4142135623730951
 10
1670.629909014712
 20
4124.731127199265
 10
1658.329909014712
 20
4124.731127199265
 42
-0.4142135623730951
 10
1656.629909014712
 20
4126.431127199264
 10
1656.629909014712
 20
4152.031127199265
 42
0.4142135623730951
 10
1656.129909014712
 20
4152.531127199265
 10
1624.529909014713
 20
4152.531127199265
 42
0.4142135623730951
 10
1624.029909014713
 20
4152.031127199265
 10
1624.029909014713
 20
4126.431127199264
 42
-0.4142135623730951
 10
1622.329909014712
 20
4124.731127199265
 10
1610.029909014713
 20
4124.731127199265
 42
-0.4142135623730951
 10
1608.329909014712
 20
4126.431127199264
 10
1608.329909014712
 20
4127.731127199265
 10
1609.529909014713
 20
4127.731127199265
 10
1609.529909014713
 20
4126.431127199264
 42
0.4142135623730951
 10
1610.029909014713
 20
4125.931127199264
 10
1622.329909014712
 20
4125.931127199264
 42
0.4142135623730951
 10
1622.829909014712
 20
4126.431127199264
 10
1622.829909014712
 20
4152.031127199265
 42
-0.4142135623730951
 10
1624.529909014713
 20
4153.731127199264
  0
LWPOLYLINE
  5
B7FC
330
1E
100
AcDbEntity
  8
躯体と製品
  6
Continuous
 62
     4
100
AcDbPolyline
 90
        2
 70
     0
 43
0.0
 10
1619.530909014695
 20
4126.580127199269
 10
1619.530909014695
 20
4126.131127199276
  0
LWPOLYLINE
  5
B7FD
330
1E
100
AcDbEntity
  8
躯体と製品
  6
Continuous
 62
     4
100
AcDbPolyline
 90
        2
 70
     0
 43
0.0
 10
1611.530909014694
 20
4126.580127199269
 10
1611.530909014694
 20
4126.131127199276
  0
LWPOLYLINE
  5
B7FE
330
1E
100
AcDbEntity
  8
躯体と製品
  6
Continuous
 62
     4
100
AcDbPolyline
 90
        2
 70
     0
 43
0.0
 10
1619.330909014712
 20
4125.931127199264
 10
1615.530909014695
 20
4125.931127199264
  0
LWPOLYLINE
  5
B7FF
330
1E
100
AcDbEntity
  8
躯体と製品
  6
Continuous
 62
     4
100
AcDbPolyline
 90
        2
 70
     0
 43
0.0
 10
1611.530909014694
 20
4126.131127178321
 42
0.41421351636737
 10
1611.730909004229
 20
4125.931127199264
  0
LWPOLYLINE
  5
B800
330
1E
100
AcDbEntity
  8
躯体と製品
  6
Continuous
 62
     4
100
AcDbPolyline
 90
        2
 70
     0
 43
0.0
 10
1611.730909014706
 20
4125.931127199264
 10
1615.530909014695
 20
4125.931127199264
  0
LWPOLYLINE
  5
B801
330
1E
100
AcDbEntity
  8
躯体と製品
  6
Continuous
 62
     4
100
AcDbPolyline
 90
        2
 70
     0
 43
0.0
 10
1619.330909004235
 20
4125.931127199264
 42
0.4142135777083371
 10
1619.530909014724
 20
4126.131127199276
  0
LWPOLYLINE
  5
B802
330
1E
100
AcDbEntity
  8
躯体と製品
  6
Continuous
 62
     4
100
AcDbPolyline
 90
        2
 70
     0
 43
0.0
 10
1619.295909014709
 20
4127.731127199282
 10
1615.530909014695
 20
4127.731127199282
  0
LWPOLYLINE
  5
B803
330
1E
100
AcDbEntity
  8
躯体と製品
  6
Continuous
 62
     4
100
AcDbPolyline
 90
        2
 70
     0
 43
0.0
 10
1619.295458143871
 20
4127.73062473949
 42
0.2144073790574085
 10
1615.530925181349
 20
4128.930983680622
  0
LWPOLYLINE
  5
B804
330
1E
100
AcDbEntity
  8
躯体と製品
  6
Continuous
 62
     4
100
AcDbPolyline
 90
        2
 70
     0
 43
0.0
 10
1611.76590901471
 20
4127.731127199282
 10
1611.530909014694
 20
4126.580127199269
  0
LWPOLYLINE
  5
B805
330
1E
100
AcDbEntity
  8
躯体と製品
  6
Continuous
 62
     4
100
AcDbPolyline
 90
        2
 70
     0
 43
0.0
 10
1615.53089243011
 20
4128.930983728381
 42
0.2144073836089342
 10
1611.766359509904
 20
4127.730624402642
  0
LWPOLYLINE
  5
B806
330
1E
100
AcDbEntity
  8
躯体と製品
  6
Continuous
 62
     4
100
AcDbPolyline
 90
        2
 70
     0
 43
0.0
 10
1611.76590901471
 20
4127.731127199282
 10
1615.530909014695
 20
4127.731127199282
  0
LWPOLYLINE
  5
B807
330
1E
100
AcDbEntity
  8
躯体と製品
  6
Continuous
 62
     4
100
AcDbPolyline
 90
        2
 70
     0
 43
0.0
 10
1619.295909014709
 20
4127.731127199282
 10
1619.530909014695
 20
4126.580127199269
  0
LWPOLYLINE
  5
B808
330
1E
100
AcDbEntity
  8
躯体と製品
  6
Continuous
 62
     4
100
AcDbPolyline
 90
        2
 70
     0
 43
0.0
 10
1669.1309090147
 20
4126.580127199269
 10
1669.1309090147
 20
4126.131127199276
  0
LWPOLYLINE
  5
B809
330
1E
100
AcDbEntity
  8
躯体と製品
  6
Continuous
 62
     4
100
AcDbPolyline
 90
        2
 70
     0
 43
0.0
 10
1661.130909014701
 20
4126.580127199269
 10
1661.130909014701
 20
4126.131127199276
  0
LWPOLYLINE
  5
B80A
330
1E
100
AcDbEntity
  8
躯体と製品
  6
Continuous
 62
     4
100
AcDbPolyline
 90
        2
 70
     0
 43
0.0
 10
1668.930909014689
 20
4125.931127199264
 10
1665.1309090147
 20
4125.931127199264
  0
LWPOLYLINE
  5
B80B
330
1E
100
AcDbEntity
  8
躯体と製品
  6
Continuous
 62
     4
100
AcDbPolyline
 90
        2
 70
     0
 43
0.0
 10
1661.130909014701
 20
4126.131127178321
 42
0.41421351636737
 10
1661.330909004235
 20
4125.931127199264
  0
LWPOLYLINE
  5
B80C
330
1E
100
AcDbEntity
  8
躯体と製品
  6
Continuous
 62
     4
100
AcDbPolyline
 90
        2
 70
     0
 43
0.0
 10
1661.330909014712
 20
4125.931127199264
 10
1665.1309090147
 20
4125.931127199264
  0
LWPOLYLINE
  5
B80D
330
1E
100
AcDbEntity
  8
躯体と製品
  6
Continuous
 62
     4
100
AcDbPolyline
 90
        2
 70
     0
 43
0.0
 10
1668.930909004211
 20
4125.931127199264
 42
0.4142135777083371
 10
1669.1309090147
 20
4126.131127199276
  0
LWPOLYLINE
  5
B80E
330
1E
100
AcDbEntity
  8
躯体と製品
  6
Continuous
 62
     4
100
AcDbPolyline
 90
        2
 70
     0
 43
0.0
 10
1668.895909014715
 20
4127.731127199282
 10
1665.1309090147
 20
4127.731127199282
  0
LWPOLYLINE
  5
B80F
330
1E
100
AcDbEntity
  8
躯体と製品
  6
Continuous
 62
     4
100
AcDbPolyline
 90
        2
 70
     0
 43
0.0
 10
1668.895458143877
 20
4127.73062473949
 42
0.2144073790574085
 10
1665.130925181355
 20
4128.930983680622
  0
LWPOLYLINE
  5
B810
330
1E
100
AcDbEntity
  8
躯体と製品
  6
Continuous
 62
     4
100
AcDbPolyline
 90
        2
 70
     0
 43
0.0
 10
1661.365909014687
 20
4127.731127199282
 10
1661.130909014701
 20
4126.580127199269
  0
LWPOLYLINE
  5
B811
330
1E
100
AcDbEntity
  8
躯体と製品
  6
Continuous
 62
     4
100
AcDbPolyline
 90
        2
 70
     0
 43
0.0
 10
1665.130892430086
 20
4128.930983728381
 42
0.2144073836089342
 10
1661.36635950988
 20
4127.730624402642
  0
LWPOLYLINE
  5
B812
330
1E
100
AcDbEntity
  8
躯体と製品
  6
Continuous
 62
     4
100
AcDbPolyline
 90
        2
 70
     0
 43
0.0
 10
1661.365909014687
 20
4127.731127199282
 10
1665.1309090147
 20
4127.731127199282
  0
LWPOLYLINE
  5
B813
330
1E
100
AcDbEntity
  8
躯体と製品
  6
Continuous
 62
     4
100
AcDbPolyline
 90
        2
 70
     0
 43
0.0
 10
1668.895909014715
 20
4127.731127199282
 10
1669.1309090147
 20
4126.580127199269
  0
LWPOLYLINE
  5
B814
330
1E
100
AcDbEntity
  8
躯体と製品
  6
Continuous
 62
     4
100
AcDbPolyline
 90
       13
 70
     0
 43
0.0
 10
1806.329909014712
 20
4122.731127199265
 10
1874.329909014712
 20
4122.731127199265
 10
1874.329909014712
 20
4129.731127199264
 10
1869.329909014712
 20
4129.731127199264
 10
1869.329909014712
 20
4127.731127199265
 10
1872.329909014712
 20
4127.731127199265
 10
1872.329909014712
 20
4124.731127199265
 10
1808.329909014712
 20
4124.731127199265
 10
1808.329909014712
 20
4127.731127199265
 10
1811.329909014712
 20
4127.731127199265
 10
1811.329909014712
 20
4129.731127199264
 10
1806.329909014712
 20
4129.731127199264
 10
1806.329909014712
 20
4122.731127199265
  0
LWPOLYLINE
  5
B815
330
1E
100
AcDbEntity
  8
躯体と製品
  6
Continuous
 62
     4
100
AcDbPolyline
 90
       28
 70
     1
 43
0.0
 10
1856.129909014712
 20
4153.731127199264
 42
-0.4142135623730951
 10
1857.829909014712
 20
4152.031127199265
 10
1857.829909014712
 20
4126.431127199264
 42
0.4142135623730951
 10
1858.329909014712
 20
4125.931127199264
 10
1870.629909014712
 20
4125.931127199264
 42
0.4142135623730951
 10
1871.129909014712
 20
4126.431127199264
 10
1871.129909014712
 20
4127.731127199265
 10
1872.329909014712
 20
4127.731127199265
 10
1872.329909014712
 20
4126.431127199264
 42
-0.4142135623730951
 10
1870.629909014712
 20
4124.731127199265
 10
1858.329909014712
 20
4124.731127199265
 42
-0.4142135623730951
 10
1856.629909014712
 20
4126.431127199264
 10
1856.629909014712
 20
4152.031127199265
 42
0.4142135623730951
 10
1856.129909014712
 20
4152.531127199265
 10
1824.529909014713
 20
4152.531127199265
 42
0.4142135623730951
 10
1824.029909014713
 20
4152.031127199265
 10
1824.029909014713
 20
4126.431127199264
 42
-0.4142135623730951
 10
1822.329909014712
 20
4124.731127199265
 10
1810.029909014713
 20
4124.731127199265
 42
-0.4142135623730951
 10
1808.329909014712
 20
4126.431127199264
 10
1808.329909014712
 20
4127.731127199265
 10
1809.529909014713
 20
4127.731127199265
 10
1809.529909014713
 20
4126.431127199264
 42
0.4142135623730951
 10
1810.029909014713
 20
4125.931127199264
 10
1822.329909014712
 20
4125.931127199264
 42
0.4142135623730951
 10
1822.829909014712
 20
4126.431127199264
 10
1822.829909014712
 20
4152.031127199265
 42
-0.4142135623730951
 10
1824.529909014713
 20
4153.731127199264
  0
LWPOLYLINE
  5
B816
330
1E
100
AcDbEntity
  8
躯体と製品
  6
Continuous
 62
     4
100
AcDbPolyline
 90
        2
 70
     0
 43
0.0
 10
1819.530909014695
 20
4126.580127199269
 10
1819.530909014695
 20
4126.131127199276
  0
LWPOLYLINE
  5
B817
330
1E
100
AcDbEntity
  8
躯体と製品
  6
Continuous
 62
     4
100
AcDbPolyline
 90
        2
 70
     0
 43
0.0
 10
1811.530909014695
 20
4126.580127199269
 10
1811.530909014695
 20
4126.131127199276
  0
LWPOLYLINE
  5
B818
330
1E
100
AcDbEntity
  8
躯体と製品
  6
Continuous
 62
     4
100
AcDbPolyline
 90
        2
 70
     0
 43
0.0
 10
1819.330909014712
 20
4125.931127199264
 10
1815.530909014695
 20
4125.931127199264
  0
LWPOLYLINE
  5
B819
330
1E
100
AcDbEntity
  8
躯体と製品
  6
Continuous
 62
     4
100
AcDbPolyline
 90
        2
 70
     0
 43
0.0
 10
1811.530909014695
 20
4126.131127178321
 42
0.41421351636737
 10
1811.730909004229
 20
4125.931127199264
  0
LWPOLYLINE
  5
B81A
330
1E
100
AcDbEntity
  8
躯体と製品
  6
Continuous
 62
     4
100
AcDbPolyline
 90
        2
 70
     0
 43
0.0
 10
1811.730909014706
 20
4125.931127199264
 10
1815.530909014695
 20
4125.931127199264
  0
LWPOLYLINE
  5
B81B
330
1E
100
AcDbEntity
  8
躯体と製品
  6
Continuous
 62
     4
100
AcDbPolyline
 90
        2
 70
     0
 43
0.0
 10
1819.330909004235
 20
4125.931127199264
 42
0.4142135777083371
 10
1819.530909014724
 20
4126.131127199276
  0
LWPOLYLINE
  5
B81C
330
1E
100
AcDbEntity
  8
躯体と製品
  6
Continuous
 62
     4
100
AcDbPolyline
 90
        2
 70
     0
 43
0.0
 10
1819.295909014709
 20
4127.731127199282
 10
1815.530909014695
 20
4127.731127199282
  0
LWPOLYLINE
  5
B81D
330
1E
100
AcDbEntity
  8
躯体と製品
  6
Continuous
 62
     4
100
AcDbPolyline
 90
        2
 70
     0
 43
0.0
 10
1819.295458143871
 20
4127.73062473949
 42
0.2144073790574085
 10
1815.530925181349
 20
4128.930983680622
  0
LWPOLYLINE
  5
B81E
330
1E
100
AcDbEntity
  8
躯体と製品
  6
Continuous
 62
     4
100
AcDbPolyline
 90
        2
 70
     0
 43
0.0
 10
1811.76590901471
 20
4127.731127199282
 10
1811.530909014695
 20
4126.580127199269
  0
LWPOLYLINE
  5
B81F
330
1E
100
AcDbEntity
  8
躯体と製品
  6
Continuous
 62
     4
100
AcDbPolyline
 90
        2
 70
     0
 43
0.0
 10
1815.53089243011
 20
4128.930983728381
 42
0.2144073836089342
 10
1811.766359509904
 20
4127.730624402642
  0
LWPOLYLINE
  5
B820
330
1E
100
AcDbEntity
  8
躯体と製品
  6
Continuous
 62
     4
100
AcDbPolyline
 90
        2
 70
     0
 43
0.0
 10
1811.76590901471
 20
4127.731127199282
 10
1815.530909014695
 20
4127.731127199282
  0
LWPOLYLINE
  5
B821
330
1E
100
AcDbEntity
  8
躯体と製品
  6
Continuous
 62
     4
100
AcDbPolyline
 90
        2
 70
     0
 43
0.0
 10
1819.295909014709
 20
4127.731127199282
 10
1819.530909014695
 20
4126.580127199269
  0
LWPOLYLINE
  5
B822
330
1E
100
AcDbEntity
  8
躯体と製品
  6
Continuous
 62
     4
100
AcDbPolyline
 90
        2
 70
     0
 43
0.0
 10
1869.1309090147
 20
4126.580127199269
 10
1869.1309090147
 20
4126.131127199276
  0
LWPOLYLINE
  5
B823
330
1E
100
AcDbEntity
  8
躯体と製品
  6
Continuous
 62
     4
100
AcDbPolyline
 90
        2
 70
     0
 43
0.0
 10
1861.130909014701
 20
4126.580127199269
 10
1861.130909014701
 20
4126.131127199276
  0
LWPOLYLINE
  5
B824
330
1E
100
AcDbEntity
  8
躯体と製品
  6
Continuous
 62
     4
100
AcDbPolyline
 90
        2
 70
     0
 43
0.0
 10
1868.930909014689
 20
4125.931127199264
 10
1865.1309090147
 20
4125.931127199264
  0
LWPOLYLINE
  5
B825
330
1E
100
AcDbEntity
  8
躯体と製品
  6
Continuous
 62
     4
100
AcDbPolyline
 90
        2
 70
     0
 43
0.0
 10
1861.130909014701
 20
4126.131127178321
 42
0.41421351636737
 10
1861.330909004235
 20
4125.931127199264
  0
LWPOLYLINE
  5
B826
330
1E
100
AcDbEntity
  8
躯体と製品
  6
Continuous
 62
     4
100
AcDbPolyline
 90
        2
 70
     0
 43
0.0
 10
1861.330909014712
 20
4125.931127199264
 10
1865.1309090147
 20
4125.931127199264
  0
LWPOLYLINE
  5
B827
330
1E
100
AcDbEntity
  8
躯体と製品
  6
Continuous
 62
     4
100
AcDbPolyline
 90
        2
 70
     0
 43
0.0
 10
1868.930909004211
 20
4125.931127199264
 42
0.4142135777083371
 10
1869.1309090147
 20
4126.131127199276
  0
LWPOLYLINE
  5
B828
330
1E
100
AcDbEntity
  8
躯体と製品
  6
Continuous
 62
     4
100
AcDbPolyline
 90
        2
 70
     0
 43
0.0
 10
1868.895909014715
 20
4127.731127199282
 10
1865.1309090147
 20
4127.731127199282
  0
LWPOLYLINE
  5
B829
330
1E
100
AcDbEntity
  8
躯体と製品
  6
Continuous
 62
     4
100
AcDbPolyline
 90
        2
 70
     0
 43
0.0
 10
1868.895458143877
 20
4127.73062473949
 42
0.2144073790574085
 10
1865.130925181355
 20
4128.930983680622
  0
LWPOLYLINE
  5
B82A
330
1E
100
AcDbEntity
  8
躯体と製品
  6
Continuous
 62
     4
100
AcDbPolyline
 90
        2
 70
     0
 43
0.0
 10
1861.365909014686
 20
4127.731127199282
 10
1861.130909014701
 20
4126.580127199269
  0
LWPOLYLINE
  5
B82B
330
1E
100
AcDbEntity
  8
躯体と製品
  6
Continuous
 62
     4
100
AcDbPolyline
 90
        2
 70
     0
 43
0.0
 10
1865.130892430087
 20
4128.930983728381
 42
0.2144073836089342
 10
1861.366359509881
 20
4127.730624402642
  0
LWPOLYLINE
  5
B82C
330
1E
100
AcDbEntity
  8
躯体と製品
  6
Continuous
 62
     4
100
AcDbPolyline
 90
        2
 70
     0
 43
0.0
 10
1861.365909014686
 20
4127.731127199282
 10
1865.1309090147
 20
4127.731127199282
  0
LWPOLYLINE
  5
B82D
330
1E
100
AcDbEntity
  8
躯体と製品
  6
Continuous
 62
     4
100
AcDbPolyline
 90
        2
 70
     0
 43
0.0
 10
1868.895909014715
 20
4127.731127199282
 10
1869.1309090147
 20
4126.580127199269
  0
LWPOLYLINE
  5
B82E
330
1E
100
AcDbEntity
  8
躯体と製品
  6
Continuous
 62
     4
100
AcDbPolyline
 90
       13
 70
     0
 43
0.0
 10
2106.329909014712
 20
4122.731127199265
 10
2174.329909014712
 20
4122.731127199265
 10
2174.329909014712
 20
4129.731127199264
 10
2169.329909014712
 20
4129.731127199264
 10
2169.329909014712
 20
4127.731127199265
 10
2172.329909014712
 20
4127.731127199265
 10
2172.329909014712
 20
4124.731127199265
 10
2108.329909014712
 20
4124.731127199265
 10
2108.329909014712
 20
4127.731127199265
 10
2111.329909014712
 20
4127.731127199265
 10
2111.329909014712
 20
4129.731127199264
 10
2106.329909014712
 20
4129.731127199264
 10
2106.329909014712
 20
4122.731127199265
  0
LWPOLYLINE
  5
B82F
330
1E
100
AcDbEntity
  8
躯体と製品
  6
Continuous
 62
     4
100
AcDbPolyline
 90
       28
 70
     1
 43
0.0
 10
2156.129909014712
 20
4153.731127199264
 42
-0.4142135623730951
 10
2157.829909014712
 20
4152.031127199265
 10
2157.829909014712
 20
4126.431127199264
 42
0.4142135623730951
 10
2158.329909014712
 20
4125.931127199264
 10
2170.629909014712
 20
4125.931127199264
 42
0.4142135623730951
 10
2171.129909014712
 20
4126.431127199264
 10
2171.129909014712
 20
4127.731127199265
 10
2172.329909014712
 20
4127.731127199265
 10
2172.329909014712
 20
4126.431127199264
 42
-0.4142135623730951
 10
2170.629909014712
 20
4124.731127199265
 10
2158.329909014712
 20
4124.731127199265
 42
-0.4142135623730951
 10
2156.629909014712
 20
4126.431127199264
 10
2156.629909014712
 20
4152.031127199265
 42
0.4142135623730951
 10
2156.129909014712
 20
4152.531127199265
 10
2124.529909014713
 20
4152.531127199265
 42
0.4142135623730951
 10
2124.029909014713
 20
4152.031127199265
 10
2124.029909014713
 20
4126.431127199264
 42
-0.4142135623730951
 10
2122.329909014712
 20
4124.731127199265
 10
2110.029909014713
 20
4124.731127199265
 42
-0.4142135623730951
 10
2108.329909014712
 20
4126.431127199264
 10
2108.329909014712
 20
4127.731127199265
 10
2109.529909014713
 20
4127.731127199265
 10
2109.529909014713
 20
4126.431127199264
 42
0.4142135623730951
 10
2110.029909014713
 20
4125.931127199264
 10
2122.329909014712
 20
4125.931127199264
 42
0.4142135623730951
 10
2122.829909014712
 20
4126.431127199264
 10
2122.829909014712
 20
4152.031127199265
 42
-0.4142135623730951
 10
2124.529909014713
 20
4153.731127199264
  0
LWPOLYLINE
  5
B830
330
1E
100
AcDbEntity
  8
躯体と製品
  6
Continuous
 62
     4
100
AcDbPolyline
 90
        2
 70
     0
 43
0.0
 10
2119.530909014695
 20
4126.580127199269
 10
2119.530909014695
 20
4126.131127199276
  0
LWPOLYLINE
  5
B831
330
1E
100
AcDbEntity
  8
躯体と製品
  6
Continuous
 62
     4
100
AcDbPolyline
 90
        2
 70
     0
 43
0.0
 10
2111.530909014695
 20
4126.580127199269
 10
2111.530909014695
 20
4126.131127199276
  0
LWPOLYLINE
  5
B832
330
1E
100
AcDbEntity
  8
躯体と製品
  6
Continuous
 62
     4
100
AcDbPolyline
 90
        2
 70
     0
 43
0.0
 10
2119.330909014712
 20
4125.931127199264
 10
2115.530909014695
 20
4125.931127199264
  0
LWPOLYLINE
  5
B833
330
1E
100
AcDbEntity
  8
躯体と製品
  6
Continuous
 62
     4
100
AcDbPolyline
 90
        2
 70
     0
 43
0.0
 10
2111.530909014695
 20
4126.131127178321
 42
0.41421351636737
 10
2111.730909004229
 20
4125.931127199264
  0
LWPOLYLINE
  5
B834
330
1E
100
AcDbEntity
  8
躯体と製品
  6
Continuous
 62
     4
100
AcDbPolyline
 90
        2
 70
     0
 43
0.0
 10
2111.730909014706
 20
4125.931127199264
 10
2115.530909014695
 20
4125.931127199264
  0
LWPOLYLINE
  5
B835
330
1E
100
AcDbEntity
  8
躯体と製品
  6
Continuous
 62
     4
100
AcDbPolyline
 90
        2
 70
     0
 43
0.0
 10
2119.330909004235
 20
4125.931127199264
 42
0.4142135777083371
 10
2119.530909014724
 20
4126.131127199276
  0
LWPOLYLINE
  5
B836
330
1E
100
AcDbEntity
  8
躯体と製品
  6
Continuous
 62
     4
100
AcDbPolyline
 90
        2
 70
     0
 43
0.0
 10
2119.295909014709
 20
4127.731127199282
 10
2115.530909014695
 20
4127.731127199282
  0
LWPOLYLINE
  5
B837
330
1E
100
AcDbEntity
  8
躯体と製品
  6
Continuous
 62
     4
100
AcDbPolyline
 90
        2
 70
     0
 43
0.0
 10
2119.295458143872
 20
4127.73062473949
 42
0.2144073790574085
 10
2115.530925181349
 20
4128.930983680622
  0
LWPOLYLINE
  5
B838
330
1E
100
AcDbEntity
  8
躯体と製品
  6
Continuous
 62
     4
100
AcDbPolyline
 90
        2
 70
     0
 43
0.0
 10
2111.76590901471
 20
4127.731127199282
 10
2111.530909014695
 20
4126.580127199269
  0
LWPOLYLINE
  5
B839
330
1E
100
AcDbEntity
  8
躯体と製品
  6
Continuous
 62
     4
100
AcDbPolyline
 90
        2
 70
     0
 43
0.0
 10
2115.53089243011
 20
4128.930983728381
 42
0.2144073836089342
 10
2111.766359509904
 20
4127.730624402642
  0
LWPOLYLINE
  5
B83A
330
1E
100
AcDbEntity
  8
躯体と製品
  6
Continuous
 62
     4
100
AcDbPolyline
 90
        2
 70
     0
 43
0.0
 10
2111.76590901471
 20
4127.731127199282
 10
2115.530909014695
 20
4127.731127199282
  0
LWPOLYLINE
  5
B83B
330
1E
100
AcDbEntity
  8
躯体と製品
  6
Continuous
 62
     4
100
AcDbPolyline
 90
        2
 70
     0
 43
0.0
 10
2119.295909014709
 20
4127.731127199282
 10
2119.530909014695
 20
4126.580127199269
  0
LWPOLYLINE
  5
B83C
330
1E
100
AcDbEntity
  8
躯体と製品
  6
Continuous
 62
     4
100
AcDbPolyline
 90
        2
 70
     0
 43
0.0
 10
2169.1309090147
 20
4126.580127199269
 10
2169.1309090147
 20
4126.131127199276
  0
LWPOLYLINE
  5
B83D
330
1E
100
AcDbEntity
  8
躯体と製品
  6
Continuous
 62
     4
100
AcDbPolyline
 90
        2
 70
     0
 43
0.0
 10
2161.130909014701
 20
4126.580127199269
 10
2161.130909014701
 20
4126.131127199276
  0
LWPOLYLINE
  5
B83E
330
1E
100
AcDbEntity
  8
躯体と製品
  6
Continuous
 62
     4
100
AcDbPolyline
 90
        2
 70
     0
 43
0.0
 10
2168.930909014689
 20
4125.931127199264
 10
2165.130909014701
 20
4125.931127199264
  0
LWPOLYLINE
  5
B83F
330
1E
100
AcDbEntity
  8
躯体と製品
  6
Continuous
 62
     4
100
AcDbPolyline
 90
        2
 70
     0
 43
0.0
 10
2161.130909014701
 20
4126.131127178321
 42
0.41421351636737
 10
2161.330909004235
 20
4125.931127199264
  0
LWPOLYLINE
  5
B840
330
1E
100
AcDbEntity
  8
躯体と製品
  6
Continuous
 62
     4
100
AcDbPolyline
 90
        2
 70
     0
 43
0.0
 10
2161.330909014712
 20
4125.931127199264
 10
2165.130909014701
 20
4125.931127199264
  0
LWPOLYLINE
  5
B841
330
1E
100
AcDbEntity
  8
躯体と製品
  6
Continuous
 62
     4
100
AcDbPolyline
 90
        2
 70
     0
 43
0.0
 10
2168.930909004211
 20
4125.931127199264
 42
0.4142135777083371
 10
2169.1309090147
 20
4126.131127199276
  0
LWPOLYLINE
  5
B842
330
1E
100
AcDbEntity
  8
躯体と製品
  6
Continuous
 62
     4
100
AcDbPolyline
 90
        2
 70
     0
 43
0.0
 10
2168.895909014715
 20
4127.731127199282
 10
2165.130909014701
 20
4127.731127199282
  0
LWPOLYLINE
  5
B843
330
1E
100
AcDbEntity
  8
躯体と製品
  6
Continuous
 62
     4
100
AcDbPolyline
 90
        2
 70
     0
 43
0.0
 10
2168.895458143877
 20
4127.73062473949
 42
0.2144073790574085
 10
2165.130925181355
 20
4128.930983680622
  0
LWPOLYLINE
  5
B844
330
1E
100
AcDbEntity
  8
躯体と製品
  6
Continuous
 62
     4
100
AcDbPolyline
 90
        2
 70
     0
 43
0.0
 10
2161.365909014687
 20
4127.731127199282
 10
2161.130909014701
 20
4126.580127199269
  0
LWPOLYLINE
  5
B845
330
1E
100
AcDbEntity
  8
躯体と製品
  6
Continuous
 62
     4
100
AcDbPolyline
 90
        2
 70
     0
 43
0.0
 10
2165.130892430087
 20
4128.930983728381
 42
0.2144073836089342
 10
2161.366359509881
 20
4127.730624402642
  0
LWPOLYLINE
  5
B846
330
1E
100
AcDbEntity
  8
躯体と製品
  6
Continuous
 62
     4
100
AcDbPolyline
 90
        2
 70
     0
 43
0.0
 10
2161.365909014687
 20
4127.731127199282
 10
2165.130909014701
 20
4127.731127199282
  0
LWPOLYLINE
  5
B847
330
1E
100
AcDbEntity
  8
躯体と製品
  6
Continuous
 62
     4
100
AcDbPolyline
 90
        2
 70
     0
 43
0.0
 10
2168.895909014715
 20
4127.731127199282
 10
2169.1309090147
 20
4126.580127199269
  0
LWPOLYLINE
  5
B848
330
1E
100
AcDbEntity
  8
躯体と製品
  6
Continuous
 62
     4
100
AcDbPolyline
 90
       13
 70
     0
 43
0.0
 10
2406.329909014712
 20
4122.731127199265
 10
2474.329909014712
 20
4122.731127199265
 10
2474.329909014712
 20
4129.731127199264
 10
2469.329909014712
 20
4129.731127199264
 10
2469.329909014712
 20
4127.731127199265
 10
2472.329909014713
 20
4127.731127199265
 10
2472.329909014713
 20
4124.731127199265
 10
2408.329909014712
 20
4124.731127199265
 10
2408.329909014712
 20
4127.731127199265
 10
2411.329909014712
 20
4127.731127199265
 10
2411.329909014712
 20
4129.731127199264
 10
2406.329909014712
 20
4129.731127199264
 10
2406.329909014712
 20
4122.731127199265
  0
LWPOLYLINE
  5
B849
330
1E
100
AcDbEntity
  8
躯体と製品
  6
Continuous
 62
     4
100
AcDbPolyline
 90
       28
 70
     1
 43
0.0
 10
2456.129909014713
 20
4153.731127199264
 42
-0.4142135623730951
 10
2457.829909014712
 20
4152.031127199265
 10
2457.829909014712
 20
4126.431127199264
 42
0.4142135623730951
 10
2458.329909014712
 20
4125.931127199264
 10
2470.629909014713
 20
4125.931127199264
 42
0.4142135623730951
 10
2471.129909014712
 20
4126.431127199264
 10
2471.129909014712
 20
4127.731127199265
 10
2472.329909014713
 20
4127.731127199265
 10
2472.329909014713
 20
4126.431127199264
 42
-0.4142135623730951
 10
2470.629909014713
 20
4124.731127199265
 10
2458.329909014712
 20
4124.731127199265
 42
-0.4142135623730951
 10
2456.629909014712
 20
4126.431127199264
 10
2456.629909014712
 20
4152.031127199265
 42
0.4142135623730951
 10
2456.129909014713
 20
4152.531127199265
 10
2424.529909014713
 20
4152.531127199265
 42
0.4142135623730951
 10
2424.029909014713
 20
4152.031127199265
 10
2424.029909014713
 20
4126.431127199264
 42
-0.4142135623730951
 10
2422.329909014712
 20
4124.731127199265
 10
2410.029909014713
 20
4124.731127199265
 42
-0.4142135623730951
 10
2408.329909014712
 20
4126.431127199264
 10
2408.329909014712
 20
4127.731127199265
 10
2409.529909014713
 20
4127.731127199265
 10
2409.529909014713
 20
4126.431127199264
 42
0.4142135623730951
 10
2410.029909014713
 20
4125.931127199264
 10
2422.329909014712
 20
4125.931127199264
 42
0.4142135623730951
 10
2422.829909014712
 20
4126.431127199264
 10
2422.829909014712
 20
4152.031127199265
 42
-0.4142135623730951
 10
2424.529909014713
 20
4153.731127199264
  0
LWPOLYLINE
  5
B84A
330
1E
100
AcDbEntity
  8
躯体と製品
  6
Continuous
 62
     4
100
AcDbPolyline
 90
        2
 70
     0
 43
0.0
 10
2419.530909014695
 20
4126.580127199269
 10
2419.530909014695
 20
4126.131127199276
  0
LWPOLYLINE
  5
B84B
330
1E
100
AcDbEntity
  8
躯体と製品
  6
Continuous
 62
     4
100
AcDbPolyline
 90
        2
 70
     0
 43
0.0
 10
2411.530909014695
 20
4126.580127199269
 10
2411.530909014695
 20
4126.131127199276
  0
LWPOLYLINE
  5
B84C
330
1E
100
AcDbEntity
  8
躯体と製品
  6
Continuous
 62
     4
100
AcDbPolyline
 90
        2
 70
     0
 43
0.0
 10
2419.330909014713
 20
4125.931127199264
 10
2415.530909014695
 20
4125.931127199264
  0
LWPOLYLINE
  5
B84D
330
1E
100
AcDbEntity
  8
躯体と製品
  6
Continuous
 62
     4
100
AcDbPolyline
 90
        2
 70
     0
 43
0.0
 10
2411.530909014695
 20
4126.131127178321
 42
0.41421351636737
 10
2411.730909004229
 20
4125.931127199264
  0
LWPOLYLINE
  5
B84E
330
1E
100
AcDbEntity
  8
躯体と製品
  6
Continuous
 62
     4
100
AcDbPolyline
 90
        2
 70
     0
 43
0.0
 10
2411.730909014706
 20
4125.931127199264
 10
2415.530909014695
 20
4125.931127199264
  0
LWPOLYLINE
  5
B84F
330
1E
100
AcDbEntity
  8
躯体と製品
  6
Continuous
 62
     4
100
AcDbPolyline
 90
        2
 70
     0
 43
0.0
 10
2419.330909004235
 20
4125.931127199264
 42
0.4142135777083371
 10
2419.530909014724
 20
4126.131127199276
  0
LWPOLYLINE
  5
B850
330
1E
100
AcDbEntity
  8
躯体と製品
  6
Continuous
 62
     4
100
AcDbPolyline
 90
        2
 70
     0
 43
0.0
 10
2419.295909014709
 20
4127.731127199282
 10
2415.530909014695
 20
4127.731127199282
  0
LWPOLYLINE
  5
B851
330
1E
100
AcDbEntity
  8
躯体と製品
  6
Continuous
 62
     4
100
AcDbPolyline
 90
        2
 70
     0
 43
0.0
 10
2419.295458143872
 20
4127.73062473949
 42
0.2144073790574085
 10
2415.530925181349
 20
4128.930983680622
  0
LWPOLYLINE
  5
B852
330
1E
100
AcDbEntity
  8
躯体と製品
  6
Continuous
 62
     4
100
AcDbPolyline
 90
        2
 70
     0
 43
0.0
 10
2411.76590901471
 20
4127.731127199282
 10
2411.530909014695
 20
4126.580127199269
  0
LWPOLYLINE
  5
B853
330
1E
100
AcDbEntity
  8
躯体と製品
  6
Continuous
 62
     4
100
AcDbPolyline
 90
        2
 70
     0
 43
0.0
 10
2415.53089243011
 20
4128.930983728381
 42
0.2144073836089342
 10
2411.766359509904
 20
4127.730624402642
  0
LWPOLYLINE
  5
B854
330
1E
100
AcDbEntity
  8
躯体と製品
  6
Continuous
 62
     4
100
AcDbPolyline
 90
        2
 70
     0
 43
0.0
 10
2411.76590901471
 20
4127.731127199282
 10
2415.530909014695
 20
4127.731127199282
  0
LWPOLYLINE
  5
B855
330
1E
100
AcDbEntity
  8
躯体と製品
  6
Continuous
 62
     4
100
AcDbPolyline
 90
        2
 70
     0
 43
0.0
 10
2419.295909014709
 20
4127.731127199282
 10
2419.530909014695
 20
4126.580127199269
  0
LWPOLYLINE
  5
B856
330
1E
100
AcDbEntity
  8
躯体と製品
  6
Continuous
 62
     4
100
AcDbPolyline
 90
        2
 70
     0
 43
0.0
 10
2469.130909014701
 20
4126.580127199269
 10
2469.130909014701
 20
4126.131127199276
  0
LWPOLYLINE
  5
B857
330
1E
100
AcDbEntity
  8
躯体と製品
  6
Continuous
 62
     4
100
AcDbPolyline
 90
        2
 70
     0
 43
0.0
 10
2461.130909014701
 20
4126.580127199269
 10
2461.130909014701
 20
4126.131127199276
  0
LWPOLYLINE
  5
B858
330
1E
100
AcDbEntity
  8
躯体と製品
  6
Continuous
 62
     4
100
AcDbPolyline
 90
        2
 70
     0
 43
0.0
 10
2468.930909014689
 20
4125.931127199264
 10
2465.130909014701
 20
4125.931127199264
  0
LWPOLYLINE
  5
B859
330
1E
100
AcDbEntity
  8
躯体と製品
  6
Continuous
 62
     4
100
AcDbPolyline
 90
        2
 70
     0
 43
0.0
 10
2461.130909014701
 20
4126.131127178321
 42
0.41421351636737
 10
2461.330909004235
 20
4125.931127199264
  0
LWPOLYLINE
  5
B85A
330
1E
100
AcDbEntity
  8
躯体と製品
  6
Continuous
 62
     4
100
AcDbPolyline
 90
        2
 70
     0
 43
0.0
 10
2461.330909014713
 20
4125.931127199264
 10
2465.130909014701
 20
4125.931127199264
  0
LWPOLYLINE
  5
B85B
330
1E
100
AcDbEntity
  8
躯体と製品
  6
Continuous
 62
     4
100
AcDbPolyline
 90
        2
 70
     0
 43
0.0
 10
2468.930909004212
 20
4125.931127199264
 42
0.4142135777083371
 10
2469.130909014701
 20
4126.131127199276
  0
LWPOLYLINE
  5
B85C
330
1E
100
AcDbEntity
  8
躯体と製品
  6
Continuous
 62
     4
100
AcDbPolyline
 90
        2
 70
     0
 43
0.0
 10
2468.895909014715
 20
4127.731127199282
 10
2465.130909014701
 20
4127.731127199282
  0
LWPOLYLINE
  5
B85D
330
1E
100
AcDbEntity
  8
躯体と製品
  6
Continuous
 62
     4
100
AcDbPolyline
 90
        2
 70
     0
 43
0.0
 10
2468.895458143878
 20
4127.73062473949
 42
0.2144073790574085
 10
2465.130925181355
 20
4128.930983680622
  0
LWPOLYLINE
  5
B85E
330
1E
100
AcDbEntity
  8
躯体と製品
  6
Continuous
 62
     4
100
AcDbPolyline
 90
        2
 70
     0
 43
0.0
 10
2461.365909014687
 20
4127.731127199282
 10
2461.130909014701
 20
4126.580127199269
  0
LWPOLYLINE
  5
B85F
330
1E
100
AcDbEntity
  8
躯体と製品
  6
Continuous
 62
     4
100
AcDbPolyline
 90
        2
 70
     0
 43
0.0
 10
2465.130892430087
 20
4128.930983728381
 42
0.2144073836089342
 10
2461.366359509881
 20
4127.730624402642
  0
LWPOLYLINE
  5
B860
330
1E
100
AcDbEntity
  8
躯体と製品
  6
Continuous
 62
     4
100
AcDbPolyline
 90
        2
 70
     0
 43
0.0
 10
2461.365909014687
 20
4127.731127199282
 10
2465.130909014701
 20
4127.731127199282
  0
LWPOLYLINE
  5
B861
330
1E
100
AcDbEntity
  8
躯体と製品
  6
Continuous
 62
     4
100
AcDbPolyline
 90
        2
 70
     0
 43
0.0
 10
2468.895909014715
 20
4127.731127199282
 10
2469.130909014701
 20
4126.580127199269
  0
LWPOLYLINE
  5
B862
330
1E
100
AcDbEntity
  8
躯体と製品
  6
Continuous
 62
     4
100
AcDbPolyline
 90
       13
 70
     0
 43
0.0
 10
2706.329909014713
 20
4122.731127199265
 10
2774.329909014712
 20
4122.731127199265
 10
2774.329909014712
 20
4129.731127199264
 10
2769.329909014712
 20
4129.731127199264
 10
2769.329909014712
 20
4127.731127199265
 10
2772.329909014712
 20
4127.731127199265
 10
2772.329909014712
 20
4124.731127199265
 10
2708.329909014712
 20
4124.731127199265
 10
2708.329909014712
 20
4127.731127199265
 10
2711.329909014712
 20
4127.731127199265
 10
2711.329909014712
 20
4129.731127199264
 10
2706.329909014713
 20
4129.731127199264
 10
2706.329909014713
 20
4122.731127199265
  0
LWPOLYLINE
  5
B863
330
1E
100
AcDbEntity
  8
躯体と製品
  6
Continuous
 62
     4
100
AcDbPolyline
 90
       28
 70
     1
 43
0.0
 10
2756.129909014712
 20
4153.731127199264
 42
-0.4142135623730951
 10
2757.829909014712
 20
4152.031127199265
 10
2757.829909014712
 20
4126.431127199264
 42
0.4142135623730951
 10
2758.329909014712
 20
4125.931127199264
 10
2770.629909014712
 20
4125.931127199264
 42
0.4142135623730951
 10
2771.129909014713
 20
4126.431127199264
 10
2771.129909014713
 20
4127.731127199265
 10
2772.329909014712
 20
4127.731127199265
 10
2772.329909014712
 20
4126.431127199264
 42
-0.4142135623730951
 10
2770.629909014712
 20
4124.731127199265
 10
2758.329909014712
 20
4124.731127199265
 42
-0.4142135623730951
 10
2756.629909014713
 20
4126.431127199264
 10
2756.629909014713
 20
4152.031127199265
 42
0.4142135623730951
 10
2756.129909014712
 20
4152.531127199265
 10
2724.529909014713
 20
4152.531127199265
 42
0.4142135623730951
 10
2724.029909014713
 20
4152.031127199265
 10
2724.029909014713
 20
4126.431127199264
 42
-0.4142135623730951
 10
2722.329909014713
 20
4124.731127199265
 10
2710.029909014713
 20
4124.731127199265
 42
-0.4142135623730951
 10
2708.329909014712
 20
4126.431127199264
 10
2708.329909014712
 20
4127.731127199265
 10
2709.529909014713
 20
4127.731127199265
 10
2709.529909014713
 20
4126.431127199264
 42
0.4142135623730951
 10
2710.029909014713
 20
4125.931127199264
 10
2722.329909014713
 20
4125.931127199264
 42
0.4142135623730951
 10
2722.829909014712
 20
4126.431127199264
 10
2722.829909014712
 20
4152.031127199265
 42
-0.4142135623730951
 10
2724.529909014713
 20
4153.731127199264
  0
LWPOLYLINE
  5
B864
330
1E
100
AcDbEntity
  8
躯体と製品
  6
Continuous
 62
     4
100
AcDbPolyline
 90
        2
 70
     0
 43
0.0
 10
2719.530909014695
 20
4126.580127199269
 10
2719.530909014695
 20
4126.131127199276
  0
LWPOLYLINE
  5
B865
330
1E
100
AcDbEntity
  8
躯体と製品
  6
Continuous
 62
     4
100
AcDbPolyline
 90
        2
 70
     0
 43
0.0
 10
2711.530909014695
 20
4126.580127199269
 10
2711.530909014695
 20
4126.131127199276
  0
LWPOLYLINE
  5
B866
330
1E
100
AcDbEntity
  8
躯体と製品
  6
Continuous
 62
     4
100
AcDbPolyline
 90
        2
 70
     0
 43
0.0
 10
2719.330909014713
 20
4125.931127199264
 10
2715.530909014695
 20
4125.931127199264
  0
LWPOLYLINE
  5
B867
330
1E
100
AcDbEntity
  8
躯体と製品
  6
Continuous
 62
     4
100
AcDbPolyline
 90
        2
 70
     0
 43
0.0
 10
2711.530909014695
 20
4126.131127178321
 42
0.41421351636737
 10
2711.730909004229
 20
4125.931127199264
  0
LWPOLYLINE
  5
B868
330
1E
100
AcDbEntity
  8
躯体と製品
  6
Continuous
 62
     4
100
AcDbPolyline
 90
        2
 70
     0
 43
0.0
 10
2711.730909014706
 20
4125.931127199264
 10
2715.530909014695
 20
4125.931127199264
  0
LWPOLYLINE
  5
B869
330
1E
100
AcDbEntity
  8
躯体と製品
  6
Continuous
 62
     4
100
AcDbPolyline
 90
        2
 70
     0
 43
0.0
 10
2719.330909004235
 20
4125.931127199264
 42
0.4142135777083371
 10
2719.530909014724
 20
4126.131127199276
  0
LWPOLYLINE
  5
B86A
330
1E
100
AcDbEntity
  8
躯体と製品
  6
Continuous
 62
     4
100
AcDbPolyline
 90
        2
 70
     0
 43
0.0
 10
2719.295909014709
 20
4127.731127199282
 10
2715.530909014695
 20
4127.731127199282
  0
LWPOLYLINE
  5
B86B
330
1E
100
AcDbEntity
  8
躯体と製品
  6
Continuous
 62
     4
100
AcDbPolyline
 90
        2
 70
     0
 43
0.0
 10
2719.295458143872
 20
4127.73062473949
 42
0.2144073790574085
 10
2715.530925181349
 20
4128.930983680622
  0
LWPOLYLINE
  5
B86C
330
1E
100
AcDbEntity
  8
躯体と製品
  6
Continuous
 62
     4
100
AcDbPolyline
 90
        2
 70
     0
 43
0.0
 10
2711.76590901471
 20
4127.731127199282
 10
2711.530909014695
 20
4126.580127199269
  0
LWPOLYLINE
  5
B86D
330
1E
100
AcDbEntity
  8
躯体と製品
  6
Continuous
 62
     4
100
AcDbPolyline
 90
        2
 70
     0
 43
0.0
 10
2715.53089243011
 20
4128.930983728381
 42
0.2144073836089342
 10
2711.766359509904
 20
4127.730624402642
  0
LWPOLYLINE
  5
B86E
330
1E
100
AcDbEntity
  8
躯体と製品
  6
Continuous
 62
     4
100
AcDbPolyline
 90
        2
 70
     0
 43
0.0
 10
2711.76590901471
 20
4127.731127199282
 10
2715.530909014695
 20
4127.731127199282
  0
LWPOLYLINE
  5
B86F
330
1E
100
AcDbEntity
  8
躯体と製品
  6
Continuous
 62
     4
100
AcDbPolyline
 90
        2
 70
     0
 43
0.0
 10
2719.295909014709
 20
4127.731127199282
 10
2719.530909014695
 20
4126.580127199269
  0
LWPOLYLINE
  5
B870
330
1E
100
AcDbEntity
  8
躯体と製品
  6
Continuous
 62
     4
100
AcDbPolyline
 90
        2
 70
     0
 43
0.0
 10
2769.1309090147
 20
4126.580127199269
 10
2769.1309090147
 20
4126.131127199276
  0
LWPOLYLINE
  5
B871
330
1E
100
AcDbEntity
  8
躯体と製品
  6
Continuous
 62
     4
100
AcDbPolyline
 90
        2
 70
     0
 43
0.0
 10
2761.130909014701
 20
4126.580127199269
 10
2761.130909014701
 20
4126.131127199276
  0
LWPOLYLINE
  5
B872
330
1E
100
AcDbEntity
  8
躯体と製品
  6
Continuous
 62
     4
100
AcDbPolyline
 90
        2
 70
     0
 43
0.0
 10
2768.930909014689
 20
4125.931127199264
 10
2765.130909014701
 20
4125.931127199264
  0
LWPOLYLINE
  5
B873
330
1E
100
AcDbEntity
  8
躯体と製品
  6
Continuous
 62
     4
100
AcDbPolyline
 90
        2
 70
     0
 43
0.0
 10
2761.130909014701
 20
4126.131127178321
 42
0.41421351636737
 10
2761.330909004235
 20
4125.931127199264
  0
LWPOLYLINE
  5
B874
330
1E
100
AcDbEntity
  8
躯体と製品
  6
Continuous
 62
     4
100
AcDbPolyline
 90
        2
 70
     0
 43
0.0
 10
2761.330909014712
 20
4125.931127199264
 10
2765.130909014701
 20
4125.931127199264
  0
LWPOLYLINE
  5
B875
330
1E
100
AcDbEntity
  8
躯体と製品
  6
Continuous
 62
     4
100
AcDbPolyline
 90
        2
 70
     0
 43
0.0
 10
2768.930909004212
 20
4125.931127199264
 42
0.4142135777083371
 10
2769.1309090147
 20
4126.131127199276
  0
LWPOLYLINE
  5
B876
330
1E
100
AcDbEntity
  8
躯体と製品
  6
Continuous
 62
     4
100
AcDbPolyline
 90
        2
 70
     0
 43
0.0
 10
2768.895909014715
 20
4127.731127199282
 10
2765.130909014701
 20
4127.731127199282
  0
LWPOLYLINE
  5
B877
330
1E
100
AcDbEntity
  8
躯体と製品
  6
Continuous
 62
     4
100
AcDbPolyline
 90
        2
 70
     0
 43
0.0
 10
2768.895458143878
 20
4127.73062473949
 42
0.2144073790574085
 10
2765.130925181355
 20
4128.930983680622
  0
LWPOLYLINE
  5
B878
330
1E
100
AcDbEntity
  8
躯体と製品
  6
Continuous
 62
     4
100
AcDbPolyline
 90
        2
 70
     0
 43
0.0
 10
2761.365909014687
 20
4127.731127199282
 10
2761.130909014701
 20
4126.580127199269
  0
LWPOLYLINE
  5
B879
330
1E
100
AcDbEntity
  8
躯体と製品
  6
Continuous
 62
     4
100
AcDbPolyline
 90
        2
 70
     0
 43
0.0
 10
2765.130892430087
 20
4128.930983728381
 42
0.2144073836089342
 10
2761.366359509881
 20
4127.730624402642
  0
LWPOLYLINE
  5
B87A
330
1E
100
AcDbEntity
  8
躯体と製品
  6
Continuous
 62
     4
100
AcDbPolyline
 90
        2
 70
     0
 43
0.0
 10
2761.365909014687
 20
4127.731127199282
 10
2765.130909014701
 20
4127.731127199282
  0
LWPOLYLINE
  5
B87B
330
1E
100
AcDbEntity
  8
躯体と製品
  6
Continuous
 62
     4
100
AcDbPolyline
 90
        2
 70
     0
 43
0.0
 10
2768.895909014715
 20
4127.731127199282
 10
2769.1309090147
 20
4126.580127199269
  0
LWPOLYLINE
  5
BB4A
330
1E
100
AcDbEntity
  8
文字-記号
  6
Continuous
 62
     7
100
AcDbPolyline
 90
        3
 70
     0
 43
0.0
 10
1849.76682117878
 20
4186.738369897209
 10
1985.291435170584
 20
4421.473887007174
 10
2247.203888240479
 20
4421.473887007174
1001
ACAD
1000
DSTYLE
1002
{
1070
   147
1040
0.09
1070
    77
1070
     1
1002
}
  0
LWPOLYLINE
  5
BB4C
330
1E
100
AcDbEntity
  8
0
  6
Continuous
 62
     7
100
AcDbPolyline
 90
        3
 70
     0
 43
0.0
 10
1864.407837288048
 20
4201.3793860729
 10
1849.76682117878
 20
4186.73836989721
 10
1855.12580506951
 20
4206.738369872899
  0
LWPOLYLINE
  5
BB4E
330
1E
100
AcDbEntity
  8
文字-記号
  6
Continuous
 62
     7
100
AcDbPolyline
 90
        3
 70
     0
 43
0.0
 10
1929.255036041763
 20
4161.99572304432
 10
2038.512447664427
 20
4351.23511107824
 10
2196.66870208913
 20
4351.23511107824
1001
ACAD
1000
DSTYLE
1002
{
1070
   147
1040
0.09
1070
    77
1070
     1
1002
}
  0
LWPOLYLINE
  5
BB50
330
1E
100
AcDbEntity
  8
0
  6
Continuous
 62
     7
100
AcDbPolyline
 90
        3
 70
     0
 43
0.0
 10
1943.896052151032
 20
4176.63673922001
 10
1929.255036041763
 20
4161.99572304432
 10
1934.614019932494
 20
4181.995723020008
  0
LWPOLYLINE
  5
BB52
330
1E
100
AcDbEntity
  8
文字-記号
  6
Continuous
 62
     7
100
AcDbPolyline
 90
        3
 70
     0
 43
0.0
 10
2317.759802221433
 20
3997.129174002518
 10
2378.230216172431
 20
3892.391344684671
 10
2685.724567150656
 20
3892.391344684671
1001
ACAD
1000
DSTYLE
1002
{
1070
   147
1040
0.09
1070
    77
1070
     1
1002
}
  0
LWPOLYLINE
  5
BB54
330
1E
100
AcDbEntity
  8
0
  6
Continuous
 62
     7
100
AcDbPolyline
 90
        3
 70
     0
 43
0.0
 10
2323.118786112164
 20
3977.12917402683
 10
2317.759802221433
 20
3997.129174002519
 10
2332.400818330703
 20
3982.488157826831
  0
LWPOLYLINE
  5
BB56
330
1E
100
AcDbEntity
  8
文字-記号
  6
Continuous
 62
     7
100
AcDbPolyline
 90
        3
 70
     0
 43
0.0
 10
1857.781715999219
 20
4143.848869235807
 10
1936.65422873148
 20
4007.237669862908
 10
2077.832042960947
 20
4007.237669862908
1001
ACAD
1000
DSTYLE
1002
{
1070
   147
1040
0.09
1070
    77
1070
     1
1002
}
  0
LWPOLYLINE
  5
BB58
330
1E
100
AcDbEntity
  8
0
  6
Continuous
 62
     7
100
AcDbPolyline
 90
        3
 70
     0
 43
0.0
 10
1863.14069988995
 20
4123.848869260118
 10
1857.781715999219
 20
4143.848869235807
 10
1872.422732108488
 20
4129.207853060118
  0
LWPOLYLINE
  5
BB5A
330
1E
100
AcDbEntity
  8
文字-記号
  6
Continuous
 62
     7
100
AcDbPolyline
 90
        3
 70
     0
 43
0.0
 10
1661.03558165727
 20
4072.731127199265
 10
1721.03666179713
 20
3968.806207888015
 10
1880.525349878777
 20
3968.806207888015
1001
ACAD
1000
DSTYLE
1002
{
1070
   147
1040
0.09
1070
    77
1070
     1
1002
}
  0
LWPOLYLINE
  5
BB5C
330
1E
100
AcDbEntity
  8
0
  6
Continuous
 62
     7
100
AcDbPolyline
 90
        3
 70
     0
 43
0.0
 10
1666.394565548001
 20
4052.731127223576
 10
1661.03558165727
 20
4072.731127199265
 10
1675.676597766539
 20
4058.090111023576
  0
LWPOLYLINE
  5
BB5E
330
1E
100
AcDbEntity
  8
文字-記号
  6
Continuous
 62
     3
100
AcDbPolyline
 90
        4
 70
     1
 43
0.0
 10
1343.94770720898
 20
4760.705668776783
 10
1343.94770720898
 20
4861.908956964082
 10
2923.424701349334
 20
4861.908956964082
 10
2923.424701349334
 20
4760.705668776783
  0
LWPOLYLINE
  5
BE85
330
1E
100
AcDbEntity
  8
躯体と製品
  6
Continuous
 62
     4
100
AcDbPolyline
 90
        2
 70
     0
 43
0.0
 10
2315.330909014711
 20
4072.731127199264
 10
2829.617469014712
 20
4072.731127199264
  0
LWPOLYLINE
  5
BE86
330
1E
100
AcDbEntity
  8
躯体と製品
  6
Continuous
 62
     4
100
AcDbPolyline
 90
        2
 70
     0
 43
0.0
 10
1565.330909014711
 20
4072.731127199264
 10
2265.33090901471
 20
4072.731127199264
  0
LWPOLYLINE
  5
BE87
330
1E
100
AcDbEntity
  8
躯体と製品
  6
Continuous
 62
     4
100
AcDbPolyline
 90
        2
 70
     0
 43
0.0
 10
2270.330909081204
 20
4052.131127127518
 10
2270.330909081204
 20
4049.131127127518
  0
LWPOLYLINE
  5
BE88
330
1E
100
AcDbEntity
  8
躯体と製品
  6
Continuous
 62
     4
100
AcDbPolyline
 90
        2
 70
     0
 43
0.0
 10
2310.330908948219
 20
4052.131127127518
 10
2310.330908948219
 20
4049.131127127518
  0
LWPOLYLINE
  5
BE89
330
1E
100
AcDbEntity
  8
躯体と製品
  6
Continuous
 62
     4
100
AcDbPolyline
 90
        2
 70
     0
 43
0.0
 10
2335.330904414779
 20
4041.130828777461
 42
0.4144575715773068
 10
2327.323940254584
 20
4049.13112712757
  0
LWPOLYLINE
  5
BE8A
330
1E
100
AcDbEntity
  8
躯体と製品
  6
Continuous
 62
     4
100
AcDbPolyline
 90
        2
 70
     0
 43
0.0
 10
2335.33090918315
 20
4041.130829476871
 10
2335.330909081203
 20
3997.129174002518
  0
LWPOLYLINE
  5
BE8B
330
1E
100
AcDbEntity
  8
躯体と製品
  6
Continuous
 62
     4
100
AcDbPolyline
 90
        2
 70
     0
 43
0.0
 10
2253.331213774298
 20
4049.13112998854
 42
0.4142135751758166
 10
2245.330913716591
 20
4041.130828881725
  0
LWPOLYLINE
  5
BE8C
330
1E
100
AcDbEntity
  8
躯体と製品
  6
Continuous
 62
     4
100
AcDbPolyline
 90
        2
 70
     0
 43
0.0
 10
2245.330908948219
 20
4041.130829581131
 10
2245.330908948219
 20
3997.129174002518
  0
LWPOLYLINE
  5
BE8D
330
1E
100
AcDbEntity
  8
躯体と製品
  6
Continuous
 62
     4
100
AcDbPolyline
 90
        2
 70
     0
 43
0.0
 10
2245.330908948219
 20
3997.129174002518
 10
2335.330909081203
 20
3997.129174002518
  0
LWPOLYLINE
  5
BE8E
330
1E
100
AcDbEntity
  8
躯体と製品
  6
Continuous
 62
     4
100
AcDbPolyline
 90
        2
 70
     0
 43
0.0
 10
2253.331214124
 20
4049.131127127518
 10
2327.323940254582
 20
4049.131127127518
  0
LWPOLYLINE
  5
BE8F
330
1E
100
AcDbEntity
  8
躯体と製品
  6
Continuous
 62
     4
100
AcDbPolyline
 90
        2
 70
     0
 43
0.0
 10
2270.330908948219
 20
4052.131127127518
 10
2310.330908948219
 20
4052.131127127518
  0
LWPOLYLINE
  5
BE90
330
1E
100
AcDbEntity
  8
躯体と製品
  6
Continuous
 62
     4
100
AcDbPolyline
 90
        2
 70
     0
 43
0.0
 10
2298.330909014711
 20
3978.286937705723
 10
2298.330909014711
 20
3855.573287796783
  0
LWPOLYLINE
  5
BE91
330
1E
100
AcDbEntity
  8
躯体と製品
  6
Continuous
 62
     4
100
AcDbPolyline
 90
        2
 70
     0
 43
0.0
 10
2282.330909014711
 20
3978.286937666189
 10
2282.330909014711
 20
3855.573288499091
  0
LWPOLYLINE
  5
BE92
330
1E
100
AcDbEntity
  8
躯体と製品
  6
Continuous
 62
     3
100
AcDbPolyline
 90
        2
 70
     0
 43
0.0
 10
2296.830917014711
 20
3978.138905986851
 10
2296.830917014711
 20
3855.721319765157
  0
LWPOLYLINE
  5
BE93
330
1E
100
AcDbEntity
  8
躯体と製品
  6
Continuous
 62
     3
100
AcDbPolyline
 90
        2
 70
     0
 43
0.0
 10
2283.830901014711
 20
3978.138905918338
 10
2283.830901014711
 20
3855.721319997439
  0
LWPOLYLINE
  5
BE94
330
1E
100
AcDbEntity
  8
躯体と製品
  6
Continuous
 62
     4
100
AcDbPolyline
 90
        2
 70
     0
 43
0.0
 10
2295.429903014711
 20
4133.981121199265
 10
2295.830881014711
 20
4133.981121199265
  0
LWPOLYLINE
  5
BE95
330
1E
100
AcDbEntity
  8
躯体と製品
  6
Continuous
 62
     4
100
AcDbPolyline
 90
        2
 70
     0
 43
0.0
 10
2296.330879014711
 20
4133.481123199265
 42
0.4142135623730951
 10
2295.830881014711
 20
4133.981121199265
  0
LWPOLYLINE
  5
BE96
330
1E
100
AcDbEntity
  8
躯体と製品
  6
Continuous
 62
     4
100
AcDbPolyline
 90
        2
 70
     0
 43
0.0
 10
2296.330879014711
 20
4133.481123199265
 10
2296.330879014711
 20
4131.981131199265
  0
LWPOLYLINE
  5
BE97
330
1E
100
AcDbEntity
  8
躯体と製品
  6
Continuous
 62
     4
100
AcDbPolyline
 90
        2
 70
     0
 43
0.0
 10
2295.830881014711
 20
4131.481133199265
 42
0.4142135623730951
 10
2296.330879014711
 20
4131.981131199265
  0
LWPOLYLINE
  5
BE98
330
1E
100
AcDbEntity
  8
躯体と製品
  6
Continuous
 62
     4
100
AcDbPolyline
 90
        2
 70
     0
 43
0.0
 10
2295.830881014711
 20
4131.481133199264
 10
2295.429903014711
 20
4131.481133199264
  0
LWPOLYLINE
  5
BE99
330
1E
100
AcDbEntity
  8
躯体と製品
  6
Continuous
 62
     4
100
AcDbPolyline
 90
        2
 70
     0
 43
0.0
 10
2285.23191701471
 20
4133.981121199265
 10
2284.83093701471
 20
4133.981121199265
  0
LWPOLYLINE
  5
BE9A
330
1E
100
AcDbEntity
  8
躯体と製品
  6
Continuous
 62
     4
100
AcDbPolyline
 90
        2
 70
     0
 43
0.0
 10
2284.83093701471
 20
4133.981121199265
 42
0.4142135623730951
 10
2284.33093901471
 20
4133.481123199265
  0
LWPOLYLINE
  5
BE9B
330
1E
100
AcDbEntity
  8
躯体と製品
  6
Continuous
 62
     4
100
AcDbPolyline
 90
        2
 70
     0
 43
0.0
 10
2284.330941014712
 20
4133.481123199265
 10
2284.330941014712
 20
4131.981131199265
  0
LWPOLYLINE
  5
BE9C
330
1E
100
AcDbEntity
  8
躯体と製品
  6
Continuous
 62
     4
100
AcDbPolyline
 90
        2
 70
     0
 43
0.0
 10
2284.33093901471
 20
4131.981131199265
 42
0.4142135623730951
 10
2284.83093701471
 20
4131.481133199265
  0
LWPOLYLINE
  5
BE9D
330
1E
100
AcDbEntity
  8
躯体と製品
  6
Continuous
 62
     4
100
AcDbPolyline
 90
        2
 70
     0
 43
0.0
 10
2284.83093701471
 20
4131.481133199264
 10
2285.23191701471
 20
4131.481133199264
  0
LWPOLYLINE
  5
BE9E
330
1E
100
AcDbEntity
  8
躯体と製品
  6
Continuous
 62
     3
100
AcDbPolyline
 90
        2
 70
     0
 43
0.0
 10
2290.330909014711
 20
4126.957653199265
 10
2285.330935014711
 20
4129.844391199264
  0
LWPOLYLINE
  5
BE9F
330
1E
100
AcDbEntity
  8
躯体と製品
  6
Continuous
 62
     3
100
AcDbPolyline
 90
        2
 70
     0
 43
0.0
 10
2285.330935014711
 20
4129.844391199264
 10
2285.330935014711
 20
4135.617863199265
  0
LWPOLYLINE
  5
BEA0
330
1E
100
AcDbEntity
  8
躯体と製品
  6
Continuous
 62
     3
100
AcDbPolyline
 90
        2
 70
     0
 43
0.0
 10
2285.330935014711
 20
4135.617863199265
 10
2290.330909014711
 20
4138.504601199265
  0
LWPOLYLINE
  5
BEA1
330
1E
100
AcDbEntity
  8
躯体と製品
  6
Continuous
 62
     3
100
AcDbPolyline
 90
        2
 70
     0
 43
0.0
 10
2290.330909014711
 20
4138.504601199265
 10
2295.330885014711
 20
4135.617863199265
  0
LWPOLYLINE
  5
BEA2
330
1E
100
AcDbEntity
  8
躯体と製品
  6
Continuous
 62
     3
100
AcDbPolyline
 90
        2
 70
     0
 43
0.0
 10
2295.330885014711
 20
4135.617863199265
 10
2295.330885014711
 20
4129.844391199264
  0
LWPOLYLINE
  5
BEA3
330
1E
100
AcDbEntity
  8
躯体と製品
  6
Continuous
 62
     3
100
AcDbPolyline
 90
        2
 70
     0
 43
0.0
 10
2295.330885014711
 20
4129.844391199264
 10
2290.330909014711
 20
4126.957653199265
  0
LWPOLYLINE
  5
BEA4
330
1E
100
AcDbEntity
  8
躯体と製品
  6
Continuous
 62
     4
100
AcDbPolyline
 90
        2
 70
     0
 43
0.0
 10
1520.330909081203
 20
4052.131127127518
 10
1520.330909081203
 20
4049.131127127518
  0
LWPOLYLINE
  5
BEA5
330
1E
100
AcDbEntity
  8
躯体と製品
  6
Continuous
 62
     4
100
AcDbPolyline
 90
        2
 70
     0
 43
0.0
 10
1560.330908948219
 20
4052.131127127518
 10
1560.330908948219
 20
4049.131127127518
  0
LWPOLYLINE
  5
BEA6
330
1E
100
AcDbEntity
  8
躯体と製品
  6
Continuous
 62
     4
100
AcDbPolyline
 90
        2
 70
     0
 43
0.0
 10
1585.330904414779
 20
4041.130828777461
 42
0.4144575715773068
 10
1577.323940254584
 20
4049.13112712757
  0
LWPOLYLINE
  5
BEA7
330
1E
100
AcDbEntity
  8
躯体と製品
  6
Continuous
 62
     4
100
AcDbPolyline
 90
        2
 70
     0
 43
0.0
 10
1585.330909183151
 20
4041.130829476871
 10
1585.330909081203
 20
3997.129174002518
  0
LWPOLYLINE
  5
BEA8
330
1E
100
AcDbEntity
  8
躯体と製品
  6
Continuous
 62
     4
100
AcDbPolyline
 90
        2
 70
     0
 43
0.0
 10
1503.331213774297
 20
4049.13112998854
 42
0.4142135751758166
 10
1495.33091371659
 20
4041.130828881725
  0
LWPOLYLINE
  5
BEA9
330
1E
100
AcDbEntity
  8
躯体と製品
  6
Continuous
 62
     4
100
AcDbPolyline
 90
        2
 70
     0
 43
0.0
 10
1495.330908948219
 20
4041.130829581131
 10
1495.330908948219
 20
3997.129174002518
  0
LWPOLYLINE
  5
BEAA
330
1E
100
AcDbEntity
  8
躯体と製品
  6
Continuous
 62
     4
100
AcDbPolyline
 90
        2
 70
     0
 43
0.0
 10
1495.330908948219
 20
3997.129174002518
 10
1585.330909081203
 20
3997.129174002518
  0
LWPOLYLINE
  5
BEAB
330
1E
100
AcDbEntity
  8
躯体と製品
  6
Continuous
 62
     4
100
AcDbPolyline
 90
        2
 70
     0
 43
0.0
 10
1503.331214124
 20
4049.131127127518
 10
1577.323940254582
 20
4049.131127127518
  0
LWPOLYLINE
  5
BEAC
330
1E
100
AcDbEntity
  8
躯体と製品
  6
Continuous
 62
     4
100
AcDbPolyline
 90
        2
 70
     0
 43
0.0
 10
1520.330908948219
 20
4052.131127127518
 10
1560.330908948219
 20
4052.131127127518
  0
LWPOLYLINE
  5
BEAD
330
1E
100
AcDbEntity
  8
躯体と製品
  6
Continuous
 62
     4
100
AcDbPolyline
 90
        2
 70
     0
 43
0.0
 10
2315.330909014711
 20
4122.731127199265
 10
2829.617469014712
 20
4122.731127199265
  0
LWPOLYLINE
  5
BEAE
330
1E
100
AcDbEntity
  8
躯体と製品
  6
Continuous
 62
     4
100
AcDbPolyline
 90
        2
 70
     0
 43
0.0
 10
1565.330909014711
 20
4122.731127199265
 10
2265.330909014689
 20
4122.731127199265
  0
LWPOLYLINE
  5
BEAF
330
1E
100
AcDbEntity
  8
躯体と製品
  6
Continuous
 62
     4
100
AcDbPolyline
 90
        2
 70
     0
 43
0.0
 10
1365.330909014711
 20
4072.731127199264
 10
1515.33090901471
 20
4072.731127199264
  0
LWPOLYLINE
  5
BEB0
330
1E
100
AcDbEntity
  8
躯体と製品
  6
Continuous
 62
     4
100
AcDbPolyline
 90
        2
 70
     0
 43
0.0
 10
1515.330909014689
 20
4122.731127199265
 10
1365.330909014711
 20
4122.731127199265
  0
LWPOLYLINE
  5
BEB1
330
1E
100
AcDbEntity
  8
躯体と製品
  6
Continuous
 62
     4
100
AcDbPolyline
 90
        2
 70
     0
 43
0.0
 10
1548.330909014711
 20
3978.286937705723
 10
1548.330909014711
 20
3855.573287796783
  0
LWPOLYLINE
  5
BEB2
330
1E
100
AcDbEntity
  8
躯体と製品
  6
Continuous
 62
     4
100
AcDbPolyline
 90
        2
 70
     0
 43
0.0
 10
1532.330909014711
 20
3978.286937666189
 10
1532.330909014711
 20
3855.573288499091
  0
LWPOLYLINE
  5
BEB3
330
1E
100
AcDbEntity
  8
躯体と製品
  6
Continuous
 62
     3
100
AcDbPolyline
 90
        2
 70
     0
 43
0.0
 10
1546.83091701471
 20
3978.138905986851
 10
1546.83091701471
 20
3855.721319765157
  0
LWPOLYLINE
  5
BEB4
330
1E
100
AcDbEntity
  8
躯体と製品
  6
Continuous
 62
     3
100
AcDbPolyline
 90
        2
 70
     0
 43
0.0
 10
1533.830901014711
 20
3978.138905918338
 10
1533.830901014711
 20
3855.721319997439
  0
LWPOLYLINE
  5
BEB5
330
1E
100
AcDbEntity
  8
躯体と製品
  6
Continuous
 62
     4
100
AcDbPolyline
 90
        2
 70
     0
 43
0.0
 10
1545.429903014711
 20
4133.981121199265
 10
1545.830881014711
 20
4133.981121199265
  0
LWPOLYLINE
  5
BEB6
330
1E
100
AcDbEntity
  8
躯体と製品
  6
Continuous
 62
     4
100
AcDbPolyline
 90
        2
 70
     0
 43
0.0
 10
1546.330879014711
 20
4133.481123199265
 42
0.4142135623730951
 10
1545.830881014711
 20
4133.981121199265
  0
LWPOLYLINE
  5
BEB7
330
1E
100
AcDbEntity
  8
躯体と製品
  6
Continuous
 62
     4
100
AcDbPolyline
 90
        2
 70
     0
 43
0.0
 10
1546.33087901471
 20
4133.481123199265
 10
1546.33087901471
 20
4131.981131199265
  0
LWPOLYLINE
  5
BEB8
330
1E
100
AcDbEntity
  8
躯体と製品
  6
Continuous
 62
     4
100
AcDbPolyline
 90
        2
 70
     0
 43
0.0
 10
1545.830881014711
 20
4131.481133199265
 42
0.4142135623730951
 10
1546.330879014711
 20
4131.981131199265
  0
LWPOLYLINE
  5
BEB9
330
1E
100
AcDbEntity
  8
躯体と製品
  6
Continuous
 62
     4
100
AcDbPolyline
 90
        2
 70
     0
 43
0.0
 10
1545.830881014711
 20
4131.481133199264
 10
1545.429903014711
 20
4131.481133199264
  0
LWPOLYLINE
  5
BEBA
330
1E
100
AcDbEntity
  8
躯体と製品
  6
Continuous
 62
     4
100
AcDbPolyline
 90
        2
 70
     0
 43
0.0
 10
1535.23191701471
 20
4133.981121199265
 10
1534.83093701471
 20
4133.981121199265
  0
LWPOLYLINE
  5
BEBB
330
1E
100
AcDbEntity
  8
躯体と製品
  6
Continuous
 62
     4
100
AcDbPolyline
 90
        2
 70
     0
 43
0.0
 10
1534.83093701471
 20
4133.981121199265
 42
0.4142135623730951
 10
1534.33093901471
 20
4133.481123199265
  0
LWPOLYLINE
  5
BEBC
330
1E
100
AcDbEntity
  8
躯体と製品
  6
Continuous
 62
     4
100
AcDbPolyline
 90
        2
 70
     0
 43
0.0
 10
1534.330941014711
 20
4133.481123199265
 10
1534.330941014711
 20
4131.981131199265
  0
LWPOLYLINE
  5
BEBD
330
1E
100
AcDbEntity
  8
躯体と製品
  6
Continuous
 62
     4
100
AcDbPolyline
 90
        2
 70
     0
 43
0.0
 10
1534.33093901471
 20
4131.981131199265
 42
0.4142135623730951
 10
1534.83093701471
 20
4131.481133199265
  0
LWPOLYLINE
  5
BEBE
330
1E
100
AcDbEntity
  8
躯体と製品
  6
Continuous
 62
     4
100
AcDbPolyline
 90
        2
 70
     0
 43
0.0
 10
1534.83093701471
 20
4131.481133199264
 10
1535.23191701471
 20
4131.481133199264
  0
LWPOLYLINE
  5
BEBF
330
1E
100
AcDbEntity
  8
躯体と製品
  6
Continuous
 62
     3
100
AcDbPolyline
 90
        2
 70
     0
 43
0.0
 10
1540.330909014711
 20
4126.957653199265
 10
1535.330935014711
 20
4129.844391199264
  0
LWPOLYLINE
  5
BEC0
330
1E
100
AcDbEntity
  8
躯体と製品
  6
Continuous
 62
     3
100
AcDbPolyline
 90
        2
 70
     0
 43
0.0
 10
1535.330935014711
 20
4129.844391199264
 10
1535.330935014711
 20
4135.617863199265
  0
LWPOLYLINE
  5
BEC1
330
1E
100
AcDbEntity
  8
躯体と製品
  6
Continuous
 62
     3
100
AcDbPolyline
 90
        2
 70
     0
 43
0.0
 10
1535.330935014711
 20
4135.617863199265
 10
1540.330909014711
 20
4138.504601199265
  0
LWPOLYLINE
  5
BEC2
330
1E
100
AcDbEntity
  8
躯体と製品
  6
Continuous
 62
     3
100
AcDbPolyline
 90
        2
 70
     0
 43
0.0
 10
1540.330909014711
 20
4138.504601199265
 10
1545.33088501471
 20
4135.617863199265
  0
LWPOLYLINE
  5
BEC3
330
1E
100
AcDbEntity
  8
躯体と製品
  6
Continuous
 62
     3
100
AcDbPolyline
 90
        2
 70
     0
 43
0.0
 10
1545.33088501471
 20
4135.617863199265
 10
1545.33088501471
 20
4129.844391199264
  0
LWPOLYLINE
  5
BEC4
330
1E
100
AcDbEntity
  8
躯体と製品
  6
Continuous
 62
     3
100
AcDbPolyline
 90
        2
 70
     0
 43
0.0
 10
1545.33088501471
 20
4129.844391199264
 10
1540.330909014711
 20
4126.957653199265
  0
LWPOLYLINE
  5
BEC6
330
1E
100
AcDbEntity
  8
寸法
  6
Continuous
 62
     4
100
AcDbPolyline
 90
        2
 70
     0
 43
0.0
 10
2829.617469014712
 20
3596.398187199265
 10
2763.903688762694
 20
3614.006141549389
  0
LWPOLYLINE
  5
BEC7
330
1E
100
AcDbEntity
  8
寸法
  6
Continuous
 62
     4
100
AcDbPolyline
 90
        2
 70
     0
 43
0.0
 10
2290.580909014711
 20
3596.398187199265
 10
2829.617469014712
 20
3596.398187199265
  0
LWPOLYLINE
  5
BEC8
330
1E
100
AcDbEntity
  8
躯体と製品
  6
Continuous
 62
     3
100
AcDbPolyline
 90
        2
 70
     0
 43
0.0
 10
2700.379839014712
 20
3687.085037199266
 10
2750.025929014711
 20
3736.731127199265
  0
LWPOLYLINE
  5
BEC9
330
1E
100
AcDbEntity
  8
躯体と製品
  6
Continuous
 62
     3
100
AcDbPolyline
 90
        2
 70
     0
 43
0.0
 10
2711.680089014711
 20
3687.085037199266
 10
2761.326179014712
 20
3736.731127199265
  0
LWPOLYLINE
  5
BECA
330
1E
100
AcDbEntity
  8
躯体と製品
  6
Continuous
 62
     3
100
AcDbPolyline
 90
        2
 70
     0
 43
0.0
 10
2689.079579014711
 20
3687.085037199266
 10
2738.725669014713
 20
3736.731127199265
  0
LWPOLYLINE
  5
BED9
330
1E
100
AcDbEntity
  8
躯体と製品
  6
Continuous
 62
     3
100
AcDbPolyline
 90
        2
 70
     0
 43
0.0
 10
2279.567099014712
 20
3687.085037199266
 10
2329.213189014712
 20
3736.731127199265
  0
LWPOLYLINE
  5
BEDA
330
1E
100
AcDbEntity
  8
躯体と製品
  6
Continuous
 62
     3
100
AcDbPolyline
 90
        2
 70
     0
 43
0.0
 10
2290.867349014712
 20
3687.085037199266
 10
2340.513449014712
 20
3736.731127199265
  0
LWPOLYLINE
  5
BEDB
330
1E
100
AcDbEntity
  8
躯体と製品
  6
Continuous
 62
     3
100
AcDbPolyline
 90
        2
 70
     0
 43
0.0
 10
2302.167609014713
 20
3687.085037199266
 10
2351.813699014711
 20
3736.731127199265
  0
LWPOLYLINE
  5
BF07
330
1E
100
AcDbEntity
  8
躯体と製品
  6
Continuous
 62
     3
100
AcDbPolyline
 90
        2
 70
     0
 43
0.0
 10
1870.054609014711
 20
3687.085037199266
 10
1919.70070901471
 20
3736.731127199265
  0
LWPOLYLINE
  5
BF08
330
1E
100
AcDbEntity
  8
躯体と製品
  6
Continuous
 62
     3
100
AcDbPolyline
 90
        2
 70
     0
 43
0.0
 10
1881.354869014711
 20
3687.085037199266
 10
1931.000959014712
 20
3736.731127199265
  0
LWPOLYLINE
  5
BF09
330
1E
100
AcDbEntity
  8
躯体と製品
  6
Continuous
 62
     3
100
AcDbPolyline
 90
        2
 70
     0
 43
0.0
 10
1892.65511901471
 20
3687.085037199266
 10
1942.301219014713
 20
3736.731127199265
  0
LWPOLYLINE
  5
BF0A
330
1E
100
AcDbEntity
  8
躯体と製品
  6
Continuous
 62
     3
100
AcDbPolyline
 90
        2
 70
     0
 43
0.0
 10
1439.714029014711
 20
3687.085037199266
 10
1489.360119014712
 20
3736.731127199265
  0
LWPOLYLINE
  5
BF0B
330
1E
100
AcDbEntity
  8
躯体と製品
  6
Continuous
 62
     3
100
AcDbPolyline
 90
        2
 70
     0
 43
0.0
 10
1451.01427901471
 20
3687.085037199266
 10
1500.66037901471
 20
3736.731127199265
  0
LWPOLYLINE
  5
BF0C
330
1E
100
AcDbEntity
  8
躯体と製品
  6
Continuous
 62
     3
100
AcDbPolyline
 90
        2
 70
     0
 43
0.0
 10
1462.314539014711
 20
3687.085037199266
 10
1511.960629014712
 20
3736.731127199265
  0
LWPOLYLINE
  5
BF39
330
1E
100
AcDbEntity
  8
躯体と製品
  6
Continuous
 62
     4
100
AcDbPolyline
 90
        2
 70
     0
 43
0.0
 10
1390.330909014711
 20
4277.622927199264
 10
1384.338039014711
 20
4277.622927199264
  0
LWPOLYLINE
  5
BF3A
330
1E
100
AcDbEntity
  8
躯体と製品
  6
Continuous
 62
     3
100
AcDbPolyline
 90
        2
 70
     0
 43
0.0
 10
1384.338039014711
 20
4262.640757199265
 10
1375.34873901471
 20
4262.640757199265
  0
LWPOLYLINE
  5
BF3B
330
1E
100
AcDbEntity
  8
躯体と製品
  6
Continuous
 62
     4
100
AcDbPolyline
 90
        2
 70
     0
 43
0.0
 10
1390.330909014711
 20
4269.632437199265
 10
1384.338039014711
 20
4269.632437199265
  0
LWPOLYLINE
  5
BF3C
330
1E
100
AcDbEntity
  8
躯体と製品
  6
Continuous
 62
     4
100
AcDbPolyline
 90
        2
 70
     0
 43
0.0
 10
1384.338039014711
 20
4262.640757199265
 10
1384.338039014711
 20
4277.622927199264
  0
LWPOLYLINE
  5
BF3D
330
1E
100
AcDbEntity
  8
躯体と製品
  6
Continuous
 62
     3
100
AcDbPolyline
 90
        2
 70
     0
 43
0.0
 10
1375.34873901471
 20
4260.281747199265
 10
1377.70774901471
 20
4262.640757199265
  0
LWPOLYLINE
  5
BF3E
330
1E
100
AcDbEntity
  8
躯体と製品
  6
Continuous
 62
     3
100
AcDbPolyline
 90
        2
 70
     0
 43
0.0
 10
1384.338039014711
 20
4269.271057199265
 10
1384.699429014712
 20
4269.632437199265
  0
LWPOLYLINE
  5
BF3F
330
1E
100
AcDbEntity
  8
躯体と製品
  6
Continuous
 62
     3
100
AcDbPolyline
 90
        2
 70
     0
 43
0.0
 10
1389.78454901471
 20
4269.632437199265
 10
1384.338039014711
 20
4264.185937199264
  0
LWPOLYLINE
  5
BF40
330
1E
100
AcDbEntity
  8
躯体と製品
  6
Continuous
 62
     3
100
AcDbPolyline
 90
        2
 70
     0
 43
0.0
 10
1382.792869014712
 20
4262.640757199265
 10
1375.330909014711
 20
4255.178807223217
  0
LWPOLYLINE
  5
BF41
330
1E
100
AcDbEntity
  8
躯体と製品
  6
Continuous
 62
     3
100
AcDbPolyline
 90
        2
 70
     0
 43
0.0
 10
1390.330909014711
 20
4249.838347199264
 10
1375.330909014711
 20
4234.838347199265
  0
LWPOLYLINE
  5
BF42
330
1E
100
AcDbEntity
  8
躯体と製品
  6
Continuous
 62
     3
100
AcDbPolyline
 90
        2
 70
     0
 43
0.0
 10
1375.330909014711
 20
4229.753227199265
 10
1390.330909014711
 20
4244.753227199264
  0
LWPOLYLINE
  5
BF43
330
1E
100
AcDbEntity
  8
躯体と製品
  6
Continuous
 62
     3
100
AcDbPolyline
 90
        2
 70
     0
 43
0.0
 10
1390.330909014711
 20
4239.668107199264
 10
1375.330909014711
 20
4224.668117211165
  0
LWPOLYLINE
  5
BF44
330
1E
100
AcDbEntity
  8
躯体と製品
  6
Continuous
 62
     3
100
AcDbPolyline
 90
        2
 70
     0
 43
0.0
 10
1375.330909014711
 20
4219.583007211165
 10
1390.330909014711
 20
4234.582997199264
  0
LWPOLYLINE
  5
BF45
330
1E
100
AcDbEntity
  8
躯体と製品
  6
Continuous
 62
     3
100
AcDbPolyline
 90
        2
 70
     0
 43
0.0
 10
1390.330909014711
 20
4229.497877199264
 10
1375.330909014711
 20
4214.497887211165
  0
LWPOLYLINE
  5
BF46
330
1E
100
AcDbEntity
  8
躯体と製品
  6
Continuous
 62
     3
100
AcDbPolyline
 90
        2
 70
     0
 43
0.0
 10
1375.330909014711
 20
4209.412767199266
 10
1390.330909014711
 20
4224.412767199265
  0
LWPOLYLINE
  5
BF47
330
1E
100
AcDbEntity
  8
躯体と製品
  6
Continuous
 62
     3
100
AcDbPolyline
 90
        2
 70
     0
 43
0.0
 10
1390.330909014711
 20
4219.327647199264
 10
1375.330909014711
 20
4204.327657211166
  0
LWPOLYLINE
  5
BF48
330
1E
100
AcDbEntity
  8
躯体と製品
  6
Continuous
 62
     4
100
AcDbPolyline
 90
        2
 70
     0
 43
0.0
 10
1375.330909014711
 20
4239.668107199264
 10
1350.330909014711
 20
4239.668107199264
  0
LWPOLYLINE
  5
BF49
330
1E
100
AcDbEntity
  8
躯体と製品
  6
Continuous
 62
     3
100
AcDbPolyline
 90
        2
 70
     0
 43
0.0
 10
1375.330909014711
 20
4250.093697211165
 10
1390.330909014711
 20
4265.093687199264
  0
LWPOLYLINE
  5
BF4A
330
1E
100
AcDbEntity
  8
躯体と製品
  6
Continuous
 62
     3
100
AcDbPolyline
 90
        2
 70
     0
 43
0.0
 10
1390.330909014711
 20
4260.008567199264
 10
1375.330909014711
 20
4245.008577211167
  0
LWPOLYLINE
  5
BF4B
330
1E
100
AcDbEntity
  8
躯体と製品
  6
Continuous
 62
     3
100
AcDbPolyline
 90
        2
 70
     0
 43
0.0
 10
1375.330909014711
 20
4239.923457199266
 10
1390.330909014711
 20
4254.923457199264
  0
LWPOLYLINE
  5
BF4C
330
1E
100
AcDbEntity
  8
躯体と製品
  6
Continuous
 62
     4
100
AcDbPolyline
 90
        2
 70
     0
 43
0.0
 10
1390.330909014711
 20
4277.622927199264
 10
1390.330909014711
 20
4373.544447199265
  0
LWPOLYLINE
  5
BF4D
330
1E
100
AcDbEntity
  8
躯体と製品
  6
Continuous
 62
     3
100
AcDbPolyline
 90
        2
 70
     0
 43
0.0
 10
1390.330909014711
 20
4198.987187199264
 10
1386.065339014711
 20
4194.721617199265
  0
LWPOLYLINE
  5
BF4E
330
1E
100
AcDbEntity
  8
躯体と製品
  6
Continuous
 62
     4
100
AcDbPolyline
 90
        2
 70
     0
 43
0.0
 10
1365.330909014711
 20
4153.731127199265
 10
1365.330909014711
 20
4186.731127199265
  0
LWPOLYLINE
  5
BF4F
330
1E
100
AcDbEntity
  8
躯体と製品
  6
Continuous
 62
     4
100
AcDbPolyline
 90
        2
 70
     0
 43
0.0
 10
1390.330909014712
 20
4194.721617199266
 10
1350.330909014711
 20
4194.721617199266
  0
LWPOLYLINE
  5
BF50
330
1E
100
AcDbEntity
  8
躯体と製品
  6
Continuous
 62
     4
100
AcDbPolyline
 90
        2
 70
     0
 43
0.0
 10
1365.330909014711
 20
4072.731127199264
 10
1365.330909014711
 20
4122.731127199265
  0
LWPOLYLINE
  5
BF51
330
1E
100
AcDbEntity
  8
躯体と製品
  6
Continuous
 62
     4
100
AcDbPolyline
 90
        2
 70
     0
 43
0.0
 10
1390.330909014711
 20
4194.721617199265
 10
1390.330909014711
 20
4269.632437199265
  0
LWPOLYLINE
  5
BF52
330
1E
100
AcDbEntity
  8
躯体と製品
  6
Continuous
 62
     4
100
AcDbPolyline
 90
        2
 70
     0
 43
0.0
 10
1375.330909014711
 20
4194.721617199265
 10
1375.330909014711
 20
4373.544447199265
  0
LWPOLYLINE
  5
BF53
330
1E
100
AcDbEntity
  8
躯体と製品
  6
Continuous
 62
     3
100
AcDbPolyline
 90
        2
 70
     0
 43
0.0
 10
1350.330909014711
 20
4239.668107199264
 10
1375.330909014711
 20
4194.721617199266
  0
LWPOLYLINE
  5
BF54
330
1E
100
AcDbEntity
  8
躯体と製品
  6
Continuous
 62
     3
100
AcDbPolyline
 90
        2
 70
     0
 43
0.0
 10
1375.330909014711
 20
4199.242537199266
 10
1390.330909014711
 20
4214.242537199265
  0
LWPOLYLINE
  5
BF55
330
1E
100
AcDbEntity
  8
躯体と製品
  6
Continuous
 62
     3
100
AcDbPolyline
 90
        2
 70
     0
 43
0.0
 10
1390.330909014711
 20
4209.157417199265
 10
1375.895099014711
 20
4194.721617199265
  0
LWPOLYLINE
  5
BF56
330
1E
100
AcDbEntity
  8
躯体と製品
  6
Continuous
 62
     3
100
AcDbPolyline
 90
        2
 70
     0
 43
0.0
 10
1380.980219014712
 20
4194.721617199265
 10
1390.330909014711
 20
4204.072307199265
  0
LWPOLYLINE
  5
BF57
330
1E
100
AcDbEntity
  8
躯体と製品
  6
Continuous
 62
     3
100
AcDbPolyline
 90
        2
 70
     0
 43
0.0
 10
1350.330909014711
 20
3985.121717199265
 10
1290.330909014711
 20
3925.121717199266
  0
LWPOLYLINE
  5
BF75
330
1E
100
AcDbEntity
  8
躯体と製品
  6
Continuous
 62
     4
100
AcDbPolyline
 90
        2
 70
     0
 43
0.0
 10
1350.330909014711
 20
4373.544447199265
 10
1350.330909014711
 20
3736.731127199265
  0
LWPOLYLINE
  5
BF76
330
1E
100
AcDbEntity
  8
躯体と製品
  6
Continuous
 62
     3
100
AcDbPolyline
 90
        2
 70
     0
 43
0.0
 10
1350.330909014711
 20
4007.722227199265
 10
1290.330909014711
 20
3947.722227199265
  0
LWPOLYLINE
  5
BF77
330
1E
100
AcDbEntity
  8
躯体と製品
  6
Continuous
 62
     3
100
AcDbPolyline
 90
        2
 70
     0
 43
0.0
 10
1350.330909014711
 20
3996.421967199264
 10
1290.330909014711
 20
3936.421967199265
  0
LWPOLYLINE
  5
BFC2
330
1E
100
AcDbEntity
  8
躯体と製品
  6
Continuous
 62
     4
100
AcDbPolyline
 90
        2
 70
     0
 43
0.0
 10
1365.330909014711
 20
4186.731127199265
 10
2829.617469014712
 20
4186.731127199265
  0
LWPOLYLINE
  5
BFC3
330
1E
100
AcDbEntity
  8
躯体と製品
  6
Continuous
 62
     4
100
AcDbPolyline
 90
        2
 70
     0
 43
0.0
 10
1365.330909014711
 20
4168.731127199265
 10
2829.617469014712
 20
4168.731127199264
  0
LWPOLYLINE
  5
BFC4
330
1E
100
AcDbEntity
  8
躯体と製品
  6
Continuous
 62
     3
100
AcDbPolyline
 90
        2
 70
     0
 43
0.0
 10
1365.330909014711
 20
4163.731127199265
 10
2829.617469014712
 20
4163.731127199265
  0
LWPOLYLINE
  5
BFC5
330
1E
100
AcDbEntity
  8
躯体と製品
  6
Continuous
 62
     4
100
AcDbPolyline
 90
        2
 70
     0
 43
0.0
 10
1365.330909014711
 20
4153.731127199265
 10
2829.617469014712
 20
4153.731127199264
  0
LWPOLYLINE
  5
BFC6
330
1E
100
AcDbEntity
  8
躯体と製品
  6
Continuous
 62
     3
100
AcDbPolyline
 90
        2
 70
     0
 43
0.0
 10
1365.330909014711
 20
4158.731127199266
 10
2829.617469014712
 20
4158.731127199264
  0
LWPOLYLINE
  5
BFC7
330
1E
100
AcDbEntity
  8
躯体と製品
  6
Continuous
 62
     4
100
AcDbPolyline
 90
        2
 70
     0
 43
0.0
 10
1350.330909014711
 20
3736.731127199265
 10
2829.617469014712
 20
3736.731127199265
  0
TEXT
  5
C049
330
1E
100
AcDbEntity
  8
文字-記号
  6
Continuous
 62
     3
100
AcDbText
 10
1408.36034218829
 20
4645.960667117178
 30
0.0
 40
59.99999985
  1
【スリーベースＳＳ10】h=145mm～1,020mm
 41
0.8
  7
ACAD
100
AcDbText
  0
TEXT
  5
D04F
330
1E
100
AcDbEntity
  8
文字-記号
  6
Continuous
 62
     7
100
AcDbText
 10
1489.907656820986
 20
4416.183019520995
 30
0.0
 40
45.0
  1
巾木
 41
0.8
  7
ACAD
100
AcDbText
  0
TEXT
  5
D050
330
1E
100
AcDbEntity
  8
文字-記号
  6
Continuous
 62
     7
100
AcDbText
 10
1456.730755166242
 20
4276.933795700745
 30
0.0
 40
45.0
  1
または巾木のみ込み
 41
0.8
  7
ACAD
100
AcDbText
  0
LWPOLYLINE
  5
D051
330
1E
100
AcDbEntity
  8
文字-記号
  6
Continuous
 62
     7
100
AcDbPolyline
 90
        3
 70
     0
 43
0.0
 10
1405.915945097528
 20
4201.372144402601
 10
1391.274928988258
 20
4186.731128226912
 10
1396.633912878989
 20
4206.7311282026
  0
LWPOLYLINE
  5
D052
330
1E
100
AcDbEntity
  8
文字-記号
  6
Continuous
 62
     7
100
AcDbPolyline
 90
        3
 70
     0
 43
0.0
 10
1405.107467523376
 20
4294.11711795848
 10
1390.466451414106
 20
4279.476101782791
 10
1395.825435304837
 20
4299.47610175848
  0
LWPOLYLINE
  5
D053
330
1E
100
AcDbEntity
  8
文字-記号
  6
Continuous
 62
     7
100
AcDbPolyline
 90
        4
 70
     0
 43
0.0
 10
1391.274928988258
 20
4186.731128226912
 10
1401.274928988258
 20
4204.051636302602
 10
1438.981186908654
 20
4269.360790784022
 10
1831.458163515974
 20
4269.360790784022
1001
ACAD
1000
DSTYLE
1002
{
1070
   147
1040
0.09
1070
    77
1070
     1
1002
}
  0
LWPOLYLINE
  5
D054
330
1E
100
AcDbEntity
  8
文字-記号
  6
Continuous
 62
     7
100
AcDbPolyline
 90
        4
 70
     0
 43
0.0
 10
1390.466451414106
 20
4279.476101782791
 10
1400.466451414106
 20
4296.79660985848
 10
1469.45021600699
 20
4416.279995030725
 10
1590.3729486674
 20
4416.279995030725
1001
ACAD
1000
DSTYLE
1002
{
1070
   147
1040
0.09
1070
    77
1070
     1
1002
}
  0
TEXT
  5
D055
330
1E
100
AcDbEntity
  8
文字-記号
  6
Continuous
 62
     7
100
AcDbText
 10
1464.220533559052
 20
4330.546197498489
 30
0.0
 40
45.0
  1
ｴｷｽﾊﾟﾝｼｮﾝｺﾞﾑ取付
 41
0.8
  7
ACAD
100
AcDbText
  0
ENDSEC
  0
SECTION
  2
OBJECTS
  0
DICTIONARY
  5
C
330
0
100
AcDbDictionary
281
     1
  3
ACAD_2007HEADERVARS_RT
350
D136
  3
ACAD_CIP_PREVIOUS_PRODUCT_INFO
350
76AA
  3
ACAD_COLOR
350
7275
  3
ACAD_GROUP
350
D
  3
ACAD_LAYOUT
350
19
  3
ACAD_MATERIAL
350
7274
  3
ACAD_MLEADERSTYLE
350
76A2
  3
ACAD_MLINESTYLE
350
16
  3
ACAD_PLOTSETTINGS
350
18
  3
ACAD_PLOTSTYLENAME
350
E
  3
ACAD_SCALELIST
350
7690
  3
ACAD_TABLESTYLE
350
7276
  3
ACAD_VISUALSTYLE
350
7677
  3
AcadDim
350
764A
  3
ACDB_RECOMPOSE_DATA
350
D135
  3
AcDbVariableDictionary
350
169
  0
DICTIONARY
  5
C00A
330
8
100
AcDbDictionary
280
     1
281
     1
  0
DICTIONARY
  5
175
330
2
100
AcDbDictionary
280
     1
281
     1
  3
ACAD_LAYERFILTERS
360
185
  3
ACAD_LAYERSTATES
360
176
  0
DICTIONARY
  5
908C
330
10
100
AcDbDictionary
280
     1
281
     1
  3
ADSK_XREC_LAYER_RECONCILED
360
908D
  0
DICTIONARY
  5
908E
330
178
100
AcDbDictionary
280
     1
281
     1
  3
ADSK_XREC_LAYER_RECONCILED
360
908F
  0
DICTIONARY
  5
9090
330
179
100
AcDbDictionary
280
     1
281
     1
  3
ADSK_XREC_LAYER_RECONCILED
360
9091
  0
DICTIONARY
  5
9092
330
4F62
100
AcDbDictionary
280
     1
281
     1
  3
ADSK_XREC_LAYER_RECONCILED
360
9093
  0
DICTIONARY
  5
9094
330
76F3
100
AcDbDictionary
280
     1
281
     1
  3
ADSK_XREC_LAYER_RECONCILED
360
9095
  0
DICTIONARY
  5
28B
330
1E
100
AcDbDictionary
280
     1
281
     1
  3
ACAD_LAYOUTSELFREF
360
726D
  3
ACAD_SORTENTS
360
8DF9
  0
DICTIONARY
  5
28D
330
1A
100
AcDbDictionary
280
     1
281
     1
  3
ACAD_LAYOUTSELFREF
360
726C
  0
DICTIONARY
  5
D136
102
{ACAD_REACTORS
330
C
102
}
330
C
100
AcDbDictionary
281
     1
  3
DIMFXL
350
D137
  0
XRECORD
  5
76AA
102
{ACAD_REACTORS
330
C
102
}
330
C
100
AcDbXrecord
280
     1
300
ACD
300
2012
300
ACD_F_S
  0
DICTIONARY
  5
7275
102
{ACAD_REACTORS
330
C
102
}
330
C
100
AcDbDictionary
281
     1
  0
DICTIONARY
  5
D
102
{ACAD_REACTORS
330
C
102
}
330
C
100
AcDbDictionary
281
     1
  0
DICTIONARY
  5
19
102
{ACAD_REACTORS
330
C
102
}
330
C
100
AcDbDictionary
281
     1
  3
Model
350
21
  3
ﾚｲｱｳﾄ1
350
1D
  0
DICTIONARY
  5
7274
102
{ACAD_REACTORS
330
C
102
}
330
C
100
AcDbDictionary
281
     1
  3
ByBlock
350
7667
  3
ByLayer
350
765F
  3
Global
350
766F
  0
DICTIONARY
  5
76A2
102
{ACAD_REACTORS
330
C
102
}
330
C
100
AcDbDictionary
281
     1
  3
Standard
350
76A3
  0
DICTIONARY
  5
16
102
{ACAD_REACTORS
330
C
102
}
330
C
100
AcDbDictionary
281
     1
  3
Standard
350
17
  0
DICTIONARY
  5
18
102
{ACAD_REACTORS
330
C
102
}
330
C
100
AcDbDictionary
281
     1
  0
ACDBDICTIONARYWDFLT
  5
E
102
{ACAD_REACTORS
330
C
102
}
330
C
100
AcDbDictionary
281
     1
  3
Normal
350
F
100
AcDbDictionaryWithDefault
340
F
  0
DICTIONARY
  5
7690
102
{ACAD_REACTORS
330
C
102
}
330
C
100
AcDbDictionary
281
     1
  3
A0
350
7691
  3
A1
350
7692
  3
A2
350
7693
  3
A3
350
7694
  3
A4
350
7695
  3
A5
350
7696
  3
A6
350
7697
  3
A7
350
7698
  3
A8
350
7699
  3
A9
350
769A
  3
B0
350
769B
  3
B1
350
769C
  3
B2
350
769D
  3
B3
350
769E
  3
B4
350
769F
  3
B5
350
76A0
  3
B6
350
76A1
  0
DICTIONARY
  5
7276
102
{ACAD_REACTORS
330
C
102
}
330
C
100
AcDbDictionary
281
     1
  3
Standard
350
7277
  0
DICTIONARY
  5
7677
102
{ACAD_REACTORS
330
C
102
}
330
C
100
AcDbDictionary
281
     1
  3
2dWireframe
350
767D
  3
Basic
350
767C
  3
Brighten
350
7683
  3
ColorChange
350
7687
  3
Conceptual
350
7680
  3
Dim
350
7682
  3
EdgeColorOff
350
768F
  3
Facepattern
350
7686
  3
Flat
350
7678
  3
FlatWithEdges
350
7679
  3
Gouraud
350
767A
  3
GouraudWithEdges
350
767B
  3
Hidden
350
767F
  3
JitterOff
350
768D
  3
Linepattern
350
7685
  3
OverhangOff
350
768E
  3
Realistic
350
7681
  3
Shaded
350
768C
  3
Shaded with edges
350
768B
  3
Shades of Gray
350
7688
  3
Sketchy
350
7689
  3
Thicken
350
7684
  3
Wireframe
350
767E
  3
X-Ray
350
768A
  0
XRECORD
  5
764A
102
{ACAD_REACTORS
330
C
102
}
330
C
100
AcDbXrecord
280
     1
 90
   990106
  3

 60
     0
 61
     0
 62
     4
 63
     4
 64
     1
 65
     0
 66
     0
 67
     3
 68
     1
 69
     0
 70
     4
 71
     1
 72
     0
 40
0.0
170
     2
  0
XRECORD
  5
D135
102
{ACAD_REACTORS
330
C
102
}
330
C
100
AcDbXrecord
280
     1
 90
        1
330
7277
  0
DICTIONARY
  5
169
102
{ACAD_REACTORS
330
C
102
}
330
C
100
AcDbDictionary
281
     1
  3
CANNOSCALE
350
B4C5
  3
CMLEADERSTYLE
350
B4C3
  3
CTABLESTYLE
350
764E
  3
DIMASSOC
350
16A
  3
LAYEREVAL
350
B4C7
  3
LAYERNOTIFY
350
B4C8
  3
LIGHTINGUNITS
350
B4C6
  3
MSLTSCALE
350
B4C4
  0
DICTIONARY
  5
185
102
{ACAD_REACTORS
330
175
102
}
330
175
100
AcDbDictionary
280
     1
281
     1
  0
DICTIONARY
  5
176
102
{ACAD_REACTORS
330
175
102
}
330
175
100
AcDbDictionary
281
     1
  3
ACAD
350
177
  0
XRECORD
  5
908D
102
{ACAD_REACTORS
330
908C
102
}
330
908C
100
AcDbXrecord
280
     1
290
     1
  0
XRECORD
  5
908F
102
{ACAD_REACTORS
330
908E
102
}
330
908E
100
AcDbXrecord
280
     1
290
     1
  0
XRECORD
  5
9091
102
{ACAD_REACTORS
330
9090
102
}
330
9090
100
AcDbXrecord
280
     1
290
     1
  0
XRECORD
  5
9093
102
{ACAD_REACTORS
330
9092
102
}
330
9092
100
AcDbXrecord
280
     1
290
     1
  0
XRECORD
  5
9095
102
{ACAD_REACTORS
330
9094
102
}
330
9094
100
AcDbXrecord
280
     1
290
     1
  0
XRECORD
  5
726D
102
{ACAD_REACTORS
330
28B
102
}
330
28B
100
AcDbXrecord
280
     1
340
1E
  0
SORTENTSTABLE
  5
8DF9
102
{ACAD_REACTORS
330
28B
102
}
330
28B
100
AcDbSortentsTable
330
1E
331
B812
  5
BE3E
331
B849
  5
BE75
331
BB50
  5
BDC9
331
B81A
  5
BE46
331
B851
  5
BE7D
331
BB58
  5
BDC2
331
BEAF
  5
AE7C
331
BF3E
  5
A4B6
331
B7E3
  5
BE0F
331
B822
  5
BE4E
331
B859
  5
BE85
331
BEB7
  5
AE74
331
BF46
  5
A4AB
331
B7EB
  5
BE17
331
B82A
  5
BE56
331
B861
  5
BE8D
331
BE88
  5
B8C9
331
BEBF
  5
AAC1
331
BF4E
  5
A3E9
331
BEC7
  5
AAB7
331
BF56
  5
A3E1
331
8D6A
  5
B804
331
8D92
  5
B894
331
B7F3
  5
BE1F
331
B832
  5
BE5E
331
B869
  5
BE95
331
BE90
  5
B890
331
BE98
  5
B880
331
B83A
  5
BE66
331
B7FB
  5
BE27
331
B871
  5
BE9D
331
BF76
  5
A3C1
331
BEA0
  5
B86A
331
BFC6
  5
700E
331
B842
  5
BE6E
331
B803
  5
BE2F
331
B879
  5
BEA5
331
B80B
  5
BE37
331
BF07
  5
A9DB
331
8D13
  5
AE87
331
8D9A
  5
B8A1
331
8DA2
  5
B8AC
331
8D1B
  5
AE8F
331
8DAA
  5
B8BA
331
8D23
  5
AEB2
331
6FE7
  5
AAAA
331
B813
  5
BE3F
331
B84A
  5
BE76
331
BEA8
  5
B837
331
B81B
  5
BE47
331
B852
  5
BE7E
331
BEB0
  5
AE7B
331
BF3F
  5
A4B5
331
B7E4
  5
BE10
331
B823
  5
BE4F
331
B85A
  5
BE86
331
BEB8
  5
AE73
331
BF47
  5
A4AA
331
B7EC
  5
BE18
331
B82B
  5
BE57
331
B862
  5
BE8E
331
BE89
  5
B8C8
331
BEC0
  5
AAC0
331
BF4F
  5
A3E8
331
BF57
  5
A3E0
331
8D6B
  5
B80A
331
AF51
  5
BDBE
331
6FC0
  5
AAA8
331
70AF
  5
AABA
331
8D93
  5
B896
331
B7F4
  5
BE20
331
B833
  5
BE5F
331
B86A
  5
BE96
331
BE91
  5
B88C
331
BEC8
  5
AAA5
331
BF77
  5
A28F
331
B872
  5
BE9E
331
B7FC
  5
BE28
331
B83B
  5
BE67
331
BE99
  5
B87B
331
BEA1
  5
B868
331
BFC7
  5
7001
331
B843
  5
BE6F
331
B804
  5
BE30
331
B87A
  5
BEA6
331
B80C
  5
BE38
331
BB4A
  5
BDCC
331
BF08
  5
A77B
331
8D14
  5
AE88
331
8D9B
  5
B8A2
331
8D1C
  5
AE90
331
8DA3
  5
B8AE
331
8DAB
  5
B8BC
331
8D64
  5
AEB3
331
9A9A
  5
B8D2
331
B814
  5
BE40
331
B84B
  5
BE77
331
BB52
  5
BDC6
331
BEA9
  5
B830
331
B81C
  5
BE48
331
B853
  5
BE7F
331
BB5A
  5
BDC0
331
BEB1
  5
AE7A
331
BF40
  5
A4B4
331
B7E5
  5
BE11
331
B824
  5
BE50
331
B85B
  5
BE87
331
BEB9
  5
AE72
331
BF48
  5
A4A9
331
B7ED
  5
BE19
331
B82C
  5
BE58
331
B863
  5
BE8F
331
BE8A
  5
B8C6
331
BEC1
  5
AABF
331
BF50
  5
A3E7
331
8D6C
  5
B816
331
8D94
  5
B897
331
B7F5
  5
BE21
331
B834
  5
BE60
331
B86B
  5
BE97
331
BE92
  5
B88A
331
BEC9
  5
AAA4
331
BE9A
  5
B879
331
B83C
  5
BE68
331
B7FD
  5
BE29
331
B873
  5
BE9F
331
BED9
  5
AA63
331
BEA2
  5
B867
331
B844
  5
BE70
331
B805
  5
BE31
331
B87B
  5
BEA7
331
B80D
  5
BE39
331
BF09
  5
A77A
331
8D15
  5
AE89
331
8D9C
  5
B8A4
331
8DA4
  5
B8B0
331
8D1D
  5
AE91
331
8D65
  5
AF54
331
B815
  5
BE41
331
B84C
  5
BE78
331
BEAA
  5
B82A
331
BF39
  5
A4C3
331
B81D
  5
BE49
331
B854
  5
BE80
331
BEB2
  5
AE79
331
BF41
  5
A4B3
331
B7E6
  5
BE12
331
B825
  5
BE51
331
B85C
  5
BE88
331
BEBA
  5
ADFC
331
BF49
  5
A433
331
B7EE
  5
BE1A
331
B82D
  5
BE59
331
B864
  5
BE90
331
BE8B
  5
B8C4
331
BEC2
  5
AABE
331
BF51
  5
A3E6
331
8D6D
  5
B81F
331
AF53
  5
BDC1
331
8CFE
  5
AAC2
331
8D95
  5
B899
331
B7F6
  5
BE22
331
B835
  5
BE61
331
B86C
  5
BE98
331
BE93
  5
B888
331
BECA
  5
AA95
331
BE9B
  5
B877
331
B83D
  5
BE69
331
B7FE
  5
BE2A
331
B874
  5
BEA0
331
BEDA
  5
AA62
331
B845
  5
BE71
331
BEA3
  5
B865
331
B806
  5
BE32
331
B80E
  5
BE3A
331
BB4C
  5
BDCB
331
BF0A
  5
A5C9
331
8D16
  5
AE8A
331
8D9D
  5
B8A6
331
8DA5
  5
B8B2
331
8D1E
  5
AE92
331
98A4
  5
B8CD
331
8D66
  5
AF6B
331
B816
  5
BE42
331
B84D
  5
BE79
331
BB54
  5
BDC5
331
BEAB
  5
B824
331
BF3A
  5
A4C2
331
B81E
  5
BE4A
331
B855
  5
BE81
331
BB5C
  5
BDBF
331
BEB3
  5
AE78
331
BF42
  5
A4B2
331
B7E7
  5
BE13
331
B826
  5
BE52
331
B85D
  5
BE89
331
BEBB
  5
ADF7
331
BF4A
  5
A3ED
331
C049
  5
C049
331
B7EF
  5
BE1B
331
B82E
  5
BE5A
331
B865
  5
BE91
331
BE8C
  5
B8C3
331
BEC3
  5
AABD
331
BF52
  5
A3E5
331
8D6E
  5
B820
331
6F8B
  5
AAA6
331
8CFF
  5
AAC3
331
8D96
  5
B89B
331
B7F7
  5
BE23
331
B836
  5
BE62
331
B86D
  5
BE99
331
BE94
  5
B887
331
BFC2
  5
705C
331
BE9C
  5
B876
331
B83E
  5
BE6A
331
B7FF
  5
BE2B
331
B875
  5
BEA1
331
BEDB
  5
AA61
331
B846
  5
BE72
331
BEA4
  5
B859
331
B807
  5
BE33
331
B80F
  5
BE3B
331
BF0B
  5
A5C8
331
8D17
  5
AE8B
331
8D9E
  5
B8A7
331
8DA6
  5
B8B4
331
8D1F
  5
AE93
331
98A5
  5
B8CE
331
8D67
  5
B056
331
B817
  5
BE43
331
B84E
  5
BE7A
331
BEAC
  5
B822
331
BF3B
  5
A4C1
331
B7E0
  5
BE0C
331
B81F
  5
BE4B
331
B856
  5
BE82
331
BEB4
  5
AE77
331
BF43
  5
A4B1
331
B7E8
  5
BE14
331
B827
  5
BE53
331
B85E
  5
BE8A
331
BE85
  5
B8CC
331
BEBC
  5
ADF6
331
BF4B
  5
A3EC
331
B82F
  5
BE5B
331
B866
  5
BE92
331
BE8D
  5
B8C1
331
BEC4
  5
AABC
331
BF53
  5
A3E4
331
AF55
  5
BDC4
331
8D7F
  5
B86F
331
AF5D
  5
BDC7
331
8D00
  5
AAC4
331
8D97
  5
B89C
331
B7F0
  5
BE1C
331
B7F8
  5
BE24
331
B837
  5
BE63
331
B86E
  5
BE9A
331
BE95
  5
B885
331
BE9D
  5
B874
331
BFC3
  5
7035
331
B83F
  5
BE6B
331
B800
  5
BE2C
331
B876
  5
BEA2
331
B847
  5
BE73
331
BEA5
  5
B84E
331
B808
  5
BE34
331
BB4E
  5
BDCA
331
BF0C
  5
A5C7
331
8D18
  5
AE8C
331
8D9F
  5
B8A8
331
8DA7
  5
B8B5
331
8D20
  5
AE94
331
B810
  5
BE3C
331
B818
  5
BE44
331
B84F
  5
BE7B
331
BB56
  5
BDC3
331
BEAD
  5
AE86
331
BF3C
  5
A4C0
331
B7E1
  5
BE0D
331
B820
  5
BE4C
331
B857
  5
BE83
331
BB5E
  5
B8CF
331
BEB5
  5
AE76
331
BF44
  5
A4AD
331
B7E9
  5
BE15
331
B828
  5
BE54
331
B85F
  5
BE8B
331
BE86
  5
B8CB
331
BEBD
  5
ADF5
331
BF4C
  5
A3EB
331
B867
  5
BE93
331
BE8E
  5
B8BF
331
BF54
  5
A3E3
331
6FF4
  5
AAAB
331
8D68
  5
B061
331
8D80
  5
B871
331
AF5E
  5
BDC8
331
8D90
  5
B891
331
AFA6
  5
BDE7
331
B7F1
  5
BE1D
331
B830
  5
BE5C
331
B838
  5
BE64
331
B7F9
  5
BE25
331
B86F
  5
BE9B
331
BE96
  5
B884
331
BE9E
  5
B86D
331
BFC4
  5
7028
331
B840
  5
BE6C
331
B801
  5
BE2D
331
B877
  5
BEA3
331
BEA6
  5
B842
331
B809
  5
BE35
331
6FCD
  5
AAA9
331
8D98
  5
B89E
331
8DA0
  5
B8AA
331
8D19
  5
AE8D
331
8DA8
  5
B8B6
331
8D21
  5
AE95
331
9A97
  5
B8D0
331
B811
  5
BE3D
331
B848
  5
BE74
331
B819
  5
BE45
331
B850
  5
BE7C
331
BEAE
  5
AE85
331
BF3D
  5
A4BF
331
B7E2
  5
BE0E
331
B821
  5
BE4D
331
B858
  5
BE84
331
BEB6
  5
AE75
331
BF45
  5
A4AC
331
B7EA
  5
BE16
331
B829
  5
BE55
331
B860
  5
BE8C
331
BE87
  5
B8CA
331
BEBE
  5
ADF4
331
BF4D
  5
A3EA
331
BE8F
  5
B8BE
331
BEC6
  5
AAB8
331
BF55
  5
A3E2
331
8D69
  5
B7F8
331
8D81
  5
B872
331
8D91
  5
B892
331
AFA7
  5
BDE8
331
B7F2
  5
BE1E
331
B831
  5
BE5D
331
B868
  5
BE94
331
B839
  5
BE65
331
B7FA
  5
BE26
331
B870
  5
BE9C
331
BE97
  5
B882
331
BF75
  5
A3C2
331
BE9F
  5
B86C
331
BFC5
  5
701B
331
B841
  5
BE6D
331
B802
  5
BE2E
331
B878
  5
BEA4
331
BEA7
  5
B83E
331
B80A
  5
BE36
331
8D99
  5
B8A0
331
8DA1
  5
B8AB
331
8D1A
  5
AE8E
331
8DA9
  5
B8B8
331
8D22
  5
AEB1
331
9A98
  5
B8D1
  0
XRECORD
  5
726C
102
{ACAD_REACTORS
330
28D
102
}
330
28D
100
AcDbXrecord
280
     1
340
1A
  0
XRECORD
  5
D137
102
{ACAD_REACTORS
330
D136
102
}
330
D136
100
AcDbXrecord
280
     1
 40
0.18
  0
LAYOUT
  5
21
102
{ACAD_XDICTIONARY
360
AF8A
102
}
102
{ACAD_REACTORS
330
19
102
}
330
19
100
AcDbPlotSettings
  1

  2
none_device
  4
Letter_(8.50_x_11.00_Inches)
  6

 40
6.349999904632568
 41
6.349999904632568
 42
6.350006103515625
 43
6.350006103515625
 44
215.8999938964844
 45
279.3999938964844
 46
0.0
 47
0.0
 48
0.0
 49
0.0
140
0.0
141
0.0
142
1.0
143
730.2358150400955
 70
 11952
 72
     0
 73
     1
 74
     0
  7
monochrome.ctb
 75
     0
147
0.0013694206438575
 76
     0
 77
     2
 78
   300
148
34800.58948677863
149
-13617.63366529848
100
AcDbLayout
  1
Model
 70
     1
 71
     0
 10
0.0
 20
0.0
 11
12.0
 21
9.0
 12
0.0
 22
0.0
 32
0.0
 14
0.0
 24
0.0
 34
0.0
 15
0.0
 25
0.0
 35
0.0
146
0.0
 13
0.0
 23
0.0
 33
0.0
 16
1.0
 26
0.0
 36
0.0
 17
0.0
 27
1.0
 37
0.0
 76
     0
330
1E
331
765D
1001
ACAD_PSEXT
1000
なし
1000
なし
1000
適切ではありません
1000
新しいプロッタ環境設定名を選択しない限り、レイアウトは印刷されません。
1070
     0
  0
LAYOUT
  5
1D
102
{ACAD_REACTORS
330
19
102
}
330
19
100
AcDbPlotSettings
  1

  2
\\MEISEI-1\EPSON Stylus Photo EX3
  4

  6

 40
0.0
 41
0.0
 42
0.0
 43
0.0
 44
0.0
 45
0.0
 46
0.0
 47
0.0
 48
0.0
 49
0.0
140
0.0
141
0.0
142
1.0
143
1.0
 70
   688
 72
     0
 73
     0
 74
     5
  7
monochrome.ctb
 75
    16
147
1.0
 76
     0
 77
     2
 78
   300
148
0.0
149
0.0
100
AcDbLayout
  1
ﾚｲｱｳﾄ1
 70
     1
 71
     1
 10
0.0
 20
0.0
 11
12.0
 21
9.0
 12
0.0
 22
0.0
 32
0.0
 14
1.000000000000000E+20
 24
1.000000000000000E+20
 34
1.000000000000000E+20
 15
-1.000000000000000E+20
 25
-1.000000000000000E+20
 35
-1.000000000000000E+20
146
0.0
 13
0.0
 23
0.0
 33
0.0
 16
1.0
 26
0.0
 36
0.0
 17
0.0
 27
1.0
 37
0.0
 76
     0
330
1A
  0
MATERIAL
  5
7667
102
{ACAD_XDICTIONARY
360
7668
102
}
102
{ACAD_REACTORS
330
7274
102
}
330
7274
100
AcDbMaterial
  1
ByBlock
 72
     0
 43
0.0208333333333333
 43
0.0
 43
0.0
 43
0.0
 43
0.0
 43
0.0208333333333333
 43
0.0
 43
0.0
 43
0.0
 43
0.0
 43
1.0
 43
0.0
 43
0.0
 43
0.0
 43
0.0
 43
1.0
 77
     0
 47
0.0208333333333333
 47
0.0
 47
0.0
 47
0.0
 47
0.0
 47
0.0208333333333333
 47
0.0
 47
0.0
 47
0.0
 47
0.0
 47
1.0
 47
0.0
 47
0.0
 47
0.0
 47
0.0
 47
1.0
171
     0
 49
0.0208333333333333
 49
0.0
 49
0.0
 49
0.0
 49
0.0
 49
0.0208333333333333
 49
0.0
 49
0.0
 49
0.0
 49
0.0
 49
1.0
 49
0.0
 49
0.0
 49
0.0
 49
0.0
 49
1.0
175
     0
142
0.0208333333333333
142
0.0
142
0.0
142
0.0
142
0.0
142
0.0208333333333333
142
0.0
142
0.0
142
0.0
142
0.0
142
1.0
142
0.0
142
0.0
142
0.0
142
0.0
142
1.0
179
     0
144
0.0208333333333333
144
0.0
144
0.0
144
0.0
144
0.0
144
0.0208333333333333
144
0.0
144
0.0
144
0.0
144
0.0
144
1.0
144
0.0
144
0.0
144
0.0
144
0.0
144
1.0
147
0.0208333333333333
147
0.0
147
0.0
147
0.0
147
0.0
147
0.0208333333333333
147
0.0
147
0.0
147
0.0
147
0.0
147
1.0
147
0.0
147
0.0
147
0.0
147
0.0
147
1.0
  0
MATERIAL
  5
765F
102
{ACAD_XDICTIONARY
360
7660
102
}
102
{ACAD_REACTORS
330
7274
102
}
330
7274
100
AcDbMaterial
  1
ByLayer
 72
     0
 43
0.0208333333333333
 43
0.0
 43
0.0
 43
0.0
 43
0.0
 43
0.0208333333333333
 43
0.0
 43
0.0
 43
0.0
 43
0.0
 43
1.0
 43
0.0
 43
0.0
 43
0.0
 43
0.0
 43
1.0
 77
     0
 47
0.0208333333333333
 47
0.0
 47
0.0
 47
0.0
 47
0.0
 47
0.0208333333333333
 47
0.0
 47
0.0
 47
0.0
 47
0.0
 47
1.0
 47
0.0
 47
0.0
 47
0.0
 47
0.0
 47
1.0
171
     0
 49
0.0208333333333333
 49
0.0
 49
0.0
 49
0.0
 49
0.0
 49
0.0208333333333333
 49
0.0
 49
0.0
 49
0.0
 49
0.0
 49
1.0
 49
0.0
 49
0.0
 49
0.0
 49
0.0
 49
1.0
175
     0
142
0.0208333333333333
142
0.0
142
0.0
142
0.0
142
0.0
142
0.0208333333333333
142
0.0
142
0.0
142
0.0
142
0.0
142
1.0
142
0.0
142
0.0
142
0.0
142
0.0
142
1.0
179
     0
144
0.0208333333333333
144
0.0
144
0.0
144
0.0
144
0.0
144
0.0208333333333333
144
0.0
144
0.0
144
0.0
144
0.0
144
1.0
144
0.0
144
0.0
144
0.0
144
0.0
144
1.0
147
0.0208333333333333
147
0.0
147
0.0
147
0.0
147
0.0
147
0.0208333333333333
147
0.0
147
0.0
147
0.0
147
0.0
147
1.0
147
0.0
147
0.0
147
0.0
147
0.0
147
1.0
  0
MATERIAL
  5
766F
102
{ACAD_XDICTIONARY
360
7670
102
}
102
{ACAD_REACTORS
330
7274
102
}
330
7274
100
AcDbMaterial
  1
Global
 72
     0
 43
0.0208333333333333
 43
0.0
 43
0.0
 43
0.0
 43
0.0
 43
0.0208333333333333
 43
0.0
 43
0.0
 43
0.0
 43
0.0
 43
1.0
 43
0.0
 43
0.0
 43
0.0
 43
0.0
 43
1.0
 77
     0
 47
0.0208333333333333
 47
0.0
 47
0.0
 47
0.0
 47
0.0
 47
0.0208333333333333
 47
0.0
 47
0.0
 47
0.0
 47
0.0
 47
1.0
 47
0.0
 47
0.0
 47
0.0
 47
0.0
 47
1.0
171
     0
 49
0.0208333333333333
 49
0.0
 49
0.0
 49
0.0
 49
0.0
 49
0.0208333333333333
 49
0.0
 49
0.0
 49
0.0
 49
0.0
 49
1.0
 49
0.0
 49
0.0
 49
0.0
 49
0.0
 49
1.0
175
     0
142
0.0208333333333333
142
0.0
142
0.0
142
0.0
142
0.0
142
0.0208333333333333
142
0.0
142
0.0
142
0.0
142
0.0
142
1.0
142
0.0
142
0.0
142
0.0
142
0.0
142
1.0
179
     0
144
0.0208333333333333
144
0.0
144
0.0
144
0.0
144
0.0
144
0.0208333333333333
144
0.0
144
0.0
144
0.0
144
0.0
144
1.0
144
0.0
144
0.0
144
0.0
144
0.0
144
1.0
147
0.0208333333333333
147
0.0
147
0.0
147
0.0
147
0.0
147
0.0208333333333333
147
0.0
147
0.0
147
0.0
147
0.0
147
1.0
147
0.0
147
0.0
147
0.0
147
0.0
147
1.0
  0
MLEADERSTYLE
  5
76A3
102
{ACAD_XDICTIONARY
360
D133
102
}
102
{ACAD_REACTORS
330
76A2
102
}
330
76A2
100
AcDbMLeaderStyle
170
     2
171
     1
172
     0
 90
        2
 40
0.0
 41
0.0
173
     1
 91
-1056964608
340
13
 92
       -2
290
     1
 42
0.09
291
     1
 43
0.36
  3
Standard
 44
0.18
300

342
11
174
     1
178
     6
175
     1
176
     0
 93
-1056964608
 45
0.18
292
     0
297
     0
 46
0.18
 94
-1056964608
 47
1.0
 49
1.0
140
1.0
293
     1
141
0.0
294
     1
177
     0
142
1.0
295
     0
296
     0
143
0.125
1001
ACAD_MLEADERVER
1070
     2
  0
MLINESTYLE
  5
17
102
{ACAD_REACTORS
330
16
102
}
330
16
100
AcDbMlineStyle
  2
STANDARD
 70
     0
  3

 62
   256
 51
90.0
 52
90.0
 71
     2
 49
0.5
 62
   256
  6
BYLAYER
 49
-0.5
 62
   256
  6
BYLAYER
  0
ACDBPLACEHOLDER
  5
F
102
{ACAD_REACTORS
330
E
102
}
330
E
  0
SCALE
  5
7691
102
{ACAD_REACTORS
330
7690
102
}
330
7690
100
AcDbScale
 70
     0
300
1:1
140
1.0
141
1.0
290
     1
  0
SCALE
  5
7692
102
{ACAD_REACTORS
330
7690
102
}
330
7690
100
AcDbScale
 70
     0
300
1/128" = 1'-0"
140
0.0078125
141
12.0
290
     0
  0
SCALE
  5
7693
102
{ACAD_REACTORS
330
7690
102
}
330
7690
100
AcDbScale
 70
     0
300
1/64" = 1'-0"
140
0.015625
141
12.0
290
     0
  0
SCALE
  5
7694
102
{ACAD_REACTORS
330
7690
102
}
330
7690
100
AcDbScale
 70
     0
300
1/32" = 1'-0"
140
0.03125
141
12.0
290
     0
  0
SCALE
  5
7695
102
{ACAD_REACTORS
330
7690
102
}
330
7690
100
AcDbScale
 70
     0
300
1/16" = 1'-0"
140
0.0625
141
12.0
290
     0
  0
SCALE
  5
7696
102
{ACAD_REACTORS
330
7690
102
}
330
7690
100
AcDbScale
 70
     0
300
3/32" = 1'-0"
140
0.09375
141
12.0
290
     0
  0
SCALE
  5
7697
102
{ACAD_REACTORS
330
7690
102
}
330
7690
100
AcDbScale
 70
     0
300
1/8" = 1'-0"
140
0.125
141
12.0
290
     0
  0
SCALE
  5
7698
102
{ACAD_REACTORS
330
7690
102
}
330
7690
100
AcDbScale
 70
     0
300
3/16" = 1'-0"
140
0.1875
141
12.0
290
     0
  0
SCALE
  5
7699
102
{ACAD_REACTORS
330
7690
102
}
330
7690
100
AcDbScale
 70
     0
300
1/4" = 1'-0"
140
0.25
141
12.0
290
     0
  0
SCALE
  5
769A
102
{ACAD_REACTORS
330
7690
102
}
330
7690
100
AcDbScale
 70
     0
300
3/8" = 1'-0"
140
0.375
141
12.0
290
     0
  0
SCALE
  5
769B
102
{ACAD_REACTORS
330
7690
102
}
330
7690
100
AcDbScale
 70
     0
300
1/2" = 1'-0"
140
0.5
141
12.0
290
     0
  0
SCALE
  5
769C
102
{ACAD_REACTORS
330
7690
102
}
330
7690
100
AcDbScale
 70
     0
300
3/4" = 1'-0"
140
0.75
141
12.0
290
     0
  0
SCALE
  5
769D
102
{ACAD_REACTORS
330
7690
102
}
330
7690
100
AcDbScale
 70
     0
300
1" = 1'-0"
140
1.0
141
12.0
290
     0
  0
SCALE
  5
769E
102
{ACAD_REACTORS
330
7690
102
}
330
7690
100
AcDbScale
 70
     0
300
1-1/2" = 1'-0"
140
1.5
141
12.0
290
     0
  0
SCALE
  5
769F
102
{ACAD_REACTORS
330
7690
102
}
330
7690
100
AcDbScale
 70
     0
300
3" = 1'-0"
140
3.0
141
12.0
290
     0
  0
SCALE
  5
76A0
102
{ACAD_REACTORS
330
7690
102
}
330
7690
100
AcDbScale
 70
     0
300
6" = 1'-0"
140
6.0
141
12.0
290
     0
  0
SCALE
  5
76A1
102
{ACAD_REACTORS
330
7690
102
}
330
7690
100
AcDbScale
 70
     0
300
1'-0" = 1'-0"
140
12.0
141
12.0
290
     0
  0
TABLESTYLE
  5
7277
102
{ACAD_XDICTIONARY
360
C003
102
}
102
{ACAD_REACTORS
330
7276
102
}
330
7276
100
AcDbTableStyle
  3
Standard
 70
     0
 71
     0
 40
0.06
 41
0.06
280
     0
281
     0
  7
STANDARD
140
0.18
170
     2
 62
     0
 63
     7
283
     0
274
    -2
284
     1
 64
     0
275
    -2
285
     1
 65
     0
276
    -2
286
     1
 66
     0
277
    -2
287
     1
 67
     0
278
    -2
288
     1
 68
     0
279
    -2
289
     1
 69
     0
  7
STANDARD
140
0.25
170
     5
 62
     0
 63
     7
283
     0
274
    -2
284
     1
 64
     0
275
    -2
285
     1
 65
     0
276
    -2
286
     1
 66
     0
277
    -2
287
     1
 67
     0
278
    -2
288
     1
 68
     0
279
    -2
289
     1
 69
     0
  7
STANDARD
140
0.18
170
     5
 62
     0
 63
     7
283
     0
274
    -2
284
     1
 64
     0
275
    -2
285
     1
 65
     0
276
    -2
286
     1
 66
     0
277
    -2
287
     1
 67
     0
278
    -2
288
     1
 68
     0
279
    -2
289
     1
 69
     0
  0
VISUALSTYLE
  5
767D
102
{ACAD_XDICTIONARY
360
D146
102
}
102
{ACAD_REACTORS
330
7677
102
}
330
7677
100
AcDbVisualStyle
  2
2dWireframe
 70
     4
 71
     0
 72
     2
 73
     0
 90
        0
 40
-0.6
 41
-30.0
 62
     5
 63
     7
421
 16777215
 74
     1
 91
        4
 64
     7
 65
   257
 75
     1
175
     1
 42
1.0
 92
        0
 66
   257
 43
1.0
 76
     1
 77
     6
 78
     2
 67
     7
 79
     5
170
     0
171
     0
290
     0
174
     0
 93
        1
 44
0.0
173
     0
291
     0
 45
0.0
1001
ACAD
1000
AcDbSavedByObjectVersion
1070
     0
  0
VISUALSTYLE
  5
767C
102
{ACAD_XDICTIONARY
360
D144
102
}
102
{ACAD_REACTORS
330
7677
102
}
330
7677
100
AcDbVisualStyle
  2
Basic
 70
     7
 71
     1
 72
     0
 73
     1
 90
        0
 40
-0.6
 41
-30.0
 62
     5
 63
     7
421
 16777215
 74
     0
 91
        4
 64
     7
 65
   257
 75
     1
175
     1
 42
1.0
 92
        8
 66
     7
 43
1.0
 76
     1
 77
     6
 78
     2
 67
     7
 79
     5
170
     0
171
     0
290
     0
174
     0
 93
        1
 44
0.0
173
     0
291
     1
 45
0.0
1001
ACAD
1000
AcDbSavedByObjectVersion
1070
     0
  0
VISUALSTYLE
  5
7683
102
{ACAD_XDICTIONARY
360
D152
102
}
102
{ACAD_REACTORS
330
7677
102
}
330
7677
100
AcDbVisualStyle
  2
Brighten
 70
    12
 71
     2
 72
     2
 73
     0
 90
        0
 40
-0.6
 41
-30.0
 62
     5
 63
     7
421
 16777215
 74
     1
 91
        4
 64
     7
 65
   257
 75
     1
175
     1
 42
1.0
 92
        8
 66
     7
 43
1.0
 76
     1
 77
     6
 78
     2
 67
     7
 79
     5
170
     0
171
     0
290
     0
174
     0
 93
        1
 44
50.0
173
     0
291
     1
 45
0.0
1001
ACAD
1000
AcDbSavedByObjectVersion
1070
     0
  0
VISUALSTYLE
  5
7687
102
{ACAD_XDICTIONARY
360
D15A
102
}
102
{ACAD_REACTORS
330
7677
102
}
330
7677
100
AcDbVisualStyle
  2
ColorChange
 70
    16
 71
     2
 72
     2
 73
     3
 90
        0
 40
-0.6
 41
-30.0
 62
     5
 63
     8
421
  8421504
 74
     1
 91
        4
 64
     7
 65
   257
 75
     1
175
     1
 42
1.0
 92
        8
 66
     8
424
  8421504
 43
1.0
 76
     1
 77
     6
 78
     2
 67
     7
 79
     5
170
     0
171
     0
290
     0
174
     0
 93
        1
 44
0.0
173
     0
291
     1
 45
0.0
1001
ACAD
1000
AcDbSavedByObjectVersion
1070
     0
  0
VISUALSTYLE
  5
7680
102
{ACAD_XDICTIONARY
360
D14C
102
}
102
{ACAD_REACTORS
330
7677
102
}
330
7677
100
AcDbVisualStyle
  2
Conceptual
 70
     9
 71
     3
 72
     2
 73
     0
 90
        0
 40
-0.6
 41
-30.0
 62
     5
 63
     7
421
 16777215
 74
     2
 91
        2
 64
     7
 65
   257
 75
     1
175
     1
 42
179.0
 92
        8
 66
     7
 43
1.0
 76
     1
 77
     6
 78
     2
 67
     7
 79
     3
170
     0
171
     0
290
     0
174
     0
 93
        1
 44
0.0
173
     0
291
     0
 45
0.0
1001
ACAD
1000
AcDbSavedByObjectVersion
1070
     0
  0
VISUALSTYLE
  5
7682
102
{ACAD_XDICTIONARY
360
D150
102
}
102
{ACAD_REACTORS
330
7677
102
}
330
7677
100
AcDbVisualStyle
  2
Dim
 70
    11
 71
     2
 72
     2
 73
     0
 90
        0
 40
-0.6
 41
-30.0
 62
     5
 63
     7
421
 16777215
 74
     1
 91
        4
 64
     7
 65
   257
 75
     1
175
     1
 42
1.0
 92
        8
 66
     7
 43
1.0
 76
     1
 77
     6
 78
     2
 67
     7
 79
     5
170
     0
171
     0
290
     0
174
     0
 93
        1
 44
-50.0
173
     0
291
     1
 45
0.0
1001
ACAD
1000
AcDbSavedByObjectVersion
1070
     0
  0
VISUALSTYLE
  5
768F
102
{ACAD_XDICTIONARY
360
D16A
102
}
102
{ACAD_REACTORS
330
7677
102
}
330
7677
100
AcDbVisualStyle
  2
EdgeColorOff
 70
    22
 71
     2
 72
     2
 73
     0
 90
        0
 40
-0.6
 41
-30.0
 62
     5
 63
     7
421
 16777215
 74
     1
 91
        4
 64
     7
 65
   257
 75
     1
175
     1
 42
1.0
 92
        8
 66
     7
 43
1.0
 76
     1
 77
     6
 78
     2
 67
     7
 79
     5
170
     0
171
     0
290
     0
174
     0
 93
        1
 44
0.0
173
     0
291
     1
 45
0.0
1001
ACAD
1000
AcDbSavedByObjectVersion
1070
     0
  0
VISUALSTYLE
  5
7686
102
{ACAD_XDICTIONARY
360
D158
102
}
102
{ACAD_REACTORS
330
7677
102
}
330
7677
100
AcDbVisualStyle
  2
Facepattern
 70
    15
 71
     2
 72
     2
 73
     0
 90
        0
 40
-0.6
 41
-30.0
 62
     5
 63
     7
421
 16777215
 74
     1
 91
        4
 64
     7
 65
   257
 75
     1
175
     1
 42
1.0
 92
        8
 66
     7
 43
1.0
 76
     1
 77
     6
 78
     2
 67
     7
 79
     5
170
     0
171
     0
290
     0
174
     0
 93
        1
 44
0.0
173
     0
291
     1
 45
0.0
1001
ACAD
1000
AcDbSavedByObjectVersion
1070
     0
  0
VISUALSTYLE
  5
7678
102
{ACAD_XDICTIONARY
360
D13C
102
}
102
{ACAD_REACTORS
330
7677
102
}
330
7677
100
AcDbVisualStyle
  2
Flat
 70
     0
 71
     2
 72
     1
 73
     1
 90
        2
 40
-0.6
 41
30.0
 62
     5
 63
     7
421
 16777215
 74
     0
 91
        0
 64
     7
 65
   257
 75
     1
175
     1
 42
1.0
 92
        8
 66
     7
 43
1.0
 76
     1
 77
     6
 78
     2
 67
     7
 79
     5
170
     0
171
     0
290
     0
174
     0
 93
       13
 44
0.0
173
     0
291
     1
 45
0.0
1001
ACAD
1000
AcDbSavedByObjectVersion
1070
     0
  0
VISUALSTYLE
  5
7679
102
{ACAD_XDICTIONARY
360
D13E
102
}
102
{ACAD_REACTORS
330
7677
102
}
330
7677
100
AcDbVisualStyle
  2
FlatWithEdges
 70
     1
 71
     2
 72
     1
 73
     1
 90
        2
 40
-0.6
 41
30.0
 62
     5
 63
     7
421
 16777215
 74
     1
 91
        0
 64
     7
 65
   257
 75
     1
175
     1
 42
1.0
 92
        0
 66
   257
 43
1.0
 76
     1
 77
     6
 78
     2
 67
     7
 79
     5
170
     0
171
     0
290
     0
174
     0
 93
       13
 44
0.0
173
     0
291
     1
 45
0.0
1001
ACAD
1000
AcDbSavedByObjectVersion
1070
     0
  0
VISUALSTYLE
  5
767A
102
{ACAD_XDICTIONARY
360
D140
102
}
102
{ACAD_REACTORS
330
7677
102
}
330
7677
100
AcDbVisualStyle
  2
Gouraud
 70
     2
 71
     2
 72
     2
 73
     1
 90
        2
 40
-0.6
 41
30.0
 62
     5
 63
     7
421
 16777215
 74
     0
 91
        0
 64
     7
 65
   257
 75
     1
175
     1
 42
1.0
 92
        0
 66
     7
 43
1.0
 76
     1
 77
     6
 78
     2
 67
     7
 79
     5
170
     0
171
     0
290
     0
174
     0
 93
       13
 44
0.0
173
     0
291
     1
 45
0.0
1001
ACAD
1000
AcDbSavedByObjectVersion
1070
     0
  0
VISUALSTYLE
  5
767B
102
{ACAD_XDICTIONARY
360
D142
102
}
102
{ACAD_REACTORS
330
7677
102
}
330
7677
100
AcDbVisualStyle
  2
GouraudWithEdges
 70
     3
 71
     2
 72
     2
 73
     1
 90
        2
 40
-0.6
 41
30.0
 62
     5
 63
     7
421
 16777215
 74
     1
 91
        0
 64
     7
 65
   257
 75
     1
175
     1
 42
1.0
 92
        0
 66
   257
 43
1.0
 76
     1
 77
     6
 78
     2
 67
     7
 79
     5
170
     0
171
     0
290
     0
174
     0
 93
       13
 44
0.0
173
     0
291
     1
 45
0.0
1001
ACAD
1000
AcDbSavedByObjectVersion
1070
     0
  0
VISUALSTYLE
  5
767F
102
{ACAD_XDICTIONARY
360
D14A
102
}
102
{ACAD_REACTORS
330
7677
102
}
330
7677
100
AcDbVisualStyle
  2
Hidden
 70
     6
 71
     1
 72
     2
 73
     2
 90
        0
 40
-0.6
 41
-30.0
 62
     5
 63
     7
421
 16777215
 74
     2
 91
        2
 64
     7
 65
   257
 75
     2
175
     1
 42
40.0
 92
        0
 66
   257
 43
1.0
 76
     1
 77
     6
 78
     2
 67
     7
 79
     3
170
     0
171
     0
290
     0
174
     0
 93
        1
 44
0.0
173
     0
291
     0
 45
0.0
1001
ACAD
1000
AcDbSavedByObjectVersion
1070
     0
  0
VISUALSTYLE
  5
768D
102
{ACAD_XDICTIONARY
360
D166
102
}
102
{ACAD_REACTORS
330
7677
102
}
330
7677
100
AcDbVisualStyle
  2
JitterOff
 70
    20
 71
     2
 72
     2
 73
     0
 90
        0
 40
-0.6
 41
-30.0
 62
     5
 63
     7
421
 16777215
 74
     1
 91
        4
 64
     7
 65
   257
 75
     1
175
     1
 42
1.0
 92
       10
 66
     7
 43
1.0
 76
     1
 77
     6
 78
     2
 67
     7
 79
     5
170
     0
171
     0
290
     0
174
     0
 93
        1
 44
0.0
173
     0
291
     1
 45
0.0
1001
ACAD
1000
AcDbSavedByObjectVersion
1070
     0
  0
VISUALSTYLE
  5
7685
102
{ACAD_XDICTIONARY
360
D156
102
}
102
{ACAD_REACTORS
330
7677
102
}
330
7677
100
AcDbVisualStyle
  2
Linepattern
 70
    14
 71
     2
 72
     2
 73
     0
 90
        0
 40
-0.6
 41
-30.0
 62
     5
 63
     7
421
 16777215
 74
     1
 91
        4
 64
     7
 65
   257
 75
     7
175
     7
 42
1.0
 92
        8
 66
     7
 43
1.0
 76
     1
 77
     6
 78
     2
 67
     7
 79
     5
170
     0
171
     0
290
     0
174
     0
 93
        1
 44
0.0
173
     0
291
     1
 45
0.0
1001
ACAD
1000
AcDbSavedByObjectVersion
1070
     0
  0
VISUALSTYLE
  5
768E
102
{ACAD_XDICTIONARY
360
D168
102
}
102
{ACAD_REACTORS
330
7677
102
}
330
7677
100
AcDbVisualStyle
  2
OverhangOff
 70
    21
 71
     2
 72
     2
 73
     0
 90
        0
 40
-0.6
 41
-30.0
 62
     5
 63
     7
421
 16777215
 74
     1
 91
        4
 64
     7
 65
   257
 75
     1
175
     1
 42
1.0
 92
        9
 66
     7
 43
1.0
 76
     1
 77
     6
 78
     2
 67
     7
 79
     5
170
     0
171
     0
290
     0
174
     0
 93
        1
 44
0.0
173
     0
291
     1
 45
0.0
1001
ACAD
1000
AcDbSavedByObjectVersion
1070
     0
  0
VISUALSTYLE
  5
7681
102
{ACAD_XDICTIONARY
360
D14E
102
}
102
{ACAD_REACTORS
330
7677
102
}
330
7677
100
AcDbVisualStyle
  2
Realistic
 70
     8
 71
     2
 72
     2
 73
     0
 90
        2
 40
-0.6
 41
30.0
 62
     5
 63
     7
421
 16777215
 74
     0
 91
        0
 64
     7
 65
   257
 75
     1
175
     1
 42
1.0
 92
        8
 66
   257
 43
1.0
 76
     1
 77
     6
 78
     2
 67
     7
 79
     3
170
     0
171
     0
290
     0
174
     0
 93
       13
 44
0.0
173
     0
291
     0
 45
0.0
1001
ACAD
1000
AcDbSavedByObjectVersion
1070
     0
  0
VISUALSTYLE
  5
768C
102
{ACAD_XDICTIONARY
360
D164
102
}
102
{ACAD_REACTORS
330
7677
102
}
330
7677
100
AcDbVisualStyle
  2
Shaded
 70
    27
 71
     2
 72
     2
 73
     1
 90
        2
 40
-0.6
 41
30.0
 62
     5
 63
     7
421
 16777215
 74
     0
 91
        4
 64
     7
 65
   257
 75
     1
175
     1
 42
1.0
 92
        8
 66
   257
 43
1.0
 76
     1
 77
     6
 78
     2
 67
     8
425
  7895160
 79
     3
170
     0
171
     0
290
     0
174
     0
 93
        5
 44
0.0
173
     0
291
     0
 45
0.0
1001
ACAD
1000
AcDbSavedByObjectVersion
1070
     0
  0
VISUALSTYLE
  5
768B
102
{ACAD_XDICTIONARY
360
D162
102
}
102
{ACAD_REACTORS
330
7677
102
}
330
7677
100
AcDbVisualStyle
  2
Shaded with edges
 70
    26
 71
     2
 72
     2
 73
     1
 90
        2
 40
-0.6
 41
30.0
 62
     5
 63
     7
421
 16777215
 74
     1
 91
       10
 64
     7
 65
   257
 75
     2
175
     1
 42
1.0
 92
        8
 66
   257
 43
1.0
 76
     1
 77
     6
 78
     2
 67
     7
 79
     3
170
     0
171
     0
290
     0
174
     0
 93
        5
 44
0.0
173
     0
291
     0
 45
0.0
1001
ACAD
1000
AcDbSavedByObjectVersion
1070
     0
  0
VISUALSTYLE
  5
7688
102
{ACAD_XDICTIONARY
360
D15C
102
}
102
{ACAD_REACTORS
330
7677
102
}
330
7677
100
AcDbVisualStyle
  2
Shades of Gray
 70
    23
 71
     2
 72
     2
 73
     3
 90
        0
 40
-0.6
 41
-30.0
 62
     5
 63
     7
421
 16777215
 74
     2
 91
        2
 64
     7
 65
     7
 75
     1
175
     1
 42
40.0
 92
        8
 66
     7
 43
1.0
 76
     1
 77
     6
 78
     2
 67
     7
 79
     3
170
     0
171
     0
290
     0
174
     0
 93
        1
 44
0.0
173
     0
291
     0
 45
0.0
1001
ACAD
1000
AcDbSavedByObjectVersion
1070
     0
  0
VISUALSTYLE
  5
7689
102
{ACAD_XDICTIONARY
360
D15E
102
}
102
{ACAD_REACTORS
330
7677
102
}
330
7677
100
AcDbVisualStyle
  2
Sketchy
 70
    24
 71
     1
 72
     2
 73
     2
 90
        0
 40
-0.6
 41
-30.0
 62
     5
 63
     7
421
 16777215
 74
     2
 91
        2
 64
     7
 65
     7
 75
     1
175
     1
 42
40.0
 92
       11
 66
     7
 43
1.0
 76
     1
 77
     6
 78
     2
 67
     7
 79
     6
170
     0
171
     0
290
     0
174
     0
 93
        1
 44
0.0
173
     0
291
     0
 45
0.0
1001
ACAD
1000
AcDbSavedByObjectVersion
1070
     0
  0
VISUALSTYLE
  5
7684
102
{ACAD_XDICTIONARY
360
D154
102
}
102
{ACAD_REACTORS
330
7677
102
}
330
7677
100
AcDbVisualStyle
  2
Thicken
 70
    13
 71
     2
 72
     2
 73
     0
 90
        0
 40
-0.6
 41
-30.0
 62
     5
 63
     7
421
 16777215
 74
     1
 91
        4
 64
     7
 65
   257
 75
     1
175
     1
 42
1.0
 92
       12
 66
     7
 43
1.0
 76
     1
 77
     6
 78
     2
 67
     7
 79
     5
170
     0
171
     0
290
     0
174
     0
 93
        1
 44
0.0
173
     0
291
     1
 45
0.0
1001
ACAD
1000
AcDbSavedByObjectVersion
1070
     0
  0
VISUALSTYLE
  5
767E
102
{ACAD_XDICTIONARY
360
D148
102
}
102
{ACAD_REACTORS
330
7677
102
}
330
7677
100
AcDbVisualStyle
  2
Wireframe
 70
     5
 71
     0
 72
     2
 73
     0
 90
        0
 40
-0.6
 41
-30.0
 62
     5
 63
     7
421
 16777215
 74
     1
 91
        4
 64
     7
 65
   257
 75
     1
175
     1
 42
1.0
 92
        0
 66
   257
 43
1.0
 76
     1
 77
     6
 78
     2
 67
     7
 79
     3
170
     0
171
     0
290
     0
174
     0
 93
        1
 44
0.0
173
     0
291
     0
 45
0.0
1001
ACAD
1000
AcDbSavedByObjectVersion
1070
     0
  0
VISUALSTYLE
  5
768A
102
{ACAD_XDICTIONARY
360
D160
102
}
102
{ACAD_REACTORS
330
7677
102
}
330
7677
100
AcDbVisualStyle
  2
X-Ray
 70
    25
 71
     2
 72
     2
 73
     1
 90
        1
 40
0.5
 41
-30.0
 62
     5
 63
     7
421
 16777215
 74
     1
 91
        0
 64
     7
 65
   257
 75
     1
175
     1
 42
1.0
 92
        8
 66
     7
 43
1.0
 76
     1
 77
     6
 78
     2
 67
     7
 79
     3
170
     0
171
     0
290
     0
174
     0
 93
       13
 44
0.0
173
     0
291
     0
 45
0.0
1001
ACAD
1000
AcDbSavedByObjectVersion
1070
     0
  0
DICTIONARYVAR
  5
B4C5
102
{ACAD_REACTORS
330
169
102
}
330
169
100
DictionaryVariables
280
     0
  1
1:1
  0
DICTIONARYVAR
  5
B4C3
102
{ACAD_REACTORS
330
169
102
}
330
169
100
DictionaryVariables
280
     0
  1
STANDARD
  0
DICTIONARYVAR
  5
764E
102
{ACAD_REACTORS
330
169
102
}
330
169
100
DictionaryVariables
280
     0
  1
STANDARD
  0
DICTIONARYVAR
  5
16A
102
{ACAD_REACTORS
330
169
102
}
330
169
100
DictionaryVariables
280
     0
  1
1
  0
DICTIONARYVAR
  5
B4C7
102
{ACAD_REACTORS
330
169
102
}
330
169
100
DictionaryVariables
280
     0
  1
1
  0
DICTIONARYVAR
  5
B4C8
102
{ACAD_REACTORS
330
169
102
}
330
169
100
DictionaryVariables
280
     0
  1
15
  0
DICTIONARYVAR
  5
B4C6
102
{ACAD_REACTORS
330
169
102
}
330
169
100
DictionaryVariables
280
     0
  1
0
  0
DICTIONARYVAR
  5
B4C4
102
{ACAD_REACTORS
330
169
102
}
330
169
100
DictionaryVariables
280
     0
  1
0
  0
XRECORD
  5
177
102
{ACAD_REACTORS
330
176
102
}
330
176
100
AcDbXrecord
280
     1
 91
      476
330
179
 90
        8
 62
     7
370
    -3
331
15
  1
Color_7
330
178
 90
        8
 62
     7
370
    -3
331
15
  1
Color_7
330
128
 90
        0
 62
     7
370
    -3
331
15
  1
Color_7
330
10
 90
        8
 62
     7
370
    -3
331
15
  1
Color_7
  0
DICTIONARY
  5
AF8A
330
21
100
AcDbDictionary
280
     1
281
     1
  3
ADSK_XREC_LAYOUTTHUMBNAIL
360
AF8B
  0
DICTIONARY
  5
7668
330
7667
100
AcDbDictionary
280
     1
281
     1
  3
ACAD_XREC_ROUNDTRIP
360
D13A
  3
BUMPTILE
360
766A
  3
DIFFUSETILE
360
7669
  3
OPACITYTILE
360
766D
  3
REFLECTIONTILE
360
766C
  3
REFRACTIONTILE
360
766E
  3
SPECULARTILE
360
766B
  0
DICTIONARY
  5
7660
330
765F
100
AcDbDictionary
280
     1
281
     1
  3
ACAD_XREC_ROUNDTRIP
360
D139
  3
BUMPTILE
360
7662
  3
DIFFUSETILE
360
7661
  3
OPACITYTILE
360
7665
  3
REFLECTIONTILE
360
7664
  3
REFRACTIONTILE
360
7666
  3
SPECULARTILE
360
7663
  0
DICTIONARY
  5
7670
330
766F
100
AcDbDictionary
280
     1
281
     1
  3
ACAD_XREC_ROUNDTRIP
360
D13B
  3
BUMPTILE
360
7672
  3
DIFFUSETILE
360
7671
  3
OPACITYTILE
360
7675
  3
REFLECTIONTILE
360
7674
  3
REFRACTIONTILE
360
7676
  3
SPECULARTILE
360
7673
  0
DICTIONARY
  5
D133
330
76A3
100
AcDbDictionary
280
     1
281
     1
  3
ACAD_XREC_ROUNDTRIP
360
D134
  0
DICTIONARY
  5
C003
330
7277
100
AcDbDictionary
280
     1
281
     1
  3
ACAD_ROUNDTRIP_2008_TABLESTYLE_CELLSTYLEMAP
360
D132
  3
ACAD_XREC_ROUNDTRIP
360
D138
  0
DICTIONARY
  5
D146
330
767D
100
AcDbDictionary
280
     1
281
     1
  3
ACAD_XREC_ROUNDTRIP
360
D147
  0
DICTIONARY
  5
D144
330
767C
100
AcDbDictionary
280
     1
281
     1
  3
ACAD_XREC_ROUNDTRIP
360
D145
  0
DICTIONARY
  5
D152
330
7683
100
AcDbDictionary
280
     1
281
     1
  3
ACAD_XREC_ROUNDTRIP
360
D153
  0
DICTIONARY
  5
D15A
330
7687
100
AcDbDictionary
280
     1
281
     1
  3
ACAD_XREC_ROUNDTRIP
360
D15B
  0
DICTIONARY
  5
D14C
330
7680
100
AcDbDictionary
280
     1
281
     1
  3
ACAD_XREC_ROUNDTRIP
360
D14D
  0
DICTIONARY
  5
D150
330
7682
100
AcDbDictionary
280
     1
281
     1
  3
ACAD_XREC_ROUNDTRIP
360
D151
  0
DICTIONARY
  5
D16A
330
768F
100
AcDbDictionary
280
     1
281
     1
  3
ACAD_XREC_ROUNDTRIP
360
D16B
  0
DICTIONARY
  5
D158
330
7686
100
AcDbDictionary
280
     1
281
     1
  3
ACAD_XREC_ROUNDTRIP
360
D159
  0
DICTIONARY
  5
D13C
330
7678
100
AcDbDictionary
280
     1
281
     1
  3
ACAD_XREC_ROUNDTRIP
360
D13D
  0
DICTIONARY
  5
D13E
330
7679
100
AcDbDictionary
280
     1
281
     1
  3
ACAD_XREC_ROUNDTRIP
360
D13F
  0
DICTIONARY
  5
D140
330
767A
100
AcDbDictionary
280
     1
281
     1
  3
ACAD_XREC_ROUNDTRIP
360
D141
  0
DICTIONARY
  5
D142
330
767B
100
AcDbDictionary
280
     1
281
     1
  3
ACAD_XREC_ROUNDTRIP
360
D143
  0
DICTIONARY
  5
D14A
330
767F
100
AcDbDictionary
280
     1
281
     1
  3
ACAD_XREC_ROUNDTRIP
360
D14B
  0
DICTIONARY
  5
D166
330
768D
100
AcDbDictionary
280
     1
281
     1
  3
ACAD_XREC_ROUNDTRIP
360
D167
  0
DICTIONARY
  5
D156
330
7685
100
AcDbDictionary
280
     1
281
     1
  3
ACAD_XREC_ROUNDTRIP
360
D157
  0
DICTIONARY
  5
D168
330
768E
100
AcDbDictionary
280
     1
281
     1
  3
ACAD_XREC_ROUNDTRIP
360
D169
  0
DICTIONARY
  5
D14E
330
7681
100
AcDbDictionary
280
     1
281
     1
  3
ACAD_XREC_ROUNDTRIP
360
D14F
  0
DICTIONARY
  5
D164
330
768C
100
AcDbDictionary
280
     1
281
     1
  3
ACAD_XREC_ROUNDTRIP
360
D165
  0
DICTIONARY
  5
D162
330
768B
100
AcDbDictionary
280
     1
281
     1
  3
ACAD_XREC_ROUNDTRIP
360
D163
  0
DICTIONARY
  5
D15C
330
7688
100
AcDbDictionary
280
     1
281
     1
  3
ACAD_XREC_ROUNDTRIP
360
D15D
  0
DICTIONARY
  5
D15E
330
7689
100
AcDbDictionary
280
     1
281
     1
  3
ACAD_XREC_ROUNDTRIP
360
D15F
  0
DICTIONARY
  5
D154
330
7684
100
AcDbDictionary
280
     1
281
     1
  3
ACAD_XREC_ROUNDTRIP
360
D155
  0
DICTIONARY
  5
D148
330
767E
100
AcDbDictionary
280
     1
281
     1
  3
ACAD_XREC_ROUNDTRIP
360
D149
  0
DICTIONARY
  5
D160
330
768A
100
AcDbDictionary
280
     1
281
     1
  3
ACAD_XREC_ROUNDTRIP
360
D161
  0
XRECORD
  5
AF8B
102
{ACAD_REACTORS
330
AF8A
102
}
330
AF8A
100
AcDbXrecord
280
     1
310
280000000001000065000000010008000000000000650000000000000000000000010000000000003028210000000000FFFFFF000000000000000000000000000000000000000000000000000000000000000000330000006600000099000000CC000000FF00000000330000333300006633000099330000CC330000FF3300
310
0000660000336600006666000099660000CC660000FF66000000990000339900006699000099990000CC990000FF99000000CC000033CC000066CC000099CC0000CCCC0000FFCC000000FF000033FF000066FF000099FF0000CCFF0000FFFF000000003300330033006600330099003300CC003300FF003300003333003333
310
33006633330099333300CC333300FF33330000663300336633006666330099663300CC663300FF66330000993300339933006699330099993300CC993300FF99330000CC330033CC330066CC330099CC3300CCCC3300FFCC330000FF330033FF330066FF330099FF3300CCFF3300FFFF330000006600330066006600660099
310
006600CC006600FF00660000336600333366006633660099336600CC336600FF33660000666600336666006666660099666600CC666600FF66660000996600339966006699660099996600CC996600FF99660000CC660033CC660066CC660099CC6600CCCC6600FFCC660000FF660033FF660066FF660099FF6600CCFF6600
310
FFFF660000009900330099006600990099009900CC009900FF00990000339900333399006633990099339900CC339900FF33990000669900336699006666990099669900CC669900FF66990000999900339999006699990099999900CC999900FF99990000CC990033CC990066CC990099CC9900CCCC9900FFCC990000FF99
310
0033FF990066FF990099FF9900CCFF9900FFFF99000000CC003300CC006600CC009900CC00CC00CC00FF00CC000033CC003333CC006633CC009933CC00CC33CC00FF33CC000066CC003366CC006666CC009966CC00CC66CC00FF66CC000099CC003399CC006699CC009999CC00CC99CC00FF99CC0000CCCC0033CCCC0066CC
310
CC0099CCCC00CCCCCC00FFCCCC0000FFCC0033FFCC0066FFCC0099FFCC00CCFFCC00FFFFCC000000FF003300FF006600FF009900FF00CC00FF00FF00FF000033FF003333FF006633FF009933FF00CC33FF00FF33FF000066FF003366FF006666FF009966FF00CC66FF00FF66FF000099FF003399FF006699FF009999FF00CC
310
99FF00FF99FF0000CCFF0033CCFF0066CCFF0099CCFF00CCCCFF00FFCCFF0000FFFF0033FFFF0066FFFF0099FFFF00CCFFFF00FFFFFF00000000000D0D0D001A1A1A00282828003535350043434300505050005D5D5D006B6B6B00787878008686860093939300A1A1A100AEAEAE00BBBBBB00C9C9C900D6D6D600E4E4E400
310
F1F1F100FFFFFF00000000000000000000000000000000000000000000000000000000000000000000000000000000000000000000000000000000000000000000000000000000000000000000000000000000000000000000000000000000000000000000000000000000000000000000002D2D000000000000000000002D
310
000000000000000000000000000000000000000000000000000000000000000000000000000000000000000000000000000000000000000000002D2D00000000000000000000000000000000000000000000000000000000000000000000000000000000000000000000000000000000000000000000000000000000000000
310
00000000000000000000000000000000000000000000000000000000000000000000000000000000000000000000000000000000000000000000000000000000000000000000000000000000000000000000000000000000000000000000000000000000000000000000000000000000000000002D2D2D2D2D2D2D2D2D2D2D
310
2D2D2D2D2D2D2D2D2D2D2D2D2D2D2D2D2D2D2D2D2D2D2D2D2D2D2D2D2D2D2D2D2D2D2D2D2D2D2D2D2D2D2D2D2D2D2D2D2D2D2D2D2D2D2D2D2D2D2D2D2D2D2D2D2D2D2D2D2D2D2D2D2D2D2D2D2D2D2D2D2D2D2D2D2D2D2D2D2D2D2D2D2D2D2D2D2D2D2D2D2D2D2D2D0000000000000000000000000000000000000000000000
310
00000000000000000000000000000000000000000000000000000000000000000000000000000000000000000000000000000000000000000000000000000000000000000000000000000000000000000000000000000000000000000000000000000000000000000000000000000000000000000028282828280028282828
310
2828282D00280000000000000000000000000000000000000000282800282800282828282828280028280000000000000000000000000000000000000000002D0000000000000000000000000028282800282800282800282800000000000000000000002D2D2D000000000000000000000000000000000000000000000000
310
00000000000000000000000000000000000000000000000000000000000000000000000000000000000000000000000000000000000000000000000000000000000000000000000000000000000000000000000000000000000000000000000000000000000000000000000000000000000000000000000028002800282800
310
28280028282D28280000000000000000000000000000000000000000282828282828282828282828280028280000000000000000000000000000000000000000002D00000000000000000000000000282828002828002828002828000000000000000000000000000000000000000000000000000000000000000000000000
310
00000000000000000000000000000000000000000000000000000000000000000000000000000000000000000000000000000000000000000000000000000000000000000000000000000000000000000000000000000000000000000000000000000000000000000000000000000000000000000000000000002828280028
310
280028282828282D28280000000000000000000000000000000000000028282828002828000028002800282828280000000000000000000000000000000000000000002D0000000000000000000000002828002828282800280028280028000000000000000000000000000000000000000000000000000000000000000000
310
000000000000000000000000000000000000000000000000000000000000000000000000000000000000000000000000000000000000000000000000000000000000000000000000000000000000000000000000000000000000000000000000000000000000000000000000000000000000000000000000000000282D2828
310
0028280028282828282D28280000000000000000000000000000000000000028282800282800282828282800282828280000000000000000000000000000000000000000002D000000000000000000000000002828280028280028280028280000000000000000000000000000000000000000000000000000000000000000
310
00000000000000000000000000000000000000000000000000000000000000000000000000000000000000000000000000000000000000000000000000000000000000000000000000000000000000000000000000000000000000000000000000000000000000000000000000000000000000000000000000000000002828
310
00282800282800280028002D28000000000000000000000000000000000000000000282800282800282828002800002800000000000000000000000000000000000000000000002D00000000000000000000000000282828002828002828002828000000000000000000000000000000000000000000000000000000000000
310
00000000000000000000000000000000000000000000000000000000000000000000000000000000000000000000000000000000000000000000000000000000000000000000000000000000000000000000000000000000000000000000000000000000000000000000000000000000000000000000000000000000000000
310
002D00000000000000000000002D00000000000000000000000000000000000000000000000000000000000000000000000000000000000000000000000000000000000000000000002D0000000000000000000000000000000000000000000000000000000000000000000000000000000000000000000000000000000000
310
00000000000000000000000000000000000000000000000000000000000000000000000000000000000000000000000000000000000000000000000000000000000000000000000000000000000000000000000000000000000000000000000000000000000000000000000000000000000000000000000000000000000000
310
0000002D00000028282800000000002D00000000000000000000000000000000000000000000000000282828000000000000000000000000000000000000000000000000000000000000282D280000000000000000000000000000000000000000000000000000000000282828000000000000000000000000000000000000
310
00000000000000000000000000000000000000000000000000000000000000000000000000000000000000000000000000000000000000000000000000000000000000000000000000000000000000000000000000000000000000000000000000000000000000000000000000000000000000000000000000000000000000
310
00000000002D00000000282828000000002D00000000000000000000000000000000000000000000000000002828280000000000000000000000000000000000000000000000000000000000002D28280000000000000000000000000000000000000000000000000000000000282828000000000000000000000000000000
310
00000000000000000000000000000000000000000000000000000000000000000000000000000000000000000000000000000000000000000000000000000000000000000000000000000000000000000000000000000000000000000000000000000000000000000000000000000000000000000000000000000000000000
310
000000000000002D00000000002828280000002D00000000000000000000000000000000000000000000000000000028282800000000000000000000000000000000000000000000000000000000002D2828280000000000000000000000000000000000000000000000000000000000282828000000000000000000000000
310
00000000000000000000000000000000000000000000000000000000000000000000000000000000000000000000000000000000000000000000000000000000000000000000000000000000000000000000000000000000000000000000000000000000000000000000000000000000000000000000000000000000000000
310
0000000000000000002D0000000000002828280000F50000000000000000000000000000000000000000000000000000000028282800000000000000000000000000000000000000000000000000000000F5002828000000000000000000000000000000000000000000000000000000000000282828000000000000000000
310
000000002D000000000000002D000000000000000000000000000000000000000000000000000000000000000000000000000000000000000000000000000000000000000000000000000000000000000000000000000000000000000000000000000000000000000000000000000000000000000000000000000000000000
310
00000000000000002D2D2DF52D2D2D2D2D2D2D28282D2D2D2D2D2D2D2D2D2D2D2D2D2D2D2D2D2D2D2D2D2D2D2D2D2D2D2D2D2D2D2D2828282D2D2D2D2D2D2D2D2D2D2D2D2D2D2D2D2D2D2D2D2D2D2D2D2D2D2D2D2D2D28282D2D2D2D2D2D2D2D2D2D2D2D2D2D2D2D2D2D2D2D2D2D2D2D2D2D2D2D2D2D2828282D2D2D2D2DF5
310
2D2D2D2D2D2D2D2D2D2D2D2D2D2D2D2D000000000000000000000000000000000000000000000000000000000000000000000000000000000000000000000000000000000000000000000000000000000000000000000000000000000000000000000000000000000000000000000000000000000000000000000000000000
310
000000000000000000002D0000000000000000000000002D2DF5002D000000000000000000000000000000000000000000000000000000000000000000000000000000000000000000000000000000000000002D00F52D2D000000000000000000000000000000000000000000000000000000000000000000000000000000
310
00000000000000002D000000000000002D0000000000000000000000000000000000000000000000000000000000000000000000000000000000000000000000000000000000000000000000000000000000000000000000000000000000000000000000000000000000000000000000000000000000000000000000000000
310
0000000000000000000000002D0000000000000000000000002D2DF5002D000000000000000000000000000000000000000000000000000000000000000000000000000000000000000000000000000000000000002D00F52D2D00000000000000000000000000000000000000000000000000000000000000000000000000
310
000000000000000000002D000000000000002D000000000000000000000000000000000000000000000000000000000000000000000000000000000000000000000000000000000000000000000000000000000000000000000000000000000000000000000000000000000000000000000000000000000000000000000000
310
00000000000000000000000000002D0000000000000000000000002D2DF5002D000000000000000000000000000000000000000000000000000000000000000000000000000000000000000000000000000000000000002D00F52D2D0000000000000000000000000000000000000000000000000000000000000000000000
310
0000000000000000000000002D000000000000002D00000000000000000000000000000000000000000000000000000000000000000000000000000000000000000000000000000000000000000000000000000000000000000000000000000000000000000000000000000000000000000000000000000000000000000000
310
000000000000000000000000000000002D0000000000000000000000002D2DF5002D000000000000000000000000000000000000000000000000000000000000000000000000000000000000000000000000000000000000002D00F52D2D000000000000000000000000000000000000000000000000000000000000000000
310
00000000000000000000000000002D000000000000002D0000000000000000000000000000000000000000000000000000000000000000000000000000000000000000000000000000000000000000000000000000000000000000000000000000000000000000000000000000000000000000000000000000000000000000
310
0000000000000000000000000000000000002D0000000000000000000000002D2DF5002D000000000000000000000000000000000000000000000000000000000000000000000000000000000000000000000000000000000000002D00F52D2D00000000000000000000000000000000000000000000000000000000000000
310
000000000000000000000000000000002D000000000000002D000000000000000000000000000000000000000000000000000000000000000000000000000000000000000000000000000000000000000000000000000000000000000000000000000000000000000000000000000000000000000000000000000000000000
310
00000000000000000000000000000000000000002D0000000000000000000000002D2DF5002D000000000000000000000000000000000000000000000000000000000000000000000000000000000000000000000000000000000000002D00F52D2D0000000000000000000000000000000000000000000000000000000000
310
0000000000000000000000000000000000002D000000000000002D00000000000000000000000000000000000000000000000000000000000000000000000000000000000000000000000000000000000000000000000000000000000000000000000000000000000000000000000000000000000000000000000000000000
310
000000000000000000000000000000000000000000002D0000000000000000000000002D2D2D2D2D2D00000000000000000000000000000000000000000000000000000000000000000000000000000000000000000000000000000000002D2D2D2D2D2D000000000000000000000000000000000000000000000000000000
310
00000000000000000000000000000000000000002D000000000000002D0000000000000000000000000000000000000000000000000000000000000000000000000000000000000000000000000000000000000000000000000000000000000000000000000000000000000000000000000000000000000000000000000000
310
0000000000000000000000000000000000000000000000002D0000000000000000000000002D2D2D2D2D2D00000000000000000000000000000000000000000000000000000000000000000000000000000000000000000000000000000000002D2D2D2D2D2D00000000000000000000000000000000000000000000000000
310
000000000000000000000000000000000000000000002D000000000000002D000000000000000000000000000000000000000000000000000000000000000000000000000000000000000000000000000000000000000000000000000000000000000000000000000000000000000000000000000000000000000000000000
310
00000000000000000000000000000000000000000000000000002D000000000000000000000000002D2D2D0000000000000000000000000000000000000000000000000000000000000000000000000000000000000000000000000000000000000000002D2D2D000000000000000000000000000000000000000000000000
310
0000000000000000000000000000000000000000000000002D000000000000002D00000000000000000000000000000000000000000000000000000000000000000000000000000000000000000000000000000000000000000000000000000000000000000000000000000000000000000000000000000000000000000000
310
000000000000000000000000000000000000000000000000000000002D0000000000000000000000000000F52D0000000000000000000000000000000000000000000000000000000000000000000000000000000000000000000000000000000000000000002DF50000000000000000000000000000000000000000000000
310
00000000000000000000000000000000000000000000000000002D000000000000002D0000000000000000000000000000000000000000000000000000000000000000000000000000000000000000000000000000000000000000000000000000000000000000000000000000000000000000000000000000000000000000
310
0000000000000000000000000000000000000000000000000000000000002D0000000000000000000000000000F52D0000000000000000000000000000000000000000000000000000000000000000000000000000000000000000000000000000000000000000002DF5000000000000000000000000000000000000000000
310
000000000000000000000000000000000000000000000000000000002D000000000000002D000000000000000000000000000000000000000000000000000000000000000000000000000000000000000000000000000000000000000000000000000000000000000000000000000000000000000000000000000000000000
310
00000000000000000000000000000000000000000000000000000000000000002D0000000000000000000000000000F52D0000000000000000000000000000000000000000000000000000000000000000000000000000000000000000000000000000000000000000002DF5000000000000F5F5F5F5F5F5F5F5F5F5F5F5F5
310
F5F5F5F5F5F5F5F5F5F5F5F50000000000000000000000000000000000002D000000000000002D00000000000000000000000000000000000000000000000000000000000000000000000000000000000000000000000000000000000000000000000000000000000000000000000000000000000000000000000000000000
310
000000000000000000000000000000000000000000000000000000000000000000002D0000000000000000000000000000F52D0000000000000000000000000000000000000000000000000000000000000000000000000000000000000000000000000000000000000000002DF50000000000F500F5F500F5F5F5F5F5F5F5
310
F5F5F5F5F5F500F5F500F5F5F5000000000000000000000000000000000000002D000000000000002D0000000000000000000000000000000000000000000000000000000000000000000000000000000000000000000000000000000000000000000000000000000000000000000000000000000000000000000000000000
310
0000000000000000000000000000000000000000000000000000000000000028000000002D0000000000000000000000000000F52D0000000000000000000000000000000000000000000000000000000000000000000000000000000000000000000000000000000000000000002DF50000000000F500F5F5F5F5F5F5F5F5
310
F5F5F5F5F500F5F50000F500F500F5000000000000000000000000000000000000002D000000000000002D000000000000000000000000000000000000000000000000000000000000000000000000000000000000000000000000000000000000000000000000000000000000000000000000000000000000000000000000
310
00000000000000000000000000000000000000000000000000000000000000000028280000002D0000000000000000000000000000F52D0000000000000000000000000000000000000000000000000000000000000000000000000000000000000000000000000000000000000000002DF500000000F500F5F5F5F5F5F5F5
310
F5F5F5F5F5F5F5F5F5F500F5F500F5F5F5000000000000000000000000000028282828282D000000000000002D00000000000000000000000000000000000000000000000000000000000000000000000000000000000000000000000000000000000000000000000000000000000000000000000000000000000000000000
310
000000000000000000000000000000000000000000000000000000000000000000000028282800002D0000000000000000000000000000F52D0000000000000000000000000000000000000000000000000000000000000000000000000000000000000000000000000000000000000000002DF500000000F5000000F500F5
310
00F50000F50000000000000000000000000000000000000000000000000000000000280000002D000028282828282D0000000000000000000000000000000000000000000000000000000000000000000000000000000000000000000000000000000000000000000000000000000000000000000000000000000000000000
310
0000000000000000000000000000000000000000000000000000000000000000000000000000282828002D0000000000000000000000000000F52D0000000000000000000000000000000000000000000000000000000000000000000000000000000000000000000000000000000000000000002DF5000000F50000000000
310
000000000000000000000000000000000000000000000000000000000000000000000000282828282D000000002800002D000000000000000000000000000000000000000000000000000000000000000000000000000000000000000000000000000000000000000000000000000000000000000000000000000000000000
310
00000000000000000000000000000000000000000000000000000000000000000000000000000000002828282D00000000000000000000000000002D2D00000000000000000000000000F5F5F5F5F5F5F5F5F5F5F5F5F5000000000000000000000000000000000000000000000000000000000000002D2D00F5F500000000
310
0000000000000000000000000000000000000000000000000000000000000000000000000000000000002D000028282828282D00000000000000000000000000000000000000000000000000000000000000000000000000000000000000000000000000000000000000000000000000000000000000000000000000000000
310
0000000000000000000000000000000000000000000000000000000000000000000000000000000000000000282828000000000000000000000000002D2D2D000000000000000000000000F500F5F50000F5F5F5F5F5F50000000000000000000000000000000000000000000000000000000000000000002D2D2DF5F50000
310
00000000000000000000000000000000000000000000000000000000000000000000000000000000000000002D000000000000002D0000000000000000000000000000000000000000000000000000000000000000000000000000000000000000000000000000000000000000000000000000000000000000000000000000
310
0000000000000000000000000000000000000000000000000000000000000000000000000000000000000000000000282D00000000000000000000002D2D2D2D2D2D2D2D000000000000000000F500F5F500F5F5F5F5F5F5F50000000000000000000000000000000000000000000000000000000000002D2D2D2D2D2DF52D
310
000000000000000000000000000000000000000000000000000000000000000000000000000000000000000000002D000000000000002D000000000000000000000000000000000000000000000000000000000000000000000000000000000000000000000000000000000000000000000000000000000000000000000000
310
00000000000000000000000000000000000000000000000000000000000000000000000000000000000000000000000000002D00000000000000000000002D0000F50000002D0000000000000000F500F5F5F5F5F5F5F5F5F5F5F5000000000000F5F5F5F5F5F5F5F5F5F5F5F50000000000000000000000002D000000F500
310
002D000000000000000000000000000000000000000000000000000000000000000000000000000000000000000000002D000000000000002D00000000000000000000000000000000000000000000000000000000000000000000000000000000000000000000000000000000000000000000000000000000000000000000
310
000000000000000000000000000000000000000000000000000000000000000000000000000000000000000000000000000000002D00000000000000000000002D0000F50000002D0000000000000000F50000F50000F5F5F5F5F5F5F50000000000F5F5F5F500F5F500F5F5F500000000000000000000000000002D000000
310
F500002D000000000000000000000000000000000000000000000000000000000000000000000000000000000000000000002D000000000000002D0000000000000000000000000000000000000000000000000000000000000000000000000000000000000000000000000000000000000000000000000000000000000000
310
0000000000000000000000000000000000000000000000000000000000000000000000000000000000000000000000000000000000002D00000000000000000000002D0000F50000002D00000000000000F5000000000000000000000000000000000000F5F5F5F5F5F5F5F5F5F5F500000000000000000000000000002D00
310
0000F500002D000000000000000000000000000000000000000000000000000000000000000000000000000000000000000000002D000000000000002D000000000000000000000000000000000000000000000000000000000000000000000000000000000000000000000000000000000000000000000000000000000000
310
00000000000000000000000000000000000000000000000000000000000000000000000000000000000000000000000000000000000000002D00000000000000000000002D2D2D2D2D2D2D2D0000000000F5F5000000000000000000000000000000000000F500F5F5F50000F500F5F5F50000000000000000000000000000
310
2D2D2D2D2D2D2D2D000000000000000000000000000000000000000000000000000000000000000000000000000000000000000000002D000000000000002D00000000000000000000000000000000000000000000000000000000000000000000000000000000000000000000000000000000000000000000000000000000
310
000000000000000000000000000000000000000000000000000000000000000000000000000000000000000000000000000000000000000000002D000000000000000000000000002D2D2D0000000000000000F5F50000000000000000000000000000000000F5000000F5000000F500F50000000000000000000000000000
310
00000000002D2D2D0000000000000000000000000000000000000000000000000000000000000000000000000000000000000000000000002D000000000000002D0000000000000000000000000000000000000000000000000000000000000000000000000000000000000000000000000000000000000000000000000000
310
0000000000000000000000000000000000000000000000000000000000000000000000000000000000000000000000000000000000000000000000002D2D2D2D2D2D2D2D2D2D2D2D2D2D2D2D2D2D2D2D2D2D2D2D2DF52D2D2D2D2D2D2D2D2D2D2D2D2D2D2D2D2DF52D2D2D2D2D2D2D2D2D2D2D2D2D2D2D2D2D2D2D2D2D2D2D
310
2D2D2D2D2D2D2D2D2D2D2D2D2D2D2D2D2D2D2D2D2D2D2D2D2D2D2D2D2D2D2D2D2D2D2D2D2D2D2D2D2D2D2D2D2D2D2D2D2D2D2D000000000000002D000000000000002D000000000000000000000000000000000000000000000000000000000000000000000000000000000000000000000000000000000000000000000000
310
00000000000000000000000000000000000000000000000000000000000000000000000000000000000000000000000000000000000000000000000000002D2D00000000000000000000002D28F5282800000000000000000000000000000000000000000000000000F5000000000000000000000000000000000000000000
310
0000000000000000282828282D00000000000000000000000000000000000000000000000000000000000000000000000000000000000000000000002D000000000000002D00000000000000000000000000000000000000000000000000000000000000000000000000000000000000000000000000000000000000000000
310
000000000000000000000000000000000000000000000000000000000000000000000000000000000000000000000000000000000000000000000000000000002D2D00000000000000000000002D28F52828000000000000000000000000000000000000000000000000F50000000000000000000000000000000000000000
310
00000000000000000000282828282D00000000000000000000000000000000000000000000000000000000000000000000000000000000000000000000002D000000000000002D0000000000000000000000000000000000000000000000000000000000000000000000000000000000000000000000000000000000000000
310
0000000000000000000000000000000000000000000000000000000000000000000000000000000000000000000000000000000000000000000000000000000000002D2D00000000000000000000002D28F528280000000000000000000000000000000000000000000000F500000000000000000000000000000000000000
310
000000000000000000000000282828282D00000000000000000000000000000000000000000000000000000000000000000000000000000000000000000000002D000000000000002D000000000000000000000000000000000000000000000000000000000000000000000000000000000000000000000000000000000000
310
00000000000000000000000000000000000000000000000000000000000000000000000000000000000000000000000000000000000000000000000000000000000000002D2D2D2D2D2D2D2D2D2D2D2D2D2D282828282D2D2D2D2D2D2D2D2D2D2D2D2D2D2D2D2D2D2D2D2D2D2D2D2D2D2D2D2D2D2D2D2D2D2D2D2D2D2D2D2D
310
2D2D2D2D2D2D2D2D2D2D2D2D2D2D282828282D2D2D2D2D2D2D2D2D2D2D2D2D2D2D2D2D2D2D2D2D2D2D2D2D2D2D2D2D2D2D2D2D2D2D2D2D2D2D2D2D000000000000002D000000000000002D00000000000000000000000000000000000000000000000000000000000000000000000000000000000000000000000000000000
310
000000000000000000000000000000000000000000000000000000000000000000000000000000000000000000000000000000000000000000000000000000000000000000002D00000000002D00002D0000002D282D2828000000002D002D2D0000000000000000000000002D002DF5000000000000000000000000000000
310
000000002D00002D0000000000000000282828282D000000000000002D00002D00000000000000000000000000000000000000002D00002D0000000000000000000000002D000000000000002D0000000000000000000000000000000000000000000000000000000000000000000000000000000000000000000000000000
310
0000000000000000000000000000000000000000000000000000000000000000000000000000000000000000000000000000000000000000000000000000000000000000000000002D2D2D2D2D2D2D2D2D2D2D2D2D2D2DF52D2D2D2D2D2D2D2D2D2D2D2D2D2D2D2D2D2D2D2D2D2D2D2D2D2D2D2D2D2D2D2D2D2D2D2D2D2D2D
310
2D2D2D2D2D2D2D2D2D2D2D2D2D2D2D2D2D2D2D2DF52D2D2D2D2D2D2D2D2D2D2D2D2D2D2D2D2D2D2D2D2D2D2D2D2D2D2D2D2D2D2D2D2D2D2D2D2D2D2D2D2D2DF52D2D2D2D2D2DF5000000000000002D000000000000000000000000000000000000000000000000000000000000000000000000000000000000000000000000
310
00000000000000000000000000000000000000000000000000000000000000000000000000000000000000000000000000000000000000000000000000000000000000000000000000002D2D2D2D2D2D2D2D2D2D2D2D2D2D2D2D2D2D2D2D2D2D2D2D2D2D2D2D2D2D2D2D2D2D2D2D2D2D2D2D2D2D2D2D2D2DF52D2D2D2D2D2D
310
2D2D2D2D2D2D2D2D2D2D2D2D2D2D2D2D2D2D2D2D2D2D2D2D2D2D2D2D2D2D2D2D2D2D2D2D2D2D2D2D2D2D2D2D2D2D2D2D2D2D2D2D2D2D2D2D2D2D2D2D2D2D2D2D2D0000000000000000000000000000002D00000000000000000000000000000000000000000000000000000000000000000000000000000000000000000000
310
000000000000000000000000000000000000000000000000000000000000000000000000000000000000000000000000000000000000000000000000000000000000000000000000000000002D2D0000000000000000000000000000000000000000000000000000000000000000000000000000000000000000F5F5000000
310
000000000000000000000000000000000000000000000000000000000000000000000000000000000000000000000000000000000000000000000000000000000000000000000000000000000000000000002D0000000000000000000000000000000000000000000000000000000000000000000000000000000000000000
310
0000000000000000000000000000000000000000000000000000000000000000000000000000000000000000000000000000000000000000000000000000000000000000000000000000000000002D2D2DF52D2D2D2D2D2D2D2D2D2D2D2D2D2D2D2D2D2D2D2D2D2D2D2D2D2D2D2D2D2D2D2D2D2D2D2DF52D2D2D2D2D2DF52D
310
2D2D2D2D2D2D2D2D2D2D2D2D2D2D2D2D2D2D2D2D2D2D2D2D2D2D2D2D2D2D2D2D2D2D2D2D2D2D2D2D2D2D2D2D2D2D2D2D2D2D2D2D2D2D2D2D2D2D2D2D2D2D2D2D2D2D2D2D2DF52D2D2D2D2D2D2D2D2D2D2D2D2D2DF52D0000000000000000000000000000000000000000000000000000000000000000000000000000000000
310
00000000000000000000000000000000000000000000000000000000000000000000000000000000000000000000000000000000000000000000000000000000000000000000000000000000000000002D002828F5F500000000000000000000000000000000000000000000000000000000000000000000F5F50000000000
310
00F50000000000000000000000000000F50000000000000000000000000000000000000000000000F500000000000000000000000000000000000000000000F5000000000000000000000000000000000000000000000000000000000000000000000000000000000000000000000000000000000000000000000000000000
310
000000000000000000000000000000000000000000000000000000000000000000000000000000000000000000000000000000000000000000000000000000000000000000000000000000000000000000002D28282800F50000000000000000000000000000000000000000000000000000000000000000000000F5000000
310
000000F500000000000000000000000000002D00000000000000000000000000000000000000000000002D000000000000000000000000000000000000000000002D00000000000000000000000000000000000000000000000000000000000000000000000000000000000000000000000000000000000000000000000000
310
0000000000000000000000000000000000000000000000000000000000000000000000000000000000000000000000000000000000000000000000000000000000000000000000000000000000000000000000002D28282800F5000000000000000000000000000000000000000000000000000000000000000000000000F5
310
000000000000F5000000000000000000000000002D00000000000000000000000000000000000000000000002D000000000000000000000000000000000000000000002D0000000000000000000000000000000000000000000000000000000000000000000000000000000000000000000000000000000000000000000000
310
00000000000000000000000000000000000000000000000000000000000000000000000000000000000000000000000000000000000000000000000000000000000000000000000000000000000000000000000000002D2D28280000F500000000000000000000000000000000000000000000000000000000000000000000
310
00F500000000000000F50000000000000000000000002D00000000000000000000000000000000000000000000002D000000000000000000000000000000000000000000002D000000000000000000000000000000000000000000000000000000000000000000000000000000000000000000000000000000000000000000
310
000000000000000000000000000000000000000000000000000000000000000000000000000000000000000000000000000000000000000000000000000000000000000000000000000000000000000000000000000000002D0028280000F50000000000000000000000000000000000000000000000000000000000000000
310
00000000F5000000000000F50000000000000000000000002D2D2D2D2D2D2D2D2D2D2D2D2D2D2D2D2D2D2D2D2D2D2D2D2D2D2D2D2D2D2D2D2D2D2D2D2D2D2D2D2D2D2D2D2D2D2DF500000000000000000000000000000000000000000000000000000000000000000000000000000000000000000000000000000000000000
310
0000000000000000000000000000000000000000000000000000000000000000000000000000000000000000000000000000000000000000000000000000000000000000000000000000000000000000000000000000000000002D002828000000F5F5F5F5F5F5F5F5F5F5F5F5F5F5F5F5F5F5F5F5F5F5F5F5F5F5F5F5F5F5
310
F5F500000000F500000000000000F500000000000000000000000000000000000000282800282800282800000000000000000000000000000028282800282800282800000000000000000000000000000000000000000000000000000000000000000000000000000000000000000000000000000000000000000000000000
310
00000000000000000000000000000000000000000000000000000000000000000000000000000000000000000000000000000000000000000000000000000000000000000000000000000000000000000000000000000000000000002D002DF50000000000F5F5F5F500F500F5F5F500F500F500F5F500F500F5F5F500F5F5
310
F5F500F50000000000F5000000000000F50000000000000000000000000000000000000028002828002828002800000000000000000000000000002800282800282800280000000000000000000000000000000000000000000000000000000000000000000000000000000000000000000000000000000000000000000000
310
000000000000000000000000000000000000000000000000000000000000000000000000000000000000000000000000000000000000000000000000000000000000000000000000000000000000000000000000000000000000000000002D002D2DF5F5000000F5F5F5F5F5F500F5F5F5F5F5F500F5F500F5F5F5F5F5F5F5
310
F5F5F5F5F5F50000000000F500000000000000F50000000000000000000000000000000000000028282800282800280000000000000000000000000000000028280028280028000000000000000000000000000000000000000000000000000000000000000000000000000000000000000000000000000000000000000000
310
0000000000000000000000000000000000000000000000000000000000000000000000000000000000000000000000000000000000000000000000000000000000000000000000000000000000000000000000000000000000000000000000002D002D2DF5F5000000F5F5F5F5F5F500F5F5F5F5F5F50000F500F5F5F500F5
310
F500F5F50000F5F5000000000000F500000000000000F50000000000000000000000000000000000002800280028280028000000000000000000000000000000282828002828002800000000000000000000000000000000000000000000000000000000000000000000000000000000000000000000000000000000000000
310
00000000000000000000000000000000000000000000000000000000000000000000000000000000000000000000000000000000000000000000000000000000000000000000000000000000000000000000000000000000000000000000000000002D002D2D00F500000000F5F500F50000F5F5F5F5F5F500F5F5F5F5F5F5
310
00F5F500F5F500F5F5F500000000000000F5000000000000F5000000000000000000000000000000000028282828280028280000000000000000000000000000000028280028280028280000000000000000000000000000000000000000000000000000000000000000000000000000000000000000000000000000000000
310
000000000000000000000000000000000000000000000000000000000000000000000000000000000000000000000000000000000000000000000000000000000000000000000000000000000000000000000000000000000000000000000000000000002D002D2D0000F50000000000F5F5F5F500F5F5F50000F5000000F5
310
F500F5F5F5F5F5F50000000000000000000000F500000000000000F5000000000000000000000000000000000000000000000000000000000000000000000000000000000000000000000000000000000000000000000000000000000000000000000000000000000000000000000000000000000000000000000000000000
310
0000000000000000000000000000000000000000000000000000000000000000000000000000000000000000000000000000000000000000000000000000000000000000000000000000000000000000000000000000000000000000000000000000000000002D002D2D0000F50000F5F5F5F5F5F5F50000F500F5F500F5F5
310
0000F5F5F5F500F5F5F5000000000000000000000000F5000000000000F500000000000000000000000000000000000000000000000000000000000000000000000000000000000000000000000000000000000000000000000000000000000000000000000000000000000000000000000000000000000000000000000000
310
00000000000000000000000000000000000000000000000000000000000000000000000000000000000000000000000000000000000000000000000000000000000000000000000000000000000000000000000000000000000000000000000000000000000000002D002D2D000000F50000F500F5F500F50000F5F5F5F5F5
310
F5F50000F5F5F5F5F5F5F5F5000000000000000000000000F500000000000000F5F5F5F5F5F5F5F5F5F5F5F5F500000000000000000000000000000000000000000000000000000000000000000000000000000000000000000000000000000000000000000000000000000000000000000000000000000000000000000000
310
000000000000000000000000000000000000000000000000000000000000000000000000000000000000000000000000000000000000000000000000000000000000000000000000000000000000000000000000000000000000000000000000000000000000000000002D002D2D00000000F5F5F5F5F5F5F5F5F5F5F5F500
310
00F5F5F5F5F5F5F5F5F5F5F5F5F500000000000000000000000000F50000000000000000F5F5F5F50000F5F5F500000000000000000000000000000000000000000000000000000000000000000000000000000000000000000000000000000000000000000000000000000000000000000000000000000000000000000000
310
0000000000000000000000000000000000000000000000000000000000000000000000000000000000000000000000000000000000000000000000000000000000000000000000000000000000000000000000000000000000000000000000000000000000000000000000000000000000000000F500000000000000000000
310
00000000000000000000000000F500F500000000000000000000000000F5000000000000000000F5F5F50000F5F5F50000000000000000000000000000000000000000000000000000000000000000000000000000000000000000000000000000000000000000000000000000000000000000000000000000000000000000
310
0000000000000000000000000000000000000000000000000000000000000000000000000000000000000000000000000000000000000000000000000000000000000000000000000000000000000000000000000000000000000000000000000000000000000000000000000000000000000000000000F500000000000000
310
0000000000000000000000000000000000000000000000000000000000000000F500000000000000F5F5F5F50000F5F5F5000000000000000000000000000000000000000000000000000000000000000000000000000000000000000000000000000000000000000000000000000000000000000000000000000000000000
310
00000000000000000000000000000000000000000000000000000000000000000000000000000000000000000000000000000000000000000000000000000000000000000000000000000000000000000000000000000000000000000000000000000000000000000000000000000000000000000000000000F50000000000
310
00000000000000000000000000000000000000000000000000000000000000000000F50000000000000000F5F5000000F5F5F500000000000000000000000000000000000000000000000000000000000000000000000000000000000000000000000000000000000000000000000000000000000000000000000000000000
310
00000000000000000000000000000000000000000000000000000000000000000000000000000000000000000000000000000000000000000000000000000000000000000000000000000000000000000000000000000000000000000000000000000000000000000000000000000000000000000000000000000000F5F5F5
310
F5F5F5F5F5F5F5000000000000000000000000000000000000000000000000000000000000F5F5F5F5F5F5F5F5F5F5F5F5F5F5F5F5F5F5F5F5F5F50000000000000000000000000000000000000000000000000000000000000000000000000000000000000000000000000000000000000000000000000000000000000000
310
00000000000000000000000000000000000000000000000000000000000000000000000000000000000000000000000000000000000000000000000000000000000000000000000000000000000000000000000000000000000000000000000000000000000000000000000000000000000000000000000000000000000000
310
F500F5F5F5F5F5000000000000000000000000000000000000000000000000000000000000000000F5F500F5F5F50000000000F500F5F50000F5F50000000000000000000000000000000000000000000000000000000000000000000000000000000000000000000000000000000000000000000000000000000000000000
310
00000000000000000000000000000000000000000000000000000000000000000000000000000000000000000000000000000000000000000000000000000000000000000000000000000000000000000000000000000000000000000000000000000000000000000000000000000000000000000000000000000000000000
310
0000F500F5F500F50000000000000000000000000000000000000000000000000000000000000000000000F500F500F500000000F5F5F50000F500F5F5000000000000000000000000000000000000000000000000000000000000000000000000000000000000000000000000000000000000000000000000000000000000
310
00000000000000000000000000000000000000000000000000000000000000000000000000000000000000000000000000000000000000000000000000000000000000000000000000000000000000000000000000000000000000000000000000000000000000000000000000000000000000000000000000000000000000
310
00000000F5F5F5F5F5F5F500000000000000000000000000000000000000000000000000000000000000000000F500F500F500F5F5F5F500F500F5F500F5F5F5000000000000000000000000000000000000000000000000000000000000000000000000000000000000000000000000000000000000000000000000000000
310
00000000000000000000000000000000000000000000000000000000000000000000000000000000000000000000000000000000000000000000000000000000000000000000000000000000000000000000000000000000000000000000000000000000000000000000000000000000000000000000000000000000000000
310
00000000000000000000000000000000000000000000000000000000000000000000000000000000000000000000F5F500F5F5F500000000F500F5F500000000F5F500000000000000000000000000000000000000000000000000000000000000000000000000000000000000000000000000000000000000000000000000
310
00000000000000000000000000000000000000000000000000000000000000000000000000000000000000000000000000000000000000000000000000000000000000000000000000000000000000000000000000000000000000000000000000000000000000000000000000000000000000000000000000000000000000
310
00000000000000000000000000000000000000000000000000000000000000000000000000000000000000000000000000000000000000000000000000000000000000000000000000000000000000000000000000000000000000000000000000000000000000000000000000000000000000000000000000000000000000
310
00000000000000000000000000000000000000000000000000000000000000000000000000000000000000000000000000000000000000000000000000000000000000000000000000000000000000000000000000000000000000000000000000000000000000000000000000000000000000000000000000000000000000
310
00000000000000000000000000000000000000000000000000000000000000000000000000000000000000000000000000000000000000000000000000000000000000000000000000000000000000000000000000000000000000000000000000000000000000000000000000000000000000000000000000000000000000
310
00000000000000000000000000000000000000000000000000000000000000000000000000000000000000000000000000000000000000000000000000000000000000000000000000000000000000000000000000000000000000000000000000000000000000000000000000000000000000000000000000000000000000
310
00000000000000000000000000000000000000000000000000000000000000000000000000000000000000000000000000000000000000000000000000000000000000000000000000000000000000000000000000000000000000000000000000000000000000000000000000000000000000000000000000000000000000
310
00000000000000000000000000000000000000000000000000000000000000000000000000000000000000000000000000000000000000000000000000000000000000000000000000000000000000000000000000000000000000000000000000000000000000000000000000000000000000000000000000000000000000
310
00000000000000000000000000000000000000000000000000000000000000000000000000000000000000000000000000000000000000000000000000000000000000000000000000000000000000000000000000000000000000000000000000000000000000000000000000000000000000000000000000000000000000
310
00000000000000000000000000000000000000000000000000000000000000000000000000000000000000000000000000000000000000000000000000000000000000000000000000000000000000000000000000000000000000000000000000000000000000000000000000000000000000000000000000000000000000
310
00000000000000000000000000000000000000000000000000000000000000000000000000000000000000000000000000000000000000000000000000000000000000000000000000000000000000000000000000000000000000000000000000000000000000000000000000000000000000000000000000000000000000
310
00000000000000000000000000000000000000000000000000000000000000000000000000000000000000000000000000000000000000000000000000000000000000000000000000000000000000000000000000000000000000000000000000000000000000000000000000000000000000000000000000000000000000
310
00000000000000000000000000000000000000000000000000000000000000000000000000000000000000000000000000000000000000000000000000000000000000000000000000282800002800280028002828280000000000000000000000000000000000000000000000282800280000000000000000002828282828
310
00000000000000000000000000000000000000000000000000000000000000000000000000000000000000000000000000000000000000000000000000000000000000000000000000000000000000000000000000000000000000000000000000000000000000000000000000000000000000000000000000000000000000
310
00000000000000000000000000000000000000000000000000000000000000000000000000000000000000000000000000000000000000000000000000000000000000000000282828280028282828280028002828280028002800000028280000002828000000000000002828000028280028002828280000282800282828
310
28280000000000000000000000000000000000000000000000000000000000000000000000000000000000000000000000000000000000000000000000000000000000000000000000000000000000000000000000000000000000000000000000000000000000000000000000000000000000000000000000000000000000
310
00000000000000000000000000000000000000000000000000000000000000000000000000000000000000000000000000000000000000000000000000000000000000000000000028282828002828002828282800282828282800002800000028000000282800000000000000002800002828282800282800002828280028
310
28280028000000000000000000000000000000000000000000000000000000000000000000000000000000000000000000000000000000000000000000000000000000000000000000000000000000000000000000000000000000000000000000000000000000000000000000000000000000000000000000000000000000
310
00000000000000000000000000000000000000000000000000000000000000000000000000000000000000000000000000000000000000000000000000000000000000000000000000002828282828282828002828282828282828000000280000002828000028280000282828002828282800282828280028282800280028
310
00282800282800000000000000000000000000000000000000000000000000000000000000000000000000000000000000000000000000000000000000000000000000000000000000000000000000000000000000000000000000000000000000000000000000000000000000000000000000000000000000000000000000
310
00000000000000000000000000000000000000000000000000000000000000000000000000000000000000000000000000000000000000000000000000000000000000000000000000000000282828280028282828282828282828282828000000280028282800002828000000000000000028000028282828002828280028
310
00280028282828280000000000000000000000000000000000000000000000000000000000000000000000000000000000000000000000000000000000000000000000000000000000000000000000000000000000000000000000000000000000000000000000000000000000000000000000000000000000000000000000
310
00000000000000000000000000000000000000000000000000000000000000000000000000000000000000000000000000000000000000000000000000000000000000000000000000000000000000000000002828000000280000002800280000000000000000000000000000000000000000000000002800280000002800
310
00002800002828282828000000000000000000000000000000000000000000000000000000000000000000000000000000000000000000000000000000000000000000000000000000000000000000000000000000000000000000000000000000000000000000000000000000000000000000000000000000000000000000
310
00000000000000000000000000000000000000000000000000000000000000000000000000000000000000000000000000000000000000000000000000000000000000000000000000000000000000000000000000000000000000000000000000000000000000000000000000000000000000000000000000000000000000
310
00000000000000000000000000000000000000000000000000000000000000000000000000000000000000000000000000000000000000000000000000000000000000000000000000000000000000000000000000000000000000000000000000000000000000000000000000000000000000000000000000000000000000
310
00000000000000000000000000000000000000000000000000000000000000000000000000000000000000000000000000000000000000000000000000000000000000000000000000000000000000000000000000000000000000000000000000000000000000000000000000000000000000000028280000000000000000
310
00000000000000000000000000000000000000000000000000000000000000000000000000000000000000000000000000000000000000000000000000000000000000000000000000000000000000000000000000000000000000000000000000000000000000000000000000000000000000000000000000000000000000
310
00000000000000000000000000000000000000000000000000000000000028280028002800002828000000000000000000000000000000002800280000282800000028280000002800002828282800000028002800000000000000280000002800282828280028002800280028002800000000000028002828002828002828
310
28002828002800280028280028002800000000000000000000000000000000000000000000000000000000000000000000000000000000000000000000000000000000000000000000000000000000000000000000000000000000000000000000000000000000000000000000000000000000000000000000000000000000
310
00000000000000000000000000000000000000000000000000000000000000002828000028280000002800000000000000000028000000000000002828002800002800280028000000280028002800280000002800280028282828000028002828282828002828002800280028002800280000280000002800000028002800
310
00280028000028280028002828002800280000000000000000000000000000000000000000000000000000000000000000000000000000000000000000000000000000000000000000000000000000000000000000000000000000000000000000000000000000000000000000000000000000000000000000000000000000
310
00000000000000000000000000000000000000000000000000000000000000000000282800002800000028280000282828280028280000282828280000280000002828280000282800000028002800002828000000280028002828282800002800002828002800282800280028002800280028282828280000280000002800
310
00280028002800002828002800282800280028000000000000000000000000000000000000000000000000000000000000000000000000000000000000000000000000000000000000000000000000000000000000000000000000000000000000000000000000000000000000000000000000000000000000000000000000
310
00000000000000000000000000000000000000000000000000000000000000000000000028280000002800002828000000000000002828280000000000000028000028000028002800280000002800280000282800000028282800000000000000280000282800282828282828282800282828282800280000000028000000
310
28000028280028280000282828282828282828282800000000000000000000000000000000000000000000000000000000000000000000000000000000000000000000000000000000000000000000000000000000000000000000000000000000000000000000000000000000000000000000000000000000000000000000
310
00000000000000000000000000000000000000000000000000000000000000000000000000002828002828280000282800000000000000000028000000000000282828002828282800282828000028280028282828280000002800000000000000002828000000280028282800000000000000000000000000000000282800
310
00002828280028282828282828000000000000000000000000000000000000000000000000000000000000000000000000000000000000000000000000000000000000000000000000000000000000000000000000000000000000000000000000000000000000000000000000000000000000000000000000000000000000
310
00000000000000000000000000000000000000000000000000000000000000000000000000000000000000000000000000000000000000000000000000000000000000000000000000000000000000000000000000000000000000000000000000000000000000000000000000000000000000000000000000000000000000
310
00000000000000000000000000000000000000000000000000000000000000000000000000000000000000000000000000000000000000000000000000000000000000000000000000000000000000000000000000000000000000000000000000000000000000000000000000000000000000000000000000000000000000
310
00000000000000000000000000000000000000000000000000000000000000000000000000000000000000000000000000000000000000000000000000000000000000000000000000000000000000000000000000000000000000000000000000000000000000000000000000000000000000000000000000000000000000
310
00000000000000000000000000000000000000000000000000000000000000000000000000000000000000000000000000000000000000000000000000000000000000000000000000000000000000000000000000000000000000000000000000000000000000000000000000000000000000000000000000000000000000
310
00000000000000000000000000000000000000000000000000000000000000000000000000000000000000000000000000000000000000000000000000000000000000000000000000000000000000000000000000000000000000000000000000000000000000000000000000000000000000000000000000000000000000
310
00000000000000000000000000000000000000000000000000000000000000000000000000000000000000000000000000000000000000000000000000000000000000000000000000000000000000000000000000000000000000000000000000000000000000000000000000000000000000000000000000000000000000
310
00000000000000000000000000000000000000000000000000000000000000000000000000000000000000000000000000000000000000000000000000000000000000000000000000000000000000000000000000000000000000000000000000000000000000000000000000000000000000000000000000000000000000
310
00000000000000000000000000000000000000000000000000000000000000000000000000000000000000000000000000000000000000000000000000000000000000000000000000000000000000000000000000000000000000000000000000000000000000000000000000000000000000000000000000000000000000
310
00000000000000000000000000000000000000000000000000000000000000000000000000000000002828282828282828282828282828282828282828282828282828282828282828282828282828282828282828282828282828282828282828282828282828282828282828282828282828282828282828282828282828
310
28282828282828282828282828282828282828282828282828282828282828282828282828282828000000000000000000000000000000000000000000000000000000000000000000000000000000000000000000000000000000000000000000000000000000000000000000000000000000000000000000000000000000
310
00000000000000000000000000000000000000000000000000000000000000000000000000000000000000280000000000000000000000000000000000000000000000000000000000000000000000000000000000282828280000280028000028000028282828000000002800002800282828280028282800282800280028
310
00282828002800000028000000002828000000000000000000000000000000000000000000000000002800000000000000000000000000000000000000000000000000000000000000000000000000000000000000000000000000000000000000000000000000000000000000000000000000000000000000000000000000
310
00000000000000000000000000000000000000000000000000000000000000000000000000000000000000000028000000002828002800002800000000000000000000000000000000282800280028282800282828282828282800282828280028002828282828280000002828282828280028282828002828280028282828
310
28282828002828282800002800002828280028282828000028002800002800000028282828282800000000280000000000000000000000000000000000000000000000000000000000000000000000000000000000000000000000000000000000000000000000000000000000000000000000000000000000000000000000
310
00000000000000000000000000000000000000000000000000000000000000000000000000000000000000000000002800000000002828000028002800000000000028002828000000000000282800002800280028000028002828282828282828002828280028282828000000280028282828002828282800282828002828
310
28282828282828282828280000280028002828280000002800000028280000280000002800280000280000000028000000000000000000000000000000000000000000000000000000000000000000000000000000000000000000000000000000000000000000000000000000000000000000000000000000000000000000
310
00000000000000000000000000000000000000000000000000000000000000000000000000000000000000000000000000280000000000002800002800280028282828002828000000282828000000280000282828002828282800282828282828282800282828280028282800000028000028282800282828282828282828
310
28282828002828282828282828000028280028282828002828280000002800002828282800002800000028000000002800000000000000000000000000000000000000000000000000000000000000000000000000000000000000000000000000000000000000000000000000000000000000000000000000000000000000
310
00000000000000000000000000000000000000000000000000000000000000000000000000000000000000000000000000000028000000000028280000280028000000000000000028280000000000282828000028002800280000282828282828282828280028282828282828280000002800282828282828282828282828
310
28002828282828282828282828282800002800000028282800280000280028282800002828000000280000002800000000280000000000000000000000000000000000000000000000000000000000000000000000000000000000000000000000000000000000000000000000000000000000000000000000000000000000
310
00000000000000000000000000000000000000000000000000000000000000000000000000000000000000000000000000000000002800000000000000000000000000000000000000000000000000000000000000002828000000282800002828282828002828000028000000282828000000002800002800000028282800
310
00280000282828280028282828000028002828282828002800280000000000000000000000000000000000000028000000000028000000000000000000000000000000000000000000000000000000000000000000000000000000000000000000000000000000000000000000000000000000000000000000000000000000
310
00000000000000000000000000000000000000000000000000000000000000000000000000000000000000000000000000000000000000280000000000000000000000000000000000000000000000000000000000000000000000000000000000000000000000000000000000000000000000000000000000000000000000
310
00000000000000000000000000000000000000000000000000000000000000000000000000000000000000000000000000000000002800000000000000000000000000000000000000000000000000000000000000000000000000000000000000000000000000000000000000000000000000000000000000000000000000
310
00000000000000000000000000000000000000000000000000000000000000000000000000000000000000000000000000000000000000000028282828282828282828282828282828282828282828282828282828282828282828282828282828282828282828282828282828282828282828282828282828282828282828
310
282828282828282828282828282828282828282828282828282828282828282828282828282828282828282828282828282828282828282800000000000000000000000000000000000000000000000000000000000000000000000000000000000000000000000000000000000000000000000000000000000000
  0
XRECORD
  5
D13A
102
{ACAD_REACTORS
330
7668
102
}
330
7668
100
AcDbXrecord
280
     1
102
MATERIAL
148
0.0
149
0.0
149
0.0
 93
        0
 94
      127
282
     0
 72
     0
 77
     0
171
     0
175
     0
179
     0
273
     0
  0
XRECORD
  5
766A
102
{ACAD_REACTORS
330
7668
102
}
330
7668
100
AcDbXrecord
280
     1
270
     1
271
     1
  0
XRECORD
  5
7669
102
{ACAD_REACTORS
330
7668
102
}
330
7668
100
AcDbXrecord
280
     1
270
     1
271
     1
  0
XRECORD
  5
766D
102
{ACAD_REACTORS
330
7668
102
}
330
7668
100
AcDbXrecord
280
     1
270
     1
271
     1
  0
XRECORD
  5
766C
102
{ACAD_REACTORS
330
7668
102
}
330
7668
100
AcDbXrecord
280
     1
270
     1
271
     1
  0
XRECORD
  5
766E
102
{ACAD_REACTORS
330
7668
102
}
330
7668
100
AcDbXrecord
280
     1
270
     1
271
     1
  0
XRECORD
  5
766B
102
{ACAD_REACTORS
330
7668
102
}
330
7668
100
AcDbXrecord
280
     1
270
     1
271
     1
  0
XRECORD
  5
D139
102
{ACAD_REACTORS
330
7660
102
}
330
7660
100
AcDbXrecord
280
     1
102
MATERIAL
148
0.0
149
0.0
149
0.0
 93
        0
 94
      127
282
     0
 72
     0
 77
     0
171
     0
175
     0
179
     0
273
     0
  0
XRECORD
  5
7662
102
{ACAD_REACTORS
330
7660
102
}
330
7660
100
AcDbXrecord
280
     1
270
     1
271
     1
  0
XRECORD
  5
7661
102
{ACAD_REACTORS
330
7660
102
}
330
7660
100
AcDbXrecord
280
     1
270
     1
271
     1
  0
XRECORD
  5
7665
102
{ACAD_REACTORS
330
7660
102
}
330
7660
100
AcDbXrecord
280
     1
270
     1
271
     1
  0
XRECORD
  5
7664
102
{ACAD_REACTORS
330
7660
102
}
330
7660
100
AcDbXrecord
280
     1
270
     1
271
     1
  0
XRECORD
  5
7666
102
{ACAD_REACTORS
330
7660
102
}
330
7660
100
AcDbXrecord
280
     1
270
     1
271
     1
  0
XRECORD
  5
7663
102
{ACAD_REACTORS
330
7660
102
}
330
7660
100
AcDbXrecord
280
     1
270
     1
271
     1
  0
XRECORD
  5
D13B
102
{ACAD_REACTORS
330
7670
102
}
330
7670
100
AcDbXrecord
280
     1
102
MATERIAL
148
0.0
149
0.0
149
0.0
 93
        0
 94
      127
282
     0
 72
     0
 77
     0
171
     0
175
     0
179
     0
273
     0
  0
XRECORD
  5
7672
102
{ACAD_REACTORS
330
7670
102
}
330
7670
100
AcDbXrecord
280
     1
270
     1
271
     1
  0
XRECORD
  5
7671
102
{ACAD_REACTORS
330
7670
102
}
330
7670
100
AcDbXrecord
280
     1
270
     1
271
     1
  0
XRECORD
  5
7675
102
{ACAD_REACTORS
330
7670
102
}
330
7670
100
AcDbXrecord
280
     1
270
     1
271
     1
  0
XRECORD
  5
7674
102
{ACAD_REACTORS
330
7670
102
}
330
7670
100
AcDbXrecord
280
     1
270
     1
271
     1
  0
XRECORD
  5
7676
102
{ACAD_REACTORS
330
7670
102
}
330
7670
100
AcDbXrecord
280
     1
270
     1
271
     1
  0
XRECORD
  5
7673
102
{ACAD_REACTORS
330
7670
102
}
330
7670
100
AcDbXrecord
280
     1
270
     1
271
     1
  0
XRECORD
  5
D134
102
{ACAD_REACTORS
330
D133
102
}
330
D133
100
AcDbXrecord
280
     1
102
ACAD_ROUNDTRIP_2012_MLEADER_STYLE
298
     1
  0
CELLSTYLEMAP
  5
D132
102
{ACAD_REACTORS
330
C003
102
}
330
C003
100
AcDbCellStyleMap
 90
        3
300
CELLSTYLE
  1
TABLEFORMAT_BEGIN
 90
        5
170
     1
 91
        0
 92
    32768
 62
   257
 93
        1
300
CONTENTFORMAT
  1
CONTENTFORMAT_BEGIN
 90
        0
 91
        0
 92
        4
 93
        0
300

 40
0.0
140
1.0
 94
        5
 62
     0
340
11
144
0.25
309
CONTENTFORMAT_END
171
     0
 94
        6
 95
        1
302
GRIDFORMAT
  1
GRIDFORMAT_BEGIN
 90
        0
 91
        1
 62
     0
 92
       -2
340
0
 93
        0
 40
0.045
309
GRIDFORMAT_END
 95
        2
302
GRIDFORMAT
  1
GRIDFORMAT_BEGIN
 90
        0
 91
        1
 62
     0
 92
       -2
340
0
 93
        0
 40
0.045
309
GRIDFORMAT_END
 95
        4
302
GRIDFORMAT
  1
GRIDFORMAT_BEGIN
 90
        0
 91
        1
 62
     0
 92
       -2
340
0
 93
        0
 40
0.045
309
GRIDFORMAT_END
 95
        8
302
GRIDFORMAT
  1
GRIDFORMAT_BEGIN
 90
        0
 91
        1
 62
     0
 92
       -2
340
0
 93
        0
 40
0.045
309
GRIDFORMAT_END
 95
       16
302
GRIDFORMAT
  1
GRIDFORMAT_BEGIN
 90
        0
 91
        1
 62
     0
 92
       -2
340
0
 93
        0
 40
0.045
309
GRIDFORMAT_END
 95
       32
302
GRIDFORMAT
  1
GRIDFORMAT_BEGIN
 90
        0
 91
        1
 62
     0
 92
       -2
340
0
 93
        0
 40
0.045
309
GRIDFORMAT_END
309
TABLEFORMAT_END
  1
CELLSTYLE_BEGIN
 90
        1
 91
        1
300
_TITLE
309
CELLSTYLE_END
300
CELLSTYLE
  1
TABLEFORMAT_BEGIN
 90
        5
170
     1
 91
        0
 92
        0
 62
   257
 93
        1
300
CONTENTFORMAT
  1
CONTENTFORMAT_BEGIN
 90
        0
 91
        0
 92
        4
 93
        0
300

 40
0.0
140
1.0
 94
        5
 62
     0
340
11
144
0.18
309
CONTENTFORMAT_END
171
     0
 94
        6
 95
        1
302
GRIDFORMAT
  1
GRIDFORMAT_BEGIN
 90
        0
 91
        1
 62
     0
 92
       -2
340
0
 93
        0
 40
0.045
309
GRIDFORMAT_END
 95
        2
302
GRIDFORMAT
  1
GRIDFORMAT_BEGIN
 90
        0
 91
        1
 62
     0
 92
       -2
340
0
 93
        0
 40
0.045
309
GRIDFORMAT_END
 95
        4
302
GRIDFORMAT
  1
GRIDFORMAT_BEGIN
 90
        0
 91
        1
 62
     0
 92
       -2
340
0
 93
        0
 40
0.045
309
GRIDFORMAT_END
 95
        8
302
GRIDFORMAT
  1
GRIDFORMAT_BEGIN
 90
        0
 91
        1
 62
     0
 92
       -2
340
0
 93
        0
 40
0.045
309
GRIDFORMAT_END
 95
       16
302
GRIDFORMAT
  1
GRIDFORMAT_BEGIN
 90
        0
 91
        1
 62
     0
 92
       -2
340
0
 93
        0
 40
0.045
309
GRIDFORMAT_END
 95
       32
302
GRIDFORMAT
  1
GRIDFORMAT_BEGIN
 90
        0
 91
        1
 62
     0
 92
       -2
340
0
 93
        0
 40
0.045
309
GRIDFORMAT_END
309
TABLEFORMAT_END
  1
CELLSTYLE_BEGIN
 90
        2
 91
        1
300
_HEADER
309
CELLSTYLE_END
300
CELLSTYLE
  1
TABLEFORMAT_BEGIN
 90
        5
170
     1
 91
        0
 92
        0
 62
   257
 93
        1
300
CONTENTFORMAT
  1
CONTENTFORMAT_BEGIN
 90
        0
 91
        0
 92
        4
 93
        0
300

 40
0.0
140
1.0
 94
        2
 62
     0
340
11
144
0.18
309
CONTENTFORMAT_END
171
     0
 94
        6
 95
        1
302
GRIDFORMAT
  1
GRIDFORMAT_BEGIN
 90
        0
 91
        1
 62
     0
 92
       -2
340
0
 93
        0
 40
0.045
309
GRIDFORMAT_END
 95
        2
302
GRIDFORMAT
  1
GRIDFORMAT_BEGIN
 90
        0
 91
        1
 62
     0
 92
       -2
340
0
 93
        0
 40
0.045
309
GRIDFORMAT_END
 95
        4
302
GRIDFORMAT
  1
GRIDFORMAT_BEGIN
 90
        0
 91
        1
 62
     0
 92
       -2
340
0
 93
        0
 40
0.045
309
GRIDFORMAT_END
 95
        8
302
GRIDFORMAT
  1
GRIDFORMAT_BEGIN
 90
        0
 91
        1
 62
     0
 92
       -2
340
0
 93
        0
 40
0.045
309
GRIDFORMAT_END
 95
       16
302
GRIDFORMAT
  1
GRIDFORMAT_BEGIN
 90
        0
 91
        1
 62
     0
 92
       -2
340
0
 93
        0
 40
0.045
309
GRIDFORMAT_END
 95
       32
302
GRIDFORMAT
  1
GRIDFORMAT_BEGIN
 90
        0
 91
        1
 62
     0
 92
       -2
340
0
 93
        0
 40
0.045
309
GRIDFORMAT_END
309
TABLEFORMAT_END
  1
CELLSTYLE_BEGIN
 90
        3
 91
        2
300
_DATA
309
CELLSTYLE_END
  0
XRECORD
  5
D138
102
{ACAD_REACTORS
330
C003
102
}
330
C003
100
AcDbXrecord
280
     1
102
ACAD_ROUNDTRIP_PRE2007_TABLESTYLE
 90
        4
 91
        0
  1

 92
        4
 93
        0
  2

 94
        4
 95
        0
  3

  0
XRECORD
  5
D147
102
{ACAD_REACTORS
330
D146
102
}
330
D146
100
AcDbXrecord
280
     1
102
RTVSPropertyOp0
 70
     1
102
RTVSPropertyOp1
 70
     1
102
RTVSPropertyOp2
 70
     1
102
RTVSPropertyOp3
 70
     1
102
RTVSPropertyOp4
 70
     1
102
RTVSPropertyOp5
 70
     1
102
RTVSPropertyOp6
 70
     1
102
RTVSPropertyOp7
 70
     1
102
RTVSPropertyOp8
 70
     1
102
RTVSPropertyOp9
 70
     1
102
RTVSPropertyOp10
 70
     1
102
RTVSPropertyOp11
 70
     1
102
RTVSPropertyOp12
 70
     1
102
RTVSPropertyOp13
 70
     1
102
RTVSPropertyOp14
 70
     1
102
RTVSPropertyOp15
 70
     1
102
RTVSPropertyOp16
 70
     1
102
RTVSPropertyOp17
 70
     1
102
RTVSPropertyOp18
 70
     1
102
RTVSPropertyOp19
 70
     1
102
RTVSPropertyOp20
 70
     1
102
RTVSPropertyOp21
 70
     1
102
RTVSPropertyOp22
 70
     1
102
RTVSPropertyOp23
 70
     1
102
RTVSPropertyOp24
 70
     1
102
RTVSPropertyOp25
 70
     1
102
RTVSPropertyOp26
 70
     1
102
RTVSPropertyOp27
 70
     1
102
RTVSPropertyOp28
 70
     1
102
RTVSPropertyOp29
 70
     1
102
RTVSPropertyOp30
 70
     1
102
RTVSPropertyOp31
 70
     1
102
RTVSPropertyOp32
 70
     1
  0
XRECORD
  5
D145
102
{ACAD_REACTORS
330
D144
102
}
330
D144
100
AcDbXrecord
280
     1
102
RTVSPropertyOp0
 70
     1
102
RTVSPropertyOp1
 70
     1
102
RTVSPropertyOp2
 70
     1
102
RTVSPropertyOp3
 70
     1
102
RTVSPropertyOp4
 70
     1
102
RTVSPropertyOp5
 70
     1
102
RTVSPropertyOp6
 70
     1
102
RTVSPropertyOp7
 70
     1
102
RTVSPropertyOp8
 70
     1
102
RTVSPropertyOp9
 70
     1
102
RTVSPropertyOp10
 70
     1
102
RTVSPropertyOp11
 70
     1
102
RTVSPropertyOp12
 70
     1
102
RTVSPropertyOp13
 70
     1
102
RTVSPropertyOp14
 70
     1
102
RTVSPropertyOp15
 70
     1
102
RTVSPropertyOp16
 70
     1
102
RTVSPropertyOp17
 70
     1
102
RTVSPropertyOp18
 70
     1
102
RTVSPropertyOp19
 70
     1
102
RTVSPropertyOp20
 70
     1
102
RTVSPropertyOp21
 70
     1
102
RTVSPropertyOp22
 70
     1
102
RTVSPropertyOp23
 70
     1
102
RTVSPropertyOp24
 70
     1
102
RTVSPropertyOp25
 70
     1
102
RTVSPropertyOp26
 70
     1
102
RTVSPropertyOp27
 70
     1
102
RTVSPropertyOp28
 70
     1
102
RTVSPropertyOp29
 70
     1
102
RTVSPropertyOp30
 70
     1
102
RTVSPropertyOp31
 70
     1
102
RTVSPropertyOp32
 70
     1
  0
XRECORD
  5
D153
102
{ACAD_REACTORS
330
D152
102
}
330
D152
100
AcDbXrecord
280
     1
102
RTVSPropertyOp0
 70
     1
102
RTVSPropertyOp1
 70
     1
102
RTVSPropertyOp2
 70
     1
102
RTVSPropertyOp3
 70
     1
102
RTVSPropertyOp4
 70
     1
102
RTVSPropertyOp5
 70
     1
102
RTVSPropertyOp6
 70
     1
102
RTVSPropertyOp7
 70
     1
102
RTVSPropertyOp8
 70
     1
102
RTVSPropertyOp9
 70
     1
102
RTVSPropertyOp10
 70
     1
102
RTVSPropertyOp11
 70
     1
102
RTVSPropertyOp12
 70
     1
102
RTVSPropertyOp13
 70
     1
102
RTVSPropertyOp14
 70
     1
102
RTVSPropertyOp15
 70
     1
102
RTVSPropertyOp16
 70
     1
102
RTVSPropertyOp17
 70
     1
102
RTVSPropertyOp18
 70
     1
102
RTVSPropertyOp19
 70
     1
102
RTVSPropertyOp20
 70
     1
102
RTVSPropertyOp21
 70
     1
102
RTVSPropertyOp22
 70
     1
102
RTVSPropertyOp23
 70
     1
102
RTVSPropertyOp24
 70
     1
102
RTVSPropertyOp25
 70
     1
102
RTVSPropertyOp26
 70
     1
102
RTVSPropertyOp27
 70
     1
102
RTVSPropertyOp28
 70
     1
102
RTVSPropertyOp29
 70
     1
102
RTVSPropertyOp30
 70
     1
102
RTVSPropertyOp31
 70
     1
102
RTVSPropertyOp32
 70
     1
  0
XRECORD
  5
D15B
102
{ACAD_REACTORS
330
D15A
102
}
330
D15A
100
AcDbXrecord
280
     1
102
RTVSPropertyOp0
 70
     1
102
RTVSPropertyOp1
 70
     1
102
RTVSPropertyOp2
 70
     1
102
RTVSPropertyOp3
 70
     1
102
RTVSPropertyOp4
 70
     1
102
RTVSPropertyOp5
 70
     1
102
RTVSPropertyOp6
 70
     1
102
RTVSPropertyOp7
 70
     1
102
RTVSPropertyOp8
 70
     1
102
RTVSPropertyOp9
 70
     1
102
RTVSPropertyOp10
 70
     1
102
RTVSPropertyOp11
 70
     1
102
RTVSPropertyOp12
 70
     1
102
RTVSPropertyOp13
 70
     1
102
RTVSPropertyOp14
 70
     1
102
RTVSPropertyOp15
 70
     1
102
RTVSPropertyOp16
 70
     1
102
RTVSPropertyOp17
 70
     1
102
RTVSPropertyOp18
 70
     1
102
RTVSPropertyOp19
 70
     1
102
RTVSPropertyOp20
 70
     1
102
RTVSPropertyOp21
 70
     1
102
RTVSPropertyOp22
 70
     1
102
RTVSPropertyOp23
 70
     1
102
RTVSPropertyOp24
 70
     1
102
RTVSPropertyOp25
 70
     1
102
RTVSPropertyOp26
 70
     1
102
RTVSPropertyOp27
 70
     1
102
RTVSPropertyOp28
 70
     1
102
RTVSPropertyOp29
 70
     1
102
RTVSPropertyOp30
 70
     1
102
RTVSPropertyOp31
 70
     1
102
RTVSPropertyOp32
 70
     1
  0
XRECORD
  5
D14D
102
{ACAD_REACTORS
330
D14C
102
}
330
D14C
100
AcDbXrecord
280
     1
102
RTVSPropertyOp0
 70
     1
102
RTVSPropertyOp1
 70
     1
102
RTVSPropertyOp2
 70
     1
102
RTVSPropertyOp3
 70
     1
102
RTVSPropertyOp4
 70
     1
102
RTVSPropertyOp5
 70
     1
102
RTVSPropertyOp6
 70
     1
102
RTVSPropertyOp7
 70
     1
102
RTVSPropertyOp8
 70
     1
102
RTVSPropertyOp9
 70
     1
102
RTVSPropertyOp10
 70
     1
102
RTVSPropertyOp11
 70
     1
102
RTVSPropertyOp12
 70
     1
102
RTVSPropertyOp13
 70
     1
102
RTVSPropertyOp14
 70
     1
102
RTVSPropertyOp15
 70
     1
102
RTVSPropertyOp16
 70
     1
102
RTVSPropertyOp17
 70
     1
102
RTVSPropertyOp18
 70
     1
102
RTVSPropertyOp19
 70
     1
102
RTVSPropertyOp20
 70
     1
102
RTVSPropertyOp21
 70
     1
102
RTVSPropertyOp22
 70
     1
102
RTVSPropertyOp23
 70
     1
102
RTVSPropertyOp24
 70
     1
102
RTVSPropertyOp25
 70
     1
102
RTVSPropertyOp26
 70
     1
102
RTVSPropertyOp27
 70
     1
102
RTVSPropertyOp28
 70
     1
102
RTVSPropertyOp29
 70
     1
102
RTVSPropertyOp30
 70
     1
102
RTVSPropertyOp31
 70
     1
102
RTVSPropertyOp32
 70
     1
  0
XRECORD
  5
D151
102
{ACAD_REACTORS
330
D150
102
}
330
D150
100
AcDbXrecord
280
     1
102
RTVSPropertyOp0
 70
     1
102
RTVSPropertyOp1
 70
     1
102
RTVSPropertyOp2
 70
     1
102
RTVSPropertyOp3
 70
     1
102
RTVSPropertyOp4
 70
     1
102
RTVSPropertyOp5
 70
     1
102
RTVSPropertyOp6
 70
     1
102
RTVSPropertyOp7
 70
     1
102
RTVSPropertyOp8
 70
     1
102
RTVSPropertyOp9
 70
     1
102
RTVSPropertyOp10
 70
     1
102
RTVSPropertyOp11
 70
     1
102
RTVSPropertyOp12
 70
     1
102
RTVSPropertyOp13
 70
     1
102
RTVSPropertyOp14
 70
     1
102
RTVSPropertyOp15
 70
     1
102
RTVSPropertyOp16
 70
     1
102
RTVSPropertyOp17
 70
     1
102
RTVSPropertyOp18
 70
     1
102
RTVSPropertyOp19
 70
     1
102
RTVSPropertyOp20
 70
     1
102
RTVSPropertyOp21
 70
     1
102
RTVSPropertyOp22
 70
     1
102
RTVSPropertyOp23
 70
     1
102
RTVSPropertyOp24
 70
     1
102
RTVSPropertyOp25
 70
     1
102
RTVSPropertyOp26
 70
     1
102
RTVSPropertyOp27
 70
     1
102
RTVSPropertyOp28
 70
     1
102
RTVSPropertyOp29
 70
     1
102
RTVSPropertyOp30
 70
     1
102
RTVSPropertyOp31
 70
     1
102
RTVSPropertyOp32
 70
     1
  0
XRECORD
  5
D16B
102
{ACAD_REACTORS
330
D16A
102
}
330
D16A
100
AcDbXrecord
280
     1
102
RTVSPropertyOp0
 70
     0
102
RTVSPropertyOp1
 70
     0
102
RTVSPropertyOp2
 70
     0
102
RTVSPropertyOp3
 70
     0
102
RTVSPropertyOp4
 70
     0
102
RTVSPropertyOp5
 70
     0
102
RTVSPropertyOp6
 70
     0
102
RTVSPropertyOp7
 70
     0
102
RTVSPropertyOp8
 70
     0
102
RTVSPropertyOp9
 70
     0
102
RTVSPropertyOp10
 70
     0
102
RTVSPropertyOp11
 70
     0
102
RTVSPropertyOp12
 70
     0
102
RTVSPropertyOp13
 70
     0
102
RTVSPropertyOp14
 70
     2
102
RTVSPropertyOp15
 70
     0
102
RTVSPropertyOp16
 70
     0
102
RTVSPropertyOp17
 70
     0
102
RTVSPropertyOp18
 70
     0
102
RTVSPropertyOp19
 70
     0
102
RTVSPropertyOp20
 70
     0
102
RTVSPropertyOp21
 70
     0
102
RTVSPropertyOp22
 70
     0
102
RTVSPropertyOp23
 70
     0
102
RTVSPropertyOp24
 70
     0
102
RTVSPropertyOp25
 70
     0
102
RTVSPropertyOp26
 70
     0
102
RTVSPropertyOp27
 70
     0
102
RTVSPropertyOp28
 70
     1
102
RTVSPropertyOp29
 70
     1
102
RTVSPropertyOp30
 70
     1
102
RTVSPropertyOp31
 70
     1
102
RTVSPropertyOp32
 70
     1
  0
XRECORD
  5
D159
102
{ACAD_REACTORS
330
D158
102
}
330
D158
100
AcDbXrecord
280
     1
102
RTVSPropertyOp0
 70
     1
102
RTVSPropertyOp1
 70
     1
102
RTVSPropertyOp2
 70
     1
102
RTVSPropertyOp3
 70
     1
102
RTVSPropertyOp4
 70
     1
102
RTVSPropertyOp5
 70
     1
102
RTVSPropertyOp6
 70
     1
102
RTVSPropertyOp7
 70
     1
102
RTVSPropertyOp8
 70
     1
102
RTVSPropertyOp9
 70
     1
102
RTVSPropertyOp10
 70
     1
102
RTVSPropertyOp11
 70
     1
102
RTVSPropertyOp12
 70
     1
102
RTVSPropertyOp13
 70
     1
102
RTVSPropertyOp14
 70
     1
102
RTVSPropertyOp15
 70
     1
102
RTVSPropertyOp16
 70
     1
102
RTVSPropertyOp17
 70
     1
102
RTVSPropertyOp18
 70
     1
102
RTVSPropertyOp19
 70
     1
102
RTVSPropertyOp20
 70
     1
102
RTVSPropertyOp21
 70
     1
102
RTVSPropertyOp22
 70
     1
102
RTVSPropertyOp23
 70
     1
102
RTVSPropertyOp24
 70
     1
102
RTVSPropertyOp25
 70
     1
102
RTVSPropertyOp26
 70
     1
102
RTVSPropertyOp27
 70
     1
102
RTVSPropertyOp28
 70
     1
102
RTVSPropertyOp29
 70
     1
102
RTVSPropertyOp30
 70
     1
102
RTVSPropertyOp31
 70
     1
102
RTVSPropertyOp32
 70
     1
  0
XRECORD
  5
D13D
102
{ACAD_REACTORS
330
D13C
102
}
330
D13C
100
AcDbXrecord
280
     1
102
RTVSPropertyOp0
 70
     1
102
RTVSPropertyOp1
 70
     1
102
RTVSPropertyOp2
 70
     1
102
RTVSPropertyOp3
 70
     1
102
RTVSPropertyOp4
 70
     1
102
RTVSPropertyOp5
 70
     1
102
RTVSPropertyOp6
 70
     1
102
RTVSPropertyOp7
 70
     1
102
RTVSPropertyOp8
 70
     1
102
RTVSPropertyOp9
 70
     1
102
RTVSPropertyOp10
 70
     1
102
RTVSPropertyOp11
 70
     1
102
RTVSPropertyOp12
 70
     1
102
RTVSPropertyOp13
 70
     1
102
RTVSPropertyOp14
 70
     1
102
RTVSPropertyOp15
 70
     1
102
RTVSPropertyOp16
 70
     1
102
RTVSPropertyOp17
 70
     1
102
RTVSPropertyOp18
 70
     1
102
RTVSPropertyOp19
 70
     1
102
RTVSPropertyOp20
 70
     1
102
RTVSPropertyOp21
 70
     1
102
RTVSPropertyOp22
 70
     1
102
RTVSPropertyOp23
 70
     1
102
RTVSPropertyOp24
 70
     1
102
RTVSPropertyOp25
 70
     1
102
RTVSPropertyOp26
 70
     1
102
RTVSPropertyOp27
 70
     1
102
RTVSPropertyOp28
 70
     1
102
RTVSPropertyOp29
 70
     1
102
RTVSPropertyOp30
 70
     1
102
RTVSPropertyOp31
 70
     1
102
RTVSPropertyOp32
 70
     1
  0
XRECORD
  5
D13F
102
{ACAD_REACTORS
330
D13E
102
}
330
D13E
100
AcDbXrecord
280
     1
102
RTVSPropertyOp0
 70
     1
102
RTVSPropertyOp1
 70
     1
102
RTVSPropertyOp2
 70
     1
102
RTVSPropertyOp3
 70
     1
102
RTVSPropertyOp4
 70
     1
102
RTVSPropertyOp5
 70
     1
102
RTVSPropertyOp6
 70
     1
102
RTVSPropertyOp7
 70
     1
102
RTVSPropertyOp8
 70
     1
102
RTVSPropertyOp9
 70
     1
102
RTVSPropertyOp10
 70
     1
102
RTVSPropertyOp11
 70
     1
102
RTVSPropertyOp12
 70
     1
102
RTVSPropertyOp13
 70
     1
102
RTVSPropertyOp14
 70
     1
102
RTVSPropertyOp15
 70
     1
102
RTVSPropertyOp16
 70
     1
102
RTVSPropertyOp17
 70
     1
102
RTVSPropertyOp18
 70
     1
102
RTVSPropertyOp19
 70
     1
102
RTVSPropertyOp20
 70
     1
102
RTVSPropertyOp21
 70
     1
102
RTVSPropertyOp22
 70
     1
102
RTVSPropertyOp23
 70
     1
102
RTVSPropertyOp24
 70
     1
102
RTVSPropertyOp25
 70
     1
102
RTVSPropertyOp26
 70
     1
102
RTVSPropertyOp27
 70
     1
102
RTVSPropertyOp28
 70
     1
102
RTVSPropertyOp29
 70
     1
102
RTVSPropertyOp30
 70
     1
102
RTVSPropertyOp31
 70
     1
102
RTVSPropertyOp32
 70
     1
  0
XRECORD
  5
D141
102
{ACAD_REACTORS
330
D140
102
}
330
D140
100
AcDbXrecord
280
     1
102
RTVSPropertyOp0
 70
     1
102
RTVSPropertyOp1
 70
     1
102
RTVSPropertyOp2
 70
     1
102
RTVSPropertyOp3
 70
     1
102
RTVSPropertyOp4
 70
     1
102
RTVSPropertyOp5
 70
     1
102
RTVSPropertyOp6
 70
     1
102
RTVSPropertyOp7
 70
     1
102
RTVSPropertyOp8
 70
     1
102
RTVSPropertyOp9
 70
     1
102
RTVSPropertyOp10
 70
     1
102
RTVSPropertyOp11
 70
     1
102
RTVSPropertyOp12
 70
     1
102
RTVSPropertyOp13
 70
     1
102
RTVSPropertyOp14
 70
     1
102
RTVSPropertyOp15
 70
     1
102
RTVSPropertyOp16
 70
     1
102
RTVSPropertyOp17
 70
     1
102
RTVSPropertyOp18
 70
     1
102
RTVSPropertyOp19
 70
     1
102
RTVSPropertyOp20
 70
     1
102
RTVSPropertyOp21
 70
     1
102
RTVSPropertyOp22
 70
     1
102
RTVSPropertyOp23
 70
     1
102
RTVSPropertyOp24
 70
     1
102
RTVSPropertyOp25
 70
     1
102
RTVSPropertyOp26
 70
     1
102
RTVSPropertyOp27
 70
     1
102
RTVSPropertyOp28
 70
     1
102
RTVSPropertyOp29
 70
     1
102
RTVSPropertyOp30
 70
     1
102
RTVSPropertyOp31
 70
     1
102
RTVSPropertyOp32
 70
     1
  0
XRECORD
  5
D143
102
{ACAD_REACTORS
330
D142
102
}
330
D142
100
AcDbXrecord
280
     1
102
RTVSPropertyOp0
 70
     1
102
RTVSPropertyOp1
 70
     1
102
RTVSPropertyOp2
 70
     1
102
RTVSPropertyOp3
 70
     1
102
RTVSPropertyOp4
 70
     1
102
RTVSPropertyOp5
 70
     1
102
RTVSPropertyOp6
 70
     1
102
RTVSPropertyOp7
 70
     1
102
RTVSPropertyOp8
 70
     1
102
RTVSPropertyOp9
 70
     1
102
RTVSPropertyOp10
 70
     1
102
RTVSPropertyOp11
 70
     1
102
RTVSPropertyOp12
 70
     1
102
RTVSPropertyOp13
 70
     1
102
RTVSPropertyOp14
 70
     1
102
RTVSPropertyOp15
 70
     1
102
RTVSPropertyOp16
 70
     1
102
RTVSPropertyOp17
 70
     1
102
RTVSPropertyOp18
 70
     1
102
RTVSPropertyOp19
 70
     1
102
RTVSPropertyOp20
 70
     1
102
RTVSPropertyOp21
 70
     1
102
RTVSPropertyOp22
 70
     1
102
RTVSPropertyOp23
 70
     1
102
RTVSPropertyOp24
 70
     1
102
RTVSPropertyOp25
 70
     1
102
RTVSPropertyOp26
 70
     1
102
RTVSPropertyOp27
 70
     1
102
RTVSPropertyOp28
 70
     1
102
RTVSPropertyOp29
 70
     1
102
RTVSPropertyOp30
 70
     1
102
RTVSPropertyOp31
 70
     1
102
RTVSPropertyOp32
 70
     1
  0
XRECORD
  5
D14B
102
{ACAD_REACTORS
330
D14A
102
}
330
D14A
100
AcDbXrecord
280
     1
102
RTVSPropertyOp0
 70
     1
102
RTVSPropertyOp1
 70
     1
102
RTVSPropertyOp2
 70
     1
102
RTVSPropertyOp3
 70
     1
102
RTVSPropertyOp4
 70
     1
102
RTVSPropertyOp5
 70
     1
102
RTVSPropertyOp6
 70
     1
102
RTVSPropertyOp7
 70
     1
102
RTVSPropertyOp8
 70
     1
102
RTVSPropertyOp9
 70
     1
102
RTVSPropertyOp10
 70
     1
102
RTVSPropertyOp11
 70
     1
102
RTVSPropertyOp12
 70
     1
102
RTVSPropertyOp13
 70
     1
102
RTVSPropertyOp14
 70
     1
102
RTVSPropertyOp15
 70
     1
102
RTVSPropertyOp16
 70
     1
102
RTVSPropertyOp17
 70
     1
102
RTVSPropertyOp18
 70
     1
102
RTVSPropertyOp19
 70
     1
102
RTVSPropertyOp20
 70
     1
102
RTVSPropertyOp21
 70
     1
102
RTVSPropertyOp22
 70
     1
102
RTVSPropertyOp23
 70
     1
102
RTVSPropertyOp24
 70
     1
102
RTVSPropertyOp25
 70
     1
102
RTVSPropertyOp26
 70
     1
102
RTVSPropertyOp27
 70
     1
102
RTVSPropertyOp28
 70
     1
102
RTVSPropertyOp29
 70
     1
102
RTVSPropertyOp30
 70
     1
102
RTVSPropertyOp31
 70
     1
102
RTVSPropertyOp32
 70
     1
  0
XRECORD
  5
D167
102
{ACAD_REACTORS
330
D166
102
}
330
D166
100
AcDbXrecord
280
     1
102
RTVSPropertyOp0
 70
     0
102
RTVSPropertyOp1
 70
     0
102
RTVSPropertyOp2
 70
     0
102
RTVSPropertyOp3
 70
     0
102
RTVSPropertyOp4
 70
     0
102
RTVSPropertyOp5
 70
     0
102
RTVSPropertyOp6
 70
     0
102
RTVSPropertyOp7
 70
     0
102
RTVSPropertyOp8
 70
     0
102
RTVSPropertyOp9
 70
     0
102
RTVSPropertyOp10
 70
     0
102
RTVSPropertyOp11
 70
     0
102
RTVSPropertyOp12
 70
     0
102
RTVSPropertyOp13
 70
     0
102
RTVSPropertyOp14
 70
     2
102
RTVSPropertyOp15
 70
     0
102
RTVSPropertyOp16
 70
     0
102
RTVSPropertyOp17
 70
     0
102
RTVSPropertyOp18
 70
     0
102
RTVSPropertyOp19
 70
     0
102
RTVSPropertyOp20
 70
     0
102
RTVSPropertyOp21
 70
     0
102
RTVSPropertyOp22
 70
     0
102
RTVSPropertyOp23
 70
     0
102
RTVSPropertyOp24
 70
     0
102
RTVSPropertyOp25
 70
     0
102
RTVSPropertyOp26
 70
     0
102
RTVSPropertyOp27
 70
     0
102
RTVSPropertyOp28
 70
     1
102
RTVSPropertyOp29
 70
     1
102
RTVSPropertyOp30
 70
     1
102
RTVSPropertyOp31
 70
     1
102
RTVSPropertyOp32
 70
     1
  0
XRECORD
  5
D157
102
{ACAD_REACTORS
330
D156
102
}
330
D156
100
AcDbXrecord
280
     1
102
RTVSPropertyOp0
 70
     1
102
RTVSPropertyOp1
 70
     1
102
RTVSPropertyOp2
 70
     1
102
RTVSPropertyOp3
 70
     1
102
RTVSPropertyOp4
 70
     1
102
RTVSPropertyOp5
 70
     1
102
RTVSPropertyOp6
 70
     1
102
RTVSPropertyOp7
 70
     1
102
RTVSPropertyOp8
 70
     1
102
RTVSPropertyOp9
 70
     1
102
RTVSPropertyOp10
 70
     1
102
RTVSPropertyOp11
 70
     1
102
RTVSPropertyOp12
 70
     1
102
RTVSPropertyOp13
 70
     1
102
RTVSPropertyOp14
 70
     1
102
RTVSPropertyOp15
 70
     1
102
RTVSPropertyOp16
 70
     1
102
RTVSPropertyOp17
 70
     1
102
RTVSPropertyOp18
 70
     1
102
RTVSPropertyOp19
 70
     1
102
RTVSPropertyOp20
 70
     1
102
RTVSPropertyOp21
 70
     1
102
RTVSPropertyOp22
 70
     1
102
RTVSPropertyOp23
 70
     1
102
RTVSPropertyOp24
 70
     1
102
RTVSPropertyOp25
 70
     1
102
RTVSPropertyOp26
 70
     1
102
RTVSPropertyOp27
 70
     1
102
RTVSPropertyOp28
 70
     1
102
RTVSPropertyOp29
 70
     1
102
RTVSPropertyOp30
 70
     1
102
RTVSPropertyOp31
 70
     1
102
RTVSPropertyOp32
 70
     1
  0
XRECORD
  5
D169
102
{ACAD_REACTORS
330
D168
102
}
330
D168
100
AcDbXrecord
280
     1
102
RTVSPropertyOp0
 70
     0
102
RTVSPropertyOp1
 70
     0
102
RTVSPropertyOp2
 70
     0
102
RTVSPropertyOp3
 70
     0
102
RTVSPropertyOp4
 70
     0
102
RTVSPropertyOp5
 70
     0
102
RTVSPropertyOp6
 70
     0
102
RTVSPropertyOp7
 70
     0
102
RTVSPropertyOp8
 70
     0
102
RTVSPropertyOp9
 70
     0
102
RTVSPropertyOp10
 70
     0
102
RTVSPropertyOp11
 70
     0
102
RTVSPropertyOp12
 70
     0
102
RTVSPropertyOp13
 70
     0
102
RTVSPropertyOp14
 70
     2
102
RTVSPropertyOp15
 70
     0
102
RTVSPropertyOp16
 70
     0
102
RTVSPropertyOp17
 70
     0
102
RTVSPropertyOp18
 70
     0
102
RTVSPropertyOp19
 70
     0
102
RTVSPropertyOp20
 70
     0
102
RTVSPropertyOp21
 70
     0
102
RTVSPropertyOp22
 70
     0
102
RTVSPropertyOp23
 70
     0
102
RTVSPropertyOp24
 70
     0
102
RTVSPropertyOp25
 70
     0
102
RTVSPropertyOp26
 70
     0
102
RTVSPropertyOp27
 70
     0
102
RTVSPropertyOp28
 70
     1
102
RTVSPropertyOp29
 70
     1
102
RTVSPropertyOp30
 70
     1
102
RTVSPropertyOp31
 70
     1
102
RTVSPropertyOp32
 70
     1
  0
XRECORD
  5
D14F
102
{ACAD_REACTORS
330
D14E
102
}
330
D14E
100
AcDbXrecord
280
     1
102
RTVSPropertyOp0
 70
     1
102
RTVSPropertyOp1
 70
     1
102
RTVSPropertyOp2
 70
     1
102
RTVSPropertyOp3
 70
     1
102
RTVSPropertyOp4
 70
     1
102
RTVSPropertyOp5
 70
     1
102
RTVSPropertyOp6
 70
     1
102
RTVSPropertyOp7
 70
     1
102
RTVSPropertyOp8
 70
     1
102
RTVSPropertyOp9
 70
     1
102
RTVSPropertyOp10
 70
     1
102
RTVSPropertyOp11
 70
     1
102
RTVSPropertyOp12
 70
     1
102
RTVSPropertyOp13
 70
     1
102
RTVSPropertyOp14
 70
     1
102
RTVSPropertyOp15
 70
     1
102
RTVSPropertyOp16
 70
     1
102
RTVSPropertyOp17
 70
     1
102
RTVSPropertyOp18
 70
     1
102
RTVSPropertyOp19
 70
     1
102
RTVSPropertyOp20
 70
     1
102
RTVSPropertyOp21
 70
     1
102
RTVSPropertyOp22
 70
     1
102
RTVSPropertyOp23
 70
     1
102
RTVSPropertyOp24
 70
     1
102
RTVSPropertyOp25
 70
     1
102
RTVSPropertyOp26
 70
     1
102
RTVSPropertyOp27
 70
     1
102
RTVSPropertyOp28
 70
     1
102
RTVSPropertyOp29
 70
     1
102
RTVSPropertyOp30
 70
     1
102
RTVSPropertyOp31
 70
     1
102
RTVSPropertyOp32
 70
     1
  0
XRECORD
  5
D165
102
{ACAD_REACTORS
330
D164
102
}
330
D164
100
AcDbXrecord
280
     1
102
RTVSPropertyOp0
 70
     1
102
RTVSPropertyOp1
 70
     1
102
RTVSPropertyOp2
 70
     1
102
RTVSPropertyOp3
 70
     1
102
RTVSPropertyOp4
 70
     1
102
RTVSPropertyOp5
 70
     1
102
RTVSPropertyOp6
 70
     1
102
RTVSPropertyOp7
 70
     1
102
RTVSPropertyOp8
 70
     1
102
RTVSPropertyOp9
 70
     1
102
RTVSPropertyOp10
 70
     1
102
RTVSPropertyOp11
 70
     1
102
RTVSPropertyOp12
 70
     1
102
RTVSPropertyOp13
 70
     1
102
RTVSPropertyOp14
 70
     1
102
RTVSPropertyOp15
 70
     1
102
RTVSPropertyOp16
 70
     1
102
RTVSPropertyOp17
 70
     1
102
RTVSPropertyOp18
 70
     1
102
RTVSPropertyOp19
 70
     1
102
RTVSPropertyOp20
 70
     1
102
RTVSPropertyOp21
 70
     1
102
RTVSPropertyOp22
 70
     1
102
RTVSPropertyOp23
 70
     1
102
RTVSPropertyOp24
 70
     1
102
RTVSPropertyOp25
 70
     1
102
RTVSPropertyOp26
 70
     1
102
RTVSPropertyOp27
 70
     1
102
RTVSPropertyOp28
 70
     1
102
RTVSPropertyOp29
 70
     1
102
RTVSPropertyOp30
 70
     1
102
RTVSPropertyOp31
 70
     1
102
RTVSPropertyOp32
 70
     1
  0
XRECORD
  5
D163
102
{ACAD_REACTORS
330
D162
102
}
330
D162
100
AcDbXrecord
280
     1
102
RTVSPropertyOp0
 70
     1
102
RTVSPropertyOp1
 70
     1
102
RTVSPropertyOp2
 70
     1
102
RTVSPropertyOp3
 70
     1
102
RTVSPropertyOp4
 70
     1
102
RTVSPropertyOp5
 70
     1
102
RTVSPropertyOp6
 70
     1
102
RTVSPropertyOp7
 70
     1
102
RTVSPropertyOp8
 70
     1
102
RTVSPropertyOp9
 70
     1
102
RTVSPropertyOp10
 70
     1
102
RTVSPropertyOp11
 70
     1
102
RTVSPropertyOp12
 70
     1
102
RTVSPropertyOp13
 70
     1
102
RTVSPropertyOp14
 70
     1
102
RTVSPropertyOp15
 70
     1
102
RTVSPropertyOp16
 70
     1
102
RTVSPropertyOp17
 70
     1
102
RTVSPropertyOp18
 70
     1
102
RTVSPropertyOp19
 70
     1
102
RTVSPropertyOp20
 70
     1
102
RTVSPropertyOp21
 70
     1
102
RTVSPropertyOp22
 70
     1
102
RTVSPropertyOp23
 70
     1
102
RTVSPropertyOp24
 70
     1
102
RTVSPropertyOp25
 70
     1
102
RTVSPropertyOp26
 70
     1
102
RTVSPropertyOp27
 70
     1
102
RTVSPropertyOp28
 70
     1
102
RTVSPropertyOp29
 70
     1
102
RTVSPropertyOp30
 70
     1
102
RTVSPropertyOp31
 70
     1
102
RTVSPropertyOp32
 70
     1
  0
XRECORD
  5
D15D
102
{ACAD_REACTORS
330
D15C
102
}
330
D15C
100
AcDbXrecord
280
     1
102
RTVSPropertyOp0
 70
     1
102
RTVSPropertyOp1
 70
     1
102
RTVSPropertyOp2
 70
     1
102
RTVSPropertyOp3
 70
     1
102
RTVSPropertyOp4
 70
     1
102
RTVSPropertyOp5
 70
     1
102
RTVSPropertyOp6
 70
     1
102
RTVSPropertyOp7
 70
     1
102
RTVSPropertyOp8
 70
     1
102
RTVSPropertyOp9
 70
     1
102
RTVSPropertyOp10
 70
     1
102
RTVSPropertyOp11
 70
     1
102
RTVSPropertyOp12
 70
     1
102
RTVSPropertyOp13
 70
     1
102
RTVSPropertyOp14
 70
     1
102
RTVSPropertyOp15
 70
     1
102
RTVSPropertyOp16
 70
     1
102
RTVSPropertyOp17
 70
     1
102
RTVSPropertyOp18
 70
     1
102
RTVSPropertyOp19
 70
     1
102
RTVSPropertyOp20
 70
     1
102
RTVSPropertyOp21
 70
     1
102
RTVSPropertyOp22
 70
     1
102
RTVSPropertyOp23
 70
     1
102
RTVSPropertyOp24
 70
     1
102
RTVSPropertyOp25
 70
     1
102
RTVSPropertyOp26
 70
     1
102
RTVSPropertyOp27
 70
     1
102
RTVSPropertyOp28
 70
     1
102
RTVSPropertyOp29
 70
     1
102
RTVSPropertyOp30
 70
     1
102
RTVSPropertyOp31
 70
     1
102
RTVSPropertyOp32
 70
     1
  0
XRECORD
  5
D15F
102
{ACAD_REACTORS
330
D15E
102
}
330
D15E
100
AcDbXrecord
280
     1
102
RTVSPropertyOp0
 70
     1
102
RTVSPropertyOp1
 70
     1
102
RTVSPropertyOp2
 70
     1
102
RTVSPropertyOp3
 70
     1
102
RTVSPropertyOp4
 70
     1
102
RTVSPropertyOp5
 70
     1
102
RTVSPropertyOp6
 70
     1
102
RTVSPropertyOp7
 70
     1
102
RTVSPropertyOp8
 70
     1
102
RTVSPropertyOp9
 70
     1
102
RTVSPropertyOp10
 70
     1
102
RTVSPropertyOp11
 70
     1
102
RTVSPropertyOp12
 70
     1
102
RTVSPropertyOp13
 70
     1
102
RTVSPropertyOp14
 70
     1
102
RTVSPropertyOp15
 70
     1
102
RTVSPropertyOp16
 70
     1
102
RTVSPropertyOp17
 70
     1
102
RTVSPropertyOp18
 70
     1
102
RTVSPropertyOp19
 70
     1
102
RTVSPropertyOp20
 70
     1
102
RTVSPropertyOp21
 70
     1
102
RTVSPropertyOp22
 70
     1
102
RTVSPropertyOp23
 70
     1
102
RTVSPropertyOp24
 70
     1
102
RTVSPropertyOp25
 70
     1
102
RTVSPropertyOp26
 70
     1
102
RTVSPropertyOp27
 70
     1
102
RTVSPropertyOp28
 70
     1
102
RTVSPropertyOp29
 70
     1
102
RTVSPropertyOp30
 70
     1
102
RTVSPropertyOp31
 70
     1
102
RTVSPropertyOp32
 70
     1
  0
XRECORD
  5
D155
102
{ACAD_REACTORS
330
D154
102
}
330
D154
100
AcDbXrecord
280
     1
102
RTVSPropertyOp0
 70
     1
102
RTVSPropertyOp1
 70
     1
102
RTVSPropertyOp2
 70
     1
102
RTVSPropertyOp3
 70
     1
102
RTVSPropertyOp4
 70
     1
102
RTVSPropertyOp5
 70
     1
102
RTVSPropertyOp6
 70
     1
102
RTVSPropertyOp7
 70
     1
102
RTVSPropertyOp8
 70
     1
102
RTVSPropertyOp9
 70
     1
102
RTVSPropertyOp10
 70
     1
102
RTVSPropertyOp11
 70
     1
102
RTVSPropertyOp12
 70
     1
102
RTVSPropertyOp13
 70
     1
102
RTVSPropertyOp14
 70
     1
102
RTVSPropertyOp15
 70
     1
102
RTVSPropertyOp16
 70
     1
102
RTVSPropertyOp17
 70
     1
102
RTVSPropertyOp18
 70
     1
102
RTVSPropertyOp19
 70
     1
102
RTVSPropertyOp20
 70
     1
102
RTVSPropertyOp21
 70
     1
102
RTVSPropertyOp22
 70
     1
102
RTVSPropertyOp23
 70
     1
102
RTVSPropertyOp24
 70
     1
102
RTVSPropertyOp25
 70
     1
102
RTVSPropertyOp26
 70
     1
102
RTVSPropertyOp27
 70
     1
102
RTVSPropertyOp28
 70
     1
102
RTVSPropertyOp29
 70
     1
102
RTVSPropertyOp30
 70
     1
102
RTVSPropertyOp31
 70
     1
102
RTVSPropertyOp32
 70
     1
  0
XRECORD
  5
D149
102
{ACAD_REACTORS
330
D148
102
}
330
D148
100
AcDbXrecord
280
     1
102
RTVSPropertyOp0
 70
     1
102
RTVSPropertyOp1
 70
     1
102
RTVSPropertyOp2
 70
     1
102
RTVSPropertyOp3
 70
     1
102
RTVSPropertyOp4
 70
     1
102
RTVSPropertyOp5
 70
     1
102
RTVSPropertyOp6
 70
     1
102
RTVSPropertyOp7
 70
     1
102
RTVSPropertyOp8
 70
     1
102
RTVSPropertyOp9
 70
     1
102
RTVSPropertyOp10
 70
     1
102
RTVSPropertyOp11
 70
     1
102
RTVSPropertyOp12
 70
     1
102
RTVSPropertyOp13
 70
     1
102
RTVSPropertyOp14
 70
     1
102
RTVSPropertyOp15
 70
     1
102
RTVSPropertyOp16
 70
     1
102
RTVSPropertyOp17
 70
     1
102
RTVSPropertyOp18
 70
     1
102
RTVSPropertyOp19
 70
     1
102
RTVSPropertyOp20
 70
     1
102
RTVSPropertyOp21
 70
     1
102
RTVSPropertyOp22
 70
     1
102
RTVSPropertyOp23
 70
     1
102
RTVSPropertyOp24
 70
     1
102
RTVSPropertyOp25
 70
     1
102
RTVSPropertyOp26
 70
     1
102
RTVSPropertyOp27
 70
     1
102
RTVSPropertyOp28
 70
     1
102
RTVSPropertyOp29
 70
     1
102
RTVSPropertyOp30
 70
     1
102
RTVSPropertyOp31
 70
     1
102
RTVSPropertyOp32
 70
     1
  0
XRECORD
  5
D161
102
{ACAD_REACTORS
330
D160
102
}
330
D160
100
AcDbXrecord
280
     1
102
RTVSPropertyOp0
 70
     1
102
RTVSPropertyOp1
 70
     1
102
RTVSPropertyOp2
 70
     1
102
RTVSPropertyOp3
 70
     1
102
RTVSPropertyOp4
 70
     1
102
RTVSPropertyOp5
 70
     1
102
RTVSPropertyOp6
 70
     1
102
RTVSPropertyOp7
 70
     1
102
RTVSPropertyOp8
 70
     1
102
RTVSPropertyOp9
 70
     1
102
RTVSPropertyOp10
 70
     1
102
RTVSPropertyOp11
 70
     1
102
RTVSPropertyOp12
 70
     1
102
RTVSPropertyOp13
 70
     1
102
RTVSPropertyOp14
 70
     1
102
RTVSPropertyOp15
 70
     1
102
RTVSPropertyOp16
 70
     1
102
RTVSPropertyOp17
 70
     1
102
RTVSPropertyOp18
 70
     1
102
RTVSPropertyOp19
 70
     1
102
RTVSPropertyOp20
 70
     1
102
RTVSPropertyOp21
 70
     1
102
RTVSPropertyOp22
 70
     1
102
RTVSPropertyOp23
 70
     1
102
RTVSPropertyOp24
 70
     1
102
RTVSPropertyOp25
 70
     1
102
RTVSPropertyOp26
 70
     1
102
RTVSPropertyOp27
 70
     1
102
RTVSPropertyOp28
 70
     1
102
RTVSPropertyOp29
 70
     1
102
RTVSPropertyOp30
 70
     1
102
RTVSPropertyOp31
 70
     1
102
RTVSPropertyOp32
 70
     1
  0
ENDSEC
  0
EOF
