  0
SECTION
  2
HEADER
  9
$ACADVER
  1
AC1018
  9
$ACADMAINTVER
 70
   104
  9
$DWGCODEPAGE
  3
ANSI_932
  9
$LASTSAVEDBY
  1
HON1000CV
  9
$INSBASE
 10
0.0
 20
0.0
 30
0.0
  9
$EXTMIN
 10
3282.833010370902
 20
337.7269557766185
 30
-0.0000000349181948
  9
$EXTMAX
 10
3896.082714415616
 20
635.9296762244773
 30
0.0000000814935746
  9
$LIMMIN
 10
0.0
 20
0.0
  9
$LIMMAX
 10
420.0
 20
297.0
  9
$ORTHOMODE
 70
     0
  9
$REGENMODE
 70
     1
  9
$FILLMODE
 70
     1
  9
$QTEXTMODE
 70
     0
  9
$MIRRTEXT
 70
     1
  9
$LTSCALE
 40
3.0
  9
$ATTMODE
 70
     1
  9
$TEXTSIZE
 40
5.0
  9
$TRACEWID
 40
0.05
  9
$TEXTSTYLE
  7
ACAD
  9
$CLAYER
  8
0
  9
$CELTYPE
  6
CONTINUOUS
  9
$CECOLOR
 62
   256
  9
$CELTSCALE
 40
1.0
  9
$DISPSILH
 70
     0
  9
$DIMSCALE
 40
1.0
  9
$DIMASZ
 40
5.0
  9
$DIMEXO
 40
0.0
  9
$DIMDLI
 40
0.38
  9
$DIMRND
 40
0.0
  9
$DIMDLE
 40
0.0
  9
$DIMEXE
 40
0.0
  9
$DIMTP
 40
0.0
  9
$DIMTM
 40
0.0
  9
$DIMTXT
 40
6.5
  9
$DIMCEN
 40
0.09
  9
$DIMTSZ
 40
0.0
  9
$DIMTOL
 70
     0
  9
$DIMLIM
 70
     0
  9
$DIMTIH
 70
     0
  9
$DIMTOH
 70
     1
  9
$DIMSE1
 70
     0
  9
$DIMSE2
 70
     0
  9
$DIMTAD
 70
     1
  9
$DIMZIN
 70
     0
  9
$DIMBLK
  1
Small
  9
$DIMASO
 70
     1
  9
$DIMSHO
 70
     1
  9
$DIMPOST
  1

  9
$DIMAPOST
  1

  9
$DIMALT
 70
     0
  9
$DIMALTD
 70
     2
  9
$DIMALTF
 40
25.4
  9
$DIMLFAC
 40
1.0
  9
$DIMTOFL
 70
     0
  9
$DIMTVP
 40
0.0
  9
$DIMTIX
 70
     1
  9
$DIMSOXD
 70
     0
  9
$DIMSAH
 70
     0
  9
$DIMBLK1
  1

  9
$DIMBLK2
  1

  9
$DIMSTYLE
  2
AutoCAD
  9
$DIMCLRD
 70
     4
  9
$DIMCLRE
 70
     4
  9
$DIMCLRT
 70
     3
  9
$DIMTFAC
 40
1.0
  9
$DIMGAP
 40
3.0
  9
$DIMJUST
 70
     0
  9
$DIMSD1
 70
     0
  9
$DIMSD2
 70
     0
  9
$DIMTOLJ
 70
     1
  9
$DIMTZIN
 70
     0
  9
$DIMALTZ
 70
     0
  9
$DIMALTTZ
 70
     0
  9
$DIMUPT
 70
     0
  9
$DIMDEC
 70
     0
  9
$DIMTDEC
 70
     0
  9
$DIMALTU
 70
     2
  9
$DIMALTTD
 70
     2
  9
$DIMTXSTY
  7
ACAD
  9
$DIMAUNIT
 70
     0
  9
$DIMADEC
 70
     0
  9
$DIMALTRND
 40
0.0
  9
$DIMAZIN
 70
     0
  9
$DIMDSEP
 70
    46
  9
$DIMATFIT
 70
     0
  9
$DIMFRAC
 70
     0
  9
$DIMLDRBLK
  1
None
  9
$DIMLUNIT
 70
     2
  9
$DIMLWD
 70
    -2
  9
$DIMLWE
 70
    -2
  9
$DIMTMOVE
 70
     0
  9
$LUNITS
 70
     2
  9
$LUPREC
 70
     4
  9
$SKETCHINC
 40
0.1
  9
$FILLETRAD
 40
0.0
  9
$AUNITS
 70
     0
  9
$AUPREC
 70
     0
  9
$MENU
  1
.
  9
$ELEVATION
 40
0.0
  9
$PELEVATION
 40
0.0
  9
$THICKNESS
 40
0.0
  9
$LIMCHECK
 70
     0
  9
$CHAMFERA
 40
0.0
  9
$CHAMFERB
 40
0.0
  9
$CHAMFERC
 40
0.0
  9
$CHAMFERD
 40
0.0
  9
$SKPOLY
 70
     0
  9
$TDCREATE
 40
2454316.693457674
  9
$TDUCREATE
 40
2454316.318457674
  9
$TDUPDATE
 40
2455961.436392407
  9
$TDUUPDATE
 40
2455961.061392407
  9
$TDINDWG
 40
1.0730726273
  9
$TDUSRTIMER
 40
1.0730726273
  9
$USRTIMER
 70
     1
  9
$ANGBASE
 50
0.0
  9
$ANGDIR
 70
     0
  9
$PDMODE
 70
     0
  9
$PDSIZE
 40
0.0
  9
$PLINEWID
 40
0.0
  9
$SPLFRAME
 70
     0
  9
$SPLINETYPE
 70
     6
  9
$SPLINESEGS
 70
     8
  9
$HANDSEED
  5
C167
  9
$SURFTAB1
 70
     6
  9
$SURFTAB2
 70
     6
  9
$SURFTYPE
 70
     6
  9
$SURFU
 70
     6
  9
$SURFV
 70
     6
  9
$UCSBASE
  2

  9
$UCSNAME
  2

  9
$UCSORG
 10
0.0
 20
0.0
 30
0.0
  9
$UCSXDIR
 10
1.0
 20
0.0
 30
0.0
  9
$UCSYDIR
 10
0.0
 20
1.0
 30
0.0
  9
$UCSORTHOREF
  2

  9
$UCSORTHOVIEW
 70
     0
  9
$UCSORGTOP
 10
0.0
 20
0.0
 30
0.0
  9
$UCSORGBOTTOM
 10
0.0
 20
0.0
 30
0.0
  9
$UCSORGLEFT
 10
0.0
 20
0.0
 30
0.0
  9
$UCSORGRIGHT
 10
0.0
 20
0.0
 30
0.0
  9
$UCSORGFRONT
 10
0.0
 20
0.0
 30
0.0
  9
$UCSORGBACK
 10
0.0
 20
0.0
 30
0.0
  9
$PUCSBASE
  2

  9
$PUCSNAME
  2

  9
$PUCSORG
 10
0.0
 20
0.0
 30
0.0
  9
$PUCSXDIR
 10
1.0
 20
0.0
 30
0.0
  9
$PUCSYDIR
 10
0.0
 20
1.0
 30
0.0
  9
$PUCSORTHOREF
  2

  9
$PUCSORTHOVIEW
 70
     0
  9
$PUCSORGTOP
 10
0.0
 20
0.0
 30
0.0
  9
$PUCSORGBOTTOM
 10
0.0
 20
0.0
 30
0.0
  9
$PUCSORGLEFT
 10
0.0
 20
0.0
 30
0.0
  9
$PUCSORGRIGHT
 10
0.0
 20
0.0
 30
0.0
  9
$PUCSORGFRONT
 10
0.0
 20
0.0
 30
0.0
  9
$PUCSORGBACK
 10
0.0
 20
0.0
 30
0.0
  9
$USERI1
 70
     0
  9
$USERI2
 70
     0
  9
$USERI3
 70
     0
  9
$USERI4
 70
     0
  9
$USERI5
 70
     0
  9
$USERR1
 40
0.0
  9
$USERR2
 40
0.0
  9
$USERR3
 40
0.0
  9
$USERR4
 40
0.0
  9
$USERR5
 40
0.0
  9
$WORLDVIEW
 70
     1
  9
$SHADEDGE
 70
     3
  9
$SHADEDIF
 70
    70
  9
$TILEMODE
 70
     1
  9
$MAXACTVP
 70
    48
  9
$PINSBASE
 10
0.0
 20
0.0
 30
0.0
  9
$PLIMCHECK
 70
     0
  9
$PEXTMIN
 10
1.000000000000000E+20
 20
1.000000000000000E+20
 30
1.000000000000000E+20
  9
$PEXTMAX
 10
-1.000000000000000E+20
 20
-1.000000000000000E+20
 30
-1.000000000000000E+20
  9
$PLIMMIN
 10
0.0
 20
0.0
  9
$PLIMMAX
 10
12.0
 20
9.0
  9
$UNITMODE
 70
     0
  9
$VISRETAIN
 70
     0
  9
$PLINEGEN
 70
     0
  9
$PSLTSCALE
 70
     1
  9
$TREEDEPTH
 70
  3020
  9
$CMLSTYLE
  2
Standard
  9
$CMLJUST
 70
     0
  9
$CMLSCALE
 40
1.0
  9
$PROXYGRAPHICS
 70
     1
  9
$MEASUREMENT
 70
     0
  9
$CELWEIGHT
370
    -1
  9
$ENDCAPS
280
     0
  9
$JOINSTYLE
280
     0
  9
$LWDISPLAY
290
     0
  9
$INSUNITS
 70
     0
  9
$HYPERLINKBASE
  1

  9
$STYLESHEET
  1
monochrome.ctb
  9
$XEDIT
290
     1
  9
$CEPSNTYPE
380
     0
  9
$PSTYLEMODE
290
     1
  9
$FINGERPRINTGUID
  2
{CC7D6DEE-A9F1-4F3E-AC95-C84B62CCA3FD}
  9
$VERSIONGUID
  2
{39D10DB6-3F53-40F8-BEC5-8E682E6D1203}
  9
$EXTNAMES
290
     1
  9
$PSVPSCALE
 40
0.0
  9
$OLESTARTUP
290
     0
  9
$SORTENTS
280
   127
  9
$INDEXCTL
280
     0
  9
$HIDETEXT
280
     0
  9
$XCLIPFRAME
290
     0
  9
$HALOGAP
280
     0
  9
$OBSCOLOR
 70
   257
  9
$OBSLTYPE
280
     0
  9
$INTERSECTIONDISPLAY
280
     0
  9
$INTERSECTIONCOLOR
 70
   257
  9
$DIMASSOC
280
     1
  9
$PROJECTNAME
  1

  0
ENDSEC
  0
SECTION
  2
CLASSES
  0
CLASS
  1
ACDBDICTIONARYWDFLT
  2
AcDbDictionaryWithDefault
  3
ObjectDBX Classes
 90
        0
 91
        1
280
     0
281
     0
  0
CLASS
  1
DICTIONARYVAR
  2
AcDbDictionaryVar
  3
ObjectDBX Classes
 90
        0
 91
       10
280
     0
281
     0
  0
CLASS
  1
MATERIAL
  2
AcDbMaterial
  3
ObjectDBX Classes
 90
     1153
 91
        3
280
     0
281
     0
  0
CLASS
  1
VISUALSTYLE
  2
AcDbVisualStyle
  3
ObjectDBX Classes
 90
     4095
 91
       24
280
     0
281
     0
  0
CLASS
  1
TABLESTYLE
  2
AcDbTableStyle
  3
ObjectDBX Classes
 90
     4095
 91
        1
280
     0
281
     0
  0
CLASS
  1
SCALE
  2
AcDbScale
  3
ObjectDBX Classes
 90
     1153
 91
       17
280
     0
281
     0
  0
CLASS
  1
MLEADERSTYLE
  2
AcDbMLeaderStyle
  3
ACDB_MLEADERSTYLE_CLASS
 90
     4095
 91
        1
280
     0
281
     0
  0
CLASS
  1
SORTENTSTABLE
  2
AcDbSortentsTable
  3
ObjectDBX Classes
 90
        0
 91
        1
280
     0
281
     0
  0
CLASS
  1
EXACXREFPANELOBJECT
  2
ExAcXREFPanelObject
  3
EXAC_ESW
 90
     1025
 91
        0
280
     0
281
     0
  0
CLASS
  1
NPOCOLLECTION
  2
AcDbImpNonPersistentObjectsCollection
  3
ObjectDBX Classes
 90
     1153
 91
        0
280
     0
281
     0
  0
CLASS
  1
CELLSTYLEMAP
  2
AcDbCellStyleMap
  3
ObjectDBX Classes
 90
     1152
 91
        2
280
     0
281
     0
  0
ENDSEC
  0
SECTION
  2
TABLES
  0
TABLE
  2
VPORT
  5
8
102
{ACAD_XDICTIONARY
360
ACDD
102
}
330
0
100
AcDbSymbolTable
 70
     1
  0
VPORT
  5
6265
330
8
100
AcDbSymbolTableRecord
100
AcDbViewportTableRecord
  2
*Active
 70
     0
 10
0.0
 20
0.0
 11
1.0
 21
1.0
 12
3589.457862393259
 22
486.8283160005479
 13
0.0
 23
0.0
 14
1.0
 24
1.0
 15
0.0
 25
0.0
 16
0.0
 26
0.0
 36
1.0
 17
0.0
 27
0.0
 37
0.0
 40
300.5538588482361
 41
2.519736842105263
 42
50.0
 43
0.0
 44
0.0
 50
0.0
 51
0.0
 71
     0
 72
   100
 73
     1
 74
     1
 75
     0
 76
     0
 77
     0
 78
     0
281
     0
 65
     1
110
0.0
120
0.0
130
0.0
111
1.0
121
0.0
131
0.0
112
0.0
122
1.0
132
0.0
 79
     0
146
0.0
1001
ACAD_NAV_VCDISPLAY
1070
     3
  0
ENDTAB
  0
TABLE
  2
LTYPE
  5
5
330
0
100
AcDbSymbolTable
 70
     2
  0
LTYPE
  5
13
330
5
100
AcDbSymbolTableRecord
100
AcDbLinetypeTableRecord
  2
ByBlock
 70
     0
  3

 72
    65
 73
     0
 40
0.0
  0
LTYPE
  5
14
330
5
100
AcDbSymbolTableRecord
100
AcDbLinetypeTableRecord
  2
ByLayer
 70
     0
  3

 72
    65
 73
     0
 40
0.0
  0
LTYPE
  5
15
330
5
100
AcDbSymbolTableRecord
100
AcDbLinetypeTableRecord
  2
CONTINUOUS
 70
     0
  3
実線
 72
    65
 73
     0
 40
0.0
  0
LTYPE
  5
25
330
5
100
AcDbSymbolTableRecord
100
AcDbLinetypeTableRecord
  2
CENTER1
 70
     0
  3
----- - ----- - ----- - ----- - 
 72
    65
 73
     4
 40
10.0
 49
6.25
 74
     0
 49
-1.25
 74
     0
 49
1.25
 74
     0
 49
-1.25
 74
     0
  0
ENDTAB
  0
TABLE
  2
LAYER
  5
2
102
{ACAD_XDICTIONARY
360
175
102
}
330
0
100
AcDbSymbolTable
 70
     6
  0
LAYER
  5
10
102
{ACAD_XDICTIONARY
360
8065
102
}
330
2
100
AcDbSymbolTableRecord
100
AcDbLayerTableRecord
  2
0
 70
     0
 62
     7
  6
CONTINUOUS
370
    -3
390
F
  0
LAYER
  5
128
330
2
100
AcDbSymbolTableRecord
100
AcDbLayerTableRecord
  2
Defpoints
 70
     0
 62
     7
  6
CONTINUOUS
290
     0
370
    -3
390
F
  0
LAYER
  5
178
102
{ACAD_XDICTIONARY
360
8067
102
}
330
2
100
AcDbSymbolTableRecord
100
AcDbLayerTableRecord
  2
寸法
 70
     0
 62
     7
  6
CONTINUOUS
370
    -3
390
F
  0
LAYER
  5
179
102
{ACAD_XDICTIONARY
360
8069
102
}
330
2
100
AcDbSymbolTableRecord
100
AcDbLayerTableRecord
  2
躯体と製品
 70
     0
 62
     7
  6
CONTINUOUS
370
    -3
390
F
  0
LAYER
  5
4F62
102
{ACAD_XDICTIONARY
360
806B
102
}
330
2
100
AcDbSymbolTableRecord
100
AcDbLayerTableRecord
  2
文字-記号
 70
     0
 62
     7
  6
CONTINUOUS
370
    -3
390
F
  0
LAYER
  5
89C9
330
2
100
AcDbSymbolTableRecord
100
AcDbLayerTableRecord
  2
中心線
 70
     0
 62
     7
  6
CONTINUOUS
370
    -3
390
F
1001
AcAecLayerStandard
1000

1000

1001
AcCmTransparency
1071
        0
  0
ENDTAB
  0
TABLE
  2
STYLE
  5
3
330
0
100
AcDbSymbolTable
 70
     2
  0
STYLE
  5
11
330
3
100
AcDbSymbolTableRecord
100
AcDbTextStyleTableRecord
  2
STANDARD
 70
     0
 40
0.0
 41
1.0
 50
0.0
 71
     0
 42
0.2
  3
txt
  4
bigfont.shx
  0
STYLE
  5
123
330
3
100
AcDbSymbolTableRecord
100
AcDbTextStyleTableRecord
  2
ACAD
 70
     0
 40
0.0
 41
1.0
 50
0.0
 71
     0
 42
5.0
  3
romans.shx
  4
extfont.shx
  0
ENDTAB
  0
TABLE
  2
VIEW
  5
6
330
0
100
AcDbSymbolTable
 70
     0
  0
ENDTAB
  0
TABLE
  2
UCS
  5
7
330
0
100
AcDbSymbolTable
 70
     0
  0
ENDTAB
  0
TABLE
  2
APPID
  5
9
330
0
100
AcDbSymbolTable
 70
    10
  0
APPID
  5
12
330
9
100
AcDbSymbolTableRecord
100
AcDbRegAppTableRecord
  2
ACAD
 70
     0
  0
APPID
  5
6BBF
330
9
100
AcDbSymbolTableRecord
100
AcDbRegAppTableRecord
  2
ACAD_NAV_VCDISPLAY
 70
     0
  0
APPID
  5
8823
330
9
100
AcDbSymbolTableRecord
100
AcDbRegAppTableRecord
  2
ACAD_EXEMPT_FROM_CAD_STANDARDS
 70
     0
  0
APPID
  5
89CA
330
9
100
AcDbSymbolTableRecord
100
AcDbRegAppTableRecord
  2
AcAecLayerStandard
 70
     0
  0
APPID
  5
89CB
330
9
100
AcDbSymbolTableRecord
100
AcDbRegAppTableRecord
  2
AcCmTransparency
 70
     0
  0
APPID
  5
A4C1
330
9
100
AcDbSymbolTableRecord
100
AcDbRegAppTableRecord
  2
ACAD_PSEXT
 70
     0
  0
APPID
  5
AD13
330
9
100
AcDbSymbolTableRecord
100
AcDbRegAppTableRecord
  2
ACAD_MLEADERVER
 70
     0
  0
APPID
  5
AD5E
330
9
100
AcDbSymbolTableRecord
100
AcDbRegAppTableRecord
  2
AcadAnnoPO
 70
     0
  0
APPID
  5
AD5F
330
9
100
AcDbSymbolTableRecord
100
AcDbRegAppTableRecord
  2
ACAD_DSTYLE_DIMJAG
 70
     0
  0
APPID
  5
AD60
330
9
100
AcDbSymbolTableRecord
100
AcDbRegAppTableRecord
  2
ACAD_DSTYLE_DIMTALN
 70
     0
  0
ENDTAB
  0
TABLE
  2
DIMSTYLE
  5
A
330
0
100
AcDbSymbolTable
 70
     2
100
AcDbDimStyleTable
 71
     1
340
126
  0
DIMSTYLE
105
11C
330
A
100
AcDbSymbolTableRecord
100
AcDbDimStyleTableRecord
  2
Standard
 70
     0
340
11
  0
DIMSTYLE
105
126
102
{ACAD_REACTORS
330
9A81
330
9A82
330
A0BC
330
A0D2
102
}
330
A
100
AcDbSymbolTableRecord
100
AcDbDimStyleTableRecord
  2
AutoCAD
 70
     0
 41
5.0
 42
0.0
 44
0.0
 73
     0
 77
     1
140
6.5
147
3.0
174
     1
176
     4
177
     4
178
     3
271
     0
272
     0
289
     0
340
123
341
15B0
342
B052
1001
ACAD_DSTYLE_DIMJAG
1070
   388
1040
1.5
1001
ACAD_DSTYLE_DIMTALN
1070
   392
1070
     0
  0
ENDTAB
  0
TABLE
  2
BLOCK_RECORD
  5
1
330
0
100
AcDbSymbolTable
 70
     6
  0
BLOCK_RECORD
  5
1E
102
{ACAD_XDICTIONARY
360
28B
102
}
330
1
100
AcDbSymbolTableRecord
100
AcDbBlockTableRecord
  2
*Model_Space
340
21
  0
BLOCK_RECORD
  5
1A
102
{ACAD_XDICTIONARY
360
28D
102
}
330
1
100
AcDbSymbolTableRecord
100
AcDbBlockTableRecord
  2
*Paper_Space
340
1D
  0
BLOCK_RECORD
  5
15B0
330
1
100
AcDbSymbolTableRecord
100
AcDbBlockTableRecord
  2
_None
340
0
  0
BLOCK_RECORD
  5
9CDD
330
1
100
AcDbSymbolTableRecord
100
AcDbBlockTableRecord
  2
*D1
340
0
  0
BLOCK_RECORD
  5
9CE9
330
1
100
AcDbSymbolTableRecord
100
AcDbBlockTableRecord
  2
*D2
340
0
  0
BLOCK_RECORD
  5
A0BD
330
1
100
AcDbSymbolTableRecord
100
AcDbBlockTableRecord
  2
*D3
340
0
  0
BLOCK_RECORD
  5
A0D3
330
1
100
AcDbSymbolTableRecord
100
AcDbBlockTableRecord
  2
*D4
340
0
  0
BLOCK_RECORD
  5
B052
330
1
100
AcDbSymbolTableRecord
100
AcDbBlockTableRecord
  2
_Small
340
0
102
{BLKREFS
331
BDEB
331
BDEC
331
BDF4
331
BDF5
331
BE18
331
BE19
331
BE21
331
BE22
102
}
  0
ENDTAB
  0
ENDSEC
  0
SECTION
  2
BLOCKS
  0
BLOCK
  5
1F
330
1E
100
AcDbEntity
  8
0
100
AcDbBlockBegin
  2
*Model_Space
 70
     0
 10
0.0
 20
0.0
 30
0.0
  3
*Model_Space
  1

  0
ENDBLK
  5
20
330
1E
100
AcDbEntity
  8
0
100
AcDbBlockEnd
  0
BLOCK
  5
1B
330
1A
100
AcDbEntity
 67
     1
  8
0
100
AcDbBlockBegin
  2
*Paper_Space
 70
     0
 10
0.0
 20
0.0
 30
0.0
  3
*Paper_Space
  1

  0
ENDBLK
  5
1C
330
1A
100
AcDbEntity
 67
     1
  8
0
100
AcDbBlockEnd
  0
BLOCK
  5
15B1
330
15B0
100
AcDbEntity
  8
0
100
AcDbBlockBegin
  2
_None
 70
     0
 10
0.0
 20
0.0
 30
0.0
  3
_None
  1

  0
ENDBLK
  5
15B2
330
15B0
100
AcDbEntity
  8
0
100
AcDbBlockEnd
  0
BLOCK
  5
9CDE
330
9CDD
100
AcDbEntity
  8
0
100
AcDbBlockBegin
  2
*D1
 70
     1
 10
0.0
 20
0.0
 30
0.0
  3
*D1
  1

  0
LINE
  5
BDE8
330
9CDD
100
AcDbEntity
  8
寸法
  6
Continuous
 62
     4
440
 16777216
370
    -2
100
AcDbLine
 10
3855.523728194554
 20
352.775209460772
 30
0.0
 11
3894.755609194555
 21
352.775209460772
 31
0.0
  0
LINE
  5
BDE9
330
9CDD
100
AcDbEntity
  8
寸法
  6
Continuous
 62
     4
440
 16777216
370
    -2
100
AcDbLine
 10
3855.523728194554
 20
519.775209460772
 30
0.0
 11
3894.755609194555
 21
519.775209460772
 31
0.0
  0
LINE
  5
BDEA
330
9CDD
100
AcDbEntity
  8
寸法
  6
Continuous
 62
     4
440
 16777216
370
    -2
100
AcDbLine
 10
3894.755609194555
 20
352.775209460772
 30
0.0
 11
3894.755609194555
 21
519.775209460772
 31
0.0
  0
INSERT
  5
BDEB
330
9CDD
100
AcDbEntity
  8
寸法
  6
Continuous
 62
     4
440
 16777216
370
    -2
100
AcDbBlockReference
  2
_Small
 10
3894.755609194555
 20
352.775209460772
 30
0.0
 41
5.0
 42
5.0
 43
5.0
 50
270.0
  0
INSERT
  5
BDEC
330
9CDD
100
AcDbEntity
  8
寸法
  6
Continuous
 62
     4
440
 16777216
370
    -2
100
AcDbBlockReference
  2
_Small
 10
3894.755609194555
 20
519.775209460772
 30
0.0
 41
5.0
 42
5.0
 43
5.0
 50
90.0
  0
MTEXT
  5
BDED
330
9CDD
100
AcDbEntity
  8
寸法
  6
Continuous
 62
     3
440
 16777216
100
AcDbMText
 10
3888.505609194555
 20
436.2752094607726
 30
0.0
 40
6.5
 41
0.0
 71
     5
 72
     1
  1
\A1;h
  7
ACAD
 11
0.0000000000000001
 21
1.0
 31
0.0
 73
     1
 44
1.0
  0
POINT
  5
BDEE
330
9CDD
100
AcDbEntity
  8
Defpoints
  6
Continuous
 62
     0
440
 16777216
100
AcDbPoint
 10
3855.523728194554
 20
352.775209460772
 30
0.0
  0
POINT
  5
BDEF
330
9CDD
100
AcDbEntity
  8
Defpoints
  6
Continuous
 62
     0
440
 16777216
100
AcDbPoint
 10
3855.523728194554
 20
519.775209460772
 30
0.0
  0
POINT
  5
BDF0
330
9CDD
100
AcDbEntity
  8
Defpoints
  6
Continuous
 62
     0
440
 16777216
100
AcDbPoint
 10
3894.755609194555
 20
519.775209460772
 30
0.0
  0
ENDBLK
  5
9CDF
330
9CDD
100
AcDbEntity
  8
0
100
AcDbBlockEnd
  0
BLOCK
  5
9CEA
330
9CE9
100
AcDbEntity
  8
0
100
AcDbBlockBegin
  2
*D2
 70
     1
 10
0.0
 20
0.0
 30
0.0
  3
*D2
  1

  0
LINE
  5
BDF1
330
9CE9
100
AcDbEntity
  8
寸法
  6
Continuous
 62
     4
440
 16777216
370
    -2
100
AcDbLine
 10
3542.674925194555
 20
352.775209460772
 30
0.0
 11
3581.906806194555
 21
352.775209460772
 31
0.0
  0
LINE
  5
BDF2
330
9CE9
100
AcDbEntity
  8
寸法
  6
Continuous
 62
     4
440
 16777216
370
    -2
100
AcDbLine
 10
3542.674925194555
 20
519.775209460772
 30
0.0
 11
3581.906806194555
 21
519.775209460772
 31
0.0
  0
LINE
  5
BDF3
330
9CE9
100
AcDbEntity
  8
寸法
  6
Continuous
 62
     4
440
 16777216
370
    -2
100
AcDbLine
 10
3581.906806194555
 20
352.775209460772
 30
0.0
 11
3581.906806194555
 21
519.775209460772
 31
0.0
  0
INSERT
  5
BDF4
330
9CE9
100
AcDbEntity
  8
寸法
  6
Continuous
 62
     4
440
 16777216
370
    -2
100
AcDbBlockReference
  2
_Small
 10
3581.906806194555
 20
352.775209460772
 30
0.0
 41
5.0
 42
5.0
 43
5.0
 50
270.0
  0
INSERT
  5
BDF5
330
9CE9
100
AcDbEntity
  8
寸法
  6
Continuous
 62
     4
440
 16777216
370
    -2
100
AcDbBlockReference
  2
_Small
 10
3581.906806194555
 20
519.775209460772
 30
0.0
 41
5.0
 42
5.0
 43
5.0
 50
90.0
  0
MTEXT
  5
BDF6
330
9CE9
100
AcDbEntity
  8
寸法
  6
Continuous
 62
     3
440
 16777216
100
AcDbMText
 10
3575.656806194555
 20
436.2752094607725
 30
0.0
 40
6.5
 41
0.0
 71
     5
 72
     1
  1
\A1;h
  7
ACAD
 11
0.0000000000000001
 21
1.0
 31
0.0
 73
     1
 44
1.0
  0
POINT
  5
BDF7
330
9CE9
100
AcDbEntity
  8
Defpoints
  6
Continuous
 62
     0
440
 16777216
100
AcDbPoint
 10
3542.674925194555
 20
352.775209460772
 30
0.0
  0
POINT
  5
BDF8
330
9CE9
100
AcDbEntity
  8
Defpoints
  6
Continuous
 62
     0
440
 16777216
100
AcDbPoint
 10
3542.674925194555
 20
519.775209460772
 30
0.0
  0
POINT
  5
BDF9
330
9CE9
100
AcDbEntity
  8
Defpoints
  6
Continuous
 62
     0
440
 16777216
100
AcDbPoint
 10
3581.906806194555
 20
519.775209460772
 30
0.0
  0
ENDBLK
  5
9CEB
330
9CE9
100
AcDbEntity
  8
0
100
AcDbBlockEnd
  0
BLOCK
  5
A0BE
330
A0BD
100
AcDbEntity
  8
0
100
AcDbBlockBegin
  2
*D3
 70
     1
 10
0.0
 20
0.0
 30
0.0
  3
*D3
  1

  0
LINE
  5
BE15
330
A0BD
100
AcDbEntity
  8
寸法
  6
Continuous
 62
     4
440
 16777216
370
    -2
100
AcDbLine
 10
3737.872812715108
 20
459.7752094607719
 30
0.0
 11
3745.32264614855
 21
459.7752094607719
 31
0.0
  0
LINE
  5
BE16
330
A0BD
100
AcDbEntity
  8
寸法
  6
Continuous
 62
     4
440
 16777216
370
    -2
100
AcDbLine
 10
3737.872812715108
 20
488.7752094607719
 30
0.0
 11
3745.32264614855
 21
488.7752094607719
 31
0.0
  0
LINE
  5
BE17
330
A0BD
100
AcDbEntity
  8
寸法
  6
Continuous
 62
     4
440
 16777216
370
    -2
100
AcDbLine
 10
3745.32264614855
 20
459.7752094607719
 30
0.0
 11
3745.32264614855
 21
488.7752094607719
 31
0.0
  0
INSERT
  5
BE18
330
A0BD
100
AcDbEntity
  8
寸法
  6
Continuous
 62
     4
440
 16777216
370
    -2
100
AcDbBlockReference
  2
_Small
 10
3745.32264614855
 20
459.7752094607719
 30
0.0
 41
5.0
 42
5.0
 43
5.0
 50
270.0
  0
INSERT
  5
BE19
330
A0BD
100
AcDbEntity
  8
寸法
  6
Continuous
 62
     4
440
 16777216
370
    -2
100
AcDbBlockReference
  2
_Small
 10
3745.32264614855
 20
488.7752094607719
 30
0.0
 41
5.0
 42
5.0
 43
5.0
 50
90.0
  0
MTEXT
  5
BE1A
330
A0BD
100
AcDbEntity
  8
寸法
  6
Continuous
 62
     3
440
 16777216
100
AcDbMText
 10
3739.07264614855
 20
474.2752094607726
 30
0.0
 40
6.5
 41
0.0
 71
     5
 72
     1
  1
\A1;29
  7
ACAD
 11
0.0000000000000001
 21
1.0
 31
0.0
 73
     1
 44
1.0
  0
POINT
  5
BE1B
330
A0BD
100
AcDbEntity
  8
Defpoints
  6
Continuous
 62
     0
440
 16777216
100
AcDbPoint
 10
3737.872812715108
 20
459.7752094607719
 30
0.0
  0
POINT
  5
BE1C
330
A0BD
100
AcDbEntity
  8
Defpoints
  6
Continuous
 62
     0
440
 16777216
100
AcDbPoint
 10
3737.872812715108
 20
488.7752094607719
 30
0.0
  0
POINT
  5
BE1D
330
A0BD
100
AcDbEntity
  8
Defpoints
  6
Continuous
 62
     0
440
 16777216
100
AcDbPoint
 10
3745.32264614855
 20
488.7752094607719
 30
0.0
  0
ENDBLK
  5
A0BF
330
A0BD
100
AcDbEntity
  8
0
100
AcDbBlockEnd
  0
BLOCK
  5
A0D4
330
A0D3
100
AcDbEntity
  8
0
100
AcDbBlockBegin
  2
*D4
 70
     1
 10
0.0
 20
0.0
 30
0.0
  3
*D4
  1

  0
LINE
  5
BE1E
330
A0D3
100
AcDbEntity
  8
寸法
  6
Continuous
 62
     4
440
 16777216
370
    -2
100
AcDbLine
 10
3511.524009715109
 20
490.775209460772
 30
0.0
 11
3518.973843148552
 21
490.775209460772
 31
0.0
  0
LINE
  5
BE1F
330
A0D3
100
AcDbEntity
  8
寸法
  6
Continuous
 62
     4
440
 16777216
370
    -2
100
AcDbLine
 10
3511.524009715109
 20
519.775209460772
 30
0.0
 11
3518.973843148552
 21
519.775209460772
 31
0.0
  0
LINE
  5
BE20
330
A0D3
100
AcDbEntity
  8
寸法
  6
Continuous
 62
     4
440
 16777216
370
    -2
100
AcDbLine
 10
3518.973843148552
 20
490.775209460772
 30
0.0
 11
3518.973843148552
 21
519.775209460772
 31
0.0
  0
INSERT
  5
BE21
330
A0D3
100
AcDbEntity
  8
寸法
  6
Continuous
 62
     4
440
 16777216
370
    -2
100
AcDbBlockReference
  2
_Small
 10
3518.973843148552
 20
490.775209460772
 30
0.0
 41
5.0
 42
5.0
 43
5.0
 50
270.0
  0
INSERT
  5
BE22
330
A0D3
100
AcDbEntity
  8
寸法
  6
Continuous
 62
     4
440
 16777216
370
    -2
100
AcDbBlockReference
  2
_Small
 10
3518.973843148552
 20
519.775209460772
 30
0.0
 41
5.0
 42
5.0
 43
5.0
 50
90.0
  0
MTEXT
  5
BE23
330
A0D3
100
AcDbEntity
  8
寸法
  6
Continuous
 62
     3
440
 16777216
100
AcDbMText
 10
3512.723843148552
 20
505.2752094607725
 30
0.0
 40
6.5
 41
0.0
 71
     5
 72
     1
  1
\A1;29
  7
ACAD
 11
0.0000000000000001
 21
1.0
 31
0.0
 73
     1
 44
1.0
  0
POINT
  5
BE24
330
A0D3
100
AcDbEntity
  8
Defpoints
  6
Continuous
 62
     0
440
 16777216
100
AcDbPoint
 10
3511.524009715109
 20
490.775209460772
 30
0.0
  0
POINT
  5
BE25
330
A0D3
100
AcDbEntity
  8
Defpoints
  6
Continuous
 62
     0
440
 16777216
100
AcDbPoint
 10
3511.524009715109
 20
519.775209460772
 30
0.0
  0
POINT
  5
BE26
330
A0D3
100
AcDbEntity
  8
Defpoints
  6
Continuous
 62
     0
440
 16777216
100
AcDbPoint
 10
3518.973843148552
 20
519.775209460772
 30
0.0
  0
ENDBLK
  5
A0D5
330
A0D3
100
AcDbEntity
  8
0
100
AcDbBlockEnd
  0
BLOCK
  5
B054
330
B052
100
AcDbEntity
  8
0
100
AcDbBlockBegin
  2
_Small
 70
     0
 10
0.0
 20
0.0
 30
0.0
  3
_Small
  1

  0
CIRCLE
  5
B053
330
B052
100
AcDbEntity
  8
0
  6
ByBlock
 62
     0
370
    -2
100
AcDbCircle
 10
0.0
 20
0.0
 30
0.0
 40
0.25
  0
ENDBLK
  5
B055
330
B052
100
AcDbEntity
  8
0
100
AcDbBlockEnd
  0
ENDSEC
  0
SECTION
  2
ENTITIES
  0
POINT
  5
96A0
330
1E
100
AcDbEntity
  8
躯体と製品
  6
Continuous
 62
     4
100
AcDbPoint
 10
3415.674925194554
 20
457.775209460772
 30
0.0
  0
POINT
  5
96A1
330
1E
100
AcDbEntity
  8
躯体と製品
  6
Continuous
 62
     4
100
AcDbPoint
 10
3415.674925194554
 20
457.775209460772
 30
0.0
  0
TEXT
  5
96BA
330
1E
100
AcDbEntity
  8
文字-記号
  6
Continuous
 62
     7
100
AcDbText
 10
3766.384471194554
 20
510.6282974607719
 30
0.0
 40
6.5
  1
根太鋼
 41
1.007498246740355
100
AcDbText
  0
TEXT
  5
9752
330
1E
100
AcDbEntity
  8
文字-記号
  6
Continuous
 62
     7
100
AcDbText
 10
3780.463474194553
 20
442.8246484607718
 30
0.0
 40
6.5
  1
大引鋼
 41
0.9965916181297359
100
AcDbText
  0
TEXT
  5
9755
330
1E
100
AcDbEntity
  8
文字-記号
  6
Continuous
 62
     7
100
AcDbText
 10
3367.741666194554
 20
477.1428874607719
 30
0.0
 40
6.5
  1
大引鋼
 41
0.9965916181297359
100
AcDbText
  0
TEXT
  5
975A
330
1E
100
AcDbEntity
  8
文字-記号
  6
Continuous
 62
     7
100
AcDbText
 10
3491.042085194554
 20
473.8246484607718
 30
0.0
 40
6.5
  1
根太鋼
 41
1.007498246740355
100
AcDbText
  0
TEXT
  5
975B
330
1E
100
AcDbEntity
  8
文字-記号
  6
Continuous
 62
     7
100
AcDbText
 10
3679.048762194553
 20
415.9230224607719
 30
0.0
 40
6.5
  1
調整ボルト Ｍ１２
 41
0.9837445587017262
100
AcDbText
  0
TEXT
  5
9772
330
1E
100
AcDbEntity
  8
文字-記号
  6
Continuous
 62
     7
100
AcDbText
 10
3699.682523194553
 20
429.8246484607719
 30
0.0
 40
6.5
  1
受けプレ－ト
 41
0.9621656191870224
100
AcDbText
  0
TEXT
  5
9775
330
1E
100
AcDbEntity
  8
文字-記号
  6
Continuous
 62
     7
100
AcDbText
 10
3453.833720194553
 20
429.8246484607719
 30
0.0
 40
6.5
  1
受けプレ－ト
 41
0.9621656191870224
100
AcDbText
  0
TEXT
  5
97DC
330
1E
100
AcDbEntity
  8
文字-記号
  6
Continuous
 62
     7
100
AcDbText
 10
3335.395738918268
 20
435.2674646209203
 30
0.0
 40
6.5
  1
調整ボルト Ｍ１２
 41
0.9837445587017262
100
AcDbText
  0
LWPOLYLINE
  5
9A78
330
1E
100
AcDbEntity
  8
中心線
  6
CENTER1
100
AcDbPolyline
 90
        2
 70
     0
 43
0.0
 10
3661.523728194553
 20
348.6431122332963
 10
3661.523728194553
 20
469.7699138342509
  0
LWPOLYLINE
  5
9A7D
330
1E
100
AcDbEntity
  8
中心線
  6
CENTER1
100
AcDbPolyline
 90
        2
 70
     0
 43
0.0
 10
3415.674925194554
 20
348.6431122332963
 10
3415.674925194554
 20
501.5069959382694
  0
DIMENSION
  5
9A81
330
1E
100
AcDbEntity
  8
寸法
  6
Continuous
100
AcDbDimension
  2
*D1
 10
3894.755609194555
 20
519.775209460772
 30
0.0
 11
3888.505609194555
 21
436.2752094607726
 31
0.0
 70
    32
  1
h
 71
     5
 42
167.0
  3
AutoCAD
100
AcDbAlignedDimension
 13
3855.523728194554
 23
352.775209460772
 33
0.0
 14
3855.523728194554
 24
519.775209460772
 34
0.0
 50
90.0
100
AcDbRotatedDimension
  0
DIMENSION
  5
9A82
330
1E
100
AcDbEntity
  8
寸法
  6
Continuous
100
AcDbDimension
  2
*D2
 10
3581.906806194555
 20
519.775209460772
 30
0.0
 11
3575.656806194555
 21
436.2752094607725
 31
0.0
 70
    32
  1
h
 71
     5
 42
167.0
  3
AutoCAD
100
AcDbAlignedDimension
 13
3542.674925194555
 23
352.775209460772
 33
0.0
 14
3542.674925194555
 24
519.775209460772
 34
0.0
 50
90.0
100
AcDbRotatedDimension
  0
LWPOLYLINE
  5
9B7A
330
1E
100
AcDbEntity
  8
躯体と製品
  6
Continuous
 62
     4
100
AcDbPolyline
 90
        2
 70
     0
 43
0.0
 10
3405.287031994634
 20
444.1731778454607
 10
3405.287031994634
 20
446.7752094607719
  0
LWPOLYLINE
  5
9B7B
330
1E
100
AcDbEntity
  8
躯体と製品
  6
Continuous
 62
     4
100
AcDbPolyline
 90
        2
 70
     0
 43
0.0
 10
3426.062818394476
 20
444.1731778454609
 10
3426.062818394476
 20
446.7752094607719
  0
LWPOLYLINE
  5
9B7C
330
1E
100
AcDbEntity
  8
躯体と製品
  6
Continuous
 62
     4
100
AcDbPolyline
 90
        2
 70
     0
 43
0.0
 10
3420.868871794515
 20
446.7752094607719
 10
3420.868871794517
 20
444.1731778454582
  0
LWPOLYLINE
  5
9B7D
330
1E
100
AcDbEntity
  8
躯体と製品
  6
Continuous
 62
     4
100
AcDbPolyline
 90
        2
 70
     0
 43
0.0
 10
3410.48097859459
 20
446.7752094607719
 10
3410.480978594593
 20
444.1731778454625
  0
LWPOLYLINE
  5
9B80
330
1E
100
AcDbEntity
  8
躯体と製品
  6
Continuous
 62
     4
100
AcDbPolyline
 90
        2
 70
     0
 43
0.0
 10
3410.480988768448
 20
433.1731744607719
 10
3407.884015468468
 20
433.1731744607719
  0
LWPOLYLINE
  5
9B83
330
1E
100
AcDbEntity
  8
躯体と製品
  6
Continuous
 62
     4
100
AcDbPolyline
 90
        2
 70
     0
 43
0.0
 10
3405.287042168488
 20
434.1731744607718
 10
3405.287042168488
 20
439.1731744607721
  0
LWPOLYLINE
  5
9B84
330
1E
100
AcDbEntity
  8
躯体と製品
  6
Continuous
 62
     4
100
AcDbPolyline
 90
        2
 70
     0
 43
0.0
 10
3426.06282856833
 20
434.173174460772
 10
3426.06282856833
 20
439.1731744607718
  0
LWPOLYLINE
  5
9B85
330
1E
100
AcDbEntity
  8
躯体と製品
  6
Continuous
 62
     4
100
AcDbPolyline
 90
        2
 70
     0
 43
0.0
 10
3420.868881968368
 20
439.1731744607725
 10
3420.868881968372
 20
434.1731744607693
  0
LWPOLYLINE
  5
9B86
330
1E
100
AcDbEntity
  8
躯体と製品
  6
Continuous
 62
     4
100
AcDbPolyline
 90
        2
 70
     0
 43
0.0
 10
3410.480988768444
 20
439.17317446077
 10
3410.480988768448
 20
434.1731744607736
  0
LWPOLYLINE
  5
9C61
330
1E
100
AcDbEntity
  8
躯体と製品
  6
Continuous
 62
     4
100
AcDbPolyline
 90
        2
 70
     0
 43
0.0
 10
3439.374925194555
 20
462.0242094607768
 10
3439.374925194555
 20
461.5752094607834
  0
LWPOLYLINE
  5
9C62
330
1E
100
AcDbEntity
  8
躯体と製品
  6
Continuous
 62
     4
100
AcDbPolyline
 90
        2
 70
     0
 43
0.0
 10
3447.374925194554
 20
462.0242094607768
 10
3447.374925194554
 20
461.5752094607834
  0
LWPOLYLINE
  5
9C63
330
1E
100
AcDbEntity
  8
躯体と製品
  6
Continuous
 62
     4
100
AcDbPolyline
 90
        2
 70
     0
 43
0.0
 10
3439.574925194537
 20
461.3752094607718
 10
3443.374925194554
 20
461.3752094607718
  0
LWPOLYLINE
  5
9C64
330
1E
100
AcDbEntity
  8
躯体と製品
  6
Continuous
 62
     4
100
AcDbPolyline
 90
        2
 70
     0
 43
0.0
 10
3447.374925194554
 20
461.5752094398287
 42
-0.41421351636737
 10
3447.174925205021
 20
461.3752094607718
  0
LWPOLYLINE
  5
9C65
330
1E
100
AcDbEntity
  8
躯体と製品
  6
Continuous
 62
     4
100
AcDbPolyline
 90
        2
 70
     0
 43
0.0
 10
3447.174925194543
 20
461.3752094607718
 10
3443.374925194554
 20
461.3752094607718
  0
LWPOLYLINE
  5
9C66
330
1E
100
AcDbEntity
  8
躯体と製品
  6
Continuous
 62
     4
100
AcDbPolyline
 90
        2
 70
     0
 43
0.0
 10
3439.574925205015
 20
461.3752094607718
 42
-0.4142135777083371
 10
3439.374925194525
 20
461.5752094607834
  0
LWPOLYLINE
  5
9C67
330
1E
100
AcDbEntity
  8
躯体と製品
  6
Continuous
 62
     4
100
AcDbPolyline
 90
        2
 70
     0
 43
0.0
 10
3439.60992519454
 20
463.1752094607893
 10
3443.374925194554
 20
463.1752094607893
  0
LWPOLYLINE
  5
9C68
330
1E
100
AcDbEntity
  8
躯体と製品
  6
Continuous
 62
     4
100
AcDbPolyline
 90
        2
 70
     0
 43
0.0
 10
3439.610376065378
 20
463.1747070009971
 42
-0.2144073790574085
 10
3443.3749090279
 20
464.3750659421296
  0
LWPOLYLINE
  5
9C69
330
1E
100
AcDbEntity
  8
躯体と製品
  6
Continuous
 62
     4
100
AcDbPolyline
 90
        2
 70
     0
 43
0.0
 10
3447.13992519454
 20
463.1752094607893
 10
3447.374925194554
 20
462.0242094607768
  0
LWPOLYLINE
  5
9C6A
330
1E
100
AcDbEntity
  8
躯体と製品
  6
Continuous
 62
     4
100
AcDbPolyline
 90
        2
 70
     0
 43
0.0
 10
3443.374941779139
 20
464.375065989889
 42
-0.2144073836089342
 10
3447.139474699346
 20
463.1747066641493
  0
LWPOLYLINE
  5
9C6B
330
1E
100
AcDbEntity
  8
躯体と製品
  6
Continuous
 62
     4
100
AcDbPolyline
 90
        2
 70
     0
 43
0.0
 10
3447.13992519454
 20
463.1752094607893
 10
3443.374925194554
 20
463.1752094607893
  0
LWPOLYLINE
  5
9C6C
330
1E
100
AcDbEntity
  8
躯体と製品
  6
Continuous
 62
     4
100
AcDbPolyline
 90
        2
 70
     0
 43
0.0
 10
3439.60992519454
 20
463.1752094607893
 10
3439.374925194555
 20
462.0242094607768
  0
LWPOLYLINE
  5
9C6E
330
1E
100
AcDbEntity
  8
躯体と製品
  6
Continuous
 62
     4
100
AcDbPolyline
 90
        2
 70
     0
 43
0.0
 10
3383.974925194554
 20
462.0242094607768
 10
3383.974925194554
 20
461.5752094607834
  0
LWPOLYLINE
  5
9C6F
330
1E
100
AcDbEntity
  8
躯体と製品
  6
Continuous
 62
     4
100
AcDbPolyline
 90
        2
 70
     0
 43
0.0
 10
3391.974925194554
 20
462.0242094607768
 10
3391.974925194554
 20
461.5752094607834
  0
LWPOLYLINE
  5
9C70
330
1E
100
AcDbEntity
  8
躯体と製品
  6
Continuous
 62
     4
100
AcDbPolyline
 90
        2
 70
     0
 43
0.0
 10
3384.174925194536
 20
461.3752094607718
 10
3387.974925194554
 20
461.3752094607718
  0
LWPOLYLINE
  5
9C71
330
1E
100
AcDbEntity
  8
躯体と製品
  6
Continuous
 62
     4
100
AcDbPolyline
 90
        2
 70
     0
 43
0.0
 10
3391.974925194554
 20
461.5752094398287
 42
-0.41421351636737
 10
3391.774925205019
 20
461.3752094607718
  0
LWPOLYLINE
  5
9C72
330
1E
100
AcDbEntity
  8
躯体と製品
  6
Continuous
 62
     4
100
AcDbPolyline
 90
        2
 70
     0
 43
0.0
 10
3391.774925194543
 20
461.3752094607718
 10
3387.974925194554
 20
461.3752094607718
  0
LWPOLYLINE
  5
9C73
330
1E
100
AcDbEntity
  8
躯体と製品
  6
Continuous
 62
     4
100
AcDbPolyline
 90
        2
 70
     0
 43
0.0
 10
3384.174925205014
 20
461.3752094607718
 42
-0.4142135777083371
 10
3383.974925194524
 20
461.5752094607834
  0
LWPOLYLINE
  5
9C74
330
1E
100
AcDbEntity
  8
躯体と製品
  6
Continuous
 62
     4
100
AcDbPolyline
 90
        2
 70
     0
 43
0.0
 10
3384.20992519454
 20
463.1752094607893
 10
3387.974925194554
 20
463.1752094607893
  0
LWPOLYLINE
  5
9C75
330
1E
100
AcDbEntity
  8
躯体と製品
  6
Continuous
 62
     4
100
AcDbPolyline
 90
        2
 70
     0
 43
0.0
 10
3384.210376065377
 20
463.1747070009971
 42
-0.2144073790574085
 10
3387.9749090279
 20
464.3750659421296
  0
LWPOLYLINE
  5
9C76
330
1E
100
AcDbEntity
  8
躯体と製品
  6
Continuous
 62
     4
100
AcDbPolyline
 90
        2
 70
     0
 43
0.0
 10
3391.739925194539
 20
463.1752094607893
 10
3391.974925194554
 20
462.0242094607768
  0
LWPOLYLINE
  5
9C77
330
1E
100
AcDbEntity
  8
躯体と製品
  6
Continuous
 62
     4
100
AcDbPolyline
 90
        2
 70
     0
 43
0.0
 10
3387.974941779139
 20
464.375065989889
 42
-0.2144073836089342
 10
3391.739474699345
 20
463.1747066641493
  0
LWPOLYLINE
  5
9C78
330
1E
100
AcDbEntity
  8
躯体と製品
  6
Continuous
 62
     4
100
AcDbPolyline
 90
        2
 70
     0
 43
0.0
 10
3391.739925194539
 20
463.1752094607893
 10
3387.974925194554
 20
463.1752094607893
  0
LWPOLYLINE
  5
9C79
330
1E
100
AcDbEntity
  8
躯体と製品
  6
Continuous
 62
     4
100
AcDbPolyline
 90
        2
 70
     0
 43
0.0
 10
3384.20992519454
 20
463.1752094607893
 10
3383.974925194554
 20
462.0242094607768
  0
LWPOLYLINE
  5
9EEE
330
1E
100
AcDbEntity
  8
躯体と製品
  6
Continuous
 62
     4
100
AcDbPolyline
 90
        2
 70
     0
 43
0.0
 10
3410.480978594594
 20
414.7752164607721
 10
3407.884005294614
 20
414.7752164607721
  0
LWPOLYLINE
  5
9EF1
330
1E
100
AcDbEntity
  8
躯体と製品
  6
Continuous
 62
     4
100
AcDbPolyline
 90
        2
 70
     0
 43
0.0
 10
3405.287031994634
 20
413.7752164607721
 10
3405.287031994634
 20
408.7752164607719
  0
LWPOLYLINE
  5
9EF2
330
1E
100
AcDbEntity
  8
躯体と製品
  6
Continuous
 62
     4
100
AcDbPolyline
 90
        2
 70
     0
 43
0.0
 10
3426.062818394476
 20
413.7752164607719
 10
3426.062818394476
 20
408.7752164607722
  0
LWPOLYLINE
  5
9EF3
330
1E
100
AcDbEntity
  8
躯体と製品
  6
Continuous
 62
     4
100
AcDbPolyline
 90
        2
 70
     0
 43
0.0
 10
3420.868871794513
 20
408.7752164607715
 10
3420.868871794517
 20
413.7752164607746
  0
LWPOLYLINE
  5
9EF4
330
1E
100
AcDbEntity
  8
躯体と製品
  6
Continuous
 62
     4
100
AcDbPolyline
 90
        2
 70
     0
 43
0.0
 10
3410.480978594589
 20
408.7752164607739
 10
3410.480978594593
 20
413.7752164607703
  0
LWPOLYLINE
  5
9F00
330
1E
100
AcDbEntity
  8
躯体と製品
  6
Continuous
 62
     4
100
AcDbPolyline
 90
        2
 70
     0
 43
0.0
 10
3410.480978594594
 20
395.4752102237114
 10
3407.884005294614
 20
395.4752102237114
  0
LWPOLYLINE
  5
9F03
330
1E
100
AcDbEntity
  8
躯体と製品
  6
Continuous
 62
     4
100
AcDbPolyline
 90
        2
 70
     0
 43
0.0
 10
3405.287031994634
 20
396.4752102237114
 10
3405.287031994634
 20
401.4752102237116
  0
LWPOLYLINE
  5
9F04
330
1E
100
AcDbEntity
  8
躯体と製品
  6
Continuous
 62
     4
100
AcDbPolyline
 90
        2
 70
     0
 43
0.0
 10
3426.062818394476
 20
396.4752102237117
 10
3426.062818394476
 20
401.4752102237114
  0
LWPOLYLINE
  5
9F08
330
1E
100
AcDbEntity
  8
躯体と製品
  6
Continuous
 62
     4
100
AcDbPolyline
 90
        2
 70
     0
 43
0.0
 10
3420.868871794513
 20
396.475210223711
 10
3420.868871794517
 20
401.4752102237141
  0
LWPOLYLINE
  5
9F09
330
1E
100
AcDbEntity
  8
躯体と製品
  6
Continuous
 62
     4
100
AcDbPolyline
 90
        2
 70
     0
 43
0.0
 10
3410.480978594589
 20
396.4752102237135
 10
3410.480978594593
 20
401.4752102237098
  0
LWPOLYLINE
  5
9FAE
330
1E
100
AcDbEntity
  8
躯体と製品
  6
Continuous
 62
     4
100
AcDbPolyline
 90
        2
 70
     0
 43
0.0
 10
3661.523728194552
 20
439.175593355027
 10
3661.523728194552
 20
434.1731988454649
  0
LWPOLYLINE
  5
9FAF
330
1E
100
AcDbEntity
  8
躯体と製品
  6
Continuous
 62
     4
100
AcDbPolyline
 90
        2
 70
     0
 43
0.0
 10
3670.519907597484
 20
434.1731988454646
 10
3670.51990759749
 20
439.1731952301502
  0
LWPOLYLINE
  5
9FB0
330
1E
100
AcDbEntity
  8
躯体と製品
  6
Continuous
 62
     4
100
AcDbPolyline
 90
        2
 70
     0
 43
0.0
 10
3652.527548791621
 20
434.173198845465
 10
3652.527548791627
 20
439.1731952301502
  0
LWPOLYLINE
  5
9FB1
330
1E
100
AcDbEntity
  8
躯体と製品
  6
Continuous
 62
     4
100
AcDbPolyline
 90
        2
 70
     0
 43
0.0
 10
3657.025638493088
 20
433.173198845463
 10
3666.021817896019
 20
433.173198845463
  0
LWPOLYLINE
  5
9FB6
330
1E
100
AcDbEntity
  8
躯体と製品
  6
Continuous
 62
     4
100
AcDbPolyline
 90
        2
 70
     0
 43
0.0
 10
3661.523728194553
 20
446.7752094607719
 10
3661.523728194552
 20
444.1731778454627
  0
LWPOLYLINE
  5
9FB7
330
1E
100
AcDbEntity
  8
躯体と製品
  6
Continuous
 62
     4
100
AcDbPolyline
 90
        2
 70
     0
 43
0.0
 10
3670.519907597484
 20
444.1731778454625
 10
3670.519907597487
 20
446.7752094607719
  0
LWPOLYLINE
  5
9FB8
330
1E
100
AcDbEntity
  8
躯体と製品
  6
Continuous
 62
     4
100
AcDbPolyline
 90
        2
 70
     0
 43
0.0
 10
3652.527548791621
 20
444.173177845463
 10
3652.527548791624
 20
446.7752094607719
  0
LWPOLYLINE
  5
9FBB
330
1E
100
AcDbEntity
  8
躯体と製品
  6
Continuous
 62
     4
100
AcDbPolyline
 90
        2
 70
     0
 43
0.0
 10
3661.523728194552
 20
408.7727939512056
 10
3661.523728194552
 20
413.7751884607679
  0
LWPOLYLINE
  5
9FBC
330
1E
100
AcDbEntity
  8
躯体と製品
  6
Continuous
 62
     4
100
AcDbPolyline
 90
        2
 70
     0
 43
0.0
 10
3670.519907597484
 20
413.7751884607681
 10
3670.51990759749
 20
408.7751920760825
  0
LWPOLYLINE
  5
9FBD
330
1E
100
AcDbEntity
  8
躯体と製品
  6
Continuous
 62
     4
100
AcDbPolyline
 90
        2
 70
     0
 43
0.0
 10
3652.527548791621
 20
413.7751884607677
 10
3652.527548791627
 20
408.7751920760825
  0
LWPOLYLINE
  5
9FBE
330
1E
100
AcDbEntity
  8
躯体と製品
  6
Continuous
 62
     4
100
AcDbPolyline
 90
        2
 70
     0
 43
0.0
 10
3657.025638493088
 20
414.7751884607697
 10
3666.021817896019
 20
414.7751884607697
  0
DIMENSION
  5
A0BC
330
1E
100
AcDbEntity
  8
寸法
  6
Continuous
100
AcDbDimension
  2
*D3
 10
3745.32264614855
 20
488.7752094607719
 30
0.0
 11
3739.07264614855
 21
474.2752094607726
 31
0.0
 70
    32
 71
     5
 42
29.0
  3
AutoCAD
100
AcDbAlignedDimension
 13
3737.872812715108
 23
459.7752094607719
 33
0.0
 14
3737.872812715108
 24
488.7752094607719
 34
0.0
 50
90.0
100
AcDbRotatedDimension
  0
DIMENSION
  5
A0D2
330
1E
100
AcDbEntity
  8
寸法
  6
Continuous
100
AcDbDimension
  2
*D4
 10
3518.973843148552
 20
519.775209460772
 30
0.0
 11
3512.723843148552
 21
505.2752094607725
 31
0.0
 70
    32
 71
     5
 42
29.0
  3
AutoCAD
100
AcDbAlignedDimension
 13
3511.524009715109
 23
490.775209460772
 33
0.0
 14
3511.524009715109
 24
519.775209460772
 34
0.0
 50
90.0
100
AcDbRotatedDimension
  0
LWPOLYLINE
  5
A497
330
1E
100
AcDbEntity
  8
躯体と製品
  6
Continuous
 62
     4
100
AcDbPolyline
 90
       13
 70
     0
 43
0.0
 10
3777.523728194554
 20
488.7752094607719
 10
3845.523728194553
 20
488.7752094607719
 10
3845.523728194553
 20
495.775209460772
 10
3840.523728194553
 20
495.775209460772
 10
3840.523728194553
 20
493.7752094607719
 10
3843.523728194553
 20
493.7752094607719
 10
3843.523728194553
 20
490.775209460772
 10
3779.523728194553
 20
490.775209460772
 10
3779.523728194553
 20
493.7752094607719
 10
3782.523728194553
 20
493.7752094607719
 10
3782.523728194553
 20
495.775209460772
 10
3777.523728194554
 20
495.775209460772
 10
3777.523728194554
 20
488.7752094607719
  0
LWPOLYLINE
  5
A498
330
1E
100
AcDbEntity
  8
躯体と製品
  6
Continuous
 62
     4
100
AcDbPolyline
 90
       28
 70
     1
 43
0.0
 10
3827.323728194553
 20
519.7752094607717
 42
-0.4142135623730951
 10
3829.023728194554
 20
518.0752094607717
 10
3829.023728194554
 20
492.4752094607717
 42
0.4142135623730951
 10
3829.523728194553
 20
491.9752094607718
 10
3841.823728194554
 20
491.9752094607718
 42
0.4142135623730951
 10
3842.323728194554
 20
492.4752094607717
 10
3842.323728194554
 20
493.7752094607719
 10
3843.523728194553
 20
493.7752094607719
 10
3843.523728194553
 20
492.4752094607717
 42
-0.4142135623730951
 10
3841.823728194554
 20
490.775209460772
 10
3829.523728194553
 20
490.775209460772
 42
-0.4142135623730951
 10
3827.823728194554
 20
492.4752094607717
 10
3827.823728194554
 20
518.0752094607717
 42
0.4142135623730951
 10
3827.323728194553
 20
518.5752094607717
 10
3795.723728194554
 20
518.5752094607717
 42
0.4142135623730951
 10
3795.223728194554
 20
518.0752094607717
 10
3795.223728194554
 20
492.4752094607717
 42
-0.4142135623730951
 10
3793.523728194553
 20
490.775209460772
 10
3781.223728194554
 20
490.775209460772
 42
-0.4142135623730951
 10
3779.523728194553
 20
492.4752094607717
 10
3779.523728194553
 20
493.7752094607719
 10
3780.723728194554
 20
493.7752094607719
 10
3780.723728194554
 20
492.4752094607717
 42
0.4142135623730951
 10
3781.223728194554
 20
491.9752094607718
 10
3793.523728194553
 20
491.9752094607718
 42
0.4142135623730951
 10
3794.023728194554
 20
492.4752094607717
 10
3794.023728194554
 20
518.0752094607717
 42
-0.4142135623730951
 10
3795.723728194554
 20
519.7752094607717
  0
LWPOLYLINE
  5
A499
330
1E
100
AcDbEntity
  8
躯体と製品
  6
Continuous
 62
     4
100
AcDbPolyline
 90
        2
 70
     0
 43
0.0
 10
3790.724728194536
 20
492.6242094607767
 10
3790.724728194536
 20
492.1752094607834
  0
LWPOLYLINE
  5
A49A
330
1E
100
AcDbEntity
  8
躯体と製品
  6
Continuous
 62
     4
100
AcDbPolyline
 90
        2
 70
     0
 43
0.0
 10
3782.724728194536
 20
492.6242094607767
 10
3782.724728194536
 20
492.1752094607834
  0
LWPOLYLINE
  5
A49B
330
1E
100
AcDbEntity
  8
躯体と製品
  6
Continuous
 62
     4
100
AcDbPolyline
 90
        2
 70
     0
 43
0.0
 10
3790.524728194553
 20
491.9752094607718
 10
3786.724728194536
 20
491.9752094607718
  0
LWPOLYLINE
  5
A49C
330
1E
100
AcDbEntity
  8
躯体と製品
  6
Continuous
 62
     4
100
AcDbPolyline
 90
        2
 70
     0
 43
0.0
 10
3782.724728194536
 20
492.1752094398287
 42
0.41421351636737
 10
3782.92472818407
 20
491.9752094607718
  0
LWPOLYLINE
  5
A49D
330
1E
100
AcDbEntity
  8
躯体と製品
  6
Continuous
 62
     4
100
AcDbPolyline
 90
        2
 70
     0
 43
0.0
 10
3782.924728194548
 20
491.9752094607718
 10
3786.724728194536
 20
491.9752094607718
  0
LWPOLYLINE
  5
A49E
330
1E
100
AcDbEntity
  8
躯体と製品
  6
Continuous
 62
     4
100
AcDbPolyline
 90
        2
 70
     0
 43
0.0
 10
3790.524728184077
 20
491.9752094607718
 42
0.4142135777083371
 10
3790.724728194565
 20
492.1752094607834
  0
LWPOLYLINE
  5
A49F
330
1E
100
AcDbEntity
  8
躯体と製品
  6
Continuous
 62
     4
100
AcDbPolyline
 90
        2
 70
     0
 43
0.0
 10
3790.48972819455
 20
493.7752094607892
 10
3786.724728194536
 20
493.7752094607892
  0
LWPOLYLINE
  5
A4A0
330
1E
100
AcDbEntity
  8
躯体と製品
  6
Continuous
 62
     4
100
AcDbPolyline
 90
        2
 70
     0
 43
0.0
 10
3790.489277323713
 20
493.7747070009971
 42
0.2144073790574085
 10
3786.72474436119
 20
494.9750659421295
  0
LWPOLYLINE
  5
A4A1
330
1E
100
AcDbEntity
  8
躯体と製品
  6
Continuous
 62
     4
100
AcDbPolyline
 90
        2
 70
     0
 43
0.0
 10
3782.959728194551
 20
493.7752094607892
 10
3782.724728194536
 20
492.6242094607767
  0
LWPOLYLINE
  5
A4A2
330
1E
100
AcDbEntity
  8
躯体と製品
  6
Continuous
 62
     4
100
AcDbPolyline
 90
        2
 70
     0
 43
0.0
 10
3786.724711609951
 20
494.9750659898889
 42
0.2144073836089342
 10
3782.960178689745
 20
493.7747066641493
  0
LWPOLYLINE
  5
A4A3
330
1E
100
AcDbEntity
  8
躯体と製品
  6
Continuous
 62
     4
100
AcDbPolyline
 90
        2
 70
     0
 43
0.0
 10
3782.959728194551
 20
493.7752094607892
 10
3786.724728194536
 20
493.7752094607892
  0
LWPOLYLINE
  5
A4A4
330
1E
100
AcDbEntity
  8
躯体と製品
  6
Continuous
 62
     4
100
AcDbPolyline
 90
        2
 70
     0
 43
0.0
 10
3790.48972819455
 20
493.7752094607892
 10
3790.724728194536
 20
492.6242094607767
  0
LWPOLYLINE
  5
A4A5
330
1E
100
AcDbEntity
  8
躯体と製品
  6
Continuous
 62
     4
100
AcDbPolyline
 90
        2
 70
     0
 43
0.0
 10
3840.324728194542
 20
492.6242094607767
 10
3840.324728194542
 20
492.1752094607834
  0
LWPOLYLINE
  5
A4A6
330
1E
100
AcDbEntity
  8
躯体と製品
  6
Continuous
 62
     4
100
AcDbPolyline
 90
        2
 70
     0
 43
0.0
 10
3832.324728194542
 20
492.6242094607767
 10
3832.324728194542
 20
492.1752094607834
  0
LWPOLYLINE
  5
A4A7
330
1E
100
AcDbEntity
  8
躯体と製品
  6
Continuous
 62
     4
100
AcDbPolyline
 90
        2
 70
     0
 43
0.0
 10
3840.12472819453
 20
491.9752094607718
 10
3836.324728194542
 20
491.9752094607718
  0
LWPOLYLINE
  5
A4A8
330
1E
100
AcDbEntity
  8
躯体と製品
  6
Continuous
 62
     4
100
AcDbPolyline
 90
        2
 70
     0
 43
0.0
 10
3832.324728194542
 20
492.1752094398287
 42
0.41421351636737
 10
3832.524728184076
 20
491.9752094607718
  0
LWPOLYLINE
  5
A4A9
330
1E
100
AcDbEntity
  8
躯体と製品
  6
Continuous
 62
     4
100
AcDbPolyline
 90
        2
 70
     0
 43
0.0
 10
3832.524728194554
 20
491.9752094607718
 10
3836.324728194542
 20
491.9752094607718
  0
LWPOLYLINE
  5
A4AA
330
1E
100
AcDbEntity
  8
躯体と製品
  6
Continuous
 62
     4
100
AcDbPolyline
 90
        2
 70
     0
 43
0.0
 10
3840.124728184053
 20
491.9752094607718
 42
0.4142135777083371
 10
3840.324728194542
 20
492.1752094607834
  0
LWPOLYLINE
  5
A4AB
330
1E
100
AcDbEntity
  8
躯体と製品
  6
Continuous
 62
     4
100
AcDbPolyline
 90
        2
 70
     0
 43
0.0
 10
3840.089728194556
 20
493.7752094607892
 10
3836.324728194542
 20
493.7752094607892
  0
LWPOLYLINE
  5
A4AC
330
1E
100
AcDbEntity
  8
躯体と製品
  6
Continuous
 62
     4
100
AcDbPolyline
 90
        2
 70
     0
 43
0.0
 10
3840.089277323719
 20
493.7747070009971
 42
0.2144073790574085
 10
3836.324744361196
 20
494.9750659421295
  0
LWPOLYLINE
  5
A4AD
330
1E
100
AcDbEntity
  8
躯体と製品
  6
Continuous
 62
     4
100
AcDbPolyline
 90
        2
 70
     0
 43
0.0
 10
3832.559728194528
 20
493.7752094607892
 10
3832.324728194542
 20
492.6242094607767
  0
LWPOLYLINE
  5
A4AE
330
1E
100
AcDbEntity
  8
躯体と製品
  6
Continuous
 62
     4
100
AcDbPolyline
 90
        2
 70
     0
 43
0.0
 10
3836.324711609928
 20
494.9750659898889
 42
0.2144073836089342
 10
3832.560178689722
 20
493.7747066641493
  0
LWPOLYLINE
  5
A4AF
330
1E
100
AcDbEntity
  8
躯体と製品
  6
Continuous
 62
     4
100
AcDbPolyline
 90
        2
 70
     0
 43
0.0
 10
3832.559728194528
 20
493.7752094607892
 10
3836.324728194542
 20
493.7752094607892
  0
LWPOLYLINE
  5
A4B0
330
1E
100
AcDbEntity
  8
躯体と製品
  6
Continuous
 62
     4
100
AcDbPolyline
 90
        2
 70
     0
 43
0.0
 10
3840.089728194556
 20
493.7752094607892
 10
3840.324728194542
 20
492.6242094607767
  0
LWPOLYLINE
  5
A5FE
330
1E
100
AcDbEntity
  8
文字-記号
  6
Continuous
 62
     7
100
AcDbPolyline
 90
        3
 70
     0
 43
0.0
 10
3667.523728194553
 20
428.7637124607719
 10
3676.411897194554
 20
413.3689524607718
 10
3744.176817329945
 20
413.3689524607718
  0
LWPOLYLINE
  5
A600
330
1E
100
AcDbEntity
  8
文字-記号
  6
Continuous
 62
     7
100
AcDbPolyline
 90
        3
 70
     0
 43
0.0
 10
3409.674925194554
 20
417.3186346209202
 10
3400.786756194552
 20
432.7133946209203
 10
3334.251025918268
 20
432.7133946209203
  0
LWPOLYLINE
  5
A602
330
1E
100
AcDbEntity
  8
文字-記号
  6
Continuous
 62
     7
100
AcDbPolyline
 90
        3
 70
     0
 43
0.0
 10
3440.393974194554
 20
446.7752094607719
 10
3451.559926194554
 20
427.4352134607719
 10
3497.317822426635
 20
427.4352134607719
  0
LWPOLYLINE
  5
A604
330
1E
100
AcDbEntity
  8
文字-記号
  6
Continuous
 62
     7
100
AcDbPolyline
 90
        3
 70
     0
 43
0.0
 10
3686.242777194554
 20
446.7752094607719
 10
3697.408729194554
 20
427.4352134607719
 10
3742.431342902577
 20
427.4352134607719
  0
LWPOLYLINE
  5
A612
330
1E
100
AcDbEntity
  8
文字-記号
  6
Continuous
 62
     7
100
AcDbPolyline
 90
        3
 70
     0
 43
0.0
 10
3477.602339194554
 20
490.775209460772
 10
3488.768291194553
 20
471.4352134607719
 10
3514.972468194554
 20
471.4352134607719
  0
LWPOLYLINE
  5
A614
330
1E
100
AcDbEntity
  8
文字-記号
  6
Continuous
 62
     7
100
AcDbPolyline
 90
        3
 70
     0
 43
0.0
 10
3794.025728194553
 20
500.4609574607719
 10
3788.803419194554
 20
508.2388634607719
 10
3763.570404194553
 20
508.2388634607719
  0
LWPOLYLINE
  5
A616
330
1E
100
AcDbEntity
  8
文字-記号
  6
Continuous
 62
     7
100
AcDbPolyline
 90
        3
 70
     0
 43
0.0
 10
3395.674925194554
 20
467.8202684607718
 10
3391.672049194554
 20
474.7534524607719
 10
3366.354837194554
 20
474.7534524607719
  0
LWPOLYLINE
  5
A618
330
1E
100
AcDbEntity
  8
文字-記号
  6
Continuous
 62
     7
100
AcDbPolyline
 90
        3
 70
     0
 43
0.0
 10
3767.023728194553
 20
459.7752094607719
 10
3778.189680194554
 20
440.4352134607719
 10
3804.393857194554
 20
440.4352134607719
  0
LWPOLYLINE
  5
A63E
330
1E
100
AcDbEntity
  8
躯体と製品
  6
Continuous
 62
     4
100
AcDbPolyline
 90
        2
 70
     0
 43
0.0
 10
3650.063395363375
 20
357.0752086978325
 10
3650.061999939182
 20
362.0684625371323
  0
LWPOLYLINE
  5
A63F
330
1E
100
AcDbEntity
  8
躯体と製品
  6
Continuous
 62
     4
100
AcDbPolyline
 90
        2
 70
     0
 43
0.0
 10
3649.063393848527
 20
357.0752086978325
 10
3649.061998502638
 20
362.0681823429957
  0
LWPOLYLINE
  5
A640
330
1E
100
AcDbEntity
  8
躯体と製品
  6
Continuous
 62
     4
100
AcDbPolyline
 90
        2
 70
     0
 43
0.0
 10
3649.062001014335
 20
362.0681826078973
 42
0.0591408001028801
 10
3646.566175161287
 20
357.0752086978331
  0
LWPOLYLINE
  5
A641
330
1E
100
AcDbEntity
  8
躯体と製品
  6
Continuous
 62
     4
100
AcDbPolyline
 90
        2
 70
     0
 43
0.0
 10
3652.563393086627
 20
357.069156683629
 42
0.0592277931006752
 10
3650.061996021963
 20
362.0684606612588
  0
LWPOLYLINE
  5
A642
330
1E
100
AcDbEntity
  8
躯体と製品
  6
Continuous
 62
     4
100
AcDbPolyline
 90
        2
 70
     0
 43
0.0
 10
3649.061998502638
 20
362.0681823429957
 10
3650.061999939182
 20
362.0684625371323
  0
LWPOLYLINE
  5
A64C
330
1E
100
AcDbEntity
  8
躯体と製品
  6
Continuous
 62
     4
100
AcDbPolyline
 90
        2
 70
     0
 43
0.0
 10
3661.523728194539
 20
408.7752164607808
 42
0.2223165980170739
 10
3670.5199075975
 20
408.7752164607808
  0
LWPOLYLINE
  5
A64D
330
1E
100
AcDbEntity
  8
躯体と製品
  6
Continuous
 62
     4
100
AcDbPolyline
 90
        2
 70
     0
 43
0.0
 10
3652.527548791608
 20
408.7752164607808
 42
0.2223165980170739
 10
3661.523728194568
 20
408.7752164607808
  0
LWPOLYLINE
  5
A64E
330
1E
100
AcDbEntity
  8
躯体と製品
  6
Continuous
 62
     4
100
AcDbPolyline
 90
        2
 70
     0
 43
0.0
 10
3670.51990759748
 20
413.7751884607697
 42
0.2223165980160428
 10
3661.523728194558
 20
413.7751884607697
  0
LWPOLYLINE
  5
A64F
330
1E
100
AcDbEntity
  8
躯体と製品
  6
Continuous
 62
     4
100
AcDbPolyline
 90
        2
 70
     0
 43
0.0
 10
3661.523728194549
 20
413.7751884607697
 42
0.2223165980160428
 10
3652.527548791627
 20
413.7751884607697
  0
LWPOLYLINE
  5
A650
330
1E
100
AcDbEntity
  8
躯体と製品
  6
Continuous
 62
     4
100
AcDbPolyline
 90
        2
 70
     0
 43
0.0
 10
3661.523728194558
 20
444.1731778454609
 42
0.2223165980160384
 10
3670.51990759748
 20
444.1731778454609
  0
LWPOLYLINE
  5
A651
330
1E
100
AcDbEntity
  8
躯体と製品
  6
Continuous
 62
     4
100
AcDbPolyline
 90
        2
 70
     0
 43
0.0
 10
3652.527548791627
 20
444.1731778454609
 42
0.2223165980160384
 10
3661.523728194549
 20
444.1731778454609
  0
LWPOLYLINE
  5
A652
330
1E
100
AcDbEntity
  8
躯体と製品
  6
Continuous
 62
     4
100
AcDbPolyline
 90
        2
 70
     0
 43
0.0
 10
3670.5199075975
 20
439.1731708454519
 42
0.2223165980170796
 10
3661.523728194539
 20
439.1731708454519
  0
LWPOLYLINE
  5
A653
330
1E
100
AcDbEntity
  8
躯体と製品
  6
Continuous
 62
     4
100
AcDbPolyline
 90
        2
 70
     0
 43
0.0
 10
3661.523728194568
 20
439.1731708454519
 42
0.2223165980170796
 10
3652.527548791608
 20
439.1731708454519
  0
LWPOLYLINE
  5
A654
330
1E
100
AcDbEntity
  8
躯体と製品
  6
Continuous
 62
     4
100
AcDbPolyline
 90
        2
 70
     0
 43
0.0
 10
3661.523728194558
 20
434.173198845463
 42
0.2223165980160384
 10
3670.51990759748
 20
434.173198845463
  0
LWPOLYLINE
  5
A655
330
1E
100
AcDbEntity
  8
躯体と製品
  6
Continuous
 62
     4
100
AcDbPolyline
 90
        2
 70
     0
 43
0.0
 10
3652.527548791627
 20
434.173198845463
 42
0.2223165980160384
 10
3661.523728194549
 20
434.173198845463
  0
LWPOLYLINE
  5
A656
330
1E
100
AcDbEntity
  8
躯体と製品
  6
Continuous
 62
     4
100
AcDbPolyline
 90
        2
 70
     0
 43
0.0
 10
3650.773729694555
 20
443.1731778454609
 10
3650.773729694555
 20
440.1731708454608
  0
LWPOLYLINE
  5
A657
330
1E
100
AcDbEntity
  8
躯体と製品
  6
Continuous
 62
     4
100
AcDbPolyline
 90
        2
 70
     0
 43
0.0
 10
3672.273726694553
 20
443.1731778454609
 10
3650.773729694555
 20
443.1731778454609
  0
LWPOLYLINE
  5
A658
330
1E
100
AcDbEntity
  8
躯体と製品
  6
Continuous
 62
     4
100
AcDbPolyline
 90
        2
 70
     0
 43
0.0
 10
3672.273726694553
 20
440.1731708454608
 10
3672.273726694553
 20
443.1731778454609
  0
LWPOLYLINE
  5
A659
330
1E
100
AcDbEntity
  8
躯体と製品
  6
Continuous
 62
     4
100
AcDbPolyline
 90
        2
 70
     0
 43
0.0
 10
3650.773729694555
 20
440.1731708454608
 10
3672.273726694553
 20
440.1731708454608
  0
LWPOLYLINE
  5
A688
330
1E
100
AcDbEntity
  8
躯体と製品
  6
Continuous
 62
     4
100
AcDbPolyline
 90
        2
 70
     0
 43
0.0
 10
3650.773729694553
 20
404.7752094607719
 10
3650.773729694553
 20
407.775216460772
  0
LWPOLYLINE
  5
A689
330
1E
100
AcDbEntity
  8
躯体と製品
  6
Continuous
 62
     4
100
AcDbPolyline
 90
        2
 70
     0
 43
0.0
 10
3672.273726694553
 20
407.775216460772
 10
3672.273726694553
 20
404.7752094607719
  0
LWPOLYLINE
  5
A68A
330
1E
100
AcDbEntity
  8
躯体と製品
  6
Continuous
 62
     4
100
AcDbPolyline
 90
        2
 70
     0
 43
0.0
 10
3650.773729694553
 20
407.775216460772
 10
3672.273726694553
 20
407.775216460772
  0
LWPOLYLINE
  5
A68B
330
1E
100
AcDbEntity
  8
躯体と製品
  6
Continuous
 62
     4
100
AcDbPolyline
 90
        2
 70
     0
 43
0.0
 10
3426.062818394476
 20
401.4752102237109
 42
0.3850636431295323
 10
3420.868871794514
 20
401.4752102237109
  0
LWPOLYLINE
  5
A68C
330
1E
100
AcDbEntity
  8
躯体と製品
  6
Continuous
 62
     4
100
AcDbPolyline
 90
        2
 70
     0
 43
0.0
 10
3410.480978594595
 20
401.4752102237109
 42
0.3850636431295323
 10
3405.287031994633
 20
401.4752102237109
  0
LWPOLYLINE
  5
A68D
330
1E
100
AcDbEntity
  8
躯体と製品
  6
Continuous
 62
     4
100
AcDbPolyline
 90
        2
 70
     0
 43
0.0
 10
3420.868871794514
 20
401.4752102237118
 42
0.1925318215646405
 10
3410.480978594595
 20
401.4752102237118
  0
LWPOLYLINE
  5
A68E
330
1E
100
AcDbEntity
  8
躯体と製品
  6
Continuous
 62
     4
100
AcDbPolyline
 90
        2
 70
     0
 43
0.0
 10
3420.868871794514
 20
396.4752102237121
 42
0.3850636431295324
 10
3426.062818394476
 20
396.4752102237121
  0
LWPOLYLINE
  5
A68F
330
1E
100
AcDbEntity
  8
躯体と製品
  6
Continuous
 62
     4
100
AcDbPolyline
 90
        2
 70
     0
 43
0.0
 10
3405.287031994633
 20
396.4752102237121
 42
0.3850636431295324
 10
3410.480978594595
 20
396.4752102237121
  0
LWPOLYLINE
  5
A690
330
1E
100
AcDbEntity
  8
躯体と製品
  6
Continuous
 62
     4
100
AcDbPolyline
 90
        2
 70
     0
 43
0.0
 10
3410.480978594595
 20
396.4752102237112
 42
0.1925318215646404
 10
3420.868871794514
 20
396.4752102237112
  0
LWPOLYLINE
  5
A691
330
1E
100
AcDbEntity
  8
躯体と製品
  6
Continuous
 62
     4
100
AcDbPolyline
 90
        2
 70
     0
 43
0.0
 10
3407.884005294614
 20
395.4752102237117
 10
3423.465845094495
 20
395.4752102237114
  0
LWPOLYLINE
  5
A692
330
1E
100
AcDbEntity
  8
躯体と製品
  6
Continuous
 62
     4
100
AcDbPolyline
 90
        2
 70
     0
 43
0.0
 10
3417.406980194555
 20
404.7752094607719
 10
3415.674925194554
 20
407.775216460772
  0
LWPOLYLINE
  5
A693
330
1E
100
AcDbEntity
  8
躯体と製品
  6
Continuous
 62
     4
100
AcDbPolyline
 90
        2
 70
     0
 43
0.0
 10
3415.674925194554
 20
404.7752094607719
 10
3413.942869194555
 20
407.775216460772
  0
LWPOLYLINE
  5
A694
330
1E
100
AcDbEntity
  8
躯体と製品
  6
Continuous
 62
     4
100
AcDbPolyline
 90
        2
 70
     0
 43
0.0
 10
3404.924926194554
 20
407.775216460772
 10
3404.924926194554
 20
404.7752094607719
  0
LWPOLYLINE
  5
A695
330
1E
100
AcDbEntity
  8
躯体と製品
  6
Continuous
 62
     4
100
AcDbPolyline
 90
        2
 70
     0
 43
0.0
 10
3426.424923194555
 20
407.775216460772
 10
3404.924926194554
 20
407.775216460772
  0
LWPOLYLINE
  5
A696
330
1E
100
AcDbEntity
  8
躯体と製品
  6
Continuous
 62
     4
100
AcDbPolyline
 90
        2
 70
     0
 43
0.0
 10
3426.424923194555
 20
404.7752094607719
 10
3426.424923194555
 20
407.775216460772
  0
LWPOLYLINE
  5
A697
330
1E
100
AcDbEntity
  8
躯体と製品
  6
Continuous
 62
     4
100
AcDbPolyline
 90
        2
 70
     0
 43
0.0
 10
3404.924926194554
 20
404.7752094607719
 10
3426.424923194555
 20
404.7752094607719
  0
LWPOLYLINE
  5
A698
330
1E
100
AcDbEntity
  8
躯体と製品
  6
Continuous
 62
     4
100
AcDbPolyline
 90
        2
 70
     0
 43
0.0
 10
3420.868871794514
 20
408.7752164607725
 42
0.385063643129508
 10
3426.062818394476
 20
408.7752164607725
  0
LWPOLYLINE
  5
A699
330
1E
100
AcDbEntity
  8
躯体と製品
  6
Continuous
 62
     4
100
AcDbPolyline
 90
        2
 70
     0
 43
0.0
 10
3405.287031994633
 20
408.7752164607725
 42
0.385063643129508
 10
3410.480978594595
 20
408.7752164607725
  0
LWPOLYLINE
  5
A69A
330
1E
100
AcDbEntity
  8
躯体と製品
  6
Continuous
 62
     4
100
AcDbPolyline
 90
        2
 70
     0
 43
0.0
 10
3410.480978594595
 20
408.7752164607717
 42
0.1925318215646404
 10
3420.868871794514
 20
408.7752164607717
  0
LWPOLYLINE
  5
A69B
330
1E
100
AcDbEntity
  8
躯体と製品
  6
Continuous
 62
     4
100
AcDbPolyline
 90
        2
 70
     0
 43
0.0
 10
3426.062818394476
 20
413.7752164607716
 42
0.385063643129508
 10
3420.868871794514
 20
413.7752164607716
  0
LWPOLYLINE
  5
A69C
330
1E
100
AcDbEntity
  8
躯体と製品
  6
Continuous
 62
     4
100
AcDbPolyline
 90
        2
 70
     0
 43
0.0
 10
3410.480978594595
 20
413.7752164607716
 42
0.385063643129508
 10
3405.287031994633
 20
413.7752164607716
  0
LWPOLYLINE
  5
A69D
330
1E
100
AcDbEntity
  8
躯体と製品
  6
Continuous
 62
     4
100
AcDbPolyline
 90
        2
 70
     0
 43
0.0
 10
3420.868871794514
 20
413.7752164607723
 42
0.1925318215646405
 10
3410.480978594595
 20
413.7752164607723
  0
LWPOLYLINE
  5
A69E
330
1E
100
AcDbEntity
  8
躯体と製品
  6
Continuous
 62
     4
100
AcDbPolyline
 90
        2
 70
     0
 43
0.0
 10
3407.884005294614
 20
414.775216460772
 10
3423.465845094495
 20
414.7752164607721
  0
LWPOLYLINE
  5
A6CD
330
1E
100
AcDbEntity
  8
躯体と製品
  6
Continuous
 62
     4
100
AcDbPolyline
 90
        2
 70
     0
 43
0.0
 10
3417.412111205838
 20
440.1731708454608
 10
3415.680056205837
 20
443.1731778454609
  0
LWPOLYLINE
  5
A6CE
330
1E
100
AcDbEntity
  8
躯体と製品
  6
Continuous
 62
     4
100
AcDbPolyline
 90
        2
 70
     0
 43
0.0
 10
3415.680056205837
 20
440.1731708454608
 10
3413.948000205837
 20
443.1731778454609
  0
LWPOLYLINE
  5
A6CF
330
1E
100
AcDbEntity
  8
躯体と製品
  6
Continuous
 62
     4
100
AcDbPolyline
 90
        2
 70
     0
 43
0.0
 10
3404.930057205838
 20
443.1731778454609
 10
3404.930057205838
 20
440.1731708454608
  0
LWPOLYLINE
  5
A6D0
330
1E
100
AcDbEntity
  8
躯体と製品
  6
Continuous
 62
     4
100
AcDbPolyline
 90
        2
 70
     0
 43
0.0
 10
3426.430054205837
 20
443.1731778454609
 10
3404.930057205838
 20
443.1731778454609
  0
LWPOLYLINE
  5
A6D1
330
1E
100
AcDbEntity
  8
躯体と製品
  6
Continuous
 62
     4
100
AcDbPolyline
 90
        2
 70
     0
 43
0.0
 10
3426.430054205837
 20
440.1731708454608
 10
3426.430054205837
 20
443.1731778454609
  0
LWPOLYLINE
  5
A6D2
330
1E
100
AcDbEntity
  8
躯体と製品
  6
Continuous
 62
     4
100
AcDbPolyline
 90
        2
 70
     0
 43
0.0
 10
3404.930057205838
 20
440.1731708454608
 10
3426.430054205837
 20
440.1731708454608
  0
LWPOLYLINE
  5
A6D3
330
1E
100
AcDbEntity
  8
躯体と製品
  6
Continuous
 62
     4
100
AcDbPolyline
 90
        2
 70
     0
 43
0.0
 10
3426.06282856833
 20
439.1731744607715
 42
0.385063643129508
 10
3420.868881968368
 20
439.1731744607715
  0
LWPOLYLINE
  5
A6D4
330
1E
100
AcDbEntity
  8
躯体と製品
  6
Continuous
 62
     4
100
AcDbPolyline
 90
        2
 70
     0
 43
0.0
 10
3410.480988768449
 20
439.1731744607715
 42
0.385063643129508
 10
3405.287042168487
 20
439.1731744607715
  0
LWPOLYLINE
  5
A6D5
330
1E
100
AcDbEntity
  8
躯体と製品
  6
Continuous
 62
     4
100
AcDbPolyline
 90
        2
 70
     0
 43
0.0
 10
3420.868881968368
 20
439.1731744607723
 42
0.1925318215646296
 10
3410.480988768449
 20
439.1731744607723
  0
LWPOLYLINE
  5
A6D6
330
1E
100
AcDbEntity
  8
躯体と製品
  6
Continuous
 62
     4
100
AcDbPolyline
 90
        2
 70
     0
 43
0.0
 10
3420.868881968368
 20
434.1731744607724
 42
0.385063643129508
 10
3426.06282856833
 20
434.1731744607724
  0
LWPOLYLINE
  5
A6D7
330
1E
100
AcDbEntity
  8
躯体と製品
  6
Continuous
 62
     4
100
AcDbPolyline
 90
        2
 70
     0
 43
0.0
 10
3405.287042168487
 20
434.1731744607724
 42
0.385063643129508
 10
3410.480988768449
 20
434.1731744607724
  0
LWPOLYLINE
  5
A6D8
330
1E
100
AcDbEntity
  8
躯体と製品
  6
Continuous
 62
     4
100
AcDbPolyline
 90
        2
 70
     0
 43
0.0
 10
3410.480988768449
 20
434.1731744607715
 42
0.1925318215646298
 10
3420.868881968368
 20
434.1731744607715
  0
LWPOLYLINE
  5
A6D9
330
1E
100
AcDbEntity
  8
躯体と製品
  6
Continuous
 62
     4
100
AcDbPolyline
 90
        2
 70
     0
 43
0.0
 10
3407.884015468468
 20
433.173174460772
 10
3423.465855268349
 20
433.1731744607719
  0
LWPOLYLINE
  5
A6DA
330
1E
100
AcDbEntity
  8
躯体と製品
  6
Continuous
 62
     4
100
AcDbPolyline
 90
        2
 70
     0
 43
0.0
 10
3420.868871794514
 20
444.1731778454612
 42
0.385063643129508
 10
3426.062818394476
 20
444.1731778454612
  0
LWPOLYLINE
  5
A6DB
330
1E
100
AcDbEntity
  8
躯体と製品
  6
Continuous
 62
     4
100
AcDbPolyline
 90
        2
 70
     0
 43
0.0
 10
3405.287031994633
 20
444.1731778454612
 42
0.385063643129508
 10
3410.480978594595
 20
444.1731778454612
  0
LWPOLYLINE
  5
A6DC
330
1E
100
AcDbEntity
  8
躯体と製品
  6
Continuous
 62
     4
100
AcDbPolyline
 90
        2
 70
     0
 43
0.0
 10
3410.480978594595
 20
444.1731778454603
 42
0.1925318215646298
 10
3420.868871794514
 20
444.1731778454603
  0
LWPOLYLINE
  5
A735
330
1E
100
AcDbEntity
  8
躯体と製品
  6
Continuous
 62
     4
100
AcDbPolyline
 90
        2
 70
     0
 43
0.0
 10
3421.674925194555
 20
380.5752094607719
 10
3420.874925194554
 20
379.775209460772
  0
LWPOLYLINE
  5
A736
330
1E
100
AcDbEntity
  8
躯体と製品
  6
Continuous
 62
     4
100
AcDbPolyline
 90
        2
 70
     0
 43
0.0
 10
3409.674925194555
 20
380.5752094607719
 10
3410.474925194554
 20
379.775209460772
  0
LWPOLYLINE
  5
A737
330
1E
100
AcDbEntity
  8
躯体と製品
  6
Continuous
 62
     4
100
AcDbPolyline
 90
        2
 70
     0
 43
0.0
 10
3410.474925194554
 20
379.775209460772
 10
3420.874925194554
 20
379.775209460772
  0
LWPOLYLINE
  5
A738
330
1E
100
AcDbEntity
  8
躯体と製品
  6
Continuous
 62
     4
100
AcDbPolyline
 90
        2
 70
     0
 43
0.0
 10
3409.674925194555
 20
380.5752094607719
 10
3421.674925194555
 20
380.5752094607719
  0
LWPOLYLINE
  5
A84C
330
1E
100
AcDbEntity
  8
躯体と製品
  6
Continuous
 62
     4
100
AcDbPolyline
 90
        2
 70
     0
 43
0.0
 10
3667.523728194554
 20
414.668413363004
 10
3667.523728194554
 20
433.2799739432287
  0
LWPOLYLINE
  5
A84D
330
1E
100
AcDbEntity
  8
躯体と製品
  6
Continuous
 62
     4
100
AcDbPolyline
 90
        2
 70
     0
 43
0.0
 10
3666.723728194554
 20
414.751959428306
 10
3666.723728194554
 20
433.1964278779268
  0
LWPOLYLINE
  5
A84E
330
1E
100
AcDbEntity
  8
躯体と製品
  6
Continuous
 62
     4
100
AcDbPolyline
 90
        2
 70
     0
 43
0.0
 10
3656.323728194555
 20
414.751959428306
 10
3656.323728194555
 20
433.1964278779266
  0
LWPOLYLINE
  5
A84F
330
1E
100
AcDbEntity
  8
躯体と製品
  6
Continuous
 62
     4
100
AcDbPolyline
 90
        2
 70
     0
 43
0.0
 10
3655.523728194554
 20
414.668413363004
 10
3655.523728194554
 20
433.2799739432287
  0
LWPOLYLINE
  5
A850
330
1E
100
AcDbEntity
  8
躯体と製品
  6
Continuous
 62
     4
100
AcDbPolyline
 90
        2
 70
     0
 43
0.0
 10
3681.523728194554
 20
352.775209460772
 10
3641.523728194554
 20
352.775209460772
  0
LWPOLYLINE
  5
A851
330
1E
100
AcDbEntity
  8
躯体と製品
  6
Continuous
 62
     4
100
AcDbPolyline
 90
        2
 70
     0
 43
0.0
 10
3681.523728194554
 20
404.7752094607719
 10
3681.523728194554
 20
352.775209460772
  0
LWPOLYLINE
  5
A852
330
1E
100
AcDbEntity
  8
躯体と製品
  6
Continuous
 62
     4
100
AcDbPolyline
 90
        2
 70
     0
 43
0.0
 10
3641.523728194554
 20
404.7752094607719
 10
3641.523728194554
 20
352.775209460772
  0
LWPOLYLINE
  5
A853
330
1E
100
AcDbEntity
  8
躯体と製品
  6
Continuous
 62
     4
100
AcDbPolyline
 90
        2
 70
     0
 43
0.0
 10
3669.988491795451
 20
352.7752094076372
 10
3671.988487795454
 20
354.7752094076372
  0
LWPOLYLINE
  5
A854
330
1E
100
AcDbEntity
  8
躯体と製品
  6
Continuous
 62
     4
100
AcDbPolyline
 90
        2
 70
     0
 43
0.0
 10
3671.784541223616
 20
352.7752094076372
 10
3673.78453722362
 20
354.7752094076372
  0
LWPOLYLINE
  5
A855
330
1E
100
AcDbEntity
  8
躯体と製品
  6
Continuous
 62
     4
100
AcDbPolyline
 90
        2
 70
     0
 43
0.0
 10
3673.580590651781
 20
352.7752094076372
 10
3675.580586651785
 20
354.7752094076372
  0
LWPOLYLINE
  5
A856
330
1E
100
AcDbEntity
  8
躯体と製品
  6
Continuous
 62
     4
100
AcDbPolyline
 90
        2
 70
     0
 43
0.0
 10
3675.376640079946
 20
352.7752094076372
 10
3677.376636079951
 20
354.7752094076372
  0
LWPOLYLINE
  5
A857
330
1E
100
AcDbEntity
  8
躯体と製品
  6
Continuous
 62
     4
100
AcDbPolyline
 90
        2
 70
     0
 43
0.0
 10
3641.523728194554
 20
404.7752094607719
 10
3681.523728194554
 20
404.7752094607719
  0
LWPOLYLINE
  5
A858
330
1E
100
AcDbEntity
  8
躯体と製品
  6
Continuous
 62
     4
100
AcDbPolyline
 90
        2
 70
     0
 43
0.0
 10
3672.984061025732
 20
404.7758610462933
 10
3672.985456449925
 20
399.7826072069937
  0
LWPOLYLINE
  5
A859
330
1E
100
AcDbEntity
  8
躯体と製品
  6
Continuous
 62
     4
100
AcDbPolyline
 90
        2
 70
     0
 43
0.0
 10
3673.984062540579
 20
404.7758610462933
 10
3673.985457886469
 20
399.7828874011302
  0
LWPOLYLINE
  5
A85A
330
1E
100
AcDbEntity
  8
躯体と製品
  6
Continuous
 62
     4
100
AcDbPolyline
 90
        2
 70
     0
 43
0.0
 10
3673.985455374772
 20
399.7828871362287
 42
0.0591408001028448
 10
3676.481281227819
 20
404.7758610462897
  0
LWPOLYLINE
  5
A85B
330
1E
100
AcDbEntity
  8
躯体と製品
  6
Continuous
 62
     4
100
AcDbPolyline
 90
        2
 70
     0
 43
0.0
 10
3670.484063302479
 20
404.7819130604999
 42
0.0592277931007413
 10
3672.985460367146
 20
399.7826090828646
  0
LWPOLYLINE
  5
A85C
330
1E
100
AcDbEntity
  8
躯体と製品
  6
Continuous
 62
     4
100
AcDbPolyline
 90
        2
 70
     0
 43
0.0
 10
3646.484064969087
 20
404.7752094607683
 42
0.0592277931007413
 10
3648.985462033753
 20
399.775905483133
  0
LWPOLYLINE
  5
A85D
330
1E
100
AcDbEntity
  8
躯体と製品
  6
Continuous
 62
     4
100
AcDbPolyline
 90
        2
 70
     0
 43
0.0
 10
3649.985457041379
 20
399.776183536497
 42
0.0592277992067055
 10
3652.484061692317
 20
404.7768843606314
  0
LWPOLYLINE
  5
A85E
330
1E
100
AcDbEntity
  8
躯体と製品
  6
Continuous
 62
     4
100
AcDbPolyline
 90
        2
 70
     0
 43
0.0
 10
3649.984062134943
 20
404.7758610462933
 10
3649.985459353704
 20
399.7761856982985
  0
LWPOLYLINE
  5
A85F
330
1E
100
AcDbEntity
  8
躯体と製品
  6
Continuous
 62
     4
100
AcDbPolyline
 90
        2
 70
     0
 43
0.0
 10
3648.984060620096
 20
404.7758610462933
 10
3648.98545791716
 20
399.775905504162
  0
LWPOLYLINE
  5
A860
330
1E
100
AcDbEntity
  8
躯体と製品
  6
Continuous
 62
     4
100
AcDbPolyline
 90
        2
 70
     0
 43
0.0
 10
3648.98545791716
 20
399.775905504162
 10
3649.985459353704
 20
399.7761856982985
  0
LWPOLYLINE
  5
A861
330
1E
100
AcDbEntity
  8
躯体と製品
  6
Continuous
 62
     4
100
AcDbPolyline
 90
        2
 70
     0
 43
0.0
 10
3673.985457886469
 20
399.7828874011302
 10
3672.985456449925
 20
399.7826072069937
  0
LWPOLYLINE
  5
A862
330
1E
100
AcDbEntity
  8
躯体と製品
  6
Continuous
 62
     4
100
AcDbPolyline
 90
        2
 70
     0
 43
0.0
 10
3641.523728194554
 20
357.0752086978325
 10
3681.523728194554
 20
357.0752086978325
  0
LWPOLYLINE
  5
A863
330
1E
100
AcDbEntity
  8
躯体と製品
  6
Continuous
 62
     4
100
AcDbPolyline
 90
        2
 70
     0
 43
0.0
 10
3641.523728194554
 20
354.775209460772
 10
3681.523728194554
 20
354.775209460772
  0
LWPOLYLINE
  5
A864
330
1E
100
AcDbEntity
  8
躯体と製品
  6
Continuous
 62
     4
100
AcDbPolyline
 90
        2
 70
     0
 43
0.0
 10
3672.984061025732
 20
357.0752086978325
 10
3672.985456449925
 20
362.0684625371323
  0
LWPOLYLINE
  5
A865
330
1E
100
AcDbEntity
  8
躯体と製品
  6
Continuous
 62
     4
100
AcDbPolyline
 90
        2
 70
     0
 43
0.0
 10
3673.984062540579
 20
357.0752086978325
 10
3673.985457886469
 20
362.0681823429957
  0
LWPOLYLINE
  5
A866
330
1E
100
AcDbEntity
  8
躯体と製品
  6
Continuous
 62
     4
100
AcDbPolyline
 90
        2
 70
     0
 43
0.0
 10
3676.481281227819
 20
357.0752086978361
 42
0.0591408001028449
 10
3673.985455374772
 20
362.0681826078972
  0
LWPOLYLINE
  5
A867
330
1E
100
AcDbEntity
  8
躯体と製品
  6
Continuous
 62
     4
100
AcDbPolyline
 90
        2
 70
     0
 43
0.0
 10
3672.985460367146
 20
362.0684606612613
 42
0.0592277931007413
 10
3670.484063302479
 20
357.0691566836259
  0
LWPOLYLINE
  5
A868
330
1E
100
AcDbEntity
  8
躯体と製品
  6
Continuous
 62
     4
100
AcDbPolyline
 90
        2
 70
     0
 43
0.0
 10
3673.985457886469
 20
362.0681823429957
 10
3672.985456449925
 20
362.0684625371323
  0
LWPOLYLINE
  5
A869
330
1E
100
AcDbEntity
  8
躯体と製品
  6
Continuous
 62
     4
100
AcDbPolyline
 90
        2
 70
     0
 43
0.0
 10
3668.523728194553
 20
384.8297103953616
 10
3668.523728194553
 20
374.9604851636202
  0
LWPOLYLINE
  5
A86A
330
1E
100
AcDbEntity
  8
躯体と製品
  6
Continuous
 62
     4
100
AcDbPolyline
 90
        2
 70
     0
 43
0.0
 10
3654.523728194553
 20
374.9604851636202
 42
0.9999999999999998
 10
3668.523728194553
 20
374.9604851636202
  0
LWPOLYLINE
  5
A86B
330
1E
100
AcDbEntity
  8
躯体と製品
  6
Continuous
 62
     4
100
AcDbPolyline
 90
        2
 70
     0
 43
0.0
 10
3654.523728194553
 20
374.9604851636202
 10
3654.523728194553
 20
384.8297103953616
  0
LWPOLYLINE
  5
A86C
330
1E
100
AcDbEntity
  8
躯体と製品
  6
Continuous
 62
     4
100
AcDbPolyline
 90
        2
 70
     0
 43
0.0
 10
3668.523728194553
 20
384.8297103953616
 42
0.9999999999999998
 10
3654.523728194553
 20
384.8297103953616
  0
LWPOLYLINE
  5
A86D
330
1E
100
AcDbEntity
  8
躯体と製品
  6
Continuous
 62
     4
100
AcDbPolyline
 90
        2
 70
     0
 43
0.0
 10
3644.843799801136
 20
352.7752094076372
 10
3646.84379580114
 20
354.7752094076372
  0
LWPOLYLINE
  5
A86E
330
1E
100
AcDbEntity
  8
躯体と製品
  6
Continuous
 62
     4
100
AcDbPolyline
 90
        2
 70
     0
 43
0.0
 10
3657.416145798293
 20
352.7752094076372
 10
3659.416141798298
 20
354.7752094076372
  0
LWPOLYLINE
  5
A86F
330
1E
100
AcDbEntity
  8
躯体と製品
  6
Continuous
 62
     4
100
AcDbPolyline
 90
        2
 70
     0
 43
0.0
 10
3646.639849229302
 20
352.7752094076372
 10
3648.639845229306
 20
354.7752094076372
  0
LWPOLYLINE
  5
A870
330
1E
100
AcDbEntity
  8
躯体と製品
  6
Continuous
 62
     4
100
AcDbPolyline
 90
        2
 70
     0
 43
0.0
 10
3659.212195226459
 20
352.7752094076372
 10
3661.212191226463
 20
354.7752094076372
  0
LWPOLYLINE
  5
A871
330
1E
100
AcDbEntity
  8
躯体と製品
  6
Continuous
 62
     4
100
AcDbPolyline
 90
        2
 70
     0
 43
0.0
 10
3648.435898657467
 20
352.7752094076372
 10
3650.435894657471
 20
354.7752094076372
  0
LWPOLYLINE
  5
A872
330
1E
100
AcDbEntity
  8
躯体と製品
  6
Continuous
 62
     4
100
AcDbPolyline
 90
        2
 70
     0
 43
0.0
 10
3661.008244654624
 20
352.7752094076372
 10
3663.008240654628
 20
354.7752094076372
  0
LWPOLYLINE
  5
A873
330
1E
100
AcDbEntity
  8
躯体と製品
  6
Continuous
 62
     4
100
AcDbPolyline
 90
        2
 70
     0
 43
0.0
 10
3650.231948085632
 20
352.7752094076372
 10
3652.231944085636
 20
354.7752094076372
  0
LWPOLYLINE
  5
A874
330
1E
100
AcDbEntity
  8
躯体と製品
  6
Continuous
 62
     4
100
AcDbPolyline
 90
        2
 70
     0
 43
0.0
 10
3662.804294082789
 20
352.7752094076372
 10
3664.804290082793
 20
354.7752094076372
  0
LWPOLYLINE
  5
A875
330
1E
100
AcDbEntity
  8
躯体と製品
  6
Continuous
 62
     4
100
AcDbPolyline
 90
        2
 70
     0
 43
0.0
 10
3666.523728194554
 20
354.775209460772
 10
3641.523728194554
 20
354.775209460772
  0
LWPOLYLINE
  5
A8EA
330
1E
100
AcDbEntity
  8
躯体と製品
  6
Continuous
 62
     4
100
AcDbPolyline
 90
        2
 70
     0
 43
0.0
 10
3421.674925194555
 20
433.1731744607719
 10
3421.674925194555
 20
414.7752165070976
  0
LWPOLYLINE
  5
A8EB
330
1E
100
AcDbEntity
  8
躯体と製品
  6
Continuous
 62
     4
100
AcDbPolyline
 90
        2
 70
     0
 43
0.0
 10
3420.874925957494
 20
433.1731744607719
 10
3420.874925957494
 20
414.7752165070976
  0
LWPOLYLINE
  5
A8EC
330
1E
100
AcDbEntity
  8
躯体と製品
  6
Continuous
 62
     4
100
AcDbPolyline
 90
        2
 70
     0
 43
0.0
 10
3409.674925432973
 20
433.1731744607719
 10
3409.674925432973
 20
414.7752136460747
  0
LWPOLYLINE
  5
A8ED
330
1E
100
AcDbEntity
  8
躯体と製品
  6
Continuous
 62
     4
100
AcDbPolyline
 90
        2
 70
     0
 43
0.0
 10
3410.474925504499
 20
433.1731744607719
 10
3410.474925504499
 20
414.7752136460747
  0
LWPOLYLINE
  5
A8EE
330
1E
100
AcDbEntity
  8
躯体と製品
  6
Continuous
 62
     4
100
AcDbPolyline
 90
        2
 70
     0
 43
0.0
 10
3368.994996801137
 20
352.7752094076372
 10
3370.99499280114
 20
354.7752094076372
  0
LWPOLYLINE
  5
A8EF
330
1E
100
AcDbEntity
  8
躯体と製品
  6
Continuous
 62
     4
100
AcDbPolyline
 90
        2
 70
     0
 43
0.0
 10
3381.567342798294
 20
352.7752094076372
 10
3383.567338798297
 20
354.7752094076372
  0
LWPOLYLINE
  5
A8F0
330
1E
100
AcDbEntity
  8
躯体と製品
  6
Continuous
 62
     4
100
AcDbPolyline
 90
        2
 70
     0
 43
0.0
 10
3370.791046229302
 20
352.7752094076372
 10
3372.791042229306
 20
354.7752094076372
  0
LWPOLYLINE
  5
A8F1
330
1E
100
AcDbEntity
  8
躯体と製品
  6
Continuous
 62
     4
100
AcDbPolyline
 90
        2
 70
     0
 43
0.0
 10
3383.363392226458
 20
352.7752094076372
 10
3385.363388226462
 20
354.7752094076372
  0
LWPOLYLINE
  5
A8F2
330
1E
100
AcDbEntity
  8
躯体と製品
  6
Continuous
 62
     4
100
AcDbPolyline
 90
        2
 70
     0
 43
0.0
 10
3372.587095657467
 20
352.7752094076372
 10
3374.587091657471
 20
354.7752094076372
  0
LWPOLYLINE
  5
A8F3
330
1E
100
AcDbEntity
  8
躯体と製品
  6
Continuous
 62
     4
100
AcDbPolyline
 90
        2
 70
     0
 43
0.0
 10
3385.159441654624
 20
352.7752094076372
 10
3387.159437654628
 20
354.7752094076372
  0
LWPOLYLINE
  5
A8F4
330
1E
100
AcDbEntity
  8
躯体と製品
  6
Continuous
 62
     4
100
AcDbPolyline
 90
        2
 70
     0
 43
0.0
 10
3374.383145085632
 20
352.7752094076372
 10
3376.383141085636
 20
354.7752094076372
  0
LWPOLYLINE
  5
A8F5
330
1E
100
AcDbEntity
  8
躯体と製品
  6
Continuous
 62
     4
100
AcDbPolyline
 90
        2
 70
     0
 43
0.0
 10
3386.955491082789
 20
352.7752094076372
 10
3388.955487082794
 20
354.7752094076372
  0
LWPOLYLINE
  5
A8F6
330
1E
100
AcDbEntity
  8
躯体と製品
  6
Continuous
 62
     4
100
AcDbPolyline
 90
        2
 70
     0
 43
0.0
 10
3444.429072784079
 20
352.7752094076372
 10
3446.429068784083
 20
354.7752094076372
  0
LWPOLYLINE
  5
A8F7
330
1E
100
AcDbEntity
  8
躯体と製品
  6
Continuous
 62
     4
100
AcDbPolyline
 90
        2
 70
     0
 43
0.0
 10
3457.001418781235
 20
352.7752094076372
 10
3459.00141478124
 20
354.7752094076372
  0
LWPOLYLINE
  5
A8F8
330
1E
100
AcDbEntity
  8
躯体と製品
  6
Continuous
 62
     4
100
AcDbPolyline
 90
        2
 70
     0
 43
0.0
 10
3446.225122212245
 20
352.7752094076372
 10
3448.225118212249
 20
354.7752094076372
  0
LWPOLYLINE
  5
A8F9
330
1E
100
AcDbEntity
  8
躯体と製品
  6
Continuous
 62
     4
100
AcDbPolyline
 90
        2
 70
     0
 43
0.0
 10
3458.797468209401
 20
352.7752094076372
 10
3460.797464209405
 20
354.7752094076372
  0
LWPOLYLINE
  5
A8FA
330
1E
100
AcDbEntity
  8
躯体と製品
  6
Continuous
 62
     4
100
AcDbPolyline
 90
        2
 70
     0
 43
0.0
 10
3448.02117164041
 20
352.7752094076372
 10
3450.021167640414
 20
354.7752094076372
  0
LWPOLYLINE
  5
A8FB
330
1E
100
AcDbEntity
  8
躯体と製品
  6
Continuous
 62
     4
100
AcDbPolyline
 90
        2
 70
     0
 43
0.0
 10
3460.593517637567
 20
352.7752094076372
 10
3462.593513637571
 20
354.7752094076372
  0
LWPOLYLINE
  5
A8FC
330
1E
100
AcDbEntity
  8
躯体と製品
  6
Continuous
 62
     4
100
AcDbPolyline
 90
        2
 70
     0
 43
0.0
 10
3449.817221068575
 20
352.7752094076372
 10
3451.817217068579
 20
354.7752094076372
  0
LWPOLYLINE
  5
A8FD
330
1E
100
AcDbEntity
  8
躯体と製品
  6
Continuous
 62
     4
100
AcDbPolyline
 90
        2
 70
     0
 43
0.0
 10
3462.389567065732
 20
352.7752094076372
 10
3464.389563065736
 20
354.7752094076372
  0
LWPOLYLINE
  5
A8FE
330
1E
100
AcDbEntity
  8
躯体と製品
  6
Continuous
 62
     4
100
AcDbPolyline
 90
        2
 70
     0
 43
0.0
 10
3433.791201686553
 20
400.6837114895754
 42
0.3839441797843188
 10
3431.802099484573
 20
402.4752102237114
  0
LWPOLYLINE
  5
A8FF
330
1E
100
AcDbEntity
  8
躯体と製品
  6
Continuous
 62
     4
100
AcDbPolyline
 90
        2
 70
     0
 43
0.0
 10
3433.978990400841
 20
398.8922127554395
 42
0.3839441797843188
 10
3430.000785996882
 20
402.4752102237114
  0
LWPOLYLINE
  5
A900
330
1E
100
AcDbEntity
  8
躯体と製品
  6
Continuous
 62
     4
100
AcDbPolyline
 90
        2
 70
     0
 43
0.0
 10
3438.199668843021
 20
358.6269349218668
 42
0.3839441648238353
 10
3442.476238406865
 20
354.7752123217949
  0
LWPOLYLINE
  5
A901
330
1E
100
AcDbEntity
  8
躯体と製品
  6
Continuous
 62
     4
100
AcDbPolyline
 90
        2
 70
     0
 43
0.0
 10
3440.487136472913
 20
358.8667113168187
 42
0.3839441648238353
 10
3442.476238507401
 20
357.0752125125298
  0
LWPOLYLINE
  5
A902
330
1E
100
AcDbEntity
  8
躯体と製品
  6
Continuous
 62
     4
100
AcDbPolyline
 90
        2
 70
     0
 43
0.0
 10
3440.299347751272
 20
360.6582101211077
 42
0.3839441648238353
 10
3444.277551820247
 20
357.0752125125298
  0
LWPOLYLINE
  5
A903
330
1E
100
AcDbEntity
  8
躯体と製品
  6
Continuous
 62
     4
100
AcDbPolyline
 90
        2
 70
     0
 43
0.0
 10
3439.533911782539
 20
367.9604832334754
 42
0.4142135599002894
 10
3440.424212198488
 20
369.0592849228055
  0
LWPOLYLINE
  5
A904
330
1E
100
AcDbEntity
  8
躯体と製品
  6
Continuous
 62
     4
100
AcDbPolyline
 90
        2
 70
     0
 43
0.0
 10
3394.317954140937
 20
391.8297084846994
 42
0.4142135751758545
 10
3393.219152438653
 20
390.9394080261568
  0
LWPOLYLINE
  5
A905
330
1E
100
AcDbEntity
  8
躯体と製品
  6
Continuous
 62
     4
100
AcDbPolyline
 90
        2
 70
     0
 43
0.0
 10
3390.925640094293
 20
369.0592848877291
 42
0.4142136100916316
 10
3391.815940719426
 20
367.9604832119339
  0
LWPOLYLINE
  5
A906
330
1E
100
AcDbEntity
  8
躯体と製品
  6
Continuous
 62
     4
100
AcDbPolyline
 90
        2
 70
     0
 43
0.0
 10
3438.13069794678
 20
390.9394080612333
 42
0.414213555535901
 10
3437.031896279786
 20
391.8297084880131
  0
LWPOLYLINE
  5
A907
330
1E
100
AcDbEntity
  8
躯体と製品
  6
Continuous
 62
     4
100
AcDbPolyline
 90
        2
 70
     0
 43
0.0
 10
3399.547750629154
 20
404.7752104144462
 42
0.3839441648238354
 10
3395.271181065311
 20
400.9234878143744
  0
LWPOLYLINE
  5
A908
330
1E
100
AcDbEntity
  8
躯体と製品
  6
Continuous
 62
     4
100
AcDbPolyline
 90
        2
 70
     0
 43
0.0
 10
3387.072298219172
 20
357.0752125125298
 42
0.3839441797843188
 10
3391.050502623131
 20
360.6582099808017
  0
LWPOLYLINE
  5
A909
330
1E
100
AcDbEntity
  8
躯体と製品
  6
Continuous
 62
     4
100
AcDbPolyline
 90
        2
 70
     0
 43
0.0
 10
3388.873611706863
 20
357.0752125125298
 42
0.3839441797843188
 10
3390.862713908842
 20
358.8667112466658
  0
LWPOLYLINE
  5
A90A
330
1E
100
AcDbEntity
  8
躯体と製品
  6
Continuous
 62
     4
100
AcDbPolyline
 90
        2
 70
     0
 43
0.0
 10
3388.873611606327
 20
354.7752123217949
 42
0.3839441797843188
 10
3393.150181530278
 20
358.6269347710379
  0
LWPOLYLINE
  5
A90B
330
1E
100
AcDbEntity
  8
躯体と製品
  6
Continuous
 62
     4
100
AcDbPolyline
 90
        2
 70
     0
 43
0.0
 10
3401.349064042537
 20
402.4752102237114
 42
0.3839441648238354
 10
3397.370859973562
 20
398.8922126151335
  0
LWPOLYLINE
  5
A90C
330
1E
100
AcDbEntity
  8
躯体と製品
  6
Continuous
 62
     4
100
AcDbPolyline
 90
        2
 70
     0
 43
0.0
 10
3399.54775072969
 20
402.4752102237114
 42
0.3839441648238354
 10
3397.558648695203
 20
400.6837114194224
  0
LWPOLYLINE
  5
A90D
330
1E
100
AcDbEntity
  8
躯体と製品
  6
Continuous
 62
     4
100
AcDbPolyline
 90
        2
 70
     0
 43
0.0
 10
3436.078669307988
 20
400.9234879652033
 42
0.3839441797843188
 10
3431.802099384037
 20
404.7752104144462
  0
LWPOLYLINE
  5
A90E
330
1E
100
AcDbEntity
  8
躯体と製品
  6
Continuous
 62
     4
100
AcDbPolyline
 90
        2
 70
     0
 43
0.0
 10
3390.674925194554
 20
354.775209460772
 10
3390.674925194554
 20
352.775209460772
  0
LWPOLYLINE
  5
A90F
330
1E
100
AcDbEntity
  8
躯体と製品
  6
Continuous
 62
     4
100
AcDbPolyline
 90
        2
 70
     0
 43
0.0
 10
3390.674925194554
 20
352.775209460772
 10
3365.674925194554
 20
352.775209460772
  0
LWPOLYLINE
  5
A910
330
1E
100
AcDbEntity
  8
躯体と製品
  6
Continuous
 62
     4
100
AcDbPolyline
 90
        2
 70
     0
 43
0.0
 10
3440.674925194554
 20
352.775209460772
 10
3465.674925194554
 20
352.775209460772
  0
LWPOLYLINE
  5
A911
330
1E
100
AcDbEntity
  8
躯体と製品
  6
Continuous
 62
     4
100
AcDbPolyline
 90
        2
 70
     0
 43
0.0
 10
3440.674925194554
 20
354.775209460772
 10
3440.674925194554
 20
352.775209460772
  0
LWPOLYLINE
  5
A912
330
1E
100
AcDbEntity
  8
躯体と製品
  6
Continuous
 62
     4
100
AcDbPolyline
 90
        2
 70
     0
 43
0.0
 10
3415.674925432973
 20
402.4752102237114
 10
3431.802099571996
 20
402.4752102237114
  0
LWPOLYLINE
  5
A913
330
1E
100
AcDbEntity
  8
躯体と製品
  6
Continuous
 62
     4
100
AcDbPolyline
 90
        2
 70
     0
 43
0.0
 10
3415.674925432973
 20
404.7752094607719
 10
3431.802099571996
 20
404.7752094607719
  0
LWPOLYLINE
  5
A914
330
1E
100
AcDbEntity
  8
躯体と製品
  6
Continuous
 62
     4
100
AcDbPolyline
 90
        2
 70
     0
 43
0.0
 10
3440.487137184911
 20
358.8667087893853
 10
3436.078670845799
 20
400.9234867434868
  0
LWPOLYLINE
  5
A915
330
1E
100
AcDbEntity
  8
躯体と製品
  6
Continuous
 62
     4
100
AcDbPolyline
 90
        2
 70
     0
 43
0.0
 10
3365.674925194554
 20
357.0752125125298
 10
3365.674925194554
 20
352.775209460772
  0
LWPOLYLINE
  5
A916
330
1E
100
AcDbEntity
  8
躯体と製品
  6
Continuous
 62
     4
100
AcDbPolyline
 90
        2
 70
     0
 43
0.0
 10
3438.199669228368
 20
358.6269321780571
 10
3433.791202889257
 20
400.6837101321586
  0
LWPOLYLINE
  5
A917
330
1E
100
AcDbEntity
  8
躯体と製品
  6
Continuous
 62
     4
100
AcDbPolyline
 90
        2
 70
     0
 43
0.0
 10
3440.424211846166
 20
369.0592899661431
 10
3438.130697594457
 20
390.9394092898736
  0
LWPOLYLINE
  5
A918
330
1E
100
AcDbEntity
  8
躯体と製品
  6
Continuous
 62
     4
100
AcDbPolyline
 90
        2
 70
     0
 43
0.0
 10
3388.873611794286
 20
357.0752125125298
 10
3365.674925194554
 20
357.0752125125298
  0
LWPOLYLINE
  5
A919
330
1E
100
AcDbEntity
  8
躯体と製品
  6
Continuous
 62
     4
100
AcDbPolyline
 90
        2
 70
     0
 43
0.0
 10
3390.674925194554
 20
354.775209460772
 10
3365.674925194554
 20
354.775209460772
  0
LWPOLYLINE
  5
A91A
330
1E
100
AcDbEntity
  8
躯体と製品
  6
Continuous
 62
     4
100
AcDbPolyline
 90
        2
 70
     0
 43
0.0
 10
3390.925638542943
 20
369.0592899661431
 10
3393.219152794652
 20
390.9394092898736
  0
LWPOLYLINE
  5
A91B
330
1E
100
AcDbEntity
  8
躯体と製品
  6
Continuous
 62
     4
100
AcDbPolyline
 90
        2
 70
     0
 43
0.0
 10
3393.150181160741
 20
358.6269321780571
 10
3397.558648453526
 20
400.6837101321586
  0
LWPOLYLINE
  5
A91C
330
1E
100
AcDbEntity
  8
躯体と製品
  6
Continuous
 62
     4
100
AcDbPolyline
 90
        2
 70
     0
 43
0.0
 10
3415.674925432973
 20
402.4752102237114
 10
3399.547750817113
 20
402.4752102237114
  0
LWPOLYLINE
  5
A91D
330
1E
100
AcDbEntity
  8
躯体と製品
  6
Continuous
 62
     4
100
AcDbPolyline
 90
        2
 70
     0
 43
0.0
 10
3390.862713204198
 20
358.8667087893853
 10
3395.271181450658
 20
400.9234867434868
  0
LWPOLYLINE
  5
A91E
330
1E
100
AcDbEntity
  8
躯体と製品
  6
Continuous
 62
     4
100
AcDbPolyline
 90
        2
 70
     0
 43
0.0
 10
3415.674925432973
 20
404.7752094607719
 10
3399.547750817113
 20
404.7752094607719
  0
LWPOLYLINE
  5
A91F
330
1E
100
AcDbEntity
  8
躯体と製品
  6
Continuous
 62
     4
100
AcDbPolyline
 90
        2
 70
     0
 43
0.0
 10
3440.674925194554
 20
354.775209460772
 10
3465.674925194554
 20
354.775209460772
  0
LWPOLYLINE
  5
A920
330
1E
100
AcDbEntity
  8
躯体と製品
  6
Continuous
 62
     4
100
AcDbPolyline
 90
        2
 70
     0
 43
0.0
 10
3465.674925194554
 20
357.0752125125298
 10
3465.674925194554
 20
352.775209460772
  0
LWPOLYLINE
  5
A921
330
1E
100
AcDbEntity
  8
躯体と製品
  6
Continuous
 62
     4
100
AcDbPolyline
 90
        2
 70
     0
 43
0.0
 10
3442.476238594823
 20
357.0752125125298
 10
3465.674925194554
 20
357.0752125125298
  0
LWPOLYLINE
  5
A922
330
1E
100
AcDbEntity
  8
躯体と製品
  6
Continuous
 62
     4
100
AcDbPolyline
 90
        2
 70
     0
 43
0.0
 10
3410.474925504498
 20
379.775209460772
 10
3410.474925504499
 20
395.4752102237114
  0
LWPOLYLINE
  5
A923
330
1E
100
AcDbEntity
  8
躯体と製品
  6
Continuous
 62
     4
100
AcDbPolyline
 90
        2
 70
     0
 43
0.0
 10
3409.674925432973
 20
380.5752094607719
 10
3409.674925432973
 20
395.4752102237114
  0
LWPOLYLINE
  5
A924
330
1E
100
AcDbEntity
  8
躯体と製品
  6
Continuous
 62
     4
100
AcDbPolyline
 90
        2
 70
     0
 43
0.0
 10
3420.874925957494
 20
379.7752102237108
 10
3420.874925957494
 20
395.4752102237114
  0
LWPOLYLINE
  5
A925
330
1E
100
AcDbEntity
  8
躯体と製品
  6
Continuous
 62
     4
100
AcDbPolyline
 90
        2
 70
     0
 43
0.0
 10
3421.674925194555
 20
380.5752094607719
 10
3421.674925194555
 20
395.4752102237114
  0
LWPOLYLINE
  5
A926
330
1E
100
AcDbEntity
  8
躯体と製品
  6
Continuous
 62
     4
100
AcDbPolyline
 90
        2
 70
     0
 43
0.0
 10
3509.424925194554
 20
541.275209460772
 10
3509.424925194554
 20
534.7752094607719
  0
LWPOLYLINE
  5
A927
330
1E
100
AcDbEntity
  8
躯体と製品
  6
Continuous
 62
     4
100
AcDbPolyline
 90
        2
 70
     0
 43
0.0
 10
3514.924925194554
 20
541.275209460772
 10
3509.424925194554
 20
541.275209460772
  0
LWPOLYLINE
  5
A928
330
1E
100
AcDbEntity
  8
躯体と製品
  6
Continuous
 62
     4
100
AcDbPolyline
 90
        2
 70
     0
 43
0.0
 10
3514.924925194554
 20
546.2752094607719
 10
3514.924925194554
 20
541.275209460772
  0
LWPOLYLINE
  5
A929
330
1E
100
AcDbEntity
  8
躯体と製品
  6
Continuous
 62
     4
100
AcDbPolyline
 90
        2
 70
     0
 43
0.0
 10
3509.424925194554
 20
546.2752094607719
 10
3514.924925194554
 20
546.2752094607719
  0
LWPOLYLINE
  5
A92A
330
1E
100
AcDbEntity
  8
躯体と製品
  6
Continuous
 62
     4
100
AcDbPolyline
 90
        2
 70
     0
 43
0.0
 10
3509.424925194554
 20
552.7752094607719
 10
3509.424925194554
 20
546.2752094607719
  0
LWPOLYLINE
  5
A92B
330
1E
100
AcDbEntity
  8
躯体と製品
  6
Continuous
 62
     4
100
AcDbPolyline
 90
        2
 70
     0
 43
0.0
 10
3434.424925194554
 20
541.275209460772
 10
3434.424925194554
 20
534.7752094607719
  0
LWPOLYLINE
  5
A92C
330
1E
100
AcDbEntity
  8
躯体と製品
  6
Continuous
 62
     4
100
AcDbPolyline
 90
        2
 70
     0
 43
0.0
 10
3439.924925194554
 20
541.275209460772
 10
3434.424925194554
 20
541.275209460772
  0
LWPOLYLINE
  5
A92D
330
1E
100
AcDbEntity
  8
躯体と製品
  6
Continuous
 62
     4
100
AcDbPolyline
 90
        2
 70
     0
 43
0.0
 10
3439.924925194554
 20
546.2752094607719
 10
3439.924925194554
 20
541.275209460772
  0
LWPOLYLINE
  5
A92E
330
1E
100
AcDbEntity
  8
躯体と製品
  6
Continuous
 62
     4
100
AcDbPolyline
 90
        2
 70
     0
 43
0.0
 10
3434.424925194554
 20
546.2752094607719
 10
3439.924925194554
 20
546.2752094607719
  0
LWPOLYLINE
  5
A92F
330
1E
100
AcDbEntity
  8
躯体と製品
  6
Continuous
 62
     4
100
AcDbPolyline
 90
        2
 70
     0
 43
0.0
 10
3434.424925194554
 20
552.7752094607719
 10
3434.424925194554
 20
546.2752094607719
  0
LWPOLYLINE
  5
A930
330
1E
100
AcDbEntity
  8
躯体と製品
  6
Continuous
 62
     4
100
AcDbPolyline
 90
        2
 70
     0
 43
0.0
 10
3359.424925194554
 20
541.275209460772
 10
3359.424925194554
 20
534.7752094607719
  0
LWPOLYLINE
  5
A931
330
1E
100
AcDbEntity
  8
躯体と製品
  6
Continuous
 62
     4
100
AcDbPolyline
 90
        2
 70
     0
 43
0.0
 10
3364.924925194554
 20
541.275209460772
 10
3359.424925194554
 20
541.275209460772
  0
LWPOLYLINE
  5
A932
330
1E
100
AcDbEntity
  8
躯体と製品
  6
Continuous
 62
     4
100
AcDbPolyline
 90
        2
 70
     0
 43
0.0
 10
3364.924925194554
 20
546.2752094607719
 10
3364.924925194554
 20
541.275209460772
  0
LWPOLYLINE
  5
A933
330
1E
100
AcDbEntity
  8
躯体と製品
  6
Continuous
 62
     4
100
AcDbPolyline
 90
        2
 70
     0
 43
0.0
 10
3359.424925194554
 20
546.2752094607719
 10
3364.924925194554
 20
546.2752094607719
  0
LWPOLYLINE
  5
A934
330
1E
100
AcDbEntity
  8
躯体と製品
  6
Continuous
 62
     4
100
AcDbPolyline
 90
        2
 70
     0
 43
0.0
 10
3359.424925194554
 20
552.7752094607719
 10
3359.424925194554
 20
546.2752094607719
  0
LWPOLYLINE
  5
A944
330
1E
100
AcDbEntity
  8
躯体と製品
  6
Continuous
 62
     4
100
AcDbPolyline
 90
        2
 70
     0
 43
0.0
 10
3790.305917803301
 20
352.775209460772
 10
3775.305917803301
 20
337.775209460772
  0
LWPOLYLINE
  5
A945
330
1E
100
AcDbEntity
  8
躯体と製品
  6
Continuous
 62
     4
100
AcDbPolyline
 90
        2
 70
     0
 43
0.0
 10
3795.305917803302
 20
352.775209460772
 10
3780.305917803302
 20
337.775209460772
  0
LWPOLYLINE
  5
A946
330
1E
100
AcDbEntity
  8
躯体と製品
  6
Continuous
 62
     4
100
AcDbPolyline
 90
        2
 70
     0
 43
0.0
 10
3800.305917803301
 20
352.775209460772
 10
3785.305917803301
 20
337.775209460772
  0
LWPOLYLINE
  5
A947
330
1E
100
AcDbEntity
  8
躯体と製品
  6
Continuous
 62
     4
100
AcDbPolyline
 90
        2
 70
     0
 43
0.0
 10
3640.305917803301
 20
352.775209460772
 10
3625.305917803301
 20
337.775209460772
  0
LWPOLYLINE
  5
A948
330
1E
100
AcDbEntity
  8
躯体と製品
  6
Continuous
 62
     4
100
AcDbPolyline
 90
        2
 70
     0
 43
0.0
 10
3645.305917803302
 20
352.775209460772
 10
3630.305917803302
 20
337.775209460772
  0
LWPOLYLINE
  5
A949
330
1E
100
AcDbEntity
  8
躯体と製品
  6
Continuous
 62
     4
100
AcDbPolyline
 90
        2
 70
     0
 43
0.0
 10
3650.305917803301
 20
352.775209460772
 10
3635.305917803302
 20
337.775209460772
  0
LWPOLYLINE
  5
A94A
330
1E
100
AcDbEntity
  8
躯体と製品
  6
Continuous
 62
     4
100
AcDbPolyline
 90
        2
 70
     0
 43
0.0
 10
3485.674925194555
 20
352.775209460772
 10
3470.674925194555
 20
337.775209460772
  0
LWPOLYLINE
  5
A94B
330
1E
100
AcDbEntity
  8
躯体と製品
  6
Continuous
 62
     4
100
AcDbPolyline
 90
        2
 70
     0
 43
0.0
 10
3490.674925194554
 20
352.775209460772
 10
3475.674925194554
 20
337.775209460772
  0
LWPOLYLINE
  5
A94C
330
1E
100
AcDbEntity
  8
躯体と製品
  6
Continuous
 62
     4
100
AcDbPolyline
 90
        2
 70
     0
 43
0.0
 10
3495.674925194555
 20
352.775209460772
 10
3480.674925194555
 20
337.775209460772
  0
LWPOLYLINE
  5
A94D
330
1E
100
AcDbEntity
  8
躯体と製品
  6
Continuous
 62
     4
100
AcDbPolyline
 90
        2
 70
     0
 43
0.0
 10
3335.674925194555
 20
352.775209460772
 10
3320.674925194554
 20
337.775209460772
  0
LWPOLYLINE
  5
A94E
330
1E
100
AcDbEntity
  8
躯体と製品
  6
Continuous
 62
     4
100
AcDbPolyline
 90
        2
 70
     0
 43
0.0
 10
3340.674925194554
 20
352.775209460772
 10
3325.674925194554
 20
337.775209460772
  0
LWPOLYLINE
  5
A94F
330
1E
100
AcDbEntity
  8
躯体と製品
  6
Continuous
 62
     4
100
AcDbPolyline
 90
        2
 70
     0
 43
0.0
 10
3345.674925194555
 20
352.775209460772
 10
3330.674925194554
 20
337.775209460772
  0
LWPOLYLINE
  5
A950
330
1E
100
AcDbEntity
  8
躯体と製品
  6
Continuous
 62
     4
100
AcDbPolyline
 90
        2
 70
     0
 43
0.0
 10
3421.674925194555
 20
468.9752094607719
 10
3420.874925194553
 20
469.775209460772
  0
LWPOLYLINE
  5
A951
330
1E
100
AcDbEntity
  8
躯体と製品
  6
Continuous
 62
     4
100
AcDbPolyline
 90
        2
 70
     0
 43
0.0
 10
3409.674925194555
 20
468.9752094607719
 10
3410.474925194554
 20
469.775209460772
  0
LWPOLYLINE
  5
A952
330
1E
100
AcDbEntity
  8
躯体と製品
  6
Continuous
 62
     4
100
AcDbPolyline
 90
        2
 70
     0
 43
0.0
 10
3420.874925194553
 20
459.7752094607719
 10
3420.874925194553
 20
469.775209460772
  0
LWPOLYLINE
  5
A953
330
1E
100
AcDbEntity
  8
躯体と製品
  6
Continuous
 62
     4
100
AcDbPolyline
 90
        2
 70
     0
 43
0.0
 10
3421.674925194555
 20
459.7752094607719
 10
3421.674925194555
 20
468.9752094607719
  0
LWPOLYLINE
  5
A954
330
1E
100
AcDbEntity
  8
躯体と製品
  6
Continuous
 62
     4
100
AcDbPolyline
 90
        2
 70
     0
 43
0.0
 10
3410.474925194554
 20
459.7752094607719
 10
3410.474925194554
 20
469.775209460772
  0
LWPOLYLINE
  5
A955
330
1E
100
AcDbEntity
  8
躯体と製品
  6
Continuous
 62
     4
100
AcDbPolyline
 90
        2
 70
     0
 43
0.0
 10
3409.674925194555
 20
459.7752094607719
 10
3409.674925194555
 20
468.9752094607719
  0
LWPOLYLINE
  5
A956
330
1E
100
AcDbEntity
  8
躯体と製品
  6
Continuous
 62
     4
100
AcDbPolyline
 90
        2
 70
     0
 43
0.0
 10
3410.474925194554
 20
469.775209460772
 10
3420.874925194553
 20
469.775209460772
  0
LWPOLYLINE
  5
A957
330
1E
100
AcDbEntity
  8
躯体と製品
  6
Continuous
 62
     4
100
AcDbPolyline
 90
        2
 70
     0
 43
0.0
 10
3409.674925194555
 20
468.9752094607719
 10
3421.674925194555
 20
468.9752094607719
  0
LWPOLYLINE
  5
A958
330
1E
100
AcDbEntity
  8
躯体と製品
  6
Continuous
 62
     4
100
AcDbPolyline
 90
        2
 70
     0
 43
0.0
 10
3435.674925194554
 20
486.6752094607719
 42
0.4142135777083371
 10
3433.574925084603
 20
488.7752094607719
  0
LWPOLYLINE
  5
A959
330
1E
100
AcDbEntity
  8
躯体と製品
  6
Continuous
 62
     4
100
AcDbPolyline
 90
        2
 70
     0
 43
0.0
 10
3434.074925194554
 20
486.6752094607719
 42
0.4142135777083371
 10
3433.574925168375
 20
487.1752094607719
  0
LWPOLYLINE
  5
A95A
330
1E
100
AcDbEntity
  8
躯体と製品
  6
Continuous
 62
     4
100
AcDbPolyline
 90
        2
 70
     0
 43
0.0
 10
3397.774925168375
 20
487.1752094607719
 42
0.4142135777083371
 10
3397.274925194554
 20
486.6752094084141
  0
LWPOLYLINE
  5
A95B
330
1E
100
AcDbEntity
  8
躯体と製品
  6
Continuous
 62
     4
100
AcDbPolyline
 90
        2
 70
     0
 43
0.0
 10
3434.674925194555
 20
495.4752094607719
 10
3434.674925194555
 20
488.7752094607719
  0
LWPOLYLINE
  5
A95C
330
1E
100
AcDbEntity
  8
躯体と製品
  6
Continuous
 62
     4
100
AcDbPolyline
 90
        2
 70
     0
 43
0.0
 10
3396.674925194555
 20
495.4752094607719
 10
3434.674925194555
 20
495.4752094607719
  0
LWPOLYLINE
  5
A95D
330
1E
100
AcDbEntity
  8
躯体と製品
  6
Continuous
 62
     4
100
AcDbPolyline
 90
        2
 70
     0
 43
0.0
 10
3396.674925194555
 20
488.7752094607719
 10
3396.674925194555
 20
495.4752094607719
  0
LWPOLYLINE
  5
A95E
330
1E
100
AcDbEntity
  8
躯体と製品
  6
Continuous
 62
     4
100
AcDbPolyline
 90
        2
 70
     0
 43
0.0
 10
3434.674925194555
 20
488.7752094607719
 10
3396.674925194555
 20
488.7752094607719
  0
LWPOLYLINE
  5
A95F
330
1E
100
AcDbEntity
  8
躯体と製品
  6
Continuous
 62
     4
100
AcDbPolyline
 90
        2
 70
     0
 43
0.0
 10
3433.574925194554
 20
487.1752094607719
 10
3397.774925194554
 20
487.1752094607719
  0
LWPOLYLINE
  5
A960
330
1E
100
AcDbEntity
  8
躯体と製品
  6
Continuous
 62
     4
100
AcDbPolyline
 90
        2
 70
     0
 43
0.0
 10
3433.574925194554
 20
488.7752094607719
 10
3397.774925194554
 20
488.7752094607719
  0
LWPOLYLINE
  5
A961
330
1E
100
AcDbEntity
  8
躯体と製品
  6
Continuous
 62
     4
100
AcDbPolyline
 90
        2
 70
     0
 43
0.0
 10
3451.074925194554
 20
462.475209460772
 10
3452.674925194555
 20
462.475209460772
  0
LWPOLYLINE
  5
A962
330
1E
100
AcDbEntity
  8
躯体と製品
  6
Continuous
 62
     4
100
AcDbPolyline
 90
        2
 70
     0
 43
0.0
 10
3451.074925194554
 20
461.8752094607718
 10
3451.074925194554
 20
462.475209460772
  0
LWPOLYLINE
  5
A963
330
1E
100
AcDbEntity
  8
躯体と製品
  6
Continuous
 62
     4
100
AcDbPolyline
 90
        2
 70
     0
 43
0.0
 10
3452.674925194555
 20
461.8752094607718
 10
3452.674925194555
 20
462.475209460772
  0
LWPOLYLINE
  5
A964
330
1E
100
AcDbEntity
  8
躯体と製品
  6
Continuous
 62
     4
100
AcDbPolyline
 90
        2
 70
     0
 43
0.0
 10
3450.574925168375
 20
461.3752094607718
 42
0.4142135777083371
 10
3451.074925194554
 20
461.8752094607718
  0
LWPOLYLINE
  5
A965
330
1E
100
AcDbEntity
  8
躯体と製品
  6
Continuous
 62
     4
100
AcDbPolyline
 90
        2
 70
     0
 43
0.0
 10
3450.574925084602
 20
459.7752094607718
 42
0.4142135777083371
 10
3452.674925194554
 20
461.8752094607718
  0
LWPOLYLINE
  5
A966
330
1E
100
AcDbEntity
  8
躯体と製品
  6
Continuous
 62
     4
100
AcDbPolyline
 90
        2
 70
     0
 43
0.0
 10
3434.074925194555
 20
461.8752092408691
 42
0.41421351636737
 10
3436.174925084603
 20
459.7752094607718
  0
LWPOLYLINE
  5
A967
330
1E
100
AcDbEntity
  8
躯体と製品
  6
Continuous
 62
     4
100
AcDbPolyline
 90
        2
 70
     0
 43
0.0
 10
3435.674925194554
 20
461.8752094084141
 42
0.41421351636737
 10
3436.174925168375
 20
461.3752094607718
  0
LWPOLYLINE
  5
A968
330
1E
100
AcDbEntity
  8
躯体と製品
  6
Continuous
 62
     4
100
AcDbPolyline
 90
        2
 70
     0
 43
0.0
 10
3436.174925194555
 20
459.7752094607719
 10
3450.574925194554
 20
459.7752094607719
  0
LWPOLYLINE
  5
A969
330
1E
100
AcDbEntity
  8
躯体と製品
  6
Continuous
 62
     4
100
AcDbPolyline
 90
        2
 70
     0
 43
0.0
 10
3436.174925194555
 20
461.3752094607718
 10
3450.574925194554
 20
461.3752094607718
  0
LWPOLYLINE
  5
A96A
330
1E
100
AcDbEntity
  8
躯体と製品
  6
Continuous
 62
     4
100
AcDbPolyline
 90
        2
 70
     0
 43
0.0
 10
3434.074925194554
 20
461.8752094607718
 10
3434.074925194554
 20
486.6752094607719
  0
LWPOLYLINE
  5
A96B
330
1E
100
AcDbEntity
  8
躯体と製品
  6
Continuous
 62
     4
100
AcDbPolyline
 90
        2
 70
     0
 43
0.0
 10
3435.674925194554
 20
461.8752094607718
 10
3435.674925194554
 20
486.6752094607719
  0
LWPOLYLINE
  5
A96C
330
1E
100
AcDbEntity
  8
躯体と製品
  6
Continuous
 62
     4
100
AcDbPolyline
 90
        2
 70
     0
 43
0.0
 10
3397.274925194554
 20
461.8752094607718
 10
3397.274925194554
 20
486.6752094607719
  0
LWPOLYLINE
  5
A96D
330
1E
100
AcDbEntity
  8
躯体と製品
  6
Continuous
 62
     4
100
AcDbPolyline
 90
        2
 70
     0
 43
0.0
 10
3395.174925194555
 20
459.7752094607719
 10
3380.774925194554
 20
459.7752094607719
  0
LWPOLYLINE
  5
A96E
330
1E
100
AcDbEntity
  8
躯体と製品
  6
Continuous
 62
     4
100
AcDbPolyline
 90
        2
 70
     0
 43
0.0
 10
3395.174925194555
 20
461.3752094607718
 10
3380.774925194554
 20
461.3752094607718
  0
LWPOLYLINE
  5
A96F
330
1E
100
AcDbEntity
  8
躯体と製品
  6
Continuous
 62
     4
100
AcDbPolyline
 90
        2
 70
     0
 43
0.0
 10
3380.274925194554
 20
461.8752094607718
 10
3380.274925194554
 20
462.475209460772
  0
LWPOLYLINE
  5
A970
330
1E
100
AcDbEntity
  8
躯体と製品
  6
Continuous
 62
     4
100
AcDbPolyline
 90
        2
 70
     0
 43
0.0
 10
3380.274925194554
 20
461.8752094084141
 42
0.41421351636737
 10
3380.774925168375
 20
461.3752094607718
  0
LWPOLYLINE
  5
A971
330
1E
100
AcDbEntity
  8
躯体と製品
  6
Continuous
 62
     4
100
AcDbPolyline
 90
        2
 70
     0
 43
0.0
 10
3395.174925168376
 20
461.3752094607718
 42
0.4142135777083371
 10
3395.674925194555
 20
461.8752094607718
  0
LWPOLYLINE
  5
A972
330
1E
100
AcDbEntity
  8
躯体と製品
  6
Continuous
 62
     4
100
AcDbPolyline
 90
        2
 70
     0
 43
0.0
 10
3378.674925194554
 20
461.8752094607718
 10
3378.674925194554
 20
462.475209460772
  0
LWPOLYLINE
  5
A973
330
1E
100
AcDbEntity
  8
躯体と製品
  6
Continuous
 62
     4
100
AcDbPolyline
 90
        2
 70
     0
 43
0.0
 10
3378.674925194554
 20
461.8752092408691
 42
0.41421351636737
 10
3380.774925084602
 20
459.7752094607718
  0
LWPOLYLINE
  5
A974
330
1E
100
AcDbEntity
  8
躯体と製品
  6
Continuous
 62
     4
100
AcDbPolyline
 90
        2
 70
     0
 43
0.0
 10
3380.274925194554
 20
462.475209460772
 10
3378.674925194554
 20
462.475209460772
  0
LWPOLYLINE
  5
A975
330
1E
100
AcDbEntity
  8
躯体と製品
  6
Continuous
 62
     4
100
AcDbPolyline
 90
        2
 70
     0
 43
0.0
 10
3395.674925194555
 20
461.8752094607718
 10
3395.674925194555
 20
486.6752094607719
  0
LWPOLYLINE
  5
A976
330
1E
100
AcDbEntity
  8
躯体と製品
  6
Continuous
 62
     4
100
AcDbPolyline
 90
        2
 70
     0
 43
0.0
 10
3454.674925194554
 20
457.775209460772
 10
3454.674925194554
 20
464.4752094607719
  0
LWPOLYLINE
  5
A977
330
1E
100
AcDbEntity
  8
躯体と製品
  6
Continuous
 62
     4
100
AcDbPolyline
 90
        2
 70
     0
 43
0.0
 10
3376.674925194554
 20
457.775209460772
 10
3454.674925194554
 20
457.775209460772
  0
LWPOLYLINE
  5
A978
330
1E
100
AcDbEntity
  8
躯体と製品
  6
Continuous
 62
     4
100
AcDbPolyline
 90
        2
 70
     0
 43
0.0
 10
3376.674925194554
 20
464.4752094607719
 10
3376.674925194554
 20
457.775209460772
  0
LWPOLYLINE
  5
A979
330
1E
100
AcDbEntity
  8
躯体と製品
  6
Continuous
 62
     4
100
AcDbPolyline
 90
        2
 70
     0
 43
0.0
 10
3381.674925194555
 20
464.4752094607719
 10
3376.674925194554
 20
464.4752094607719
  0
LWPOLYLINE
  5
A97A
330
1E
100
AcDbEntity
  8
躯体と製品
  6
Continuous
 62
     4
100
AcDbPolyline
 90
        2
 70
     0
 43
0.0
 10
3381.674925194555
 20
462.475209460772
 10
3381.674925194555
 20
464.4752094607719
  0
LWPOLYLINE
  5
A97B
330
1E
100
AcDbEntity
  8
躯体と製品
  6
Continuous
 62
     4
100
AcDbPolyline
 90
        2
 70
     0
 43
0.0
 10
3378.674925194554
 20
462.475209460772
 10
3381.674925194555
 20
462.475209460772
  0
LWPOLYLINE
  5
A97C
330
1E
100
AcDbEntity
  8
躯体と製品
  6
Continuous
 62
     4
100
AcDbPolyline
 90
        2
 70
     0
 43
0.0
 10
3378.674925194554
 20
459.7752094607719
 10
3378.674925194554
 20
462.475209460772
  0
LWPOLYLINE
  5
A97D
330
1E
100
AcDbEntity
  8
躯体と製品
  6
Continuous
 62
     4
100
AcDbPolyline
 90
        2
 70
     0
 43
0.0
 10
3452.674925194555
 20
459.7752094607719
 10
3378.674925194554
 20
459.7752094607719
  0
LWPOLYLINE
  5
A97E
330
1E
100
AcDbEntity
  8
躯体と製品
  6
Continuous
 62
     4
100
AcDbPolyline
 90
        2
 70
     0
 43
0.0
 10
3452.674925194555
 20
462.475209460772
 10
3452.674925194555
 20
459.7752094607719
  0
LWPOLYLINE
  5
A97F
330
1E
100
AcDbEntity
  8
躯体と製品
  6
Continuous
 62
     4
100
AcDbPolyline
 90
        2
 70
     0
 43
0.0
 10
3449.674925194555
 20
462.475209460772
 10
3452.674925194555
 20
462.475209460772
  0
LWPOLYLINE
  5
A980
330
1E
100
AcDbEntity
  8
躯体と製品
  6
Continuous
 62
     4
100
AcDbPolyline
 90
        2
 70
     0
 43
0.0
 10
3449.674925194555
 20
464.4752094607719
 10
3449.674925194555
 20
462.475209460772
  0
LWPOLYLINE
  5
A981
330
1E
100
AcDbEntity
  8
躯体と製品
  6
Continuous
 62
     4
100
AcDbPolyline
 90
        2
 70
     0
 43
0.0
 10
3454.674925194554
 20
464.4752094607719
 10
3449.674925194555
 20
464.4752094607719
  0
LWPOLYLINE
  5
A982
330
1E
100
AcDbEntity
  8
躯体と製品
  6
Continuous
 62
     4
100
AcDbPolyline
 90
        2
 70
     0
 43
0.0
 10
3395.174925084603
 20
459.7752094607718
 42
0.4142135777083371
 10
3397.274925194555
 20
461.8752094607718
  0
LWPOLYLINE
  5
A983
330
1E
100
AcDbEntity
  8
躯体と製品
  6
Continuous
 62
     4
100
AcDbPolyline
 90
        2
 70
     0
 43
0.0
 10
3397.774925084603
 20
488.7752094607719
 42
0.4142135777083371
 10
3395.674925194554
 20
486.6752092408692
  0
LWPOLYLINE
  5
A984
330
1E
100
AcDbEntity
  8
躯体と製品
  6
Continuous
 62
     4
100
AcDbPolyline
 90
        2
 70
     0
 43
0.0
 10
3853.523728194554
 20
488.7752094607719
 10
3603.523728194554
 20
488.7752094607719
  0
LWPOLYLINE
  5
A985
330
1E
100
AcDbEntity
  8
躯体と製品
  6
Continuous
 62
     4
100
AcDbPolyline
 90
        2
 70
     0
 43
0.0
 10
3680.523728194554
 20
464.4752094607719
 10
3680.523728194554
 20
457.775209460772
  0
LWPOLYLINE
  5
A986
330
1E
100
AcDbEntity
  8
躯体と製品
  6
Continuous
 62
     4
100
AcDbPolyline
 90
        2
 70
     0
 43
0.0
 10
3642.523728194554
 20
464.4752094607719
 10
3680.523728194554
 20
464.4752094607719
  0
LWPOLYLINE
  5
A987
330
1E
100
AcDbEntity
  8
躯体と製品
  6
Continuous
 62
     4
100
AcDbPolyline
 90
        2
 70
     0
 43
0.0
 10
3642.523728194554
 20
457.775209460772
 10
3642.523728194554
 20
464.4752094607719
  0
LWPOLYLINE
  5
A988
330
1E
100
AcDbEntity
  8
躯体と製品
  6
Continuous
 62
     4
100
AcDbPolyline
 90
        2
 70
     0
 43
0.0
 10
3680.523728194554
 20
457.775209460772
 10
3642.523728194554
 20
457.775209460772
  0
LWPOLYLINE
  5
A989
330
1E
100
AcDbEntity
  8
躯体と製品
  6
Continuous
 62
     4
100
AcDbPolyline
 90
        2
 70
     0
 43
0.0
 10
3680.523728194554
 20
462.475209460772
 10
3853.523728194554
 20
462.475209460772
  0
LWPOLYLINE
  5
A98A
330
1E
100
AcDbEntity
  8
躯体と製品
  6
Continuous
 62
     4
100
AcDbPolyline
 90
        2
 70
     0
 43
0.0
 10
3853.523728194554
 20
459.7752094607719
 10
3680.523728194554
 20
459.7752094607719
  0
LWPOLYLINE
  5
A98B
330
1E
100
AcDbEntity
  8
躯体と製品
  6
Continuous
 62
     4
100
AcDbPolyline
 90
        2
 70
     0
 43
0.0
 10
3642.523728194554
 20
462.475209460772
 10
3603.523728194554
 20
462.475209460772
  0
LWPOLYLINE
  5
A98C
330
1E
100
AcDbEntity
  8
躯体と製品
  6
Continuous
 62
     4
100
AcDbPolyline
 90
        2
 70
     0
 43
0.0
 10
3642.523728194554
 20
459.7752094607719
 10
3603.523728194554
 20
459.7752094607719
  0
LWPOLYLINE
  5
A98D
330
1E
100
AcDbEntity
  8
躯体と製品
  6
Continuous
 62
     4
100
AcDbPolyline
 90
        2
 70
     0
 43
0.0
 10
3853.523728194554
 20
352.775209460772
 10
3603.523728194554
 20
352.775209460772
  0
LWPOLYLINE
  5
A98E
330
1E
100
AcDbEntity
  8
躯体と製品
  6
Continuous
 62
     4
100
AcDbPolyline
 90
        2
 70
     0
 43
0.0
 10
3853.523728194554
 20
524.775209460772
 10
3603.523728194554
 20
524.775209460772
  0
LWPOLYLINE
  5
A98F
330
1E
100
AcDbEntity
  8
躯体と製品
  6
Continuous
 62
     4
100
AcDbPolyline
 90
        2
 70
     0
 43
0.0
 10
3853.523728194554
 20
529.7752094607719
 10
3603.523728194554
 20
529.7752094607719
  0
LWPOLYLINE
  5
A990
330
1E
100
AcDbEntity
  8
躯体と製品
  6
Continuous
 62
     4
100
AcDbPolyline
 90
        2
 70
     0
 43
0.0
 10
3853.523728194554
 20
552.7752094607719
 10
3603.523728194554
 20
552.7752094607719
  0
LWPOLYLINE
  5
A991
330
1E
100
AcDbEntity
  8
躯体と製品
  6
Continuous
 62
     4
100
AcDbPolyline
 90
        2
 70
     0
 43
0.0
 10
3853.523728194554
 20
534.7752094607719
 10
3603.523728194554
 20
534.7752094607719
  0
LWPOLYLINE
  5
A992
330
1E
100
AcDbEntity
  8
躯体と製品
  6
Continuous
 62
     4
100
AcDbPolyline
 90
        2
 70
     0
 43
0.0
 10
3853.523728194554
 20
519.775209460772
 10
3603.523728194554
 20
519.775209460772
  0
LWPOLYLINE
  5
A993
330
1E
100
AcDbEntity
  8
躯体と製品
  6
Continuous
 62
     4
100
AcDbPolyline
 90
        2
 70
     0
 43
0.0
 10
3711.523727194554
 20
451.9752104607719
 42
0.4142135751755501
 10
3705.723726941034
 20
457.7752104607718
  0
LWPOLYLINE
  5
A994
330
1E
100
AcDbEntity
  8
躯体と製品
  6
Continuous
 62
     4
100
AcDbPolyline
 90
        2
 70
     0
 43
0.0
 10
3617.323728941034
 20
457.7752104607718
 42
0.4142135751766157
 10
3611.523729194554
 20
451.9752099537111
  0
LWPOLYLINE
  5
A995
330
1E
100
AcDbEntity
  8
躯体と製品
  6
Continuous
 62
     4
100
AcDbPolyline
 90
        2
 70
     0
 43
0.0
 10
3661.523728194553
 20
446.7752094607719
 10
3711.523730194554
 20
446.7752094607719
  0
LWPOLYLINE
  5
A996
330
1E
100
AcDbEntity
  8
躯体と製品
  6
Continuous
 62
     4
100
AcDbPolyline
 90
        2
 70
     0
 43
0.0
 10
3617.323729194554
 20
457.775209460772
 10
3705.723727194554
 20
457.775209460772
  0
LWPOLYLINE
  5
A997
330
1E
100
AcDbEntity
  8
躯体と製品
  6
Continuous
 62
     4
100
AcDbPolyline
 90
        2
 70
     0
 43
0.0
 10
3711.523730194554
 20
446.7752094607719
 10
3711.523730194554
 20
451.9752104607719
  0
LWPOLYLINE
  5
A998
330
1E
100
AcDbEntity
  8
躯体と製品
  6
Continuous
 62
     4
100
AcDbPolyline
 90
        2
 70
     0
 43
0.0
 10
3611.523730194554
 20
446.7752094607719
 10
3611.523730194554
 20
451.9752104607719
  0
LWPOLYLINE
  5
A999
330
1E
100
AcDbEntity
  8
躯体と製品
  6
Continuous
 62
     4
100
AcDbPolyline
 90
        2
 70
     0
 43
0.0
 10
3661.523728194553
 20
446.7752094607719
 10
3611.523730194554
 20
446.7752094607719
  0
LWPOLYLINE
  5
A99A
330
1E
100
AcDbEntity
  8
躯体と製品
  6
Continuous
 62
     4
100
AcDbPolyline
 90
        2
 70
     0
 43
0.0
 10
3540.674925194554
 20
352.775209460772
 10
3290.674925194554
 20
352.775209460772
  0
LWPOLYLINE
  5
A99B
330
1E
100
AcDbEntity
  8
躯体と製品
  6
Continuous
 62
     4
100
AcDbPolyline
 90
        2
 70
     0
 43
0.0
 10
3540.674925194554
 20
524.775209460772
 10
3290.674925194554
 20
524.775209460772
  0
LWPOLYLINE
  5
A99C
330
1E
100
AcDbEntity
  8
躯体と製品
  6
Continuous
 62
     4
100
AcDbPolyline
 90
        2
 70
     0
 43
0.0
 10
3540.674925194554
 20
529.7752094607719
 10
3290.674925194554
 20
529.7752094607719
  0
LWPOLYLINE
  5
A99D
330
1E
100
AcDbEntity
  8
躯体と製品
  6
Continuous
 62
     4
100
AcDbPolyline
 90
        2
 70
     0
 43
0.0
 10
3540.674925194554
 20
552.7752094607719
 10
3290.674925194554
 20
552.7752094607719
  0
LWPOLYLINE
  5
A99E
330
1E
100
AcDbEntity
  8
躯体と製品
  6
Continuous
 62
     4
100
AcDbPolyline
 90
        2
 70
     0
 43
0.0
 10
3540.674925194554
 20
534.7752094607719
 10
3290.674925194554
 20
534.7752094607719
  0
LWPOLYLINE
  5
A99F
330
1E
100
AcDbEntity
  8
躯体と製品
  6
Continuous
 62
     4
100
AcDbPolyline
 90
        2
 70
     0
 43
0.0
 10
3434.674925194555
 20
493.4752094607719
 10
3540.674925194554
 20
493.4752094607719
  0
LWPOLYLINE
  5
A9A0
330
1E
100
AcDbEntity
  8
躯体と製品
  6
Continuous
 62
     4
100
AcDbPolyline
 90
        2
 70
     0
 43
0.0
 10
3540.674925194554
 20
490.775209460772
 10
3434.674925194555
 20
490.775209460772
  0
LWPOLYLINE
  5
A9A1
330
1E
100
AcDbEntity
  8
躯体と製品
  6
Continuous
 62
     4
100
AcDbPolyline
 90
        2
 70
     0
 43
0.0
 10
3396.674925194555
 20
493.4752094607719
 10
3290.674925194554
 20
493.4752094607719
  0
LWPOLYLINE
  5
A9A2
330
1E
100
AcDbEntity
  8
躯体と製品
  6
Continuous
 62
     4
100
AcDbPolyline
 90
        2
 70
     0
 43
0.0
 10
3396.674925194555
 20
490.775209460772
 10
3290.674925194554
 20
490.775209460772
  0
LWPOLYLINE
  5
A9A3
330
1E
100
AcDbEntity
  8
躯体と製品
  6
Continuous
 62
     4
100
AcDbPolyline
 90
        2
 70
     0
 43
0.0
 10
3540.674925194554
 20
519.775209460772
 10
3290.674925194554
 20
519.775209460772
  0
LWPOLYLINE
  5
A9A4
330
1E
100
AcDbEntity
  8
躯体と製品
  6
Continuous
 62
     4
100
AcDbPolyline
 90
        2
 70
     0
 43
0.0
 10
3465.674924194554
 20
451.9752104607719
 42
0.4142135751755501
 10
3459.874923941034
 20
457.7752104607718
  0
LWPOLYLINE
  5
A9A5
330
1E
100
AcDbEntity
  8
躯体と製品
  6
Continuous
 62
     4
100
AcDbPolyline
 90
        2
 70
     0
 43
0.0
 10
3371.474925941034
 20
457.7752104607718
 42
0.4142135751766157
 10
3365.674926194554
 20
451.9752099537111
  0
LWPOLYLINE
  5
A9A6
330
1E
100
AcDbEntity
  8
躯体と製品
  6
Continuous
 62
     4
100
AcDbPolyline
 90
        2
 70
     0
 43
0.0
 10
3415.674925194554
 20
446.7752094607719
 10
3465.674927194554
 20
446.7752094607719
  0
LWPOLYLINE
  5
A9A7
330
1E
100
AcDbEntity
  8
躯体と製品
  6
Continuous
 62
     4
100
AcDbPolyline
 90
        2
 70
     0
 43
0.0
 10
3371.474926194554
 20
457.775209460772
 10
3459.874924194554
 20
457.775209460772
  0
LWPOLYLINE
  5
A9A8
330
1E
100
AcDbEntity
  8
躯体と製品
  6
Continuous
 62
     4
100
AcDbPolyline
 90
        2
 70
     0
 43
0.0
 10
3465.674927194554
 20
446.7752094607719
 10
3465.674927194554
 20
451.9752104607719
  0
LWPOLYLINE
  5
A9A9
330
1E
100
AcDbEntity
  8
躯体と製品
  6
Continuous
 62
     4
100
AcDbPolyline
 90
        2
 70
     0
 43
0.0
 10
3365.674927194554
 20
446.7752094607719
 10
3365.674927194554
 20
451.9752104607719
  0
LWPOLYLINE
  5
A9AA
330
1E
100
AcDbEntity
  8
躯体と製品
  6
Continuous
 62
     4
100
AcDbPolyline
 90
        2
 70
     0
 43
0.0
 10
3415.674925194554
 20
446.7752094607719
 10
3365.674927194554
 20
446.7752094607719
  0
LWPOLYLINE
  5
AC7E
330
1E
100
AcDbEntity
  8
文字-記号
  6
Continuous
 62
     7
100
AcDbPolyline
 90
        3
 70
     0
 43
0.0
 10
3400.830926191695
 20
552.7752094607719
 10
3419.600008465569
 20
585.2842135705603
 10
3493.664284021587
 20
585.2842135705603
  0
TEXT
  5
AC7F
330
1E
100
AcDbEntity
  8
文字-記号
  6
Continuous
 62
     7
100
AcDbText
 10
3426.32032790396
 20
587.114494848249
 30
0.0
 40
6.5
  1
フローリング貼り
 41
1.007498246740355
100
AcDbText
  0
LWPOLYLINE
  5
AC80
330
1E
100
AcDbEntity
  8
文字-記号
  6
Continuous
 62
     7
100
AcDbPolyline
 90
        3
 70
     0
 43
0.0
 10
3412.910282398669
 20
529.7752094607719
 10
3436.30985222551
 20
570.3044532761159
 10
3481.352804151543
 20
570.3044532761159
  0
TEXT
  5
AC81
330
1E
100
AcDbEntity
  8
文字-記号
  6
Continuous
 62
     7
100
AcDbText
 10
3444.69627674827
 20
572.1347345538047
 30
0.0
 40
6.5
  1
捨板貼り
 41
1.007498246740355
100
AcDbText
  0
TEXT
  5
BE2B
330
1E
100
AcDbEntity
  8
文字-記号
  6
Continuous
 62
     3
100
AcDbText
 10
3281.253658865085
 20
622.9170065096932
 30
0.0
 40
12.99999999
  1
■スリーベース512-Ｈ型（公共施設・一般事務室等 低床用：スタンドタイプ）
  7
ACAD
100
AcDbText
  0
TEXT
  5
BE2C
330
1E
100
AcDbEntity
  8
文字-記号
  6
Continuous
 62
     3
100
AcDbText
 10
3543.996975772395
 20
602.9637460694926
 30
0.0
 40
12.99999999
  1
ネタ・クロス h=130mm～315mm
  7
ACAD
100
AcDbText
  0
ENDSEC
  0
SECTION
  2
OBJECTS
  0
DICTIONARY
  5
C
330
0
100
AcDbDictionary
281
     1
  3
ACAD_CIP_PREVIOUS_PRODUCT_INFO
350
62FF
  3
ACAD_COLOR
350
62E3
  3
ACAD_GROUP
350
D
  3
ACAD_LAYOUT
350
19
  3
ACAD_MATERIAL
350
62B1
  3
ACAD_MLEADERSTYLE
350
62F8
  3
ACAD_MLINESTYLE
350
16
  3
ACAD_PLOTSETTINGS
350
18
  3
ACAD_PLOTSTYLENAME
350
E
  3
ACAD_SCALELIST
350
62E6
  3
ACAD_TABLESTYLE
350
62E4
  3
ACAD_VISUALSTYLE
350
62CA
  3
ACDB_RECOMPOSE_DATA
350
C132
  3
AcDbVariableDictionary
350
169
  3
AEC_PROPERTY_SET_DEFS
350
8ABE
  0
DICTIONARY
  5
ACDD
330
8
100
AcDbDictionary
280
     1
281
     1
  0
DICTIONARY
  5
175
330
2
100
AcDbDictionary
280
     1
281
     1
  3
ACAD_LAYERFILTERS
360
185
  3
ACAD_LAYERSTATES
360
176
  0
DICTIONARY
  5
8065
330
10
100
AcDbDictionary
280
     1
281
     1
  3
ADSK_XREC_LAYER_RECONCILED
360
8066
  0
DICTIONARY
  5
8067
330
178
100
AcDbDictionary
280
     1
281
     1
  3
ADSK_XREC_LAYER_RECONCILED
360
8068
  0
DICTIONARY
  5
8069
330
179
100
AcDbDictionary
280
     1
281
     1
  3
ADSK_XREC_LAYER_RECONCILED
360
806A
  0
DICTIONARY
  5
806B
330
4F62
100
AcDbDictionary
280
     1
281
     1
  3
ADSK_XREC_LAYER_RECONCILED
360
806C
  0
DICTIONARY
  5
28B
330
1E
100
AcDbDictionary
280
     1
281
     1
  3
ACAD_LAYOUTSELFREF
360
62AA
  3
ACAD_SORTENTS
360
89B0
  0
DICTIONARY
  5
28D
330
1A
100
AcDbDictionary
280
     1
281
     1
  3
ACAD_LAYOUTSELFREF
360
62A9
  0
XRECORD
  5
62FF
102
{ACAD_REACTORS
330
C
102
}
330
C
100
AcDbXrecord
280
     1
300
ACD
300
2012
300
ACD_F_S
  0
DICTIONARY
  5
62E3
102
{ACAD_REACTORS
330
C
102
}
330
C
100
AcDbDictionary
281
     1
  0
DICTIONARY
  5
D
102
{ACAD_REACTORS
330
C
102
}
330
C
100
AcDbDictionary
281
     1
  0
DICTIONARY
  5
19
102
{ACAD_REACTORS
330
C
102
}
330
C
100
AcDbDictionary
281
     1
  3
Model
350
21
  3
ﾚｲｱｳﾄ1
350
1D
  0
DICTIONARY
  5
62B1
102
{ACAD_REACTORS
330
C
102
}
330
C
100
AcDbDictionary
281
     1
  3
ByBlock
350
62BA
  3
ByLayer
350
62B2
  3
Global
350
62C2
  0
DICTIONARY
  5
62F8
102
{ACAD_REACTORS
330
C
102
}
330
C
100
AcDbDictionary
281
     1
  3
Standard
350
62F9
  0
DICTIONARY
  5
16
102
{ACAD_REACTORS
330
C
102
}
330
C
100
AcDbDictionary
281
     1
  3
Standard
350
17
  0
DICTIONARY
  5
18
102
{ACAD_REACTORS
330
C
102
}
330
C
100
AcDbDictionary
281
     1
  0
ACDBDICTIONARYWDFLT
  5
E
102
{ACAD_REACTORS
330
C
102
}
330
C
100
AcDbDictionary
281
     1
  3
Normal
350
F
100
AcDbDictionaryWithDefault
340
F
  0
DICTIONARY
  5
62E6
102
{ACAD_REACTORS
330
C
102
}
330
C
100
AcDbDictionary
281
     1
  3
A0
350
62E7
  3
A1
350
62E8
  3
A2
350
62E9
  3
A3
350
62EA
  3
A4
350
62EB
  3
A5
350
62EC
  3
A6
350
62ED
  3
A7
350
62EE
  3
A8
350
62EF
  3
A9
350
62F0
  3
B0
350
62F1
  3
B1
350
62F2
  3
B2
350
62F3
  3
B3
350
62F4
  3
B4
350
62F5
  3
B5
350
62F6
  3
B6
350
62F7
  0
DICTIONARY
  5
62E4
102
{ACAD_REACTORS
330
C
102
}
330
C
100
AcDbDictionary
281
     1
  3
Standard
350
62E5
  0
DICTIONARY
  5
62CA
102
{ACAD_REACTORS
330
C
102
}
330
C
100
AcDbDictionary
281
     1
  3
2dWireframe
350
62D0
  3
Basic
350
62CF
  3
Brighten
350
62D6
  3
ColorChange
350
62DA
  3
Conceptual
350
62D3
  3
Dim
350
62D5
  3
EdgeColorOff
350
62E2
  3
Facepattern
350
62D9
  3
Flat
350
62CB
  3
FlatWithEdges
350
62CC
  3
Gouraud
350
62CD
  3
GouraudWithEdges
350
62CE
  3
Hidden
350
62D2
  3
JitterOff
350
62E0
  3
Linepattern
350
62D8
  3
OverhangOff
350
62E1
  3
Realistic
350
62D4
  3
Shaded
350
62DF
  3
Shaded with edges
350
62DE
  3
Shades of Gray
350
62DB
  3
Sketchy
350
62DC
  3
Thicken
350
62D7
  3
Wireframe
350
62D1
  3
X-Ray
350
62DD
  0
XRECORD
  5
C132
102
{ACAD_REACTORS
330
C
102
}
330
C
100
AcDbXrecord
280
     1
 90
        1
330
62E5
  0
DICTIONARY
  5
169
102
{ACAD_REACTORS
330
C
102
}
330
C
100
AcDbDictionary
281
     1
  3
CANNOSCALE
350
8AA3
  3
CMLEADERSTYLE
350
8AA1
  3
CTABLESTYLE
350
8AA0
  3
DIMASSOC
350
16A
  3
LAYEREVAL
350
8AA5
  3
LAYERNOTIFY
350
8AA6
  3
LIGHTINGUNITS
350
8AA4
  3
MSLTSCALE
350
8AA2
  3
XCLIPFRAME
350
C12E
  0
DICTIONARY
  5
8ABE
102
{ACAD_REACTORS
330
C
102
}
330
C
100
AcDbDictionary
281
     1
  0
DICTIONARY
  5
185
102
{ACAD_REACTORS
330
175
102
}
330
175
100
AcDbDictionary
280
     1
281
     1
  0
DICTIONARY
  5
176
102
{ACAD_REACTORS
330
175
102
}
330
175
100
AcDbDictionary
281
     1
  3
ACAD
350
177
  0
XRECORD
  5
8066
102
{ACAD_REACTORS
330
8065
102
}
330
8065
100
AcDbXrecord
280
     1
290
     1
  0
XRECORD
  5
8068
102
{ACAD_REACTORS
330
8067
102
}
330
8067
100
AcDbXrecord
280
     1
290
     1
  0
XRECORD
  5
806A
102
{ACAD_REACTORS
330
8069
102
}
330
8069
100
AcDbXrecord
280
     1
290
     1
  0
XRECORD
  5
806C
102
{ACAD_REACTORS
330
806B
102
}
330
806B
100
AcDbXrecord
280
     1
290
     1
  0
XRECORD
  5
62AA
102
{ACAD_REACTORS
330
28B
102
}
330
28B
100
AcDbXrecord
280
     1
340
1E
  0
SORTENTSTABLE
  5
89B0
102
{ACAD_REACTORS
330
28B
102
}
330
28B
100
AcDbSortentsTable
330
1E
331
A738
  5
A85A
331
A659
  5
A9FD
331
A602
  5
A630
331
9EF4
  5
A993
331
9B85
  5
A8F4
331
A96D
  5
A4A3
331
A92E
  5
A60F
331
A8EF
  5
A668
331
A689
  5
A9AA
331
A612
  5
A61D
331
9F04
  5
A9A3
331
9C65
  5
A923
331
A975
  5
A49B
331
A8F7
  5
A660
331
A850
  5
A70B
331
A691
  5
A99D
331
A49B
  5
AAB7
331
A97D
  5
A493
331
A8FF
  5
A658
331
A858
  5
A703
331
A699
  5
A995
331
A4A3
  5
AABF
331
9C75
  5
A932
331
A946
  5
A5F7
331
A985
  5
A48B
331
A94E
  5
A5EF
331
A907
  5
A650
331
A860
  5
A6FB
331
A642
  5
AA23
331
A4AB
  5
AAC7
331
A98D
  5
A483
331
A956
  5
A5E7
331
A90F
  5
A648
331
A868
  5
A6F3
331
A6D1
  5
A8FA
331
9FBC
  5
AA0F
331
A995
  5
A47A
331
A95E
  5
A52A
331
A917
  5
A640
331
A870
  5
A6EB
331
A6D9
  5
A8ED
331
A652
  5
AA08
331
A0BC
  5
AA2F
331
A99D
  5
A472
331
A966
  5
A4AA
331
A91F
  5
A638
331
A9A5
  5
A46A
331
A927
  5
A616
331
9B86
  5
A8F5
331
A96E
  5
A4A2
331
A92F
  5
A60E
331
A8F0
  5
A667
331
A68A
  5
A9A9
331
9C66
  5
A924
331
A976
  5
A49A
331
A8F8
  5
A65F
331
A851
  5
A70A
331
A692
  5
A99C
331
A49C
  5
AAB8
331
9C6E
  5
A92B
331
A97E
  5
A492
331
A947
  5
A5F6
331
A859
  5
A702
331
A69A
  5
A994
331
A4A4
  5
AAC0
331
9C76
  5
A933
331
A900
  5
A657
331
A986
  5
A48A
331
A94F
  5
A5EE
331
A908
  5
A64F
331
A861
  5
A6FA
331
A4AC
  5
AAC8
331
A98E
  5
A482
331
A957
  5
A5E6
331
A910
  5
A647
331
A869
  5
A6F2
331
A6D2
  5
A8F9
331
9FBD
  5
AA10
331
96A0
  5
A451
331
A996
  5
A479
331
A95F
  5
A529
331
A918
  5
A63F
331
A871
  5
A6EA
331
A6DA
  5
A8E8
331
A653
  5
AA07
331
A99E
  5
A471
331
A967
  5
A4A9
331
9EEE
  5
A98D
331
A920
  5
A637
331
A9A6
  5
A469
331
A928
  5
A615
331
A604
  5
A62E
331
A96F
  5
A4A1
331
A930
  5
A60D
331
A8F1
  5
A666
331
A68B
  5
A9A6
331
A614
  5
A61C
331
9C67
  5
A925
331
A977
  5
A499
331
A8F9
  5
A65E
331
A852
  5
A709
331
A693
  5
A99B
331
A49D
  5
AAB9
331
9C6F
  5
A92C
331
A97F
  5
A491
331
A948
  5
A5F5
331
A901
  5
A656
331
A69B
  5
A98F
331
A4A5
  5
AAC1
331
9FAE
  5
AA01
331
9C77
  5
A934
331
A85A
  5
A701
331
A987
  5
A489
331
9A78
  5
A849
331
A950
  5
A5ED
331
A909
  5
A64E
331
A862
  5
A6F9
331
A4AD
  5
AAC9
331
9FB6
  5
AA09
331
A98F
  5
A481
331
A958
  5
A5E5
331
A911
  5
A646
331
A86A
  5
A6F1
331
A6D3
  5
A8F8
331
A64C
  5
AA15
331
9FBE
  5
AA11
331
96A1
  5
A456
331
A997
  5
A478
331
A960
  5
A4B0
331
A919
  5
A63E
331
A872
  5
A6E9
331
A6DB
  5
A8E7
331
A654
  5
AA06
331
A99F
  5
A470
331
A921
  5
A636
331
A9A7
  5
A468
331
9B80
  5
A8EF
331
A968
  5
A4A8
331
A929
  5
A614
331
A8EA
  5
A66D
331
A970
  5
A4A0
331
A931
  5
A60C
331
A8F2
  5
A665
331
A68C
  5
A9A5
331
9C68
  5
A926
331
A978
  5
A498
331
A8FA
  5
A65D
331
A853
  5
A708
331
A694
  5
A99A
331
A49E
  5
AABA
331
9C70
  5
A92D
331
A980
  5
A490
331
A949
  5
A5F4
331
A902
  5
A655
331
A85B
  5
A700
331
A4A6
  5
AAC2
331
9FAF
  5
AA02
331
A69C
  5
A98E
331
9C78
  5
A935
331
A988
  5
A488
331
A951
  5
A5EC
331
A90A
  5
A64D
331
A863
  5
A6F8
331
A4AE
  5
AACA
331
9FB7
  5
AA0A
331
9A81
  5
A852
331
A990
  5
A480
331
A959
  5
A5E4
331
A912
  5
A645
331
A86B
  5
A6F0
331
A6D4
  5
A8F7
331
A64D
  5
AA14
331
A998
  5
A477
331
A961
  5
A4AF
331
A91A
  5
A63D
331
A873
  5
A6E8
331
A6DC
  5
A8E6
331
A655
  5
AA05
331
96BA
  5
A47D
331
A9A0
  5
A46F
331
A5FE
  5
A710
331
A922
  5
A635
331
9752
  5
A619
331
A9A8
  5
A459
331
A969
  5
A4A7
331
A92A
  5
A613
331
A8EB
  5
A66C
331
9F00
  5
A99F
331
9C61
  5
A91F
331
975A
  5
A61E
331
A971
  5
A49F
331
A932
  5
A60B
331
A8F3
  5
A664
331
A84C
  5
A70F
331
A68D
  5
A9A4
331
A616
  5
A61A
331
A497
  5
AAB3
331
9F08
  5
A9A7
331
9C69
  5
A927
331
9772
  5
A62F
331
A979
  5
A497
331
A8FB
  5
A65C
331
A854
  5
A707
331
A695
  5
A999
331
A49F
  5
AABB
331
9C71
  5
A92E
331
A981
  5
A48F
331
A94A
  5
A5F3
331
A903
  5
A654
331
A85C
  5
A6FF
331
A63E
  5
AA27
331
A4A7
  5
AAC3
331
A69D
  5
A98C
331
9FB0
  5
AA03
331
9C79
  5
A936
331
A989
  5
A487
331
A952
  5
A5EB
331
A90B
  5
A64C
331
A864
  5
A6F7
331
A6CD
  5
A8FE
331
A4AF
  5
AACB
331
9FB8
  5
AA0B
331
9A82
  5
A853
331
A991
  5
A47F
331
A95A
  5
A5E3
331
A913
  5
A644
331
A86C
  5
A6EF
331
A6D5
  5
A8F6
331
A64E
  5
AA13
331
9B7A
  5
A8E9
331
A999
  5
A476
331
A962
  5
A4AE
331
A91B
  5
A63C
331
A874
  5
A6E7
331
A656
  5
AA00
331
A9A1
  5
A46E
331
A923
  5
A634
331
A735
  5
A85D
331
9EF1
  5
A990
331
A9A9
  5
A458
331
A96A
  5
A4A6
331
A92B
  5
A612
331
A8EC
  5
A66B
331
9C62
  5
A920
331
975B
  5
A61F
331
A972
  5
A49E
331
A933
  5
A60A
331
A8F4
  5
A663
331
A84D
  5
A70E
331
A68E
  5
A9A1
331
A498
  5
AAB4
331
9F09
  5
A9A8
331
9C6A
  5
A928
331
A97A
  5
A496
331
A8FC
  5
A65B
331
A855
  5
A706
331
A696
  5
A998
331
A4A0
  5
AABC
331
9C72
  5
A92F
331
A982
  5
A48E
331
A94B
  5
A5F2
331
A904
  5
A653
331
A85D
  5
A6FE
331
A63F
  5
AA26
331
A69E
  5
A98B
331
A4A8
  5
AAC4
331
9FB1
  5
AA04
331
A98A
  5
A486
331
A953
  5
A5EA
331
A90C
  5
A64B
331
A865
  5
A6F6
331
A6CE
  5
A8FD
331
A4B0
  5
AACC
331
A992
  5
A47E
331
A95B
  5
A5E2
331
A914
  5
A643
331
A86D
  5
A6EE
331
A6D6
  5
A8F1
331
A64F
  5
AA12
331
9B7B
  5
A8EA
331
A99A
  5
A475
331
A963
  5
A4AD
331
A91C
  5
A63B
331
A875
  5
A6E6
331
A657
  5
A9FF
331
A9A2
  5
A46D
331
A924
  5
A633
331
A736
  5
A85C
331
A600
  5
A66F
331
9B83
  5
A8F2
331
9EF2
  5
A991
331
A9AA
  5
A457
331
A96B
  5
A4A5
331
A92C
  5
A611
331
A8ED
  5
A66A
331
9C63
  5
A921
331
A973
  5
A49D
331
A934
  5
A609
331
A8F5
  5
A662
331
A84E
  5
A70D
331
A68F
  5
A9A0
331
A499
  5
AAB5
331
9C6B
  5
A929
331
A97B
  5
A495
331
A944
  5
A5F9
331
A8FD
  5
A65A
331
A856
  5
A705
331
A697
  5
A997
331
A4A1
  5
AABD
331
9C73
  5
A930
331
97DC
  5
A66E
331
A983
  5
A48D
331
A94C
  5
A5F1
331
A905
  5
A652
331
A85E
  5
A6FD
331
A640
  5
AA25
331
A4A9
  5
AAC5
331
A98B
  5
A485
331
A954
  5
A5E9
331
A90D
  5
A64A
331
A866
  5
A6F5
331
A6CF
  5
A8FC
331
A993
  5
A47C
331
A95C
  5
A52C
331
A915
  5
A642
331
A86E
  5
A6ED
331
A6D7
  5
A8F0
331
A650
  5
AA0D
331
9B7C
  5
A8EB
331
A964
  5
A4AC
331
A91D
  5
A63A
331
A99B
  5
A474
331
A9A3
  5
A46C
331
A925
  5
A632
331
A737
  5
A85B
331
A658
  5
A9FE
331
A0D2
  5
AA30
331
9EF3
  5
A992
331
9755
  5
A61B
331
9B84
  5
A8F3
331
A96C
  5
A4A4
331
A92D
  5
A610
331
A8EE
  5
A669
331
A688
  5
A9AB
331
9F03
  5
A9A2
331
9C64
  5
A922
331
A974
  5
A49C
331
A8F6
  5
A661
331
A84F
  5
A70C
331
A690
  5
A99E
331
A49A
  5
AAB6
331
9C6C
  5
A92A
331
9775
  5
A631
331
A945
  5
A5F8
331
A8FE
  5
A659
331
A857
  5
A704
331
A698
  5
A996
331
A4A2
  5
AABE
331
9C74
  5
A931
331
A97C
  5
A494
331
A984
  5
A48C
331
A94D
  5
A5F0
331
A906
  5
A651
331
A85F
  5
A6FC
331
A641
  5
AA24
331
A4AA
  5
AAC6
331
9A7D
  5
A84E
331
A98C
  5
A484
331
A955
  5
A5E8
331
A90E
  5
A649
331
A867
  5
A6F4
331
A6D0
  5
A8FB
331
9FBB
  5
AA0E
331
A994
  5
A47B
331
A95D
  5
A52B
331
A916
  5
A641
331
A86F
  5
A6EC
331
A6D8
  5
A8EE
331
A651
  5
AA0C
331
9B7D
  5
A8EC
331
A99C
  5
A473
331
A91E
  5
A639
331
A965
  5
A4AB
331
A9A4
  5
A46B
331
A926
  5
A617
  0
XRECORD
  5
62A9
102
{ACAD_REACTORS
330
28D
102
}
330
28D
100
AcDbXrecord
280
     1
340
1A
  0
LAYOUT
  5
21
102
{ACAD_XDICTIONARY
360
8088
102
}
102
{ACAD_REACTORS
330
19
102
}
330
19
100
AcDbPlotSettings
  1

  2
none_device
  4
Letter_(8.50_x_11.00_Inches)
  6

 40
6.349999904632568
 41
6.349999904632568
 42
6.350006103515625
 43
6.350006103515625
 44
215.8999938964844
 45
279.3999938964844
 46
0.0
 47
0.0
 48
0.0
 49
0.0
140
0.0
141
0.0
142
1.0
143
287.5966853151187
 70
 11952
 72
     0
 73
     1
 74
     0
  7
monochrome.ctb
 75
     0
147
0.0034770915349887
 76
     0
 77
     2
 78
   300
148
-43408.05097288533
149
-3026.751107198562
100
AcDbLayout
  1
Model
 70
     1
 71
     0
 10
0.0
 20
0.0
 11
12.0
 21
9.0
 12
0.0
 22
0.0
 32
0.0
 14
0.0
 24
0.0
 34
0.0
 15
0.0
 25
0.0
 35
0.0
146
0.0
 13
0.0
 23
0.0
 33
0.0
 16
1.0
 26
0.0
 36
0.0
 17
0.0
 27
1.0
 37
0.0
 76
     0
330
1E
331
6265
1001
ACAD_PSEXT
1000
なし
1000
なし
1000
適切ではありません
1000
新しいプロッタ環境設定名を選択しない限り、レイアウトは印刷されません。
1070
     0
  0
LAYOUT
  5
1D
102
{ACAD_REACTORS
330
19
102
}
330
19
100
AcDbPlotSettings
  1

  2
\\MEISEI-1\EPSON Stylus Photo EX3
  4

  6

 40
0.0
 41
0.0
 42
0.0
 43
0.0
 44
0.0
 45
0.0
 46
0.0
 47
0.0
 48
0.0
 49
0.0
140
0.0
141
0.0
142
1.0
143
1.0
 70
   688
 72
     0
 73
     0
 74
     5
  7
monochrome.ctb
 75
    16
147
1.0
 76
     0
 77
     2
 78
   300
148
0.0
149
0.0
100
AcDbLayout
  1
ﾚｲｱｳﾄ1
 70
     1
 71
     1
 10
0.0
 20
0.0
 11
12.0
 21
9.0
 12
0.0
 22
0.0
 32
0.0
 14
1.000000000000000E+20
 24
1.000000000000000E+20
 34
1.000000000000000E+20
 15
-1.000000000000000E+20
 25
-1.000000000000000E+20
 35
-1.000000000000000E+20
146
0.0
 13
0.0
 23
0.0
 33
0.0
 16
1.0
 26
0.0
 36
0.0
 17
0.0
 27
1.0
 37
0.0
 76
     0
330
1A
  0
MATERIAL
  5
62BA
102
{ACAD_XDICTIONARY
360
62BB
102
}
102
{ACAD_REACTORS
330
62B1
102
}
330
62B1
100
AcDbMaterial
  1
ByBlock
 72
     0
 43
0.0208333333333333
 43
0.0
 43
0.0
 43
0.0
 43
0.0
 43
0.0208333333333333
 43
0.0
 43
0.0
 43
0.0
 43
0.0
 43
1.0
 43
0.0
 43
0.0
 43
0.0
 43
0.0
 43
1.0
 77
     0
 47
0.0208333333333333
 47
0.0
 47
0.0
 47
0.0
 47
0.0
 47
0.0208333333333333
 47
0.0
 47
0.0
 47
0.0
 47
0.0
 47
1.0
 47
0.0
 47
0.0
 47
0.0
 47
0.0
 47
1.0
171
     0
 49
0.0208333333333333
 49
0.0
 49
0.0
 49
0.0
 49
0.0
 49
0.0208333333333333
 49
0.0
 49
0.0
 49
0.0
 49
0.0
 49
1.0
 49
0.0
 49
0.0
 49
0.0
 49
0.0
 49
1.0
175
     0
142
0.0208333333333333
142
0.0
142
0.0
142
0.0
142
0.0
142
0.0208333333333333
142
0.0
142
0.0
142
0.0
142
0.0
142
1.0
142
0.0
142
0.0
142
0.0
142
0.0
142
1.0
179
     0
144
0.0208333333333333
144
0.0
144
0.0
144
0.0
144
0.0
144
0.0208333333333333
144
0.0
144
0.0
144
0.0
144
0.0
144
1.0
144
0.0
144
0.0
144
0.0
144
0.0
144
1.0
147
0.0208333333333333
147
0.0
147
0.0
147
0.0
147
0.0
147
0.0208333333333333
147
0.0
147
0.0
147
0.0
147
0.0
147
1.0
147
0.0
147
0.0
147
0.0
147
0.0
147
1.0
  0
MATERIAL
  5
62B2
102
{ACAD_XDICTIONARY
360
62B3
102
}
102
{ACAD_REACTORS
330
62B1
102
}
330
62B1
100
AcDbMaterial
  1
ByLayer
 72
     0
 43
0.0208333333333333
 43
0.0
 43
0.0
 43
0.0
 43
0.0
 43
0.0208333333333333
 43
0.0
 43
0.0
 43
0.0
 43
0.0
 43
1.0
 43
0.0
 43
0.0
 43
0.0
 43
0.0
 43
1.0
 77
     0
 47
0.0208333333333333
 47
0.0
 47
0.0
 47
0.0
 47
0.0
 47
0.0208333333333333
 47
0.0
 47
0.0
 47
0.0
 47
0.0
 47
1.0
 47
0.0
 47
0.0
 47
0.0
 47
0.0
 47
1.0
171
     0
 49
0.0208333333333333
 49
0.0
 49
0.0
 49
0.0
 49
0.0
 49
0.0208333333333333
 49
0.0
 49
0.0
 49
0.0
 49
0.0
 49
1.0
 49
0.0
 49
0.0
 49
0.0
 49
0.0
 49
1.0
175
     0
142
0.0208333333333333
142
0.0
142
0.0
142
0.0
142
0.0
142
0.0208333333333333
142
0.0
142
0.0
142
0.0
142
0.0
142
1.0
142
0.0
142
0.0
142
0.0
142
0.0
142
1.0
179
     0
144
0.0208333333333333
144
0.0
144
0.0
144
0.0
144
0.0
144
0.0208333333333333
144
0.0
144
0.0
144
0.0
144
0.0
144
1.0
144
0.0
144
0.0
144
0.0
144
0.0
144
1.0
147
0.0208333333333333
147
0.0
147
0.0
147
0.0
147
0.0
147
0.0208333333333333
147
0.0
147
0.0
147
0.0
147
0.0
147
1.0
147
0.0
147
0.0
147
0.0
147
0.0
147
1.0
  0
MATERIAL
  5
62C2
102
{ACAD_XDICTIONARY
360
62C3
102
}
102
{ACAD_REACTORS
330
62B1
102
}
330
62B1
100
AcDbMaterial
  1
Global
 72
     0
 43
0.0208333333333333
 43
0.0
 43
0.0
 43
0.0
 43
0.0
 43
0.0208333333333333
 43
0.0
 43
0.0
 43
0.0
 43
0.0
 43
1.0
 43
0.0
 43
0.0
 43
0.0
 43
0.0
 43
1.0
 77
     0
 47
0.0208333333333333
 47
0.0
 47
0.0
 47
0.0
 47
0.0
 47
0.0208333333333333
 47
0.0
 47
0.0
 47
0.0
 47
0.0
 47
1.0
 47
0.0
 47
0.0
 47
0.0
 47
0.0
 47
1.0
171
     0
 49
0.0208333333333333
 49
0.0
 49
0.0
 49
0.0
 49
0.0
 49
0.0208333333333333
 49
0.0
 49
0.0
 49
0.0
 49
0.0
 49
1.0
 49
0.0
 49
0.0
 49
0.0
 49
0.0
 49
1.0
175
     0
142
0.0208333333333333
142
0.0
142
0.0
142
0.0
142
0.0
142
0.0208333333333333
142
0.0
142
0.0
142
0.0
142
0.0
142
1.0
142
0.0
142
0.0
142
0.0
142
0.0
142
1.0
179
     0
144
0.0208333333333333
144
0.0
144
0.0
144
0.0
144
0.0
144
0.0208333333333333
144
0.0
144
0.0
144
0.0
144
0.0
144
1.0
144
0.0
144
0.0
144
0.0
144
0.0
144
1.0
147
0.0208333333333333
147
0.0
147
0.0
147
0.0
147
0.0
147
0.0208333333333333
147
0.0
147
0.0
147
0.0
147
0.0
147
1.0
147
0.0
147
0.0
147
0.0
147
0.0
147
1.0
  0
MLEADERSTYLE
  5
62F9
102
{ACAD_XDICTIONARY
360
C130
102
}
102
{ACAD_REACTORS
330
62F8
102
}
330
62F8
100
AcDbMLeaderStyle
170
     2
171
     1
172
     0
 90
        2
 40
0.0
 41
0.0
173
     1
 91
-1056964608
340
13
 92
       -2
290
     1
 42
0.09
291
     1
 43
0.36
  3
Standard
 44
0.18
300

342
11
174
     1
178
     6
175
     1
176
     0
 93
-1056964608
 45
0.18
292
     0
297
     0
 46
0.18
 94
-1056964608
 47
1.0
 49
1.0
140
1.0
293
     1
141
0.0
294
     1
177
     0
142
1.0
295
     0
296
     0
143
0.125
1001
ACAD_MLEADERVER
1070
     2
  0
MLINESTYLE
  5
17
102
{ACAD_REACTORS
330
16
102
}
330
16
100
AcDbMlineStyle
  2
STANDARD
 70
     0
  3

 62
   256
 51
90.0
 52
90.0
 71
     2
 49
0.5
 62
   256
  6
BYLAYER
 49
-0.5
 62
   256
  6
BYLAYER
  0
ACDBPLACEHOLDER
  5
F
102
{ACAD_REACTORS
330
E
102
}
330
E
  0
SCALE
  5
62E7
102
{ACAD_REACTORS
330
62E6
102
}
330
62E6
100
AcDbScale
 70
     0
300
1:1
140
1.0
141
1.0
290
     1
  0
SCALE
  5
62E8
102
{ACAD_REACTORS
330
62E6
102
}
330
62E6
100
AcDbScale
 70
     0
300
1/128" = 1'-0"
140
0.0078125
141
12.0
290
     0
  0
SCALE
  5
62E9
102
{ACAD_REACTORS
330
62E6
102
}
330
62E6
100
AcDbScale
 70
     0
300
1/64" = 1'-0"
140
0.015625
141
12.0
290
     0
  0
SCALE
  5
62EA
102
{ACAD_REACTORS
330
62E6
102
}
330
62E6
100
AcDbScale
 70
     0
300
1/32" = 1'-0"
140
0.03125
141
12.0
290
     0
  0
SCALE
  5
62EB
102
{ACAD_REACTORS
330
62E6
102
}
330
62E6
100
AcDbScale
 70
     0
300
1/16" = 1'-0"
140
0.0625
141
12.0
290
     0
  0
SCALE
  5
62EC
102
{ACAD_REACTORS
330
62E6
102
}
330
62E6
100
AcDbScale
 70
     0
300
3/32" = 1'-0"
140
0.09375
141
12.0
290
     0
  0
SCALE
  5
62ED
102
{ACAD_REACTORS
330
62E6
102
}
330
62E6
100
AcDbScale
 70
     0
300
1/8" = 1'-0"
140
0.125
141
12.0
290
     0
  0
SCALE
  5
62EE
102
{ACAD_REACTORS
330
62E6
102
}
330
62E6
100
AcDbScale
 70
     0
300
3/16" = 1'-0"
140
0.1875
141
12.0
290
     0
  0
SCALE
  5
62EF
102
{ACAD_REACTORS
330
62E6
102
}
330
62E6
100
AcDbScale
 70
     0
300
1/4" = 1'-0"
140
0.25
141
12.0
290
     0
  0
SCALE
  5
62F0
102
{ACAD_REACTORS
330
62E6
102
}
330
62E6
100
AcDbScale
 70
     0
300
3/8" = 1'-0"
140
0.375
141
12.0
290
     0
  0
SCALE
  5
62F1
102
{ACAD_REACTORS
330
62E6
102
}
330
62E6
100
AcDbScale
 70
     0
300
1/2" = 1'-0"
140
0.5
141
12.0
290
     0
  0
SCALE
  5
62F2
102
{ACAD_REACTORS
330
62E6
102
}
330
62E6
100
AcDbScale
 70
     0
300
3/4" = 1'-0"
140
0.75
141
12.0
290
     0
  0
SCALE
  5
62F3
102
{ACAD_REACTORS
330
62E6
102
}
330
62E6
100
AcDbScale
 70
     0
300
1" = 1'-0"
140
1.0
141
12.0
290
     0
  0
SCALE
  5
62F4
102
{ACAD_REACTORS
330
62E6
102
}
330
62E6
100
AcDbScale
 70
     0
300
1-1/2" = 1'-0"
140
1.5
141
12.0
290
     0
  0
SCALE
  5
62F5
102
{ACAD_REACTORS
330
62E6
102
}
330
62E6
100
AcDbScale
 70
     0
300
3" = 1'-0"
140
3.0
141
12.0
290
     0
  0
SCALE
  5
62F6
102
{ACAD_REACTORS
330
62E6
102
}
330
62E6
100
AcDbScale
 70
     0
300
6" = 1'-0"
140
6.0
141
12.0
290
     0
  0
SCALE
  5
62F7
102
{ACAD_REACTORS
330
62E6
102
}
330
62E6
100
AcDbScale
 70
     0
300
1'-0" = 1'-0"
140
12.0
141
12.0
290
     0
  0
TABLESTYLE
  5
62E5
102
{ACAD_XDICTIONARY
360
ACD8
102
}
102
{ACAD_REACTORS
330
62E4
102
}
330
62E4
100
AcDbTableStyle
  3
Standard
 70
     0
 71
     0
 40
0.06
 41
0.06
280
     0
281
     0
  7
STANDARD
140
0.18
170
     2
 62
     0
 63
     7
283
     0
274
    -2
284
     1
 64
     0
275
    -2
285
     1
 65
     0
276
    -2
286
     1
 66
     0
277
    -2
287
     1
 67
     0
278
    -2
288
     1
 68
     0
279
    -2
289
     1
 69
     0
  7
STANDARD
140
0.25
170
     5
 62
     0
 63
     7
283
     0
274
    -2
284
     1
 64
     0
275
    -2
285
     1
 65
     0
276
    -2
286
     1
 66
     0
277
    -2
287
     1
 67
     0
278
    -2
288
     1
 68
     0
279
    -2
289
     1
 69
     0
  7
STANDARD
140
0.18
170
     5
 62
     0
 63
     7
283
     0
274
    -2
284
     1
 64
     0
275
    -2
285
     1
 65
     0
276
    -2
286
     1
 66
     0
277
    -2
287
     1
 67
     0
278
    -2
288
     1
 68
     0
279
    -2
289
     1
 69
     0
  0
VISUALSTYLE
  5
62D0
102
{ACAD_XDICTIONARY
360
C140
102
}
102
{ACAD_REACTORS
330
62CA
102
}
330
62CA
100
AcDbVisualStyle
  2
2dWireframe
 70
     4
 71
     0
 72
     2
 73
     0
 90
        0
 40
-0.6
 41
-30.0
 62
     5
 63
     7
421
 16777215
 74
     1
 91
        4
 64
     7
 65
   257
 75
     1
175
     1
 42
1.0
 92
        0
 66
   257
 43
1.0
 76
     1
 77
     6
 78
     2
 67
     7
 79
     5
170
     0
171
     0
290
     0
174
     0
 93
        1
 44
0.0
173
     0
291
     0
 45
0.0
1001
ACAD
1000
AcDbSavedByObjectVersion
1070
     0
  0
VISUALSTYLE
  5
62CF
102
{ACAD_XDICTIONARY
360
C13E
102
}
102
{ACAD_REACTORS
330
62CA
102
}
330
62CA
100
AcDbVisualStyle
  2
Basic
 70
     7
 71
     1
 72
     0
 73
     1
 90
        0
 40
-0.6
 41
-30.0
 62
     5
 63
     7
421
 16777215
 74
     0
 91
        4
 64
     7
 65
   257
 75
     1
175
     1
 42
1.0
 92
        8
 66
     7
 43
1.0
 76
     1
 77
     6
 78
     2
 67
     7
 79
     5
170
     0
171
     0
290
     0
174
     0
 93
        1
 44
0.0
173
     0
291
     1
 45
0.0
1001
ACAD
1000
AcDbSavedByObjectVersion
1070
     0
  0
VISUALSTYLE
  5
62D6
102
{ACAD_XDICTIONARY
360
C14C
102
}
102
{ACAD_REACTORS
330
62CA
102
}
330
62CA
100
AcDbVisualStyle
  2
Brighten
 70
    12
 71
     2
 72
     2
 73
     0
 90
        0
 40
-0.6
 41
-30.0
 62
     5
 63
     7
421
 16777215
 74
     1
 91
        4
 64
     7
 65
   257
 75
     1
175
     1
 42
1.0
 92
        8
 66
     7
 43
1.0
 76
     1
 77
     6
 78
     2
 67
     7
 79
     5
170
     0
171
     0
290
     0
174
     0
 93
        1
 44
50.0
173
     0
291
     1
 45
0.0
1001
ACAD
1000
AcDbSavedByObjectVersion
1070
     0
  0
VISUALSTYLE
  5
62DA
102
{ACAD_XDICTIONARY
360
C154
102
}
102
{ACAD_REACTORS
330
62CA
102
}
330
62CA
100
AcDbVisualStyle
  2
ColorChange
 70
    16
 71
     2
 72
     2
 73
     3
 90
        0
 40
-0.6
 41
-30.0
 62
     5
 63
     8
421
  8421504
 74
     1
 91
        4
 64
     7
 65
   257
 75
     1
175
     1
 42
1.0
 92
        8
 66
     8
424
  8421504
 43
1.0
 76
     1
 77
     6
 78
     2
 67
     7
 79
     5
170
     0
171
     0
290
     0
174
     0
 93
        1
 44
0.0
173
     0
291
     1
 45
0.0
1001
ACAD
1000
AcDbSavedByObjectVersion
1070
     0
  0
VISUALSTYLE
  5
62D3
102
{ACAD_XDICTIONARY
360
C146
102
}
102
{ACAD_REACTORS
330
62CA
102
}
330
62CA
100
AcDbVisualStyle
  2
Conceptual
 70
     9
 71
     3
 72
     2
 73
     0
 90
        0
 40
-0.6
 41
-30.0
 62
     5
 63
     7
421
 16777215
 74
     2
 91
        2
 64
     7
 65
   257
 75
     1
175
     1
 42
179.0
 92
        8
 66
     7
 43
1.0
 76
     1
 77
     6
 78
     2
 67
     7
 79
     3
170
     0
171
     0
290
     0
174
     0
 93
        1
 44
0.0
173
     0
291
     0
 45
0.0
1001
ACAD
1000
AcDbSavedByObjectVersion
1070
     0
  0
VISUALSTYLE
  5
62D5
102
{ACAD_XDICTIONARY
360
C14A
102
}
102
{ACAD_REACTORS
330
62CA
102
}
330
62CA
100
AcDbVisualStyle
  2
Dim
 70
    11
 71
     2
 72
     2
 73
     0
 90
        0
 40
-0.6
 41
-30.0
 62
     5
 63
     7
421
 16777215
 74
     1
 91
        4
 64
     7
 65
   257
 75
     1
175
     1
 42
1.0
 92
        8
 66
     7
 43
1.0
 76
     1
 77
     6
 78
     2
 67
     7
 79
     5
170
     0
171
     0
290
     0
174
     0
 93
        1
 44
-50.0
173
     0
291
     1
 45
0.0
1001
ACAD
1000
AcDbSavedByObjectVersion
1070
     0
  0
VISUALSTYLE
  5
62E2
102
{ACAD_XDICTIONARY
360
C164
102
}
102
{ACAD_REACTORS
330
62CA
102
}
330
62CA
100
AcDbVisualStyle
  2
EdgeColorOff
 70
    22
 71
     2
 72
     2
 73
     0
 90
        0
 40
-0.6
 41
-30.0
 62
     5
 63
     7
421
 16777215
 74
     1
 91
        4
 64
     7
 65
   257
 75
     1
175
     1
 42
1.0
 92
        8
 66
     7
 43
1.0
 76
     1
 77
     6
 78
     2
 67
     7
 79
     5
170
     0
171
     0
290
     0
174
     0
 93
        1
 44
0.0
173
     0
291
     1
 45
0.0
1001
ACAD
1000
AcDbSavedByObjectVersion
1070
     0
  0
VISUALSTYLE
  5
62D9
102
{ACAD_XDICTIONARY
360
C152
102
}
102
{ACAD_REACTORS
330
62CA
102
}
330
62CA
100
AcDbVisualStyle
  2
Facepattern
 70
    15
 71
     2
 72
     2
 73
     0
 90
        0
 40
-0.6
 41
-30.0
 62
     5
 63
     7
421
 16777215
 74
     1
 91
        4
 64
     7
 65
   257
 75
     1
175
     1
 42
1.0
 92
        8
 66
     7
 43
1.0
 76
     1
 77
     6
 78
     2
 67
     7
 79
     5
170
     0
171
     0
290
     0
174
     0
 93
        1
 44
0.0
173
     0
291
     1
 45
0.0
1001
ACAD
1000
AcDbSavedByObjectVersion
1070
     0
  0
VISUALSTYLE
  5
62CB
102
{ACAD_XDICTIONARY
360
C136
102
}
102
{ACAD_REACTORS
330
62CA
102
}
330
62CA
100
AcDbVisualStyle
  2
Flat
 70
     0
 71
     2
 72
     1
 73
     1
 90
        2
 40
-0.6
 41
30.0
 62
     5
 63
     7
421
 16777215
 74
     0
 91
        0
 64
     7
 65
   257
 75
     1
175
     1
 42
1.0
 92
        8
 66
     7
 43
1.0
 76
     1
 77
     6
 78
     2
 67
     7
 79
     5
170
     0
171
     0
290
     0
174
     0
 93
       13
 44
0.0
173
     0
291
     1
 45
0.0
1001
ACAD
1000
AcDbSavedByObjectVersion
1070
     0
  0
VISUALSTYLE
  5
62CC
102
{ACAD_XDICTIONARY
360
C138
102
}
102
{ACAD_REACTORS
330
62CA
102
}
330
62CA
100
AcDbVisualStyle
  2
FlatWithEdges
 70
     1
 71
     2
 72
     1
 73
     1
 90
        2
 40
-0.6
 41
30.0
 62
     5
 63
     7
421
 16777215
 74
     1
 91
        0
 64
     7
 65
   257
 75
     1
175
     1
 42
1.0
 92
        0
 66
   257
 43
1.0
 76
     1
 77
     6
 78
     2
 67
     7
 79
     5
170
     0
171
     0
290
     0
174
     0
 93
       13
 44
0.0
173
     0
291
     1
 45
0.0
1001
ACAD
1000
AcDbSavedByObjectVersion
1070
     0
  0
VISUALSTYLE
  5
62CD
102
{ACAD_XDICTIONARY
360
C13A
102
}
102
{ACAD_REACTORS
330
62CA
102
}
330
62CA
100
AcDbVisualStyle
  2
Gouraud
 70
     2
 71
     2
 72
     2
 73
     1
 90
        2
 40
-0.6
 41
30.0
 62
     5
 63
     7
421
 16777215
 74
     0
 91
        0
 64
     7
 65
   257
 75
     1
175
     1
 42
1.0
 92
        0
 66
     7
 43
1.0
 76
     1
 77
     6
 78
     2
 67
     7
 79
     5
170
     0
171
     0
290
     0
174
     0
 93
       13
 44
0.0
173
     0
291
     1
 45
0.0
1001
ACAD
1000
AcDbSavedByObjectVersion
1070
     0
  0
VISUALSTYLE
  5
62CE
102
{ACAD_XDICTIONARY
360
C13C
102
}
102
{ACAD_REACTORS
330
62CA
102
}
330
62CA
100
AcDbVisualStyle
  2
GouraudWithEdges
 70
     3
 71
     2
 72
     2
 73
     1
 90
        2
 40
-0.6
 41
30.0
 62
     5
 63
     7
421
 16777215
 74
     1
 91
        0
 64
     7
 65
   257
 75
     1
175
     1
 42
1.0
 92
        0
 66
   257
 43
1.0
 76
     1
 77
     6
 78
     2
 67
     7
 79
     5
170
     0
171
     0
290
     0
174
     0
 93
       13
 44
0.0
173
     0
291
     1
 45
0.0
1001
ACAD
1000
AcDbSavedByObjectVersion
1070
     0
  0
VISUALSTYLE
  5
62D2
102
{ACAD_XDICTIONARY
360
C144
102
}
102
{ACAD_REACTORS
330
62CA
102
}
330
62CA
100
AcDbVisualStyle
  2
Hidden
 70
     6
 71
     1
 72
     2
 73
     2
 90
        0
 40
-0.6
 41
-30.0
 62
     5
 63
     7
421
 16777215
 74
     2
 91
        2
 64
     7
 65
   257
 75
     2
175
     1
 42
40.0
 92
        0
 66
   257
 43
1.0
 76
     1
 77
     6
 78
     2
 67
     7
 79
     3
170
     0
171
     0
290
     0
174
     0
 93
        1
 44
0.0
173
     0
291
     0
 45
0.0
1001
ACAD
1000
AcDbSavedByObjectVersion
1070
     0
  0
VISUALSTYLE
  5
62E0
102
{ACAD_XDICTIONARY
360
C160
102
}
102
{ACAD_REACTORS
330
62CA
102
}
330
62CA
100
AcDbVisualStyle
  2
JitterOff
 70
    20
 71
     2
 72
     2
 73
     0
 90
        0
 40
-0.6
 41
-30.0
 62
     5
 63
     7
421
 16777215
 74
     1
 91
        4
 64
     7
 65
   257
 75
     1
175
     1
 42
1.0
 92
       10
 66
     7
 43
1.0
 76
     1
 77
     6
 78
     2
 67
     7
 79
     5
170
     0
171
     0
290
     0
174
     0
 93
        1
 44
0.0
173
     0
291
     1
 45
0.0
1001
ACAD
1000
AcDbSavedByObjectVersion
1070
     0
  0
VISUALSTYLE
  5
62D8
102
{ACAD_XDICTIONARY
360
C150
102
}
102
{ACAD_REACTORS
330
62CA
102
}
330
62CA
100
AcDbVisualStyle
  2
Linepattern
 70
    14
 71
     2
 72
     2
 73
     0
 90
        0
 40
-0.6
 41
-30.0
 62
     5
 63
     7
421
 16777215
 74
     1
 91
        4
 64
     7
 65
   257
 75
     7
175
     7
 42
1.0
 92
        8
 66
     7
 43
1.0
 76
     1
 77
     6
 78
     2
 67
     7
 79
     5
170
     0
171
     0
290
     0
174
     0
 93
        1
 44
0.0
173
     0
291
     1
 45
0.0
1001
ACAD
1000
AcDbSavedByObjectVersion
1070
     0
  0
VISUALSTYLE
  5
62E1
102
{ACAD_XDICTIONARY
360
C162
102
}
102
{ACAD_REACTORS
330
62CA
102
}
330
62CA
100
AcDbVisualStyle
  2
OverhangOff
 70
    21
 71
     2
 72
     2
 73
     0
 90
        0
 40
-0.6
 41
-30.0
 62
     5
 63
     7
421
 16777215
 74
     1
 91
        4
 64
     7
 65
   257
 75
     1
175
     1
 42
1.0
 92
        9
 66
     7
 43
1.0
 76
     1
 77
     6
 78
     2
 67
     7
 79
     5
170
     0
171
     0
290
     0
174
     0
 93
        1
 44
0.0
173
     0
291
     1
 45
0.0
1001
ACAD
1000
AcDbSavedByObjectVersion
1070
     0
  0
VISUALSTYLE
  5
62D4
102
{ACAD_XDICTIONARY
360
C148
102
}
102
{ACAD_REACTORS
330
62CA
102
}
330
62CA
100
AcDbVisualStyle
  2
Realistic
 70
     8
 71
     2
 72
     2
 73
     0
 90
        2
 40
-0.6
 41
30.0
 62
     5
 63
     7
421
 16777215
 74
     0
 91
        0
 64
     7
 65
   257
 75
     1
175
     1
 42
1.0
 92
        8
 66
   257
 43
1.0
 76
     1
 77
     6
 78
     2
 67
     7
 79
     3
170
     0
171
     0
290
     0
174
     0
 93
       13
 44
0.0
173
     0
291
     0
 45
0.0
1001
ACAD
1000
AcDbSavedByObjectVersion
1070
     0
  0
VISUALSTYLE
  5
62DF
102
{ACAD_XDICTIONARY
360
C15E
102
}
102
{ACAD_REACTORS
330
62CA
102
}
330
62CA
100
AcDbVisualStyle
  2
Shaded
 70
    27
 71
     2
 72
     2
 73
     1
 90
        2
 40
-0.6
 41
30.0
 62
     5
 63
     7
421
 16777215
 74
     0
 91
        4
 64
     7
 65
   257
 75
     1
175
     1
 42
1.0
 92
        8
 66
   257
 43
1.0
 76
     1
 77
     6
 78
     2
 67
     8
425
  7895160
 79
     3
170
     0
171
     0
290
     0
174
     0
 93
        5
 44
0.0
173
     0
291
     0
 45
0.0
1001
ACAD
1000
AcDbSavedByObjectVersion
1070
     0
  0
VISUALSTYLE
  5
62DE
102
{ACAD_XDICTIONARY
360
C15C
102
}
102
{ACAD_REACTORS
330
62CA
102
}
330
62CA
100
AcDbVisualStyle
  2
Shaded with edges
 70
    26
 71
     2
 72
     2
 73
     1
 90
        2
 40
-0.6
 41
30.0
 62
     5
 63
     7
421
 16777215
 74
     1
 91
       10
 64
     7
 65
   257
 75
     2
175
     1
 42
1.0
 92
        8
 66
   257
 43
1.0
 76
     1
 77
     6
 78
     2
 67
     7
 79
     3
170
     0
171
     0
290
     0
174
     0
 93
        5
 44
0.0
173
     0
291
     0
 45
0.0
1001
ACAD
1000
AcDbSavedByObjectVersion
1070
     0
  0
VISUALSTYLE
  5
62DB
102
{ACAD_XDICTIONARY
360
C156
102
}
102
{ACAD_REACTORS
330
62CA
102
}
330
62CA
100
AcDbVisualStyle
  2
Shades of Gray
 70
    23
 71
     2
 72
     2
 73
     3
 90
        0
 40
-0.6
 41
-30.0
 62
     5
 63
     7
421
 16777215
 74
     2
 91
        2
 64
     7
 65
     7
 75
     1
175
     1
 42
40.0
 92
        8
 66
     7
 43
1.0
 76
     1
 77
     6
 78
     2
 67
     7
 79
     3
170
     0
171
     0
290
     0
174
     0
 93
        1
 44
0.0
173
     0
291
     0
 45
0.0
1001
ACAD
1000
AcDbSavedByObjectVersion
1070
     0
  0
VISUALSTYLE
  5
62DC
102
{ACAD_XDICTIONARY
360
C158
102
}
102
{ACAD_REACTORS
330
62CA
102
}
330
62CA
100
AcDbVisualStyle
  2
Sketchy
 70
    24
 71
     1
 72
     2
 73
     2
 90
        0
 40
-0.6
 41
-30.0
 62
     5
 63
     7
421
 16777215
 74
     2
 91
        2
 64
     7
 65
     7
 75
     1
175
     1
 42
40.0
 92
       11
 66
     7
 43
1.0
 76
     1
 77
     6
 78
     2
 67
     7
 79
     6
170
     0
171
     0
290
     0
174
     0
 93
        1
 44
0.0
173
     0
291
     0
 45
0.0
1001
ACAD
1000
AcDbSavedByObjectVersion
1070
     0
  0
VISUALSTYLE
  5
62D7
102
{ACAD_XDICTIONARY
360
C14E
102
}
102
{ACAD_REACTORS
330
62CA
102
}
330
62CA
100
AcDbVisualStyle
  2
Thicken
 70
    13
 71
     2
 72
     2
 73
     0
 90
        0
 40
-0.6
 41
-30.0
 62
     5
 63
     7
421
 16777215
 74
     1
 91
        4
 64
     7
 65
   257
 75
     1
175
     1
 42
1.0
 92
       12
 66
     7
 43
1.0
 76
     1
 77
     6
 78
     2
 67
     7
 79
     5
170
     0
171
     0
290
     0
174
     0
 93
        1
 44
0.0
173
     0
291
     1
 45
0.0
1001
ACAD
1000
AcDbSavedByObjectVersion
1070
     0
  0
VISUALSTYLE
  5
62D1
102
{ACAD_XDICTIONARY
360
C142
102
}
102
{ACAD_REACTORS
330
62CA
102
}
330
62CA
100
AcDbVisualStyle
  2
Wireframe
 70
     5
 71
     0
 72
     2
 73
     0
 90
        0
 40
-0.6
 41
-30.0
 62
     5
 63
     7
421
 16777215
 74
     1
 91
        4
 64
     7
 65
   257
 75
     1
175
     1
 42
1.0
 92
        0
 66
   257
 43
1.0
 76
     1
 77
     6
 78
     2
 67
     7
 79
     3
170
     0
171
     0
290
     0
174
     0
 93
        1
 44
0.0
173
     0
291
     0
 45
0.0
1001
ACAD
1000
AcDbSavedByObjectVersion
1070
     0
  0
VISUALSTYLE
  5
62DD
102
{ACAD_XDICTIONARY
360
C15A
102
}
102
{ACAD_REACTORS
330
62CA
102
}
330
62CA
100
AcDbVisualStyle
  2
X-Ray
 70
    25
 71
     2
 72
     2
 73
     1
 90
        1
 40
0.5
 41
-30.0
 62
     5
 63
     7
421
 16777215
 74
     1
 91
        0
 64
     7
 65
   257
 75
     1
175
     1
 42
1.0
 92
        8
 66
     7
 43
1.0
 76
     1
 77
     6
 78
     2
 67
     7
 79
     3
170
     0
171
     0
290
     0
174
     0
 93
       13
 44
0.0
173
     0
291
     0
 45
0.0
1001
ACAD
1000
AcDbSavedByObjectVersion
1070
     0
  0
DICTIONARYVAR
  5
8AA3
102
{ACAD_REACTORS
330
169
102
}
330
169
100
DictionaryVariables
280
     0
  1
1:1
  0
DICTIONARYVAR
  5
8AA1
102
{ACAD_REACTORS
330
169
102
}
330
169
100
DictionaryVariables
280
     0
  1
STANDARD
  0
DICTIONARYVAR
  5
8AA0
102
{ACAD_REACTORS
330
169
102
}
330
169
100
DictionaryVariables
280
     0
  1
STANDARD
  0
DICTIONARYVAR
  5
16A
102
{ACAD_REACTORS
330
169
102
}
330
169
100
DictionaryVariables
280
     0
  1
1
  0
DICTIONARYVAR
  5
8AA5
102
{ACAD_REACTORS
330
169
102
}
330
169
100
DictionaryVariables
280
     0
  1
1
  0
DICTIONARYVAR
  5
8AA6
102
{ACAD_REACTORS
330
169
102
}
330
169
100
DictionaryVariables
280
     0
  1
15
  0
DICTIONARYVAR
  5
8AA4
102
{ACAD_REACTORS
330
169
102
}
330
169
100
DictionaryVariables
280
     0
  1
0
  0
DICTIONARYVAR
  5
8AA2
102
{ACAD_REACTORS
330
169
102
}
330
169
100
DictionaryVariables
280
     0
  1
0
  0
DICTIONARYVAR
  5
C12E
102
{ACAD_REACTORS
330
169
102
}
330
169
100
DictionaryVariables
280
     0
  1
2
  0
XRECORD
  5
177
102
{ACAD_REACTORS
330
176
102
}
330
176
100
AcDbXrecord
280
     1
 91
      476
330
179
 90
        8
 62
     7
370
    -3
331
15
  1
Color_7
330
178
 90
        8
 62
     7
370
    -3
331
15
  1
Color_7
330
128
 90
        0
 62
     7
370
    -3
331
15
  1
Color_7
330
10
 90
        8
 62
     7
370
    -3
331
15
  1
Color_7
  0
DICTIONARY
  5
8088
330
21
100
AcDbDictionary
280
     1
281
     1
  3
ADSK_XREC_LAYOUTTHUMBNAIL
360
8089
  0
DICTIONARY
  5
62BB
330
62BA
100
AcDbDictionary
280
     1
281
     1
  3
ACAD_XREC_ROUNDTRIP
360
C134
  3
BUMPTILE
360
62BD
  3
DIFFUSETILE
360
62BC
  3
OPACITYTILE
360
62C0
  3
REFLECTIONTILE
360
62BF
  3
REFRACTIONTILE
360
62C1
  3
SPECULARTILE
360
62BE
  0
DICTIONARY
  5
62B3
330
62B2
100
AcDbDictionary
280
     1
281
     1
  3
ACAD_XREC_ROUNDTRIP
360
C133
  3
BUMPTILE
360
62B5
  3
DIFFUSETILE
360
62B4
  3
OPACITYTILE
360
62B8
  3
REFLECTIONTILE
360
62B7
  3
REFRACTIONTILE
360
62B9
  3
SPECULARTILE
360
62B6
  0
DICTIONARY
  5
62C3
330
62C2
100
AcDbDictionary
280
     1
281
     1
  3
ACAD_XREC_ROUNDTRIP
360
C135
  3
BUMPTILE
360
62C5
  3
DIFFUSETILE
360
62C4
  3
OPACITYTILE
360
62C8
  3
REFLECTIONTILE
360
62C7
  3
REFRACTIONTILE
360
62C9
  3
SPECULARTILE
360
62C6
  0
DICTIONARY
  5
C130
330
62F9
100
AcDbDictionary
280
     1
281
     1
  3
ACAD_XREC_ROUNDTRIP
360
C131
  0
DICTIONARY
  5
ACD8
330
62E5
100
AcDbDictionary
280
     1
281
     1
  3
ACAD_ROUNDTRIP_2008_TABLESTYLE_CELLSTYLEMAP
360
C12F
  3
ACAD_XREC_ROUNDTRIP
360
C166
  0
DICTIONARY
  5
C140
330
62D0
100
AcDbDictionary
280
     1
281
     1
  3
ACAD_XREC_ROUNDTRIP
360
C141
  0
DICTIONARY
  5
C13E
330
62CF
100
AcDbDictionary
280
     1
281
     1
  3
ACAD_XREC_ROUNDTRIP
360
C13F
  0
DICTIONARY
  5
C14C
330
62D6
100
AcDbDictionary
280
     1
281
     1
  3
ACAD_XREC_ROUNDTRIP
360
C14D
  0
DICTIONARY
  5
C154
330
62DA
100
AcDbDictionary
280
     1
281
     1
  3
ACAD_XREC_ROUNDTRIP
360
C155
  0
DICTIONARY
  5
C146
330
62D3
100
AcDbDictionary
280
     1
281
     1
  3
ACAD_XREC_ROUNDTRIP
360
C147
  0
DICTIONARY
  5
C14A
330
62D5
100
AcDbDictionary
280
     1
281
     1
  3
ACAD_XREC_ROUNDTRIP
360
C14B
  0
DICTIONARY
  5
C164
330
62E2
100
AcDbDictionary
280
     1
281
     1
  3
ACAD_XREC_ROUNDTRIP
360
C165
  0
DICTIONARY
  5
C152
330
62D9
100
AcDbDictionary
280
     1
281
     1
  3
ACAD_XREC_ROUNDTRIP
360
C153
  0
DICTIONARY
  5
C136
330
62CB
100
AcDbDictionary
280
     1
281
     1
  3
ACAD_XREC_ROUNDTRIP
360
C137
  0
DICTIONARY
  5
C138
330
62CC
100
AcDbDictionary
280
     1
281
     1
  3
ACAD_XREC_ROUNDTRIP
360
C139
  0
DICTIONARY
  5
C13A
330
62CD
100
AcDbDictionary
280
     1
281
     1
  3
ACAD_XREC_ROUNDTRIP
360
C13B
  0
DICTIONARY
  5
C13C
330
62CE
100
AcDbDictionary
280
     1
281
     1
  3
ACAD_XREC_ROUNDTRIP
360
C13D
  0
DICTIONARY
  5
C144
330
62D2
100
AcDbDictionary
280
     1
281
     1
  3
ACAD_XREC_ROUNDTRIP
360
C145
  0
DICTIONARY
  5
C160
330
62E0
100
AcDbDictionary
280
     1
281
     1
  3
ACAD_XREC_ROUNDTRIP
360
C161
  0
DICTIONARY
  5
C150
330
62D8
100
AcDbDictionary
280
     1
281
     1
  3
ACAD_XREC_ROUNDTRIP
360
C151
  0
DICTIONARY
  5
C162
330
62E1
100
AcDbDictionary
280
     1
281
     1
  3
ACAD_XREC_ROUNDTRIP
360
C163
  0
DICTIONARY
  5
C148
330
62D4
100
AcDbDictionary
280
     1
281
     1
  3
ACAD_XREC_ROUNDTRIP
360
C149
  0
DICTIONARY
  5
C15E
330
62DF
100
AcDbDictionary
280
     1
281
     1
  3
ACAD_XREC_ROUNDTRIP
360
C15F
  0
DICTIONARY
  5
C15C
330
62DE
100
AcDbDictionary
280
     1
281
     1
  3
ACAD_XREC_ROUNDTRIP
360
C15D
  0
DICTIONARY
  5
C156
330
62DB
100
AcDbDictionary
280
     1
281
     1
  3
ACAD_XREC_ROUNDTRIP
360
C157
  0
DICTIONARY
  5
C158
330
62DC
100
AcDbDictionary
280
     1
281
     1
  3
ACAD_XREC_ROUNDTRIP
360
C159
  0
DICTIONARY
  5
C14E
330
62D7
100
AcDbDictionary
280
     1
281
     1
  3
ACAD_XREC_ROUNDTRIP
360
C14F
  0
DICTIONARY
  5
C142
330
62D1
100
AcDbDictionary
280
     1
281
     1
  3
ACAD_XREC_ROUNDTRIP
360
C143
  0
DICTIONARY
  5
C15A
330
62DD
100
AcDbDictionary
280
     1
281
     1
  3
ACAD_XREC_ROUNDTRIP
360
C15B
  0
XRECORD
  5
8089
102
{ACAD_REACTORS
330
8088
102
}
330
8088
100
AcDbXrecord
280
     1
310
280000000001000065000000010008000000000000650000000000000000000000010000000000003028210000000000FFFFFF000000000000000000000000000000000000000000000000000000000000000000330000006600000099000000CC000000FF00000000330000333300006633000099330000CC330000FF3300
310
0000660000336600006666000099660000CC660000FF66000000990000339900006699000099990000CC990000FF99000000CC000033CC000066CC000099CC0000CCCC0000FFCC000000FF000033FF000066FF000099FF0000CCFF0000FFFF000000003300330033006600330099003300CC003300FF003300003333003333
310
33006633330099333300CC333300FF33330000663300336633006666330099663300CC663300FF66330000993300339933006699330099993300CC993300FF99330000CC330033CC330066CC330099CC3300CCCC3300FFCC330000FF330033FF330066FF330099FF3300CCFF3300FFFF330000006600330066006600660099
310
006600CC006600FF00660000336600333366006633660099336600CC336600FF33660000666600336666006666660099666600CC666600FF66660000996600339966006699660099996600CC996600FF99660000CC660033CC660066CC660099CC6600CCCC6600FFCC660000FF660033FF660066FF660099FF6600CCFF6600
310
FFFF660000009900330099006600990099009900CC009900FF00990000339900333399006633990099339900CC339900FF33990000669900336699006666990099669900CC669900FF66990000999900339999006699990099999900CC999900FF99990000CC990033CC990066CC990099CC9900CCCC9900FFCC990000FF99
310
0033FF990066FF990099FF9900CCFF9900FFFF99000000CC003300CC006600CC009900CC00CC00CC00FF00CC000033CC003333CC006633CC009933CC00CC33CC00FF33CC000066CC003366CC006666CC009966CC00CC66CC00FF66CC000099CC003399CC006699CC009999CC00CC99CC00FF99CC0000CCCC0033CCCC0066CC
310
CC0099CCCC00CCCCCC00FFCCCC0000FFCC0033FFCC0066FFCC0099FFCC00CCFFCC00FFFFCC000000FF003300FF006600FF009900FF00CC00FF00FF00FF000033FF003333FF006633FF009933FF00CC33FF00FF33FF000066FF003366FF006666FF009966FF00CC66FF00FF66FF000099FF003399FF006699FF009999FF00CC
310
99FF00FF99FF0000CCFF0033CCFF0066CCFF0099CCFF00CCCCFF00FFCCFF0000FFFF0033FFFF0066FFFF0099FFFF00CCFFFF00FFFFFF00000000000D0D0D001A1A1A00282828003535350043434300505050005D5D5D006B6B6B00787878008686860093939300A1A1A100AEAEAE00BBBBBB00C9C9C900D6D6D600E4E4E400
310
F1F1F100FFFFFF0000000000000000000000000000000000000000000000000000000000000000000000000000000000000000000000000000000000000000000000000000000000000000000000000000000000002D002D2D0000000000000000000000000000000000000000000000000000000000000000000000000000
310
00000000000000002D002D002D0000000000000000000000000000000000000000000000000000000000000000000000000000000000000000000000002D2D002D000000000000000000000000000000000000000000000000000000000000000000000000000000000000000000002D002D2D000000000000000000000000
310
000000000000000000000000000000000000000000000000000000000000000000000000000000000000000000000000000000000000000000000000000000000000000000000000000000000000000000000000000000002D002D2D0000000000000000000000000000000000000000000000000000000000000000000000
310
00000000000000000000002D002D002D0000000000000000000000000000000000000000000000000000000000000000000000000000000000000000000000002D2D002D000000000000000000000000000000000000000000000000000000000000000000000000000000000000000000002D002D2D000000000000000000
310
000000000000000000000000000000000000000000000000000000000000000000000000000000000000000000000000000000000000000000000000000000000000000000000000000000000000000000000000000000000000002D002D2D0000000000000000000000000000000000000000000000000000000000000000
310
00000000000000000000000000002D2D2D002D0000000000000000000000000000000000000000000000000000000000000000000000000000000000000000000000002D2D002D000000000000000000000000000000000000000000000000000000000000000000000000000000000000000000002D002D2D000000000000
310
000000000000000000000000000000000000000000000000000000000000000000000000000000000000000000000000000000000000000000000000000000000000000000000000000000000000000000000000000000000000000000002D002D2D0000000000000000000000000000000000000000000000000000000000
310
0000000000000000000000000000000000002D2D002D0000000000000000000000000000000000000000000000000000000000000000000000000000000000000000000000002D2D002D000000000000000000000000000000000000000000000000000000000000000000000000000000000000000000002D002D2D000000
310
000000000000000000000000000000000000000000000000000000000000000000000000000000000000000000000000000000000000000000000000000000000000000000000000000000000000000000000000000000000000000000000000002D002D2D000000000000000000000000000000000000000000000000F500
310
0000000000000000000000000000000000000000002D2D002D0000000000000000000000000000000000000000000000000000000000000000000000000000000000000000000000002D2D002D00000000F500000000000000000000000000000000000000000000000000000000000000000000000000000000002D002D2D
310
000000000000000000000000000000000000000000000000000000000000000000000000000000000000000000000000000000000000000000000000000000000000000000000000000000000000000000000000002D2D2D2D2D2D2D2D2D2D2D2D2D2D2D2D2D2D2D2D2D2D2D2D2D2D2D2D2D2D2D2D2D2D2D2D2D2D2D2D2D2D
310
F52D2D2D2D2D2D2D2D2D2D2D2D2D2D2D2D2D2D2D2D2D2D2D2D2D2D2D2D2D2D2D2D2D2D2D2D2D2D2D2D2D2DF52D2D2D2D2D2D2D2D2D2D2D2D2D0000000000002D2D2D2D2D2D2D2D2D2D2D2D2D2D2D2D2D2D2D2DF52D2D2D2D2D2D2D2D2D2D2D2D2D2D2D2D2D2D2D2D2D2D2D2D2D2D2D2D2D2D2D2D2D2D2D2D2D2D2D2D2D2D2D
310
2D2D2D2D2D2D2D2D2D2D2D2D2D2D2D2D2D2D2D2D2DF52D2D2D2D2D2D2D2D2D2D2D2D2D2D000000000000000000000000000000000000000000000000000000000000000000000000000000000000000000000000000000000000000000000000000000000000000000000000000000002D2D2D2D2D2D2D2D2D2D0000000000
310
0000F5000000000000002D2D2D2D2D2D2D2D2D2D00000000000000000000000000000000000000000000000000000000000000000000000000002D000000000000000000000000000000000000002D2D2D2D2D2D2DF52D2D2D2D2D2D0000000000000000000000000000000000000000000000000000000000000000000000
310
0000000000000000000000000000000000000000000000000000000000000000000000002D2D000000000000000000000000000000000000000000000000000000000000000000000000000000000000000000000000000000000000000000000000000000000000000000000000000000002D2D2D2D2D2D2D2D2D2D000000
310
00000000F5000000000000002D2D2D2D2D2D2D2D2D2D00000000000000000000000000000000000000000000000000000000000000000000000000002D000000000000000000000000000000000000002D2D2D2D2D2D2DF52D2D2D2D2D2D000000000000000000000000000000000000000000000000000000000000000000
310
00000000000000000000000000000000000000000000000000000000000000000000000000002D00000000000000000000000000000000000000000000000000000000000000000000000000000000000000000000000000000000000000000000000000000000000000000000000000000000000000000000000000002D00
310
000000000000F5000000000000002D00000000000000000000000000000000000000000000000000000000000000000000000000000000000000000000002D000000000000000000000000000000000000002D00002D000000000000002D002D00000000000000000000000000000000000000000000000000000000000000
310
000000000000000000000000000000000000000000000000000000000000000000000000000000002D0000000000000000000000000000000000000000000000000000000000000000000000000000000000000000000000000000000000000000000000000000000000000000000000000000000000000000000000000000
310
2D00000000000000F5000000000000002D00000000000000000000000000000000000000000000000000000000000000000000000000000000000000000000002D000000000000000000000000000000000000002D000000000000F500000000002D0000000000000000000000000000000000000000000000000000000000
310
0000000000000000000000000000000000000000000000000000000000000000000000000000000000002D000000000000000000000000000000000000000000000000000000000000000000000000000000000000000000000000000000000000000000000000000000000000000000000000000000000000000000000000
310
00002D00000000000000F5000000000000002D00000000000000000000000000000000000000000000000000000000000000000000000000000000000000000000002D000000000000000000000000000000000000002D000000000000F500000000002D000000000000000000000000000000000000000000000000000000
310
00000000000000000000000000000000000000000000000000000000000000000000000000000000000000002D00000000000000000000000000000000000000000000000000000000000000000000000000000000000000000000000000000000000000000000000000000000000000000000000000000000000000000000
310
000000002D2D000000000000F50000000000002D2D00000000000000000000000000000000000000000000000000000000000000000000000000000000000000000000002D000000000000000000000000000000000000002D00000000002DF52D000000002D00000000000000000000000000000000000000000000000000
310
000000000000000000000000000000000000000000000000000000000000000000000000000000000000000000002D0000000000000000000000000000000000000000000000000000000000000000000000000000000000000000000000000000000000000000000000000000000000000000000000000000000000000000
310
0000000000002D2D000000000000F50000000000002D2D00000000000000000000000000000000000000000000000000000000000000000000000000000000000000000000002D000000000000000000000000000000000000002D000000002D00F5002D0000002D0000000000000000000000000000000000000000000000
310
0000000000000000000000000000000000000000000000000000000000000000000000000000000000000000000000002D000000000000000000000000000000000000000000000000000000000000000000000000000000000000000000000000000000000000000000000000000000000000000000000000000000000000
310
00000000000000002D2D000000000000F50000000000002D2D00000000000000000000000000000000000000000000000000000000000000000000000000000000000000000000002D000000000000000000000000000000000000002D0000002D0000F5002D0000002D000000000000000000000000000000000000000000
310
00000000000000000000000000000000000000000000000000000000000000000000000000000000000000000000000000002D00000000000000000000000000000000000000000000000000000000000000000000000000000000000000000000000000000000000000000000000000000000000000000000000000000000
310
000000000000000000002D2D000000002D2D2D2D2D000000002D2D00000000000000000000000000000000000000000000000000000000000000000000000000000000000000000000002D000000000000000000000000000000000000002D0000002D0000F5002D0000002D00000000000000000000000000000000000000
310
000000000000000000000000000000000000000000000000000000000000000000000000000000000000000000000000000000002D0000000000000000000000000000000000000000000000000000000000000000000000000000000000000000000000000000000000000000000000000000000000000000000000000000
310
0000000000000000000000002D2D000000002D2D2D2D2D000000002D2D00000000000000000000000000000000000000000000000000000000000000000000000000000000000000000000002D000000000000000000000000000000000000002D0000002D0000F5002D0000002D0000000000000000000000000000000000
310
0000000000000000000000000000000000000000000000000000000000000000000000000000000000000000000000000000000000002D000000000000000000000000000000000000000000000000000000000000000000000000000000000000000000000000000000000000000000000000000000000000000000000000
310
00000000000000000000000000002D2D000000002D00F5002D000000002D2D00000000000000000000000000000000000000000000000000000000000000000000000000000000000000000000002D000000000000000000000000000000000000002D0000002D0000F5002D0000002D000000000000000000000000000000
310
00000000000000000000000000000000000000000000000000000000000000000000000000000000000000000000000000000000000000002D00000000000000000000000000000000000000000000000000000000000000000000000000000000000000000000000000000000000000000000000000000000000000000000
310
000000000000000000000000000000002D2D000000002D00F5002D000000002D2D00000000000000000000000000000000000000000000000000000000000000000000000000000000000000000000002D000000000000000000000000000000000000002D000000002D00F5002D0000002D00000000000000000000000000
310
000000000000000000000000000000000000000000000000000000000000000000000000000000000000000000000000000000000000000000002D0000000000000000000000000000000000000000000000000000000000000000000000000000000000000000000000000000000000000000000000000000000000000000
310
0000000000000000000000000000000000002D2D2D0000002D00F5002D0000002D2D2D00000000000000000000000000000000000000000000000000000000000000000000000000000000000000000000002D000000000000000000000000000000000000002D00000000002D2D2D000000002D0000000000000000000000
310
0000000000000000000000000000000000000000000000000000000000000000000000000000000000000000000000000000000000000000000000002D000000000000000000000000000000000000000000000000000000000000000000000000000000000000000000000000000000000000000000000000000000000000
310
0000000000000000000000000000000000000000002D2D0000002D00F5002D0000002D2D0000000000000000000000000000000000000000000000000000000000000000000000000000000000000000000000002D000000000000000000000000000000000000002D000000000000F500000000002D000000000000000000
310
00000000000000000000000000000000000000000000000000000000000000000000000000000000000000000000000000000000000000000000000000002D00000000000000000000000000000000000000000000000000000000000000000000000000000000000000000000000000000000000000000000000000000000
310
00000000000000000000000000000000000000000000002D2D002D2D2D2D2D2D2D2D00002D2D0000000000000000000000000000000000000000000000000000000000000000000000000000000000000000000000002D000000000000000000000000000000000000002D000000000000F500000000002D00000000000000
310
000000000000000000000000000000000000000000000000000000000000000000000000000000000000000000000000000000000000000000000000000000002D0000000000000000000000000000000000000000000000000000000000000000000000000000000000000000000000000000000000000000000000000000
310
000000000000000000000000000000000000000000000000002D2D002D002D00F5002D2D00002D2D0000000000000000000000000000000000000000000000000000000000000000000000000000000000000000000000002D000000000000000000000000000000000000002D00002D000000F50000002D002D0000000000
310
0000000000000000000000000000000000000000000000000000000000000000000000000000000000000000000000000000000000000000000000000000000000002D000000000000000000000000000000000000000000000000000000000000000000000000000000000000000000000000000000000000000000000000
310
0000000000000000000000000000000000000000000000000000002D2D2D2D2D2D2D2D2D2D2D2D2D2D2D0000000000000000000000000000000000000000000000000000000000000000000000000000000000000000000000002D000000000000000000000000000000000000002D00002D2D0000F50000002D2D2D000000
310
00000000000000000000000000000000000000000000000000000000000000000000000000000000000000000000000000000000000000000000000000000000000000002D00000000000000000000000000000000000000000000000000000000000000000000000000000000000000000000000000000000000000000000
310
0000000000000000000000000000000000000000000000000000000000002D2D2D2D2D2D2D2D2D2D2D2D2D000000000000000000000000000000000000000000000000000000000000000000000000000000000000000000000000002D000000000000000000000000000000000000002D2D2D2D2D2D2DF52D2D2D2D2D2D00
310
000000000000000000000000000000000000000000000000000000000000000000000000000000000000000000000000000000000000000000000000000000000000000000002D0000000000000000000000000000000000000000000000000000000000000000000000000000000000000000000000000000000000000000
310
000000000000000000000000000000000000000000000000000000000000000000002D2D2D2D2D2D2D2D2D0000000000000000000000000000000000000000000000000000000000000000000000000000000000000000000000000000002D000000000000000000000000000000000000000000002D2D2D2D2D2D2D2D0000
310
0000000000000000000000000000000000000000000000000000000000000000000000000000000000000000000000000000000000000000000000000000000000000000000000002D000000000000000000000000000000000000000000000000000000000000000000000000000000000000000000000000000000000000
310
0000000000000000000000000000000000000000000000000000000000000000000000002D002D00F5002D2D000000000000000000000000000000000000000000000000000000000000000000000000000000000000000000000000000000002D00000000000000000000000000000000000000000000002D00002D00002D
310
00000000000000000000000000000000000000000000000000000000000000000000000000000000000000000000000000000000000000000000000000000000000000000000000000002D00000000000000000000000000000000000000000000000000000000000000000000000000000000000000000000000000000000
310
00000000000000000000000000000000000000000000000000000000000000000000000000002D2D2D2D2D2D2D2D000000000000000000000000000000000000000000000000000000000000000000000000000000000000000000000000000000002D00000000000000000000000000000000000000000000002D2D2D2D2D
310
2D2D00F5F5F5F5F5F5F5F5F5F5F5F5F5F5F5F5F5F5F5F5F5F5F5F5000000000000000000000000000000000000000000000000000000000000000000000000000000000000000000000000002D0000000000000000000000000000000000000000000000000000000000000000000000000000000000000000000000000000
310
000000000000000000000000000000000000000000000000000000000000000000000000000000000000F500F5002D00000000000000000000000000000000000000000000000000000000000000000000000000000000000000000000000000000000002D0000000000000000000000000000000000000000000000002D00
310
F52D2D00F500F5F5F5F5F5F5F5F5F5F500F5F500F5F5F5F5F5F5F5F500000000000000000000000000000000000000000000000000000000000000000000000000000000000000000000000000002D000000000000000000000000000000000000000000000000000000000000000000000000000000000000000000000000
310
00000000000000000000000000000000000000000000000000000000000000000000000000000000000000F52D00F5002D00000000000000000000000000000000000000000000000000000000000000000000000000000000000000000000000000000000002D000000000000000000000000000000000000000000000000
310
2D00002D2D00F500F5F5F5F5F5F5F5F5F5F500F50000F500F5F500F5F5F500000000000000000000000000000000000000000000000000000000000000000000000000000000000000000000000000002D00000000000000000000000000000000000000000000000000000000000000000000000000000000000000000000
310
000000000000000000000000000000000000000000000000000000000000000000000000000000000000000000F52D00F5002D00000000000000000000000000000000000000000000000000000000000000000000000000000000000000000000000000000000002D00000000000000000000000000000000000000000000
310
00002D00F52D2DF50000F50000F5F50000F5000000000000000000000000000000000000000000000000000000000000000000000000000000000000000000000000000000000000000000000000000000002D0000000000000000000000000000000000000000000000000000000000000000000000000000000000000000
310
00000000000000000000000000000000000000000000000000000000000000000000000000000000000000000000F5002D00F5002D000000000000000000F5F5F5F5F5F5F5F5F5F5F5F5F5F5F5F5000000000000000000000000000000000000000000000000000000002D0000000000000000000000000000000000000000
310
000000002D00F52D2DF50000000000000000F5F5F5F5F5F5F5F5F5F5F5F5F5F5F5F500000000000000000000000000000000000000000000000000000000000000000000000000000000000000000000000000002D000000000000000000000000000000000000000000000000000000000000000000000000000000000000
310
000000000000000000000000000000000000000000000000000000000000000000000000000000000000000000000000F5002D00F5002D0000000000000000F500F5F5F5F500F5F500F500000000F500000000000000000000000000000000000000000000000000000000002D000000000000000000000000000000000000
310
0000000000002D00F52DF50000000000000000F500F5F5F5F500F5F500F500000000F50000000000000000000000000000000000000000000000000000000000000000000000000000000000000000000000000000002D00000000000000000000000000000000000000000000000000000000000000000000000000000000
310
000000000000000000000000000000000000000000000000000000F5F5F5F5F5F5F5F5F5F5F5F5F5F5F5F5F5F5F5F5F5F5F52D2D2D2D2D2D2D2D00000000000000F500F5F5F5F5F500F5F5F5F5F5F5F5F5F5000000000000000000000000000000000000000000000000000000002D00000000000000000000000000000000
310
000000000000002D2D2D2D2D2D2D00000000000000F500F5F5F5F5F500F500F5F5F5F500F5F500000000000000000000000000000000000000000000000000000000000000000000000000000000000000000000000000002D0000000000000000000000000000000000000000000000000000000000000000000000000000
310
0000000000000000000000000000000000000000000000000000000000F5F5F5F5F5F5F5F5F5F500F50000F5F5F500F500F5F5002D002D00F5002D2D000000000000F50000F5F5F5F5F5F5F5F5F500000000F500000000000000000000000000000000000000000000000000002828282D0000000000000000000000000000
310
0000000000000000002D00002D00002D000000000000F50000F5F5F5F5F5F5F5F5F500000000F50000000000000000000000000000000000000000000000000000000000000000000000000000000000000000000000002828282D000000000000000000000000000000000000000000000000000000000000000000000000
310
00000000000000000000000000000000000000000000000000000000000000F5F5F5F5F5F5F5F5F5F5F5F5F500F5F5F500F500F5F5002D2D2D2D2D2D2D2D2D0000000000F50000000000000000000000000000000000000000000000000000000000000000000000000000000000000028282D000000000000000000000000
310
000000000000000000002D2D2D2D2D2D2D2D000000000000F5000000000000000000000000000000000000000000000000000000000000000000000000000000000000000000000000000000000000000000000000000000000028282D00000000000000000000000000000000000000000000000000000000000000000000
310
000000000000000000000000000000000000000000000000000000000000000000F5F5F5F5F5F5F5F5F5F500F50000F500F5F5F500F5F5002D2D2D2D2D2D2D2D2D00000000F5000000000000000000000000000000000000000000000000000000000000000000000000000000000000000000002D00000000000000000000
310
0000000000000000000000002D2D2D2D2D2D2D2D0000000000F50000000000000000000000000000000000000000000000000000000000F5F5F5F5F5F5F5F5F5F500000000000000000000000000000000000000000000000000000000002D0000000000000000000000000000000000000000000000000000000000000000
310
000000000000000000000000000000000000000000000000000000000000000000000000000000000000000000000000000000000000000000002D2D2D2DF52D2D2D0000000000F5000000000000000000000000000000000000000000000000000000000000000000000000000000000000000000002D0000000000000000
310
0000000000000000000000000000002D002D2D002D2D0000000000F500000000000000000000000000000000000000000000000000000000F500F5F500F5F5F5F5F50000000000000000000000000000000000000000000000000000000000002D000000000000000000000000000000000000000000000000000000000000
310
00000000000000000000000000000000000000000000000000000000000000000000000000000000000000000000002D2D2D2D2D2D2D2D2D2D2D2D2D2D2D2D2DF52D2D2D2D2D2D2DF52D2D2D2D2D2D2D2D2D00000000000000000000000000000000000000000000000000000000000000000000000000002D000000000000
310
0000002D2D2D2D2D2D2D2D2D2D2D2D2D2D2D2D2D2D2D2D2D2D2D2D2DF52D2D2D2D2D2D2D2D2D0000000000000000000000000000000000000000F500F5F5F5F5F5F5F5F50000000000000000000000000000000000000000000000000000000000002D00000000000000000000000000000000000000000000000000000000
310
000000000000000000000000000000000000000000000000000000000000000000000000000000000000000000000000002D00000000000000000000000000000000F5000000000000000000000000000000002D00000000000000000000000000000000000000000000000000000000000000000000000000002D00000000
310
00000000002D0000000000000000000000000000000000000000000000000000000000000000002D00000000000000000000000000000000000000F5000000F50000F5F500000000000000000000000000000000000000000000000000000000000000002D0000000000000000000000000000000000000000000000000000
310
0000000000000000000000000000000000000000000000000000000000000000000000000000000000000000000000000000002D00000000000000000000000000000000F5000000000000000000000000000000002D00000000000000000000000000000000000000000000000000000000000000000000000000002D0000
310
000000000000002D00000000000000000000000000000000F50000000000000000000000000000002D00000000000000000000000000000000000000F500000000000000000000000000000000000000000000000000000000000000000000000000000000002D000000000000000000000000000000000000000000000000
310
0000000000000000000000000000000000000000000000000000000000000000000000000000000000000000000000000000000000002D2D2D2D2D2D2D2D2D2D2D2D2D2D2D2DF52D2D2D2D2D2D2D2D2D2D2D2D2D2D2D2D0000000000000000000000000000000000000000000000000000000000000000000000000000002D
310
000000000000000000002D2D2D2D2D2D2D2D2D2D2D2D2D2D2D2DF52D2D2D2D2D2D2D2D2D2D2D2D2D2D2D2D00000000000000000000000000000000000000F500000000000000000000000000000000000000000000000000000000000000000000000000000000002D00000000000000000000000000000000000000000000
310
00000000000000000000000000000000000000000000000000000000000000000000000000000000000000000000000000000000000000000000002D2D2D2D2D2D2D2D2D2D2D2D2DF52D2D2D2D2D2D2D2D2D2D2D2D2D0000000000000000000000000000000000000000000000000000000000000000000000000000000000
310
002D0000000000002D2D2D2D2D2D2D2D2D2D2D2D2D2D000000000000F500000000002D2D2D2D2D2D2D2D2D2D2D2D2D2D2D2D2D2D2DF52D2D2D2D2D2D2D2D2DF52D2D2D2D2D2D2D2D2D2D2D2D2D2D2D2D2D2D2D2D2D2D2D2D2D2D2D2D2D000000000000000000000000002D0000000000000000000000000000000000000000
310
000000000000000000000000000000000000000000000000000000000000000000000000000000000000000000000000000000000000000000000000002D2D2D2D2D2D2D2D0000002D00F5002D0000002D2D2D2D2D2D2D2D000000000000000000000000000000000000000000000000000000000000000000000000000000
310
0000002D0000000000002D2D2D2D2D2D2D2D2D2D2D2D2D2D000000000000F500000000002D2D2D2D2D2D2D2D2D2D2D2D2D2D2D2D2D2D2D2D2D2D2D2D2D2D2D2D2D2D2D2D2D2D2D2D2D2D2D2D2D2D2D2D2D2D2D2D2D2D2D2D2D2D2D2D2D2D2D000000000000000000000000002D000000000000000000000000000000000000
310
0000000000000000000000000000000000000000000000000000000000000000000000000000000000000000000000000000000000000000000000000000002D2D00002D002D2D0000002D00F5002D0000002D2D002D002D2D2D00000000000000000000000000000000000000000000000000000000000000000000000000
310
00000000002D000000000000000000000000000000000000002D2D2D2D2D2D2DF52D2D2D2D2D2D0000000000000000000000000000000000000000002D000000000000000000000000000000000000000000000000000000000000000000000000000000000000000000000000002D00000000000000000000000000000000
310
0000000000000000000000000000000000000000000000000000000000000000000000000000000000000000000000000000000000000000000000000000000000000000000000F52D0000002D2DF52D2D0000002D2D0000000000000000000000000000000000000000000000000000000000000000000000000000000000
310
000000000000002D0000000000000000000000000000000000000000000000000000F50000000000000000000000000000000000000000000000002800282D000000000000000000000000000000000000000000000000000000000000000000000000000000000000000000000000002D0000000000000000000000000000
310
00000000000000000000000000000000000000000000000000000000000000000000000000000000000000000000000000000000000000000000000000000000000000000000000000F52D0000000000F500000000002D2D0000000000000000000000000000000000F5F5F5F5F5F5F5F5F500000000000000000000000000
310
0000000000000000002D0000000000000000000000000000000000000000000000000000000000000000000000000000000000000000000000000000002828282D000000000000000000000000000000000000000000000000000000000000000000000000000000000000000000000000002D000000000000000000000000
310
0000000000000000000000000000000000000000000000000000000000000000000000000000000000000000000000000000000000000000000000000000000000F5F5F5F5F5F5F5F5F5F52D2D0000000000F500000000002D2D00000000000000000000000000000000F5F5F5F5F5F5F5F5F5F50000000000000000000000
310
00000000000000000000002D0000000000000000000000000000000000000000000000000000000000000000000000000000000000000000000000000000002828282D000000000000000000000000000000000000000000000000000000000000000000000000000000000000000000000000002D00000000000000000000
310
0000000000000000000000000000000000000000000000000000000000000000000000000000000000000000000000000000000000000000000000000000000000000000F5F5F5F5F5F5F5F5002D2D0000000000F500000000002D2D00000000000000000000000000000000F5F5F5F5F5F5F5F5F5F5000000000000000000
310
000000000000000000000000002D0000000000000000000000000000000000000000000000000000000000000000000000000000000000000000000000000000002828282D000000000000000000000000000000000000000000000000000000000000000000000000000000000000000000000000002D0000000000000000
310
00000000000000000000000000000000000000000000000000000000000000000000000000000000000000000000000000000000000000000000000000000000000000000000F5F5F5F5F5F5F5F5002D2D0000000000F500000000002D2D000000000000000000000000000000F50000F5F500F500F5F5F500000000000000
310
0000000000000000000000000000002D0000000000000000000000000000000000000000000000000000000000000000000000000000000000000000000000000000002828002D000000000000000000000000000000000000000000000000000000000000000000000000000000000000000000000000002D000000000000
310
00000000000000000000000000000000000000000000000000000000000000000000000000000000000000000000000000000000000000000000000000000000000000000000000000F500F5F5F5F5F5002D2D0000000000F500000000002D2D0000000000000000000000000000F500000000000000000000000000000000
310
00000000000000000000000000000000002D0000000000000000000000000000000000000000000000000000000000000000000000000000000000000000000000000000000000002D000000000000000000000000000000000000000000000000000000000000000000000000000000000000000000000000002D00000000
310
00000000000000000000000000000000000000000000000000000000000000000000000000000000000000000000000000000000000000000000000000000000000000000000000000000000000000000000002D2D2D2D2D2D2DF52D2D2D2D2D2D2D0000000000000000000000000000F50000000000000000000000000000
310
000000000000000000000000000000000000002D0000000000000000000000000000000000000000000000000000000000000000000000000000000000000000000000000000000000002D000000000000000000000000000000000000000000000000000000000000000000000000000000000000000000000000002D0000
310
00000000000000000000000000000000000000000000000000000000000000000000000000000000000000000000000000002D2D2D2D2D2D2D2D2D2D2D2D2D2D2D2D2D2D2D2D2D2D2D2D2D2D2D2D2D2D2D2D2D2D2D2D2D2D2D2D2D2DF52D2D2D2D2D2D2D2D2D2D2D2D2D2D2D2D2D2D2D2DF52D2D2D2D2D2D2D2D2D2DF52D2D
310
2D2D2D2D2D2D2D2D000000000000000000000000002D0000000000002D2D2D2D2D2D2D2D2D2D2D2D2D2D2D2D2D2D2D2D2D2D2D2D2D2D2D2D2D2D2D2D2D2D2D2D2D2D2D2D2D2D2D2D2DF52D2DF52D2D2D2D2D2D2D2D2D2D2D2D2D2D2D2D2D2D2D2D2D2D2D2D2D2D2D2D2D2D2D2D2D2D2D2D000000000000000000000000002D
310
000000000000000000000000000000000000000000000000000000000000000000000000000000000000000000000000000000002D2D2D2D2D2D2D2D2D2D2D2D2D2D2D2D2D2D2D2D2D2D2D2D2D2D2D2D2D2D2D2D2D2D2D2D2D0000000000F500000000002D2D2D2D2D2D2D2D2D2D2D2D2D2D2D2D2D2D2D2D2D2D2D2D2D2D2D
310
2D2D2D2D2D2D2D2D2D2D000000000000000000000000002D00000000000000000000000000000000000000000000000000000000000000000000000000000000000000000000000000000000000000000000000000000000002D2D2D2D2D2D2D000000000000000000002D2D2D2D2D2D2D0000000000000000000000000000
310
002D000000000000000000000000000000000000000000000000000000000000000000000000000000000000000000000000000000000000000000000000000000000000000000000000000000000000000000000000000000002D2D2D2D2D2DF52D2D2D2D2D2D000000000000000000000000000000000000000000000000
310
000000002D00000000000000000000000000000000000000002D00000000000000000000000000000000000000000000000000000000000000000000000000000000000000000000000000000000000000000000000000000000002D2D2D2D2D2D2D000000000000000000002D002D2D2D2D2D000000000000000000000000
310
0000002D00000000000000000000000000000000000000000000000000000000000000000000000000000000000000000000000000000000000000000000000000000000000000000000000000000000000000000000000000000000000000000000F500000000000000000000000000000000000000000000000000000000
310
0000000000282D00000000000000000000000000000000000000002D000000000000000000000000000000000000000000000000000000000000000000000000000000000000000000000000000000000000000000000000000000000000000000002D2D000000000000000000002D00000000000000000000000000000000
310
00000000002D00000000000000000000000000000000000000000000000000000000000000000000000000000000000000000000000000000000000000000000000000000000000000000000000000000000000000000000000000000000000000000000F50000000000000000000000000000000000000000000000000000
310
00000000002828282D00000000000000000000000000000000000000002D000000000000000000000000000000000000000000000000000000000000000000000000000000000000000000000000000000000000000000000000000000000000000000002D2D000000000000000000002D0000000000000000000000000000
310
000000000000002D0000000000000000000000000000000000000000000000000000000000000000000000000000000000000000000000000000000000000000000000000000000000000000000000000000000000000000000000000000000000000000000000000000000000000000000000000000000000000000000000
310
000000000000002800282D00000000000000000000000000000000000000002D000000000000000000000000000000000000000000000000000000000000000000000000000000000000000000000000000000000000000000000000000000000000000000002D2D000000000000000000002D000000000000000000000000
310
0000000000000000002D000000000000000000000000000000000000000000000000000000000000000000000000000000000000000000000000000000000000000000000000000000000000000000000000000000000000000000000000000000000000000000000000000000000000000000000000000000000000000000
310
0000000000000000002828282D00000000000000000000000000000000000000002D000000000000000000000000000000000000000000000000000000000000000000000000000000000000000000000000000000000000000000000000F5F5F5F5F5F5F5F5F5F52D2D000000000000000000002D00000000000000000000
310
00000000000000000000002D00000000000000000000000000000000000000000000000000000000000000000000000000000000000000000000000000000000000000000000000000000000000000000000000000000000000000000000000000000000000000000000000000000000000000000000000000000000000000
310
00000000000000000000002828282D00000000000000000000000000000000000000002D00000000000000000000000000000000000000000000000000000000000000000000000000000000000000000000000000000000000000000000000000F5F5F5F5F5F5F5F5002D2D000000000000000000002D0000000000000000
310
000000000000000000000000002D0000000000000000000000000000000000000000000000000000000000000000000000000000000000000000000000000000000000000000000000000000000000000000000000000000000000000000000000000000000000000000000000000000000000000000000000000000000000
310
000000000000000000000000000000002D00000000000000000000000000000000000000002D00000000000000000000000000000000000000000000000000000000000000000000000000000000000000000000000000000000000000000000000000F5F5F5F5F5F5F5F5002D2D000000000000000000002D000000000000
310
0000000000000000000000000000002D000000000000000000000000000000000000000000000000000000000000000000000000000000000000000000000000000000000000000000000000000000000000000000000000000000000000000000000000000000000000000000000000000000000000000000000000000000
310
0000000000000000000000000000000000002D00000000000000000000000000000000000000002D00000000000000000000000000000000000000000000000000000000000000000000000000000000000000000000000000000000000000000000000000F5F5F500F5F5F5F5002D2D000000000000000000002D00000000
310
00000000000000000000000000000000002D000000000000000000000000000000000000000000000000000000000000000000000000000000000000000000000000000000002D2D2D2D2D2D2D2D2D2D2D2D2D2D2D2D2D2D2D2D2D2D2D2D2D2D2D2D2D2D2D2D2D2D2D2D2D2D2D2D2D2D2D2D2D2D2D2D2D2D2D2D2D2D2D2D2D
310
2D2D2D2D2D2D2D2D2D2D2D2D2D2D2D2D2DF52D2DF52D2D2D2D2D2D2DF52D2D2D2D2D2D2D2D2D2D2D2DF50000000000002D2D2D2D2D2D2D2D2D2D2D2D2D2D2D2D2D2D2D2D2D2D2D2D2D2D2D2D2D2D2D2D2D2D2D2D2D2D2D2D2D2D2D2D2D2D2D2D2D2D2D2D2D2D2D2D2D2D2D2D2D2D2D2D2D2D2D2D2D2D2D2D2D2D2D2D2D2D2D
310
2D2D2D2D2D2DF52D2D2D2D2D2D2D2D2D2D2D2DF52D00000000000000000000000000000000000000000000000000000000000000000000000000000000000000000000000000000000000000000000000000000000000000000000000000000000000000000000000000000000000000000000000000000000000000000000
310
00000000000000000000000000000000000000000000000000000000000000000000000000000000000000000000000000000000000000000000000000000000000000000000000000000000000000000000000000000000000000000000000000000000000000000000000000000000000000000000000000000000000000
310
00000000000000000000000000000000000000000000000000000000000000000000000000000000000000000000000000000000000000000000000000000000000000000000000000002D2D2D2D2D2D2D2D2D2D2D2D2D2D2D2D2D2D2D2D2D2D2D2D2D2D2D2D2D2D2D2D2D2D2D2D2D2D2D2D2D2D2D2D2D2D2D2D2D2D2D2D2D
310
2D2D2D2D2D2D2D2D2D2D2D2D2D2D2D2D2D2D2D2D2D2D2D2D2D2D2D2D2D2D2D2D00000000000000000000000000000000000000002D2D2D2D2D2D2D2D2D2D2D2D2D2D2D2D2D2D2D2D2D2D2D2D2D2D2D2D2D2D2D2D2D2D2D2D2D2D2D2D2D2D2D2D2D2D2D2D2D2D2D2D2D2D2D2D2D2D2D2D2D2D2D2D2D2D2D2D2D2D2D2D2D2D2D
310
2D2D2D2D2D2D2D2D2D2D0000000000000000000000000000000000000000000000000000000000000000000000000000000000000000000000000000000000000000000000000000000000002D2D2D2D2D2D2D2D2D2D2D2D2D2D2D2D2D2D2D2D2D2D2D2D2D2D2D2D2D2D2D2D2D2D2D2D2D2D2D2D2DF52D2D2D2D2D2D2D2D2D
310
2D2D2D2D2D2D2D2D2D2D2D2D2D2D2D2D2D2D2D2D2D2D2D2D2D2D2D2D2D2D2D2D2D2D00000000000000000000000000000000000000002D2D2D2D2D2D2D2D2D2D2D2D2D2D2D2D2D2D2D2D2D2D2D2D2D2D2D2D2D2D2D2D2D2D2D2D2D2D2D2D2D2D2D2D2D2D2D2D2D2D2D2D2D2D2D2D2D2D2D2D2D2D2D2D2D2D2D2D2D2D2D2D2D
310
2D2D2D2D2D2D2D2D2D2D2D2D000000000000000000000000000000000000000000000000000000000000000000000000000000000000000000000000000000000000000000000000000000000000000000000000000000000000000000000000000000000000000000000000000000000000000000000000F5000000000000
310
00000000000000000000000000000000000000000000000000000000000000000000000000000000000000000000000000000000000000000000000000000000000000000000000000000000000000000000000000000000000000000000000000000000000000000000000000000000000000000000000000000000000000
310
00000000000000000000000000000000000000000000000000000000000000000000000000000000000000000000000000000000000000000000000000000000000000000000000000000000000000002D2D2D2D2D2D2D2D2D2D2D2D2D2D2D2D2D2D2D2D2D2D2D2D2D2D2D2D2D2D2D2D2D2D2D2D2D2D2D2D2D2DF52D2D2D2D
310
2D2D2D2D2D2D2D2D2D2D2D2D2D2D2D2D2D2D2D2D2D2D2D2D2D2D2D2D2D2D2D2D2D2D2D2D2D2D00000000000000000000000000000000000000002D2D2D2D2D2D2D2D2D2D2D2D2D2D2D2D2D2D2D2D2D2D2D2D2D2D2D2D2D2D2D2D2D2D2D2D2D2D2D2D2D2D2D2D2D2D2D2D2D2D2D2D2D2D2D2D2D2D2D2D2D2D2D2D2D2D2D2D2D
310
2D2D2D2D2D2D2D2D2D2D2D2D2D2D2D2D00000000000000000000000000000000000000000000000000000000000000000000000000000000000000000000000000000000000000000000000000000000000000000000000000000000000000000000000000000000002D00000000000000000000000000000000000000F500
310
0000002D000000000000000000000000000000000000000000000000002D00000000000000000000000000000000000000000000000000000000000000000000000000000000000000000000000000000000000000000000000000000000000000000000000000000000000000000000000000000000000000000000000000
310
00000000000000000000000000000000000000000000000000000000000000000000000000000000000000000000000000000000000000000000000000000000000000000000000000000000000000000000000000000000000000000000000000000000000000000000002D2D2D0000000000000000000000000000000000
310
F5000000002D2D2D00000000000000000000000000000000000000000000002D2D00000000000000000000000000000000000000000000000000000000000000000000000000000000000000000000000000000000000000000000000000000000000000000000000000000000000000000000000000000000000000000000
310
0000000000000000000000000000000000000000000000000000000000000000000000000000000000000000000000000000000000000000000000000000000000000000000000000000000000000000000000000000000000000000000000000000000000000000000000000000002D000000000000000000000000000000
310
000000F500000000002D0000000000000000000000000000000000000000000000002D0000000000000000000000000000000000000000000000000000000000000000000000000000000000000000000000000000000000000000000000000000000000000000000000000000000000000000000000000000000000000000
310
0000000000000000000000000000000000000000000000000000000000000000000000000000000000000000000000000000000000000000000000000000000000000000000000000000000000000000000000000000000000000000000000000000000000000000000000000000002D2D2D00000000000000000000000000
310
0000000000F50000002D2D2D00000000000000000000000000000000000000000000002D2D000000000000000000000000000000000000000000000000000000000000000000000000000000000000000000000000000000000000000000000000000000000000000000000000000000000000000000000000000000000000
310
00000000000000000000000000000000000000000000000000000000000000000000000000000000000000000000000000000000000000000000000000000000000000000000000000000000000000000000000000000000000000000000000000000000000000000000000000000000002D00000000000000000000000000
310
0000000000000000F500002D000000000000000000000000000000000000000000000000002D0000000000000000000000000000000000000000000000000000000000000000000000000000000000000000000000000000000000000000000000000000000000000000000000000000000000000000000000000000000000
310
00000000000000000000000000000000000000000000000000000000000000000000000000000000000000000000000000000000000000000000000000000000000000000000000000000000000000000000000000000000000000002D2D2D2D2D2D2D2D2D2D2D2D2D2D2D2D2D2D2D2D2D2D2D2D2D2D2D2D2D2D2D2D2D2D2D
310
2D2DF52D2D2D2D2D2D2D2DF52D2D2D2D2D2D2D2D2D2D2D2D2D2D2D2D2D2D2D2D2D2D2D2D2D2D2D2D2D2D2D2D2D2D2D2D2D2D00000000000000000000000000000000000000002D2D2D2D2D2D2D2D2D2D2D2D2D2D2D2D2D2D2D2D2D2D2D2D2D2D2D2D2D2D2D2D2D2D2D2D2D2D2D2D2D2D2D2D2D2D2D2D2D2D2D2D2D2D2D2D2D
310
2D2D2D2D2D2D2D2D2D2D2D2D2D2D2D2D2D2D2D2D2D2D2D2D2D2D2D2D000000000000000000000000000000000000000000000000000000000000000000000000000000000000000000000000000000000000000000000000000000000000000000000000000000000000000000000000000000000000000000000000000000
310
0000000000F500000000000000F50000000000000000000000000000000000000000000000000000000000000000000000000000000000000000000000000000000000000000000000000000000000000000000000000000000000000000000000000000000000000000000000000000000000000000000000000000000000
310
00000000000000000000000000000000000000000000000000000000000000000000000000000000000000000000000000000000000000000000000000000000000000000000000000000000000000000000000000000000000000000000000000000000000000000000000000000000000000000000000000000000000000
310
00000000000000F50000000000000000F50000000000000000000000000000000000000000000000000000000000000000000000000000000000000000000000000000000000000000000000000000000000000000000000000000000000000000000000000000000000000000000000000000000000000000000000000000
310
00000000000000000000000000000000000000000000000000000000000000000000000000000000000000000000000000000000000000000000000000000000000000000000000000000000000000000000000000000000000000000000000000000000000000000000000000000000000000000000000000000000000000
310
00000000000000000000F500000000000000F5000000000000000000000000000000000000000000000000000000000000000000000000000000000000000000000000000000000000000000000000000000000000000000000000000000000000000000000000000000000000000000000000000000000000000000000000
310
00000000000000000000000000000000000000000000000000000000000000000000000000000000000000000000000000000000000000000000000000000000000000000000000000000000000000000000000000000000000000000000000000000000000000000000000000000000000000000000000000000000000000
310
000000000000000000000000F50000000000000000F5000000000000000000000000000000000000000000000000000000000000000000000000000000000000000000000000000000000000000000000000000000000000000000000000000000000000000000000000000000000000000000000000000000000000000000
310
00000000000000000000000000000000000000000000000000000000000000000000000000000000000000000000000000000000000000000000000000000000000000000000000000000000000000000000000000000000000000000000000000000000000000000000000000000000000000000000000000000000000000
310
000000000000000000000000000000F500000000000000F500000000000000000000000000000000000000000000000000000000000000000000000000000000000000000000000000000000000000000000000000000000000000000000000000000000000000000000000000000000000000000000000000000000000000
310
00000000000000000000000000000000000000000000000000000000000000000000000000000000000000000000000000000000000000000000000000000000000000000000000000000000000000000000000000000000000000000000000000000000000000000000000000000000000000000000000000000000000000
310
0000000000000000000000000000000000F50000000000000000F5F5F5F5F5F5F5F5F5F5F5F5F5F5F5F500000000000000000000000000000000000000000000000000000000000000000000000000000000000000000000000000000000000000000000000000000000000000000000000000000000000000000000000000
310
00000000000000000000000000000000000000000000000000000000000000000000000000000000000000000000000000000000000000000000000000000000000000000000000000000000000000000000000000000000000000000000000000000000000000000000000000000000000000000000000000000000000000
310
0000000000000000000000000000000000000000F500000000000000000000F5F5F5F5F5F5F5F5F5F50000000000000000000000000000000000000000000000000000000000000000000000000000000000000000000000000000000000000000000000000000000000000000000000000000000000000000000000000000
310
00000000000000000000000000000000000000000000000000000000000000000000000000000000000000000000000000000000000000000000000000000000000000000000000000000000000000000000000000000000000000000000000000000000000000000000000000000000000000000000000000000000000000
310
00000000000000000000000000000000000000000000F500000000000000000000F5F5F5F5F5F5F5F5F5F5000000000000000000000000000000000000000000000000000000000000000000000000000000000000000000000000000000000000000000000000000000000000000000000000000000000000000000000000
310
00000000000000000000000000000000000000000000000000000000000000000000000000000000000000000000000000000000000000000000000000000000000000000000000000000000000000000000000000000000000000000000000000000000000000000000000000000000000000000000000000000000000000
310
00000000000000000000000000000000000000000000000000F5000000000000000000F5F500F50000F500000000000000000000000000000000000000000000000000000000000000000000000000000000000000000000000000000000000000000000000000000000000000000000000000000000000000000000000000
310
00000000000000000000000000000000000000000000000000000000000000000000000000000000000000000000000000000000000000000000000000000000000000000000000000000000000000000000000000000000000000000000000000000000000000000000000000000000000000000000000000000000000000
310
000000000000000000000000000000000000000000000000000000F5000000000000000000000000000000000000000000000000000000000000000000000000000000000000000000000000000000000000000000000000000000000000000000000000000000000000000000000000000000000000000000000000000000
310
00000000000000000000000000000000000000000000000000000000000000000000000000000000000000000000000000000000000000000000000000000000000000000000000000000000000000000000000000000000000000000000000000000000000000000000000000000000000000000000000000000000000000
310
000000000000000000000000000000000000000000000000000000000000F5F5F5F5F5F5F5F5F5F5F5F5F5F5F5F5F5F5F5F5F5F5F5F5F5F50000000000000000000000000000000000000000000000000000000000000000000000000000000000000000000000000000000000000000000000000000000000000000000000
310
00000000000000000000000000000000000000000000000000000000000000000000000000000000000000000000000000000000000000000000000000000000000000000000000000000000000000000000000000000000000000000000000000000000000000000000000000000000000000000000000000000000000000
310
0000000000000000000000000000000000000000000000000000000000000000000000F5F5F5F5F5000000F5F500F5F5F5F500F5F5F5F5F50000000000000000000000000000000000000000000000000000000000000000000000000000000000000000000000000000000000000000000000000000000000000000000000
310
00000000000000000000000000000000000000000000000000000000000000000000000000000000000000000000000000000000000000000000000000000000000000000000000000000000000000000000000000000000000000000000000000000000000000000000000000000000000000000000000000000000000000
310
00000000000000000000000000000000000000000000000000000000000000000000000000F5F5F5F5F5F5F5F5F5F5F5F5F5F5F5F5F5F5F5F5F5000000000000000000000000000000000000000000000000000000000000000000000000000000000000000000000000000000000000000000000000000000000000000000
310
00000000000000000000000000000000000000000000000000000000000000000000000000000000000000000000000000000000000000000000000000000000000000000000000000000000000000000000000000000000000000000000000000000000000000000000000000000000000000000000000000000000000000
310
0000000000000000000000000000000000000000000000000000000000000000000000000000000000000000000000000000000000F5F500F500000000000000000000000000000000000000000000000000000000000000000000000000000000000000000000000000000000000000000000000000000000000000000000
310
00000000000000000000000000000000000000000000000000000000000000000000000000000000000000000000000000000000000000000000000000000000000000000000000000000000000000000000000000000000000000000000000000000000000000000000000000000000000000000000000000000000000000
310
00000000000000000000000000000000000000000000000000000000000000000000000000000000000000000000000000000000000000000000000000000000000000000000000000000000000000000000000000000000000000000000000000000000000000000000000000000000000000000000000000000000000000
310
00000000000000000000000000000000000000000000000000000000000000000000000000000000000000000000000000000000000000000000000000000000000000000000000000000000000000000000000000000000000000000000000000000000000000000000000000000000000000000000000000000000000000
310
00000000000000000000000000000000000000000000000000000000000000000000000000000000000000000000000000000000000000000000000000000000000000000000000000000000000000000000000000000000000000000000000000000000000000000000000000000000000000000000000000000000000000
310
00000000000000000000000000000000000000000000000000000000000000000000000000000000000000000000000000000000000000000000000000000000000000000000000000000000000000000000000000000000000000000000000000000000000000000000000000000000000000000000000000000000000000
310
00000000000000000000000000000000000000000000000000000000000000000000000000000000000000000000000000000000000000000000000000000000000000000000000000000000000000000000000000282800280000280000000000000000002828000000282828280028280028000000002800280000000000
310
00000028002828282800282828002800280000282800002800280000000000002828280000280000282828282800002800280028002800280000000000000000000000000000000000000000000000000000000000000000000000000000000000000000000000000000000000000000000000000000000000000000000000
310
00000000000000000000000000000000000000000000000000000000000000000000000000000000000000000000000000000000000000000000000000000000000000000000000000000000000000000000000000000028282800000000280000002828000000002800000028000028000028280000000000280028002828
310
28282800002800000000280028000028280028000028280000280028280000280000000028000028000000000028280000280028002800280028000000000000000000000000000000000000000000000000000000000000000000000000000000000000000000000000000000000000000000000000000000000000000000
310
00000000000000000000000000000000000000000000000000000000000000000000000000000000000000000000000000000000000000000000000000000000000000000000000000000000000000000000000000000000000000280000282828000000282800000028002800002800002800000028000000000028282800
310
28282828280000280000002828002800002828282828282828282828002800282800280000282800002800002800282828282828002800280028002800000000000000000000000000000000000000000000000000000000000000000000000000000000000000000000000000000000000000000000000000000000000000
310
00000000000000000000000000000000000000000000000000000000000000000000000000000000000000000000000000000000000000000000000000000000000000000000000000000000000000000000000000000000000000282828000000282828000000000000000028280000282828280028282800000000002828
310
28000000000000002828000000002800280028002828282828002828280028000000000000000000280028280000282828002828280028000028280028000000000000000000000000000000000000000000000000000000000000000000000000000000000000000000000000000000000000000000000000000000000000
310
00000000000000000000000000000000000000000000000000000000000000000000000000000000000000000000000000000000000000000000000000000000000000000000000000000000000000000000000000000000000000000000280000000000000000000000000000000000000000000000000000000000000000
310
28000000000000000000002800002828280028282800000000000000000000000000000000000000282828000028000028282800000000000000000000000000000000000000000000000000000000000000000000000000000000000000000000000000000000000000000000000000000000000000000000000000000000
310
00000000000000000000000000000000000000000000000000000000000000000000000000000000000000000000000000000000000000000000000000000000000000000000000000000000000000000000000000000000000000000000000000000000000000000000000000000000000000000000000000000000000000
310
00000000000000000000000000000000000000000000000000000000000000000000000000000000000000000000000000000000000000000000000000000000000000000000000000000000000000000000000000000000000000000000000000000000000000000000000000000000000000000000000000000000000000
310
00000000000000000000000000000000000000000000000000000000000000000000000000000000000000000028282800000028002828282800000000000000000000002828282828000000000028282800282800000028002828282828000028002800000000000000000000002828000028002828000000282828282828
310
28282800002828280000000028282828002800280000280028282800000000000000000000000000000000000000000000000000000000000000000000000000000000000000000000000000000000000000000000000000000000000000000000000000000000000000000000000000000000000000000000000000000000
310
00000000000000000000282828280000282828000000282800000000000000000000280000000000000028280028002800002800002800002800000000000000002800002800282828280000000028280028002800002828002800282828282828282828000000000000000000000000282828280028282828002828002828
310
00282828280028000028000000002828282828282828002800282800280000282800002828002800002828000000282800000000280000000028280000000028000000282800000028000000000000000000000000000000000000000000000000000000000000000000000000000000000000000000000000000000000000
310
00000000000000000000000028282828000000282800002800280000000000000028280028000000000000000000280000000000280000280000002800002828282828280000280028002800280000002800280028002828282828280028282828282828282800000028000000000000000028282828002828282828002828
310
28280028280028002828282828000000282800280028002828000028282828000000000000000028000000280028000000002800000028002800280028000028282800000000002800000028000000000000000000000000000000000000000000000000000000000000000000000000000000000000000000000000000000
310
00000000000000000000000000002828282800000000280000280028000028282828000028282800002828280000000028000028282828000028000000002800000000000028282828002828282828000000280000282828280028282828002828282828282828282800000000002828282828002828282828282828280028
310
28282800282828282800282828280000000028282828282828282828002828282800002828000000002800000028282800000028282800002828280000282828000000280000000000280000002800000000000000000000000000000000000000000000000000000000000000000000000000000000000000000000000000
310
00000000000000000000000000000000282828280000282828000028002800000000000000000028280000000000000028282800002800000000282800002800280000000000002800002800282828282800000028280028282800000028280000282828282828282828000000000000000000000000282828280028282828
310
28282828282800282828280028282828280000000028280000282828282800282828280000000000002828280000000028000000280000000000282828000000280000000000280000282828280028000000000000000000000000000000000000000000000000000000000000000000000000000000000000000000000000
310
00000000000000000000000000000000000000000000000000000000000000000000000000000000000000000000000000000000000000282828280000280000282800000000000000000000000000000000280000000000000000000000002828000000282800002828282800000000000000000000000000280000000000
310
280000000000280000002800000000280028000000000028002800000028000000000000000000000000000000000000000000000000000000000000000000000000000000000000000000000000000000000000000000000000000000000000000000000000000000000000000000000000000000000000000000
  0
XRECORD
  5
C134
102
{ACAD_REACTORS
330
62BB
102
}
330
62BB
100
AcDbXrecord
280
     1
102
MATERIAL
148
0.0
149
0.0
149
0.0
 93
        0
 94
      127
282
     0
 72
     0
 77
     0
171
     0
175
     0
179
     0
273
     0
  0
XRECORD
  5
62BD
102
{ACAD_REACTORS
330
62BB
102
}
330
62BB
100
AcDbXrecord
280
     1
270
     1
271
     1
  0
XRECORD
  5
62BC
102
{ACAD_REACTORS
330
62BB
102
}
330
62BB
100
AcDbXrecord
280
     1
270
     1
271
     1
  0
XRECORD
  5
62C0
102
{ACAD_REACTORS
330
62BB
102
}
330
62BB
100
AcDbXrecord
280
     1
270
     1
271
     1
  0
XRECORD
  5
62BF
102
{ACAD_REACTORS
330
62BB
102
}
330
62BB
100
AcDbXrecord
280
     1
270
     1
271
     1
  0
XRECORD
  5
62C1
102
{ACAD_REACTORS
330
62BB
102
}
330
62BB
100
AcDbXrecord
280
     1
270
     1
271
     1
  0
XRECORD
  5
62BE
102
{ACAD_REACTORS
330
62BB
102
}
330
62BB
100
AcDbXrecord
280
     1
270
     1
271
     1
  0
XRECORD
  5
C133
102
{ACAD_REACTORS
330
62B3
102
}
330
62B3
100
AcDbXrecord
280
     1
102
MATERIAL
148
0.0
149
0.0
149
0.0
 93
        0
 94
      127
282
     0
 72
     0
 77
     0
171
     0
175
     0
179
     0
273
     0
  0
XRECORD
  5
62B5
102
{ACAD_REACTORS
330
62B3
102
}
330
62B3
100
AcDbXrecord
280
     1
270
     1
271
     1
  0
XRECORD
  5
62B4
102
{ACAD_REACTORS
330
62B3
102
}
330
62B3
100
AcDbXrecord
280
     1
270
     1
271
     1
  0
XRECORD
  5
62B8
102
{ACAD_REACTORS
330
62B3
102
}
330
62B3
100
AcDbXrecord
280
     1
270
     1
271
     1
  0
XRECORD
  5
62B7
102
{ACAD_REACTORS
330
62B3
102
}
330
62B3
100
AcDbXrecord
280
     1
270
     1
271
     1
  0
XRECORD
  5
62B9
102
{ACAD_REACTORS
330
62B3
102
}
330
62B3
100
AcDbXrecord
280
     1
270
     1
271
     1
  0
XRECORD
  5
62B6
102
{ACAD_REACTORS
330
62B3
102
}
330
62B3
100
AcDbXrecord
280
     1
270
     1
271
     1
  0
XRECORD
  5
C135
102
{ACAD_REACTORS
330
62C3
102
}
330
62C3
100
AcDbXrecord
280
     1
102
MATERIAL
148
0.0
149
0.0
149
0.0
 93
        0
 94
      127
282
     0
 72
     0
 77
     0
171
     0
175
     0
179
     0
273
     0
  0
XRECORD
  5
62C5
102
{ACAD_REACTORS
330
62C3
102
}
330
62C3
100
AcDbXrecord
280
     1
270
     1
271
     1
  0
XRECORD
  5
62C4
102
{ACAD_REACTORS
330
62C3
102
}
330
62C3
100
AcDbXrecord
280
     1
270
     1
271
     1
  0
XRECORD
  5
62C8
102
{ACAD_REACTORS
330
62C3
102
}
330
62C3
100
AcDbXrecord
280
     1
270
     1
271
     1
  0
XRECORD
  5
62C7
102
{ACAD_REACTORS
330
62C3
102
}
330
62C3
100
AcDbXrecord
280
     1
270
     1
271
     1
  0
XRECORD
  5
62C9
102
{ACAD_REACTORS
330
62C3
102
}
330
62C3
100
AcDbXrecord
280
     1
270
     1
271
     1
  0
XRECORD
  5
62C6
102
{ACAD_REACTORS
330
62C3
102
}
330
62C3
100
AcDbXrecord
280
     1
270
     1
271
     1
  0
XRECORD
  5
C131
102
{ACAD_REACTORS
330
C130
102
}
330
C130
100
AcDbXrecord
280
     1
102
ACAD_ROUNDTRIP_2012_MLEADER_STYLE
298
     1
  0
CELLSTYLEMAP
  5
C12F
102
{ACAD_REACTORS
330
ACD8
102
}
330
ACD8
100
AcDbCellStyleMap
 90
        3
300
CELLSTYLE
  1
TABLEFORMAT_BEGIN
 90
        5
170
     1
 91
        0
 92
    32768
 62
   257
 93
        1
300
CONTENTFORMAT
  1
CONTENTFORMAT_BEGIN
 90
        0
 91
        0
 92
      512
 93
        0
300

 40
0.0
140
1.0
 94
        5
 62
     0
340
11
144
0.25
309
CONTENTFORMAT_END
171
     0
 94
        0
309
TABLEFORMAT_END
  1
CELLSTYLE_BEGIN
 90
        1
 91
        1
300
_TITLE
309
CELLSTYLE_END
300
CELLSTYLE
  1
TABLEFORMAT_BEGIN
 90
        5
170
     1
 91
        0
 92
        0
 62
   257
 93
        1
300
CONTENTFORMAT
  1
CONTENTFORMAT_BEGIN
 90
        0
 91
        0
 92
      512
 93
        0
300

 40
0.0
140
1.0
 94
        5
 62
     0
340
11
144
0.18
309
CONTENTFORMAT_END
171
     0
 94
        0
309
TABLEFORMAT_END
  1
CELLSTYLE_BEGIN
 90
        2
 91
        1
300
_HEADER
309
CELLSTYLE_END
300
CELLSTYLE
  1
TABLEFORMAT_BEGIN
 90
        5
170
     1
 91
        0
 92
        0
 62
   257
 93
        1
300
CONTENTFORMAT
  1
CONTENTFORMAT_BEGIN
 90
        0
 91
        0
 92
      512
 93
        0
300

 40
0.0
140
1.0
 94
        2
 62
     0
340
11
144
0.18
309
CONTENTFORMAT_END
171
     0
 94
        0
309
TABLEFORMAT_END
  1
CELLSTYLE_BEGIN
 90
        3
 91
        2
300
_DATA
309
CELLSTYLE_END
  0
XRECORD
  5
C166
102
{ACAD_REACTORS
330
ACD8
102
}
330
ACD8
100
AcDbXrecord
280
     1
102
ACAD_ROUNDTRIP_PRE2007_TABLESTYLE
 90
      512
 91
        0
  1

 92
      512
 93
        0
  2

 94
      512
 95
        0
  3

  0
XRECORD
  5
C141
102
{ACAD_REACTORS
330
C140
102
}
330
C140
100
AcDbXrecord
280
     1
102
RTVSPropertyOp0
 70
     1
102
RTVSPropertyOp1
 70
     1
102
RTVSPropertyOp2
 70
     1
102
RTVSPropertyOp3
 70
     1
102
RTVSPropertyOp4
 70
     1
102
RTVSPropertyOp5
 70
     1
102
RTVSPropertyOp6
 70
     1
102
RTVSPropertyOp7
 70
     1
102
RTVSPropertyOp8
 70
     1
102
RTVSPropertyOp9
 70
     1
102
RTVSPropertyOp10
 70
     1
102
RTVSPropertyOp11
 70
     1
102
RTVSPropertyOp12
 70
     1
102
RTVSPropertyOp13
 70
     1
102
RTVSPropertyOp14
 70
     1
102
RTVSPropertyOp15
 70
     1
102
RTVSPropertyOp16
 70
     1
102
RTVSPropertyOp17
 70
     1
102
RTVSPropertyOp18
 70
     1
102
RTVSPropertyOp19
 70
     1
102
RTVSPropertyOp20
 70
     1
102
RTVSPropertyOp21
 70
     1
102
RTVSPropertyOp22
 70
     1
102
RTVSPropertyOp23
 70
     1
102
RTVSPropertyOp24
 70
     1
102
RTVSPropertyOp25
 70
     1
102
RTVSPropertyOp26
 70
     1
102
RTVSPropertyOp27
 70
     1
102
RTVSPropertyOp28
 70
     1
102
RTVSPropertyOp29
 70
     1
102
RTVSPropertyOp30
 70
     1
102
RTVSPropertyOp31
 70
     1
102
RTVSPropertyOp32
 70
     1
  0
XRECORD
  5
C13F
102
{ACAD_REACTORS
330
C13E
102
}
330
C13E
100
AcDbXrecord
280
     1
102
RTVSPropertyOp0
 70
     1
102
RTVSPropertyOp1
 70
     1
102
RTVSPropertyOp2
 70
     1
102
RTVSPropertyOp3
 70
     1
102
RTVSPropertyOp4
 70
     1
102
RTVSPropertyOp5
 70
     1
102
RTVSPropertyOp6
 70
     1
102
RTVSPropertyOp7
 70
     1
102
RTVSPropertyOp8
 70
     1
102
RTVSPropertyOp9
 70
     1
102
RTVSPropertyOp10
 70
     1
102
RTVSPropertyOp11
 70
     1
102
RTVSPropertyOp12
 70
     1
102
RTVSPropertyOp13
 70
     1
102
RTVSPropertyOp14
 70
     1
102
RTVSPropertyOp15
 70
     1
102
RTVSPropertyOp16
 70
     1
102
RTVSPropertyOp17
 70
     1
102
RTVSPropertyOp18
 70
     1
102
RTVSPropertyOp19
 70
     1
102
RTVSPropertyOp20
 70
     1
102
RTVSPropertyOp21
 70
     1
102
RTVSPropertyOp22
 70
     1
102
RTVSPropertyOp23
 70
     1
102
RTVSPropertyOp24
 70
     1
102
RTVSPropertyOp25
 70
     1
102
RTVSPropertyOp26
 70
     1
102
RTVSPropertyOp27
 70
     1
102
RTVSPropertyOp28
 70
     1
102
RTVSPropertyOp29
 70
     1
102
RTVSPropertyOp30
 70
     1
102
RTVSPropertyOp31
 70
     1
102
RTVSPropertyOp32
 70
     1
  0
XRECORD
  5
C14D
102
{ACAD_REACTORS
330
C14C
102
}
330
C14C
100
AcDbXrecord
280
     1
102
RTVSPropertyOp0
 70
     1
102
RTVSPropertyOp1
 70
     1
102
RTVSPropertyOp2
 70
     1
102
RTVSPropertyOp3
 70
     1
102
RTVSPropertyOp4
 70
     1
102
RTVSPropertyOp5
 70
     1
102
RTVSPropertyOp6
 70
     1
102
RTVSPropertyOp7
 70
     1
102
RTVSPropertyOp8
 70
     1
102
RTVSPropertyOp9
 70
     1
102
RTVSPropertyOp10
 70
     1
102
RTVSPropertyOp11
 70
     1
102
RTVSPropertyOp12
 70
     1
102
RTVSPropertyOp13
 70
     1
102
RTVSPropertyOp14
 70
     1
102
RTVSPropertyOp15
 70
     1
102
RTVSPropertyOp16
 70
     1
102
RTVSPropertyOp17
 70
     1
102
RTVSPropertyOp18
 70
     1
102
RTVSPropertyOp19
 70
     1
102
RTVSPropertyOp20
 70
     1
102
RTVSPropertyOp21
 70
     1
102
RTVSPropertyOp22
 70
     1
102
RTVSPropertyOp23
 70
     1
102
RTVSPropertyOp24
 70
     1
102
RTVSPropertyOp25
 70
     1
102
RTVSPropertyOp26
 70
     1
102
RTVSPropertyOp27
 70
     1
102
RTVSPropertyOp28
 70
     1
102
RTVSPropertyOp29
 70
     1
102
RTVSPropertyOp30
 70
     1
102
RTVSPropertyOp31
 70
     1
102
RTVSPropertyOp32
 70
     1
  0
XRECORD
  5
C155
102
{ACAD_REACTORS
330
C154
102
}
330
C154
100
AcDbXrecord
280
     1
102
RTVSPropertyOp0
 70
     1
102
RTVSPropertyOp1
 70
     1
102
RTVSPropertyOp2
 70
     1
102
RTVSPropertyOp3
 70
     1
102
RTVSPropertyOp4
 70
     1
102
RTVSPropertyOp5
 70
     1
102
RTVSPropertyOp6
 70
     1
102
RTVSPropertyOp7
 70
     1
102
RTVSPropertyOp8
 70
     1
102
RTVSPropertyOp9
 70
     1
102
RTVSPropertyOp10
 70
     1
102
RTVSPropertyOp11
 70
     1
102
RTVSPropertyOp12
 70
     1
102
RTVSPropertyOp13
 70
     1
102
RTVSPropertyOp14
 70
     1
102
RTVSPropertyOp15
 70
     1
102
RTVSPropertyOp16
 70
     1
102
RTVSPropertyOp17
 70
     1
102
RTVSPropertyOp18
 70
     1
102
RTVSPropertyOp19
 70
     1
102
RTVSPropertyOp20
 70
     1
102
RTVSPropertyOp21
 70
     1
102
RTVSPropertyOp22
 70
     1
102
RTVSPropertyOp23
 70
     1
102
RTVSPropertyOp24
 70
     1
102
RTVSPropertyOp25
 70
     1
102
RTVSPropertyOp26
 70
     1
102
RTVSPropertyOp27
 70
     1
102
RTVSPropertyOp28
 70
     1
102
RTVSPropertyOp29
 70
     1
102
RTVSPropertyOp30
 70
     1
102
RTVSPropertyOp31
 70
     1
102
RTVSPropertyOp32
 70
     1
  0
XRECORD
  5
C147
102
{ACAD_REACTORS
330
C146
102
}
330
C146
100
AcDbXrecord
280
     1
102
RTVSPropertyOp0
 70
     1
102
RTVSPropertyOp1
 70
     1
102
RTVSPropertyOp2
 70
     1
102
RTVSPropertyOp3
 70
     1
102
RTVSPropertyOp4
 70
     1
102
RTVSPropertyOp5
 70
     1
102
RTVSPropertyOp6
 70
     1
102
RTVSPropertyOp7
 70
     1
102
RTVSPropertyOp8
 70
     1
102
RTVSPropertyOp9
 70
     1
102
RTVSPropertyOp10
 70
     1
102
RTVSPropertyOp11
 70
     1
102
RTVSPropertyOp12
 70
     1
102
RTVSPropertyOp13
 70
     1
102
RTVSPropertyOp14
 70
     1
102
RTVSPropertyOp15
 70
     1
102
RTVSPropertyOp16
 70
     1
102
RTVSPropertyOp17
 70
     1
102
RTVSPropertyOp18
 70
     1
102
RTVSPropertyOp19
 70
     1
102
RTVSPropertyOp20
 70
     1
102
RTVSPropertyOp21
 70
     1
102
RTVSPropertyOp22
 70
     1
102
RTVSPropertyOp23
 70
     1
102
RTVSPropertyOp24
 70
     1
102
RTVSPropertyOp25
 70
     1
102
RTVSPropertyOp26
 70
     1
102
RTVSPropertyOp27
 70
     1
102
RTVSPropertyOp28
 70
     1
102
RTVSPropertyOp29
 70
     1
102
RTVSPropertyOp30
 70
     1
102
RTVSPropertyOp31
 70
     1
102
RTVSPropertyOp32
 70
     1
  0
XRECORD
  5
C14B
102
{ACAD_REACTORS
330
C14A
102
}
330
C14A
100
AcDbXrecord
280
     1
102
RTVSPropertyOp0
 70
     1
102
RTVSPropertyOp1
 70
     1
102
RTVSPropertyOp2
 70
     1
102
RTVSPropertyOp3
 70
     1
102
RTVSPropertyOp4
 70
     1
102
RTVSPropertyOp5
 70
     1
102
RTVSPropertyOp6
 70
     1
102
RTVSPropertyOp7
 70
     1
102
RTVSPropertyOp8
 70
     1
102
RTVSPropertyOp9
 70
     1
102
RTVSPropertyOp10
 70
     1
102
RTVSPropertyOp11
 70
     1
102
RTVSPropertyOp12
 70
     1
102
RTVSPropertyOp13
 70
     1
102
RTVSPropertyOp14
 70
     1
102
RTVSPropertyOp15
 70
     1
102
RTVSPropertyOp16
 70
     1
102
RTVSPropertyOp17
 70
     1
102
RTVSPropertyOp18
 70
     1
102
RTVSPropertyOp19
 70
     1
102
RTVSPropertyOp20
 70
     1
102
RTVSPropertyOp21
 70
     1
102
RTVSPropertyOp22
 70
     1
102
RTVSPropertyOp23
 70
     1
102
RTVSPropertyOp24
 70
     1
102
RTVSPropertyOp25
 70
     1
102
RTVSPropertyOp26
 70
     1
102
RTVSPropertyOp27
 70
     1
102
RTVSPropertyOp28
 70
     1
102
RTVSPropertyOp29
 70
     1
102
RTVSPropertyOp30
 70
     1
102
RTVSPropertyOp31
 70
     1
102
RTVSPropertyOp32
 70
     1
  0
XRECORD
  5
C165
102
{ACAD_REACTORS
330
C164
102
}
330
C164
100
AcDbXrecord
280
     1
102
RTVSPropertyOp0
 70
     0
102
RTVSPropertyOp1
 70
     0
102
RTVSPropertyOp2
 70
     0
102
RTVSPropertyOp3
 70
     0
102
RTVSPropertyOp4
 70
     0
102
RTVSPropertyOp5
 70
     0
102
RTVSPropertyOp6
 70
     0
102
RTVSPropertyOp7
 70
     0
102
RTVSPropertyOp8
 70
     0
102
RTVSPropertyOp9
 70
     0
102
RTVSPropertyOp10
 70
     0
102
RTVSPropertyOp11
 70
     0
102
RTVSPropertyOp12
 70
     0
102
RTVSPropertyOp13
 70
     0
102
RTVSPropertyOp14
 70
     2
102
RTVSPropertyOp15
 70
     0
102
RTVSPropertyOp16
 70
     0
102
RTVSPropertyOp17
 70
     0
102
RTVSPropertyOp18
 70
     0
102
RTVSPropertyOp19
 70
     0
102
RTVSPropertyOp20
 70
     0
102
RTVSPropertyOp21
 70
     0
102
RTVSPropertyOp22
 70
     0
102
RTVSPropertyOp23
 70
     0
102
RTVSPropertyOp24
 70
     0
102
RTVSPropertyOp25
 70
     0
102
RTVSPropertyOp26
 70
     0
102
RTVSPropertyOp27
 70
     0
102
RTVSPropertyOp28
 70
     1
102
RTVSPropertyOp29
 70
     1
102
RTVSPropertyOp30
 70
     1
102
RTVSPropertyOp31
 70
     1
102
RTVSPropertyOp32
 70
     1
  0
XRECORD
  5
C153
102
{ACAD_REACTORS
330
C152
102
}
330
C152
100
AcDbXrecord
280
     1
102
RTVSPropertyOp0
 70
     1
102
RTVSPropertyOp1
 70
     1
102
RTVSPropertyOp2
 70
     1
102
RTVSPropertyOp3
 70
     1
102
RTVSPropertyOp4
 70
     1
102
RTVSPropertyOp5
 70
     1
102
RTVSPropertyOp6
 70
     1
102
RTVSPropertyOp7
 70
     1
102
RTVSPropertyOp8
 70
     1
102
RTVSPropertyOp9
 70
     1
102
RTVSPropertyOp10
 70
     1
102
RTVSPropertyOp11
 70
     1
102
RTVSPropertyOp12
 70
     1
102
RTVSPropertyOp13
 70
     1
102
RTVSPropertyOp14
 70
     1
102
RTVSPropertyOp15
 70
     1
102
RTVSPropertyOp16
 70
     1
102
RTVSPropertyOp17
 70
     1
102
RTVSPropertyOp18
 70
     1
102
RTVSPropertyOp19
 70
     1
102
RTVSPropertyOp20
 70
     1
102
RTVSPropertyOp21
 70
     1
102
RTVSPropertyOp22
 70
     1
102
RTVSPropertyOp23
 70
     1
102
RTVSPropertyOp24
 70
     1
102
RTVSPropertyOp25
 70
     1
102
RTVSPropertyOp26
 70
     1
102
RTVSPropertyOp27
 70
     1
102
RTVSPropertyOp28
 70
     1
102
RTVSPropertyOp29
 70
     1
102
RTVSPropertyOp30
 70
     1
102
RTVSPropertyOp31
 70
     1
102
RTVSPropertyOp32
 70
     1
  0
XRECORD
  5
C137
102
{ACAD_REACTORS
330
C136
102
}
330
C136
100
AcDbXrecord
280
     1
102
RTVSPropertyOp0
 70
     1
102
RTVSPropertyOp1
 70
     1
102
RTVSPropertyOp2
 70
     1
102
RTVSPropertyOp3
 70
     1
102
RTVSPropertyOp4
 70
     1
102
RTVSPropertyOp5
 70
     1
102
RTVSPropertyOp6
 70
     1
102
RTVSPropertyOp7
 70
     1
102
RTVSPropertyOp8
 70
     1
102
RTVSPropertyOp9
 70
     1
102
RTVSPropertyOp10
 70
     1
102
RTVSPropertyOp11
 70
     1
102
RTVSPropertyOp12
 70
     1
102
RTVSPropertyOp13
 70
     1
102
RTVSPropertyOp14
 70
     1
102
RTVSPropertyOp15
 70
     1
102
RTVSPropertyOp16
 70
     1
102
RTVSPropertyOp17
 70
     1
102
RTVSPropertyOp18
 70
     1
102
RTVSPropertyOp19
 70
     1
102
RTVSPropertyOp20
 70
     1
102
RTVSPropertyOp21
 70
     1
102
RTVSPropertyOp22
 70
     1
102
RTVSPropertyOp23
 70
     1
102
RTVSPropertyOp24
 70
     1
102
RTVSPropertyOp25
 70
     1
102
RTVSPropertyOp26
 70
     1
102
RTVSPropertyOp27
 70
     1
102
RTVSPropertyOp28
 70
     1
102
RTVSPropertyOp29
 70
     1
102
RTVSPropertyOp30
 70
     1
102
RTVSPropertyOp31
 70
     1
102
RTVSPropertyOp32
 70
     1
  0
XRECORD
  5
C139
102
{ACAD_REACTORS
330
C138
102
}
330
C138
100
AcDbXrecord
280
     1
102
RTVSPropertyOp0
 70
     1
102
RTVSPropertyOp1
 70
     1
102
RTVSPropertyOp2
 70
     1
102
RTVSPropertyOp3
 70
     1
102
RTVSPropertyOp4
 70
     1
102
RTVSPropertyOp5
 70
     1
102
RTVSPropertyOp6
 70
     1
102
RTVSPropertyOp7
 70
     1
102
RTVSPropertyOp8
 70
     1
102
RTVSPropertyOp9
 70
     1
102
RTVSPropertyOp10
 70
     1
102
RTVSPropertyOp11
 70
     1
102
RTVSPropertyOp12
 70
     1
102
RTVSPropertyOp13
 70
     1
102
RTVSPropertyOp14
 70
     1
102
RTVSPropertyOp15
 70
     1
102
RTVSPropertyOp16
 70
     1
102
RTVSPropertyOp17
 70
     1
102
RTVSPropertyOp18
 70
     1
102
RTVSPropertyOp19
 70
     1
102
RTVSPropertyOp20
 70
     1
102
RTVSPropertyOp21
 70
     1
102
RTVSPropertyOp22
 70
     1
102
RTVSPropertyOp23
 70
     1
102
RTVSPropertyOp24
 70
     1
102
RTVSPropertyOp25
 70
     1
102
RTVSPropertyOp26
 70
     1
102
RTVSPropertyOp27
 70
     1
102
RTVSPropertyOp28
 70
     1
102
RTVSPropertyOp29
 70
     1
102
RTVSPropertyOp30
 70
     1
102
RTVSPropertyOp31
 70
     1
102
RTVSPropertyOp32
 70
     1
  0
XRECORD
  5
C13B
102
{ACAD_REACTORS
330
C13A
102
}
330
C13A
100
AcDbXrecord
280
     1
102
RTVSPropertyOp0
 70
     1
102
RTVSPropertyOp1
 70
     1
102
RTVSPropertyOp2
 70
     1
102
RTVSPropertyOp3
 70
     1
102
RTVSPropertyOp4
 70
     1
102
RTVSPropertyOp5
 70
     1
102
RTVSPropertyOp6
 70
     1
102
RTVSPropertyOp7
 70
     1
102
RTVSPropertyOp8
 70
     1
102
RTVSPropertyOp9
 70
     1
102
RTVSPropertyOp10
 70
     1
102
RTVSPropertyOp11
 70
     1
102
RTVSPropertyOp12
 70
     1
102
RTVSPropertyOp13
 70
     1
102
RTVSPropertyOp14
 70
     1
102
RTVSPropertyOp15
 70
     1
102
RTVSPropertyOp16
 70
     1
102
RTVSPropertyOp17
 70
     1
102
RTVSPropertyOp18
 70
     1
102
RTVSPropertyOp19
 70
     1
102
RTVSPropertyOp20
 70
     1
102
RTVSPropertyOp21
 70
     1
102
RTVSPropertyOp22
 70
     1
102
RTVSPropertyOp23
 70
     1
102
RTVSPropertyOp24
 70
     1
102
RTVSPropertyOp25
 70
     1
102
RTVSPropertyOp26
 70
     1
102
RTVSPropertyOp27
 70
     1
102
RTVSPropertyOp28
 70
     1
102
RTVSPropertyOp29
 70
     1
102
RTVSPropertyOp30
 70
     1
102
RTVSPropertyOp31
 70
     1
102
RTVSPropertyOp32
 70
     1
  0
XRECORD
  5
C13D
102
{ACAD_REACTORS
330
C13C
102
}
330
C13C
100
AcDbXrecord
280
     1
102
RTVSPropertyOp0
 70
     1
102
RTVSPropertyOp1
 70
     1
102
RTVSPropertyOp2
 70
     1
102
RTVSPropertyOp3
 70
     1
102
RTVSPropertyOp4
 70
     1
102
RTVSPropertyOp5
 70
     1
102
RTVSPropertyOp6
 70
     1
102
RTVSPropertyOp7
 70
     1
102
RTVSPropertyOp8
 70
     1
102
RTVSPropertyOp9
 70
     1
102
RTVSPropertyOp10
 70
     1
102
RTVSPropertyOp11
 70
     1
102
RTVSPropertyOp12
 70
     1
102
RTVSPropertyOp13
 70
     1
102
RTVSPropertyOp14
 70
     1
102
RTVSPropertyOp15
 70
     1
102
RTVSPropertyOp16
 70
     1
102
RTVSPropertyOp17
 70
     1
102
RTVSPropertyOp18
 70
     1
102
RTVSPropertyOp19
 70
     1
102
RTVSPropertyOp20
 70
     1
102
RTVSPropertyOp21
 70
     1
102
RTVSPropertyOp22
 70
     1
102
RTVSPropertyOp23
 70
     1
102
RTVSPropertyOp24
 70
     1
102
RTVSPropertyOp25
 70
     1
102
RTVSPropertyOp26
 70
     1
102
RTVSPropertyOp27
 70
     1
102
RTVSPropertyOp28
 70
     1
102
RTVSPropertyOp29
 70
     1
102
RTVSPropertyOp30
 70
     1
102
RTVSPropertyOp31
 70
     1
102
RTVSPropertyOp32
 70
     1
  0
XRECORD
  5
C145
102
{ACAD_REACTORS
330
C144
102
}
330
C144
100
AcDbXrecord
280
     1
102
RTVSPropertyOp0
 70
     1
102
RTVSPropertyOp1
 70
     1
102
RTVSPropertyOp2
 70
     1
102
RTVSPropertyOp3
 70
     1
102
RTVSPropertyOp4
 70
     1
102
RTVSPropertyOp5
 70
     1
102
RTVSPropertyOp6
 70
     1
102
RTVSPropertyOp7
 70
     1
102
RTVSPropertyOp8
 70
     1
102
RTVSPropertyOp9
 70
     1
102
RTVSPropertyOp10
 70
     1
102
RTVSPropertyOp11
 70
     1
102
RTVSPropertyOp12
 70
     1
102
RTVSPropertyOp13
 70
     1
102
RTVSPropertyOp14
 70
     1
102
RTVSPropertyOp15
 70
     1
102
RTVSPropertyOp16
 70
     1
102
RTVSPropertyOp17
 70
     1
102
RTVSPropertyOp18
 70
     1
102
RTVSPropertyOp19
 70
     1
102
RTVSPropertyOp20
 70
     1
102
RTVSPropertyOp21
 70
     1
102
RTVSPropertyOp22
 70
     1
102
RTVSPropertyOp23
 70
     1
102
RTVSPropertyOp24
 70
     1
102
RTVSPropertyOp25
 70
     1
102
RTVSPropertyOp26
 70
     1
102
RTVSPropertyOp27
 70
     1
102
RTVSPropertyOp28
 70
     1
102
RTVSPropertyOp29
 70
     1
102
RTVSPropertyOp30
 70
     1
102
RTVSPropertyOp31
 70
     1
102
RTVSPropertyOp32
 70
     1
  0
XRECORD
  5
C161
102
{ACAD_REACTORS
330
C160
102
}
330
C160
100
AcDbXrecord
280
     1
102
RTVSPropertyOp0
 70
     0
102
RTVSPropertyOp1
 70
     0
102
RTVSPropertyOp2
 70
     0
102
RTVSPropertyOp3
 70
     0
102
RTVSPropertyOp4
 70
     0
102
RTVSPropertyOp5
 70
     0
102
RTVSPropertyOp6
 70
     0
102
RTVSPropertyOp7
 70
     0
102
RTVSPropertyOp8
 70
     0
102
RTVSPropertyOp9
 70
     0
102
RTVSPropertyOp10
 70
     0
102
RTVSPropertyOp11
 70
     0
102
RTVSPropertyOp12
 70
     0
102
RTVSPropertyOp13
 70
     0
102
RTVSPropertyOp14
 70
     2
102
RTVSPropertyOp15
 70
     0
102
RTVSPropertyOp16
 70
     0
102
RTVSPropertyOp17
 70
     0
102
RTVSPropertyOp18
 70
     0
102
RTVSPropertyOp19
 70
     0
102
RTVSPropertyOp20
 70
     0
102
RTVSPropertyOp21
 70
     0
102
RTVSPropertyOp22
 70
     0
102
RTVSPropertyOp23
 70
     0
102
RTVSPropertyOp24
 70
     0
102
RTVSPropertyOp25
 70
     0
102
RTVSPropertyOp26
 70
     0
102
RTVSPropertyOp27
 70
     0
102
RTVSPropertyOp28
 70
     1
102
RTVSPropertyOp29
 70
     1
102
RTVSPropertyOp30
 70
     1
102
RTVSPropertyOp31
 70
     1
102
RTVSPropertyOp32
 70
     1
  0
XRECORD
  5
C151
102
{ACAD_REACTORS
330
C150
102
}
330
C150
100
AcDbXrecord
280
     1
102
RTVSPropertyOp0
 70
     1
102
RTVSPropertyOp1
 70
     1
102
RTVSPropertyOp2
 70
     1
102
RTVSPropertyOp3
 70
     1
102
RTVSPropertyOp4
 70
     1
102
RTVSPropertyOp5
 70
     1
102
RTVSPropertyOp6
 70
     1
102
RTVSPropertyOp7
 70
     1
102
RTVSPropertyOp8
 70
     1
102
RTVSPropertyOp9
 70
     1
102
RTVSPropertyOp10
 70
     1
102
RTVSPropertyOp11
 70
     1
102
RTVSPropertyOp12
 70
     1
102
RTVSPropertyOp13
 70
     1
102
RTVSPropertyOp14
 70
     1
102
RTVSPropertyOp15
 70
     1
102
RTVSPropertyOp16
 70
     1
102
RTVSPropertyOp17
 70
     1
102
RTVSPropertyOp18
 70
     1
102
RTVSPropertyOp19
 70
     1
102
RTVSPropertyOp20
 70
     1
102
RTVSPropertyOp21
 70
     1
102
RTVSPropertyOp22
 70
     1
102
RTVSPropertyOp23
 70
     1
102
RTVSPropertyOp24
 70
     1
102
RTVSPropertyOp25
 70
     1
102
RTVSPropertyOp26
 70
     1
102
RTVSPropertyOp27
 70
     1
102
RTVSPropertyOp28
 70
     1
102
RTVSPropertyOp29
 70
     1
102
RTVSPropertyOp30
 70
     1
102
RTVSPropertyOp31
 70
     1
102
RTVSPropertyOp32
 70
     1
  0
XRECORD
  5
C163
102
{ACAD_REACTORS
330
C162
102
}
330
C162
100
AcDbXrecord
280
     1
102
RTVSPropertyOp0
 70
     0
102
RTVSPropertyOp1
 70
     0
102
RTVSPropertyOp2
 70
     0
102
RTVSPropertyOp3
 70
     0
102
RTVSPropertyOp4
 70
     0
102
RTVSPropertyOp5
 70
     0
102
RTVSPropertyOp6
 70
     0
102
RTVSPropertyOp7
 70
     0
102
RTVSPropertyOp8
 70
     0
102
RTVSPropertyOp9
 70
     0
102
RTVSPropertyOp10
 70
     0
102
RTVSPropertyOp11
 70
     0
102
RTVSPropertyOp12
 70
     0
102
RTVSPropertyOp13
 70
     0
102
RTVSPropertyOp14
 70
     2
102
RTVSPropertyOp15
 70
     0
102
RTVSPropertyOp16
 70
     0
102
RTVSPropertyOp17
 70
     0
102
RTVSPropertyOp18
 70
     0
102
RTVSPropertyOp19
 70
     0
102
RTVSPropertyOp20
 70
     0
102
RTVSPropertyOp21
 70
     0
102
RTVSPropertyOp22
 70
     0
102
RTVSPropertyOp23
 70
     0
102
RTVSPropertyOp24
 70
     0
102
RTVSPropertyOp25
 70
     0
102
RTVSPropertyOp26
 70
     0
102
RTVSPropertyOp27
 70
     0
102
RTVSPropertyOp28
 70
     1
102
RTVSPropertyOp29
 70
     1
102
RTVSPropertyOp30
 70
     1
102
RTVSPropertyOp31
 70
     1
102
RTVSPropertyOp32
 70
     1
  0
XRECORD
  5
C149
102
{ACAD_REACTORS
330
C148
102
}
330
C148
100
AcDbXrecord
280
     1
102
RTVSPropertyOp0
 70
     1
102
RTVSPropertyOp1
 70
     1
102
RTVSPropertyOp2
 70
     1
102
RTVSPropertyOp3
 70
     1
102
RTVSPropertyOp4
 70
     1
102
RTVSPropertyOp5
 70
     1
102
RTVSPropertyOp6
 70
     1
102
RTVSPropertyOp7
 70
     1
102
RTVSPropertyOp8
 70
     1
102
RTVSPropertyOp9
 70
     1
102
RTVSPropertyOp10
 70
     1
102
RTVSPropertyOp11
 70
     1
102
RTVSPropertyOp12
 70
     1
102
RTVSPropertyOp13
 70
     1
102
RTVSPropertyOp14
 70
     1
102
RTVSPropertyOp15
 70
     1
102
RTVSPropertyOp16
 70
     1
102
RTVSPropertyOp17
 70
     1
102
RTVSPropertyOp18
 70
     1
102
RTVSPropertyOp19
 70
     1
102
RTVSPropertyOp20
 70
     1
102
RTVSPropertyOp21
 70
     1
102
RTVSPropertyOp22
 70
     1
102
RTVSPropertyOp23
 70
     1
102
RTVSPropertyOp24
 70
     1
102
RTVSPropertyOp25
 70
     1
102
RTVSPropertyOp26
 70
     1
102
RTVSPropertyOp27
 70
     1
102
RTVSPropertyOp28
 70
     1
102
RTVSPropertyOp29
 70
     1
102
RTVSPropertyOp30
 70
     1
102
RTVSPropertyOp31
 70
     1
102
RTVSPropertyOp32
 70
     1
  0
XRECORD
  5
C15F
102
{ACAD_REACTORS
330
C15E
102
}
330
C15E
100
AcDbXrecord
280
     1
102
RTVSPropertyOp0
 70
     1
102
RTVSPropertyOp1
 70
     1
102
RTVSPropertyOp2
 70
     1
102
RTVSPropertyOp3
 70
     1
102
RTVSPropertyOp4
 70
     1
102
RTVSPropertyOp5
 70
     1
102
RTVSPropertyOp6
 70
     1
102
RTVSPropertyOp7
 70
     1
102
RTVSPropertyOp8
 70
     1
102
RTVSPropertyOp9
 70
     1
102
RTVSPropertyOp10
 70
     1
102
RTVSPropertyOp11
 70
     1
102
RTVSPropertyOp12
 70
     1
102
RTVSPropertyOp13
 70
     1
102
RTVSPropertyOp14
 70
     1
102
RTVSPropertyOp15
 70
     1
102
RTVSPropertyOp16
 70
     1
102
RTVSPropertyOp17
 70
     1
102
RTVSPropertyOp18
 70
     1
102
RTVSPropertyOp19
 70
     1
102
RTVSPropertyOp20
 70
     1
102
RTVSPropertyOp21
 70
     1
102
RTVSPropertyOp22
 70
     1
102
RTVSPropertyOp23
 70
     1
102
RTVSPropertyOp24
 70
     1
102
RTVSPropertyOp25
 70
     1
102
RTVSPropertyOp26
 70
     1
102
RTVSPropertyOp27
 70
     1
102
RTVSPropertyOp28
 70
     1
102
RTVSPropertyOp29
 70
     1
102
RTVSPropertyOp30
 70
     1
102
RTVSPropertyOp31
 70
     1
102
RTVSPropertyOp32
 70
     1
  0
XRECORD
  5
C15D
102
{ACAD_REACTORS
330
C15C
102
}
330
C15C
100
AcDbXrecord
280
     1
102
RTVSPropertyOp0
 70
     1
102
RTVSPropertyOp1
 70
     1
102
RTVSPropertyOp2
 70
     1
102
RTVSPropertyOp3
 70
     1
102
RTVSPropertyOp4
 70
     1
102
RTVSPropertyOp5
 70
     1
102
RTVSPropertyOp6
 70
     1
102
RTVSPropertyOp7
 70
     1
102
RTVSPropertyOp8
 70
     1
102
RTVSPropertyOp9
 70
     1
102
RTVSPropertyOp10
 70
     1
102
RTVSPropertyOp11
 70
     1
102
RTVSPropertyOp12
 70
     1
102
RTVSPropertyOp13
 70
     1
102
RTVSPropertyOp14
 70
     1
102
RTVSPropertyOp15
 70
     1
102
RTVSPropertyOp16
 70
     1
102
RTVSPropertyOp17
 70
     1
102
RTVSPropertyOp18
 70
     1
102
RTVSPropertyOp19
 70
     1
102
RTVSPropertyOp20
 70
     1
102
RTVSPropertyOp21
 70
     1
102
RTVSPropertyOp22
 70
     1
102
RTVSPropertyOp23
 70
     1
102
RTVSPropertyOp24
 70
     1
102
RTVSPropertyOp25
 70
     1
102
RTVSPropertyOp26
 70
     1
102
RTVSPropertyOp27
 70
     1
102
RTVSPropertyOp28
 70
     1
102
RTVSPropertyOp29
 70
     1
102
RTVSPropertyOp30
 70
     1
102
RTVSPropertyOp31
 70
     1
102
RTVSPropertyOp32
 70
     1
  0
XRECORD
  5
C157
102
{ACAD_REACTORS
330
C156
102
}
330
C156
100
AcDbXrecord
280
     1
102
RTVSPropertyOp0
 70
     1
102
RTVSPropertyOp1
 70
     1
102
RTVSPropertyOp2
 70
     1
102
RTVSPropertyOp3
 70
     1
102
RTVSPropertyOp4
 70
     1
102
RTVSPropertyOp5
 70
     1
102
RTVSPropertyOp6
 70
     1
102
RTVSPropertyOp7
 70
     1
102
RTVSPropertyOp8
 70
     1
102
RTVSPropertyOp9
 70
     1
102
RTVSPropertyOp10
 70
     1
102
RTVSPropertyOp11
 70
     1
102
RTVSPropertyOp12
 70
     1
102
RTVSPropertyOp13
 70
     1
102
RTVSPropertyOp14
 70
     1
102
RTVSPropertyOp15
 70
     1
102
RTVSPropertyOp16
 70
     1
102
RTVSPropertyOp17
 70
     1
102
RTVSPropertyOp18
 70
     1
102
RTVSPropertyOp19
 70
     1
102
RTVSPropertyOp20
 70
     1
102
RTVSPropertyOp21
 70
     1
102
RTVSPropertyOp22
 70
     1
102
RTVSPropertyOp23
 70
     1
102
RTVSPropertyOp24
 70
     1
102
RTVSPropertyOp25
 70
     1
102
RTVSPropertyOp26
 70
     1
102
RTVSPropertyOp27
 70
     1
102
RTVSPropertyOp28
 70
     1
102
RTVSPropertyOp29
 70
     1
102
RTVSPropertyOp30
 70
     1
102
RTVSPropertyOp31
 70
     1
102
RTVSPropertyOp32
 70
     1
  0
XRECORD
  5
C159
102
{ACAD_REACTORS
330
C158
102
}
330
C158
100
AcDbXrecord
280
     1
102
RTVSPropertyOp0
 70
     1
102
RTVSPropertyOp1
 70
     1
102
RTVSPropertyOp2
 70
     1
102
RTVSPropertyOp3
 70
     1
102
RTVSPropertyOp4
 70
     1
102
RTVSPropertyOp5
 70
     1
102
RTVSPropertyOp6
 70
     1
102
RTVSPropertyOp7
 70
     1
102
RTVSPropertyOp8
 70
     1
102
RTVSPropertyOp9
 70
     1
102
RTVSPropertyOp10
 70
     1
102
RTVSPropertyOp11
 70
     1
102
RTVSPropertyOp12
 70
     1
102
RTVSPropertyOp13
 70
     1
102
RTVSPropertyOp14
 70
     1
102
RTVSPropertyOp15
 70
     1
102
RTVSPropertyOp16
 70
     1
102
RTVSPropertyOp17
 70
     1
102
RTVSPropertyOp18
 70
     1
102
RTVSPropertyOp19
 70
     1
102
RTVSPropertyOp20
 70
     1
102
RTVSPropertyOp21
 70
     1
102
RTVSPropertyOp22
 70
     1
102
RTVSPropertyOp23
 70
     1
102
RTVSPropertyOp24
 70
     1
102
RTVSPropertyOp25
 70
     1
102
RTVSPropertyOp26
 70
     1
102
RTVSPropertyOp27
 70
     1
102
RTVSPropertyOp28
 70
     1
102
RTVSPropertyOp29
 70
     1
102
RTVSPropertyOp30
 70
     1
102
RTVSPropertyOp31
 70
     1
102
RTVSPropertyOp32
 70
     1
  0
XRECORD
  5
C14F
102
{ACAD_REACTORS
330
C14E
102
}
330
C14E
100
AcDbXrecord
280
     1
102
RTVSPropertyOp0
 70
     1
102
RTVSPropertyOp1
 70
     1
102
RTVSPropertyOp2
 70
     1
102
RTVSPropertyOp3
 70
     1
102
RTVSPropertyOp4
 70
     1
102
RTVSPropertyOp5
 70
     1
102
RTVSPropertyOp6
 70
     1
102
RTVSPropertyOp7
 70
     1
102
RTVSPropertyOp8
 70
     1
102
RTVSPropertyOp9
 70
     1
102
RTVSPropertyOp10
 70
     1
102
RTVSPropertyOp11
 70
     1
102
RTVSPropertyOp12
 70
     1
102
RTVSPropertyOp13
 70
     1
102
RTVSPropertyOp14
 70
     1
102
RTVSPropertyOp15
 70
     1
102
RTVSPropertyOp16
 70
     1
102
RTVSPropertyOp17
 70
     1
102
RTVSPropertyOp18
 70
     1
102
RTVSPropertyOp19
 70
     1
102
RTVSPropertyOp20
 70
     1
102
RTVSPropertyOp21
 70
     1
102
RTVSPropertyOp22
 70
     1
102
RTVSPropertyOp23
 70
     1
102
RTVSPropertyOp24
 70
     1
102
RTVSPropertyOp25
 70
     1
102
RTVSPropertyOp26
 70
     1
102
RTVSPropertyOp27
 70
     1
102
RTVSPropertyOp28
 70
     1
102
RTVSPropertyOp29
 70
     1
102
RTVSPropertyOp30
 70
     1
102
RTVSPropertyOp31
 70
     1
102
RTVSPropertyOp32
 70
     1
  0
XRECORD
  5
C143
102
{ACAD_REACTORS
330
C142
102
}
330
C142
100
AcDbXrecord
280
     1
102
RTVSPropertyOp0
 70
     1
102
RTVSPropertyOp1
 70
     1
102
RTVSPropertyOp2
 70
     1
102
RTVSPropertyOp3
 70
     1
102
RTVSPropertyOp4
 70
     1
102
RTVSPropertyOp5
 70
     1
102
RTVSPropertyOp6
 70
     1
102
RTVSPropertyOp7
 70
     1
102
RTVSPropertyOp8
 70
     1
102
RTVSPropertyOp9
 70
     1
102
RTVSPropertyOp10
 70
     1
102
RTVSPropertyOp11
 70
     1
102
RTVSPropertyOp12
 70
     1
102
RTVSPropertyOp13
 70
     1
102
RTVSPropertyOp14
 70
     1
102
RTVSPropertyOp15
 70
     1
102
RTVSPropertyOp16
 70
     1
102
RTVSPropertyOp17
 70
     1
102
RTVSPropertyOp18
 70
     1
102
RTVSPropertyOp19
 70
     1
102
RTVSPropertyOp20
 70
     1
102
RTVSPropertyOp21
 70
     1
102
RTVSPropertyOp22
 70
     1
102
RTVSPropertyOp23
 70
     1
102
RTVSPropertyOp24
 70
     1
102
RTVSPropertyOp25
 70
     1
102
RTVSPropertyOp26
 70
     1
102
RTVSPropertyOp27
 70
     1
102
RTVSPropertyOp28
 70
     1
102
RTVSPropertyOp29
 70
     1
102
RTVSPropertyOp30
 70
     1
102
RTVSPropertyOp31
 70
     1
102
RTVSPropertyOp32
 70
     1
  0
XRECORD
  5
C15B
102
{ACAD_REACTORS
330
C15A
102
}
330
C15A
100
AcDbXrecord
280
     1
102
RTVSPropertyOp0
 70
     1
102
RTVSPropertyOp1
 70
     1
102
RTVSPropertyOp2
 70
     1
102
RTVSPropertyOp3
 70
     1
102
RTVSPropertyOp4
 70
     1
102
RTVSPropertyOp5
 70
     1
102
RTVSPropertyOp6
 70
     1
102
RTVSPropertyOp7
 70
     1
102
RTVSPropertyOp8
 70
     1
102
RTVSPropertyOp9
 70
     1
102
RTVSPropertyOp10
 70
     1
102
RTVSPropertyOp11
 70
     1
102
RTVSPropertyOp12
 70
     1
102
RTVSPropertyOp13
 70
     1
102
RTVSPropertyOp14
 70
     1
102
RTVSPropertyOp15
 70
     1
102
RTVSPropertyOp16
 70
     1
102
RTVSPropertyOp17
 70
     1
102
RTVSPropertyOp18
 70
     1
102
RTVSPropertyOp19
 70
     1
102
RTVSPropertyOp20
 70
     1
102
RTVSPropertyOp21
 70
     1
102
RTVSPropertyOp22
 70
     1
102
RTVSPropertyOp23
 70
     1
102
RTVSPropertyOp24
 70
     1
102
RTVSPropertyOp25
 70
     1
102
RTVSPropertyOp26
 70
     1
102
RTVSPropertyOp27
 70
     1
102
RTVSPropertyOp28
 70
     1
102
RTVSPropertyOp29
 70
     1
102
RTVSPropertyOp30
 70
     1
102
RTVSPropertyOp31
 70
     1
102
RTVSPropertyOp32
 70
     1
  0
ENDSEC
  0
EOF
