  0
SECTION
  2
HEADER
  9
$ACADVER
  1
AC1018
  9
$ACADMAINTVER
 70
   104
  9
$DWGCODEPAGE
  3
ANSI_932
  9
$LASTSAVEDBY
  1
HON1000CV
  9
$INSBASE
 10
0.0
 20
0.0
 30
0.0
  9
$EXTMIN
 10
3605.635975240932
 20
-773.2012749614291
 30
0.0
  9
$EXTMAX
 10
4350.024049240934
 20
-422.0613063674664
 30
0.0
  9
$LIMMIN
 10
0.0
 20
0.0
  9
$LIMMAX
 10
420.0
 20
297.0
  9
$ORTHOMODE
 70
     0
  9
$REGENMODE
 70
     1
  9
$FILLMODE
 70
     1
  9
$QTEXTMODE
 70
     0
  9
$MIRRTEXT
 70
     1
  9
$LTSCALE
 40
3.0
  9
$ATTMODE
 70
     1
  9
$TEXTSIZE
 40
10.0
  9
$TRACEWID
 40
0.05
  9
$TEXTSTYLE
  7
ACAD
  9
$CLAYER
  8
0
  9
$CELTYPE
  6
CONTINUOUS
  9
$CECOLOR
 62
   256
  9
$CELTSCALE
 40
1.0
  9
$DISPSILH
 70
     0
  9
$DIMSCALE
 40
1.0
  9
$DIMASZ
 40
5.0
  9
$DIMEXO
 40
0.0
  9
$DIMDLI
 40
0.38
  9
$DIMRND
 40
0.0
  9
$DIMDLE
 40
0.0
  9
$DIMEXE
 40
0.0
  9
$DIMTP
 40
0.0
  9
$DIMTM
 40
0.0
  9
$DIMTXT
 40
6.5
  9
$DIMCEN
 40
0.09
  9
$DIMTSZ
 40
0.0
  9
$DIMTOL
 70
     0
  9
$DIMLIM
 70
     0
  9
$DIMTIH
 70
     0
  9
$DIMTOH
 70
     1
  9
$DIMSE1
 70
     0
  9
$DIMSE2
 70
     0
  9
$DIMTAD
 70
     1
  9
$DIMZIN
 70
     0
  9
$DIMBLK
  1
Small
  9
$DIMASO
 70
     1
  9
$DIMSHO
 70
     1
  9
$DIMPOST
  1

  9
$DIMAPOST
  1

  9
$DIMALT
 70
     0
  9
$DIMALTD
 70
     2
  9
$DIMALTF
 40
25.4
  9
$DIMLFAC
 40
1.0
  9
$DIMTOFL
 70
     0
  9
$DIMTVP
 40
0.0
  9
$DIMTIX
 70
     1
  9
$DIMSOXD
 70
     0
  9
$DIMSAH
 70
     0
  9
$DIMBLK1
  1

  9
$DIMBLK2
  1

  9
$DIMSTYLE
  2
AutoCAD
  9
$DIMCLRD
 70
     4
  9
$DIMCLRE
 70
     4
  9
$DIMCLRT
 70
     3
  9
$DIMTFAC
 40
1.0
  9
$DIMGAP
 40
3.0
  9
$DIMJUST
 70
     0
  9
$DIMSD1
 70
     0
  9
$DIMSD2
 70
     0
  9
$DIMTOLJ
 70
     1
  9
$DIMTZIN
 70
     0
  9
$DIMALTZ
 70
     0
  9
$DIMALTTZ
 70
     0
  9
$DIMUPT
 70
     0
  9
$DIMDEC
 70
     0
  9
$DIMTDEC
 70
     0
  9
$DIMALTU
 70
     2
  9
$DIMALTTD
 70
     2
  9
$DIMTXSTY
  7
ACAD
  9
$DIMAUNIT
 70
     0
  9
$DIMADEC
 70
     0
  9
$DIMALTRND
 40
0.0
  9
$DIMAZIN
 70
     0
  9
$DIMDSEP
 70
    46
  9
$DIMATFIT
 70
     0
  9
$DIMFRAC
 70
     0
  9
$DIMLDRBLK
  1
None
  9
$DIMLUNIT
 70
     2
  9
$DIMLWD
 70
    -2
  9
$DIMLWE
 70
    -2
  9
$DIMTMOVE
 70
     0
  9
$LUNITS
 70
     2
  9
$LUPREC
 70
     4
  9
$SKETCHINC
 40
0.1
  9
$FILLETRAD
 40
0.0
  9
$AUNITS
 70
     0
  9
$AUPREC
 70
     0
  9
$MENU
  1
.
  9
$ELEVATION
 40
0.0
  9
$PELEVATION
 40
0.0
  9
$THICKNESS
 40
0.0
  9
$LIMCHECK
 70
     0
  9
$CHAMFERA
 40
0.0
  9
$CHAMFERB
 40
0.0
  9
$CHAMFERC
 40
0.0
  9
$CHAMFERD
 40
0.0
  9
$SKPOLY
 70
     0
  9
$TDCREATE
 40
2454316.693457674
  9
$TDUCREATE
 40
2454316.318457674
  9
$TDUPDATE
 40
2455961.441717546
  9
$TDUUPDATE
 40
2455961.066717546
  9
$TDINDWG
 40
0.7326550694
  9
$TDUSRTIMER
 40
0.7326550694
  9
$USRTIMER
 70
     1
  9
$ANGBASE
 50
0.0
  9
$ANGDIR
 70
     0
  9
$PDMODE
 70
     0
  9
$PDSIZE
 40
0.0
  9
$PLINEWID
 40
0.0
  9
$SPLFRAME
 70
     0
  9
$SPLINETYPE
 70
     6
  9
$SPLINESEGS
 70
     8
  9
$HANDSEED
  5
B157
  9
$SURFTAB1
 70
     6
  9
$SURFTAB2
 70
     6
  9
$SURFTYPE
 70
     6
  9
$SURFU
 70
     6
  9
$SURFV
 70
     6
  9
$UCSBASE
  2

  9
$UCSNAME
  2

  9
$UCSORG
 10
0.0
 20
0.0
 30
0.0
  9
$UCSXDIR
 10
1.0
 20
0.0
 30
0.0
  9
$UCSYDIR
 10
0.0
 20
1.0
 30
0.0
  9
$UCSORTHOREF
  2

  9
$UCSORTHOVIEW
 70
     0
  9
$UCSORGTOP
 10
0.0
 20
0.0
 30
0.0
  9
$UCSORGBOTTOM
 10
0.0
 20
0.0
 30
0.0
  9
$UCSORGLEFT
 10
0.0
 20
0.0
 30
0.0
  9
$UCSORGRIGHT
 10
0.0
 20
0.0
 30
0.0
  9
$UCSORGFRONT
 10
0.0
 20
0.0
 30
0.0
  9
$UCSORGBACK
 10
0.0
 20
0.0
 30
0.0
  9
$PUCSBASE
  2

  9
$PUCSNAME
  2

  9
$PUCSORG
 10
0.0
 20
0.0
 30
0.0
  9
$PUCSXDIR
 10
1.0
 20
0.0
 30
0.0
  9
$PUCSYDIR
 10
0.0
 20
1.0
 30
0.0
  9
$PUCSORTHOREF
  2

  9
$PUCSORTHOVIEW
 70
     0
  9
$PUCSORGTOP
 10
0.0
 20
0.0
 30
0.0
  9
$PUCSORGBOTTOM
 10
0.0
 20
0.0
 30
0.0
  9
$PUCSORGLEFT
 10
0.0
 20
0.0
 30
0.0
  9
$PUCSORGRIGHT
 10
0.0
 20
0.0
 30
0.0
  9
$PUCSORGFRONT
 10
0.0
 20
0.0
 30
0.0
  9
$PUCSORGBACK
 10
0.0
 20
0.0
 30
0.0
  9
$USERI1
 70
     0
  9
$USERI2
 70
     0
  9
$USERI3
 70
     0
  9
$USERI4
 70
     0
  9
$USERI5
 70
     0
  9
$USERR1
 40
0.0
  9
$USERR2
 40
0.0
  9
$USERR3
 40
0.0
  9
$USERR4
 40
0.0
  9
$USERR5
 40
0.0
  9
$WORLDVIEW
 70
     1
  9
$SHADEDGE
 70
     3
  9
$SHADEDIF
 70
    70
  9
$TILEMODE
 70
     1
  9
$MAXACTVP
 70
    48
  9
$PINSBASE
 10
0.0
 20
0.0
 30
0.0
  9
$PLIMCHECK
 70
     0
  9
$PEXTMIN
 10
1.000000000000000E+20
 20
1.000000000000000E+20
 30
1.000000000000000E+20
  9
$PEXTMAX
 10
-1.000000000000000E+20
 20
-1.000000000000000E+20
 30
-1.000000000000000E+20
  9
$PLIMMIN
 10
0.0
 20
0.0
  9
$PLIMMAX
 10
12.0
 20
9.0
  9
$UNITMODE
 70
     0
  9
$VISRETAIN
 70
     0
  9
$PLINEGEN
 70
     0
  9
$PSLTSCALE
 70
     1
  9
$TREEDEPTH
 70
  3020
  9
$CMLSTYLE
  2
Standard
  9
$CMLJUST
 70
     0
  9
$CMLSCALE
 40
1.0
  9
$PROXYGRAPHICS
 70
     1
  9
$MEASUREMENT
 70
     0
  9
$CELWEIGHT
370
    -1
  9
$ENDCAPS
280
     0
  9
$JOINSTYLE
280
     0
  9
$LWDISPLAY
290
     0
  9
$INSUNITS
 70
     0
  9
$HYPERLINKBASE
  1

  9
$STYLESHEET
  1
monochrome.ctb
  9
$XEDIT
290
     1
  9
$CEPSNTYPE
380
     0
  9
$PSTYLEMODE
290
     1
  9
$FINGERPRINTGUID
  2
{CC7D6DEE-A9F1-4F3E-AC95-C84B62CCA3FD}
  9
$VERSIONGUID
  2
{C4EE8B51-808B-43A3-9266-6F9EE238A3F7}
  9
$EXTNAMES
290
     1
  9
$PSVPSCALE
 40
0.0
  9
$OLESTARTUP
290
     0
  9
$SORTENTS
280
   127
  9
$INDEXCTL
280
     0
  9
$HIDETEXT
280
     0
  9
$XCLIPFRAME
290
     0
  9
$HALOGAP
280
     0
  9
$OBSCOLOR
 70
   257
  9
$OBSLTYPE
280
     0
  9
$INTERSECTIONDISPLAY
280
     0
  9
$INTERSECTIONCOLOR
 70
   257
  9
$DIMASSOC
280
     1
  9
$PROJECTNAME
  1

  0
ENDSEC
  0
SECTION
  2
CLASSES
  0
CLASS
  1
ACDBDICTIONARYWDFLT
  2
AcDbDictionaryWithDefault
  3
ObjectDBX Classes
 90
        0
 91
        1
280
     0
281
     0
  0
CLASS
  1
DICTIONARYVAR
  2
AcDbDictionaryVar
  3
ObjectDBX Classes
 90
        0
 91
       10
280
     0
281
     0
  0
CLASS
  1
MATERIAL
  2
AcDbMaterial
  3
ObjectDBX Classes
 90
     1153
 91
        3
280
     0
281
     0
  0
CLASS
  1
VISUALSTYLE
  2
AcDbVisualStyle
  3
ObjectDBX Classes
 90
     4095
 91
       24
280
     0
281
     0
  0
CLASS
  1
TABLESTYLE
  2
AcDbTableStyle
  3
ObjectDBX Classes
 90
     4095
 91
        1
280
     0
281
     0
  0
CLASS
  1
SCALE
  2
AcDbScale
  3
ObjectDBX Classes
 90
     1153
 91
       17
280
     0
281
     0
  0
CLASS
  1
MLEADERSTYLE
  2
AcDbMLeaderStyle
  3
ACDB_MLEADERSTYLE_CLASS
 90
     4095
 91
        1
280
     0
281
     0
  0
CLASS
  1
SORTENTSTABLE
  2
AcDbSortentsTable
  3
ObjectDBX Classes
 90
        0
 91
        1
280
     0
281
     0
  0
CLASS
  1
CELLSTYLEMAP
  2
AcDbCellStyleMap
  3
ObjectDBX Classes
 90
     1152
 91
        2
280
     0
281
     0
  0
ENDSEC
  0
SECTION
  2
TABLES
  0
TABLE
  2
VPORT
  5
8
102
{ACAD_XDICTIONARY
360
AAF4
102
}
330
0
100
AcDbSymbolTable
 70
     1
  0
VPORT
  5
6567
330
8
100
AcDbSymbolTableRecord
100
AcDbViewportTableRecord
  2
*Active
 70
     0
 10
0.0
 20
0.0
 11
1.0
 21
1.0
 12
3977.786896121408
 22
-597.6458711781424
 13
0.0
 23
0.0
 14
1.0
 24
1.0
 15
0.0
 25
0.0
 16
0.0
 26
0.0
 36
1.0
 17
0.0
 27
0.0
 37
0.0
 40
354.0928219420261
 41
2.519736842105263
 42
50.0
 43
0.0
 44
0.0
 50
0.0
 51
0.0
 71
     0
 72
   100
 73
     1
 74
     1
 75
     0
 76
     0
 77
     0
 78
     0
281
     0
 65
     1
110
0.0
120
0.0
130
0.0
111
1.0
121
0.0
131
0.0
112
0.0
122
1.0
132
0.0
 79
     0
146
0.0
1001
ACAD_NAV_VCDISPLAY
1070
     3
  0
ENDTAB
  0
TABLE
  2
LTYPE
  5
5
330
0
100
AcDbSymbolTable
 70
     3
  0
LTYPE
  5
13
330
5
100
AcDbSymbolTableRecord
100
AcDbLinetypeTableRecord
  2
ByBlock
 70
     0
  3

 72
    65
 73
     0
 40
0.0
  0
LTYPE
  5
14
330
5
100
AcDbSymbolTableRecord
100
AcDbLinetypeTableRecord
  2
ByLayer
 70
     0
  3

 72
    65
 73
     0
 40
0.0
  0
LTYPE
  5
15
330
5
100
AcDbSymbolTableRecord
100
AcDbLinetypeTableRecord
  2
CONTINUOUS
 70
     0
  3
実線
 72
    65
 73
     0
 40
0.0
  0
LTYPE
  5
25
330
5
100
AcDbSymbolTableRecord
100
AcDbLinetypeTableRecord
  2
CENTER1
 70
     0
  3
----- - ----- - ----- - ----- - 
 72
    65
 73
     4
 40
10.0
 49
6.25
 74
     0
 49
-1.25
 74
     0
 49
1.25
 74
     0
 49
-1.25
 74
     0
  0
LTYPE
  5
44
330
5
100
AcDbSymbolTableRecord
100
AcDbLinetypeTableRecord
  2
PLINE2
 70
     0
  3
------     -----------     -----
 72
    65
 73
     2
 40
3.0
 49
2.1
 74
     0
 49
-0.9
 74
     0
  0
ENDTAB
  0
TABLE
  2
LAYER
  5
2
102
{ACAD_XDICTIONARY
360
175
102
}
330
0
100
AcDbSymbolTable
 70
     6
  0
LAYER
  5
10
102
{ACAD_XDICTIONARY
360
79A2
102
}
330
2
100
AcDbSymbolTableRecord
100
AcDbLayerTableRecord
  2
0
 70
     0
 62
     7
  6
CONTINUOUS
370
    -3
390
F
  0
LAYER
  5
128
330
2
100
AcDbSymbolTableRecord
100
AcDbLayerTableRecord
  2
Defpoints
 70
     0
 62
     7
  6
CONTINUOUS
290
     0
370
    -3
390
F
  0
LAYER
  5
178
102
{ACAD_XDICTIONARY
360
79A4
102
}
330
2
100
AcDbSymbolTableRecord
100
AcDbLayerTableRecord
  2
寸法
 70
     0
 62
     7
  6
CONTINUOUS
370
    -3
390
F
  0
LAYER
  5
179
102
{ACAD_XDICTIONARY
360
79A6
102
}
330
2
100
AcDbSymbolTableRecord
100
AcDbLayerTableRecord
  2
躯体と製品
 70
     0
 62
     7
  6
CONTINUOUS
370
    -3
390
F
  0
LAYER
  5
4F62
102
{ACAD_XDICTIONARY
360
79A8
102
}
330
2
100
AcDbSymbolTableRecord
100
AcDbLayerTableRecord
  2
文字-記号
 70
     0
 62
     7
  6
CONTINUOUS
370
    -3
390
F
  0
LAYER
  5
A219
330
2
100
AcDbSymbolTableRecord
100
AcDbLayerTableRecord
  2
中心線
 70
     0
 62
     7
  6
CONTINUOUS
370
    -3
390
F
1001
AcAecLayerStandard
1000

1000

1001
AcCmTransparency
1071
        0
  0
ENDTAB
  0
TABLE
  2
STYLE
  5
3
330
0
100
AcDbSymbolTable
 70
     2
  0
STYLE
  5
11
330
3
100
AcDbSymbolTableRecord
100
AcDbTextStyleTableRecord
  2
STANDARD
 70
     0
 40
0.0
 41
1.0
 50
0.0
 71
     0
 42
0.2
  3
txt
  4
bigfont.shx
  0
STYLE
  5
123
330
3
100
AcDbSymbolTableRecord
100
AcDbTextStyleTableRecord
  2
ACAD
 70
     0
 40
0.0
 41
1.0
 50
0.0
 71
     0
 42
10.0
  3
romans.shx
  4
extfont.shx
  0
ENDTAB
  0
TABLE
  2
VIEW
  5
6
330
0
100
AcDbSymbolTable
 70
     0
  0
ENDTAB
  0
TABLE
  2
UCS
  5
7
330
0
100
AcDbSymbolTable
 70
     0
  0
ENDTAB
  0
TABLE
  2
APPID
  5
9
330
0
100
AcDbSymbolTable
 70
    11
  0
APPID
  5
12
330
9
100
AcDbSymbolTableRecord
100
AcDbRegAppTableRecord
  2
ACAD
 70
     0
  0
APPID
  5
65B8
330
9
100
AcDbSymbolTableRecord
100
AcDbRegAppTableRecord
  2
ACAD_NAV_VCDISPLAY
 70
     0
  0
APPID
  5
79DD
330
9
100
AcDbSymbolTableRecord
100
AcDbRegAppTableRecord
  2
AcAecLayerStandard
 70
     0
  0
APPID
  5
79DE
330
9
100
AcDbSymbolTableRecord
100
AcDbRegAppTableRecord
  2
AcCmTransparency
 70
     0
  0
APPID
  5
7CCA
330
9
100
AcDbSymbolTableRecord
100
AcDbRegAppTableRecord
  2
ACAD_EXEMPT_FROM_CAD_STANDARDS
 70
     0
  0
APPID
  5
9B0F
330
9
100
AcDbSymbolTableRecord
100
AcDbRegAppTableRecord
  2
AcDbBlockRepETag
 70
     0
  0
APPID
  5
A6AE
330
9
100
AcDbSymbolTableRecord
100
AcDbRegAppTableRecord
  2
ACAD_PSEXT
 70
     0
  0
APPID
  5
AB2A
330
9
100
AcDbSymbolTableRecord
100
AcDbRegAppTableRecord
  2
ACAD_MLEADERVER
 70
     0
  0
APPID
  5
AB59
330
9
100
AcDbSymbolTableRecord
100
AcDbRegAppTableRecord
  2
AcadAnnoPO
 70
     0
  0
APPID
  5
AB5A
330
9
100
AcDbSymbolTableRecord
100
AcDbRegAppTableRecord
  2
ACAD_DSTYLE_DIMJAG
 70
     0
  0
APPID
  5
AB5B
330
9
100
AcDbSymbolTableRecord
100
AcDbRegAppTableRecord
  2
ACAD_DSTYLE_DIMTALN
 70
     0
  0
ENDTAB
  0
TABLE
  2
DIMSTYLE
  5
A
330
0
100
AcDbSymbolTable
 70
     2
100
AcDbDimStyleTable
 71
     1
340
126
  0
DIMSTYLE
105
11C
330
A
100
AcDbSymbolTableRecord
100
AcDbDimStyleTableRecord
  2
Standard
 70
     0
340
11
  0
DIMSTYLE
105
126
102
{ACAD_REACTORS
330
7DA9
330
7DB9
330
A2AC
102
}
330
A
100
AcDbSymbolTableRecord
100
AcDbDimStyleTableRecord
  2
AutoCAD
 70
     0
 41
5.0
 42
0.0
 44
0.0
 73
     0
 77
     1
140
6.5
147
3.0
174
     1
176
     4
177
     4
178
     3
271
     0
272
     0
289
     0
340
123
341
15B0
342
AE68
1001
ACAD_DSTYLE_DIMJAG
1070
   388
1040
1.5
1001
ACAD_DSTYLE_DIMTALN
1070
   392
1070
     0
  0
ENDTAB
  0
TABLE
  2
BLOCK_RECORD
  5
1
330
0
100
AcDbSymbolTable
 70
     5
  0
BLOCK_RECORD
  5
1E
102
{ACAD_XDICTIONARY
360
28B
102
}
330
1
100
AcDbSymbolTableRecord
100
AcDbBlockTableRecord
  2
*Model_Space
340
21
  0
BLOCK_RECORD
  5
1A
102
{ACAD_XDICTIONARY
360
28D
102
}
330
1
100
AcDbSymbolTableRecord
100
AcDbBlockTableRecord
  2
*Paper_Space
340
1D
  0
BLOCK_RECORD
  5
15B0
330
1
100
AcDbSymbolTableRecord
100
AcDbBlockTableRecord
  2
_None
340
0
  0
BLOCK_RECORD
  5
7EBC
330
1
100
AcDbSymbolTableRecord
100
AcDbBlockTableRecord
  2
*D1
340
0
  0
BLOCK_RECORD
  5
7ED2
330
1
100
AcDbSymbolTableRecord
100
AcDbBlockTableRecord
  2
*D2
340
0
  0
BLOCK_RECORD
  5
A2AD
330
1
100
AcDbSymbolTableRecord
100
AcDbBlockTableRecord
  2
*D3
340
0
  0
BLOCK_RECORD
  5
AE68
330
1
100
AcDbSymbolTableRecord
100
AcDbBlockTableRecord
  2
_Small
340
0
102
{BLKREFS
331
AE84
331
AE85
331
AE8B
331
AE8C
331
AE9D
331
AE9E
102
}
  0
ENDTAB
  0
ENDSEC
  0
SECTION
  2
BLOCKS
  0
BLOCK
  5
1F
330
1E
100
AcDbEntity
  8
0
100
AcDbBlockBegin
  2
*Model_Space
 70
     0
 10
0.0
 20
0.0
 30
0.0
  3
*Model_Space
  1

  0
ENDBLK
  5
20
330
1E
100
AcDbEntity
  8
0
100
AcDbBlockEnd
  0
BLOCK
  5
1B
330
1A
100
AcDbEntity
 67
     1
  8
0
100
AcDbBlockBegin
  2
*Paper_Space
 70
     0
 10
0.0
 20
0.0
 30
0.0
  3
*Paper_Space
  1

  0
ENDBLK
  5
1C
330
1A
100
AcDbEntity
 67
     1
  8
0
100
AcDbBlockEnd
  0
BLOCK
  5
15B1
330
15B0
100
AcDbEntity
  8
0
100
AcDbBlockBegin
  2
_None
 70
     0
 10
0.0
 20
0.0
 30
0.0
  3
_None
  1

  0
ENDBLK
  5
15B2
330
15B0
100
AcDbEntity
  8
0
100
AcDbBlockEnd
  0
BLOCK
  5
7EBD
330
7EBC
100
AcDbEntity
  8
0
100
AcDbBlockBegin
  2
*D1
 70
     1
 10
0.0
 20
0.0
 30
0.0
  3
*D1
  1

  0
LINE
  5
AE83
330
7EBC
100
AcDbEntity
  8
寸法
  6
Continuous
 62
     4
440
 16777216
370
    -2
100
AcDbLine
 10
4289.392406240933
 20
-615.1177389614292
 30
0.0
 11
4289.392406240933
 21
-565.1177389614292
 31
0.0
  0
INSERT
  5
AE84
330
7EBC
100
AcDbEntity
  8
寸法
  6
Continuous
 62
     4
440
 16777216
370
    -2
100
AcDbBlockReference
  2
_Small
 10
4289.392406240933
 20
-615.1177389614292
 30
0.0
 41
5.0
 42
5.0
 43
5.0
 50
270.0
  0
INSERT
  5
AE85
330
7EBC
100
AcDbEntity
  8
寸法
  6
Continuous
 62
     4
440
 16777216
370
    -2
100
AcDbBlockReference
  2
_Small
 10
4289.392406240933
 20
-565.1177389614292
 30
0.0
 41
5.0
 42
5.0
 43
5.0
 50
90.0
  0
MTEXT
  5
AE86
330
7EBC
100
AcDbEntity
  8
寸法
  6
Continuous
 62
     3
440
 16777216
100
AcDbMText
 10
4283.142406240933
 20
-590.1177389614286
 30
0.0
 40
6.5
 41
0.0
 71
     5
 72
     1
  1
\A1;50
  7
ACAD
 11
0.0000000000000001
 21
1.0
 31
0.0
 73
     1
 44
1.0
  0
POINT
  5
AE87
330
7EBC
100
AcDbEntity
  8
Defpoints
  6
Continuous
 62
     0
440
 16777216
100
AcDbPoint
 10
4289.392406240933
 20
-615.1177389614292
 30
0.0
  0
POINT
  5
AE88
330
7EBC
100
AcDbEntity
  8
Defpoints
  6
Continuous
 62
     0
440
 16777216
100
AcDbPoint
 10
4289.392406240933
 20
-565.1177389614292
 30
0.0
  0
POINT
  5
AE89
330
7EBC
100
AcDbEntity
  8
Defpoints
  6
Continuous
 62
     0
440
 16777216
100
AcDbPoint
 10
4289.392406240933
 20
-565.1177389614292
 30
0.0
  0
ENDBLK
  5
7EBE
330
7EBC
100
AcDbEntity
  8
0
100
AcDbBlockEnd
  0
BLOCK
  5
7ED3
330
7ED2
100
AcDbEntity
  8
0
100
AcDbBlockBegin
  2
*D2
 70
     1
 10
0.0
 20
0.0
 30
0.0
  3
*D2
  1

  0
LINE
  5
AE8A
330
7ED2
100
AcDbEntity
  8
寸法
  6
Continuous
 62
     4
440
 16777216
370
    -2
100
AcDbLine
 10
3886.606741240933
 20
-534.1177389614292
 30
0.0
 11
3886.606741240933
 21
-563.119184961429
 31
0.0
  0
INSERT
  5
AE8B
330
7ED2
100
AcDbEntity
  8
寸法
  6
Continuous
 62
     4
440
 16777216
370
    -2
100
AcDbBlockReference
  2
_Small
 10
3886.606741240933
 20
-534.1177389614292
 30
0.0
 41
5.0
 42
5.0
 43
5.0
 50
90.0
  0
INSERT
  5
AE8C
330
7ED2
100
AcDbEntity
  8
寸法
  6
Continuous
 62
     4
440
 16777216
370
    -2
100
AcDbBlockReference
  2
_Small
 10
3886.606741240933
 20
-563.119184961429
 30
0.0
 41
5.0
 42
5.0
 43
5.0
 50
270.0
  0
MTEXT
  5
AE8D
330
7ED2
100
AcDbEntity
  8
寸法
  6
Continuous
 62
     3
440
 16777216
100
AcDbMText
 10
3880.356741240933
 20
-548.6184619614284
 30
0.0
 40
6.5
 41
0.0
 71
     5
 72
     1
  1
\A1;29
  7
ACAD
 11
0.0000000000000001
 21
1.0
 31
0.0
 73
     1
 44
1.0
  0
POINT
  5
AE8E
330
7ED2
100
AcDbEntity
  8
Defpoints
  6
Continuous
 62
     0
440
 16777216
100
AcDbPoint
 10
3886.606741240933
 20
-534.1177389614292
 30
0.0
  0
POINT
  5
AE8F
330
7ED2
100
AcDbEntity
  8
Defpoints
  6
Continuous
 62
     0
440
 16777216
100
AcDbPoint
 10
3886.606741240933
 20
-563.119184961429
 30
0.0
  0
POINT
  5
AE90
330
7ED2
100
AcDbEntity
  8
Defpoints
  6
Continuous
 62
     0
440
 16777216
100
AcDbPoint
 10
3886.606741240933
 20
-563.119184961429
 30
0.0
  0
ENDBLK
  5
7ED4
330
7ED2
100
AcDbEntity
  8
0
100
AcDbBlockEnd
  0
BLOCK
  5
A2AE
330
A2AD
100
AcDbEntity
  8
0
100
AcDbBlockBegin
  2
*D3
 70
     1
 10
0.0
 20
0.0
 30
0.0
  3
*D3
  1

  0
LINE
  5
AE9A
330
A2AD
100
AcDbEntity
  8
寸法
  6
Continuous
 62
     4
440
 16777216
370
    -2
100
AcDbLine
 10
4309.542168240932
 20
-751.1177389614292
 30
0.0
 11
4348.774049240933
 21
-751.1177389614292
 31
0.0
  0
LINE
  5
AE9B
330
A2AD
100
AcDbEntity
  8
寸法
  6
Continuous
 62
     4
440
 16777216
370
    -2
100
AcDbLine
 10
4309.542168240932
 20
-534.1177389614292
 30
0.0
 11
4348.774049240933
 21
-534.1177389614292
 31
0.0
  0
LINE
  5
AE9C
330
A2AD
100
AcDbEntity
  8
寸法
  6
Continuous
 62
     4
440
 16777216
370
    -2
100
AcDbLine
 10
4348.774049240933
 20
-751.1177389614292
 30
0.0
 11
4348.774049240933
 21
-534.1177389614292
 31
0.0
  0
INSERT
  5
AE9D
330
A2AD
100
AcDbEntity
  8
寸法
  6
Continuous
 62
     4
440
 16777216
370
    -2
100
AcDbBlockReference
  2
_Small
 10
4348.774049240933
 20
-751.1177389614292
 30
0.0
 41
5.0
 42
5.0
 43
5.0
 50
270.0
  0
INSERT
  5
AE9E
330
A2AD
100
AcDbEntity
  8
寸法
  6
Continuous
 62
     4
440
 16777216
370
    -2
100
AcDbBlockReference
  2
_Small
 10
4348.774049240933
 20
-534.1177389614292
 30
0.0
 41
5.0
 42
5.0
 43
5.0
 50
90.0
  0
MTEXT
  5
AE9F
330
A2AD
100
AcDbEntity
  8
寸法
  6
Continuous
 62
     3
440
 16777216
100
AcDbMText
 10
4342.524049240934
 20
-642.6177389614285
 30
0.0
 40
6.5
 41
0.0
 71
     5
 72
     1
  1
\A1;h=225～257
  7
ACAD
 11
0.0000000000000001
 21
1.0
 31
0.0
 73
     1
 44
1.0
  0
POINT
  5
AEA0
330
A2AD
100
AcDbEntity
  8
Defpoints
  6
Continuous
 62
     0
440
 16777216
100
AcDbPoint
 10
4309.542168240932
 20
-751.1177389614292
 30
0.0
  0
POINT
  5
AEA1
330
A2AD
100
AcDbEntity
  8
Defpoints
  6
Continuous
 62
     0
440
 16777216
100
AcDbPoint
 10
4309.542168240932
 20
-534.1177389614292
 30
0.0
  0
POINT
  5
AEA2
330
A2AD
100
AcDbEntity
  8
Defpoints
  6
Continuous
 62
     0
440
 16777216
100
AcDbPoint
 10
4348.774049240933
 20
-534.1177389614292
 30
0.0
  0
ENDBLK
  5
A2AF
330
A2AD
100
AcDbEntity
  8
0
100
AcDbBlockEnd
  0
BLOCK
  5
AE6A
330
AE68
100
AcDbEntity
  8
0
100
AcDbBlockBegin
  2
_Small
 70
     0
 10
0.0
 20
0.0
 30
0.0
  3
_Small
  1

  0
CIRCLE
  5
AE69
330
AE68
100
AcDbEntity
  8
0
  6
ByBlock
 62
     0
370
    -2
100
AcDbCircle
 10
0.0
 20
0.0
 30
0.0
 40
0.25
  0
ENDBLK
  5
AE6B
330
AE68
100
AcDbEntity
  8
0
100
AcDbBlockEnd
  0
ENDSEC
  0
SECTION
  2
ENTITIES
  0
CIRCLE
  5
7D7F
330
1E
100
AcDbEntity
  8
躯体と製品
  6
Continuous
 62
     3
100
AcDbCircle
 10
4170.346431240932
 20
-555.1177389614291
 30
0.0
 40
2.499988
  0
CIRCLE
  5
7D80
330
1E
100
AcDbEntity
  8
躯体と製品
  6
Continuous
 62
     3
100
AcDbCircle
 10
4170.346431240932
 20
-555.1177389614291
 30
0.0
 40
2.999983999999999
  0
CIRCLE
  5
7D81
330
1E
100
AcDbEntity
  8
躯体と製品
  6
Continuous
 62
     3
100
AcDbCircle
 10
4170.346431240932
 20
-555.1177389614291
 30
0.0
 40
4.999973999999999
  0
DIMENSION
  5
7DA9
330
1E
100
AcDbEntity
  8
寸法
  6
Continuous
100
AcDbDimension
  2
*D1
 10
4289.392406240933
 20
-565.1177389614292
 30
0.0
 11
4283.142406240933
 21
-590.1177389614286
 31
0.0
 70
    32
 71
     5
 42
50.0
  3
AutoCAD
100
AcDbAlignedDimension
 13
4289.392406240933
 23
-615.1177389614292
 33
0.0
 14
4289.392406240933
 24
-565.1177389614292
 34
0.0
 50
90.0
100
AcDbRotatedDimension
  0
LWPOLYLINE
  5
7DAB
330
1E
100
AcDbEntity
  8
中心線
  6
CENTER1
100
AcDbPolyline
 90
        2
 70
     0
 43
0.0
 10
4170.346431240932
 20
-763.5801909614293
 10
4170.346431240932
 20
-539.4118047506545
  0
DIMENSION
  5
7DB9
330
1E
100
AcDbEntity
  8
寸法
  6
Continuous
100
AcDbDimension
  2
*D2
 10
3886.606741240933
 20
-563.119184961429
 30
0.0
 11
3880.356741240933
 21
-548.6184619614284
 31
0.0
 70
    32
 71
     5
 42
29.00144599999976
  3
AutoCAD
100
AcDbAlignedDimension
 13
3886.606741240933
 23
-534.1177389614292
 33
0.0
 14
3886.606741240933
 24
-563.119184961429
 34
0.0
 50
90.0
100
AcDbRotatedDimension
  0
LWPOLYLINE
  5
7DBA
330
1E
100
AcDbEntity
  8
中心線
  6
CENTER1
100
AcDbPolyline
 90
        2
 70
     0
 43
0.0
 10
3755.655839240932
 20
-763.5801909614293
 10
3755.655839240932
 20
-539.4118047506545
  0
LWPOLYLINE
  5
7DDF
330
1E
100
AcDbEntity
  8
躯体と製品
  6
Continuous
 62
     4
100
AcDbPolyline
 90
        4
 70
     1
 43
0.0
 10
3735.655839240932
 20
-565.1177389614291
 10
3775.655839240932
 20
-565.1177389614291
 10
3775.655839240932
 20
-558.1177389614291
 10
3735.655839240932
 20
-558.1177389614291
  0
LWPOLYLINE
  5
7DE0
330
1E
100
AcDbEntity
  8
躯体と製品
  6
Continuous
 62
     4
100
AcDbPolyline
 90
        3
 70
     0
 43
0.0
 10
3732.055839298319
 20
-615.1177389614291
 10
3755.655839298325
 20
-615.1177389614291
 10
3779.255839298302
 20
-615.1177389614291
  0
LWPOLYLINE
  5
7DE1
330
1E
100
AcDbEntity
  8
躯体と製品
  6
Continuous
 62
     4
100
AcDbPolyline
 90
        2
 70
     0
 43
0.0
 10
3730.655839298296
 20
-613.7177391080309
 42
0.41421351636737
 10
3732.055839225007
 20
-615.1177389614291
  0
LWPOLYLINE
  5
7DE2
330
1E
100
AcDbEntity
  8
躯体と製品
  6
Continuous
 62
     4
100
AcDbPolyline
 90
        4
 70
     0
 43
0.0
 10
3782.655839298325
 20
-561.4157389614389
 10
3780.655839298325
 20
-561.4157389614389
 10
3780.655839298296
 20
-613.7177389614349
 42
-0.4142135777083371
 10
3779.255839224989
 20
-615.1177389614291
  0
LWPOLYLINE
  5
7DE3
330
1E
100
AcDbEntity
  8
躯体と製品
  6
Continuous
 62
     4
100
AcDbPolyline
 90
        3
 70
     0
 43
0.0
 10
3728.655839298325
 20
-561.4157389614389
 10
3730.655839298325
 20
-561.4157389614389
 10
3730.655839298325
 20
-613.7177389614349
  0
LWPOLYLINE
  5
7DE4
330
1E
100
AcDbEntity
  8
躯体と製品
  6
Continuous
 62
     4
100
AcDbPolyline
 90
       20
 70
     1
 43
0.0
 10
3765.655839298325
 20
-615.1177389614291
 10
3775.155839298325
 20
-615.1177389614291
 42
0.4142135623730951
 10
3780.655839298325
 20
-609.6177389614291
 10
3780.655839298325
 20
-570.6177389614291
 42
0.4142135623730951
 10
3775.155839298325
 20
-565.1177389614291
 10
3736.155839298325
 20
-565.1177389614291
 42
0.4142135623730951
 10
3730.655839298325
 20
-570.6177389614291
 10
3730.655839298325
 20
-609.6177389614291
 42
0.4142135623730951
 10
3736.155839298325
 20
-615.1177389614291
 10
3745.655839298325
 20
-615.1177389614291
 10
3745.655839298325
 20
-613.5177389614233
 10
3736.155839298325
 20
-613.5177389614233
 42
-0.4142135623731076
 10
3732.255839298331
 20
-609.6177389614291
 10
3732.255839298331
 20
-570.6177389614291
 42
-0.4142135623730951
 10
3736.155839298325
 20
-566.717738961435
 10
3775.155839298325
 20
-566.717738961435
 42
-0.4142135623730951
 10
3779.055839298319
 20
-570.6177389614291
 10
3779.055839298319
 20
-609.6177389614291
 42
-0.4142135623730951
 10
3775.155839298325
 20
-613.5177389614233
 10
3765.655839298325
 20
-613.5177389614233
  0
LWPOLYLINE
  5
7DE5
330
1E
100
AcDbEntity
  8
躯体と製品
  6
Continuous
 62
     3
100
AcDbPolyline
 90
        4
 70
     0
 43
0.0
 10
4145.346431240932
 20
-568.6177389614291
 10
4147.846431240932
 20
-568.6177389614291
 42
0.9999999999999998
 10
4147.846431240932
 20
-563.6177389614291
 10
4145.346431240932
 20
-563.6177389614291
  0
LWPOLYLINE
  5
7DE6
330
1E
100
AcDbEntity
  8
躯体と製品
  6
Continuous
 62
     3
100
AcDbPolyline
 90
        4
 70
     1
 43
0.0
 10
4177.846431240904
 20
-563.6177389614291
 42
-0.9999999999999998
 10
4177.846431240904
 20
-568.6177389614291
 10
4162.846431240932
 20
-568.6177389614291
 42
-0.9999999999999998
 10
4162.846431240932
 20
-563.6177389614291
  0
LWPOLYLINE
  5
7DE7
330
1E
100
AcDbEntity
  8
躯体と製品
  6
Continuous
 62
     3
100
AcDbPolyline
 90
        4
 70
     0
 43
0.0
 10
4195.346431240932
 20
-568.6177389614291
 10
4192.846431240903
 20
-568.6177389614291
 42
-0.9999999999999998
 10
4192.846431240903
 20
-563.6177389614291
 10
4195.346431240932
 20
-563.6177389614291
  0
LWPOLYLINE
  5
7DE8
330
1E
100
AcDbEntity
  8
躯体と製品
  6
Continuous
 62
     4
100
AcDbPolyline
 90
        6
 70
     1
 43
0.0
 10
4193.14643124095
 20
-545.1177389614291
 42
-0.4142135623730951
 10
4195.346431240932
 20
-547.3177389614408
 10
4195.346431240932
 20
-618.7177389614349
 10
4145.346431240932
 20
-618.7177389614349
 10
4145.346431240903
 20
-547.3177389614408
 42
-0.4142135623730951
 10
4147.546431240915
 20
-545.1177389614291
  0
LWPOLYLINE
  5
7DE9
330
1E
100
AcDbEntity
  8
躯体と製品
  6
Continuous
 62
     3
100
AcDbPolyline
 90
        4
 70
     1
 43
0.0
 10
4180.346431240903
 20
-554.1177389614291
 42
-0.9999999999999998
 10
4190.346431240932
 20
-554.1177389614291
 10
4190.346431240932
 20
-609.7177389614349
 42
-0.9999999999999998
 10
4180.346431240932
 20
-609.7177389614349
  0
LWPOLYLINE
  5
7DEA
330
1E
100
AcDbEntity
  8
躯体と製品
  6
Continuous
 62
     3
100
AcDbPolyline
 90
        4
 70
     1
 43
0.0
 10
4160.346431240932
 20
-554.1177389614291
 42
0.9999999999999998
 10
4150.346431240932
 20
-554.1177389614291
 10
4150.346431240932
 20
-609.7177389614349
 42
0.9999999999999998
 10
4160.346431240932
 20
-609.7177389614349
  0
LWPOLYLINE
  5
7DEB
330
1E
100
AcDbEntity
  8
躯体と製品
  6
Continuous
 62
     4
100
AcDbPolyline
 90
        2
 70
     0
 43
0.0
 10
3784.255839298302
 20
-545.1177389614291
 10
3782.655839298325
 20
-545.1177389614291
  0
LWPOLYLINE
  5
7DEC
330
1E
100
AcDbEntity
  8
躯体と製品
  6
Continuous
 62
     4
100
AcDbPolyline
 90
        2
 70
     0
 43
0.0
 10
3784.255839298302
 20
-545.1177389614291
 10
3784.255839298302
 20
-559.9547389614286
  0
LWPOLYLINE
  5
7DED
330
1E
100
AcDbEntity
  8
躯体と製品
  6
Continuous
 62
     4
100
AcDbPolyline
 90
        2
 70
     0
 43
0.0
 10
3728.655839298325
 20
-572.6207389614552
 10
3728.655839298325
 20
-568.8467389614503
  0
LWPOLYLINE
  5
7DEE
330
1E
100
AcDbEntity
  8
躯体と製品
  6
Continuous
 62
     4
100
AcDbPolyline
 90
        2
 70
     0
 43
0.0
 10
3782.318631200175
 20
-562.3235494117667
 42
0.1937217600909921
 10
3782.655839298325
 20
-561.4157389614389
  0
LWPOLYLINE
  5
7DEF
330
1E
100
AcDbEntity
  8
躯体と製品
  6
Continuous
 62
     4
100
AcDbPolyline
 90
        2
 70
     0
 43
0.0
 10
3783.329542716467
 20
-563.5744191128885
 42
0.2152198589141151
 10
3784.255839298302
 20
-561.3767389614491
  0
LWPOLYLINE
  5
7DF0
330
1E
100
AcDbEntity
  8
躯体と製品
  6
Continuous
 62
     4
100
AcDbPolyline
 90
        2
 70
     0
 43
0.0
 10
3782.318631200175
 20
-562.3235494117667
 42
0.5064780343894935
 10
3782.171003323977
 20
-567.8035272926623
  0
LWPOLYLINE
  5
7DF1
330
1E
100
AcDbEntity
  8
躯体と製品
  6
Continuous
 62
     4
100
AcDbPolyline
 90
        2
 70
     0
 43
0.0
 10
3784.254589676243
 20
-568.8937610277622
 42
0.2318861921651559
 10
3783.204038024091
 20
-566.5784627818626
  0
LWPOLYLINE
  5
7DF2
330
1E
100
AcDbEntity
  8
躯体と製品
  6
Continuous
 62
     4
100
AcDbPolyline
 90
        2
 70
     0
 43
0.0
 10
3782.655839298325
 20
-568.7089264178244
 42
0.2066484120291358
 10
3782.171003323977
 20
-567.8035272926623
  0
LWPOLYLINE
  5
7DF3
330
1E
100
AcDbEntity
  8
躯体と製品
  6
Continuous
 62
     4
100
AcDbPolyline
 90
        2
 70
     0
 43
0.0
 10
3728.111876996289
 20
-566.5737851585851
 42
0.2320932697563201
 10
3727.057088911472
 20
-568.893760724995
  0
LWPOLYLINE
  5
7DF4
330
1E
100
AcDbEntity
  8
躯体と製品
  6
Continuous
 62
     4
100
AcDbPolyline
 90
        2
 70
     0
 43
0.0
 10
3729.127886609724
 20
-567.8097966792535
 42
0.2321120081614536
 10
3728.656398188262
 20
-568.8467518151862
  0
LWPOLYLINE
  5
7DF5
330
1E
100
AcDbEntity
  8
躯体と製品
  6
Continuous
 62
     4
100
AcDbPolyline
 90
        2
 70
     0
 43
0.0
 10
3784.255839298302
 20
-561.3767389614491
 10
3784.255839298302
 20
-559.9547389614286
  0
LWPOLYLINE
  5
7DF6
330
1E
100
AcDbEntity
  8
躯体と製品
  6
Continuous
 62
     4
100
AcDbPolyline
 90
        2
 70
     0
 43
0.0
 10
3728.111876996289
 20
-566.5737851585851
 42
0.5381935006581335
 10
3727.982135658004
 20
-563.5744189069789
  0
LWPOLYLINE
  5
7DF7
330
1E
100
AcDbEntity
  8
躯体と製品
  6
Continuous
 62
     4
100
AcDbPolyline
 90
        2
 70
     0
 43
0.0
 10
3727.055839298319
 20
-559.9547389614286
 10
3727.055839298319
 20
-561.3677389614291
  0
LWPOLYLINE
  5
7DF8
330
1E
100
AcDbEntity
  8
躯体と製品
  6
Continuous
 62
     4
100
AcDbPolyline
 90
        2
 70
     0
 43
0.0
 10
3784.254589676243
 20
-568.8937610277622
 10
3784.255839298302
 20
-570.0447389614542
  0
LWPOLYLINE
  5
7DF9
330
1E
100
AcDbEntity
  8
躯体と製品
  6
Continuous
 62
     4
100
AcDbPolyline
 90
        2
 70
     0
 43
0.0
 10
3783.329542716467
 20
-563.5744191128885
 42
0.5388624668535512
 10
3783.204038024091
 20
-566.5784627818626
  0
LWPOLYLINE
  5
7DFA
330
1E
100
AcDbEntity
  8
躯体と製品
  6
Continuous
 62
     4
100
AcDbPolyline
 90
        2
 70
     0
 43
0.0
 10
3728.655839298325
 20
-561.4157389614389
 42
0.1930606428473286
 10
3728.991829078642
 20
-562.3227535284655
  0
LWPOLYLINE
  5
7DFB
330
1E
100
AcDbEntity
  8
躯体と製品
  6
Continuous
 62
     4
100
AcDbPolyline
 90
        2
 70
     0
 43
0.0
 10
3727.055839298319
 20
-561.3677465717606
 42
0.2159310961317872
 10
3727.982135658004
 20
-563.5744189069789
  0
LWPOLYLINE
  5
7DFC
330
1E
100
AcDbEntity
  8
躯体と製品
  6
Continuous
 62
     4
100
AcDbPolyline
 90
        2
 70
     0
 43
0.0
 10
3729.127886609724
 20
-567.8097966792535
 42
0.508430144426149
 10
3728.991829078642
 20
-562.3227535284655
  0
LWPOLYLINE
  5
7DFD
330
1E
100
AcDbEntity
  8
躯体と製品
  6
Continuous
 62
     4
100
AcDbPolyline
 90
        2
 70
     0
 43
0.0
 10
3782.655839298325
 20
-545.1177389614291
 10
3782.655839298325
 20
-561.4157389614389
  0
LWPOLYLINE
  5
7DFE
330
1E
100
AcDbEntity
  8
躯体と製品
  6
Continuous
 62
     3
100
AcDbPolyline
 90
        2
 70
     0
 43
0.0
 10
3785.855839298307
 20
-553.5017389614491
 42
0.4142135777083371
 10
3784.255839214541
 20
-551.9017389614433
  0
LWPOLYLINE
  5
7DFF
330
1E
100
AcDbEntity
  8
躯体と製品
  6
Continuous
 62
     4
100
AcDbPolyline
 90
        2
 70
     0
 43
0.0
 10
3727.055839298319
 20
-545.1177389614291
 10
3727.055839298319
 20
-559.9547389614286
  0
LWPOLYLINE
  5
7E00
330
1E
100
AcDbEntity
  8
躯体と製品
  6
Continuous
 62
     4
100
AcDbPolyline
 90
        2
 70
     0
 43
0.0
 10
3727.055839298319
 20
-545.1177389614291
 10
3728.655839298325
 20
-545.1177389614291
  0
LWPOLYLINE
  5
7E01
330
1E
100
AcDbEntity
  8
躯体と製品
  6
Continuous
 62
     4
100
AcDbPolyline
 90
        2
 70
     0
 43
0.0
 10
3728.655839298325
 20
-545.1177389614291
 10
3728.655839298325
 20
-561.4157389614098
  0
LWPOLYLINE
  5
7E02
330
1E
100
AcDbEntity
  8
躯体と製品
  6
Continuous
 62
     3
100
AcDbPolyline
 90
        2
 70
     0
 43
0.0
 10
3727.055839214558
 20
-551.9017389614433
 42
0.4142135777083371
 10
3725.455839298314
 20
-553.5017391289999
  0
LWPOLYLINE
  5
7E03
330
1E
100
AcDbEntity
  8
躯体と製品
  6
Continuous
 62
     3
100
AcDbPolyline
 90
        2
 70
     0
 43
0.0
 10
3784.255839214541
 20
-611.7177389614349
 42
0.4142135777083371
 10
3785.855839298307
 20
-610.1177389614291
  0
LWPOLYLINE
  5
7E04
330
1E
100
AcDbEntity
  8
躯体と製品
  6
Continuous
 62
     4
100
AcDbPolyline
 90
        2
 70
     0
 43
0.0
 10
3779.255839120273
 20
-617.1177389614292
 42
0.4142135777083371
 10
3782.655839298296
 20
-613.7177389614349
  0
LWPOLYLINE
  5
7E05
330
1E
100
AcDbEntity
  8
躯体と製品
  6
Continuous
 62
     4
100
AcDbPolyline
 90
        2
 70
     0
 43
0.0
 10
3779.255839036512
 20
-618.7177389614349
 42
0.4142135777083371
 10
3784.255839298302
 20
-613.7177389614349
  0
LWPOLYLINE
  5
7E06
330
1E
100
AcDbEntity
  8
躯体と製品
  6
Continuous
 62
     4
100
AcDbPolyline
 90
        2
 70
     0
 43
0.0
 10
3727.055839298319
 20
-613.7177394850128
 42
0.41421351636737
 10
3732.05583903653
 20
-618.7177389614349
  0
LWPOLYLINE
  5
7E07
330
1E
100
AcDbEntity
  8
躯体と製品
  6
Continuous
 62
     4
100
AcDbPolyline
 90
        2
 70
     0
 43
0.0
 10
3779.255839298302
 20
-618.7177389614349
 10
3755.655839298325
 20
-618.7177389614349
  0
LWPOLYLINE
  5
7E08
330
1E
100
AcDbEntity
  8
躯体と製品
  6
Continuous
 62
     4
100
AcDbPolyline
 90
        2
 70
     0
 43
0.0
 10
3779.255839298302
 20
-617.1177389614292
 10
3755.655839298325
 20
-617.1177389614292
  0
LWPOLYLINE
  5
7E09
330
1E
100
AcDbEntity
  8
躯体と製品
  6
Continuous
 62
     4
100
AcDbPolyline
 90
        2
 70
     0
 43
0.0
 10
3732.055839298319
 20
-617.1177389614292
 10
3755.655839298325
 20
-617.1177389614292
  0
LWPOLYLINE
  5
7E0A
330
1E
100
AcDbEntity
  8
躯体と製品
  6
Continuous
 62
     4
100
AcDbPolyline
 90
        2
 70
     0
 43
0.0
 10
3732.055839298319
 20
-618.7177389614349
 10
3755.655839298325
 20
-618.7177389614349
  0
LWPOLYLINE
  5
7E0B
330
1E
100
AcDbEntity
  8
躯体と製品
  6
Continuous
 62
     3
100
AcDbPolyline
 90
        2
 70
     0
 43
0.0
 10
3725.455839298314
 20
-610.1177391289799
 42
0.41421351636737
 10
3727.055839214558
 20
-611.7177389614349
  0
LWPOLYLINE
  5
7E0C
330
1E
100
AcDbEntity
  8
躯体と製品
  6
Continuous
 62
     4
100
AcDbPolyline
 90
        2
 70
     0
 43
0.0
 10
3728.655839298325
 20
-613.7177393174621
 42
0.41421351636737
 10
3732.055839120291
 20
-617.1177389614292
  0
LWPOLYLINE
  5
7E0D
330
1E
100
AcDbEntity
  8
躯体と製品
  6
Continuous
 62
     4
100
AcDbPolyline
 90
        2
 70
     0
 43
0.0
 10
3782.655839298325
 20
-568.7089264178244
 10
3782.655839298325
 20
-613.7177389614349
  0
LWPOLYLINE
  5
7E0E
330
1E
100
AcDbEntity
  8
躯体と製品
  6
Continuous
 62
     4
100
AcDbPolyline
 90
        2
 70
     0
 43
0.0
 10
3784.255839298302
 20
-570.0447389614542
 10
3784.255839298302
 20
-613.7177389614349
  0
LWPOLYLINE
  5
7E0F
330
1E
100
AcDbEntity
  8
躯体と製品
  6
Continuous
 62
     4
100
AcDbPolyline
 90
        2
 70
     0
 43
0.0
 10
3727.057088911472
 20
-568.893760724995
 10
3727.055839298319
 20
-613.7177389614349
  0
LWPOLYLINE
  5
7E10
330
1E
100
AcDbEntity
  8
躯体と製品
  6
Continuous
 62
     4
100
AcDbPolyline
 90
        2
 70
     0
 43
0.0
 10
3728.655839298325
 20
-572.6207389614552
 10
3728.655839298325
 20
-613.7177389614349
  0
LWPOLYLINE
  5
7E11
330
1E
100
AcDbEntity
  8
躯体と製品
  6
Continuous
 62
     3
100
AcDbPolyline
 90
        2
 70
     0
 43
0.0
 10
3785.855839298307
 20
-610.1177389614291
 10
3785.855839298307
 20
-553.5017389614491
  0
LWPOLYLINE
  5
7E12
330
1E
100
AcDbEntity
  8
躯体と製品
  6
Continuous
 62
     3
100
AcDbPolyline
 90
        2
 70
     0
 43
0.0
 10
3725.455839298314
 20
-610.1177389614291
 10
3725.455839298314
 20
-553.5017389614491
  0
LWPOLYLINE
  5
7E13
330
1E
100
AcDbEntity
  8
躯体と製品
  6
Continuous
 62
     4
100
AcDbPolyline
 90
        2
 70
     0
 43
0.0
 10
3745.263534452909
 20
-631.7177389614349
 10
3766.048144143741
 20
-631.7177389614349
  0
LWPOLYLINE
  5
7E14
330
1E
100
AcDbEntity
  8
躯体と製品
  6
Continuous
 62
     4
100
AcDbPolyline
 90
        2
 70
     0
 43
0.0
 10
3748.727636068067
 20
-630.217738961435
 10
3748.727636068067
 20
-618.7177389614349
  0
LWPOLYLINE
  5
7E15
330
1E
100
AcDbEntity
  8
躯体と製品
  6
Continuous
 62
     4
100
AcDbPolyline
 90
        2
 70
     0
 43
0.0
 10
3762.584042528612
 20
-630.217738961435
 10
3762.584042528612
 20
-618.7177389614349
  0
LWPOLYLINE
  5
7E16
330
1E
100
AcDbEntity
  8
躯体と製品
  6
Continuous
 62
     4
100
AcDbPolyline
 90
        7
 70
     0
 43
0.0
 10
3741.79943283778
 20
-630.217738961435
 42
0.4330127018921689
 10
3748.727636068067
 20
-630.217738961435
 42
0.2165063550879564
 10
3762.584042528612
 20
-630.217738961435
 42
0.4330127018921274
 10
3769.51224575887
 20
-630.217738961435
 10
3769.51224575887
 20
-618.7177389614349
 10
3741.79943283778
 20
-618.7177389614349
 10
3741.79943283778
 20
-630.217738961435
  0
LWPOLYLINE
  5
7E17
330
1E
100
AcDbEntity
  8
躯体と製品
  6
Continuous
 62
     4
100
AcDbPolyline
 90
        4
 70
     1
 43
0.0
 10
3741.655839293989
 20
-635.7177389614349
 10
3769.655839331357
 20
-635.7177389614349
 10
3769.655839331357
 20
-631.7177389614349
 10
3741.655839293989
 20
-631.7177389614349
  0
LWPOLYLINE
  5
7E18
330
1E
100
AcDbEntity
  8
躯体と製品
  6
Continuous
 62
     4
100
AcDbPolyline
 90
        2
 70
     0
 43
0.0
 10
3755.655839312673
 20
-635.7177389614349
 10
3759.655839312673
 20
-631.7177389614349
  0
LWPOLYLINE
  5
7E19
330
1E
100
AcDbEntity
  8
躯体と製品
  6
Continuous
 62
     4
100
AcDbPolyline
 90
        2
 70
     0
 43
0.0
 10
3751.655839265292
 20
-635.7177389901313
 10
3755.655839265292
 20
-631.7177389901313
  0
TEXT
  5
7E1A
330
1E
100
AcDbEntity
  8
文字-記号
  6
Continuous
 62
     7
100
AcDbText
 10
3673.214379573479
 20
-707.4654760815348
 30
0.0
 40
6.5
  1
調整ボルト Ｍ１６
100
AcDbText
  0
LWPOLYLINE
  5
7E1B
330
1E
100
AcDbEntity
  8
文字-記号
  6
Continuous
 62
     7
100
AcDbPolyline
 90
        3
 70
     0
 43
0.0
 10
3672.069666573479
 20
-710.0195460815349
 10
3738.187752304003
 20
-710.0195460815349
 10
3747.655839240933
 20
-726.4187537067753
  0
LWPOLYLINE
  5
7E1C
330
1E
100
AcDbEntity
  8
文字-記号
  6
Continuous
 62
     7
100
AcDbPolyline
 90
        3
 70
     0
 43
0.0
 10
3731.193028420172
 20
-592.3792663349574
 10
3716.100359235787
 20
-618.520536184141
 10
3684.021987763966
 20
-618.520536184141
  0
TEXT
  5
7E1D
330
1E
100
AcDbEntity
  8
文字-記号
  6
Continuous
 62
     7
100
AcDbText
 10
3688.202390202431
 20
-616.1311021841411
 30
0.0
 40
6.5
  1
大引鋼
100
AcDbText
  0
LWPOLYLINE
  5
7E1E
330
1E
100
AcDbEntity
  8
文字-記号
  6
Continuous
 62
     7
100
AcDbPolyline
 90
        3
 70
     0
 43
0.0
 10
3683.388247436388
 20
-563.1177389614292
 10
3672.544898278753
 20
-581.8989706266604
 10
3640.466526806934
 20
-581.8989706266604
  0
TEXT
  5
7E1F
330
1E
100
AcDbEntity
  8
文字-記号
  6
Continuous
 62
     7
100
AcDbText
 10
3644.646929245399
 20
-579.5095366266605
 30
0.0
 40
6.5
  1
根太鋼
100
AcDbText
  0
TEXT
  5
7E73
330
1E
100
AcDbEntity
  8
文字-記号
  6
Continuous
 62
     7
100
AcDbText
 10
4087.904971573478
 20
-711.1643679369121
 30
0.0
 40
6.5
  1
調整ボルト Ｍ１６
100
AcDbText
  0
LWPOLYLINE
  5
7E8F
330
1E
100
AcDbEntity
  8
文字-記号
  6
Continuous
 62
     7
100
AcDbPolyline
 90
        3
 70
     0
 43
0.0
 10
4086.760258573478
 20
-713.7184379369123
 10
4152.878344304002
 20
-713.7184379369123
 10
4162.346431240933
 20
-730.1176455621527
  0
LWPOLYLINE
  5
7E90
330
1E
100
AcDbEntity
  8
躯体と製品
  6
Continuous
 62
     4
100
AcDbPolyline
 90
        2
 70
     0
 43
0.0
 10
4164.345865859115
 20
-631.7177387504322
 10
4176.346431163245
 20
-631.7177386873932
  0
LWPOLYLINE
  5
7E91
330
1E
100
AcDbEntity
  8
躯体と製品
  6
Continuous
 62
     4
100
AcDbPolyline
 90
        4
 70
     1
 43
0.0
 10
4156.346431196015
 20
-635.7177387734824
 10
4184.346431233414
 20
-635.7177387734824
 10
4184.346431233414
 20
-631.7177387734824
 10
4156.346431196015
 20
-631.7177387734824
  0
LWPOLYLINE
  5
7E92
330
1E
100
AcDbEntity
  8
躯体と製品
  6
Continuous
 62
     4
100
AcDbPolyline
 90
        5
 70
     0
 43
0.0
 10
4158.346431200381
 20
-618.7177390475241
 10
4158.346431200381
 20
-630.2177387734824
 42
0.249999996945716
 10
4170.34643115658
 20
-630.2177387734824
 42
0.2499999847397634
 10
4182.346431200381
 20
-630.2177387734824
 10
4182.346431200381
 20
-618.7177388753458
  0
LWPOLYLINE
  5
7E93
330
1E
100
AcDbEntity
  8
躯体と製品
  6
Continuous
 62
     4
100
AcDbPolyline
 90
        2
 70
     0
 43
0.0
 10
4170.34643115658
 20
-630.2177387734824
 10
4170.346431063302
 20
-618.7177389614349
  0
LWPOLYLINE
  5
7E94
330
1E
100
AcDbEntity
  8
文字-記号
  6
Continuous
 62
     7
100
AcDbPolyline
 90
        3
 70
     0
 43
0.0
 10
4056.811072240932
 20
-615.1177389614292
 10
4041.718403056547
 20
-641.2590088106129
 10
4009.640031584726
 20
-641.2590088106129
  0
TEXT
  5
7E95
330
1E
100
AcDbEntity
  8
文字-記号
  6
Continuous
 62
     7
100
AcDbText
 10
4013.820434023192
 20
-638.869574810613
 30
0.0
 40
6.5
  1
大引鋼
100
AcDbText
  0
LWPOLYLINE
  5
7E9D
330
1E
100
AcDbEntity
  8
躯体と製品
  6
Continuous
 62
     4
100
AcDbPolyline
 90
        2
 70
     0
 43
0.0
 10
3745.263534452909
 20
-692.7197684521212
 10
3766.048144143741
 20
-692.7197684521212
  0
LWPOLYLINE
  5
7E9E
330
1E
100
AcDbEntity
  8
躯体と製品
  6
Continuous
 62
     4
100
AcDbPolyline
 90
        2
 70
     0
 43
0.0
 10
3748.727636068067
 20
-691.2197684521212
 10
3748.727636068067
 20
-690.7196921581759
  0
LWPOLYLINE
  5
7E9F
330
1E
100
AcDbEntity
  8
躯体と製品
  6
Continuous
 62
     4
100
AcDbPolyline
 90
        2
 70
     0
 43
0.0
 10
3762.584042528612
 20
-705.2197684521212
 10
3762.584042528612
 20
-698.2197684521212
  0
LWPOLYLINE
  5
7EA0
330
1E
100
AcDbEntity
  8
躯体と製品
  6
Continuous
 62
     4
100
AcDbPolyline
 90
        2
 70
     0
 43
0.0
 10
3762.584042528612
 20
-691.2197684521212
 10
3762.584042528612
 20
-690.7196921581759
  0
LWPOLYLINE
  5
7EA1
330
1E
100
AcDbEntity
  8
躯体と製品
  6
Continuous
 62
     4
100
AcDbPolyline
 90
        2
 70
     0
 43
0.0
 10
3748.727636068067
 20
-705.2197684521212
 10
3748.727636068067
 20
-698.2197684521212
  0
LWPOLYLINE
  5
7EA3
330
1E
100
AcDbEntity
  8
躯体と製品
  6
Continuous
 62
     4
100
AcDbPolyline
 90
        6
 70
     0
 43
0.0
 10
3741.79943283778
 20
-690.7196921581759
 10
3741.79943283778
 20
-691.2197684521212
 42
0.4330127018921691
 10
3748.727636068067
 20
-691.2197684521212
 42
0.2165063550879564
 10
3762.584042528612
 20
-691.2197684521212
 42
0.4330127018921274
 10
3769.51224575887
 20
-691.2197684521212
 10
3769.51224575887
 20
-690.7196921581759
  0
LWPOLYLINE
  5
7EA4
330
1E
100
AcDbEntity
  8
躯体と製品
  6
Continuous
 62
     4
100
AcDbPolyline
 90
        4
 70
     1
 43
0.0
 10
3741.655839293989
 20
-696.7197684521212
 10
3769.655839331357
 20
-696.7197684521212
 10
3769.655839331357
 20
-692.7197684521212
 10
3741.655839293989
 20
-692.7197684521212
  0
LWPOLYLINE
  5
7EA5
330
1E
100
AcDbEntity
  8
躯体と製品
  6
Continuous
 62
     4
100
AcDbPolyline
 90
        2
 70
     0
 43
0.0
 10
3745.263534452909
 20
-706.7197684521212
 10
3766.048144143741
 20
-706.7197684521212
  0
LWPOLYLINE
  5
7EA6
330
1E
100
AcDbEntity
  8
躯体と製品
  6
Continuous
 62
     4
100
AcDbPolyline
 90
        2
 70
     0
 43
0.0
 10
3755.655839312673
 20
-696.7197684521212
 10
3759.655839312673
 20
-692.7197684521212
  0
LWPOLYLINE
  5
7EA8
330
1E
100
AcDbEntity
  8
躯体と製品
  6
Continuous
 62
     4
100
AcDbPolyline
 90
        2
 70
     0
 43
0.0
 10
3751.655839265292
 20
-696.7197684808176
 10
3755.655839265292
 20
-692.7197684808175
  0
LWPOLYLINE
  5
7EAC
330
1E
100
AcDbEntity
  8
躯体と製品
  6
Continuous
 62
     4
100
AcDbPolyline
 90
        2
 70
     0
 43
0.0
 10
4164.345865859115
 20
-692.7197684290709
 10
4176.346431163245
 20
-692.719768366032
  0
LWPOLYLINE
  5
7EAD
330
1E
100
AcDbEntity
  8
躯体と製品
  6
Continuous
 62
     4
100
AcDbPolyline
 90
        4
 70
     1
 43
0.0
 10
4156.346431196015
 20
-696.7197684521212
 10
4184.346431233414
 20
-696.7197684521212
 10
4184.346431233414
 20
-692.7197684521212
 10
4156.346431196015
 20
-692.7197684521212
  0
LWPOLYLINE
  5
7EAE
330
1E
100
AcDbEntity
  8
躯体と製品
  6
Continuous
 62
     4
100
AcDbPolyline
 90
        5
 70
     0
 43
0.0
 10
4158.346431200381
 20
-690.7196921581759
 10
4158.346431200381
 20
-691.2197684521212
 42
0.249999996945716
 10
4170.34643115658
 20
-691.2197684521212
 42
0.2499999847397634
 10
4182.346431200381
 20
-691.2197684521212
 10
4182.346431200381
 20
-690.7196921581759
  0
LWPOLYLINE
  5
7EAF
330
1E
100
AcDbEntity
  8
躯体と製品
  6
Continuous
 62
     4
100
AcDbPolyline
 90
        2
 70
     0
 43
0.0
 10
4164.345866010542
 20
-706.7197684836421
 10
4176.346431314644
 20
-706.7197684206032
  0
LWPOLYLINE
  5
7EB1
330
1E
100
AcDbEntity
  8
躯体と製品
  6
Continuous
 62
     4
100
AcDbPolyline
 90
        2
 70
     0
 43
0.0
 10
4170.34643115658
 20
-691.2197684521212
 10
4170.346431152523
 20
-690.7196921581759
  0
LWPOLYLINE
  5
7EB2
330
1E
100
AcDbEntity
  8
躯体と製品
  6
Continuous
 62
     4
100
AcDbPolyline
 90
        4
 70
     0
 43
0.0
 10
4182.346431351779
 20
-698.2196177482363
 10
4182.346431351779
 20
-705.2197684521226
 42
-0.2499999935419728
 10
4170.346431283124
 20
-705.2197684521226
 10
4170.346431234936
 20
-698.219617716785
  0
POINT
  5
7EF5
330
1E
100
AcDbEntity
  8
躯体と製品
  6
Continuous
 62
     4
100
AcDbPoint
 10
3739.202296187752
 20
-745.9177420131871
 30
0.0
  0
POINT
  5
7EF6
330
1E
100
AcDbEntity
  8
躯体と製品
  6
Continuous
 62
     4
100
AcDbPoint
 10
3772.109382294114
 20
-745.9177420131871
 30
0.0
  0
LWPOLYLINE
  5
7F03
330
1E
100
AcDbEntity
  8
躯体と製品
  6
Continuous
 62
     4
100
AcDbPolyline
 90
        3
 70
     0
 43
0.0
 10
3745.702296187751
 20
-743.1177450635622
 42
0.0286442473354274
 10
3742.359018901697
 20
-743.8233929741084
 42
0.1710105960093584
 10
3739.155839240932
 20
-745.9177420131871
  0
LWPOLYLINE
  5
7F04
330
1E
100
AcDbEntity
  8
躯体と製品
  6
Continuous
 62
     4
100
AcDbPolyline
 90
        3
 70
     0
 43
0.0
 10
3765.609382294115
 20
-743.1177450635622
 42
-0.0286442473354003
 10
3768.952659580169
 20
-743.8233929741084
 42
-0.1710105960093953
 10
3772.155839240932
 20
-745.9177420131871
  0
LWPOLYLINE
  5
7F51
330
1E
100
AcDbEntity
  8
躯体と製品
  6
Continuous
 62
     4
100
AcDbPolyline
 90
       11
 70
     0
 43
0.0
 10
3769.512245609884
 20
-698.2197682933204
 10
3769.51224575887
 20
-705.2197684521212
 10
3769.51224575887
 20
-705.2197684521212
 42
-0.4330127018922323
 10
3762.584042528612
 20
-705.2197684521212
 42
-0.2165063509460898
 10
3748.727636068067
 20
-705.2197684521212
 42
-0.4330127018921057
 10
3741.79943283778
 20
-705.2197684521212
 10
3741.79943283778
 20
-698.2197684521212
 42
-0.4330127018921057
 10
3748.727636068067
 20
-698.2197684521212
 42
-0.2165063509460898
 10
3762.584042528612
 20
-698.2197684521212
 42
-0.4330127018922323
 10
3769.51224575887
 20
-698.2197684521212
 10
3769.51224575887
 20
-698.2197684521212
  0
LWPOLYLINE
  5
7F52
330
1E
100
AcDbEntity
  8
躯体と製品
  6
Continuous
 62
     4
100
AcDbPolyline
 90
        2
 70
     0
 43
0.0
 10
3745.263534452909
 20
-696.7197684521212
 10
3766.048144143741
 20
-696.7197684521212
  0
LWPOLYLINE
  5
7F5B
330
1E
100
AcDbEntity
  8
躯体と製品
  6
Continuous
 62
     4
100
AcDbPolyline
 90
        2
 70
     0
 43
0.0
 10
4164.346148588882
 20
-696.7197684206017
 10
4176.346713892982
 20
-696.7197684836406
  0
LWPOLYLINE
  5
7F5F
330
1E
100
AcDbEntity
  8
躯体と製品
  6
Continuous
 62
     4
100
AcDbPolyline
 90
        5
 70
     0
 43
0.0
 10
4182.346713930119
 20
-698.2197684521212
 42
0.2499999935419737
 10
4170.346713872231
 20
-698.2197684521212
 42
0.2500066805912445
 10
4158.346431351779
 20
-698.219919165199
 10
4158.346431351779
 20
-705.2197684521226
 42
0.2500000085465461
 10
4170.346431293892
 20
-705.2197684521226
  0
LWPOLYLINE
  5
7F61
330
1E
100
AcDbEntity
  8
躯体と製品
  6
Continuous
 62
     4
100
AcDbPolyline
 90
        4
 70
     0
 43
0.0
 10
4125.346431174441
 20
-646.7180365795626
 10
4125.346431174441
 20
-690.7196921581759
 10
4215.346431307426
 20
-690.7196921581759
 10
4215.346431409372
 20
-646.7180366838227
  0
LWPOLYLINE
  5
7F66
330
1E
100
AcDbEntity
  8
躯体と製品
  6
Continuous
 62
     4
100
AcDbPolyline
 90
        2
 70
     0
 43
0.0
 10
3741.655312812709
 20
-692.7197684521212
 10
3769.656361854457
 20
-692.7197684521212
  0
LWPOLYLINE
  5
7F67
330
1E
100
AcDbEntity
  8
躯体と製品
  6
Continuous
 62
     4
100
AcDbPolyline
 90
        4
 70
     0
 43
0.0
 10
3710.655839240932
 20
-646.7180365795626
 10
3710.655839240932
 20
-690.7196921581759
 10
3800.655839373918
 20
-690.7196921581759
 10
3800.655839475865
 20
-646.7180366838227
  0
LWPOLYLINE
  5
7F68
330
1E
100
AcDbEntity
  8
躯体と製品
  6
Continuous
 62
     4
100
AcDbPolyline
 90
        4
 70
     0
 43
0.0
 10
4190.34643117444
 20
-638.7177390331759
 10
4190.34643117444
 20
-635.7177390331758
 10
4150.346431307425
 20
-635.7177390331758
 10
4150.346431307425
 20
-638.7177390331759
  0
LWPOLYLINE
  5
7F6A
330
1E
100
AcDbEntity
  8
躯体と製品
  6
Continuous
 62
     4
100
AcDbPolyline
 90
        3
 70
     0
 43
0.0
 10
4215.346426641001
 20
-646.7180373832313
 42
0.4144575715773263
 10
4207.339462480804
 20
-638.7177390331759
 10
4133.346736350222
 20
-638.7177390331759
  0
LWPOLYLINE
  5
7F6C
330
1E
100
AcDbEntity
  8
躯体と製品
  6
Continuous
 62
     4
100
AcDbPolyline
 90
        2
 70
     0
 43
0.0
 10
4133.34673600052
 20
-638.7177361721529
 42
0.4142135751759164
 10
4125.346435942812
 20
-646.7180372789712
  0
LWPOLYLINE
  5
7F70
330
1E
100
AcDbEntity
  8
躯体と製品
  6
Continuous
 62
     4
100
AcDbPolyline
 90
        4
 70
     0
 43
0.0
 10
3735.655839240932
 20
-638.7177390331759
 10
3735.655839240932
 20
-635.7177390331758
 10
3775.655839240932
 20
-635.7177390331758
 10
3775.655839240932
 20
-638.7177390331759
  0
LWPOLYLINE
  5
7F71
330
1E
100
AcDbEntity
  8
躯体と製品
  6
Continuous
 62
     4
100
AcDbPolyline
 90
        3
 70
     0
 43
0.0
 10
3800.655834707493
 20
-646.7180373832313
 42
0.4144575715773263
 10
3792.648870547296
 20
-638.7177390331759
 10
3718.656144416713
 20
-638.7177390331759
  0
LWPOLYLINE
  5
7F73
330
1E
100
AcDbEntity
  8
躯体と製品
  6
Continuous
 62
     4
100
AcDbPolyline
 90
        2
 70
     0
 43
0.0
 10
3718.656144067011
 20
-638.7177361721529
 42
0.4142135751759164
 10
3710.655844009304
 20
-646.7180372789712
  0
POINT
  5
9A20
330
1E
100
AcDbEntity
  8
躯体と製品
  6
Continuous
 62
     4
100
AcDbPoint
 10
4154.071388187753
 20
-745.9177420131871
 30
0.0
  0
POINT
  5
9A21
330
1E
100
AcDbEntity
  8
躯体と製品
  6
Continuous
 62
     4
100
AcDbPoint
 10
4186.978474294115
 20
-745.9177420131871
 30
0.0
  0
LWPOLYLINE
  5
9A24
330
1E
100
AcDbEntity
  8
躯体と製品
  6
Continuous
 62
     4
100
AcDbPolyline
 90
        3
 70
     0
 43
0.0
 10
4160.392888187753
 20
-743.1177450635622
 42
0.0286442473354274
 10
4157.049610901697
 20
-743.8233929741084
 42
0.1710105960093584
 10
4153.846431240932
 20
-745.9177420131871
  0
LWPOLYLINE
  5
9A25
330
1E
100
AcDbEntity
  8
躯体と製品
  6
Continuous
 62
     4
100
AcDbPolyline
 90
        3
 70
     0
 43
0.0
 10
4180.299974294115
 20
-743.1177450635622
 42
-0.0286442473354003
 10
4183.64325158017
 20
-743.8233929741084
 42
-0.1710105960093953
 10
4186.846431240932
 20
-745.9177420131871
  0
DIMENSION
  5
A2AC
330
1E
100
AcDbEntity
  8
寸法
  6
Continuous
100
AcDbDimension
  2
*D3
 10
4348.774049240933
 20
-534.1177389614292
 30
0.0
 11
4342.524049240934
 21
-642.6177389614285
 31
0.0
 70
    32
  1
h=225～257
 71
     5
 42
217.0
  3
AutoCAD
100
AcDbAlignedDimension
 13
4309.542168240932
 23
-751.1177389614292
 33
0.0
 14
4309.542168240932
 24
-534.1177389614292
 34
0.0
 50
90.0
100
AcDbRotatedDimension
  0
LWPOLYLINE
  5
A61C
330
1E
100
AcDbEntity
  8
躯体と製品
  6
Continuous
 62
     4
100
AcDbPolyline
 90
       13
 70
     0
 43
0.0
 10
3986.346431240933
 20
-565.1177389614292
 10
4054.346431240932
 20
-565.1177389614292
 10
4054.346431240932
 20
-558.1177389614293
 10
4049.346431240933
 20
-558.1177389614293
 10
4049.346431240933
 20
-560.1177389614292
 10
4052.346431240933
 20
-560.1177389614292
 10
4052.346431240933
 20
-563.1177389614292
 10
3988.346431240933
 20
-563.1177389614292
 10
3988.346431240933
 20
-560.1177389614292
 10
3991.346431240933
 20
-560.1177389614292
 10
3991.346431240933
 20
-558.1177389614293
 10
3986.346431240933
 20
-558.1177389614293
 10
3986.346431240933
 20
-565.1177389614292
  0
LWPOLYLINE
  5
A61D
330
1E
100
AcDbEntity
  8
躯体と製品
  6
Continuous
 62
     4
100
AcDbPolyline
 90
       28
 70
     1
 43
0.0
 10
4036.146431240933
 20
-534.1177389614293
 42
-0.4142135623730951
 10
4037.846431240932
 20
-535.8177389614294
 10
4037.846431240932
 20
-561.4177389614292
 42
0.4142135623730951
 10
4038.346431240933
 20
-561.9177389614292
 10
4050.646431240933
 20
-561.9177389614292
 42
0.4142135623730951
 10
4051.146431240932
 20
-561.4177389614292
 10
4051.146431240932
 20
-560.1177389614292
 10
4052.346431240933
 20
-560.1177389614292
 10
4052.346431240933
 20
-561.4177389614292
 42
-0.4142135623730951
 10
4050.646431240933
 20
-563.1177389614292
 10
4038.346431240933
 20
-563.1177389614292
 42
-0.4142135623730951
 10
4036.646431240932
 20
-561.4177389614292
 10
4036.646431240932
 20
-535.8177389614294
 42
0.4142135623730951
 10
4036.146431240933
 20
-535.3177389614294
 10
4004.546431240934
 20
-535.3177389614294
 42
0.4142135623730951
 10
4004.046431240933
 20
-535.8177389614294
 10
4004.046431240933
 20
-561.4177389614292
 42
-0.4142135623730951
 10
4002.346431240932
 20
-563.1177389614292
 10
3990.046431240934
 20
-563.1177389614292
 42
-0.4142135623730951
 10
3988.346431240933
 20
-561.4177389614292
 10
3988.346431240933
 20
-560.1177389614292
 10
3989.546431240934
 20
-560.1177389614292
 10
3989.546431240934
 20
-561.4177389614292
 42
0.4142135623730951
 10
3990.046431240934
 20
-561.9177389614292
 10
4002.346431240932
 20
-561.9177389614292
 42
0.4142135623730951
 10
4002.846431240932
 20
-561.4177389614292
 10
4002.846431240932
 20
-535.8177389614294
 42
-0.4142135623730951
 10
4004.546431240934
 20
-534.1177389614293
  0
TEXT
  5
A61E
330
1E
100
AcDbEntity
  8
文字-記号
  6
Continuous
 62
     7
100
AcDbText
 10
3975.207174240933
 20
-543.2646509614293
 30
0.0
 40
6.5
  1
根太鋼
100
AcDbText
  0
LWPOLYLINE
  5
A61F
330
1E
100
AcDbEntity
  8
躯体と製品
  6
Continuous
 62
     4
100
AcDbPolyline
 90
        2
 70
     0
 43
0.0
 10
3999.547431240916
 20
-561.2687389614243
 10
3999.547431240916
 20
-561.7177389614176
  0
LWPOLYLINE
  5
A620
330
1E
100
AcDbEntity
  8
躯体と製品
  6
Continuous
 62
     4
100
AcDbPolyline
 90
        2
 70
     0
 43
0.0
 10
3991.547431240916
 20
-561.2687389614243
 10
3991.547431240916
 20
-561.7177389614176
  0
LWPOLYLINE
  5
A621
330
1E
100
AcDbEntity
  8
躯体と製品
  6
Continuous
 62
     4
100
AcDbPolyline
 90
        2
 70
     0
 43
0.0
 10
3999.347431240933
 20
-561.9177389614292
 10
3995.547431240916
 20
-561.9177389614292
  0
LWPOLYLINE
  5
A622
330
1E
100
AcDbEntity
  8
躯体と製品
  6
Continuous
 62
     4
100
AcDbPolyline
 90
        2
 70
     0
 43
0.0
 10
3991.547431240916
 20
-561.7177389823723
 42
0.41421351636737
 10
3991.74743123045
 20
-561.9177389614292
  0
LWPOLYLINE
  5
A623
330
1E
100
AcDbEntity
  8
躯体と製品
  6
Continuous
 62
     4
100
AcDbPolyline
 90
        2
 70
     0
 43
0.0
 10
3991.747431240927
 20
-561.9177389614292
 10
3995.547431240916
 20
-561.9177389614292
  0
LWPOLYLINE
  5
A624
330
1E
100
AcDbEntity
  8
躯体と製品
  6
Continuous
 62
     4
100
AcDbPolyline
 90
        2
 70
     0
 43
0.0
 10
3999.347431230456
 20
-561.9177389614292
 42
0.4142135777083371
 10
3999.547431240945
 20
-561.7177389614176
  0
LWPOLYLINE
  5
A625
330
1E
100
AcDbEntity
  8
躯体と製品
  6
Continuous
 62
     4
100
AcDbPolyline
 90
        2
 70
     0
 43
0.0
 10
3999.312431240929
 20
-560.1177389614117
 10
3995.547431240916
 20
-560.1177389614117
  0
LWPOLYLINE
  5
A626
330
1E
100
AcDbEntity
  8
躯体と製品
  6
Continuous
 62
     4
100
AcDbPolyline
 90
        2
 70
     0
 43
0.0
 10
3999.311980370093
 20
-560.1182414212039
 42
0.2144073790574085
 10
3995.547447407569
 20
-558.9178824800715
  0
LWPOLYLINE
  5
A627
330
1E
100
AcDbEntity
  8
躯体と製品
  6
Continuous
 62
     4
100
AcDbPolyline
 90
        2
 70
     0
 43
0.0
 10
3991.782431240931
 20
-560.1177389614117
 10
3991.547431240916
 20
-561.2687389614243
  0
LWPOLYLINE
  5
A628
330
1E
100
AcDbEntity
  8
躯体と製品
  6
Continuous
 62
     4
100
AcDbPolyline
 90
        2
 70
     0
 43
0.0
 10
3995.547414656331
 20
-558.9178824323121
 42
0.2144073836089342
 10
3991.782881736125
 20
-560.1182417580516
  0
LWPOLYLINE
  5
A629
330
1E
100
AcDbEntity
  8
躯体と製品
  6
Continuous
 62
     4
100
AcDbPolyline
 90
        2
 70
     0
 43
0.0
 10
3991.782431240931
 20
-560.1177389614117
 10
3995.547431240916
 20
-560.1177389614117
  0
LWPOLYLINE
  5
A62A
330
1E
100
AcDbEntity
  8
躯体と製品
  6
Continuous
 62
     4
100
AcDbPolyline
 90
        2
 70
     0
 43
0.0
 10
3999.312431240929
 20
-560.1177389614117
 10
3999.547431240916
 20
-561.2687389614243
  0
LWPOLYLINE
  5
A62B
330
1E
100
AcDbEntity
  8
躯体と製品
  6
Continuous
 62
     4
100
AcDbPolyline
 90
        2
 70
     0
 43
0.0
 10
4049.147431240921
 20
-561.2687389614243
 10
4049.147431240921
 20
-561.7177389614176
  0
LWPOLYLINE
  5
A62C
330
1E
100
AcDbEntity
  8
躯体と製品
  6
Continuous
 62
     4
100
AcDbPolyline
 90
        2
 70
     0
 43
0.0
 10
4041.147431240921
 20
-561.2687389614243
 10
4041.147431240921
 20
-561.7177389614176
  0
LWPOLYLINE
  5
A62D
330
1E
100
AcDbEntity
  8
躯体と製品
  6
Continuous
 62
     4
100
AcDbPolyline
 90
        2
 70
     0
 43
0.0
 10
4048.94743124091
 20
-561.9177389614292
 10
4045.147431240922
 20
-561.9177389614292
  0
LWPOLYLINE
  5
A62E
330
1E
100
AcDbEntity
  8
躯体と製品
  6
Continuous
 62
     4
100
AcDbPolyline
 90
        2
 70
     0
 43
0.0
 10
4041.147431240921
 20
-561.7177389823723
 42
0.41421351636737
 10
4041.347431230455
 20
-561.9177389614292
  0
LWPOLYLINE
  5
A62F
330
1E
100
AcDbEntity
  8
躯体と製品
  6
Continuous
 62
     4
100
AcDbPolyline
 90
        2
 70
     0
 43
0.0
 10
4041.347431240932
 20
-561.9177389614292
 10
4045.147431240922
 20
-561.9177389614292
  0
LWPOLYLINE
  5
A630
330
1E
100
AcDbEntity
  8
躯体と製品
  6
Continuous
 62
     4
100
AcDbPolyline
 90
        2
 70
     0
 43
0.0
 10
4048.947431230432
 20
-561.9177389614292
 42
0.4142135777083371
 10
4049.147431240921
 20
-561.7177389614176
  0
LWPOLYLINE
  5
A631
330
1E
100
AcDbEntity
  8
躯体と製品
  6
Continuous
 62
     4
100
AcDbPolyline
 90
        2
 70
     0
 43
0.0
 10
4048.912431240935
 20
-560.1177389614117
 10
4045.147431240922
 20
-560.1177389614117
  0
LWPOLYLINE
  5
A632
330
1E
100
AcDbEntity
  8
躯体と製品
  6
Continuous
 62
     4
100
AcDbPolyline
 90
        2
 70
     0
 43
0.0
 10
4048.911980370098
 20
-560.1182414212039
 42
0.2144073790574085
 10
4045.147447407575
 20
-558.9178824800715
  0
LWPOLYLINE
  5
A633
330
1E
100
AcDbEntity
  8
躯体と製品
  6
Continuous
 62
     4
100
AcDbPolyline
 90
        2
 70
     0
 43
0.0
 10
4041.382431240907
 20
-560.1177389614117
 10
4041.147431240921
 20
-561.2687389614243
  0
LWPOLYLINE
  5
A634
330
1E
100
AcDbEntity
  8
躯体と製品
  6
Continuous
 62
     4
100
AcDbPolyline
 90
        2
 70
     0
 43
0.0
 10
4045.147414656307
 20
-558.9178824323121
 42
0.2144073836089342
 10
4041.382881736101
 20
-560.1182417580516
  0
LWPOLYLINE
  5
A635
330
1E
100
AcDbEntity
  8
躯体と製品
  6
Continuous
 62
     4
100
AcDbPolyline
 90
        2
 70
     0
 43
0.0
 10
4041.382431240907
 20
-560.1177389614117
 10
4045.147431240922
 20
-560.1177389614117
  0
LWPOLYLINE
  5
A636
330
1E
100
AcDbEntity
  8
躯体と製品
  6
Continuous
 62
     4
100
AcDbPolyline
 90
        2
 70
     0
 43
0.0
 10
4048.912431240935
 20
-560.1177389614117
 10
4049.147431240921
 20
-561.2687389614243
  0
LWPOLYLINE
  5
A637
330
1E
100
AcDbEntity
  8
文字-記号
  6
Continuous
 62
     7
100
AcDbPolyline
 90
        3
 70
     0
 43
0.0
 10
3972.393107240933
 20
-545.6540849614293
 10
3997.626122240934
 20
-545.6540849614293
 10
4002.846431240932
 20
-553.4290132380332
  0
LWPOLYLINE
  5
A6E7
330
1E
100
AcDbEntity
  8
文字-記号
  6
Continuous
 62
     7
100
AcDbPolyline
 90
        3
 70
     0
 43
0.0
 10
3755.844628240932
 20
-501.1177389614292
 10
3774.613710514805
 20
-468.608734851641
 10
3848.677986070823
 20
-468.608734851641
  0
TEXT
  5
A6E8
330
1E
100
AcDbEntity
  8
文字-記号
  6
Continuous
 62
     7
100
AcDbText
 10
3781.334029953196
 20
-466.7784535739522
 30
0.0
 40
6.5
  1
フローリング貼り
100
AcDbText
  0
LWPOLYLINE
  5
A6E9
330
1E
100
AcDbEntity
  8
文字-記号
  6
Continuous
 62
     7
100
AcDbPolyline
 90
        3
 70
     0
 43
0.0
 10
3767.923984447906
 20
-524.1177389614292
 10
3791.323554274747
 20
-483.5884951460853
 10
3836.366506200779
 20
-483.5884951460853
  0
TEXT
  5
A6EA
330
1E
100
AcDbEntity
  8
文字-記号
  6
Continuous
 62
     7
100
AcDbText
 10
3799.709978797506
 20
-481.7582138683965
 30
0.0
 40
6.5
  1
捨板貼り
100
AcDbText
  0
LWPOLYLINE
  5
A728
330
1E
100
AcDbEntity
  8
躯体と製品
  6
Continuous
 62
     4
100
AcDbPolyline
 90
        2
 70
     0
 43
0.0
 10
4180.299974294115
 20
-743.1177389614292
 10
4170.346431240932
 20
-743.1177389614292
  0
LWPOLYLINE
  5
A729
330
1E
100
AcDbEntity
  8
躯体と製品
  6
Continuous
 62
     4
100
AcDbPolyline
 90
        2
 70
     0
 43
0.0
 10
4160.392888187753
 20
-743.1177389614292
 10
4170.346431240932
 20
-743.1177389614292
  0
LWPOLYLINE
  5
A83E
330
1E
100
AcDbEntity
  8
躯体と製品
  6
Continuous
 62
     4
100
AcDbPolyline
 90
        2
 70
     0
 43
0.0
 10
4195.346431240932
 20
-745.9177420131871
 10
4195.346431240932
 20
-751.1177389614292
  0
LWPOLYLINE
  5
A83F
330
1E
100
AcDbEntity
  8
躯体と製品
  6
Continuous
 62
     4
100
AcDbPolyline
 90
        2
 70
     0
 43
0.0
 10
4145.346431240932
 20
-745.9177420131871
 10
4145.346431240932
 20
-751.1177389614292
  0
LWPOLYLINE
  5
A840
330
1E
100
AcDbEntity
  8
躯体と製品
  6
Continuous
 62
     4
100
AcDbPolyline
 90
        2
 70
     0
 43
0.0
 10
4145.346431240932
 20
-749.1177389614293
 10
4195.346431240932
 20
-749.1177389614293
  0
LWPOLYLINE
  5
A841
330
1E
100
AcDbEntity
  8
躯体と製品
  6
Continuous
 62
     4
100
AcDbPolyline
 90
        2
 70
     0
 43
0.0
 10
4195.346431240932
 20
-745.9177420131871
 10
4145.346431240932
 20
-745.9177420131871
  0
LWPOLYLINE
  5
A842
330
1E
100
AcDbEntity
  8
躯体と製品
  6
Continuous
 62
     4
100
AcDbPolyline
 90
        2
 70
     0
 43
0.0
 10
3805.655839240932
 20
-749.1177389614293
 10
3805.655839240932
 20
-751.1177389614292
  0
LWPOLYLINE
  5
A843
330
1E
100
AcDbEntity
  8
躯体と製品
  6
Continuous
 62
     4
100
AcDbPolyline
 90
        2
 70
     0
 43
0.0
 10
3835.655839240932
 20
-745.9177420131871
 10
3835.655839240932
 20
-751.1177389614292
  0
LWPOLYLINE
  5
A844
330
1E
100
AcDbEntity
  8
躯体と製品
  6
Continuous
 62
     4
100
AcDbPolyline
 90
        2
 70
     0
 43
0.0
 10
3765.609382294115
 20
-743.1177389614292
 10
3755.655839240932
 20
-743.1177389614292
  0
LWPOLYLINE
  5
A845
330
1E
100
AcDbEntity
  8
躯体と製品
  6
Continuous
 62
     4
100
AcDbPolyline
 90
        2
 70
     0
 43
0.0
 10
3835.655839240932
 20
-749.1177389614293
 10
3675.655839240932
 20
-749.1177389614293
  0
LWPOLYLINE
  5
A846
330
1E
100
AcDbEntity
  8
躯体と製品
  6
Continuous
 62
     4
100
AcDbPolyline
 90
        2
 70
     0
 43
0.0
 10
3705.655839240932
 20
-749.1177389614293
 10
3705.655839240932
 20
-751.1177389614292
  0
LWPOLYLINE
  5
A847
330
1E
100
AcDbEntity
  8
躯体と製品
  6
Continuous
 62
     4
100
AcDbPolyline
 90
        2
 70
     0
 43
0.0
 10
3675.655839240932
 20
-745.9177420131871
 10
3675.655839240932
 20
-751.1177389614292
  0
LWPOLYLINE
  5
A848
330
1E
100
AcDbEntity
  8
躯体と製品
  6
Continuous
 62
     4
100
AcDbPolyline
 90
        2
 70
     0
 43
0.0
 10
3745.702296187751
 20
-743.1177389614292
 10
3755.655839240932
 20
-743.1177389614292
  0
LWPOLYLINE
  5
A849
330
1E
100
AcDbEntity
  8
躯体と製品
  6
Continuous
 62
     4
100
AcDbPolyline
 90
        2
 70
     0
 43
0.0
 10
3835.655839240932
 20
-745.9177420131871
 10
3675.655839240932
 20
-745.9177420131871
  0
LWPOLYLINE
  5
A84A
330
1E
100
AcDbEntity
  8
躯体と製品
  6
Continuous
 62
     3
100
AcDbPolyline
 90
        2
 70
     0
 43
0.0
 10
3891.047379240933
 20
-514.1177789614292
 10
3891.047379240933
 20
-519.117738961429
  0
LWPOLYLINE
  5
A84B
330
1E
100
AcDbEntity
  8
躯体と製品
  6
Continuous
 62
     3
100
AcDbPolyline
 90
        2
 70
     0
 43
0.0
 10
3891.047381240932
 20
-514.1177789614292
 42
0.4142135623730951
 10
3890.047341240933
 20
-513.1177389614292
  0
LWPOLYLINE
  5
A84C
330
1E
100
AcDbEntity
  8
躯体と製品
  6
Continuous
 62
     3
100
AcDbPolyline
 90
        2
 70
     0
 43
0.0
 10
3890.047341240933
 20
-513.117738961429
 10
3882.047025240933
 20
-513.117738961429
  0
LWPOLYLINE
  5
A84D
330
1E
100
AcDbEntity
  8
躯体と製品
  6
Continuous
 62
     3
100
AcDbPolyline
 90
        2
 70
     0
 43
0.0
 10
3891.047379240933
 20
-506.1177009614291
 10
3891.047379240933
 20
-501.1177389614292
  0
LWPOLYLINE
  5
A84E
330
1E
100
AcDbEntity
  8
躯体と製品
  6
Continuous
 62
     3
100
AcDbPolyline
 90
        2
 70
     0
 43
0.0
 10
3890.047341240933
 20
-507.1177409614291
 42
0.4142135623730951
 10
3891.047381240932
 20
-506.1177009614291
  0
LWPOLYLINE
  5
A84F
330
1E
100
AcDbEntity
  8
躯体と製品
  6
Continuous
 62
     3
100
AcDbPolyline
 90
        2
 70
     0
 43
0.0
 10
3890.047341240933
 20
-507.1177389614292
 10
3882.047025240933
 20
-507.1177389614292
  0
LWPOLYLINE
  5
A850
330
1E
100
AcDbEntity
  8
躯体と製品
  6
Continuous
 62
     3
100
AcDbPolyline
 90
        2
 70
     0
 43
0.0
 10
3882.047025240933
 20
-507.1177389614291
 42
0.4142135623730951
 10
3881.046985240933
 20
-508.1177789614291
  0
LWPOLYLINE
  5
A851
330
1E
100
AcDbEntity
  8
躯体と製品
  6
Continuous
 62
     3
100
AcDbPolyline
 90
        2
 70
     0
 43
0.0
 10
3881.046987240933
 20
-508.1177789614291
 10
3881.046987240933
 20
-512.1176989614291
  0
LWPOLYLINE
  5
A852
330
1E
100
AcDbEntity
  8
躯体と製品
  6
Continuous
 62
     3
100
AcDbPolyline
 90
        2
 70
     0
 43
0.0
 10
3881.046985240933
 20
-512.1176989614291
 42
0.4142135623730951
 10
3882.047025240933
 20
-513.1177389614292
  0
LWPOLYLINE
  5
A853
330
1E
100
AcDbEntity
  8
躯体と製品
  6
Continuous
 62
     3
100
AcDbPolyline
 90
        2
 70
     0
 43
0.0
 10
3621.047374240933
 20
-514.1177789614292
 10
3621.047374240933
 20
-519.117738961429
  0
LWPOLYLINE
  5
A854
330
1E
100
AcDbEntity
  8
躯体と製品
  6
Continuous
 62
     3
100
AcDbPolyline
 90
        2
 70
     0
 43
0.0
 10
3621.047376240932
 20
-514.1177789614292
 42
0.4142135623730951
 10
3620.047336240933
 20
-513.1177389614292
  0
LWPOLYLINE
  5
A855
330
1E
100
AcDbEntity
  8
躯体と製品
  6
Continuous
 62
     3
100
AcDbPolyline
 90
        2
 70
     0
 43
0.0
 10
3620.047336240933
 20
-513.117738961429
 10
3612.047020240933
 20
-513.117738961429
  0
LWPOLYLINE
  5
A856
330
1E
100
AcDbEntity
  8
躯体と製品
  6
Continuous
 62
     3
100
AcDbPolyline
 90
        2
 70
     0
 43
0.0
 10
3621.047374240933
 20
-506.1177009614291
 10
3621.047374240933
 20
-501.1177389614292
  0
LWPOLYLINE
  5
A857
330
1E
100
AcDbEntity
  8
躯体と製品
  6
Continuous
 62
     3
100
AcDbPolyline
 90
        2
 70
     0
 43
0.0
 10
3620.047336240933
 20
-507.1177409614291
 42
0.4142135623730951
 10
3621.047376240932
 20
-506.1177009614291
  0
LWPOLYLINE
  5
A858
330
1E
100
AcDbEntity
  8
躯体と製品
  6
Continuous
 62
     3
100
AcDbPolyline
 90
        2
 70
     0
 43
0.0
 10
3620.047336240933
 20
-507.1177389614292
 10
3612.047020240933
 20
-507.1177389614292
  0
LWPOLYLINE
  5
A859
330
1E
100
AcDbEntity
  8
躯体と製品
  6
Continuous
 62
     3
100
AcDbPolyline
 90
        2
 70
     0
 43
0.0
 10
3612.047020240933
 20
-507.1177389614291
 42
0.4142135623730951
 10
3611.046980240934
 20
-508.1177789614291
  0
LWPOLYLINE
  5
A85A
330
1E
100
AcDbEntity
  8
躯体と製品
  6
Continuous
 62
     3
100
AcDbPolyline
 90
        2
 70
     0
 43
0.0
 10
3611.046982240933
 20
-508.1177789614291
 10
3611.046982240933
 20
-512.1176989614291
  0
LWPOLYLINE
  5
A85B
330
1E
100
AcDbEntity
  8
躯体と製品
  6
Continuous
 62
     3
100
AcDbPolyline
 90
        2
 70
     0
 43
0.0
 10
3611.046980240934
 20
-512.1176989614291
 42
0.4142135623730951
 10
3612.047020240933
 20
-513.1177389614292
  0
LWPOLYLINE
  5
A85C
330
1E
100
AcDbEntity
  8
躯体と製品
  6
Continuous
 62
     3
100
AcDbPolyline
 90
        2
 70
     0
 43
0.0
 10
3711.047374240933
 20
-514.1177789614292
 10
3711.047374240933
 20
-519.117738961429
  0
LWPOLYLINE
  5
A85D
330
1E
100
AcDbEntity
  8
躯体と製品
  6
Continuous
 62
     3
100
AcDbPolyline
 90
        2
 70
     0
 43
0.0
 10
3711.047376240933
 20
-514.1177789614292
 42
0.4142135623730951
 10
3710.047336240933
 20
-513.1177389614292
  0
LWPOLYLINE
  5
A85E
330
1E
100
AcDbEntity
  8
躯体と製品
  6
Continuous
 62
     3
100
AcDbPolyline
 90
        2
 70
     0
 43
0.0
 10
3710.047336240933
 20
-513.117738961429
 10
3702.047020240933
 20
-513.117738961429
  0
LWPOLYLINE
  5
A85F
330
1E
100
AcDbEntity
  8
躯体と製品
  6
Continuous
 62
     3
100
AcDbPolyline
 90
        2
 70
     0
 43
0.0
 10
3711.047374240933
 20
-506.1177009614291
 10
3711.047374240933
 20
-501.1177389614292
  0
LWPOLYLINE
  5
A860
330
1E
100
AcDbEntity
  8
躯体と製品
  6
Continuous
 62
     3
100
AcDbPolyline
 90
        2
 70
     0
 43
0.0
 10
3710.047336240933
 20
-507.1177409614291
 42
0.4142135623730951
 10
3711.047376240933
 20
-506.1177009614291
  0
LWPOLYLINE
  5
A861
330
1E
100
AcDbEntity
  8
躯体と製品
  6
Continuous
 62
     3
100
AcDbPolyline
 90
        2
 70
     0
 43
0.0
 10
3710.047336240933
 20
-507.1177389614292
 10
3702.047020240933
 20
-507.1177389614292
  0
LWPOLYLINE
  5
A862
330
1E
100
AcDbEntity
  8
躯体と製品
  6
Continuous
 62
     3
100
AcDbPolyline
 90
        2
 70
     0
 43
0.0
 10
3702.047020240933
 20
-507.1177389614291
 42
0.4142135623730951
 10
3701.046980240934
 20
-508.1177789614291
  0
LWPOLYLINE
  5
A863
330
1E
100
AcDbEntity
  8
躯体と製品
  6
Continuous
 62
     3
100
AcDbPolyline
 90
        2
 70
     0
 43
0.0
 10
3701.046982240933
 20
-508.1177789614291
 10
3701.046982240933
 20
-512.1176989614291
  0
LWPOLYLINE
  5
A864
330
1E
100
AcDbEntity
  8
躯体と製品
  6
Continuous
 62
     3
100
AcDbPolyline
 90
        2
 70
     0
 43
0.0
 10
3701.046980240934
 20
-512.1176989614291
 42
0.4142135623730951
 10
3702.047020240933
 20
-513.1177389614292
  0
LWPOLYLINE
  5
A865
330
1E
100
AcDbEntity
  8
躯体と製品
  6
Continuous
 62
     3
100
AcDbPolyline
 90
        2
 70
     0
 43
0.0
 10
3801.047379240933
 20
-514.1177789614292
 10
3801.047379240933
 20
-519.117738961429
  0
LWPOLYLINE
  5
A866
330
1E
100
AcDbEntity
  8
躯体と製品
  6
Continuous
 62
     3
100
AcDbPolyline
 90
        2
 70
     0
 43
0.0
 10
3801.047381240933
 20
-514.1177789614292
 42
0.4142135623730951
 10
3800.047341240933
 20
-513.1177389614292
  0
LWPOLYLINE
  5
A867
330
1E
100
AcDbEntity
  8
躯体と製品
  6
Continuous
 62
     3
100
AcDbPolyline
 90
        2
 70
     0
 43
0.0
 10
3800.047341240933
 20
-513.117738961429
 10
3792.047025240933
 20
-513.117738961429
  0
LWPOLYLINE
  5
A868
330
1E
100
AcDbEntity
  8
躯体と製品
  6
Continuous
 62
     3
100
AcDbPolyline
 90
        2
 70
     0
 43
0.0
 10
3801.047379240933
 20
-506.1177009614291
 10
3801.047379240933
 20
-501.1177389614292
  0
LWPOLYLINE
  5
A869
330
1E
100
AcDbEntity
  8
躯体と製品
  6
Continuous
 62
     3
100
AcDbPolyline
 90
        2
 70
     0
 43
0.0
 10
3800.047341240933
 20
-507.1177409614291
 42
0.4142135623730951
 10
3801.047381240933
 20
-506.1177009614291
  0
LWPOLYLINE
  5
A86A
330
1E
100
AcDbEntity
  8
躯体と製品
  6
Continuous
 62
     3
100
AcDbPolyline
 90
        2
 70
     0
 43
0.0
 10
3800.047341240933
 20
-507.1177389614292
 10
3792.047025240933
 20
-507.1177389614292
  0
LWPOLYLINE
  5
A86B
330
1E
100
AcDbEntity
  8
躯体と製品
  6
Continuous
 62
     3
100
AcDbPolyline
 90
        2
 70
     0
 43
0.0
 10
3792.047025240933
 20
-507.1177389614291
 42
0.4142135623730951
 10
3791.046985240933
 20
-508.1177789614291
  0
LWPOLYLINE
  5
A86C
330
1E
100
AcDbEntity
  8
躯体と製品
  6
Continuous
 62
     3
100
AcDbPolyline
 90
        2
 70
     0
 43
0.0
 10
3791.046987240933
 20
-508.1177789614291
 10
3791.046987240933
 20
-512.1176989614291
  0
LWPOLYLINE
  5
A86D
330
1E
100
AcDbEntity
  8
躯体と製品
  6
Continuous
 62
     3
100
AcDbPolyline
 90
        2
 70
     0
 43
0.0
 10
3791.046985240933
 20
-512.1176989614291
 42
0.4142135623730951
 10
3792.047025240933
 20
-513.1177389614292
  0
LWPOLYLINE
  5
A86E
330
1E
100
AcDbEntity
  8
躯体と製品
  6
Continuous
 62
     4
100
AcDbPolyline
 90
        2
 70
     0
 43
0.0
 10
3785.855839298307
 20
-563.1177389614293
 10
3906.053281240933
 20
-563.1177389614292
  0
LWPOLYLINE
  5
A86F
330
1E
100
AcDbEntity
  8
躯体と製品
  6
Continuous
 62
     4
100
AcDbPolyline
 90
        2
 70
     0
 43
0.0
 10
3775.655839240932
 20
-563.1177389614293
 10
3780.655839298325
 20
-563.1177389614293
  0
LWPOLYLINE
  5
A870
330
1E
100
AcDbEntity
  8
躯体と製品
  6
Continuous
 62
     4
100
AcDbPolyline
 90
        2
 70
     0
 43
0.0
 10
3605.635975240932
 20
-519.1177389614292
 10
3906.053281240933
 20
-519.1177389614292
  0
LWPOLYLINE
  5
A871
330
1E
100
AcDbEntity
  8
躯体と製品
  6
Continuous
 62
     3
100
AcDbPolyline
 90
        2
 70
     0
 43
0.0
 10
3605.635975240932
 20
-529.1177389614293
 10
3906.053281240933
 20
-529.1177389614293
  0
LWPOLYLINE
  5
A872
330
1E
100
AcDbEntity
  8
躯体と製品
  6
Continuous
 62
     3
100
AcDbPolyline
 90
        2
 70
     0
 43
0.0
 10
3605.635975240932
 20
-524.1177389614292
 10
3906.053281240933
 20
-524.1177389614292
  0
LWPOLYLINE
  5
A873
330
1E
100
AcDbEntity
  8
躯体と製品
  6
Continuous
 62
     4
100
AcDbPolyline
 90
        2
 70
     0
 43
0.0
 10
3605.635975240932
 20
-501.1177389614292
 10
3906.053281240933
 20
-501.1177389614292
  0
LWPOLYLINE
  5
A874
330
1E
100
AcDbEntity
  8
躯体と製品
  6
Continuous
 62
     4
100
AcDbPolyline
 90
        2
 70
     0
 43
0.0
 10
3605.635975240932
 20
-534.1177389614292
 10
3906.053281240933
 20
-534.1177389614292
  0
LWPOLYLINE
  5
A875
330
1E
100
AcDbEntity
  8
躯体と製品
  6
Continuous
 62
     4
100
AcDbPolyline
 90
        2
 70
     0
 43
0.0
 10
3725.455839298314
 20
-563.1177389614292
 10
3605.635975240932
 20
-563.1177389614292
  0
LWPOLYLINE
  5
A876
330
1E
100
AcDbEntity
  8
躯体と製品
  6
Continuous
 62
     4
100
AcDbPolyline
 90
        2
 70
     0
 43
0.0
 10
3735.655839240932
 20
-563.1177389614292
 10
3730.655839298325
 20
-563.1177389614292
  0
LWPOLYLINE
  5
A877
330
1E
100
AcDbEntity
  8
躯体と製品
  6
Continuous
 62
     3
100
AcDbPolyline
 90
        2
 70
     0
 43
0.0
 10
3785.855839298307
 20
-560.1177389614291
 10
3906.053281240933
 20
-560.1177389614292
  0
LWPOLYLINE
  5
A878
330
1E
100
AcDbEntity
  8
躯体と製品
  6
Continuous
 62
     3
100
AcDbPolyline
 90
        2
 70
     0
 43
0.0
 10
3775.655839240932
 20
-560.1177389614291
 10
3782.655839298325
 20
-560.1177389614291
  0
LWPOLYLINE
  5
A879
330
1E
100
AcDbEntity
  8
躯体と製品
  6
Continuous
 62
     3
100
AcDbPolyline
 90
        2
 70
     0
 43
0.0
 10
3724.85507118792
 20
-560.1177389614293
 10
3605.635975240932
 20
-560.1177389614292
  0
LWPOLYLINE
  5
A87A
330
1E
100
AcDbEntity
  8
躯体と製品
  6
Continuous
 62
     3
100
AcDbPolyline
 90
        2
 70
     0
 43
0.0
 10
3735.655839240932
 20
-560.1177389614293
 10
3728.6563537093
 20
-560.1177389614293
  0
LWPOLYLINE
  5
A87B
330
1E
100
AcDbEntity
  8
躯体と製品
  6
PLINE2
 62
     3
100
AcDbPolyline
 90
        2
 70
     0
 43
0.0
 10
4195.346304240933
 20
-613.5177389614291
 10
4304.542168240932
 20
-613.5177389614291
  0
LWPOLYLINE
  5
A87C
330
1E
100
AcDbEntity
  8
躯体と製品
  6
Continuous
 62
     4
100
AcDbPolyline
 90
        2
 70
     0
 43
0.0
 10
4195.346304240933
 20
-615.1177389614292
 10
4304.542168240932
 20
-615.1177389614292
  0
LWPOLYLINE
  5
A87D
330
1E
100
AcDbEntity
  8
躯体と製品
  6
PLINE2
 62
     3
100
AcDbPolyline
 90
        2
 70
     0
 43
0.0
 10
4195.346304240933
 20
-566.7174829614293
 10
4304.542168240932
 20
-566.7174829614293
  0
LWPOLYLINE
  5
A87E
330
1E
100
AcDbEntity
  8
躯体と製品
  6
Continuous
 62
     4
100
AcDbPolyline
 90
        2
 70
     0
 43
0.0
 10
3968.275586240933
 20
-534.1177389614292
 10
4304.542168240932
 20
-534.1177389614292
  0
LWPOLYLINE
  5
A87F
330
1E
100
AcDbEntity
  8
躯体と製品
  6
Continuous
 62
     4
100
AcDbPolyline
 90
        2
 70
     0
 43
0.0
 10
3968.275586240933
 20
-501.1177389614292
 10
4304.542168240932
 20
-501.1177389614292
  0
LWPOLYLINE
  5
A880
330
1E
100
AcDbEntity
  8
躯体と製品
  6
Continuous
 62
     4
100
AcDbPolyline
 90
        2
 70
     0
 43
0.0
 10
3968.275586240933
 20
-519.1177389614292
 10
4304.542168240932
 20
-519.1177389614292
  0
LWPOLYLINE
  5
A881
330
1E
100
AcDbEntity
  8
躯体と製品
  6
Continuous
 62
     4
100
AcDbPolyline
 90
        2
 70
     0
 43
0.0
 10
4195.346304240933
 20
-565.1177389614292
 10
4304.542168240932
 20
-565.1177389614292
  0
LWPOLYLINE
  5
A882
330
1E
100
AcDbEntity
  8
躯体と製品
  6
Continuous
 62
     3
100
AcDbPolyline
 90
        2
 70
     0
 43
0.0
 10
3968.275586240933
 20
-524.1177389614292
 10
4304.542168240932
 20
-524.1177389614292
  0
LWPOLYLINE
  5
A883
330
1E
100
AcDbEntity
  8
躯体と製品
  6
Continuous
 62
     3
100
AcDbPolyline
 90
        2
 70
     0
 43
0.0
 10
3968.275586240933
 20
-529.1177389614293
 10
4304.542168240932
 20
-529.1177389614293
  0
LWPOLYLINE
  5
A884
330
1E
100
AcDbEntity
  8
躯体と製品
  6
PLINE2
 62
     3
100
AcDbPolyline
 90
        2
 70
     0
 43
0.0
 10
3968.275586240933
 20
-613.5177389614291
 10
4145.346558240931
 20
-613.5177389614291
  0
LWPOLYLINE
  5
A885
330
1E
100
AcDbEntity
  8
躯体と製品
  6
Continuous
 62
     4
100
AcDbPolyline
 90
        2
 70
     0
 43
0.0
 10
3968.275586240933
 20
-615.1177389614292
 10
4145.346558240931
 20
-615.1177389614292
  0
LWPOLYLINE
  5
A886
330
1E
100
AcDbEntity
  8
躯体と製品
  6
PLINE2
 62
     3
100
AcDbPolyline
 90
        2
 70
     0
 43
0.0
 10
3968.275586240933
 20
-566.7174829614293
 10
4145.346558240931
 20
-566.7174829614293
  0
LWPOLYLINE
  5
A887
330
1E
100
AcDbEntity
  8
躯体と製品
  6
Continuous
 62
     4
100
AcDbPolyline
 90
        2
 70
     0
 43
0.0
 10
4145.346558240931
 20
-565.1177389614292
 10
3968.275586240933
 20
-565.1177389614292
  0
LWPOLYLINE
  5
A888
330
1E
100
AcDbEntity
  8
躯体と製品
  6
Continuous
 62
     4
100
AcDbPolyline
 90
        2
 70
     0
 43
0.0
 10
4178.346431240932
 20
-706.5619286981301
 10
4178.346431240934
 20
-743.1177389614292
  0
LWPOLYLINE
  5
A889
330
1E
100
AcDbEntity
  8
躯体と製品
  6
Continuous
 62
     4
100
AcDbPolyline
 90
        2
 70
     0
 43
0.0
 10
4162.346431240933
 20
-706.5619287370286
 10
4162.346431240933
 20
-743.1177389614293
  0
LWPOLYLINE
  5
A88A
330
1E
100
AcDbEntity
  8
躯体と製品
  6
Continuous
 62
     3
100
AcDbPolyline
 90
        2
 70
     0
 43
0.0
 10
4176.846439240931
 20
-706.7099604175109
 10
4176.846439240931
 20
-743.1177389614292
  0
LWPOLYLINE
  5
A88B
330
1E
100
AcDbEntity
  8
躯体と製品
  6
Continuous
 62
     3
100
AcDbPolyline
 90
        2
 70
     0
 43
0.0
 10
4163.846423240933
 20
-706.7099604848794
 10
4163.846423240933
 20
-743.1177389614292
  0
LWPOLYLINE
  5
A88C
330
1E
100
AcDbEntity
  8
躯体と製品
  6
Continuous
 62
     3
100
AcDbPolyline
 90
        2
 70
     0
 43
0.0
 10
3749.156039240933
 20
-706.7197684521212
 10
3749.156039240933
 20
-743.1177389614292
  0
LWPOLYLINE
  5
A88D
330
1E
100
AcDbEntity
  8
躯体と製品
  6
Continuous
 62
     3
100
AcDbPolyline
 90
        2
 70
     0
 43
0.0
 10
3762.155639240932
 20
-706.7197684521212
 10
3762.155639240932
 20
-743.1177389614292
  0
LWPOLYLINE
  5
A88E
330
1E
100
AcDbEntity
  8
躯体と製品
  6
Continuous
 62
     4
100
AcDbPolyline
 90
        2
 70
     0
 43
0.0
 10
3747.655839240933
 20
-706.7197684521212
 10
3747.655839240933
 20
-743.1177389614292
  0
LWPOLYLINE
  5
A88F
330
1E
100
AcDbEntity
  8
躯体と製品
  6
Continuous
 62
     4
100
AcDbPolyline
 90
        2
 70
     0
 43
0.0
 10
3763.655839240932
 20
-706.7197684521212
 10
3763.655839240932
 20
-743.1177389614292
  0
LWPOLYLINE
  5
A890
330
1E
100
AcDbEntity
  8
躯体と製品
  6
Continuous
 62
     4
100
AcDbPolyline
 90
        2
 70
     0
 43
0.0
 10
4175.445425240932
 20
-553.8677449614291
 10
4175.846403240932
 20
-553.8677449614291
  0
LWPOLYLINE
  5
A891
330
1E
100
AcDbEntity
  8
躯体と製品
  6
Continuous
 62
     4
100
AcDbPolyline
 90
        2
 70
     0
 43
0.0
 10
4176.346401240933
 20
-554.3677429614291
 42
0.4142135623730951
 10
4175.846403240932
 20
-553.8677449614291
  0
LWPOLYLINE
  5
A892
330
1E
100
AcDbEntity
  8
躯体と製品
  6
Continuous
 62
     4
100
AcDbPolyline
 90
        2
 70
     0
 43
0.0
 10
4176.346401240931
 20
-554.3677429614291
 10
4176.346401240931
 20
-555.8677349614291
  0
LWPOLYLINE
  5
A893
330
1E
100
AcDbEntity
  8
躯体と製品
  6
Continuous
 62
     4
100
AcDbPolyline
 90
        2
 70
     0
 43
0.0
 10
4175.846403240932
 20
-556.3677329614291
 42
0.4142135623730951
 10
4176.346401240933
 20
-555.8677349614291
  0
LWPOLYLINE
  5
A894
330
1E
100
AcDbEntity
  8
躯体と製品
  6
Continuous
 62
     4
100
AcDbPolyline
 90
        2
 70
     0
 43
0.0
 10
4175.846403240932
 20
-556.3677329614291
 10
4175.445425240932
 20
-556.3677329614291
  0
LWPOLYLINE
  5
A895
330
1E
100
AcDbEntity
  8
躯体と製品
  6
Continuous
 62
     4
100
AcDbPolyline
 90
        2
 70
     0
 43
0.0
 10
4165.247439240931
 20
-553.8677449614291
 10
4164.846459240931
 20
-553.8677449614291
  0
LWPOLYLINE
  5
A896
330
1E
100
AcDbEntity
  8
躯体と製品
  6
Continuous
 62
     4
100
AcDbPolyline
 90
        2
 70
     0
 43
0.0
 10
4164.846459240931
 20
-553.8677449614291
 42
0.4142135623730951
 10
4164.346461240931
 20
-554.3677429614291
  0
LWPOLYLINE
  5
A897
330
1E
100
AcDbEntity
  8
躯体と製品
  6
Continuous
 62
     4
100
AcDbPolyline
 90
        2
 70
     0
 43
0.0
 10
4164.346463240932
 20
-554.3677429614291
 10
4164.346463240932
 20
-555.8677349614291
  0
LWPOLYLINE
  5
A898
330
1E
100
AcDbEntity
  8
躯体と製品
  6
Continuous
 62
     4
100
AcDbPolyline
 90
        2
 70
     0
 43
0.0
 10
4164.346461240931
 20
-555.8677349614291
 42
0.4142135623730951
 10
4164.846459240931
 20
-556.3677329614291
  0
LWPOLYLINE
  5
A899
330
1E
100
AcDbEntity
  8
躯体と製品
  6
Continuous
 62
     4
100
AcDbPolyline
 90
        2
 70
     0
 43
0.0
 10
4164.846459240931
 20
-556.3677329614291
 10
4165.247439240931
 20
-556.3677329614291
  0
LWPOLYLINE
  5
A89A
330
1E
100
AcDbEntity
  8
躯体と製品
  6
Continuous
 62
     3
100
AcDbPolyline
 90
        2
 70
     0
 43
0.0
 10
4170.346431240932
 20
-560.8912129614292
 10
4165.346457240931
 20
-558.0044749614293
  0
LWPOLYLINE
  5
A89B
330
1E
100
AcDbEntity
  8
躯体と製品
  6
Continuous
 62
     3
100
AcDbPolyline
 90
        2
 70
     0
 43
0.0
 10
4165.346457240931
 20
-558.0044749614293
 10
4165.346457240931
 20
-552.2310029614292
  0
LWPOLYLINE
  5
A89C
330
1E
100
AcDbEntity
  8
躯体と製品
  6
Continuous
 62
     3
100
AcDbPolyline
 90
        2
 70
     0
 43
0.0
 10
4165.346457240931
 20
-552.2310029614292
 10
4170.346431240932
 20
-549.3442649614291
  0
LWPOLYLINE
  5
A89D
330
1E
100
AcDbEntity
  8
躯体と製品
  6
Continuous
 62
     3
100
AcDbPolyline
 90
        2
 70
     0
 43
0.0
 10
4170.346431240932
 20
-549.3442649614291
 10
4175.346407240931
 20
-552.2310029614292
  0
LWPOLYLINE
  5
A89E
330
1E
100
AcDbEntity
  8
躯体と製品
  6
Continuous
 62
     3
100
AcDbPolyline
 90
        2
 70
     0
 43
0.0
 10
4175.346407240931
 20
-552.2310029614292
 10
4175.346407240931
 20
-558.0044749614293
  0
LWPOLYLINE
  5
A89F
330
1E
100
AcDbEntity
  8
躯体と製品
  6
Continuous
 62
     3
100
AcDbPolyline
 90
        2
 70
     0
 43
0.0
 10
4175.346407240931
 20
-558.0044749614293
 10
4170.346431240932
 20
-560.8912129614292
  0
LWPOLYLINE
  5
A8A0
330
1E
100
AcDbEntity
  8
躯体と製品
  6
Continuous
 62
     3
100
AcDbPolyline
 90
        2
 70
     0
 43
0.0
 10
4245.632519240933
 20
-773.0680569614292
 10
4267.582837240932
 20
-751.1177389614292
  0
LWPOLYLINE
  5
A8A1
330
1E
100
AcDbEntity
  8
躯体と製品
  6
Continuous
 62
     3
100
AcDbPolyline
 90
        2
 70
     0
 43
0.0
 10
4231.488511240931
 20
-773.0680569614292
 10
4253.438827240932
 20
-751.1177389614292
  0
LWPOLYLINE
  5
A8A2
330
1E
100
AcDbEntity
  8
躯体と製品
  6
Continuous
 62
     3
100
AcDbPolyline
 90
        2
 70
     0
 43
0.0
 10
4259.776527240933
 20
-773.0680569614292
 10
4281.726845240931
 20
-751.1177389614292
  0
LWPOLYLINE
  5
A8A3
330
1E
100
AcDbEntity
  8
躯体と製品
  6
Continuous
 62
     3
100
AcDbPolyline
 90
        2
 70
     0
 43
0.0
 10
4063.507725252997
 20
-773.2012749614291
 10
4085.591259252997
 20
-751.1177389614292
  0
LWPOLYLINE
  5
A8A4
330
1E
100
AcDbEntity
  8
躯体と製品
  6
Continuous
 62
     3
100
AcDbPolyline
 90
        2
 70
     0
 43
0.0
 10
4077.651733252997
 20
-773.2012749614291
 10
4099.735267252998
 20
-751.1177389614292
  0
LWPOLYLINE
  5
A8A5
330
1E
100
AcDbEntity
  8
躯体と製品
  6
Continuous
 62
     3
100
AcDbPolyline
 90
        2
 70
     0
 43
0.0
 10
4049.363717252997
 20
-773.2012749614291
 10
4071.447251252998
 20
-751.1177389614292
  0
LWPOLYLINE
  5
A8A6
330
1E
100
AcDbEntity
  8
躯体と製品
  6
Continuous
 62
     4
100
AcDbPolyline
 90
        2
 70
     0
 43
0.0
 10
3968.275587240933
 20
-751.1177389614292
 10
4304.542171240931
 20
-751.1177389614292
  0
LWPOLYLINE
  5
A8A7
330
1E
100
AcDbEntity
  8
躯体と製品
  6
Continuous
 62
     3
100
AcDbPolyline
 90
        2
 70
     0
 43
0.0
 10
3790.256423644347
 20
-552.6174078973546
 42
0.2275707722563329
 10
3790.856503298308
 20
-551.3672419614291
  0
LWPOLYLINE
  5
A8A8
330
1E
100
AcDbEntity
  8
躯体と製品
  6
Continuous
 62
     3
100
AcDbPolyline
 90
        2
 70
     0
 43
0.0
 10
3790.856503298309
 20
-550.7421599614291
 10
3790.256423298308
 20
-550.1170759614291
  0
LWPOLYLINE
  5
A8A9
330
1E
100
AcDbEntity
  8
躯体と製品
  6
Continuous
 62
     3
100
AcDbPolyline
 90
        2
 70
     0
 43
0.0
 10
3785.855839298307
 20
-549.0169299614291
 10
3784.255839298302
 20
-549.0169299614291
  0
LWPOLYLINE
  5
A8AA
330
1E
100
AcDbEntity
  8
躯体と製品
  6
Continuous
 62
     3
100
AcDbPolyline
 90
        2
 70
     0
 43
0.0
 10
3785.855839298309
 20
-551.3672419614291
 42
0.2275707722563329
 10
3786.455918952269
 20
-552.6174078973546
  0
LWPOLYLINE
  5
A8AB
330
1E
100
AcDbEntity
  8
躯体と製品
  6
Continuous
 62
     3
100
AcDbPolyline
 90
        2
 70
     0
 43
0.0
 10
3785.855839298307
 20
-550.7421599614291
 10
3786.455919298307
 20
-550.1170759614291
  0
LWPOLYLINE
  5
A8AC
330
1E
100
AcDbEntity
  8
躯体と製品
  6
Continuous
 62
     3
100
AcDbPolyline
 90
        2
 70
     0
 43
0.0
 10
3790.256423298308
 20
-550.1170759614291
 10
3786.455919298307
 20
-550.1170759614291
  0
LWPOLYLINE
  5
A8AD
330
1E
100
AcDbEntity
  8
躯体と製品
  6
Continuous
 62
     3
100
AcDbPolyline
 90
        2
 70
     0
 43
0.0
 10
3790.256423298308
 20
-552.6174079614292
 10
3786.455919298307
 20
-552.6174079614292
  0
LWPOLYLINE
  5
A8AE
330
1E
100
AcDbEntity
  8
躯体と製品
  6
Continuous
 62
     3
100
AcDbPolyline
 90
        2
 70
     0
 43
0.0
 10
3790.856503298309
 20
-552.117738961429
 10
3799.055839298319
 20
-552.1177389614291
  0
LWPOLYLINE
  5
A8AF
330
1E
100
AcDbEntity
  8
躯体と製品
  6
Continuous
 62
     3
100
AcDbPolyline
 90
        2
 70
     0
 43
0.0
 10
3790.856503298309
 20
-552.6178049614292
 10
3799.055839298319
 20
-552.6178049614292
  0
LWPOLYLINE
  5
A8B0
330
1E
100
AcDbEntity
  8
躯体と製品
  6
Continuous
 62
     3
100
AcDbPolyline
 90
        2
 70
     0
 43
0.0
 10
3790.856503298308
 20
-558.8682339614291
 42
0.2275707722563329
 10
3790.256423644347
 20
-557.6180680255036
  0
LWPOLYLINE
  5
A8B1
330
1E
100
AcDbEntity
  8
躯体と製品
  6
Continuous
 62
     3
100
AcDbPolyline
 90
        2
 70
     0
 43
0.0
 10
3790.856503298309
 20
-559.4933179614291
 10
3790.256423298308
 20
-560.1183999614291
  0
LWPOLYLINE
  5
A8B2
330
1E
100
AcDbEntity
  8
躯体と製品
  6
Continuous
 62
     3
100
AcDbPolyline
 90
        2
 70
     0
 43
0.0
 10
3786.455918952269
 20
-557.6180680255036
 42
0.2275707722563329
 10
3785.855839298309
 20
-558.8682339614291
  0
LWPOLYLINE
  5
A8B3
330
1E
100
AcDbEntity
  8
躯体と製品
  6
Continuous
 62
     3
100
AcDbPolyline
 90
        2
 70
     0
 43
0.0
 10
3785.855839298307
 20
-559.4933179614291
 10
3786.455919298307
 20
-560.1183999614291
  0
LWPOLYLINE
  5
A8B4
330
1E
100
AcDbEntity
  8
躯体と製品
  6
Continuous
 62
     3
100
AcDbPolyline
 90
        2
 70
     0
 43
0.0
 10
3790.256423298308
 20
-557.618069961429
 10
3786.455919298307
 20
-557.618069961429
  0
LWPOLYLINE
  5
A8B5
330
1E
100
AcDbEntity
  8
躯体と製品
  6
Continuous
 62
     3
100
AcDbPolyline
 90
        2
 70
     0
 43
0.0
 10
3790.256423298308
 20
-560.1183999614291
 10
3786.455919298307
 20
-560.1183999614291
  0
LWPOLYLINE
  5
A8B6
330
1E
100
AcDbEntity
  8
躯体と製品
  6
Continuous
 62
     3
100
AcDbPolyline
 90
        2
 70
     0
 43
0.0
 10
3799.055839298319
 20
-558.1177389614291
 10
3790.856503298309
 20
-558.1177389614291
  0
LWPOLYLINE
  5
A8B7
330
1E
100
AcDbEntity
  8
躯体と製品
  6
Continuous
 62
     3
100
AcDbPolyline
 90
        2
 70
     0
 43
0.0
 10
3790.856503298309
 20
-557.6176729614291
 10
3799.055839298319
 20
-557.6176729614291
  0
LWPOLYLINE
  5
A8B8
330
1E
100
AcDbEntity
  8
躯体と製品
  6
Continuous
 62
     3
100
AcDbPolyline
 90
        2
 70
     0
 43
0.0
 10
3785.855839298307
 20
-553.5017389614491
 10
3785.855839298307
 20
-549.0169299614291
  0
LWPOLYLINE
  5
A8B9
330
1E
100
AcDbEntity
  8
躯体と製品
  6
Continuous
 62
     3
100
AcDbPolyline
 90
        2
 70
     0
 43
0.0
 10
3790.256421908526
 20
-557.6180687100346
 42
0.2400000040461839
 10
3790.256421908526
 20
-552.6174072128234
  0
LWPOLYLINE
  5
A8BA
330
1E
100
AcDbEntity
  8
躯体と製品
  6
Continuous
 62
     3
100
AcDbPolyline
 90
        2
 70
     0
 43
0.0
 10
3790.856503298309
 20
-559.4933179614291
 10
3790.856503298309
 20
-550.7421599614291
  0
LWPOLYLINE
  5
A8BB
330
1E
100
AcDbEntity
  8
躯体と製品
  6
Continuous
 62
     3
100
AcDbPolyline
 90
        2
 70
     0
 43
0.0
 10
3790.856503298309
 20
-550.7421599614291
 10
3790.856503298309
 20
-559.4933179614291
  0
LWPOLYLINE
  5
A8BC
330
1E
100
AcDbEntity
  8
躯体と製品
  6
Continuous
 62
     3
100
AcDbPolyline
 90
        2
 70
     0
 43
0.0
 10
3786.455920688089
 20
-552.6174072128234
 42
0.2400000040461836
 10
3786.455920688089
 20
-557.6180687100346
  0
LWPOLYLINE
  5
A8BD
330
1E
100
AcDbEntity
  8
躯体と製品
  6
Continuous
 62
     3
100
AcDbPolyline
 90
        2
 70
     0
 43
0.0
 10
3785.855839298307
 20
-559.4933179614291
 10
3785.855839298307
 20
-550.7421599614291
  0
LWPOLYLINE
  5
A8BE
330
1E
100
AcDbEntity
  8
躯体と製品
  6
Continuous
 62
     3
100
AcDbPolyline
 90
        2
 70
     0
 43
0.0
 10
3785.855839298307
 20
-550.7421599614291
 10
3785.855839298307
 20
-559.4933179614291
  0
LWPOLYLINE
  5
A8BF
330
1E
100
AcDbEntity
  8
躯体と製品
  6
Continuous
 62
     3
100
AcDbPolyline
 90
        2
 70
     0
 43
0.0
 10
3799.055839298319
 20
-552.1177389614291
 10
3799.055839298319
 20
-558.1177389614291
  0
LWPOLYLINE
  5
A8C0
330
1E
100
AcDbEntity
  8
躯体と製品
  6
Continuous
 62
     3
100
AcDbPolyline
 90
        2
 70
     0
 43
0.0
 10
3778.055839298319
 20
-552.1177389614291
 10
3777.55577329832
 20
-552.6178049614292
  0
LWPOLYLINE
  5
A8C1
330
1E
100
AcDbEntity
  8
躯体と製品
  6
Continuous
 62
     3
100
AcDbPolyline
 90
        2
 70
     0
 43
0.0
 10
3778.055839298319
 20
-558.1177389614291
 10
3777.55577329832
 20
-557.6176729614291
  0
LWPOLYLINE
  5
A8C2
330
1E
100
AcDbEntity
  8
躯体と製品
  6
Continuous
 62
     3
100
AcDbPolyline
 90
        2
 70
     0
 43
0.0
 10
3778.055839298319
 20
-558.1177389614291
 10
3778.055839298319
 20
-552.1177389614291
  0
LWPOLYLINE
  5
A8C3
330
1E
100
AcDbEntity
  8
躯体と製品
  6
Continuous
 62
     3
100
AcDbPolyline
 90
        2
 70
     0
 43
0.0
 10
3782.655839298325
 20
-558.1177389614291
 10
3778.055839298319
 20
-558.1177389614291
  0
LWPOLYLINE
  5
A8C4
330
1E
100
AcDbEntity
  8
躯体と製品
  6
Continuous
 62
     3
100
AcDbPolyline
 90
        2
 70
     0
 43
0.0
 10
3782.655839298325
 20
-552.1177389614291
 10
3778.055839298319
 20
-552.1177389614291
  0
LWPOLYLINE
  5
A8C5
330
1E
100
AcDbEntity
  8
躯体と製品
  6
Continuous
 62
     3
100
AcDbPolyline
 90
        2
 70
     0
 43
0.0
 10
3727.055839298319
 20
-549.8670449614292
 10
3726.05570729832
 20
-549.8670449614292
  0
LWPOLYLINE
  5
A8C6
330
1E
100
AcDbEntity
  8
躯体と製品
  6
Continuous
 62
     3
100
AcDbPolyline
 90
        2
 70
     0
 43
0.0
 10
3726.05570729832
 20
-549.8670429614291
 42
0.4142135623730951
 10
3723.055309298319
 20
-552.8674409614291
  0
LWPOLYLINE
  5
A8C7
330
1E
100
AcDbEntity
  8
躯体と製品
  6
Continuous
 62
     3
100
AcDbPolyline
 90
        2
 70
     0
 43
0.0
 10
3723.055309298319
 20
-557.3680369614292
 42
0.35641423883988
 10
3725.455839298315
 20
-560.3078577962715
  0
LWPOLYLINE
  5
A8C8
330
1E
100
AcDbEntity
  8
躯体と製品
  6
Continuous
 62
     3
100
AcDbPolyline
 90
        2
 70
     0
 43
0.0
 10
3723.055309298319
 20
-552.8674409614291
 10
3723.055309298319
 20
-557.3680369614292
  0
LWPOLYLINE
  5
A8C9
330
1E
100
AcDbEntity
  8
躯体と製品
  6
Continuous
 62
     3
100
AcDbPolyline
 90
        2
 70
     0
 43
0.0
 10
3782.655839298325
 20
-557.6176729614291
 10
3728.65625769727
 20
-557.6176729614291
  0
LWPOLYLINE
  5
A8CA
330
1E
100
AcDbEntity
  8
躯体と製品
  6
Continuous
 62
     3
100
AcDbPolyline
 90
        2
 70
     0
 43
0.0
 10
3782.655839298325
 20
-552.6178049614292
 10
3728.656086204242
 20
-552.6178049614292
  0
LWPOLYLINE
  5
A8CB
330
1E
100
AcDbEntity
  8
躯体と製品
  6
Continuous
 62
     3
100
AcDbPolyline
 90
        2
 70
     0
 43
0.0
 10
3847.252929240934
 20
-772.9348569614292
 10
3869.070047240933
 20
-751.1177389614292
  0
LWPOLYLINE
  5
A8CC
330
1E
100
AcDbEntity
  8
躯体と製品
  6
Continuous
 62
     3
100
AcDbPolyline
 90
        2
 70
     0
 43
0.0
 10
3833.110793240933
 20
-772.9348569614292
 10
3854.927911240933
 20
-751.1177389614292
  0
LWPOLYLINE
  5
A8CD
330
1E
100
AcDbEntity
  8
躯体と製品
  6
Continuous
 62
     3
100
AcDbPolyline
 90
        2
 70
     0
 43
0.0
 10
3861.395065240933
 20
-772.9348569614292
 10
3883.212181240933
 20
-751.1177389614292
  0
LWPOLYLINE
  5
A8CE
330
1E
100
AcDbEntity
  8
躯体と製品
  6
Continuous
 62
     3
100
AcDbPolyline
 90
        2
 70
     0
 43
0.0
 10
3634.615775240933
 20
-773.0680569614292
 10
3656.566093240932
 20
-751.1177389614292
  0
LWPOLYLINE
  5
A8CF
330
1E
100
AcDbEntity
  8
躯体と製品
  6
Continuous
 62
     3
100
AcDbPolyline
 90
        2
 70
     0
 43
0.0
 10
3648.757911240934
 20
-773.0680569614292
 10
3670.708229240933
 20
-751.1177389614292
  0
LWPOLYLINE
  5
A8D0
330
1E
100
AcDbEntity
  8
躯体と製品
  6
Continuous
 62
     3
100
AcDbPolyline
 90
        2
 70
     0
 43
0.0
 10
3620.473641240933
 20
-773.0680569614292
 10
3642.423957240932
 20
-751.1177389614292
  0
LWPOLYLINE
  5
A8D1
330
1E
100
AcDbEntity
  8
躯体と製品
  6
Continuous
 62
     4
100
AcDbPolyline
 90
        2
 70
     0
 43
0.0
 10
3605.834339240932
 20
-751.1177389614292
 10
3905.834339240932
 20
-751.1177389614292
  0
TEXT
  5
AC68
330
1E
100
AcDbEntity
  8
文字-記号
  6
Continuous
 62
     7
100
AcDbText
 10
3811.855717770487
 20
-639.8309907679713
 30
0.0
 40
6.205583999999999
  1
ダンピングクッション付
 41
1.007498246740355
100
AcDbText
  0
LWPOLYLINE
  5
AC69
330
1E
100
AcDbEntity
  8
文字-記号
  6
Continuous
 62
     7
100
AcDbPolyline
 90
        3
 70
     0
 43
0.0
 10
3791.044993342165
 20
-674.8618468822164
 10
3809.814075616038
 20
-642.3528427724281
 10
3897.266723585988
 20
-642.3528427724281
  0
TEXT
  5
AC6A
330
1E
100
AcDbEntity
  8
文字-記号
  6
Continuous
 62
     7
100
AcDbText
 10
4226.546309703994
 20
-639.8309907679713
 30
0.0
 40
6.205583999999999
  1
ダンピングクッション付
 41
1.007498246740355
100
AcDbText
  0
LWPOLYLINE
  5
AC6B
330
1E
100
AcDbEntity
  8
文字-記号
  6
Continuous
 62
     7
100
AcDbPolyline
 90
        3
 70
     0
 43
0.0
 10
4205.735585275673
 20
-674.8618468822164
 10
4224.504667549545
 20
-642.3528427724281
 10
4311.957315519495
 20
-642.3528427724281
  0
TEXT
  5
ADE5
330
1E
100
AcDbEntity
  8
文字-記号
  6
Continuous
 62
     3
100
AcDbText
 10
3606.684625046123
 20
-435.0613063674652
 30
0.0
 40
12.999999999999
  1
■スリーベースＳＳ１０－１０：高遮音鋼製床下地システム（体育館・剣道場：低床用）
  7
ACAD
100
AcDbText
  0
ENDSEC
  0
SECTION
  2
OBJECTS
  0
DICTIONARY
  5
C
330
0
100
AcDbDictionary
281
     1
  3
ACAD_CIP_PREVIOUS_PRODUCT_INFO
350
65B7
  3
ACAD_COLOR
350
659B
  3
ACAD_GROUP
350
D
  3
ACAD_LAYOUT
350
19
  3
ACAD_MATERIAL
350
6569
  3
ACAD_MLEADERSTYLE
350
65B0
  3
ACAD_MLINESTYLE
350
16
  3
ACAD_PLOTSETTINGS
350
18
  3
ACAD_PLOTSTYLENAME
350
E
  3
ACAD_SCALELIST
350
659E
  3
ACAD_TABLESTYLE
350
659C
  3
ACAD_VISUALSTYLE
350
6582
  3
ACDB_RECOMPOSE_DATA
350
B122
  3
AcDbVariableDictionary
350
169
  3
AEC_PROPERTY_SET_DEFS
350
6710
  0
DICTIONARY
  5
AAF4
330
8
100
AcDbDictionary
280
     1
281
     1
  0
DICTIONARY
  5
175
330
2
100
AcDbDictionary
280
     1
281
     1
  3
ACAD_LAYERFILTERS
360
185
  3
ACAD_LAYERSTATES
360
176
  0
DICTIONARY
  5
79A2
330
10
100
AcDbDictionary
280
     1
281
     1
  3
ADSK_XREC_LAYER_RECONCILED
360
79A3
  0
DICTIONARY
  5
79A4
330
178
100
AcDbDictionary
280
     1
281
     1
  3
ADSK_XREC_LAYER_RECONCILED
360
79A5
  0
DICTIONARY
  5
79A6
330
179
100
AcDbDictionary
280
     1
281
     1
  3
ADSK_XREC_LAYER_RECONCILED
360
79A7
  0
DICTIONARY
  5
79A8
330
4F62
100
AcDbDictionary
280
     1
281
     1
  3
ADSK_XREC_LAYER_RECONCILED
360
79A9
  0
DICTIONARY
  5
28B
330
1E
100
AcDbDictionary
280
     1
281
     1
  3
ACAD_LAYOUTSELFREF
360
5C3B
  3
ACAD_SORTENTS
360
7CE6
  0
DICTIONARY
  5
28D
330
1A
100
AcDbDictionary
280
     1
281
     1
  3
ACAD_LAYOUTSELFREF
360
5C3A
  0
XRECORD
  5
65B7
102
{ACAD_REACTORS
330
C
102
}
330
C
100
AcDbXrecord
280
     1
300
ACD
300
2012
300
ACD_F_S
  0
DICTIONARY
  5
659B
102
{ACAD_REACTORS
330
C
102
}
330
C
100
AcDbDictionary
281
     1
  0
DICTIONARY
  5
D
102
{ACAD_REACTORS
330
C
102
}
330
C
100
AcDbDictionary
281
     1
  0
DICTIONARY
  5
19
102
{ACAD_REACTORS
330
C
102
}
330
C
100
AcDbDictionary
281
     1
  3
Model
350
21
  3
ﾚｲｱｳﾄ1
350
1D
  0
DICTIONARY
  5
6569
102
{ACAD_REACTORS
330
C
102
}
330
C
100
AcDbDictionary
281
     1
  3
ByBlock
350
6572
  3
ByLayer
350
656A
  3
Global
350
657A
  0
DICTIONARY
  5
65B0
102
{ACAD_REACTORS
330
C
102
}
330
C
100
AcDbDictionary
281
     1
  3
Standard
350
65B1
  0
DICTIONARY
  5
16
102
{ACAD_REACTORS
330
C
102
}
330
C
100
AcDbDictionary
281
     1
  3
Standard
350
17
  0
DICTIONARY
  5
18
102
{ACAD_REACTORS
330
C
102
}
330
C
100
AcDbDictionary
281
     1
  0
ACDBDICTIONARYWDFLT
  5
E
102
{ACAD_REACTORS
330
C
102
}
330
C
100
AcDbDictionary
281
     1
  3
Normal
350
F
100
AcDbDictionaryWithDefault
340
F
  0
DICTIONARY
  5
659E
102
{ACAD_REACTORS
330
C
102
}
330
C
100
AcDbDictionary
281
     1
  3
A0
350
659F
  3
A1
350
65A0
  3
A2
350
65A1
  3
A3
350
65A2
  3
A4
350
65A3
  3
A5
350
65A4
  3
A6
350
65A5
  3
A7
350
65A6
  3
A8
350
65A7
  3
A9
350
65A8
  3
B0
350
65A9
  3
B1
350
65AA
  3
B2
350
65AB
  3
B3
350
65AC
  3
B4
350
65AD
  3
B5
350
65AE
  3
B6
350
65AF
  0
DICTIONARY
  5
659C
102
{ACAD_REACTORS
330
C
102
}
330
C
100
AcDbDictionary
281
     1
  3
Standard
350
659D
  0
DICTIONARY
  5
6582
102
{ACAD_REACTORS
330
C
102
}
330
C
100
AcDbDictionary
281
     1
  3
2dWireframe
350
6588
  3
Basic
350
6587
  3
Brighten
350
658E
  3
ColorChange
350
6592
  3
Conceptual
350
658B
  3
Dim
350
658D
  3
EdgeColorOff
350
659A
  3
Facepattern
350
6591
  3
Flat
350
6583
  3
FlatWithEdges
350
6584
  3
Gouraud
350
6585
  3
GouraudWithEdges
350
6586
  3
Hidden
350
658A
  3
JitterOff
350
6598
  3
Linepattern
350
6590
  3
OverhangOff
350
6599
  3
Realistic
350
658C
  3
Shaded
350
6597
  3
Shaded with edges
350
6596
  3
Shades of Gray
350
6593
  3
Sketchy
350
6594
  3
Thicken
350
658F
  3
Wireframe
350
6589
  3
X-Ray
350
6595
  0
XRECORD
  5
B122
102
{ACAD_REACTORS
330
C
102
}
330
C
100
AcDbXrecord
280
     1
 90
        1
330
659D
  0
DICTIONARY
  5
169
102
{ACAD_REACTORS
330
C
102
}
330
C
100
AcDbDictionary
281
     1
  3
CANNOSCALE
350
99EA
  3
CMLEADERSTYLE
350
99E8
  3
CTABLESTYLE
350
99E7
  3
DIMASSOC
350
16A
  3
LAYEREVAL
350
99EC
  3
LAYERNOTIFY
350
99ED
  3
LIGHTINGUNITS
350
99EB
  3
MSLTSCALE
350
99E9
  3
XCLIPFRAME
350
B11E
  0
DICTIONARY
  5
6710
102
{ACAD_REACTORS
330
C
102
}
330
C
100
AcDbDictionary
281
     1
  0
DICTIONARY
  5
185
102
{ACAD_REACTORS
330
175
102
}
330
175
100
AcDbDictionary
280
     1
281
     1
  0
DICTIONARY
  5
176
102
{ACAD_REACTORS
330
175
102
}
330
175
100
AcDbDictionary
281
     1
  3
ACAD
350
177
  0
XRECORD
  5
79A3
102
{ACAD_REACTORS
330
79A2
102
}
330
79A2
100
AcDbXrecord
280
     1
290
     1
  0
XRECORD
  5
79A5
102
{ACAD_REACTORS
330
79A4
102
}
330
79A4
100
AcDbXrecord
280
     1
290
     1
  0
XRECORD
  5
79A7
102
{ACAD_REACTORS
330
79A6
102
}
330
79A6
100
AcDbXrecord
280
     1
290
     1
  0
XRECORD
  5
79A9
102
{ACAD_REACTORS
330
79A8
102
}
330
79A8
100
AcDbXrecord
280
     1
290
     1
  0
XRECORD
  5
5C3B
102
{ACAD_REACTORS
330
28B
102
}
330
28B
100
AcDbXrecord
280
     1
340
1E
  0
SORTENTSTABLE
  5
7CE6
102
{ACAD_REACTORS
330
28B
102
}
330
28B
100
AcDbSortentsTable
330
1E
331
A631
  5
A942
331
7F03
  5
A648
331
7E94
  5
A623
331
7DFD
  5
A1BB
331
A895
  5
8256
331
A85E
  5
98A3
331
A89D
  5
8249
331
A866
  5
828E
331
A6E7
  5
A96D
331
A8A5
  5
823E
331
A86E
  5
8284
331
A8AD
  5
8236
331
A876
  5
827C
331
7EA4
  5
A62E
331
7E05
  5
A602
331
7F5B
  5
A650
331
7EAC
  5
A634
331
7E0D
  5
A60A
331
7E15
  5
A612
331
7E1D
  5
A61A
331
7DE6
  5
9A6E
331
A8B5
  5
822E
331
A87E
  5
8272
331
A83F
  5
A64C
331
A8BD
  5
8203
331
A886
  5
8269
331
A847
  5
A642
331
A8C5
  5
81A3
331
A88E
  5
825F
331
A84F
  5
9A2E
331
A8CD
  5
8137
331
A857
  5
99C2
331
A622
  5
A933
331
7F73
  5
A627
331
7DEE
  5
9A78
331
A62A
  5
A93B
331
7DF6
  5
9A8E
331
A632
  5
A943
331
7F04
  5
A649
331
7E95
  5
A624
331
7DFE
  5
A1D4
331
7D7F
  5
824D
331
7E9D
  5
A628
331
A896
  5
8255
331
A85F
  5
988A
331
A89E
  5
8248
331
A867
  5
828D
331
A6E8
  5
A96E
331
A8A6
  5
823D
331
A86F
  5
8283
331
A728
  5
A8D2
331
A8AE
  5
8235
331
A877
  5
827B
331
7EA5
  5
A62F
331
7E06
  5
A603
331
7EAD
  5
A635
331
7E0E
  5
A60B
331
7E16
  5
A613
331
7DDF
  5
9A34
331
7F6C
  5
A63B
331
7E1E
  5
A61B
331
7DE7
  5
9A6F
331
A8B6
  5
822D
331
A87F
  5
8271
331
A840
  5
A64B
331
A8BE
  5
8202
331
A887
  5
8266
331
A848
  5
A641
331
A8C6
  5
81A2
331
A88F
  5
825D
331
A850
  5
9A2D
331
A8CE
  5
8134
331
A623
  5
A934
331
7DEF
  5
9A81
331
A62B
  5
A93C
331
7EF5
  5
A63E
331
7DF7
  5
9A8F
331
A633
  5
A944
331
7DFF
  5
A25A
331
7D80
  5
824E
331
9A24
  5
A8D3
331
7E9E
  5
A629
331
A858
  5
99C1
331
A897
  5
8254
331
A860
  5
9889
331
A89F
  5
8245
331
A868
  5
828C
331
A6E9
  5
A96F
331
A8A7
  5
823C
331
A870
  5
8282
331
A729
  5
A8D1
331
A8AF
  5
8234
331
7EA6
  5
A630
331
7E07
  5
A604
331
7EAE
  5
A636
331
7E0F
  5
A60C
331
A2AC
  5
A90F
331
7E17
  5
A614
331
7DE0
  5
9A35
331
A61C
  5
A92D
331
7E1F
  5
A61C
331
A878
  5
827A
331
A8B7
  5
822C
331
A880
  5
8270
331
A841
  5
A64A
331
A8BF
  5
81DD
331
A888
  5
8265
331
A849
  5
A640
331
A8C7
  5
819B
331
A851
  5
9A2C
331
A8CF
  5
8133
331
7DE8
  5
9A70
331
A624
  5
A935
331
7DF0
  5
9A82
331
A62C
  5
A93D
331
7EF6
  5
A63F
331
7E8F
  5
A61E
331
7DF8
  5
9A90
331
A634
  5
A945
331
7D81
  5
824F
331
9A25
  5
A8D4
331
7E9F
  5
A62A
331
A890
  5
825B
331
A859
  5
98AE
331
A898
  5
8253
331
A861
  5
9888
331
A8A0
  5
8243
331
A869
  5
828B
331
A6EA
  5
A970
331
A8A8
  5
823B
331
A871
  5
8281
331
7E00
  5
A28C
331
7DA9
  5
8276
331
7E08
  5
A605
331
7DB9
  5
8285
331
7EAF
  5
A637
331
7E10
  5
A60D
331
7F66
  5
A626
331
7E18
  5
A615
331
7DE1
  5
9A36
331
A61D
  5
A92E
331
A8B0
  5
8233
331
A879
  5
8279
331
A8B8
  5
822B
331
A881
  5
826F
331
A842
  5
A647
331
A8C0
  5
81DC
331
A889
  5
8264
331
A84A
  5
9A33
331
A8C8
  5
8149
331
A852
  5
9A2B
331
7DE9
  5
9A71
331
A625
  5
A936
331
7DF1
  5
9A87
331
A62D
  5
A93E
331
7E90
  5
A61F
331
7DF9
  5
9A91
331
A635
  5
A946
331
A8D0
  5
8132
331
A891
  5
825A
331
A85A
  5
98A7
331
A899
  5
8252
331
A862
  5
82BC
331
A8A1
  5
8242
331
A86A
  5
828A
331
A8A9
  5
823A
331
A872
  5
8280
331
7EA0
  5
A62B
331
7E01
  5
A2AC
331
7EA8
  5
A631
331
7E09
  5
A606
331
7DBA
  5
8286
331
7F5F
  5
A651
331
7E11
  5
A60E
331
7F67
  5
A625
331
7E19
  5
A616
331
7DE2
  5
9A68
331
A61E
  5
A92F
331
A8B1
  5
8232
331
A87A
  5
8278
331
A8B9
  5
8223
331
A882
  5
826E
331
A843
  5
A646
331
A8C1
  5
81CE
331
A88A
  5
8263
331
A84B
  5
9A32
331
A8C9
  5
8148
331
A853
  5
99C9
331
7DEA
  5
9A72
331
A626
  5
A937
331
7DF2
  5
9A88
331
A62E
  5
A93F
331
7E91
  5
A620
331
7DFA
  5
9A92
331
A636
  5
A947
331
A8D1
  5
8131
331
A892
  5
8259
331
A85B
  5
98A6
331
A89A
  5
824C
331
A863
  5
82BB
331
A8A2
  5
8241
331
A86B
  5
8289
331
A8AA
  5
8239
331
A873
  5
827F
331
7EA1
  5
A62C
331
7E02
  5
A2CC
331
7DAB
  5
8277
331
7E0A
  5
A607
331
7EB1
  5
A638
331
7E12
  5
A60F
331
7F68
  5
A63D
331
7E1A
  5
A617
331
7DE3
  5
9A6B
331
A61F
  5
A930
331
A8B2
  5
8231
331
A87B
  5
8275
331
A8BA
  5
8206
331
A883
  5
826D
331
A844
  5
A645
331
A8C2
  5
81CD
331
A88B
  5
8262
331
A84C
  5
9A31
331
A8CA
  5
8147
331
A854
  5
99C8
331
7F70
  5
A633
331
7DEB
  5
9A75
331
A627
  5
A938
331
7DF3
  5
9A8B
331
A62F
  5
A940
331
7E92
  5
A621
331
7DFB
  5
9A93
331
A637
  5
A948
331
9A20
  5
A8CF
331
A893
  5
8258
331
A85C
  5
98A5
331
A89B
  5
824B
331
A864
  5
8290
331
A8A3
  5
8240
331
A86C
  5
8288
331
A8AB
  5
8238
331
A874
  5
827E
331
7F51
  5
A64E
331
7E03
  5
A600
331
7E0B
  5
A608
331
7F61
  5
A63A
331
7EB2
  5
A639
331
7E13
  5
A610
331
7E1B
  5
A618
331
7DE4
  5
9A6C
331
A8B3
  5
8230
331
A87C
  5
8274
331
A8BB
  5
8205
331
A884
  5
826B
331
A845
  5
A644
331
A8C3
  5
81CC
331
A88C
  5
8261
331
A84D
  5
9A30
331
A8CB
  5
8145
331
A855
  5
99C7
331
A620
  5
A931
331
7F71
  5
A632
331
7E73
  5
A61D
331
7DEC
  5
9A76
331
A628
  5
A939
331
7DF4
  5
9A8C
331
A630
  5
A941
331
7E93
  5
A622
331
7DFC
  5
9A94
331
9A21
  5
A8D0
331
A894
  5
8257
331
A85D
  5
98A4
331
A89C
  5
824A
331
A865
  5
828F
331
A8A4
  5
823F
331
A86D
  5
8287
331
A8AC
  5
8237
331
A875
  5
827D
331
7F52
  5
A64F
331
7EA3
  5
A62D
331
7E04
  5
A601
331
7E0C
  5
A609
331
7E14
  5
A611
331
7F6A
  5
A63C
331
7E1C
  5
A619
331
7DE5
  5
9A6D
331
A8B4
  5
822F
331
A87D
  5
8273
331
A83E
  5
A64D
331
A8BC
  5
8204
331
A885
  5
826A
331
A846
  5
A643
331
A8C4
  5
81A4
331
A88D
  5
8260
331
A84E
  5
9A2F
331
A8CC
  5
8144
331
A856
  5
99C3
331
A621
  5
A932
331
7DED
  5
9A77
331
A629
  5
A93A
331
7DF5
  5
9A8D
  0
XRECORD
  5
5C3A
102
{ACAD_REACTORS
330
28D
102
}
330
28D
100
AcDbXrecord
280
     1
340
1A
  0
LAYOUT
  5
21
102
{ACAD_XDICTIONARY
360
79B1
102
}
102
{ACAD_REACTORS
330
19
102
}
330
19
100
AcDbPlotSettings
  1

  2
none_device
  4
Letter_(8.50_x_11.00_Inches)
  6

 40
6.349999904632568
 41
6.349999904632568
 42
6.350006103515625
 43
6.350006103515625
 44
215.8999938964844
 45
279.3999938964844
 46
0.0
 47
0.0
 48
0.0
 49
0.0
140
0.0
141
0.0
142
1.0
143
232.2932172438697
 70
 11952
 72
     0
 73
     1
 74
     0
  7
monochrome.ctb
 75
     0
147
0.0043049039996298
 76
     0
 77
     2
 78
   300
148
-91459.72138461631
149
12723.42292869828
100
AcDbLayout
  1
Model
 70
     1
 71
     0
 10
0.0
 20
0.0
 11
12.0
 21
9.0
 12
0.0
 22
0.0
 32
0.0
 14
0.0
 24
0.0
 34
0.0
 15
0.0
 25
0.0
 35
0.0
146
0.0
 13
0.0
 23
0.0
 33
0.0
 16
1.0
 26
0.0
 36
0.0
 17
0.0
 27
1.0
 37
0.0
 76
     0
330
1E
331
6567
1001
ACAD_PSEXT
1000
なし
1000
なし
1000
適切ではありません
1000
新しいプロッタ環境設定名を選択しない限り、レイアウトは印刷されません。
1070
     0
  0
LAYOUT
  5
1D
102
{ACAD_REACTORS
330
19
102
}
330
19
100
AcDbPlotSettings
  1

  2
\\MEISEI-1\EPSON Stylus Photo EX3
  4

  6

 40
0.0
 41
0.0
 42
0.0
 43
0.0
 44
0.0
 45
0.0
 46
0.0
 47
0.0
 48
0.0
 49
0.0
140
0.0
141
0.0
142
1.0
143
1.0
 70
   688
 72
     0
 73
     0
 74
     5
  7
monochrome.ctb
 75
    16
147
1.0
 76
     0
 77
     2
 78
   300
148
0.0
149
0.0
100
AcDbLayout
  1
ﾚｲｱｳﾄ1
 70
     1
 71
     1
 10
0.0
 20
0.0
 11
12.0
 21
9.0
 12
0.0
 22
0.0
 32
0.0
 14
1.000000000000000E+20
 24
1.000000000000000E+20
 34
1.000000000000000E+20
 15
-1.000000000000000E+20
 25
-1.000000000000000E+20
 35
-1.000000000000000E+20
146
0.0
 13
0.0
 23
0.0
 33
0.0
 16
1.0
 26
0.0
 36
0.0
 17
0.0
 27
1.0
 37
0.0
 76
     0
330
1A
  0
MATERIAL
  5
6572
102
{ACAD_XDICTIONARY
360
6573
102
}
102
{ACAD_REACTORS
330
6569
102
}
330
6569
100
AcDbMaterial
  1
ByBlock
 72
     0
 43
0.0208333333333333
 43
0.0
 43
0.0
 43
0.0
 43
0.0
 43
0.0208333333333333
 43
0.0
 43
0.0
 43
0.0
 43
0.0
 43
1.0
 43
0.0
 43
0.0
 43
0.0
 43
0.0
 43
1.0
 77
     0
 47
0.0208333333333333
 47
0.0
 47
0.0
 47
0.0
 47
0.0
 47
0.0208333333333333
 47
0.0
 47
0.0
 47
0.0
 47
0.0
 47
1.0
 47
0.0
 47
0.0
 47
0.0
 47
0.0
 47
1.0
171
     0
 49
0.0208333333333333
 49
0.0
 49
0.0
 49
0.0
 49
0.0
 49
0.0208333333333333
 49
0.0
 49
0.0
 49
0.0
 49
0.0
 49
1.0
 49
0.0
 49
0.0
 49
0.0
 49
0.0
 49
1.0
175
     0
142
0.0208333333333333
142
0.0
142
0.0
142
0.0
142
0.0
142
0.0208333333333333
142
0.0
142
0.0
142
0.0
142
0.0
142
1.0
142
0.0
142
0.0
142
0.0
142
0.0
142
1.0
179
     0
144
0.0208333333333333
144
0.0
144
0.0
144
0.0
144
0.0
144
0.0208333333333333
144
0.0
144
0.0
144
0.0
144
0.0
144
1.0
144
0.0
144
0.0
144
0.0
144
0.0
144
1.0
147
0.0208333333333333
147
0.0
147
0.0
147
0.0
147
0.0
147
0.0208333333333333
147
0.0
147
0.0
147
0.0
147
0.0
147
1.0
147
0.0
147
0.0
147
0.0
147
0.0
147
1.0
  0
MATERIAL
  5
656A
102
{ACAD_XDICTIONARY
360
656B
102
}
102
{ACAD_REACTORS
330
6569
102
}
330
6569
100
AcDbMaterial
  1
ByLayer
 72
     0
 43
0.0208333333333333
 43
0.0
 43
0.0
 43
0.0
 43
0.0
 43
0.0208333333333333
 43
0.0
 43
0.0
 43
0.0
 43
0.0
 43
1.0
 43
0.0
 43
0.0
 43
0.0
 43
0.0
 43
1.0
 77
     0
 47
0.0208333333333333
 47
0.0
 47
0.0
 47
0.0
 47
0.0
 47
0.0208333333333333
 47
0.0
 47
0.0
 47
0.0
 47
0.0
 47
1.0
 47
0.0
 47
0.0
 47
0.0
 47
0.0
 47
1.0
171
     0
 49
0.0208333333333333
 49
0.0
 49
0.0
 49
0.0
 49
0.0
 49
0.0208333333333333
 49
0.0
 49
0.0
 49
0.0
 49
0.0
 49
1.0
 49
0.0
 49
0.0
 49
0.0
 49
0.0
 49
1.0
175
     0
142
0.0208333333333333
142
0.0
142
0.0
142
0.0
142
0.0
142
0.0208333333333333
142
0.0
142
0.0
142
0.0
142
0.0
142
1.0
142
0.0
142
0.0
142
0.0
142
0.0
142
1.0
179
     0
144
0.0208333333333333
144
0.0
144
0.0
144
0.0
144
0.0
144
0.0208333333333333
144
0.0
144
0.0
144
0.0
144
0.0
144
1.0
144
0.0
144
0.0
144
0.0
144
0.0
144
1.0
147
0.0208333333333333
147
0.0
147
0.0
147
0.0
147
0.0
147
0.0208333333333333
147
0.0
147
0.0
147
0.0
147
0.0
147
1.0
147
0.0
147
0.0
147
0.0
147
0.0
147
1.0
  0
MATERIAL
  5
657A
102
{ACAD_XDICTIONARY
360
657B
102
}
102
{ACAD_REACTORS
330
6569
102
}
330
6569
100
AcDbMaterial
  1
Global
 72
     0
 43
0.0208333333333333
 43
0.0
 43
0.0
 43
0.0
 43
0.0
 43
0.0208333333333333
 43
0.0
 43
0.0
 43
0.0
 43
0.0
 43
1.0
 43
0.0
 43
0.0
 43
0.0
 43
0.0
 43
1.0
 77
     0
 47
0.0208333333333333
 47
0.0
 47
0.0
 47
0.0
 47
0.0
 47
0.0208333333333333
 47
0.0
 47
0.0
 47
0.0
 47
0.0
 47
1.0
 47
0.0
 47
0.0
 47
0.0
 47
0.0
 47
1.0
171
     0
 49
0.0208333333333333
 49
0.0
 49
0.0
 49
0.0
 49
0.0
 49
0.0208333333333333
 49
0.0
 49
0.0
 49
0.0
 49
0.0
 49
1.0
 49
0.0
 49
0.0
 49
0.0
 49
0.0
 49
1.0
175
     0
142
0.0208333333333333
142
0.0
142
0.0
142
0.0
142
0.0
142
0.0208333333333333
142
0.0
142
0.0
142
0.0
142
0.0
142
1.0
142
0.0
142
0.0
142
0.0
142
0.0
142
1.0
179
     0
144
0.0208333333333333
144
0.0
144
0.0
144
0.0
144
0.0
144
0.0208333333333333
144
0.0
144
0.0
144
0.0
144
0.0
144
1.0
144
0.0
144
0.0
144
0.0
144
0.0
144
1.0
147
0.0208333333333333
147
0.0
147
0.0
147
0.0
147
0.0
147
0.0208333333333333
147
0.0
147
0.0
147
0.0
147
0.0
147
1.0
147
0.0
147
0.0
147
0.0
147
0.0
147
1.0
  0
MLEADERSTYLE
  5
65B1
102
{ACAD_XDICTIONARY
360
B120
102
}
102
{ACAD_REACTORS
330
65B0
102
}
330
65B0
100
AcDbMLeaderStyle
170
     2
171
     1
172
     0
 90
        2
 40
0.0
 41
0.0
173
     1
 91
-1056964608
340
13
 92
       -2
290
     1
 42
0.09
291
     1
 43
0.36
  3
Standard
 44
0.18
300

342
11
174
     1
178
     6
175
     1
176
     0
 93
-1056964608
 45
0.18
292
     0
297
     0
 46
0.18
 94
-1056964608
 47
1.0
 49
1.0
140
1.0
293
     1
141
0.0
294
     1
177
     0
142
1.0
295
     0
296
     0
143
0.125
1001
ACAD_MLEADERVER
1070
     2
  0
MLINESTYLE
  5
17
102
{ACAD_REACTORS
330
16
102
}
330
16
100
AcDbMlineStyle
  2
STANDARD
 70
     0
  3

 62
   256
 51
90.0
 52
90.0
 71
     2
 49
0.5
 62
   256
  6
BYLAYER
 49
-0.5
 62
   256
  6
BYLAYER
  0
ACDBPLACEHOLDER
  5
F
102
{ACAD_REACTORS
330
E
102
}
330
E
  0
SCALE
  5
659F
102
{ACAD_REACTORS
330
659E
102
}
330
659E
100
AcDbScale
 70
     0
300
1:1
140
1.0
141
1.0
290
     1
  0
SCALE
  5
65A0
102
{ACAD_REACTORS
330
659E
102
}
330
659E
100
AcDbScale
 70
     0
300
1/128" = 1'-0"
140
0.0078125
141
12.0
290
     0
  0
SCALE
  5
65A1
102
{ACAD_REACTORS
330
659E
102
}
330
659E
100
AcDbScale
 70
     0
300
1/64" = 1'-0"
140
0.015625
141
12.0
290
     0
  0
SCALE
  5
65A2
102
{ACAD_REACTORS
330
659E
102
}
330
659E
100
AcDbScale
 70
     0
300
1/32" = 1'-0"
140
0.03125
141
12.0
290
     0
  0
SCALE
  5
65A3
102
{ACAD_REACTORS
330
659E
102
}
330
659E
100
AcDbScale
 70
     0
300
1/16" = 1'-0"
140
0.0625
141
12.0
290
     0
  0
SCALE
  5
65A4
102
{ACAD_REACTORS
330
659E
102
}
330
659E
100
AcDbScale
 70
     0
300
3/32" = 1'-0"
140
0.09375
141
12.0
290
     0
  0
SCALE
  5
65A5
102
{ACAD_REACTORS
330
659E
102
}
330
659E
100
AcDbScale
 70
     0
300
1/8" = 1'-0"
140
0.125
141
12.0
290
     0
  0
SCALE
  5
65A6
102
{ACAD_REACTORS
330
659E
102
}
330
659E
100
AcDbScale
 70
     0
300
3/16" = 1'-0"
140
0.1875
141
12.0
290
     0
  0
SCALE
  5
65A7
102
{ACAD_REACTORS
330
659E
102
}
330
659E
100
AcDbScale
 70
     0
300
1/4" = 1'-0"
140
0.25
141
12.0
290
     0
  0
SCALE
  5
65A8
102
{ACAD_REACTORS
330
659E
102
}
330
659E
100
AcDbScale
 70
     0
300
3/8" = 1'-0"
140
0.375
141
12.0
290
     0
  0
SCALE
  5
65A9
102
{ACAD_REACTORS
330
659E
102
}
330
659E
100
AcDbScale
 70
     0
300
1/2" = 1'-0"
140
0.5
141
12.0
290
     0
  0
SCALE
  5
65AA
102
{ACAD_REACTORS
330
659E
102
}
330
659E
100
AcDbScale
 70
     0
300
3/4" = 1'-0"
140
0.75
141
12.0
290
     0
  0
SCALE
  5
65AB
102
{ACAD_REACTORS
330
659E
102
}
330
659E
100
AcDbScale
 70
     0
300
1" = 1'-0"
140
1.0
141
12.0
290
     0
  0
SCALE
  5
65AC
102
{ACAD_REACTORS
330
659E
102
}
330
659E
100
AcDbScale
 70
     0
300
1-1/2" = 1'-0"
140
1.5
141
12.0
290
     0
  0
SCALE
  5
65AD
102
{ACAD_REACTORS
330
659E
102
}
330
659E
100
AcDbScale
 70
     0
300
3" = 1'-0"
140
3.0
141
12.0
290
     0
  0
SCALE
  5
65AE
102
{ACAD_REACTORS
330
659E
102
}
330
659E
100
AcDbScale
 70
     0
300
6" = 1'-0"
140
6.0
141
12.0
290
     0
  0
SCALE
  5
65AF
102
{ACAD_REACTORS
330
659E
102
}
330
659E
100
AcDbScale
 70
     0
300
1'-0" = 1'-0"
140
12.0
141
12.0
290
     0
  0
TABLESTYLE
  5
659D
102
{ACAD_XDICTIONARY
360
AAEF
102
}
102
{ACAD_REACTORS
330
659C
102
}
330
659C
100
AcDbTableStyle
  3
Standard
 70
     0
 71
     0
 40
0.06
 41
0.06
280
     0
281
     0
  7
STANDARD
140
0.18
170
     2
 62
     0
 63
     7
283
     0
274
    -2
284
     1
 64
     0
275
    -2
285
     1
 65
     0
276
    -2
286
     1
 66
     0
277
    -2
287
     1
 67
     0
278
    -2
288
     1
 68
     0
279
    -2
289
     1
 69
     0
  7
STANDARD
140
0.25
170
     5
 62
     0
 63
     7
283
     0
274
    -2
284
     1
 64
     0
275
    -2
285
     1
 65
     0
276
    -2
286
     1
 66
     0
277
    -2
287
     1
 67
     0
278
    -2
288
     1
 68
     0
279
    -2
289
     1
 69
     0
  7
STANDARD
140
0.18
170
     5
 62
     0
 63
     7
283
     0
274
    -2
284
     1
 64
     0
275
    -2
285
     1
 65
     0
276
    -2
286
     1
 66
     0
277
    -2
287
     1
 67
     0
278
    -2
288
     1
 68
     0
279
    -2
289
     1
 69
     0
  0
VISUALSTYLE
  5
6588
102
{ACAD_XDICTIONARY
360
B130
102
}
102
{ACAD_REACTORS
330
6582
102
}
330
6582
100
AcDbVisualStyle
  2
2dWireframe
 70
     4
 71
     0
 72
     2
 73
     0
 90
        0
 40
-0.6
 41
-30.0
 62
     5
 63
     7
421
 16777215
 74
     1
 91
        4
 64
     7
 65
   257
 75
     1
175
     1
 42
1.0
 92
        0
 66
   257
 43
1.0
 76
     1
 77
     6
 78
     2
 67
     7
 79
     5
170
     0
171
     0
290
     0
174
     0
 93
        1
 44
0.0
173
     0
291
     0
 45
0.0
1001
ACAD
1000
AcDbSavedByObjectVersion
1070
     0
  0
VISUALSTYLE
  5
6587
102
{ACAD_XDICTIONARY
360
B12E
102
}
102
{ACAD_REACTORS
330
6582
102
}
330
6582
100
AcDbVisualStyle
  2
Basic
 70
     7
 71
     1
 72
     0
 73
     1
 90
        0
 40
-0.6
 41
-30.0
 62
     5
 63
     7
421
 16777215
 74
     0
 91
        4
 64
     7
 65
   257
 75
     1
175
     1
 42
1.0
 92
        8
 66
     7
 43
1.0
 76
     1
 77
     6
 78
     2
 67
     7
 79
     5
170
     0
171
     0
290
     0
174
     0
 93
        1
 44
0.0
173
     0
291
     1
 45
0.0
1001
ACAD
1000
AcDbSavedByObjectVersion
1070
     0
  0
VISUALSTYLE
  5
658E
102
{ACAD_XDICTIONARY
360
B13C
102
}
102
{ACAD_REACTORS
330
6582
102
}
330
6582
100
AcDbVisualStyle
  2
Brighten
 70
    12
 71
     2
 72
     2
 73
     0
 90
        0
 40
-0.6
 41
-30.0
 62
     5
 63
     7
421
 16777215
 74
     1
 91
        4
 64
     7
 65
   257
 75
     1
175
     1
 42
1.0
 92
        8
 66
     7
 43
1.0
 76
     1
 77
     6
 78
     2
 67
     7
 79
     5
170
     0
171
     0
290
     0
174
     0
 93
        1
 44
50.0
173
     0
291
     1
 45
0.0
1001
ACAD
1000
AcDbSavedByObjectVersion
1070
     0
  0
VISUALSTYLE
  5
6592
102
{ACAD_XDICTIONARY
360
B144
102
}
102
{ACAD_REACTORS
330
6582
102
}
330
6582
100
AcDbVisualStyle
  2
ColorChange
 70
    16
 71
     2
 72
     2
 73
     3
 90
        0
 40
-0.6
 41
-30.0
 62
     5
 63
     8
421
  8421504
 74
     1
 91
        4
 64
     7
 65
   257
 75
     1
175
     1
 42
1.0
 92
        8
 66
     8
424
  8421504
 43
1.0
 76
     1
 77
     6
 78
     2
 67
     7
 79
     5
170
     0
171
     0
290
     0
174
     0
 93
        1
 44
0.0
173
     0
291
     1
 45
0.0
1001
ACAD
1000
AcDbSavedByObjectVersion
1070
     0
  0
VISUALSTYLE
  5
658B
102
{ACAD_XDICTIONARY
360
B136
102
}
102
{ACAD_REACTORS
330
6582
102
}
330
6582
100
AcDbVisualStyle
  2
Conceptual
 70
     9
 71
     3
 72
     2
 73
     0
 90
        0
 40
-0.6
 41
-30.0
 62
     5
 63
     7
421
 16777215
 74
     2
 91
        2
 64
     7
 65
   257
 75
     1
175
     1
 42
179.0
 92
        8
 66
     7
 43
1.0
 76
     1
 77
     6
 78
     2
 67
     7
 79
     3
170
     0
171
     0
290
     0
174
     0
 93
        1
 44
0.0
173
     0
291
     0
 45
0.0
1001
ACAD
1000
AcDbSavedByObjectVersion
1070
     0
  0
VISUALSTYLE
  5
658D
102
{ACAD_XDICTIONARY
360
B13A
102
}
102
{ACAD_REACTORS
330
6582
102
}
330
6582
100
AcDbVisualStyle
  2
Dim
 70
    11
 71
     2
 72
     2
 73
     0
 90
        0
 40
-0.6
 41
-30.0
 62
     5
 63
     7
421
 16777215
 74
     1
 91
        4
 64
     7
 65
   257
 75
     1
175
     1
 42
1.0
 92
        8
 66
     7
 43
1.0
 76
     1
 77
     6
 78
     2
 67
     7
 79
     5
170
     0
171
     0
290
     0
174
     0
 93
        1
 44
-50.0
173
     0
291
     1
 45
0.0
1001
ACAD
1000
AcDbSavedByObjectVersion
1070
     0
  0
VISUALSTYLE
  5
659A
102
{ACAD_XDICTIONARY
360
B154
102
}
102
{ACAD_REACTORS
330
6582
102
}
330
6582
100
AcDbVisualStyle
  2
EdgeColorOff
 70
    22
 71
     2
 72
     2
 73
     0
 90
        0
 40
-0.6
 41
-30.0
 62
     5
 63
     7
421
 16777215
 74
     1
 91
        4
 64
     7
 65
   257
 75
     1
175
     1
 42
1.0
 92
        8
 66
     7
 43
1.0
 76
     1
 77
     6
 78
     2
 67
     7
 79
     5
170
     0
171
     0
290
     0
174
     0
 93
        1
 44
0.0
173
     0
291
     1
 45
0.0
1001
ACAD
1000
AcDbSavedByObjectVersion
1070
     0
  0
VISUALSTYLE
  5
6591
102
{ACAD_XDICTIONARY
360
B142
102
}
102
{ACAD_REACTORS
330
6582
102
}
330
6582
100
AcDbVisualStyle
  2
Facepattern
 70
    15
 71
     2
 72
     2
 73
     0
 90
        0
 40
-0.6
 41
-30.0
 62
     5
 63
     7
421
 16777215
 74
     1
 91
        4
 64
     7
 65
   257
 75
     1
175
     1
 42
1.0
 92
        8
 66
     7
 43
1.0
 76
     1
 77
     6
 78
     2
 67
     7
 79
     5
170
     0
171
     0
290
     0
174
     0
 93
        1
 44
0.0
173
     0
291
     1
 45
0.0
1001
ACAD
1000
AcDbSavedByObjectVersion
1070
     0
  0
VISUALSTYLE
  5
6583
102
{ACAD_XDICTIONARY
360
B126
102
}
102
{ACAD_REACTORS
330
6582
102
}
330
6582
100
AcDbVisualStyle
  2
Flat
 70
     0
 71
     2
 72
     1
 73
     1
 90
        2
 40
-0.6
 41
30.0
 62
     5
 63
     7
421
 16777215
 74
     0
 91
        0
 64
     7
 65
   257
 75
     1
175
     1
 42
1.0
 92
        8
 66
     7
 43
1.0
 76
     1
 77
     6
 78
     2
 67
     7
 79
     5
170
     0
171
     0
290
     0
174
     0
 93
       13
 44
0.0
173
     0
291
     1
 45
0.0
1001
ACAD
1000
AcDbSavedByObjectVersion
1070
     0
  0
VISUALSTYLE
  5
6584
102
{ACAD_XDICTIONARY
360
B128
102
}
102
{ACAD_REACTORS
330
6582
102
}
330
6582
100
AcDbVisualStyle
  2
FlatWithEdges
 70
     1
 71
     2
 72
     1
 73
     1
 90
        2
 40
-0.6
 41
30.0
 62
     5
 63
     7
421
 16777215
 74
     1
 91
        0
 64
     7
 65
   257
 75
     1
175
     1
 42
1.0
 92
        0
 66
   257
 43
1.0
 76
     1
 77
     6
 78
     2
 67
     7
 79
     5
170
     0
171
     0
290
     0
174
     0
 93
       13
 44
0.0
173
     0
291
     1
 45
0.0
1001
ACAD
1000
AcDbSavedByObjectVersion
1070
     0
  0
VISUALSTYLE
  5
6585
102
{ACAD_XDICTIONARY
360
B12A
102
}
102
{ACAD_REACTORS
330
6582
102
}
330
6582
100
AcDbVisualStyle
  2
Gouraud
 70
     2
 71
     2
 72
     2
 73
     1
 90
        2
 40
-0.6
 41
30.0
 62
     5
 63
     7
421
 16777215
 74
     0
 91
        0
 64
     7
 65
   257
 75
     1
175
     1
 42
1.0
 92
        0
 66
     7
 43
1.0
 76
     1
 77
     6
 78
     2
 67
     7
 79
     5
170
     0
171
     0
290
     0
174
     0
 93
       13
 44
0.0
173
     0
291
     1
 45
0.0
1001
ACAD
1000
AcDbSavedByObjectVersion
1070
     0
  0
VISUALSTYLE
  5
6586
102
{ACAD_XDICTIONARY
360
B12C
102
}
102
{ACAD_REACTORS
330
6582
102
}
330
6582
100
AcDbVisualStyle
  2
GouraudWithEdges
 70
     3
 71
     2
 72
     2
 73
     1
 90
        2
 40
-0.6
 41
30.0
 62
     5
 63
     7
421
 16777215
 74
     1
 91
        0
 64
     7
 65
   257
 75
     1
175
     1
 42
1.0
 92
        0
 66
   257
 43
1.0
 76
     1
 77
     6
 78
     2
 67
     7
 79
     5
170
     0
171
     0
290
     0
174
     0
 93
       13
 44
0.0
173
     0
291
     1
 45
0.0
1001
ACAD
1000
AcDbSavedByObjectVersion
1070
     0
  0
VISUALSTYLE
  5
658A
102
{ACAD_XDICTIONARY
360
B134
102
}
102
{ACAD_REACTORS
330
6582
102
}
330
6582
100
AcDbVisualStyle
  2
Hidden
 70
     6
 71
     1
 72
     2
 73
     2
 90
        0
 40
-0.6
 41
-30.0
 62
     5
 63
     7
421
 16777215
 74
     2
 91
        2
 64
     7
 65
   257
 75
     2
175
     1
 42
40.0
 92
        0
 66
   257
 43
1.0
 76
     1
 77
     6
 78
     2
 67
     7
 79
     3
170
     0
171
     0
290
     0
174
     0
 93
        1
 44
0.0
173
     0
291
     0
 45
0.0
1001
ACAD
1000
AcDbSavedByObjectVersion
1070
     0
  0
VISUALSTYLE
  5
6598
102
{ACAD_XDICTIONARY
360
B150
102
}
102
{ACAD_REACTORS
330
6582
102
}
330
6582
100
AcDbVisualStyle
  2
JitterOff
 70
    20
 71
     2
 72
     2
 73
     0
 90
        0
 40
-0.6
 41
-30.0
 62
     5
 63
     7
421
 16777215
 74
     1
 91
        4
 64
     7
 65
   257
 75
     1
175
     1
 42
1.0
 92
       10
 66
     7
 43
1.0
 76
     1
 77
     6
 78
     2
 67
     7
 79
     5
170
     0
171
     0
290
     0
174
     0
 93
        1
 44
0.0
173
     0
291
     1
 45
0.0
1001
ACAD
1000
AcDbSavedByObjectVersion
1070
     0
  0
VISUALSTYLE
  5
6590
102
{ACAD_XDICTIONARY
360
B140
102
}
102
{ACAD_REACTORS
330
6582
102
}
330
6582
100
AcDbVisualStyle
  2
Linepattern
 70
    14
 71
     2
 72
     2
 73
     0
 90
        0
 40
-0.6
 41
-30.0
 62
     5
 63
     7
421
 16777215
 74
     1
 91
        4
 64
     7
 65
   257
 75
     7
175
     7
 42
1.0
 92
        8
 66
     7
 43
1.0
 76
     1
 77
     6
 78
     2
 67
     7
 79
     5
170
     0
171
     0
290
     0
174
     0
 93
        1
 44
0.0
173
     0
291
     1
 45
0.0
1001
ACAD
1000
AcDbSavedByObjectVersion
1070
     0
  0
VISUALSTYLE
  5
6599
102
{ACAD_XDICTIONARY
360
B152
102
}
102
{ACAD_REACTORS
330
6582
102
}
330
6582
100
AcDbVisualStyle
  2
OverhangOff
 70
    21
 71
     2
 72
     2
 73
     0
 90
        0
 40
-0.6
 41
-30.0
 62
     5
 63
     7
421
 16777215
 74
     1
 91
        4
 64
     7
 65
   257
 75
     1
175
     1
 42
1.0
 92
        9
 66
     7
 43
1.0
 76
     1
 77
     6
 78
     2
 67
     7
 79
     5
170
     0
171
     0
290
     0
174
     0
 93
        1
 44
0.0
173
     0
291
     1
 45
0.0
1001
ACAD
1000
AcDbSavedByObjectVersion
1070
     0
  0
VISUALSTYLE
  5
658C
102
{ACAD_XDICTIONARY
360
B138
102
}
102
{ACAD_REACTORS
330
6582
102
}
330
6582
100
AcDbVisualStyle
  2
Realistic
 70
     8
 71
     2
 72
     2
 73
     0
 90
        2
 40
-0.6
 41
30.0
 62
     5
 63
     7
421
 16777215
 74
     0
 91
        0
 64
     7
 65
   257
 75
     1
175
     1
 42
1.0
 92
        8
 66
   257
 43
1.0
 76
     1
 77
     6
 78
     2
 67
     7
 79
     3
170
     0
171
     0
290
     0
174
     0
 93
       13
 44
0.0
173
     0
291
     0
 45
0.0
1001
ACAD
1000
AcDbSavedByObjectVersion
1070
     0
  0
VISUALSTYLE
  5
6597
102
{ACAD_XDICTIONARY
360
B14E
102
}
102
{ACAD_REACTORS
330
6582
102
}
330
6582
100
AcDbVisualStyle
  2
Shaded
 70
    27
 71
     2
 72
     2
 73
     1
 90
        2
 40
-0.6
 41
30.0
 62
     5
 63
     7
421
 16777215
 74
     0
 91
        4
 64
     7
 65
   257
 75
     1
175
     1
 42
1.0
 92
        8
 66
   257
 43
1.0
 76
     1
 77
     6
 78
     2
 67
     8
425
  7895160
 79
     3
170
     0
171
     0
290
     0
174
     0
 93
        5
 44
0.0
173
     0
291
     0
 45
0.0
1001
ACAD
1000
AcDbSavedByObjectVersion
1070
     0
  0
VISUALSTYLE
  5
6596
102
{ACAD_XDICTIONARY
360
B14C
102
}
102
{ACAD_REACTORS
330
6582
102
}
330
6582
100
AcDbVisualStyle
  2
Shaded with edges
 70
    26
 71
     2
 72
     2
 73
     1
 90
        2
 40
-0.6
 41
30.0
 62
     5
 63
     7
421
 16777215
 74
     1
 91
       10
 64
     7
 65
   257
 75
     2
175
     1
 42
1.0
 92
        8
 66
   257
 43
1.0
 76
     1
 77
     6
 78
     2
 67
     7
 79
     3
170
     0
171
     0
290
     0
174
     0
 93
        5
 44
0.0
173
     0
291
     0
 45
0.0
1001
ACAD
1000
AcDbSavedByObjectVersion
1070
     0
  0
VISUALSTYLE
  5
6593
102
{ACAD_XDICTIONARY
360
B146
102
}
102
{ACAD_REACTORS
330
6582
102
}
330
6582
100
AcDbVisualStyle
  2
Shades of Gray
 70
    23
 71
     2
 72
     2
 73
     3
 90
        0
 40
-0.6
 41
-30.0
 62
     5
 63
     7
421
 16777215
 74
     2
 91
        2
 64
     7
 65
     7
 75
     1
175
     1
 42
40.0
 92
        8
 66
     7
 43
1.0
 76
     1
 77
     6
 78
     2
 67
     7
 79
     3
170
     0
171
     0
290
     0
174
     0
 93
        1
 44
0.0
173
     0
291
     0
 45
0.0
1001
ACAD
1000
AcDbSavedByObjectVersion
1070
     0
  0
VISUALSTYLE
  5
6594
102
{ACAD_XDICTIONARY
360
B148
102
}
102
{ACAD_REACTORS
330
6582
102
}
330
6582
100
AcDbVisualStyle
  2
Sketchy
 70
    24
 71
     1
 72
     2
 73
     2
 90
        0
 40
-0.6
 41
-30.0
 62
     5
 63
     7
421
 16777215
 74
     2
 91
        2
 64
     7
 65
     7
 75
     1
175
     1
 42
40.0
 92
       11
 66
     7
 43
1.0
 76
     1
 77
     6
 78
     2
 67
     7
 79
     6
170
     0
171
     0
290
     0
174
     0
 93
        1
 44
0.0
173
     0
291
     0
 45
0.0
1001
ACAD
1000
AcDbSavedByObjectVersion
1070
     0
  0
VISUALSTYLE
  5
658F
102
{ACAD_XDICTIONARY
360
B13E
102
}
102
{ACAD_REACTORS
330
6582
102
}
330
6582
100
AcDbVisualStyle
  2
Thicken
 70
    13
 71
     2
 72
     2
 73
     0
 90
        0
 40
-0.6
 41
-30.0
 62
     5
 63
     7
421
 16777215
 74
     1
 91
        4
 64
     7
 65
   257
 75
     1
175
     1
 42
1.0
 92
       12
 66
     7
 43
1.0
 76
     1
 77
     6
 78
     2
 67
     7
 79
     5
170
     0
171
     0
290
     0
174
     0
 93
        1
 44
0.0
173
     0
291
     1
 45
0.0
1001
ACAD
1000
AcDbSavedByObjectVersion
1070
     0
  0
VISUALSTYLE
  5
6589
102
{ACAD_XDICTIONARY
360
B132
102
}
102
{ACAD_REACTORS
330
6582
102
}
330
6582
100
AcDbVisualStyle
  2
Wireframe
 70
     5
 71
     0
 72
     2
 73
     0
 90
        0
 40
-0.6
 41
-30.0
 62
     5
 63
     7
421
 16777215
 74
     1
 91
        4
 64
     7
 65
   257
 75
     1
175
     1
 42
1.0
 92
        0
 66
   257
 43
1.0
 76
     1
 77
     6
 78
     2
 67
     7
 79
     3
170
     0
171
     0
290
     0
174
     0
 93
        1
 44
0.0
173
     0
291
     0
 45
0.0
1001
ACAD
1000
AcDbSavedByObjectVersion
1070
     0
  0
VISUALSTYLE
  5
6595
102
{ACAD_XDICTIONARY
360
B14A
102
}
102
{ACAD_REACTORS
330
6582
102
}
330
6582
100
AcDbVisualStyle
  2
X-Ray
 70
    25
 71
     2
 72
     2
 73
     1
 90
        1
 40
0.5
 41
-30.0
 62
     5
 63
     7
421
 16777215
 74
     1
 91
        0
 64
     7
 65
   257
 75
     1
175
     1
 42
1.0
 92
        8
 66
     7
 43
1.0
 76
     1
 77
     6
 78
     2
 67
     7
 79
     3
170
     0
171
     0
290
     0
174
     0
 93
       13
 44
0.0
173
     0
291
     0
 45
0.0
1001
ACAD
1000
AcDbSavedByObjectVersion
1070
     0
  0
DICTIONARYVAR
  5
99EA
102
{ACAD_REACTORS
330
169
102
}
330
169
100
DictionaryVariables
280
     0
  1
1:1
  0
DICTIONARYVAR
  5
99E8
102
{ACAD_REACTORS
330
169
102
}
330
169
100
DictionaryVariables
280
     0
  1
STANDARD
  0
DICTIONARYVAR
  5
99E7
102
{ACAD_REACTORS
330
169
102
}
330
169
100
DictionaryVariables
280
     0
  1
STANDARD
  0
DICTIONARYVAR
  5
16A
102
{ACAD_REACTORS
330
169
102
}
330
169
100
DictionaryVariables
280
     0
  1
1
  0
DICTIONARYVAR
  5
99EC
102
{ACAD_REACTORS
330
169
102
}
330
169
100
DictionaryVariables
280
     0
  1
1
  0
DICTIONARYVAR
  5
99ED
102
{ACAD_REACTORS
330
169
102
}
330
169
100
DictionaryVariables
280
     0
  1
15
  0
DICTIONARYVAR
  5
99EB
102
{ACAD_REACTORS
330
169
102
}
330
169
100
DictionaryVariables
280
     0
  1
0
  0
DICTIONARYVAR
  5
99E9
102
{ACAD_REACTORS
330
169
102
}
330
169
100
DictionaryVariables
280
     0
  1
0
  0
DICTIONARYVAR
  5
B11E
102
{ACAD_REACTORS
330
169
102
}
330
169
100
DictionaryVariables
280
     0
  1
2
  0
XRECORD
  5
177
102
{ACAD_REACTORS
330
176
102
}
330
176
100
AcDbXrecord
280
     1
 91
      476
330
179
 90
        8
 62
     7
370
    -3
331
15
  1
Color_7
330
178
 90
        8
 62
     7
370
    -3
331
15
  1
Color_7
330
128
 90
        0
 62
     7
370
    -3
331
15
  1
Color_7
330
10
 90
        8
 62
     7
370
    -3
331
15
  1
Color_7
  0
DICTIONARY
  5
79B1
330
21
100
AcDbDictionary
280
     1
281
     1
  3
ADSK_XREC_LAYOUTTHUMBNAIL
360
79B2
  0
DICTIONARY
  5
6573
330
6572
100
AcDbDictionary
280
     1
281
     1
  3
ACAD_XREC_ROUNDTRIP
360
B124
  3
BUMPTILE
360
6575
  3
DIFFUSETILE
360
6574
  3
OPACITYTILE
360
6578
  3
REFLECTIONTILE
360
6577
  3
REFRACTIONTILE
360
6579
  3
SPECULARTILE
360
6576
  0
DICTIONARY
  5
656B
330
656A
100
AcDbDictionary
280
     1
281
     1
  3
ACAD_XREC_ROUNDTRIP
360
B123
  3
BUMPTILE
360
656D
  3
DIFFUSETILE
360
656C
  3
OPACITYTILE
360
6570
  3
REFLECTIONTILE
360
656F
  3
REFRACTIONTILE
360
6571
  3
SPECULARTILE
360
656E
  0
DICTIONARY
  5
657B
330
657A
100
AcDbDictionary
280
     1
281
     1
  3
ACAD_XREC_ROUNDTRIP
360
B125
  3
BUMPTILE
360
657D
  3
DIFFUSETILE
360
657C
  3
OPACITYTILE
360
6580
  3
REFLECTIONTILE
360
657F
  3
REFRACTIONTILE
360
6581
  3
SPECULARTILE
360
657E
  0
DICTIONARY
  5
B120
330
65B1
100
AcDbDictionary
280
     1
281
     1
  3
ACAD_XREC_ROUNDTRIP
360
B121
  0
DICTIONARY
  5
AAEF
330
659D
100
AcDbDictionary
280
     1
281
     1
  3
ACAD_ROUNDTRIP_2008_TABLESTYLE_CELLSTYLEMAP
360
B11F
  3
ACAD_XREC_ROUNDTRIP
360
B156
  0
DICTIONARY
  5
B130
330
6588
100
AcDbDictionary
280
     1
281
     1
  3
ACAD_XREC_ROUNDTRIP
360
B131
  0
DICTIONARY
  5
B12E
330
6587
100
AcDbDictionary
280
     1
281
     1
  3
ACAD_XREC_ROUNDTRIP
360
B12F
  0
DICTIONARY
  5
B13C
330
658E
100
AcDbDictionary
280
     1
281
     1
  3
ACAD_XREC_ROUNDTRIP
360
B13D
  0
DICTIONARY
  5
B144
330
6592
100
AcDbDictionary
280
     1
281
     1
  3
ACAD_XREC_ROUNDTRIP
360
B145
  0
DICTIONARY
  5
B136
330
658B
100
AcDbDictionary
280
     1
281
     1
  3
ACAD_XREC_ROUNDTRIP
360
B137
  0
DICTIONARY
  5
B13A
330
658D
100
AcDbDictionary
280
     1
281
     1
  3
ACAD_XREC_ROUNDTRIP
360
B13B
  0
DICTIONARY
  5
B154
330
659A
100
AcDbDictionary
280
     1
281
     1
  3
ACAD_XREC_ROUNDTRIP
360
B155
  0
DICTIONARY
  5
B142
330
6591
100
AcDbDictionary
280
     1
281
     1
  3
ACAD_XREC_ROUNDTRIP
360
B143
  0
DICTIONARY
  5
B126
330
6583
100
AcDbDictionary
280
     1
281
     1
  3
ACAD_XREC_ROUNDTRIP
360
B127
  0
DICTIONARY
  5
B128
330
6584
100
AcDbDictionary
280
     1
281
     1
  3
ACAD_XREC_ROUNDTRIP
360
B129
  0
DICTIONARY
  5
B12A
330
6585
100
AcDbDictionary
280
     1
281
     1
  3
ACAD_XREC_ROUNDTRIP
360
B12B
  0
DICTIONARY
  5
B12C
330
6586
100
AcDbDictionary
280
     1
281
     1
  3
ACAD_XREC_ROUNDTRIP
360
B12D
  0
DICTIONARY
  5
B134
330
658A
100
AcDbDictionary
280
     1
281
     1
  3
ACAD_XREC_ROUNDTRIP
360
B135
  0
DICTIONARY
  5
B150
330
6598
100
AcDbDictionary
280
     1
281
     1
  3
ACAD_XREC_ROUNDTRIP
360
B151
  0
DICTIONARY
  5
B140
330
6590
100
AcDbDictionary
280
     1
281
     1
  3
ACAD_XREC_ROUNDTRIP
360
B141
  0
DICTIONARY
  5
B152
330
6599
100
AcDbDictionary
280
     1
281
     1
  3
ACAD_XREC_ROUNDTRIP
360
B153
  0
DICTIONARY
  5
B138
330
658C
100
AcDbDictionary
280
     1
281
     1
  3
ACAD_XREC_ROUNDTRIP
360
B139
  0
DICTIONARY
  5
B14E
330
6597
100
AcDbDictionary
280
     1
281
     1
  3
ACAD_XREC_ROUNDTRIP
360
B14F
  0
DICTIONARY
  5
B14C
330
6596
100
AcDbDictionary
280
     1
281
     1
  3
ACAD_XREC_ROUNDTRIP
360
B14D
  0
DICTIONARY
  5
B146
330
6593
100
AcDbDictionary
280
     1
281
     1
  3
ACAD_XREC_ROUNDTRIP
360
B147
  0
DICTIONARY
  5
B148
330
6594
100
AcDbDictionary
280
     1
281
     1
  3
ACAD_XREC_ROUNDTRIP
360
B149
  0
DICTIONARY
  5
B13E
330
658F
100
AcDbDictionary
280
     1
281
     1
  3
ACAD_XREC_ROUNDTRIP
360
B13F
  0
DICTIONARY
  5
B132
330
6589
100
AcDbDictionary
280
     1
281
     1
  3
ACAD_XREC_ROUNDTRIP
360
B133
  0
DICTIONARY
  5
B14A
330
6595
100
AcDbDictionary
280
     1
281
     1
  3
ACAD_XREC_ROUNDTRIP
360
B14B
  0
XRECORD
  5
79B2
102
{ACAD_REACTORS
330
79B1
102
}
330
79B1
100
AcDbXrecord
280
     1
310
280000000001000065000000010008000000000000650000000000000000000000010000000000003028210000000000FFFFFF000000000000000000000000000000000000000000000000000000000000000000330000006600000099000000CC000000FF00000000330000333300006633000099330000CC330000FF3300
310
0000660000336600006666000099660000CC660000FF66000000990000339900006699000099990000CC990000FF99000000CC000033CC000066CC000099CC0000CCCC0000FFCC000000FF000033FF000066FF000099FF0000CCFF0000FFFF000000003300330033006600330099003300CC003300FF003300003333003333
310
33006633330099333300CC333300FF33330000663300336633006666330099663300CC663300FF66330000993300339933006699330099993300CC993300FF99330000CC330033CC330066CC330099CC3300CCCC3300FFCC330000FF330033FF330066FF330099FF3300CCFF3300FFFF330000006600330066006600660099
310
006600CC006600FF00660000336600333366006633660099336600CC336600FF33660000666600336666006666660099666600CC666600FF66660000996600339966006699660099996600CC996600FF99660000CC660033CC660066CC660099CC6600CCCC6600FFCC660000FF660033FF660066FF660099FF6600CCFF6600
310
FFFF660000009900330099006600990099009900CC009900FF00990000339900333399006633990099339900CC339900FF33990000669900336699006666990099669900CC669900FF66990000999900339999006699990099999900CC999900FF99990000CC990033CC990066CC990099CC9900CCCC9900FFCC990000FF99
310
0033FF990066FF990099FF9900CCFF9900FFFF99000000CC003300CC006600CC009900CC00CC00CC00FF00CC000033CC003333CC006633CC009933CC00CC33CC00FF33CC000066CC003366CC006666CC009966CC00CC66CC00FF66CC000099CC003399CC006699CC009999CC00CC99CC00FF99CC0000CCCC0033CCCC0066CC
310
CC0099CCCC00CCCCCC00FFCCCC0000FFCC0033FFCC0066FFCC0099FFCC00CCFFCC00FFFFCC000000FF003300FF006600FF009900FF00CC00FF00FF00FF000033FF003333FF006633FF009933FF00CC33FF00FF33FF000066FF003366FF006666FF009966FF00CC66FF00FF66FF000099FF003399FF006699FF009999FF00CC
310
99FF00FF99FF0000CCFF0033CCFF0066CCFF0099CCFF00CCCCFF00FFCCFF0000FFFF0033FFFF0066FFFF0099FFFF00CCFFFF00FFFFFF00000000000D0D0D001A1A1A00282828003535350043434300505050005D5D5D006B6B6B00787878008686860093939300A1A1A100AEAEAE00BBBBBB00C9C9C900D6D6D600E4E4E400
310
F1F1F100FFFFFF000000000000000000000000000000000000000000000000000000000000000000000000000000000000000000000000000000000000000000000000000000000000280000002800000028000000000000000000000000000000000000000000000000000000000000000000000000000000000000000000
310
00000000000000280000002800000028000000000000000000000000000000000000000000000000000000000000000000000000000000000000000000000000000000000028000000280000002800000000000000000000000000000000000000000000000000000000000000000000000000000000000000280000002800
310
00002800000000000000000000000000000000000000000000000000000000000000000000000000000000000000000000000000000000000000000000000000000000000000000000000000280000002800000028000000000000000000000000000000000000000000000000000000000000000000000000000000000000
310
00000000000000000000280000002800000028000000000000000000000000000000000000000000000000000000000000000000000000000000000000000000000000000000000028000000280000002800000000000000000000000000000000000000000000000000000000000000000000000000000000000000280000
310
00280000002800000000000000000000000000000000000000000000000000000000000000000000000000000000000000000000000000000000000000000000000000000000000000000000000000280000002800000028000000000000000000000000000000000000000000000000000000000000000000000000000000
310
00000000000000000000000000280000002800000028000000000000000000000000000000000000000000000000000000000000000000000000000000000000000000000000000000000028000000280000002800000000000000000000000000000000000000000000000000000000000000000000000000000000000000
310
28000000280000002800000000000000000000000000000000000000000000000000000000000000000000000000000000000000000000000000000000000000000000000000000000000000000000000000280000002800000028000000000000000000000000000000000000000000000000000000F50000000000000000
310
0000000000000000000000000000000028000000280000002800000000000000000000000000000000000000000000000000000000000000000000000000000000000000000000000000000000002800000028000000280000000000000000000000000000000000000000000000F500000000000000000000000000000000
310
000000280000002800000028000000000000000000000000000000000000000000000000000000000000000000000000000000000000000000000000000000000000000000000000000000000000000000000000002800000028000000280000000000000000000000000000000000000000000000000000F5000000000000
310
00000000000000000000000000000000000028000000280000002800000000000000000000000000000000000000000000000000000000000000000000000000000000000000000000000000000000002800000028000000280000000000000000000000000000000000000000000000F50000000000000000000000000000
310
0000000000280000002800000028000000000000000000000000000000000000000000000000000000000000000000000000000000000000000000000000000000000000000000000000000000000000000000000000000028000000280000002800000000000000000000000000000000000000000000000000F500000000
310
000000000000000000000000000000000000000000280000002800000028000000000000000000000000000000000000000000000000000000000000000000000000000000000000000000000000000000000028000000280000002800000000000000000000000000000000000000000000F5000000000000000000000000
310
00000000000000002800000028000000280000000000000000000000000000000000000000000000000000000000000000000000000000000000000000000000000000000000000000000000000000000000000000000000000000280000002800000028000000000000000000000000000000000000000000000000F50000
310
0000000000000000000000000000000000000000000000002800000028000000280000000000000000000000000000000000000000000000000000000000000000000000000000000000000000000000000000000000280000002800000028000000000000000000000000000000000000000000F500000000000000000000
310
0000000000000000000000280000002800000028000000000000000000000000000000000000002D2D0000000000000000000000000000000000000000000000000000000000000000000000000000000000002D2D2D2D2D2D2D2D2D2D2D282D2D2D282D2D2D282D2D2D2D2D2D2D2D2D2D2D2D2D2D2D2D2D2D2D2D2D2D2D2D
310
2D2D2D2D2D2D2D2D2D2D2D2D2D2D2D2D2D2D2D2D2D2D2D2D2D2D2D282D2D2D282D2D2D282D2D2D2D2D2D2D00000000000000000000000000000000002D2D2D2D2D2D2D2D2D2D2D2D2D2D2D2D2D2D2D2D2D2D2D2D2D2D2D2D2D282D2D2D282D2D2D282D2D2D2D2D2D2D2D2D2D2D2D2D2D2D2D2D2D2D2D2D2D2D2D2D2D2D2D2D
310
2D2D2D2D2D2D2D2D2D2D2D2D2D2D282D2D2D282D2D2D282D2D2D2D2D2D2DF52D2D2D2D2D2D2D2D2D2D2D2D00000000000000000000000000000000000000000000000000000000000000000000000000000000000000000000000000000000000000000000000000002D2D2D2D2D2D2D2D2D2D2D2D2D2D2D2D2D2D2D2D2D2D
310
2D2D2D2D2D2D2D2D2D2D2D2D2D2D2D2D2D2D2D2D2D2D2D2D2D0000000000000000000000000000000000000000000000000000000000000000000000000000000000000000000000000000000000000000000000000000000000000000000000000000000000000000000000000000002D2D2D2D2D2D2D2D2D2D2D2D2D2D2D
310
2D000000000000000000000000000000000000000000000000000000000000000000000000000000000000002D0000000000000000000000000000000000000000000000000000000000000000000000000000000000000000000000000000000000000000000000000000000000000000000000000000000000000000002D
310
2D2D2D2D2D2D2D2D00000000000000000000000000000000000000000000000000000000000000000000000000000000000000000000000000000000000000000000000000000000000000000000000000000000000000000000000000000000000000000000000000000000000000000000000000002D2D2D2D2D2D2D2D00
310
000000000000000000000000000000000000000000000000000000000000000000000000000000000000000000002D0000000000000000000000000000000000000000000000000000000000000000000000000000000000000000000000000000000000000000000000000000000000000000000000000000000000000000
310
0000002800F5002800000000000000000000000000000000000000000000000000000000000000000000000000000000000000000000000000000000000000000000000000000000000000000000000000000000000000000000000000000000000000000000000000000000000000000000000000000000002D2800F5282D
310
0000000000000000000000000000000000000000000000000000000000000000000000000000000000000000000000002D000000000000000000000000000000000000000000000000000000000000000000000000000000000000000000000000000000000000000000000000000000000000000000000000000000000000
310
00000000002800F5002800000000000000000000000000000000000000000000000000000000000000000000000000000000000000000000000000000000000000000000000000000000000000000000000000000000000000000000000000000000000000000000000000000000000000000000000000000000002D2800F5
310
282D0000000000000000000000000000000000000000000000000000000000000000000000000000000000000000000000002D00000000000000000000000000000000000000000000000000000000000000000000000000000000000000000000000000000000000000000000000000000000000000000000000000000000
310
000000000000002800F5002800000000000000000000000000000000000000000000000000000000000000000000000000000000000000000000000000000000000000000000000000000000000000000000000000000000000000000000000000000000000000000000000000000000000000000000000000000000002D28
310
00F5282D0000000000000000000000000000000000000000000000000000000000000000000000000000000000000000000000002D0000000000000000000000000000000000000000000000000000000000000000000000000000000000000000000000000000000000000000000000000000000000000000000000000000
310
0000000000000000002800F500280000000000000000000000000000000000000000000000000000000000000000000000000000000000000000000000000000000000000000000000000000000000000000000000000000000000000000000000000000000000000000000000000000000000000000000000000000000000
310
F52800F5282D0000000000000000000000000000000000000000000000000000000000000000000000000000000000000000000000002D000000000000000000000000000000000000000000000000000000000000000000000000000000000000000000000000000000000000000000000000000000000000000000000000
310
0000000000000000000000F500F50028000000000000000000000000000000000000000000000000000000000000000000000000000000000000000000000000000000000000000000000000000000000000000000000000000000000000000000000000000000000000000000000000000000000000000000000000000000
310
0000F52800F5282D0000000000000000000000000000000000000000000000000000000000000000000000000000000000000000000000002D00000000000000000000000000000000000000000000000000000000000000000000000000000000000000000000000000000000000000000000000000000000000000000000
310
000000000000000000000000F52800F5002800000000000000000000000000000000000000000000000000000000000000000000000000000000000000000000000000000000000000000000000000000000000000000000000000000000000000000000000000000000000000000000000000000000000000000000000000
310
000000F52D2800F5282D0000000000000000000000000000000000000000000000000000000000000000000000000000000000000000000000002D0000000000000000000000000000000000000000000000000000000000000000000000000000000000000000000000000000000000000000000000000000000000000000
310
0000000000000000000000000000F52800F500280000000000000000000000000000000000000000000000000000000000000000000000000000000000000000000000000000000000000000000000000000000000000000000000000000000000000000000000000000000000000000000000000000000000000000000000
310
0000000000F52D2800F5282D0000000000000000000000000000000000000000000000000000000000000000000000000000000000000000000000002D000000000000000000000000000000000000000000000000000000000000000000000000000000000000000000000000000000000000000000000000000000000000
310
000000000000000000000000000000F5002800F500280000000000000000000000000000000000000000000000000000000000000000000000000000000000000000000000000000000000000000000000000000000000000000000000000000000000000000000000000000000000000000F5F5F5F5F5F5F5F5F5F5F5F5F5
310
F5F5F5F5F5F5F5002D2800F5282D0000000000000000000000000000000000000000000000000000000000000000000000000000000000000000000000002D00000000000000000000000000000000000000000000000000000000000000000000000000000000000000000000000000000000000000000000000000F5F5F5
310
F5F5F5F5F5F5F5F5F5F5F5F5F5F5F5F5F500002800F500280000000000000000000000000000000000000000000000000000000000000000000000000000000000000000000000000000000000000000000000000000000000000000000000000000000000000000000000000000000000000000F5F5F5F5F5F5F5F5F5F500
310
00F5F5F5F500F5F500002D2800F5282D0000000000000000000000000000000000000000000000000000000000000000000000000000000000000000000000002D00000000000000000000000000000000000000000000000000000000000000000000000000000000000000000000000000000000000000000000000000F5
310
F5F5F5F5F5F5F5F500F50000F5F500F500F5F5002D2D2D2D2D2D2D00000000000000000000000000000000000000000000000000000000000000000000000000000000000000000000000000000000000000000000000000000000000000000000000000000000000000000000000000000000000000F5F5F5F5F5F5F5F5F5
310
F5F500F5F5F5F500F5F500002D2D2D2D2D2D0000000000000000000000000000000000000000000000000000000000000000000000000000000000000000000000002D000000000000000000000000000000000000000000000000000000000000000000000000000000000000000000000000000000000000000000000000
310
00F5F5F5F5F5F5F5F5F5F5F5F500F5F500F5F5F5F52D002D00F5002D002D000000000000000000000000000000000000000000000000000000000000000000000000000000000000000000000000000000000000000000000000000000000000000000000000000000000000000000000000000000000000F5F5F5F5F5F5F5
310
00F5F50000F500F5F500F5F5002D2D002D2D002D2D00000000000000000000000000000000000000000000000000000000000000000000000000000000000000000000002D00000000000000000000000000000000000000000000000000000000000000000000000000000000000000000000000000000000000000000000
310
00000000F5F5F5F500F5F5F500F50000F5F500F500F5002D002D00F5002D002D0000000000000000000000000000000000000000000000000000000000000000000000000000000000000000000000000000000000000000000000000000000000000000000000000000000000000000000000000000000000000000000000
310
0000000000000000000000000000002D0000002D00002D00000000000000000000000000000000000000000000000000000000000000000000000000000000000000000000002D0000000000000000000000000000000000000000000000000000000000000000000000000000000000000000000000000000000000000000
310
000000000000000000000000000000000000000000000000002D2D2D2D2D2D2D2D2D000000000000000000000000000000000000000000000000000000000000000000000000000000000000000000000000000000000000000000000000000000000000000000000000000000000000000000000000000000000000000000
310
00000000000000000000000000000000002D2D2D2D2D2D2D2D2D000000000000000000000000000000000000000000000000000000000000000000000000000000000000000000002D000000000000000000000000000000000000000000000000000000000000000000000000000000000000000000000000000000000000
310
0000000000000000000000000000000000000000000000000000002D2D2D2D2D2D2D2D2D00000000000000000000000000000000000000000000000000000000000000000000000000000000000000000000000000000000000000000000000000000000000000000000000000000000000000000000000000000000000000
310
000000000000000000000000000000000000002D2D2D2D2D2D2D2D2D000000000000000000000000000000000000000000000000000000000000000000000000000000000000000000002D00000000000000000000000000000000000000000000000000000000000000000000000000000000000000000000000000000000
310
00000000000000000000000000000000000000002D2D2D2D2D2D2D2D2D2D2D2D2D2D2D2D2D2D2D2D2D2D2D2D2D2D2D0000000000000000000000000000000000000000000000000000000000000000000000000000000000000000000000000000000000000000000000000000000000000000000000000000000000000000
310
0000000000000000000000002D2D2D2D2D2D2D2D2D2D2D2D2D2D2D2D2D2D2D2D2D2D2D2D2D2D00000000000000000000000000000000000000000000000000000000000000000000000000002D0000000000000000000000000000000000000000000000000000000000000000000000000000000000000000000000000000
310
000000000000000000000000000000000000000000002D000000000000000000000000F50000000000000000000000002D000000000000000000000000000000000000000000000000000000000000000000000000000000000000000000000000000000000000000000000000000000000000000000000000000000000000
310
00000000000000000000000000002D000000000000000000000000F500000000000000000000002D00000000000000000000000000000000000000000000000000000000000000000000000000002D000000000000000000000000000000000000000000000000000000000000000000000000000000000000000000000000
310
0000000000000000000000000000000000000000000000002D000000000000000000000000F50000000000000000000000002D00000000000000000000000000000000000000000000000000000000000000000000000000000000000000000000000000000000000000000000000000000000000000000000000000000000
310
000000000000000000000000000000002D000000000000000000000000F500000000000000000000002D00000000000000000000000000000000000000000000000000000000000000000000000000002D00000000000000000000000000000000000000000000000000000000000000000000000000000000000000000000
310
00000000000000000000000000000000000000000000000000002D000000000000000000000000F50000000000000000000000002D0000000000000000000000000000000000000000000000000000000000000000000000000000000000000000000000000000000000000000000000000000000000000000000000000000
310
0000000000000000000000000000000000002D000000000000000000000000F500000000000000000000002D00000000000000000000000000000000000000000000000000000000000000000000000000002D0000000000000000000000000000000000000000000000000000000000000000000000000000000000000000
310
000000000000000000000000000000000000000000000000000000002D000000000000000000000000F5000000000000000000F500002D000000000000000000000000000000000000000000000000000000000000000000000000000000000000000000000000000000000000000000000000000000000000000000000000
310
00000000000000000000000000000000000000002D000000000000000000000000F5000000000000000000F5002D00000000000000000000000000000000000000000000000000000000000000000000000000002D000000000000000000000000000000000000000000000000000000000000000000000000000000000000
310
0000000000000000000000000000000000000000000000000000000000002D000000000000000000000000F500000000000000000000F5002D00000000000000000000000000000000000000000000000000000000000000000000000000000000000000000000000000000000000000000000000000000000000000000000
310
000000000000000000000000000000000000000000002D000000000000000000000000F500000000000000000000F52D00000000000000000000000000000000000000000000000000000000000000000000002828282D00000000000000000000000000000000000000000000000000000000000000000000000000000000
310
00000000000000000000000000000000000000000000000000000000000000002D000000000000000000000000F500000000000000000000F5002D0000000000000000000000000000000000000000000000000000000000000000000000000000000000000000000000000000000000000000000000000000000000000000
310
0000000000000000000000000000000000000000000000002D000000000000000000000000F500000000000000000000F52D00000000000000000000000000000000000000000000000000000000000000000000002828282D0000000000000000000000000000000000000000000000000000000000000000000000000000
310
000000000000000000000000000000000000000000000000000000000000000000002D000000000000000000000000F50000000000000000000000F52D000000000000000000000000000000000000000000000000000000000000000000000000000000000000000000000000000000000000000000000000000000000000
310
00000000000000000000000000000000000000000000000000002D000000000000000000000000F50000000000000000000000F500000000000000000000000000000000000000000000000000000000000000000000000028002D000000000000000000000000000000000000000000000000000000000000000000000000
310
0000000000000000000000000000000000000000000000000000000000000000000000002D000000000000000000000000F50000000000000000000000F52D00000000000000000000000000000000000000000000000000000000000000000000000000000000000000000000000000000000000000000000000000000000
310
000000000000000000000000000000000000000000000000000000002D000000000000000000000000F50000000000000000000000F500000000000000000000000000000000000000000000000000000000000000000000000028002D00000000000000000000000000000000000000000000000000000000000000000000
310
00000000000000000000000000000000000000000000000000000000000000000000000000002D000000000000000000000000F5000000000000000000000000F50000000000000000000000000000000000000000000000000000000000000000000000000000000000000000000000000000000000000000000000000000
310
0000000000000000000000000000000000000000000000000000000000002D000000000000000000000000F500000000000000000000002DF5000000000000000000000000000000000000000000000000000000000000000000002828282D0000000000000000000000000000000000000000000000000000000000000000
310
000000000000000000000000000000000000000000000000000000000000000000000000000000002D000000000000000000000000F5000000000000000000000000F5000000000000000000000000000000000000000000000000000000000000000000000000000000000000000000000000000000000000000000000000
310
00000000000000000000000000000000000000000000000000000000000000002D000000000000000000000000F500000000000000000000002DF5000000000000000000000000000000000000000000000000000000000000000000002828282D000000000000000000000000000000000000000000000000000000000000
310
0000000000000000000000000000000000000000000000000000000000000000000000000000000000002D000000000000000000000000F50000000000000000000000002DF5000000000000000000000000000000000000000000000000000000000000000000000000000000000000000000000000000000000000000000
310
000000000000000000000000000000000000000000000000000000000000000000002D000000000000000000000000F500000000000000000000002D00F50000000000000000000000000000000000000000000000000000000000000000002800282D00000000000000000000000000000000000000000000000000000000
310
00000000000000000000000000000000000000000000000000000000000000000000000000000000000000002D000000000000000000000000F50000000000000000000000002DF500000000000000000000000000000000000000000000000000000000000000000000000000000000000000000000000000000000000000
310
0000000000000000000000000000000000000000000000000000000000000000000000002D000000000000000000000000F500000000000000000000002D00F50000000000000000000000000000000000000000000000000000000000000000002828282D0000000000000000000000000000000000000000000000000000
310
000000000000000000000000000000000000000000000000000000000000000000000000000000000000000000002D000000000000000000000000F50000000000000000000000002D00F5F5F5F5F5F5F5F5F5F5F5F5F5F5F5F5F5F5F5F5F5F5F5F5F5F5000000000000000000000000000000000000000000000000000000
310
00000000000000000000000000000000000000000000000000000000000000000000000000002D000000000000000000000000F500000000000000000000002D0000F5F5F5F5F5F5F5F5F5F5F5F5F5F5F5F5F5F5F5F5F5F5F5F5F5F5000000000000002828282D000000000000000000000000000000000000000000000000
310
000000000000000000000000000000000000000000000000000000000000000000000000000000000000000000000000002D2D2D2D2D2D2D2D2D2D2D2D2D2D2D2D2D2D2D2D2D2D2D2D2D000000F5F500F500F5F5F5F5F500F5F5F5F5F5F5F5F500F500F5F50000000000000000000000000000000000000000000000000000
310
00000000000000F5F5F5F5F5F5F5F5F5F500000000000000000000000000000000000000000000002D2D2D2D2D2D2D2D2D2D2D2D2D2D2D2D2D2D2D2D2D2D2D2D2D2D000000F500F5F5F5F5F5F500F500F500F500F5F5F5F5F5F5F5F50000000000000000002828282D00000000000000000000000000000000000000000000
310
0000000000000000000000000000000000000000000000000000000000000000000000000000000000000000000000000000000000000000002D2D2D2D2D2D2D2D2D2D2D2D2D000000000000000000F5F5F5F5F5F5F5F5F5F5F5F5F5F5F5F5F5F5F500F5F5F5F5000000000000000000000000000000000000000000000000
310
00000000000000000000F5F5F5F5F5F5F50000F500000000000000000000000000000000000000000000000000000000002D2D2D2D2D2D2D2D2D2D2D2D00000000000000000000F5F5F5F5F5F500F5F5F5F5F5F5F5F5F5F5F5F500F5F5F5F500000000000000000028002D0000000000000000000000000000000000000000
310
000000000000000000000000000000000000000000000000000000000000000000000000000000000000000000000000000000000000000000000000002D2D2D2D2D2D2D2D2D000000000000000000000000F5F50000F5F5F50000F500000000F5F5000000F500F5F500000000000000000000000000000000000000000000
310
000000000000000000000000F5F5F5F5F5F5F50000F5000000000000000000000000000000000000000000000000000000000000002D2D2D2D2D2D2D2D2D000000000000000000000000F5F500F5F5F50000F5F500000000F5000000F50000F50000000000000000000028002D000000000000000000000000000000000000
310
0000000000000000000000000000000000000000000000000000000000000000000000000000000000000000000000000000000000000000000000000000002D002D00F5002D002D00000000000000000000000000000000000000000000000000000000000000000000000000000000000000000000000000000000000000
310
000000000000000000000000000000000000000000000000F50000000000000000000000000000000000000000000000000000000000002D2D002D2D002D2D00000000000000000000000000000000000000000000000000000000000000000000000000000000000000002828282D00000000000000000000000000000000
310
00000000000000000000000000000000000000000000000000000000000000000000000000000000000000000000000000000000000000000000000000000000002D002D00F5002D002D0000000000000000000000000000000000000000000000000000000000000000000000000000000000000000000000000000000000
310
0000000000000000000000000000000000000000000000000000F50000000000000000000000000000000000000000000000000000000000002D0000002D00002D00000000000000000000000000000000000000000000000000000000000000000000000000000000000000002828282D0000000000000000000000000000
310
000000000000000000000000000000000000000000000000000000000000000000000000000000000000000000000000000000000000000000000000000000000000002D002D00F5002D002D000000000000000000000000000000000000000000000000000000000000000000000000000000000000000000000000000000
310
0000000000000000000000000000000000000000000000000000000000F500000000000000000000000000000000000000000000000000000000002D0000002D00002D00000000000000000000000000000000000000000000000000000000000000000000000000000000000000002828282D000000000000000000000000
310
0000000000000000000000000000000000000000000000000000000000000000000000000000000000000000000000000000000000F5F5F5F5F5F5F5F5F5F50000002D2D2D2D2D2D2D2D2D2D2D2D2D2D2D00000000000000000000000000000000000000000000000000000000000000000000000000000000000000000000
310
00000000000000000000000000000000000000000000000000000000000000F5000000000000000000000000000000000000000000000000002D2D2D2D2D2D2D2D2D2D2D2D2D2D2D2D000000000000000000000000000000000000000000000000000000000000000000000000000000002828282D00000000000000000000
310
0000000000000000000000000000000000000000000000000000000000000000000000000000000000000000000000000000000000000000F5F5F5F5F5F5F50000F5002D2D2D2D2D2D2D2D2D2D2D2D2D2D2D2D2D00000000000000000000000000000000000000000000000000000000000000000000000000000000000000
310
0000000000000000002D2D2D2D2D2D2D2D2D2D2D2D2D2D2D2D2D2D2D2D2D2D2D2D2DF52D2D2D2D2D2D2D2D2D2D2D2D2D2D2D2D2D2D2D2D2D2D2D2D2D00002828000000F50000282828002D2D2D2D2D2D2D2D2D2D2D2D2D2D2D2D2D2D2D2D2D2D2D2D2D2D2DF52D2D2D2D0000000000000000002828002D0000000000000000
310
00000000000000000000000000000000000000000000000000000000000000000000000000000000000000000000000000000000000000000000F5F5F5F5F5F5F50000F5282D2D2D2D2D2D0000F500002D2D2D2D2D2D2800000000000000000000000000000000000000000000000000000000000000000000000000000000
310
000000000000000000000028282828282828282828282828282828282828282828282828282828282828282828282828282828282828282828282828282D00280028000000F50000280028002D28282828282828282828282828282828282828282828282828282D282828280000000000000000000000002D000000000000
310
00000000000000000000000000000000000000000000000000000000000000000000000000000000000000000000000000000000000000000000000000F50000F50000000000F52D2D000000000000F50000000000002D2D280000000000000000000000000000000000000000000000000000000000000000000000000000
310
0000000000000000000000000000000000000000000000000000000000000000000000000000000000000000000000000000000000000000000000000000002D00280000280000F50028000028002D00000000000000000000000000000000000000000000000000002D000000000000000000000000000000002D00000000
310
000000000000000000000000000000000000000000000000000000000000000000000000000000000000000000000000000000000000000000000000000000000000000000000000F52D2D000000000000F50000000000002D2D28000000000000000000000000000000000000000000000000000000000000000000000000
310
00000000000000000000000000000000000000000000000000000000000000000000000000000000000000000000000000000000000000000000000000000000002D00280000280000F50028000028002D00000000000000000000000000000000000000000000000000002D000000000000000000000000000000002D0000
310
000000000000000000000000000000000000000000000000000000000000000000000000000000000000000000000000000000000000000000000000000000000000000000000000000028F52D000000000000F50000000000002D2D2800000000000000000000000000000000000000000000000000000000000000000000
310
000000000000000000000000000000000000000000000000000000000000000000000000000000000000000000000000000000000000000000000000000000000000002D00280000280000F50028000028002D00000000000000000000000000000000000000000000000000002D000000000000000000000000000000002D
310
0000000000000000000000000000000000000000000000000000000000000000000000000000000000000000000000000000000000000000000000000000000000000000000000000000000028F52D000000000000F50000000000002D2D280000000000000000000000000000000000000000000000000000000000000000
310
0000000000000000000000000000000000000000000000000000000000000000000000000000000000000000000000000000000000000000000000000000000000000000002D00280000280000F50028000028002D00000000000000000000000000000000000000000000000000002D000000000000000000000000000000
310
002D00000000000000000000000000000000000000000000000000000000000000000000000000000000000000000000000000000000000000000000000000000000000000000000000000000000282DF5000000000000F50000000000002D2D28000000000000000000000000000000000000000000000000000000000000
310
00000000000000000000000000000000000000000000000000000000000000000000000000000000000000000000000000000000000000000000000000000000000000000000002D00280000280000F50028000028002D00000000000000000000000000000000000000000000002828282D00000000000000000000000000
310
0000002D00000000000000000000000000000000000000000000000000000000000000000000000000000000000000000000000000000000000000000000000000000000000000000000000000000000282D2D000000000000F50000000000002D2D2800000000000000000000000000000000000000000000000000000000
310
000000000000000000000000000000000000000000000000000000000000000000000000000000000000000000000000000000000000000000000000000000000000000000000000002D00280000280000F50028000028002D00000000000000000000000000000000000000000000002828282D0000000000000000000000
310
00000000002D00000000000000000000000000000000000000000000000000000000000000000000000000000000000000000000000000000000000000000000000000000000000000000000000000000000282D2D000000000000F50000000000002D2D280000000000000000000000000000000000000000000000000000
310
0000000000000000000000000000000000000000000000000000000000000000000000000000000000000000000000000000000000000000000000000000000000000000000000000000002D00280000280000F50028000028002D00000000000000000000000000000000000000000000002800282D000000000000000000
310
000000000000002D00000000000000000000000000000000000000000000000000000000000000000000000000000000000000000000000000000000F5F5F5F5F5F5F5F5F5F50000000000000000000000000000282D2D000000000000F50000000000002D2D28000000000000000000000000000000000000000000000000
310
00000000000000000000000000000000000000000000000000000000000000000000000000000000000000000000000000000000000000000000000000000000000000000000000000000000002D00280000280000F50028000028002D00000000000000000000000000000000000000000000002828002D00000000000000
310
0000000000000000002D000000000000000000000000000000000000000000000000000000000000000000000000000000000000000000000000000000000000F5F5F5F5F5F50000F500000000000000000000000000282D2D000000000000F50000000000002D2D2800000000000000000000000000000000000000000000
310
000000000000000000000000000000000000000000000000000000000000000000000000000000000000000000000000000000000000000000000000000000000000000000000000000000000000002D00280000280000F50028000028002D00000000000000000000000000000000000000000000000000002D0000000000
310
00000000000000000000002D0000000000000000000000000000000000000000000000000000000000000000000000000000000000000000000000000000000000F5F5F5F5F5F5F50000F500000000000000000000000000282D2D000000000000F50000000000002D2D280000000000000000000000000000000000000000
310
0000000000000000000000000000000000000000000000000000000000000000000000000000000000000000000000000000000000000000000000000000000000000000000000000000000000000000002D00280000280000F50028000028002D00000000000000000000000000000000000000000000000000002D000000
310
000000000000000000000000002D0000000000000000000000000000000000000000000000000000000000000000000000000000000000000000000000000000000000F5F5F5F500F5F5000000F5000000000000000000000000282D2D000000000000F50000000000002D2D28000000000000000000000000000000000000
310
00000000000000000000000000000000000000000000000000000000000000000000000000000000000000000000000000000000000000000000000000000000000000000000000000000000000000000000002D00280000280000F50028000028002D00000000000000000000000000000000000000000000000000002D00
310
0000000000000000000000000000002D000000000000000000000000000000000000000000000000000000000000000000000000000000000000000000000000000000000000000000000000000000F5000000000000000000000000282D2D000000000000F50000000000002D2D2800000000000000000000000000000000
310
000000000000000000000000000000000000000000000000000000000000000000000000000000000000000000000000000000000000000000000000000000000000000000000000000000000000000000000000002D28280000282828282828000028282D0000000000000000000000000000000000000000000000000000
310
2D000000000000000000000000000000002D00000000000000000000000000000000000000000000000000000000000000000000000000000000000000000000000000000000000000000000000000000000F50000000000000000000000282D2D2D2D2D2D2D2D2D2D2D2D2D2D2D2D2D280000000000000000000000000000
310
000000000000000000000000002D000000000000000000000000000000000000000000000028282828282D2D2D2D2D2D2D2D2D2D2D2D2D2D2D2D2D2D2D2D282828282828282828282828282828282828282828282828282D00280000280000F50028000028002D282828282828282828282828282828282828282828282828
310
282DF5282828280000000000000000000000002D0000000000000000000000000000000000000000000000000000000000000000000000000000000000002D2D2D2D2D2D2D2D2D2D2D2D2D2D2D2D2D2D2D2D2D2DF52D2D2D2D2D2D2D2D2D2D2D282D2D2D0000000000F500000000002D2D2D282D2D2D2D2D2D2D2D2D2D2D2D
310
2D2D2D2D2D2D2D2D2D2D2D2D2D2D2DF52D2D2D2D2D2D000000000000000000000000000000000000000000002D2D2D2D2D2D2D2D2D2D2D2D2D2D2D2D2D2D2D2D000000000000000000000000000000000000000000000000002D28280000282828282828000028282D00000000000000000000000000000000000000000000
310
000000002D000000000000000000000000000000002D00000000000000000000000000000000000000000000000000000000000000000000000000000000000028282828282828282828282828282828282828282828282828282828282828282828282D282D2D2D2D2D2D2D2D2D2D2D2D2D282D2828282828282828282828
310
28282828282828282828282828282828282D282828282828000000000000000000000000000000000000000000002D2D2D2D2D2D00000000000000002D2D2D2D2D2D000000000000000000000000000000000000000000000000002D00280000282828F52828000028002D0000000000000000000000000000000000000000
310
00000000000000000000000000000000000000000000002D00000000000000000000000000000000000000000000000000000000000000000000000000000000000000000000000000000000000000000000000000000000000000000000000000000000282D00000000000000F5000000000028002D282800280000000000
310
0000000000000000000000000000000000280028000000000000000000000000000000000000000000000000000000000000000000F500000000000000002D2D00000000000000000000000000000000000000000000000000000000002D00280000282D28F52D28000028002D000000000000000000000000000000000000
310
000000000000000000000000000000000000000000000000002D00000000000000000000000000000000000000000000000000000000000000000000000000000000000000000000000000000000000000000000000000000000000000000000000000000000282828282828282828F5282828282828282828282828000000
310
000000000000000000000000000000000000002828280000000000000000000000000000000000000000000000000000000000000000F52D00000000000000002D2D00000000000000000000000000000000000000000000000000000000002D00280028002828F52800280028002D00000000000000000000000000000000
310
0000000000000000000000000000000000000000000000000000002D00000000000000000000000000000000000000000000000000000000000000000000000000000000000000000000000000000000000000000000000000000000000000000000000000000000002D00000000000000F5000000000000002D2800000000
310
0000000000000000000000000000000000000000002828280000000000000000000000000000000000000000000000000000000000000000F52D00000000000000002D2D00000000000000000000000000000000000000000000000000000000002D00002828000028F50000282828002D0000000000000000000000000000
310
00000000000000000000000000000000000000000000000000000000002D00000000000000000000000000000000000000000000000000000000000000000000000000000000000000000000000000000000000000000000000000000000000000000000000000000000002D00000000000000F5000000000000002D000000
310
0000000000000000000000000000000000000000000000282828000000000000000000000000000000000000000000000000F5F5F5F5F5F5F5F5002D00000000000000002D2D0000000000000000000000000000000000000000000000000000000000002D2D2D2D2D2D2D2D2D2D2D2D2D2D00000000000000000000000000
310
000000000000000000000000000000000000000000000000000000000000002D00000000000000000000000000000000000000000000000000000000000000000000000000000000000000000000000000000000000000000000000000000000000000000000000000000000000000000000000000F5000000000000000000
310
0000000000000000000000000000000000000000000000000000002D00000000000000000000000000000000000000000000000000F5F5F5F5F5F5F5002D00000000000000002D2D00000000000000000000000000000000000000000000000000000000000000000000000000F50000000000000000000000000000000000
310
0000000000000000000000000000000000000000000000000000000000000000002D000000000000000000000000000000000000000000000000000000000000000000000000000000000000000000000000000000000000000000000000000000000000000000000000000000000000000000000000000000000000000000
310
00000000000000000000000000000000000000000000000000000000002D00000000000000000000000000000000000000000000000000F5F5F5F5F5F5F5002D00000000000000002D2D0000000000000000000000000000000000000000000000000000000000000000000000000000000000000000000000000000000000
310
00000000000000000000000000000000000000000000000000000000000000000000002D0000000000000000000000000000000000000000000000000000000000000000000000000000000000002D2D2D2D2D2D2D2D2D2D2D2D2D2D2D2D2D2D2D2D2D2D2D2D2D2D2D2D2D2D2D2D2D2D2D2D2D2D2D2D2D2D2D2D2D2D2D2D2D
310
2D2D2D2D2D2D2D2D2D2D2D2D2D2D2D2D2D2D2D2D2D2D2D2D2D2D2D2D2D2D2DF52D2D2D2D2D2D00000000000000000000000000000000002D2D2D2D2D2D2D2D2D2D2D2D2D2D2D2D2D2D2D2D2D2D2D2D2D2D2D2D2D2D2D2D2D2D2D2D2D2D2D2D2D2D2D2D2D2D2D2D2D2D2D2D2D2D2D2D2D2D2D2D2D2D2D2D2D2D2D2D2D2D2D2D
310
2D2D2D2D2D2D2D2D2D2D2D2D2D2D2D2D2D2D2D2D2D2D2D2D2DF52D2D2D2D2D2D2D2D2D2D2DF50000000000000000000000000000000000000000000000000000000000000000000000000000000000002828282828282828282828282828282828282828282828282828282828282828282828282828282828282828282828
310
28282828282828282828282828282828282828282828282828282828282828282828282828282828000000000000000000000000000000000028282828282828282828282828282828282828282828282828282828282828282828282828282828282828282828282828282828282828282828282828282828282828282828
310
28282828282828282828282828282828282828282828282828282800000000000000000000000000000000000000000000000000000000000000000000000000000000000000000000000000000000000000000000000000000000000000000000000000000000000000000000000000000000000000000000000000000000
310
00000000000000000000000000000000000000000000000000000000000000000000000000000000000000000000000000000000000000000000000000000000000000000000000000000000000000000000000000000000000000000000000000000000000000000000000000000000000000000000000000000000000000
310
00000000000000000000000000000000000000000000000000000000000000000000000000000000000000000000000000000000000000000000000000000000000000000000000000000000000000000000000028282828282828282828282828282828282828282828282828282828282828282828282828282828282828
310
28282828F52828282828282828282828282828282828282828282828282828282828282828282828282828280000000000000000000000000000000000282828282828282828282828282828282828282828282828282828282828282828282828282828282828282828282828282828282828282828282828282828282828
310
28282828282828282828282828282828282828282828282828282828282828000000000000000000000000000000000000000000000000000000000000000000000000000000000000000000000000000000000000002D2D2D2D2D282D2D2D2D2D2D2D2D2D2D2D2D2D2D2D2D2D2D2D2D2D2D2D2D282D2D2D2D2D2D2D2D2D2D
310
2D2D2D2D2D2D2DF52D2D2D2D2D2D2D282D2D2D2D2D2D2D2D2D2D2D2D2D2D2D2D2D2D2D2D2D2D2D2D2D282D2D2D2D00000000000000000000000000000000002D2D2D2D2D2D2D2D2D2D2D2D2D2D2D2D2D2D2D2D2D2D2D2D2D2D2D2D2D2D2D2D2D2D2D2D2D2D2D2D2D2D2D2D2D2D2D2D2D2D2D2D2D2D2D2D2D2D2D2D2D2D2D2D
310
2D2D2D2D2D2D2D2D2D2D2D2D2D2D2D2D2D2D2D2D2D2D2D2D2D2D2D2D2D2D2D2D2D00000000000000000000000000000000000000000000000000000000000000000000000000000000000000000000000000000000000000000000000028000000000000000000000000000000000000000000000000280000000000000000
310
000000000000000000F5000000000000002800000000000000000000000000000000000000000000000000280000000000000000000000000000000000000000000000000000000000000000000000000000000000000000000000000000000000000000000000000000000000000000000000000000000000000000000000
310
00000000000000000000000000000000000000000000000000000000000000000000000000000000000000000000000000000000000000000000000000000000000000000000000000000000000000000000000000000000000000002828282800000000000000000000000000000000000000000028282828000000000000
310
000000000000000000000000F5000000282828280000000000000000000000000000000000000000000028282828000000000000000000000000000000000000000000000000000000000000000000000000000000000000000000000000000000000000000000000000000000000000000000000000000000000000000000
310
00000000000000000000000000000000000000000000000000000000000000000000000000000000000000000000000000000000000000000000000000000000000000000000000000000000000000000000000000000000000000000000280000000000000000000000000000000000000000000000002800000000000000
310
0000000000000000000000000000F500000028000000000000000000000000000000000000000000000000002800000000000000000000000000000000000000000000000000000000000000000000000000000000000000000000000000000000000000000000000000000000000000000000000000000000000000000000
310
00000000000000000000000000000000000000000000000000000000000000000000000000000000000000000000000000000000000000000000000000000000000000000000000000000000000000000000000000000000000000000000000028282828000000000000000000000000000000000000000000002828280000
310
0000000000000000000000000000000000F500002828282800000000000000000000000000000000000000000000282828280000000000000000000000000000000000000000000000000000000000000000000000000000000000000000000000000000000000000000000000000000000000000000000000000000000000
310
0000000000000000000000000000000000000000000000000000000000000000000000000000000000000000000000000000000000000000000000000000000000000000000000000000000000000000000000000000000000000000000000002D2D2D2D2D282D2D2D2D2D2D2D2D2D2D2D2D2D2D2D2D2D2D2D2D2D2D2D2D28
310
2D2D2D2D2D2D2D2D2D2D2D2DF52D2D2D2D2D2DF52D2D2D2D2D282D2D2D2D2D2D2D2D2D2D2D2D2D2D2D2D2D2D2D2D2D2D2D2D2D282D2D2D2D00000000000000000000000000000000002D2D2D2D2D2D2D2D2D2D2D2D2D2D2D2D2D2D2D2D2D2D2D2D2D2D2D2D2D2D2D2D2D2D2D2D2D2D2D2D2D2D2D2D2D2D2D2D2D2D2D2D2D2D
310
2D2D2D2D2D2D2D2D2D2D2D2D2D2D2D2D2D2D2D2D2D2D2D2D2D2D2D2D2D2D2D2D2D2D2D2D2D2D2D2D2D2D2D000000000000000000000000000000000000000000000000000000000000000000000000000000000000000000000000000000000000000000000000000000000000000000000000000000000000000000000000
310
000000000000000000000000000000F5000000000000F50000000000000000000000000000000000000000000000000000000000000000000000000000000000000000000000000000000000000000000000000000000000000000000000000000000000000000000000000000000000000000000000000000000000000000
310
00000000000000000000000000000000000000000000000000000000000000000000000000000000000000000000000000000000000000000000000000000000000000000000000000000000000000000000000000000000000000000000000000000000000000000000000000000000000000000000000000000000000000
310
0000000000000000000000000000000000F5000000000000F5000000000000000000000000000000000000000000000000000000000000000000000000000000000000000000000000000000000000000000000000000000000000000000000000000000000000000000000000000000000000000000000000000000000000
310
00000000000000000000000000000000000000000000000000000000000000000000000000000000000000000000000000000000000000000000000000000000000000000000000000000000000000000000000000000000000000000000000000000000000000000000000000000000000000000000000000000000000000
310
0000000000000000000000000000000000000000F5000000000000F5000000000000000000000000000000000000000000000000000000000000000000000000000000000000000000000000000000000000000000000000000000000000000000000000000000000000000000000000000000000000000000000000000000
310
00000000000000000000000000000000000000000000000000000000000000000000000000000000000000000000000000000000000000000000000000000000000000000000000000000000000000000000000000000000000000000000000000000000000000000000000000000000000000000000000000000000000000
310
00000000000000000000000000000000000000000000F5000000000000F500000000000000000000000000000000000000000000000000000000000000000000000000000000000000000000000000000000000000000000000000000000000000000000000000000000000000000000000000000000000000000000000000
310
00000000000000000000000000000000000000000000000000000000000000000000000000000000000000000000000000000000000000000000000000000000000000000000000000000000000000000000000000000000000000000000000000000000000000000000000000000000000000000000000000000000000000
310
00000000000000000000000000000000000000000000000000F5000000000000F5F5F5F5F5F5F5F5F5F5F5F5F5F5000000000000000000000000000000000000000000000000000000000000000000000000000000000000000000000000000000000000000000000000000000000000000000000000000000000000000000
310
00000000000000000000000000000000000000000000000000000000000000000000000000000000000000000000000000000000000000000000000000000000000000000000000000000000000000000000000000000000000000000000000000000000000000000000000000000000000000000000000000000000000000
310
000000000000000000000000000000000000000000000000000000F5000000000000000000F5F5F5F5F5F5F5F5F5000000000000000000000000000000000000000000000000000000000000000000000000000000000000000000000000000000000000000000000000000000000000000000000000000000000000000000
310
00000000000000000000000000000000000000000000000000000000000000000000000000000000000000000000000000000000000000000000000000000000000000000000000000000000000000000000000000000000000000000000000000000000000000000000000000000000000000000000000000000000000000
310
000000000000000000000000000000000000000000000000000000000000F50000000000000000F5F5F5F5F5F5F5F5F500000000000000000000000000000000000000000000000000000000000000000000000000000000000000000000000000000000000000000000000000000000000000000000000000000000000000
310
00000000000000000000000000000000000000000000000000000000000000000000000000000000000000000000000000000000000000000000000000000000000000000000000000000000000000000000000000000000000000000000000000000000000000000000000000000000000000000000000000000000000000
310
0000000000000000000000000000000000000000000000000000000000000000F50000000000000000F5F5F50000F50000000000000000000000000000000000000000000000000000000000000000000000000000000000000000000000000000000000000000000000000000000000000000000000000000000000000000
310
00000000000000000000000000000000000000000000000000000000000000000000000000000000000000000000000000000000000000000000000000000000000000000000000000000000000000000000000000000000000000000000000000000000000000000000000000000000000000000000000000000000000000
310
0000000000000000000000000000000000000000000000000000000000000000000000F5F5F5F5F5F5F5F5F5F5F5F5F5F5F5F5F5F5F5F5F5F5F5000000000000000000000000000000000000000000000000000000000000000000000000000000000000000000000000000000000000000000000000000000000000000000
310
00000000000000000000000000000000000000000000000000000000000000000000000000000000000000000000000000000000000000000000000000000000000000000000000000000000000000000000000000000000000000000000000000000000000000000000000000000000000000000000000000000000000000
310
00000000000000000000000000000000000000000000000000000000000000000000000000000000F500F5F5000000F500F500F500F5F500F500000000000000000000000000000000000000000000000000000000000000000000000000000000000000000000000000000000000000000000000000000000000000000000
310
00000000000000000000000000000000000000000000000000000000000000000000000000000000000000000000000000000000000000000000000000000000000000000000000000000000000000000000000000000000000000000000000000000000000000000000000000000000000000000000000000000000000000
310
0000000000000000000000000000000000000000000000000000000000000000000000000000000000F5F5F5F5F5F5F5F5F500F5F5F5F5F5F5F5F50000000000000000000000000000000000000000000000000000000000000000000000000000000000000000000000000000000000000000000000000000000000000000
310
00000000000000000000000000000000000000000000000000000000000000000000000000000000000000000000000000000000000000000000000000000000000000000000000000000000000000000000000000000000000000000000000000000000000000000000000000000000000000000000000000000000000000
310
0000000000000000000000000000000000000000000000000000000000000000000000000000000000000000000000000000F5F500F50000F5F5F5F5F5000000000000000000000000000000000000000000000000000000000000000000000000000000000000000000000000000000000000000000000000000000000000
310
00000000000000000000000000000000000000000000000000000000000000000000000000000000000000000000000000000000000000000000000000000000000000000000000000000000000000000000000000000000000000000000000000000000000000000000000000000000000000000000000000000000000000
310
00000000000000000000000000000000000000000000000000000000000000000000000000000000000000000000000000000000000000000000000000000000000000000000000000000000000000000000000000000000000000000000000000000000000000000000000000000000000000000000000000000000000000
310
00000000000000000000000000000000000000000000000000000000000000000000000000000000000000000000000000000000000000000000000000000000000000000000000000000000000000000000000000000000000000000000000000000000000000000000000000000000000000000000000000000000000000
310
00000000000000000000000000000000000000000000000000000000000000000000000000000000000000000000000000000000000000000000000000000000000000000000000000000000000000000000000000000000000000000000000000000000000000000000000000000000000000000000000000000000000000
310
00000000000000000000000000000000000000000000000000000000000000000000000000000000000000000000000000000000000000000000000000000000000000000000000000000000000000000000000000000000000000000000000000000000000000000000000000000000000000000000000000000000000000
310
00000000000000000000000000000000000000000000000000000000000000000000000000000000000000000000000000000000000000000000000000000000000000000000000000000000000000000000000000000000000000000000000000000000000000000000000000000000000000000000000000000000000000
310
00000000000000000000000000000000000000000000000000000000000000000000000000000000000000000000000000000000000000000000000000000000000000000000000000000000000000000000000000000000000000000000000000000000000000000000000000000000000000000000000000000000000000
310
00000000000000000000000000000000000000000000000000000000000000000000000000000000000000000000000000000000000000000000000000000000000000000000000000000000000000000000000000000000000000000000000000000000000000000000000000000000000000000000000000000000000000
310
00000000000000000000000000000000000000000000000000000000000000000000000000000000000000000000000000000000000000000000000000000000000000000000000000000000000000000000000000000000000000000000000000000000000000000000000000000000000000000000000000000000000000
310
00000000000000000000000000000000000000000000000000000000000000000000000000000000000000000000000000000000000000000000000000000000000000000000000000000000000000000000000000000000000000000000000000000000000000000000000000000000000000000000000000000000000000
310
00000000000000000000000000000000000000000000000000000000000000000000000000000000000000000000000000000000000000000000000000000000000000000000000000000000000000000000000000000000000000000000000000000000000000000000000000000000000000000000000000000000000000
310
00000000000000000000000000000000000000000000000000000000000000000000000000000000000000000000000000000000000000000000000000000000000000000000000000000000000000000000000000000000000000000000000000000000000000000000000000000000000000000000000000000000000000
310
00000000000000000000000000000000000000000000000000000000000000000000000000000000000000000000000000000000000000000000000000000000000000000000000000000000000000000000000000000000000000000000000000000000000000000000000000000000000000000000000000000000000000
310
00000000000000002828280028280028000028000000000000000000000000000000002800280000282800002828000000282800000028000000000000002828000000280000002828000028282828282828280028282800282800282828282828280028280000280000282828280028000000280028000028000000280000
310
28000000280028280028280028002828282828000000002800282800282828282828282800002800002828282828280028282800282800280000000000000000000000000000000000000000000000000000000000000000000000000000000000000000000000000000000000000000000000000000000000000000000000
310
00000000000000000000282828000028280000280028000000000000280028000000000000002828002800282800280028000028000000282828000000000000002800002800280000282800002828282828282828002828280028282828282828282828282800000028280028282828000028000000282800000028000028
310
28280000002800002828282828282800282828282800282800282828280028282828002828280000280000282828280028282800280028280000280000000000000000000000000000000000000000000000000000000000000000000000000000000000000000000000000000000000000000000000000000000000000000
310
00000000000000000000000028282800000028000028002800282828280028280000282828280000280000282828000028282800002800000028002800282828000000280000280028000028280000282828002828282828282828282828282828282828002828282800002828002828282828280028000028280028282828
310
00002800000000280028282828002828282828282828000028280028282828002828282828282828000028000028282828002828282828282828000028000000000000000000000000000000000000000000000000000000000000000000000000000000000000000000000000000000000000000000000000000000000000
310
00000000000000000000000000002828280000282800002800280000000000000028280000000000002828280028282828002828280000280000002828280000000000002828000028282800002828002828282828282828282828282800282828282828282800282828280000280000282828000028002800282828000028
310
28000000280000000000280028282828282828282828282828000000002828282800282828280028282800002800002828280000282828282828282800280000000000000000000000000000000000000000000000000000000000000000000000000000000000000000000000000000000000000000000000000000000000
310
00000000000000000000000000000000000000000000000000000000000000000000000000000000000000000000000000000000000000000000000000000000000000000000000000000000000000000000000028000000002800000028000028000000002800280000002800282828282800002800000000000000000000
310
000000000000000000000000000028280000002800000028002800000000000028002800002828000028282800000000000028002800002800000000000000000000000000000000000000000000000000000000000000000000000000000000000000000000000000000000000000000000000000000000000000
  0
XRECORD
  5
B124
102
{ACAD_REACTORS
330
6573
102
}
330
6573
100
AcDbXrecord
280
     1
102
MATERIAL
148
0.0
149
0.0
149
0.0
 93
        0
 94
      127
282
     0
 72
     0
 77
     0
171
     0
175
     0
179
     0
273
     0
  0
XRECORD
  5
6575
102
{ACAD_REACTORS
330
6573
102
}
330
6573
100
AcDbXrecord
280
     1
270
     1
271
     1
  0
XRECORD
  5
6574
102
{ACAD_REACTORS
330
6573
102
}
330
6573
100
AcDbXrecord
280
     1
270
     1
271
     1
  0
XRECORD
  5
6578
102
{ACAD_REACTORS
330
6573
102
}
330
6573
100
AcDbXrecord
280
     1
270
     1
271
     1
  0
XRECORD
  5
6577
102
{ACAD_REACTORS
330
6573
102
}
330
6573
100
AcDbXrecord
280
     1
270
     1
271
     1
  0
XRECORD
  5
6579
102
{ACAD_REACTORS
330
6573
102
}
330
6573
100
AcDbXrecord
280
     1
270
     1
271
     1
  0
XRECORD
  5
6576
102
{ACAD_REACTORS
330
6573
102
}
330
6573
100
AcDbXrecord
280
     1
270
     1
271
     1
  0
XRECORD
  5
B123
102
{ACAD_REACTORS
330
656B
102
}
330
656B
100
AcDbXrecord
280
     1
102
MATERIAL
148
0.0
149
0.0
149
0.0
 93
        0
 94
      127
282
     0
 72
     0
 77
     0
171
     0
175
     0
179
     0
273
     0
  0
XRECORD
  5
656D
102
{ACAD_REACTORS
330
656B
102
}
330
656B
100
AcDbXrecord
280
     1
270
     1
271
     1
  0
XRECORD
  5
656C
102
{ACAD_REACTORS
330
656B
102
}
330
656B
100
AcDbXrecord
280
     1
270
     1
271
     1
  0
XRECORD
  5
6570
102
{ACAD_REACTORS
330
656B
102
}
330
656B
100
AcDbXrecord
280
     1
270
     1
271
     1
  0
XRECORD
  5
656F
102
{ACAD_REACTORS
330
656B
102
}
330
656B
100
AcDbXrecord
280
     1
270
     1
271
     1
  0
XRECORD
  5
6571
102
{ACAD_REACTORS
330
656B
102
}
330
656B
100
AcDbXrecord
280
     1
270
     1
271
     1
  0
XRECORD
  5
656E
102
{ACAD_REACTORS
330
656B
102
}
330
656B
100
AcDbXrecord
280
     1
270
     1
271
     1
  0
XRECORD
  5
B125
102
{ACAD_REACTORS
330
657B
102
}
330
657B
100
AcDbXrecord
280
     1
102
MATERIAL
148
0.0
149
0.0
149
0.0
 93
        0
 94
      127
282
     0
 72
     0
 77
     0
171
     0
175
     0
179
     0
273
     0
  0
XRECORD
  5
657D
102
{ACAD_REACTORS
330
657B
102
}
330
657B
100
AcDbXrecord
280
     1
270
     1
271
     1
  0
XRECORD
  5
657C
102
{ACAD_REACTORS
330
657B
102
}
330
657B
100
AcDbXrecord
280
     1
270
     1
271
     1
  0
XRECORD
  5
6580
102
{ACAD_REACTORS
330
657B
102
}
330
657B
100
AcDbXrecord
280
     1
270
     1
271
     1
  0
XRECORD
  5
657F
102
{ACAD_REACTORS
330
657B
102
}
330
657B
100
AcDbXrecord
280
     1
270
     1
271
     1
  0
XRECORD
  5
6581
102
{ACAD_REACTORS
330
657B
102
}
330
657B
100
AcDbXrecord
280
     1
270
     1
271
     1
  0
XRECORD
  5
657E
102
{ACAD_REACTORS
330
657B
102
}
330
657B
100
AcDbXrecord
280
     1
270
     1
271
     1
  0
XRECORD
  5
B121
102
{ACAD_REACTORS
330
B120
102
}
330
B120
100
AcDbXrecord
280
     1
102
ACAD_ROUNDTRIP_2012_MLEADER_STYLE
298
     1
  0
CELLSTYLEMAP
  5
B11F
102
{ACAD_REACTORS
330
AAEF
102
}
330
AAEF
100
AcDbCellStyleMap
 90
        3
300
CELLSTYLE
  1
TABLEFORMAT_BEGIN
 90
        5
170
     1
 91
        0
 92
    32768
 62
   257
 93
        1
300
CONTENTFORMAT
  1
CONTENTFORMAT_BEGIN
 90
        0
 91
        0
 92
      512
 93
        0
300

 40
0.0
140
1.0
 94
        5
 62
     0
340
11
144
0.25
309
CONTENTFORMAT_END
171
     0
 94
        0
309
TABLEFORMAT_END
  1
CELLSTYLE_BEGIN
 90
        1
 91
        1
300
_TITLE
309
CELLSTYLE_END
300
CELLSTYLE
  1
TABLEFORMAT_BEGIN
 90
        5
170
     1
 91
        0
 92
        0
 62
   257
 93
        1
300
CONTENTFORMAT
  1
CONTENTFORMAT_BEGIN
 90
        0
 91
        0
 92
      512
 93
        0
300

 40
0.0
140
1.0
 94
        5
 62
     0
340
11
144
0.18
309
CONTENTFORMAT_END
171
     0
 94
        0
309
TABLEFORMAT_END
  1
CELLSTYLE_BEGIN
 90
        2
 91
        1
300
_HEADER
309
CELLSTYLE_END
300
CELLSTYLE
  1
TABLEFORMAT_BEGIN
 90
        5
170
     1
 91
        0
 92
        0
 62
   257
 93
        1
300
CONTENTFORMAT
  1
CONTENTFORMAT_BEGIN
 90
        0
 91
        0
 92
      512
 93
        0
300

 40
0.0
140
1.0
 94
        2
 62
     0
340
11
144
0.18
309
CONTENTFORMAT_END
171
     0
 94
        0
309
TABLEFORMAT_END
  1
CELLSTYLE_BEGIN
 90
        3
 91
        2
300
_DATA
309
CELLSTYLE_END
  0
XRECORD
  5
B156
102
{ACAD_REACTORS
330
AAEF
102
}
330
AAEF
100
AcDbXrecord
280
     1
102
ACAD_ROUNDTRIP_PRE2007_TABLESTYLE
 90
      512
 91
        0
  1

 92
      512
 93
        0
  2

 94
      512
 95
        0
  3

  0
XRECORD
  5
B131
102
{ACAD_REACTORS
330
B130
102
}
330
B130
100
AcDbXrecord
280
     1
102
RTVSPropertyOp0
 70
     1
102
RTVSPropertyOp1
 70
     1
102
RTVSPropertyOp2
 70
     1
102
RTVSPropertyOp3
 70
     1
102
RTVSPropertyOp4
 70
     1
102
RTVSPropertyOp5
 70
     1
102
RTVSPropertyOp6
 70
     1
102
RTVSPropertyOp7
 70
     1
102
RTVSPropertyOp8
 70
     1
102
RTVSPropertyOp9
 70
     1
102
RTVSPropertyOp10
 70
     1
102
RTVSPropertyOp11
 70
     1
102
RTVSPropertyOp12
 70
     1
102
RTVSPropertyOp13
 70
     1
102
RTVSPropertyOp14
 70
     1
102
RTVSPropertyOp15
 70
     1
102
RTVSPropertyOp16
 70
     1
102
RTVSPropertyOp17
 70
     1
102
RTVSPropertyOp18
 70
     1
102
RTVSPropertyOp19
 70
     1
102
RTVSPropertyOp20
 70
     1
102
RTVSPropertyOp21
 70
     1
102
RTVSPropertyOp22
 70
     1
102
RTVSPropertyOp23
 70
     1
102
RTVSPropertyOp24
 70
     1
102
RTVSPropertyOp25
 70
     1
102
RTVSPropertyOp26
 70
     1
102
RTVSPropertyOp27
 70
     1
102
RTVSPropertyOp28
 70
     1
102
RTVSPropertyOp29
 70
     1
102
RTVSPropertyOp30
 70
     1
102
RTVSPropertyOp31
 70
     1
102
RTVSPropertyOp32
 70
     1
  0
XRECORD
  5
B12F
102
{ACAD_REACTORS
330
B12E
102
}
330
B12E
100
AcDbXrecord
280
     1
102
RTVSPropertyOp0
 70
     1
102
RTVSPropertyOp1
 70
     1
102
RTVSPropertyOp2
 70
     1
102
RTVSPropertyOp3
 70
     1
102
RTVSPropertyOp4
 70
     1
102
RTVSPropertyOp5
 70
     1
102
RTVSPropertyOp6
 70
     1
102
RTVSPropertyOp7
 70
     1
102
RTVSPropertyOp8
 70
     1
102
RTVSPropertyOp9
 70
     1
102
RTVSPropertyOp10
 70
     1
102
RTVSPropertyOp11
 70
     1
102
RTVSPropertyOp12
 70
     1
102
RTVSPropertyOp13
 70
     1
102
RTVSPropertyOp14
 70
     1
102
RTVSPropertyOp15
 70
     1
102
RTVSPropertyOp16
 70
     1
102
RTVSPropertyOp17
 70
     1
102
RTVSPropertyOp18
 70
     1
102
RTVSPropertyOp19
 70
     1
102
RTVSPropertyOp20
 70
     1
102
RTVSPropertyOp21
 70
     1
102
RTVSPropertyOp22
 70
     1
102
RTVSPropertyOp23
 70
     1
102
RTVSPropertyOp24
 70
     1
102
RTVSPropertyOp25
 70
     1
102
RTVSPropertyOp26
 70
     1
102
RTVSPropertyOp27
 70
     1
102
RTVSPropertyOp28
 70
     1
102
RTVSPropertyOp29
 70
     1
102
RTVSPropertyOp30
 70
     1
102
RTVSPropertyOp31
 70
     1
102
RTVSPropertyOp32
 70
     1
  0
XRECORD
  5
B13D
102
{ACAD_REACTORS
330
B13C
102
}
330
B13C
100
AcDbXrecord
280
     1
102
RTVSPropertyOp0
 70
     1
102
RTVSPropertyOp1
 70
     1
102
RTVSPropertyOp2
 70
     1
102
RTVSPropertyOp3
 70
     1
102
RTVSPropertyOp4
 70
     1
102
RTVSPropertyOp5
 70
     1
102
RTVSPropertyOp6
 70
     1
102
RTVSPropertyOp7
 70
     1
102
RTVSPropertyOp8
 70
     1
102
RTVSPropertyOp9
 70
     1
102
RTVSPropertyOp10
 70
     1
102
RTVSPropertyOp11
 70
     1
102
RTVSPropertyOp12
 70
     1
102
RTVSPropertyOp13
 70
     1
102
RTVSPropertyOp14
 70
     1
102
RTVSPropertyOp15
 70
     1
102
RTVSPropertyOp16
 70
     1
102
RTVSPropertyOp17
 70
     1
102
RTVSPropertyOp18
 70
     1
102
RTVSPropertyOp19
 70
     1
102
RTVSPropertyOp20
 70
     1
102
RTVSPropertyOp21
 70
     1
102
RTVSPropertyOp22
 70
     1
102
RTVSPropertyOp23
 70
     1
102
RTVSPropertyOp24
 70
     1
102
RTVSPropertyOp25
 70
     1
102
RTVSPropertyOp26
 70
     1
102
RTVSPropertyOp27
 70
     1
102
RTVSPropertyOp28
 70
     1
102
RTVSPropertyOp29
 70
     1
102
RTVSPropertyOp30
 70
     1
102
RTVSPropertyOp31
 70
     1
102
RTVSPropertyOp32
 70
     1
  0
XRECORD
  5
B145
102
{ACAD_REACTORS
330
B144
102
}
330
B144
100
AcDbXrecord
280
     1
102
RTVSPropertyOp0
 70
     1
102
RTVSPropertyOp1
 70
     1
102
RTVSPropertyOp2
 70
     1
102
RTVSPropertyOp3
 70
     1
102
RTVSPropertyOp4
 70
     1
102
RTVSPropertyOp5
 70
     1
102
RTVSPropertyOp6
 70
     1
102
RTVSPropertyOp7
 70
     1
102
RTVSPropertyOp8
 70
     1
102
RTVSPropertyOp9
 70
     1
102
RTVSPropertyOp10
 70
     1
102
RTVSPropertyOp11
 70
     1
102
RTVSPropertyOp12
 70
     1
102
RTVSPropertyOp13
 70
     1
102
RTVSPropertyOp14
 70
     1
102
RTVSPropertyOp15
 70
     1
102
RTVSPropertyOp16
 70
     1
102
RTVSPropertyOp17
 70
     1
102
RTVSPropertyOp18
 70
     1
102
RTVSPropertyOp19
 70
     1
102
RTVSPropertyOp20
 70
     1
102
RTVSPropertyOp21
 70
     1
102
RTVSPropertyOp22
 70
     1
102
RTVSPropertyOp23
 70
     1
102
RTVSPropertyOp24
 70
     1
102
RTVSPropertyOp25
 70
     1
102
RTVSPropertyOp26
 70
     1
102
RTVSPropertyOp27
 70
     1
102
RTVSPropertyOp28
 70
     1
102
RTVSPropertyOp29
 70
     1
102
RTVSPropertyOp30
 70
     1
102
RTVSPropertyOp31
 70
     1
102
RTVSPropertyOp32
 70
     1
  0
XRECORD
  5
B137
102
{ACAD_REACTORS
330
B136
102
}
330
B136
100
AcDbXrecord
280
     1
102
RTVSPropertyOp0
 70
     1
102
RTVSPropertyOp1
 70
     1
102
RTVSPropertyOp2
 70
     1
102
RTVSPropertyOp3
 70
     1
102
RTVSPropertyOp4
 70
     1
102
RTVSPropertyOp5
 70
     1
102
RTVSPropertyOp6
 70
     1
102
RTVSPropertyOp7
 70
     1
102
RTVSPropertyOp8
 70
     1
102
RTVSPropertyOp9
 70
     1
102
RTVSPropertyOp10
 70
     1
102
RTVSPropertyOp11
 70
     1
102
RTVSPropertyOp12
 70
     1
102
RTVSPropertyOp13
 70
     1
102
RTVSPropertyOp14
 70
     1
102
RTVSPropertyOp15
 70
     1
102
RTVSPropertyOp16
 70
     1
102
RTVSPropertyOp17
 70
     1
102
RTVSPropertyOp18
 70
     1
102
RTVSPropertyOp19
 70
     1
102
RTVSPropertyOp20
 70
     1
102
RTVSPropertyOp21
 70
     1
102
RTVSPropertyOp22
 70
     1
102
RTVSPropertyOp23
 70
     1
102
RTVSPropertyOp24
 70
     1
102
RTVSPropertyOp25
 70
     1
102
RTVSPropertyOp26
 70
     1
102
RTVSPropertyOp27
 70
     1
102
RTVSPropertyOp28
 70
     1
102
RTVSPropertyOp29
 70
     1
102
RTVSPropertyOp30
 70
     1
102
RTVSPropertyOp31
 70
     1
102
RTVSPropertyOp32
 70
     1
  0
XRECORD
  5
B13B
102
{ACAD_REACTORS
330
B13A
102
}
330
B13A
100
AcDbXrecord
280
     1
102
RTVSPropertyOp0
 70
     1
102
RTVSPropertyOp1
 70
     1
102
RTVSPropertyOp2
 70
     1
102
RTVSPropertyOp3
 70
     1
102
RTVSPropertyOp4
 70
     1
102
RTVSPropertyOp5
 70
     1
102
RTVSPropertyOp6
 70
     1
102
RTVSPropertyOp7
 70
     1
102
RTVSPropertyOp8
 70
     1
102
RTVSPropertyOp9
 70
     1
102
RTVSPropertyOp10
 70
     1
102
RTVSPropertyOp11
 70
     1
102
RTVSPropertyOp12
 70
     1
102
RTVSPropertyOp13
 70
     1
102
RTVSPropertyOp14
 70
     1
102
RTVSPropertyOp15
 70
     1
102
RTVSPropertyOp16
 70
     1
102
RTVSPropertyOp17
 70
     1
102
RTVSPropertyOp18
 70
     1
102
RTVSPropertyOp19
 70
     1
102
RTVSPropertyOp20
 70
     1
102
RTVSPropertyOp21
 70
     1
102
RTVSPropertyOp22
 70
     1
102
RTVSPropertyOp23
 70
     1
102
RTVSPropertyOp24
 70
     1
102
RTVSPropertyOp25
 70
     1
102
RTVSPropertyOp26
 70
     1
102
RTVSPropertyOp27
 70
     1
102
RTVSPropertyOp28
 70
     1
102
RTVSPropertyOp29
 70
     1
102
RTVSPropertyOp30
 70
     1
102
RTVSPropertyOp31
 70
     1
102
RTVSPropertyOp32
 70
     1
  0
XRECORD
  5
B155
102
{ACAD_REACTORS
330
B154
102
}
330
B154
100
AcDbXrecord
280
     1
102
RTVSPropertyOp0
 70
     0
102
RTVSPropertyOp1
 70
     0
102
RTVSPropertyOp2
 70
     0
102
RTVSPropertyOp3
 70
     0
102
RTVSPropertyOp4
 70
     0
102
RTVSPropertyOp5
 70
     0
102
RTVSPropertyOp6
 70
     0
102
RTVSPropertyOp7
 70
     0
102
RTVSPropertyOp8
 70
     0
102
RTVSPropertyOp9
 70
     0
102
RTVSPropertyOp10
 70
     0
102
RTVSPropertyOp11
 70
     0
102
RTVSPropertyOp12
 70
     0
102
RTVSPropertyOp13
 70
     0
102
RTVSPropertyOp14
 70
     2
102
RTVSPropertyOp15
 70
     0
102
RTVSPropertyOp16
 70
     0
102
RTVSPropertyOp17
 70
     0
102
RTVSPropertyOp18
 70
     0
102
RTVSPropertyOp19
 70
     0
102
RTVSPropertyOp20
 70
     0
102
RTVSPropertyOp21
 70
     0
102
RTVSPropertyOp22
 70
     0
102
RTVSPropertyOp23
 70
     0
102
RTVSPropertyOp24
 70
     0
102
RTVSPropertyOp25
 70
     0
102
RTVSPropertyOp26
 70
     0
102
RTVSPropertyOp27
 70
     0
102
RTVSPropertyOp28
 70
     1
102
RTVSPropertyOp29
 70
     1
102
RTVSPropertyOp30
 70
     1
102
RTVSPropertyOp31
 70
     1
102
RTVSPropertyOp32
 70
     1
  0
XRECORD
  5
B143
102
{ACAD_REACTORS
330
B142
102
}
330
B142
100
AcDbXrecord
280
     1
102
RTVSPropertyOp0
 70
     1
102
RTVSPropertyOp1
 70
     1
102
RTVSPropertyOp2
 70
     1
102
RTVSPropertyOp3
 70
     1
102
RTVSPropertyOp4
 70
     1
102
RTVSPropertyOp5
 70
     1
102
RTVSPropertyOp6
 70
     1
102
RTVSPropertyOp7
 70
     1
102
RTVSPropertyOp8
 70
     1
102
RTVSPropertyOp9
 70
     1
102
RTVSPropertyOp10
 70
     1
102
RTVSPropertyOp11
 70
     1
102
RTVSPropertyOp12
 70
     1
102
RTVSPropertyOp13
 70
     1
102
RTVSPropertyOp14
 70
     1
102
RTVSPropertyOp15
 70
     1
102
RTVSPropertyOp16
 70
     1
102
RTVSPropertyOp17
 70
     1
102
RTVSPropertyOp18
 70
     1
102
RTVSPropertyOp19
 70
     1
102
RTVSPropertyOp20
 70
     1
102
RTVSPropertyOp21
 70
     1
102
RTVSPropertyOp22
 70
     1
102
RTVSPropertyOp23
 70
     1
102
RTVSPropertyOp24
 70
     1
102
RTVSPropertyOp25
 70
     1
102
RTVSPropertyOp26
 70
     1
102
RTVSPropertyOp27
 70
     1
102
RTVSPropertyOp28
 70
     1
102
RTVSPropertyOp29
 70
     1
102
RTVSPropertyOp30
 70
     1
102
RTVSPropertyOp31
 70
     1
102
RTVSPropertyOp32
 70
     1
  0
XRECORD
  5
B127
102
{ACAD_REACTORS
330
B126
102
}
330
B126
100
AcDbXrecord
280
     1
102
RTVSPropertyOp0
 70
     1
102
RTVSPropertyOp1
 70
     1
102
RTVSPropertyOp2
 70
     1
102
RTVSPropertyOp3
 70
     1
102
RTVSPropertyOp4
 70
     1
102
RTVSPropertyOp5
 70
     1
102
RTVSPropertyOp6
 70
     1
102
RTVSPropertyOp7
 70
     1
102
RTVSPropertyOp8
 70
     1
102
RTVSPropertyOp9
 70
     1
102
RTVSPropertyOp10
 70
     1
102
RTVSPropertyOp11
 70
     1
102
RTVSPropertyOp12
 70
     1
102
RTVSPropertyOp13
 70
     1
102
RTVSPropertyOp14
 70
     1
102
RTVSPropertyOp15
 70
     1
102
RTVSPropertyOp16
 70
     1
102
RTVSPropertyOp17
 70
     1
102
RTVSPropertyOp18
 70
     1
102
RTVSPropertyOp19
 70
     1
102
RTVSPropertyOp20
 70
     1
102
RTVSPropertyOp21
 70
     1
102
RTVSPropertyOp22
 70
     1
102
RTVSPropertyOp23
 70
     1
102
RTVSPropertyOp24
 70
     1
102
RTVSPropertyOp25
 70
     1
102
RTVSPropertyOp26
 70
     1
102
RTVSPropertyOp27
 70
     1
102
RTVSPropertyOp28
 70
     1
102
RTVSPropertyOp29
 70
     1
102
RTVSPropertyOp30
 70
     1
102
RTVSPropertyOp31
 70
     1
102
RTVSPropertyOp32
 70
     1
  0
XRECORD
  5
B129
102
{ACAD_REACTORS
330
B128
102
}
330
B128
100
AcDbXrecord
280
     1
102
RTVSPropertyOp0
 70
     1
102
RTVSPropertyOp1
 70
     1
102
RTVSPropertyOp2
 70
     1
102
RTVSPropertyOp3
 70
     1
102
RTVSPropertyOp4
 70
     1
102
RTVSPropertyOp5
 70
     1
102
RTVSPropertyOp6
 70
     1
102
RTVSPropertyOp7
 70
     1
102
RTVSPropertyOp8
 70
     1
102
RTVSPropertyOp9
 70
     1
102
RTVSPropertyOp10
 70
     1
102
RTVSPropertyOp11
 70
     1
102
RTVSPropertyOp12
 70
     1
102
RTVSPropertyOp13
 70
     1
102
RTVSPropertyOp14
 70
     1
102
RTVSPropertyOp15
 70
     1
102
RTVSPropertyOp16
 70
     1
102
RTVSPropertyOp17
 70
     1
102
RTVSPropertyOp18
 70
     1
102
RTVSPropertyOp19
 70
     1
102
RTVSPropertyOp20
 70
     1
102
RTVSPropertyOp21
 70
     1
102
RTVSPropertyOp22
 70
     1
102
RTVSPropertyOp23
 70
     1
102
RTVSPropertyOp24
 70
     1
102
RTVSPropertyOp25
 70
     1
102
RTVSPropertyOp26
 70
     1
102
RTVSPropertyOp27
 70
     1
102
RTVSPropertyOp28
 70
     1
102
RTVSPropertyOp29
 70
     1
102
RTVSPropertyOp30
 70
     1
102
RTVSPropertyOp31
 70
     1
102
RTVSPropertyOp32
 70
     1
  0
XRECORD
  5
B12B
102
{ACAD_REACTORS
330
B12A
102
}
330
B12A
100
AcDbXrecord
280
     1
102
RTVSPropertyOp0
 70
     1
102
RTVSPropertyOp1
 70
     1
102
RTVSPropertyOp2
 70
     1
102
RTVSPropertyOp3
 70
     1
102
RTVSPropertyOp4
 70
     1
102
RTVSPropertyOp5
 70
     1
102
RTVSPropertyOp6
 70
     1
102
RTVSPropertyOp7
 70
     1
102
RTVSPropertyOp8
 70
     1
102
RTVSPropertyOp9
 70
     1
102
RTVSPropertyOp10
 70
     1
102
RTVSPropertyOp11
 70
     1
102
RTVSPropertyOp12
 70
     1
102
RTVSPropertyOp13
 70
     1
102
RTVSPropertyOp14
 70
     1
102
RTVSPropertyOp15
 70
     1
102
RTVSPropertyOp16
 70
     1
102
RTVSPropertyOp17
 70
     1
102
RTVSPropertyOp18
 70
     1
102
RTVSPropertyOp19
 70
     1
102
RTVSPropertyOp20
 70
     1
102
RTVSPropertyOp21
 70
     1
102
RTVSPropertyOp22
 70
     1
102
RTVSPropertyOp23
 70
     1
102
RTVSPropertyOp24
 70
     1
102
RTVSPropertyOp25
 70
     1
102
RTVSPropertyOp26
 70
     1
102
RTVSPropertyOp27
 70
     1
102
RTVSPropertyOp28
 70
     1
102
RTVSPropertyOp29
 70
     1
102
RTVSPropertyOp30
 70
     1
102
RTVSPropertyOp31
 70
     1
102
RTVSPropertyOp32
 70
     1
  0
XRECORD
  5
B12D
102
{ACAD_REACTORS
330
B12C
102
}
330
B12C
100
AcDbXrecord
280
     1
102
RTVSPropertyOp0
 70
     1
102
RTVSPropertyOp1
 70
     1
102
RTVSPropertyOp2
 70
     1
102
RTVSPropertyOp3
 70
     1
102
RTVSPropertyOp4
 70
     1
102
RTVSPropertyOp5
 70
     1
102
RTVSPropertyOp6
 70
     1
102
RTVSPropertyOp7
 70
     1
102
RTVSPropertyOp8
 70
     1
102
RTVSPropertyOp9
 70
     1
102
RTVSPropertyOp10
 70
     1
102
RTVSPropertyOp11
 70
     1
102
RTVSPropertyOp12
 70
     1
102
RTVSPropertyOp13
 70
     1
102
RTVSPropertyOp14
 70
     1
102
RTVSPropertyOp15
 70
     1
102
RTVSPropertyOp16
 70
     1
102
RTVSPropertyOp17
 70
     1
102
RTVSPropertyOp18
 70
     1
102
RTVSPropertyOp19
 70
     1
102
RTVSPropertyOp20
 70
     1
102
RTVSPropertyOp21
 70
     1
102
RTVSPropertyOp22
 70
     1
102
RTVSPropertyOp23
 70
     1
102
RTVSPropertyOp24
 70
     1
102
RTVSPropertyOp25
 70
     1
102
RTVSPropertyOp26
 70
     1
102
RTVSPropertyOp27
 70
     1
102
RTVSPropertyOp28
 70
     1
102
RTVSPropertyOp29
 70
     1
102
RTVSPropertyOp30
 70
     1
102
RTVSPropertyOp31
 70
     1
102
RTVSPropertyOp32
 70
     1
  0
XRECORD
  5
B135
102
{ACAD_REACTORS
330
B134
102
}
330
B134
100
AcDbXrecord
280
     1
102
RTVSPropertyOp0
 70
     1
102
RTVSPropertyOp1
 70
     1
102
RTVSPropertyOp2
 70
     1
102
RTVSPropertyOp3
 70
     1
102
RTVSPropertyOp4
 70
     1
102
RTVSPropertyOp5
 70
     1
102
RTVSPropertyOp6
 70
     1
102
RTVSPropertyOp7
 70
     1
102
RTVSPropertyOp8
 70
     1
102
RTVSPropertyOp9
 70
     1
102
RTVSPropertyOp10
 70
     1
102
RTVSPropertyOp11
 70
     1
102
RTVSPropertyOp12
 70
     1
102
RTVSPropertyOp13
 70
     1
102
RTVSPropertyOp14
 70
     1
102
RTVSPropertyOp15
 70
     1
102
RTVSPropertyOp16
 70
     1
102
RTVSPropertyOp17
 70
     1
102
RTVSPropertyOp18
 70
     1
102
RTVSPropertyOp19
 70
     1
102
RTVSPropertyOp20
 70
     1
102
RTVSPropertyOp21
 70
     1
102
RTVSPropertyOp22
 70
     1
102
RTVSPropertyOp23
 70
     1
102
RTVSPropertyOp24
 70
     1
102
RTVSPropertyOp25
 70
     1
102
RTVSPropertyOp26
 70
     1
102
RTVSPropertyOp27
 70
     1
102
RTVSPropertyOp28
 70
     1
102
RTVSPropertyOp29
 70
     1
102
RTVSPropertyOp30
 70
     1
102
RTVSPropertyOp31
 70
     1
102
RTVSPropertyOp32
 70
     1
  0
XRECORD
  5
B151
102
{ACAD_REACTORS
330
B150
102
}
330
B150
100
AcDbXrecord
280
     1
102
RTVSPropertyOp0
 70
     0
102
RTVSPropertyOp1
 70
     0
102
RTVSPropertyOp2
 70
     0
102
RTVSPropertyOp3
 70
     0
102
RTVSPropertyOp4
 70
     0
102
RTVSPropertyOp5
 70
     0
102
RTVSPropertyOp6
 70
     0
102
RTVSPropertyOp7
 70
     0
102
RTVSPropertyOp8
 70
     0
102
RTVSPropertyOp9
 70
     0
102
RTVSPropertyOp10
 70
     0
102
RTVSPropertyOp11
 70
     0
102
RTVSPropertyOp12
 70
     0
102
RTVSPropertyOp13
 70
     0
102
RTVSPropertyOp14
 70
     2
102
RTVSPropertyOp15
 70
     0
102
RTVSPropertyOp16
 70
     0
102
RTVSPropertyOp17
 70
     0
102
RTVSPropertyOp18
 70
     0
102
RTVSPropertyOp19
 70
     0
102
RTVSPropertyOp20
 70
     0
102
RTVSPropertyOp21
 70
     0
102
RTVSPropertyOp22
 70
     0
102
RTVSPropertyOp23
 70
     0
102
RTVSPropertyOp24
 70
     0
102
RTVSPropertyOp25
 70
     0
102
RTVSPropertyOp26
 70
     0
102
RTVSPropertyOp27
 70
     0
102
RTVSPropertyOp28
 70
     1
102
RTVSPropertyOp29
 70
     1
102
RTVSPropertyOp30
 70
     1
102
RTVSPropertyOp31
 70
     1
102
RTVSPropertyOp32
 70
     1
  0
XRECORD
  5
B141
102
{ACAD_REACTORS
330
B140
102
}
330
B140
100
AcDbXrecord
280
     1
102
RTVSPropertyOp0
 70
     1
102
RTVSPropertyOp1
 70
     1
102
RTVSPropertyOp2
 70
     1
102
RTVSPropertyOp3
 70
     1
102
RTVSPropertyOp4
 70
     1
102
RTVSPropertyOp5
 70
     1
102
RTVSPropertyOp6
 70
     1
102
RTVSPropertyOp7
 70
     1
102
RTVSPropertyOp8
 70
     1
102
RTVSPropertyOp9
 70
     1
102
RTVSPropertyOp10
 70
     1
102
RTVSPropertyOp11
 70
     1
102
RTVSPropertyOp12
 70
     1
102
RTVSPropertyOp13
 70
     1
102
RTVSPropertyOp14
 70
     1
102
RTVSPropertyOp15
 70
     1
102
RTVSPropertyOp16
 70
     1
102
RTVSPropertyOp17
 70
     1
102
RTVSPropertyOp18
 70
     1
102
RTVSPropertyOp19
 70
     1
102
RTVSPropertyOp20
 70
     1
102
RTVSPropertyOp21
 70
     1
102
RTVSPropertyOp22
 70
     1
102
RTVSPropertyOp23
 70
     1
102
RTVSPropertyOp24
 70
     1
102
RTVSPropertyOp25
 70
     1
102
RTVSPropertyOp26
 70
     1
102
RTVSPropertyOp27
 70
     1
102
RTVSPropertyOp28
 70
     1
102
RTVSPropertyOp29
 70
     1
102
RTVSPropertyOp30
 70
     1
102
RTVSPropertyOp31
 70
     1
102
RTVSPropertyOp32
 70
     1
  0
XRECORD
  5
B153
102
{ACAD_REACTORS
330
B152
102
}
330
B152
100
AcDbXrecord
280
     1
102
RTVSPropertyOp0
 70
     0
102
RTVSPropertyOp1
 70
     0
102
RTVSPropertyOp2
 70
     0
102
RTVSPropertyOp3
 70
     0
102
RTVSPropertyOp4
 70
     0
102
RTVSPropertyOp5
 70
     0
102
RTVSPropertyOp6
 70
     0
102
RTVSPropertyOp7
 70
     0
102
RTVSPropertyOp8
 70
     0
102
RTVSPropertyOp9
 70
     0
102
RTVSPropertyOp10
 70
     0
102
RTVSPropertyOp11
 70
     0
102
RTVSPropertyOp12
 70
     0
102
RTVSPropertyOp13
 70
     0
102
RTVSPropertyOp14
 70
     2
102
RTVSPropertyOp15
 70
     0
102
RTVSPropertyOp16
 70
     0
102
RTVSPropertyOp17
 70
     0
102
RTVSPropertyOp18
 70
     0
102
RTVSPropertyOp19
 70
     0
102
RTVSPropertyOp20
 70
     0
102
RTVSPropertyOp21
 70
     0
102
RTVSPropertyOp22
 70
     0
102
RTVSPropertyOp23
 70
     0
102
RTVSPropertyOp24
 70
     0
102
RTVSPropertyOp25
 70
     0
102
RTVSPropertyOp26
 70
     0
102
RTVSPropertyOp27
 70
     0
102
RTVSPropertyOp28
 70
     1
102
RTVSPropertyOp29
 70
     1
102
RTVSPropertyOp30
 70
     1
102
RTVSPropertyOp31
 70
     1
102
RTVSPropertyOp32
 70
     1
  0
XRECORD
  5
B139
102
{ACAD_REACTORS
330
B138
102
}
330
B138
100
AcDbXrecord
280
     1
102
RTVSPropertyOp0
 70
     1
102
RTVSPropertyOp1
 70
     1
102
RTVSPropertyOp2
 70
     1
102
RTVSPropertyOp3
 70
     1
102
RTVSPropertyOp4
 70
     1
102
RTVSPropertyOp5
 70
     1
102
RTVSPropertyOp6
 70
     1
102
RTVSPropertyOp7
 70
     1
102
RTVSPropertyOp8
 70
     1
102
RTVSPropertyOp9
 70
     1
102
RTVSPropertyOp10
 70
     1
102
RTVSPropertyOp11
 70
     1
102
RTVSPropertyOp12
 70
     1
102
RTVSPropertyOp13
 70
     1
102
RTVSPropertyOp14
 70
     1
102
RTVSPropertyOp15
 70
     1
102
RTVSPropertyOp16
 70
     1
102
RTVSPropertyOp17
 70
     1
102
RTVSPropertyOp18
 70
     1
102
RTVSPropertyOp19
 70
     1
102
RTVSPropertyOp20
 70
     1
102
RTVSPropertyOp21
 70
     1
102
RTVSPropertyOp22
 70
     1
102
RTVSPropertyOp23
 70
     1
102
RTVSPropertyOp24
 70
     1
102
RTVSPropertyOp25
 70
     1
102
RTVSPropertyOp26
 70
     1
102
RTVSPropertyOp27
 70
     1
102
RTVSPropertyOp28
 70
     1
102
RTVSPropertyOp29
 70
     1
102
RTVSPropertyOp30
 70
     1
102
RTVSPropertyOp31
 70
     1
102
RTVSPropertyOp32
 70
     1
  0
XRECORD
  5
B14F
102
{ACAD_REACTORS
330
B14E
102
}
330
B14E
100
AcDbXrecord
280
     1
102
RTVSPropertyOp0
 70
     1
102
RTVSPropertyOp1
 70
     1
102
RTVSPropertyOp2
 70
     1
102
RTVSPropertyOp3
 70
     1
102
RTVSPropertyOp4
 70
     1
102
RTVSPropertyOp5
 70
     1
102
RTVSPropertyOp6
 70
     1
102
RTVSPropertyOp7
 70
     1
102
RTVSPropertyOp8
 70
     1
102
RTVSPropertyOp9
 70
     1
102
RTVSPropertyOp10
 70
     1
102
RTVSPropertyOp11
 70
     1
102
RTVSPropertyOp12
 70
     1
102
RTVSPropertyOp13
 70
     1
102
RTVSPropertyOp14
 70
     1
102
RTVSPropertyOp15
 70
     1
102
RTVSPropertyOp16
 70
     1
102
RTVSPropertyOp17
 70
     1
102
RTVSPropertyOp18
 70
     1
102
RTVSPropertyOp19
 70
     1
102
RTVSPropertyOp20
 70
     1
102
RTVSPropertyOp21
 70
     1
102
RTVSPropertyOp22
 70
     1
102
RTVSPropertyOp23
 70
     1
102
RTVSPropertyOp24
 70
     1
102
RTVSPropertyOp25
 70
     1
102
RTVSPropertyOp26
 70
     1
102
RTVSPropertyOp27
 70
     1
102
RTVSPropertyOp28
 70
     1
102
RTVSPropertyOp29
 70
     1
102
RTVSPropertyOp30
 70
     1
102
RTVSPropertyOp31
 70
     1
102
RTVSPropertyOp32
 70
     1
  0
XRECORD
  5
B14D
102
{ACAD_REACTORS
330
B14C
102
}
330
B14C
100
AcDbXrecord
280
     1
102
RTVSPropertyOp0
 70
     1
102
RTVSPropertyOp1
 70
     1
102
RTVSPropertyOp2
 70
     1
102
RTVSPropertyOp3
 70
     1
102
RTVSPropertyOp4
 70
     1
102
RTVSPropertyOp5
 70
     1
102
RTVSPropertyOp6
 70
     1
102
RTVSPropertyOp7
 70
     1
102
RTVSPropertyOp8
 70
     1
102
RTVSPropertyOp9
 70
     1
102
RTVSPropertyOp10
 70
     1
102
RTVSPropertyOp11
 70
     1
102
RTVSPropertyOp12
 70
     1
102
RTVSPropertyOp13
 70
     1
102
RTVSPropertyOp14
 70
     1
102
RTVSPropertyOp15
 70
     1
102
RTVSPropertyOp16
 70
     1
102
RTVSPropertyOp17
 70
     1
102
RTVSPropertyOp18
 70
     1
102
RTVSPropertyOp19
 70
     1
102
RTVSPropertyOp20
 70
     1
102
RTVSPropertyOp21
 70
     1
102
RTVSPropertyOp22
 70
     1
102
RTVSPropertyOp23
 70
     1
102
RTVSPropertyOp24
 70
     1
102
RTVSPropertyOp25
 70
     1
102
RTVSPropertyOp26
 70
     1
102
RTVSPropertyOp27
 70
     1
102
RTVSPropertyOp28
 70
     1
102
RTVSPropertyOp29
 70
     1
102
RTVSPropertyOp30
 70
     1
102
RTVSPropertyOp31
 70
     1
102
RTVSPropertyOp32
 70
     1
  0
XRECORD
  5
B147
102
{ACAD_REACTORS
330
B146
102
}
330
B146
100
AcDbXrecord
280
     1
102
RTVSPropertyOp0
 70
     1
102
RTVSPropertyOp1
 70
     1
102
RTVSPropertyOp2
 70
     1
102
RTVSPropertyOp3
 70
     1
102
RTVSPropertyOp4
 70
     1
102
RTVSPropertyOp5
 70
     1
102
RTVSPropertyOp6
 70
     1
102
RTVSPropertyOp7
 70
     1
102
RTVSPropertyOp8
 70
     1
102
RTVSPropertyOp9
 70
     1
102
RTVSPropertyOp10
 70
     1
102
RTVSPropertyOp11
 70
     1
102
RTVSPropertyOp12
 70
     1
102
RTVSPropertyOp13
 70
     1
102
RTVSPropertyOp14
 70
     1
102
RTVSPropertyOp15
 70
     1
102
RTVSPropertyOp16
 70
     1
102
RTVSPropertyOp17
 70
     1
102
RTVSPropertyOp18
 70
     1
102
RTVSPropertyOp19
 70
     1
102
RTVSPropertyOp20
 70
     1
102
RTVSPropertyOp21
 70
     1
102
RTVSPropertyOp22
 70
     1
102
RTVSPropertyOp23
 70
     1
102
RTVSPropertyOp24
 70
     1
102
RTVSPropertyOp25
 70
     1
102
RTVSPropertyOp26
 70
     1
102
RTVSPropertyOp27
 70
     1
102
RTVSPropertyOp28
 70
     1
102
RTVSPropertyOp29
 70
     1
102
RTVSPropertyOp30
 70
     1
102
RTVSPropertyOp31
 70
     1
102
RTVSPropertyOp32
 70
     1
  0
XRECORD
  5
B149
102
{ACAD_REACTORS
330
B148
102
}
330
B148
100
AcDbXrecord
280
     1
102
RTVSPropertyOp0
 70
     1
102
RTVSPropertyOp1
 70
     1
102
RTVSPropertyOp2
 70
     1
102
RTVSPropertyOp3
 70
     1
102
RTVSPropertyOp4
 70
     1
102
RTVSPropertyOp5
 70
     1
102
RTVSPropertyOp6
 70
     1
102
RTVSPropertyOp7
 70
     1
102
RTVSPropertyOp8
 70
     1
102
RTVSPropertyOp9
 70
     1
102
RTVSPropertyOp10
 70
     1
102
RTVSPropertyOp11
 70
     1
102
RTVSPropertyOp12
 70
     1
102
RTVSPropertyOp13
 70
     1
102
RTVSPropertyOp14
 70
     1
102
RTVSPropertyOp15
 70
     1
102
RTVSPropertyOp16
 70
     1
102
RTVSPropertyOp17
 70
     1
102
RTVSPropertyOp18
 70
     1
102
RTVSPropertyOp19
 70
     1
102
RTVSPropertyOp20
 70
     1
102
RTVSPropertyOp21
 70
     1
102
RTVSPropertyOp22
 70
     1
102
RTVSPropertyOp23
 70
     1
102
RTVSPropertyOp24
 70
     1
102
RTVSPropertyOp25
 70
     1
102
RTVSPropertyOp26
 70
     1
102
RTVSPropertyOp27
 70
     1
102
RTVSPropertyOp28
 70
     1
102
RTVSPropertyOp29
 70
     1
102
RTVSPropertyOp30
 70
     1
102
RTVSPropertyOp31
 70
     1
102
RTVSPropertyOp32
 70
     1
  0
XRECORD
  5
B13F
102
{ACAD_REACTORS
330
B13E
102
}
330
B13E
100
AcDbXrecord
280
     1
102
RTVSPropertyOp0
 70
     1
102
RTVSPropertyOp1
 70
     1
102
RTVSPropertyOp2
 70
     1
102
RTVSPropertyOp3
 70
     1
102
RTVSPropertyOp4
 70
     1
102
RTVSPropertyOp5
 70
     1
102
RTVSPropertyOp6
 70
     1
102
RTVSPropertyOp7
 70
     1
102
RTVSPropertyOp8
 70
     1
102
RTVSPropertyOp9
 70
     1
102
RTVSPropertyOp10
 70
     1
102
RTVSPropertyOp11
 70
     1
102
RTVSPropertyOp12
 70
     1
102
RTVSPropertyOp13
 70
     1
102
RTVSPropertyOp14
 70
     1
102
RTVSPropertyOp15
 70
     1
102
RTVSPropertyOp16
 70
     1
102
RTVSPropertyOp17
 70
     1
102
RTVSPropertyOp18
 70
     1
102
RTVSPropertyOp19
 70
     1
102
RTVSPropertyOp20
 70
     1
102
RTVSPropertyOp21
 70
     1
102
RTVSPropertyOp22
 70
     1
102
RTVSPropertyOp23
 70
     1
102
RTVSPropertyOp24
 70
     1
102
RTVSPropertyOp25
 70
     1
102
RTVSPropertyOp26
 70
     1
102
RTVSPropertyOp27
 70
     1
102
RTVSPropertyOp28
 70
     1
102
RTVSPropertyOp29
 70
     1
102
RTVSPropertyOp30
 70
     1
102
RTVSPropertyOp31
 70
     1
102
RTVSPropertyOp32
 70
     1
  0
XRECORD
  5
B133
102
{ACAD_REACTORS
330
B132
102
}
330
B132
100
AcDbXrecord
280
     1
102
RTVSPropertyOp0
 70
     1
102
RTVSPropertyOp1
 70
     1
102
RTVSPropertyOp2
 70
     1
102
RTVSPropertyOp3
 70
     1
102
RTVSPropertyOp4
 70
     1
102
RTVSPropertyOp5
 70
     1
102
RTVSPropertyOp6
 70
     1
102
RTVSPropertyOp7
 70
     1
102
RTVSPropertyOp8
 70
     1
102
RTVSPropertyOp9
 70
     1
102
RTVSPropertyOp10
 70
     1
102
RTVSPropertyOp11
 70
     1
102
RTVSPropertyOp12
 70
     1
102
RTVSPropertyOp13
 70
     1
102
RTVSPropertyOp14
 70
     1
102
RTVSPropertyOp15
 70
     1
102
RTVSPropertyOp16
 70
     1
102
RTVSPropertyOp17
 70
     1
102
RTVSPropertyOp18
 70
     1
102
RTVSPropertyOp19
 70
     1
102
RTVSPropertyOp20
 70
     1
102
RTVSPropertyOp21
 70
     1
102
RTVSPropertyOp22
 70
     1
102
RTVSPropertyOp23
 70
     1
102
RTVSPropertyOp24
 70
     1
102
RTVSPropertyOp25
 70
     1
102
RTVSPropertyOp26
 70
     1
102
RTVSPropertyOp27
 70
     1
102
RTVSPropertyOp28
 70
     1
102
RTVSPropertyOp29
 70
     1
102
RTVSPropertyOp30
 70
     1
102
RTVSPropertyOp31
 70
     1
102
RTVSPropertyOp32
 70
     1
  0
XRECORD
  5
B14B
102
{ACAD_REACTORS
330
B14A
102
}
330
B14A
100
AcDbXrecord
280
     1
102
RTVSPropertyOp0
 70
     1
102
RTVSPropertyOp1
 70
     1
102
RTVSPropertyOp2
 70
     1
102
RTVSPropertyOp3
 70
     1
102
RTVSPropertyOp4
 70
     1
102
RTVSPropertyOp5
 70
     1
102
RTVSPropertyOp6
 70
     1
102
RTVSPropertyOp7
 70
     1
102
RTVSPropertyOp8
 70
     1
102
RTVSPropertyOp9
 70
     1
102
RTVSPropertyOp10
 70
     1
102
RTVSPropertyOp11
 70
     1
102
RTVSPropertyOp12
 70
     1
102
RTVSPropertyOp13
 70
     1
102
RTVSPropertyOp14
 70
     1
102
RTVSPropertyOp15
 70
     1
102
RTVSPropertyOp16
 70
     1
102
RTVSPropertyOp17
 70
     1
102
RTVSPropertyOp18
 70
     1
102
RTVSPropertyOp19
 70
     1
102
RTVSPropertyOp20
 70
     1
102
RTVSPropertyOp21
 70
     1
102
RTVSPropertyOp22
 70
     1
102
RTVSPropertyOp23
 70
     1
102
RTVSPropertyOp24
 70
     1
102
RTVSPropertyOp25
 70
     1
102
RTVSPropertyOp26
 70
     1
102
RTVSPropertyOp27
 70
     1
102
RTVSPropertyOp28
 70
     1
102
RTVSPropertyOp29
 70
     1
102
RTVSPropertyOp30
 70
     1
102
RTVSPropertyOp31
 70
     1
102
RTVSPropertyOp32
 70
     1
  0
ENDSEC
  0
EOF
