  0
SECTION
  2
HEADER
  9
$ACADVER
  1
AC1018
  9
$ACADMAINTVER
 70
   104
  9
$DWGCODEPAGE
  3
ANSI_932
  9
$LASTSAVEDBY
  1
HON1000CV
  9
$INSBASE
 10
0.0
 20
0.0
 30
0.0
  9
$EXTMIN
 10
3605.635975240931
 20
-340.0555305106783
 30
0.0
  9
$EXTMAX
 10
4350.024049240933
 20
229.2327853395057
 30
0.0
  9
$LIMMIN
 10
0.0
 20
0.0
  9
$LIMMAX
 10
420.0
 20
297.0
  9
$ORTHOMODE
 70
     0
  9
$REGENMODE
 70
     1
  9
$FILLMODE
 70
     1
  9
$QTEXTMODE
 70
     0
  9
$MIRRTEXT
 70
     1
  9
$LTSCALE
 40
3.0
  9
$ATTMODE
 70
     1
  9
$TEXTSIZE
 40
10.0
  9
$TRACEWID
 40
0.05
  9
$TEXTSTYLE
  7
ACAD
  9
$CLAYER
  8
0
  9
$CELTYPE
  6
CONTINUOUS
  9
$CECOLOR
 62
   256
  9
$CELTSCALE
 40
1.0
  9
$DISPSILH
 70
     0
  9
$DIMSCALE
 40
1.0
  9
$DIMASZ
 40
5.0
  9
$DIMEXO
 40
0.0
  9
$DIMDLI
 40
0.38
  9
$DIMRND
 40
0.0
  9
$DIMDLE
 40
0.0
  9
$DIMEXE
 40
0.0
  9
$DIMTP
 40
0.0
  9
$DIMTM
 40
0.0
  9
$DIMTXT
 40
6.5
  9
$DIMCEN
 40
0.09
  9
$DIMTSZ
 40
0.0
  9
$DIMTOL
 70
     0
  9
$DIMLIM
 70
     0
  9
$DIMTIH
 70
     0
  9
$DIMTOH
 70
     1
  9
$DIMSE1
 70
     0
  9
$DIMSE2
 70
     0
  9
$DIMTAD
 70
     1
  9
$DIMZIN
 70
     0
  9
$DIMBLK
  1
Small
  9
$DIMASO
 70
     1
  9
$DIMSHO
 70
     1
  9
$DIMPOST
  1

  9
$DIMAPOST
  1

  9
$DIMALT
 70
     0
  9
$DIMALTD
 70
     2
  9
$DIMALTF
 40
25.4
  9
$DIMLFAC
 40
1.0
  9
$DIMTOFL
 70
     0
  9
$DIMTVP
 40
0.0
  9
$DIMTIX
 70
     1
  9
$DIMSOXD
 70
     0
  9
$DIMSAH
 70
     0
  9
$DIMBLK1
  1

  9
$DIMBLK2
  1

  9
$DIMSTYLE
  2
AutoCAD
  9
$DIMCLRD
 70
     4
  9
$DIMCLRE
 70
     4
  9
$DIMCLRT
 70
     3
  9
$DIMTFAC
 40
1.0
  9
$DIMGAP
 40
3.0
  9
$DIMJUST
 70
     0
  9
$DIMSD1
 70
     0
  9
$DIMSD2
 70
     0
  9
$DIMTOLJ
 70
     1
  9
$DIMTZIN
 70
     0
  9
$DIMALTZ
 70
     0
  9
$DIMALTTZ
 70
     0
  9
$DIMUPT
 70
     0
  9
$DIMDEC
 70
     0
  9
$DIMTDEC
 70
     0
  9
$DIMALTU
 70
     2
  9
$DIMALTTD
 70
     2
  9
$DIMTXSTY
  7
ACAD
  9
$DIMAUNIT
 70
     0
  9
$DIMADEC
 70
     0
  9
$DIMALTRND
 40
0.0
  9
$DIMAZIN
 70
     0
  9
$DIMDSEP
 70
    46
  9
$DIMATFIT
 70
     0
  9
$DIMFRAC
 70
     0
  9
$DIMLDRBLK
  1
None
  9
$DIMLUNIT
 70
     2
  9
$DIMLWD
 70
    -2
  9
$DIMLWE
 70
    -2
  9
$DIMTMOVE
 70
     0
  9
$LUNITS
 70
     2
  9
$LUPREC
 70
     4
  9
$SKETCHINC
 40
0.1
  9
$FILLETRAD
 40
0.0
  9
$AUNITS
 70
     0
  9
$AUPREC
 70
     0
  9
$MENU
  1
.
  9
$ELEVATION
 40
0.0
  9
$PELEVATION
 40
0.0
  9
$THICKNESS
 40
0.0
  9
$LIMCHECK
 70
     0
  9
$CHAMFERA
 40
0.0
  9
$CHAMFERB
 40
0.0
  9
$CHAMFERC
 40
0.0
  9
$CHAMFERD
 40
0.0
  9
$SKPOLY
 70
     0
  9
$TDCREATE
 40
2454316.693457674
  9
$TDUCREATE
 40
2454316.318457674
  9
$TDUPDATE
 40
2455961.441838079
  9
$TDUUPDATE
 40
2455961.066838079
  9
$TDINDWG
 40
0.7477456019
  9
$TDUSRTIMER
 40
0.7477456019
  9
$USRTIMER
 70
     1
  9
$ANGBASE
 50
0.0
  9
$ANGDIR
 70
     0
  9
$PDMODE
 70
     0
  9
$PDSIZE
 40
0.0
  9
$PLINEWID
 40
0.0
  9
$SPLFRAME
 70
     0
  9
$SPLINETYPE
 70
     6
  9
$SPLINESEGS
 70
     8
  9
$HANDSEED
  5
B116
  9
$SURFTAB1
 70
     6
  9
$SURFTAB2
 70
     6
  9
$SURFTYPE
 70
     6
  9
$SURFU
 70
     6
  9
$SURFV
 70
     6
  9
$UCSBASE
  2

  9
$UCSNAME
  2

  9
$UCSORG
 10
0.0
 20
0.0
 30
0.0
  9
$UCSXDIR
 10
1.0
 20
0.0
 30
0.0
  9
$UCSYDIR
 10
0.0
 20
1.0
 30
0.0
  9
$UCSORTHOREF
  2

  9
$UCSORTHOVIEW
 70
     0
  9
$UCSORGTOP
 10
0.0
 20
0.0
 30
0.0
  9
$UCSORGBOTTOM
 10
0.0
 20
0.0
 30
0.0
  9
$UCSORGLEFT
 10
0.0
 20
0.0
 30
0.0
  9
$UCSORGRIGHT
 10
0.0
 20
0.0
 30
0.0
  9
$UCSORGFRONT
 10
0.0
 20
0.0
 30
0.0
  9
$UCSORGBACK
 10
0.0
 20
0.0
 30
0.0
  9
$PUCSBASE
  2

  9
$PUCSNAME
  2

  9
$PUCSORG
 10
0.0
 20
0.0
 30
0.0
  9
$PUCSXDIR
 10
1.0
 20
0.0
 30
0.0
  9
$PUCSYDIR
 10
0.0
 20
1.0
 30
0.0
  9
$PUCSORTHOREF
  2

  9
$PUCSORTHOVIEW
 70
     0
  9
$PUCSORGTOP
 10
0.0
 20
0.0
 30
0.0
  9
$PUCSORGBOTTOM
 10
0.0
 20
0.0
 30
0.0
  9
$PUCSORGLEFT
 10
0.0
 20
0.0
 30
0.0
  9
$PUCSORGRIGHT
 10
0.0
 20
0.0
 30
0.0
  9
$PUCSORGFRONT
 10
0.0
 20
0.0
 30
0.0
  9
$PUCSORGBACK
 10
0.0
 20
0.0
 30
0.0
  9
$USERI1
 70
     0
  9
$USERI2
 70
     0
  9
$USERI3
 70
     0
  9
$USERI4
 70
     0
  9
$USERI5
 70
     0
  9
$USERR1
 40
0.0
  9
$USERR2
 40
0.0
  9
$USERR3
 40
0.0
  9
$USERR4
 40
0.0
  9
$USERR5
 40
0.0
  9
$WORLDVIEW
 70
     1
  9
$SHADEDGE
 70
     3
  9
$SHADEDIF
 70
    70
  9
$TILEMODE
 70
     1
  9
$MAXACTVP
 70
    48
  9
$PINSBASE
 10
0.0
 20
0.0
 30
0.0
  9
$PLIMCHECK
 70
     0
  9
$PEXTMIN
 10
1.000000000000000E+20
 20
1.000000000000000E+20
 30
1.000000000000000E+20
  9
$PEXTMAX
 10
-1.000000000000000E+20
 20
-1.000000000000000E+20
 30
-1.000000000000000E+20
  9
$PLIMMIN
 10
0.0
 20
0.0
  9
$PLIMMAX
 10
12.0
 20
9.0
  9
$UNITMODE
 70
     0
  9
$VISRETAIN
 70
     0
  9
$PLINEGEN
 70
     0
  9
$PSLTSCALE
 70
     1
  9
$TREEDEPTH
 70
  3020
  9
$CMLSTYLE
  2
Standard
  9
$CMLJUST
 70
     0
  9
$CMLSCALE
 40
1.0
  9
$PROXYGRAPHICS
 70
     1
  9
$MEASUREMENT
 70
     0
  9
$CELWEIGHT
370
    -1
  9
$ENDCAPS
280
     0
  9
$JOINSTYLE
280
     0
  9
$LWDISPLAY
290
     0
  9
$INSUNITS
 70
     0
  9
$HYPERLINKBASE
  1

  9
$STYLESHEET
  1
monochrome.ctb
  9
$XEDIT
290
     1
  9
$CEPSNTYPE
380
     0
  9
$PSTYLEMODE
290
     1
  9
$FINGERPRINTGUID
  2
{CC7D6DEE-A9F1-4F3E-AC95-C84B62CCA3FD}
  9
$VERSIONGUID
  2
{B39B1628-54BB-4ED1-9F07-E29CE64146CD}
  9
$EXTNAMES
290
     1
  9
$PSVPSCALE
 40
0.0
  9
$OLESTARTUP
290
     0
  9
$SORTENTS
280
   127
  9
$INDEXCTL
280
     0
  9
$HIDETEXT
280
     0
  9
$XCLIPFRAME
290
     0
  9
$HALOGAP
280
     0
  9
$OBSCOLOR
 70
   257
  9
$OBSLTYPE
280
     0
  9
$INTERSECTIONDISPLAY
280
     0
  9
$INTERSECTIONCOLOR
 70
   257
  9
$DIMASSOC
280
     1
  9
$PROJECTNAME
  1

  0
ENDSEC
  0
SECTION
  2
CLASSES
  0
CLASS
  1
ACDBDICTIONARYWDFLT
  2
AcDbDictionaryWithDefault
  3
ObjectDBX Classes
 90
        0
 91
        1
280
     0
281
     0
  0
CLASS
  1
DICTIONARYVAR
  2
AcDbDictionaryVar
  3
ObjectDBX Classes
 90
        0
 91
       10
280
     0
281
     0
  0
CLASS
  1
MATERIAL
  2
AcDbMaterial
  3
ObjectDBX Classes
 90
     1153
 91
        3
280
     0
281
     0
  0
CLASS
  1
VISUALSTYLE
  2
AcDbVisualStyle
  3
ObjectDBX Classes
 90
     4095
 91
       24
280
     0
281
     0
  0
CLASS
  1
TABLESTYLE
  2
AcDbTableStyle
  3
ObjectDBX Classes
 90
     4095
 91
        1
280
     0
281
     0
  0
CLASS
  1
SCALE
  2
AcDbScale
  3
ObjectDBX Classes
 90
     1153
 91
       17
280
     0
281
     0
  0
CLASS
  1
MLEADERSTYLE
  2
AcDbMLeaderStyle
  3
ACDB_MLEADERSTYLE_CLASS
 90
     4095
 91
        1
280
     0
281
     0
  0
CLASS
  1
SORTENTSTABLE
  2
AcDbSortentsTable
  3
ObjectDBX Classes
 90
        0
 91
        1
280
     0
281
     0
  0
CLASS
  1
CELLSTYLEMAP
  2
AcDbCellStyleMap
  3
ObjectDBX Classes
 90
     1152
 91
        2
280
     0
281
     0
  0
ENDSEC
  0
SECTION
  2
TABLES
  0
TABLE
  2
VPORT
  5
8
102
{ACAD_XDICTIONARY
360
AAF4
102
}
330
0
100
AcDbSymbolTable
 70
     1
  0
VPORT
  5
6567
330
8
100
AcDbSymbolTableRecord
100
AcDbViewportTableRecord
  2
*Active
 70
     0
 10
0.0
 20
0.0
 11
1.0
 21
1.0
 12
3977.948771619696
 22
-55.41386319841604
 13
0.0
 23
0.0
 14
1.0
 24
1.0
 15
0.0
 25
0.0
 16
0.0
 26
0.0
 36
1.0
 17
0.0
 27
0.0
 37
0.0
 40
574.2327704321755
 41
2.519736842105263
 42
50.0
 43
0.0
 44
0.0
 50
0.0
 51
0.0
 71
     0
 72
   100
 73
     1
 74
     1
 75
     0
 76
     0
 77
     0
 78
     0
281
     0
 65
     1
110
0.0
120
0.0
130
0.0
111
1.0
121
0.0
131
0.0
112
0.0
122
1.0
132
0.0
 79
     0
146
0.0
1001
ACAD_NAV_VCDISPLAY
1070
     3
  0
ENDTAB
  0
TABLE
  2
LTYPE
  5
5
330
0
100
AcDbSymbolTable
 70
     3
  0
LTYPE
  5
13
330
5
100
AcDbSymbolTableRecord
100
AcDbLinetypeTableRecord
  2
ByBlock
 70
     0
  3

 72
    65
 73
     0
 40
0.0
  0
LTYPE
  5
14
330
5
100
AcDbSymbolTableRecord
100
AcDbLinetypeTableRecord
  2
ByLayer
 70
     0
  3

 72
    65
 73
     0
 40
0.0
  0
LTYPE
  5
15
330
5
100
AcDbSymbolTableRecord
100
AcDbLinetypeTableRecord
  2
CONTINUOUS
 70
     0
  3
実線
 72
    65
 73
     0
 40
0.0
  0
LTYPE
  5
25
330
5
100
AcDbSymbolTableRecord
100
AcDbLinetypeTableRecord
  2
CENTER1
 70
     0
  3
----- - ----- - ----- - ----- - 
 72
    65
 73
     4
 40
10.0
 49
6.25
 74
     0
 49
-1.25
 74
     0
 49
1.25
 74
     0
 49
-1.25
 74
     0
  0
LTYPE
  5
44
330
5
100
AcDbSymbolTableRecord
100
AcDbLinetypeTableRecord
  2
PLINE2
 70
     0
  3
------     -----------     -----
 72
    65
 73
     2
 40
3.0
 49
2.1
 74
     0
 49
-0.9
 74
     0
  0
ENDTAB
  0
TABLE
  2
LAYER
  5
2
102
{ACAD_XDICTIONARY
360
175
102
}
330
0
100
AcDbSymbolTable
 70
     6
  0
LAYER
  5
10
102
{ACAD_XDICTIONARY
360
79A2
102
}
330
2
100
AcDbSymbolTableRecord
100
AcDbLayerTableRecord
  2
0
 70
     0
 62
     7
  6
CONTINUOUS
370
    -3
390
F
  0
LAYER
  5
128
330
2
100
AcDbSymbolTableRecord
100
AcDbLayerTableRecord
  2
Defpoints
 70
     0
 62
     7
  6
CONTINUOUS
290
     0
370
    -3
390
F
  0
LAYER
  5
178
102
{ACAD_XDICTIONARY
360
79A4
102
}
330
2
100
AcDbSymbolTableRecord
100
AcDbLayerTableRecord
  2
寸法
 70
     0
 62
     7
  6
CONTINUOUS
370
    -3
390
F
  0
LAYER
  5
179
102
{ACAD_XDICTIONARY
360
79A6
102
}
330
2
100
AcDbSymbolTableRecord
100
AcDbLayerTableRecord
  2
躯体と製品
 70
     0
 62
     7
  6
CONTINUOUS
370
    -3
390
F
  0
LAYER
  5
4F62
102
{ACAD_XDICTIONARY
360
79A8
102
}
330
2
100
AcDbSymbolTableRecord
100
AcDbLayerTableRecord
  2
文字-記号
 70
     0
 62
     7
  6
CONTINUOUS
370
    -3
390
F
  0
LAYER
  5
A219
330
2
100
AcDbSymbolTableRecord
100
AcDbLayerTableRecord
  2
中心線
 70
     0
 62
     7
  6
CONTINUOUS
370
    -3
390
F
1001
AcAecLayerStandard
1000

1000

1001
AcCmTransparency
1071
        0
  0
ENDTAB
  0
TABLE
  2
STYLE
  5
3
330
0
100
AcDbSymbolTable
 70
     2
  0
STYLE
  5
11
330
3
100
AcDbSymbolTableRecord
100
AcDbTextStyleTableRecord
  2
STANDARD
 70
     0
 40
0.0
 41
1.0
 50
0.0
 71
     0
 42
0.2
  3
txt
  4
bigfont.shx
  0
STYLE
  5
123
330
3
100
AcDbSymbolTableRecord
100
AcDbTextStyleTableRecord
  2
ACAD
 70
     0
 40
0.0
 41
1.0
 50
0.0
 71
     0
 42
10.0
  3
romans.shx
  4
extfont.shx
  0
ENDTAB
  0
TABLE
  2
VIEW
  5
6
330
0
100
AcDbSymbolTable
 70
     0
  0
ENDTAB
  0
TABLE
  2
UCS
  5
7
330
0
100
AcDbSymbolTable
 70
     0
  0
ENDTAB
  0
TABLE
  2
APPID
  5
9
330
0
100
AcDbSymbolTable
 70
    11
  0
APPID
  5
12
330
9
100
AcDbSymbolTableRecord
100
AcDbRegAppTableRecord
  2
ACAD
 70
     0
  0
APPID
  5
65B8
330
9
100
AcDbSymbolTableRecord
100
AcDbRegAppTableRecord
  2
ACAD_NAV_VCDISPLAY
 70
     0
  0
APPID
  5
79DD
330
9
100
AcDbSymbolTableRecord
100
AcDbRegAppTableRecord
  2
AcAecLayerStandard
 70
     0
  0
APPID
  5
79DE
330
9
100
AcDbSymbolTableRecord
100
AcDbRegAppTableRecord
  2
AcCmTransparency
 70
     0
  0
APPID
  5
7CCA
330
9
100
AcDbSymbolTableRecord
100
AcDbRegAppTableRecord
  2
ACAD_EXEMPT_FROM_CAD_STANDARDS
 70
     0
  0
APPID
  5
9B0F
330
9
100
AcDbSymbolTableRecord
100
AcDbRegAppTableRecord
  2
AcDbBlockRepETag
 70
     0
  0
APPID
  5
A6AE
330
9
100
AcDbSymbolTableRecord
100
AcDbRegAppTableRecord
  2
ACAD_PSEXT
 70
     0
  0
APPID
  5
AB2A
330
9
100
AcDbSymbolTableRecord
100
AcDbRegAppTableRecord
  2
ACAD_MLEADERVER
 70
     0
  0
APPID
  5
AB59
330
9
100
AcDbSymbolTableRecord
100
AcDbRegAppTableRecord
  2
AcadAnnoPO
 70
     0
  0
APPID
  5
AB5A
330
9
100
AcDbSymbolTableRecord
100
AcDbRegAppTableRecord
  2
ACAD_DSTYLE_DIMJAG
 70
     0
  0
APPID
  5
AB5B
330
9
100
AcDbSymbolTableRecord
100
AcDbRegAppTableRecord
  2
ACAD_DSTYLE_DIMTALN
 70
     0
  0
ENDTAB
  0
TABLE
  2
DIMSTYLE
  5
A
330
0
100
AcDbSymbolTable
 70
     2
100
AcDbDimStyleTable
 71
     1
340
126
  0
DIMSTYLE
105
11C
330
A
100
AcDbSymbolTableRecord
100
AcDbDimStyleTableRecord
  2
Standard
 70
     0
340
11
  0
DIMSTYLE
105
126
102
{ACAD_REACTORS
330
7B9F
330
7BA0
330
7BAF
330
A25A
102
}
330
A
100
AcDbSymbolTableRecord
100
AcDbDimStyleTableRecord
  2
AutoCAD
 70
     0
 41
5.0
 42
0.0
 44
0.0
 73
     0
 77
     1
140
6.5
147
3.0
174
     1
176
     4
177
     4
178
     3
271
     0
272
     0
289
     0
340
123
341
15B0
342
AE68
1001
ACAD_DSTYLE_DIMJAG
1070
   388
1040
1.5
1001
ACAD_DSTYLE_DIMTALN
1070
   392
1070
     0
  0
ENDTAB
  0
TABLE
  2
BLOCK_RECORD
  5
1
330
0
100
AcDbSymbolTable
 70
     6
  0
BLOCK_RECORD
  5
1E
102
{ACAD_XDICTIONARY
360
28B
102
}
330
1
100
AcDbSymbolTableRecord
100
AcDbBlockTableRecord
  2
*Model_Space
340
21
  0
BLOCK_RECORD
  5
1A
102
{ACAD_XDICTIONARY
360
28D
102
}
330
1
100
AcDbSymbolTableRecord
100
AcDbBlockTableRecord
  2
*Paper_Space
340
1D
  0
BLOCK_RECORD
  5
15B0
330
1
100
AcDbSymbolTableRecord
100
AcDbBlockTableRecord
  2
_None
340
0
  0
BLOCK_RECORD
  5
7C93
330
1
100
AcDbSymbolTableRecord
100
AcDbBlockTableRecord
  2
*D1
340
0
  0
BLOCK_RECORD
  5
7C9D
330
1
100
AcDbSymbolTableRecord
100
AcDbBlockTableRecord
  2
*D2
340
0
  0
BLOCK_RECORD
  5
7CA9
330
1
100
AcDbSymbolTableRecord
100
AcDbBlockTableRecord
  2
*D3
340
0
  0
BLOCK_RECORD
  5
A25B
330
1
100
AcDbSymbolTableRecord
100
AcDbBlockTableRecord
  2
*D4
340
0
  0
BLOCK_RECORD
  5
AE68
330
1
100
AcDbSymbolTableRecord
100
AcDbBlockTableRecord
  2
_Small
340
0
102
{BLKREFS
331
AE6D
331
AE6E
331
AE76
331
AE77
331
AE7D
331
AE7E
331
AE94
331
AE95
102
}
  0
ENDTAB
  0
ENDSEC
  0
SECTION
  2
BLOCKS
  0
BLOCK
  5
1F
330
1E
100
AcDbEntity
  8
0
100
AcDbBlockBegin
  2
*Model_Space
 70
     0
 10
0.0
 20
0.0
 30
0.0
  3
*Model_Space
  1

  0
ENDBLK
  5
20
330
1E
100
AcDbEntity
  8
0
100
AcDbBlockEnd
  0
BLOCK
  5
1B
330
1A
100
AcDbEntity
 67
     1
  8
0
100
AcDbBlockBegin
  2
*Paper_Space
 70
     0
 10
0.0
 20
0.0
 30
0.0
  3
*Paper_Space
  1

  0
ENDBLK
  5
1C
330
1A
100
AcDbEntity
 67
     1
  8
0
100
AcDbBlockEnd
  0
BLOCK
  5
15B1
330
15B0
100
AcDbEntity
  8
0
100
AcDbBlockBegin
  2
_None
 70
     0
 10
0.0
 20
0.0
 30
0.0
  3
_None
  1

  0
ENDBLK
  5
15B2
330
15B0
100
AcDbEntity
  8
0
100
AcDbBlockEnd
  0
BLOCK
  5
7C94
330
7C93
100
AcDbEntity
  8
0
100
AcDbBlockBegin
  2
*D1
 70
     1
 10
0.0
 20
0.0
 30
0.0
  3
*D1
  1

  0
LINE
  5
AE6C
330
7C93
100
AcDbEntity
  8
寸法
  6
Continuous
 62
     4
440
 16777216
370
    -2
100
AcDbLine
 10
4289.392406240932
 20
24.01382465415655
 30
0.0
 11
4289.392406240932
 21
74.01382465415655
 31
0.0
  0
INSERT
  5
AE6D
330
7C93
100
AcDbEntity
  8
寸法
  6
Continuous
 62
     4
440
 16777216
370
    -2
100
AcDbBlockReference
  2
_Small
 10
4289.392406240932
 20
24.01382465415655
 30
0.0
 41
5.0
 42
5.0
 43
5.0
 50
270.0
  0
INSERT
  5
AE6E
330
7C93
100
AcDbEntity
  8
寸法
  6
Continuous
 62
     4
440
 16777216
370
    -2
100
AcDbBlockReference
  2
_Small
 10
4289.392406240932
 20
74.01382465415655
 30
0.0
 41
5.0
 42
5.0
 43
5.0
 50
90.0
  0
MTEXT
  5
AE6F
330
7C93
100
AcDbEntity
  8
寸法
  6
Continuous
 62
     3
440
 16777216
100
AcDbMText
 10
4283.142406240933
 20
49.01382465415724
 30
0.0
 40
6.5
 41
0.0
 71
     5
 72
     1
  1
\A1;50
  7
ACAD
 11
0.0000000000000001
 21
1.0
 31
0.0
 73
     1
 44
1.0
  0
POINT
  5
AE70
330
7C93
100
AcDbEntity
  8
Defpoints
  6
Continuous
 62
     0
440
 16777216
100
AcDbPoint
 10
4289.392406240932
 20
24.01382465415655
 30
0.0
  0
POINT
  5
AE71
330
7C93
100
AcDbEntity
  8
Defpoints
  6
Continuous
 62
     0
440
 16777216
100
AcDbPoint
 10
4289.392406240932
 20
74.01382465415655
 30
0.0
  0
POINT
  5
AE72
330
7C93
100
AcDbEntity
  8
Defpoints
  6
Continuous
 62
     0
440
 16777216
100
AcDbPoint
 10
4289.392406240932
 20
74.01382465415655
 30
0.0
  0
ENDBLK
  5
7C95
330
7C93
100
AcDbEntity
  8
0
100
AcDbBlockEnd
  0
BLOCK
  5
7C9E
330
7C9D
100
AcDbEntity
  8
0
100
AcDbBlockBegin
  2
*D2
 70
     1
 10
0.0
 20
0.0
 30
0.0
  3
*D2
  1

  0
LINE
  5
AE73
330
7C9D
100
AcDbEntity
  8
寸法
  6
Continuous
 62
     4
440
 16777216
370
    -2
100
AcDbLine
 10
4140.346584240932
 20
-316.4861753458434
 30
0.0
 11
4140.346584240932
 21
-338.8055305106783
 31
0.0
  0
LINE
  5
AE74
330
7C9D
100
AcDbEntity
  8
寸法
  6
Continuous
 62
     4
440
 16777216
370
    -2
100
AcDbLine
 10
4200.346278240931
 20
-316.4861753458434
 30
0.0
 11
4200.346278240931
 21
-338.8055305106783
 31
0.0
  0
LINE
  5
AE75
330
7C9D
100
AcDbEntity
  8
寸法
  6
Continuous
 62
     4
440
 16777216
370
    -2
100
AcDbLine
 10
4140.346584240932
 20
-338.8055305106783
 30
0.0
 11
4200.346278240931
 21
-338.8055305106783
 31
0.0
  0
INSERT
  5
AE76
330
7C9D
100
AcDbEntity
  8
寸法
  6
Continuous
 62
     4
440
 16777216
370
    -2
100
AcDbBlockReference
  2
_Small
 10
4140.346584240932
 20
-338.8055305106783
 30
0.0
 41
5.0
 42
5.0
 43
5.0
 50
180.0
  0
INSERT
  5
AE77
330
7C9D
100
AcDbEntity
  8
寸法
  6
Continuous
 62
     4
440
 16777216
370
    -2
100
AcDbBlockReference
  2
_Small
 10
4200.346278240931
 20
-338.8055305106783
 30
0.0
 41
5.0
 42
5.0
 43
5.0
  0
MTEXT
  5
AE78
330
7C9D
100
AcDbEntity
  8
寸法
  6
Continuous
 62
     3
440
 16777216
100
AcDbMText
 10
4170.346431240932
 20
-332.5555305106783
 30
0.0
 40
6.5
 41
0.0
 71
     5
 72
     1
  1
\A1;60
  7
ACAD
 73
     1
 44
1.0
  0
POINT
  5
AE79
330
7C9D
100
AcDbEntity
  8
Defpoints
  6
Continuous
 62
     0
440
 16777216
100
AcDbPoint
 10
4140.346584240932
 20
-316.4861753458434
 30
0.0
  0
POINT
  5
AE7A
330
7C9D
100
AcDbEntity
  8
Defpoints
  6
Continuous
 62
     0
440
 16777216
100
AcDbPoint
 10
4200.346278240931
 20
-316.4861753458434
 30
0.0
  0
POINT
  5
AE7B
330
7C9D
100
AcDbEntity
  8
Defpoints
  6
Continuous
 62
     0
440
 16777216
100
AcDbPoint
 10
4200.346278240931
 20
-338.8055305106783
 30
0.0
  0
ENDBLK
  5
7C9F
330
7C9D
100
AcDbEntity
  8
0
100
AcDbBlockEnd
  0
BLOCK
  5
7CAA
330
7CA9
100
AcDbEntity
  8
0
100
AcDbBlockBegin
  2
*D3
 70
     1
 10
0.0
 20
0.0
 30
0.0
  3
*D3
  1

  0
LINE
  5
AE7C
330
7CA9
100
AcDbEntity
  8
寸法
  6
Continuous
 62
     4
440
 16777216
370
    -2
100
AcDbLine
 10
3886.606741240932
 20
105.0138246541565
 30
0.0
 11
3886.606741240932
 21
76.01237865415679
 31
0.0
  0
INSERT
  5
AE7D
330
7CA9
100
AcDbEntity
  8
寸法
  6
Continuous
 62
     4
440
 16777216
370
    -2
100
AcDbBlockReference
  2
_Small
 10
3886.606741240932
 20
105.0138246541565
 30
0.0
 41
5.0
 42
5.0
 43
5.0
 50
90.0
  0
INSERT
  5
AE7E
330
7CA9
100
AcDbEntity
  8
寸法
  6
Continuous
 62
     4
440
 16777216
370
    -2
100
AcDbBlockReference
  2
_Small
 10
3886.606741240932
 20
76.01237865415679
 30
0.0
 41
5.0
 42
5.0
 43
5.0
 50
270.0
  0
MTEXT
  5
AE7F
330
7CA9
100
AcDbEntity
  8
寸法
  6
Continuous
 62
     3
440
 16777216
100
AcDbMText
 10
3880.356741240932
 20
90.51310165415729
 30
0.0
 40
6.5
 41
0.0
 71
     5
 72
     1
  1
\A1;29
  7
ACAD
 11
0.0000000000000001
 21
1.0
 31
0.0
 73
     1
 44
1.0
  0
POINT
  5
AE80
330
7CA9
100
AcDbEntity
  8
Defpoints
  6
Continuous
 62
     0
440
 16777216
100
AcDbPoint
 10
3886.606741240932
 20
105.0138246541565
 30
0.0
  0
POINT
  5
AE81
330
7CA9
100
AcDbEntity
  8
Defpoints
  6
Continuous
 62
     0
440
 16777216
100
AcDbPoint
 10
3886.606741240932
 20
76.01237865415679
 30
0.0
  0
POINT
  5
AE82
330
7CA9
100
AcDbEntity
  8
Defpoints
  6
Continuous
 62
     0
440
 16777216
100
AcDbPoint
 10
3886.606741240932
 20
76.01237865415679
 30
0.0
  0
ENDBLK
  5
7CAB
330
7CA9
100
AcDbEntity
  8
0
100
AcDbBlockEnd
  0
BLOCK
  5
A25C
330
A25B
100
AcDbEntity
  8
0
100
AcDbBlockBegin
  2
*D4
 70
     1
 10
0.0
 20
0.0
 30
0.0
  3
*D4
  1

  0
LINE
  5
AE91
330
A25B
100
AcDbEntity
  8
寸法
  6
Continuous
 62
     4
440
 16777216
370
    -2
100
AcDbLine
 10
4309.542168240932
 20
-311.9861753458434
 30
0.0
 11
4348.774049240932
 21
-311.9861753458434
 31
0.0
  0
LINE
  5
AE92
330
A25B
100
AcDbEntity
  8
寸法
  6
Continuous
 62
     4
440
 16777216
370
    -2
100
AcDbLine
 10
4309.542168240932
 20
105.0138246541565
 30
0.0
 11
4348.774049240932
 21
105.0138246541565
 31
0.0
  0
LINE
  5
AE93
330
A25B
100
AcDbEntity
  8
寸法
  6
Continuous
 62
     4
440
 16777216
370
    -2
100
AcDbLine
 10
4348.774049240932
 20
-311.9861753458434
 30
0.0
 11
4348.774049240932
 21
105.0138246541565
 31
0.0
  0
INSERT
  5
AE94
330
A25B
100
AcDbEntity
  8
寸法
  6
Continuous
 62
     4
440
 16777216
370
    -2
100
AcDbBlockReference
  2
_Small
 10
4348.774049240932
 20
-311.9861753458434
 30
0.0
 41
5.0
 42
5.0
 43
5.0
 50
270.0
  0
INSERT
  5
AE95
330
A25B
100
AcDbEntity
  8
寸法
  6
Continuous
 62
     4
440
 16777216
370
    -2
100
AcDbBlockReference
  2
_Small
 10
4348.774049240932
 20
105.0138246541565
 30
0.0
 41
5.0
 42
5.0
 43
5.0
 50
90.0
  0
MTEXT
  5
AE96
330
A25B
100
AcDbEntity
  8
寸法
  6
Continuous
 62
     3
440
 16777216
100
AcDbMText
 10
4341.905001621885
 20
-103.4861753458427
 30
0.0
 40
6.5
 41
0.0
 71
     5
 72
     1
  1
\A1;h=267～1,020
  7
ACAD
 11
0.0000000000000001
 21
1.0
 31
0.0
 73
     1
 44
1.0
  0
POINT
  5
AE97
330
A25B
100
AcDbEntity
  8
Defpoints
  6
Continuous
 62
     0
440
 16777216
100
AcDbPoint
 10
4309.542168240932
 20
-311.9861753458434
 30
0.0
  0
POINT
  5
AE98
330
A25B
100
AcDbEntity
  8
Defpoints
  6
Continuous
 62
     0
440
 16777216
100
AcDbPoint
 10
4309.542168240932
 20
105.0138246541565
 30
0.0
  0
POINT
  5
AE99
330
A25B
100
AcDbEntity
  8
Defpoints
  6
Continuous
 62
     0
440
 16777216
100
AcDbPoint
 10
4348.774049240932
 20
105.0138246541565
 30
0.0
  0
ENDBLK
  5
A25D
330
A25B
100
AcDbEntity
  8
0
100
AcDbBlockEnd
  0
BLOCK
  5
AE6A
330
AE68
100
AcDbEntity
  8
0
100
AcDbBlockBegin
  2
_Small
 70
     0
 10
0.0
 20
0.0
 30
0.0
  3
_Small
  1

  0
CIRCLE
  5
AE69
330
AE68
100
AcDbEntity
  8
0
  6
ByBlock
 62
     0
370
    -2
100
AcDbCircle
 10
0.0
 20
0.0
 30
0.0
 40
0.25
  0
ENDBLK
  5
AE6B
330
AE68
100
AcDbEntity
  8
0
100
AcDbBlockEnd
  0
ENDSEC
  0
SECTION
  2
ENTITIES
  0
CIRCLE
  5
7B75
330
1E
100
AcDbEntity
  8
躯体と製品
  6
Continuous
 62
     3
100
AcDbCircle
 10
4170.346431240932
 20
84.01382465415666
 30
0.0
 40
2.499988
  0
CIRCLE
  5
7B76
330
1E
100
AcDbEntity
  8
躯体と製品
  6
Continuous
 62
     3
100
AcDbCircle
 10
4170.346431240932
 20
84.01382465415666
 30
0.0
 40
2.999983999999999
  0
CIRCLE
  5
7B77
330
1E
100
AcDbEntity
  8
躯体と製品
  6
Continuous
 62
     3
100
AcDbCircle
 10
4170.346431240932
 20
84.01382465415666
 30
0.0
 40
4.999973999999999
  0
DIMENSION
  5
7B9F
330
1E
100
AcDbEntity
  8
寸法
  6
Continuous
100
AcDbDimension
  2
*D1
 10
4289.392406240932
 20
74.01382465415655
 30
0.0
 11
4283.142406240933
 21
49.01382465415724
 31
0.0
 70
    32
 71
     5
 42
50.0
  3
AutoCAD
100
AcDbAlignedDimension
 13
4289.392406240932
 23
24.01382465415655
 33
0.0
 14
4289.392406240932
 24
74.01382465415655
 34
0.0
 50
90.0
100
AcDbRotatedDimension
  0
DIMENSION
  5
7BA0
330
1E
100
AcDbEntity
  8
寸法
  6
Continuous
100
AcDbDimension
  2
*D2
 10
4200.346278240931
 20
-338.8055305106783
 30
0.0
 11
4170.346431240932
 21
-332.5555305106783
 31
0.0
 70
    32
 71
     5
 42
59.99969400000009
  3
AutoCAD
100
AcDbAlignedDimension
 13
4140.346584240932
 23
-316.4861753458434
 33
0.0
 14
4200.346278240931
 24
-316.4861753458434
 34
0.0
100
AcDbRotatedDimension
  0
LWPOLYLINE
  5
7BA1
330
1E
100
AcDbEntity
  8
中心線
  6
CENTER1
100
AcDbPolyline
 90
        2
 70
     0
 43
0.0
 10
4170.346431240932
 20
-324.4486273458434
 10
4170.346431240932
 20
99.71975886493133
  0
DIMENSION
  5
7BAF
330
1E
100
AcDbEntity
  8
寸法
  6
Continuous
100
AcDbDimension
  2
*D3
 10
3886.606741240932
 20
76.01237865415679
 30
0.0
 11
3880.356741240932
 21
90.51310165415729
 31
0.0
 70
    32
 71
     5
 42
29.00144599999976
  3
AutoCAD
100
AcDbAlignedDimension
 13
3886.606741240932
 23
105.0138246541565
 33
0.0
 14
3886.606741240932
 24
76.01237865415679
 34
0.0
 50
90.0
100
AcDbRotatedDimension
  0
LWPOLYLINE
  5
7BB0
330
1E
100
AcDbEntity
  8
中心線
  6
CENTER1
100
AcDbPolyline
 90
        2
 70
     0
 43
0.0
 10
3755.655839240932
 20
-324.4486273458434
 10
3755.655839240932
 20
99.71975886493133
  0
LWPOLYLINE
  5
7BD5
330
1E
100
AcDbEntity
  8
躯体と製品
  6
Continuous
 62
     4
100
AcDbPolyline
 90
        4
 70
     1
 43
0.0
 10
3735.655839240932
 20
74.01382465415668
 10
3775.655839240932
 20
74.01382465415668
 10
3775.655839240932
 20
81.01382465415667
 10
3735.655839240932
 20
81.01382465415667
  0
LWPOLYLINE
  5
7BD6
330
1E
100
AcDbEntity
  8
躯体と製品
  6
Continuous
 62
     4
100
AcDbPolyline
 90
        3
 70
     0
 43
0.0
 10
3732.055839298319
 20
24.01382465415667
 10
3755.655839298325
 20
24.01382465415667
 10
3779.255839298302
 20
24.01382465415667
  0
LWPOLYLINE
  5
7BD7
330
1E
100
AcDbEntity
  8
躯体と製品
  6
Continuous
 62
     4
100
AcDbPolyline
 90
        2
 70
     0
 43
0.0
 10
3730.655839298296
 20
25.41382450755485
 42
0.41421351636737
 10
3732.055839225007
 20
24.01382465415667
  0
LWPOLYLINE
  5
7BD8
330
1E
100
AcDbEntity
  8
躯体と製品
  6
Continuous
 62
     4
100
AcDbPolyline
 90
        4
 70
     0
 43
0.0
 10
3782.655839298325
 20
77.71582465414688
 10
3780.655839298325
 20
77.71582465414688
 10
3780.655839298296
 20
25.41382465415085
 42
-0.4142135777083371
 10
3779.255839224989
 20
24.01382465415667
  0
LWPOLYLINE
  5
7BD9
330
1E
100
AcDbEntity
  8
躯体と製品
  6
Continuous
 62
     4
100
AcDbPolyline
 90
        3
 70
     0
 43
0.0
 10
3728.655839298325
 20
77.71582465414688
 10
3730.655839298325
 20
77.71582465414688
 10
3730.655839298325
 20
25.41382465415085
  0
LWPOLYLINE
  5
7BDA
330
1E
100
AcDbEntity
  8
躯体と製品
  6
Continuous
 62
     4
100
AcDbPolyline
 90
       20
 70
     1
 43
0.0
 10
3765.655839298325
 20
24.01382465415667
 10
3775.155839298325
 20
24.01382465415667
 42
0.4142135623730951
 10
3780.655839298325
 20
29.51382465415667
 10
3780.655839298325
 20
68.51382465415666
 42
0.4142135623730951
 10
3775.155839298325
 20
74.01382465415666
 10
3736.155839298325
 20
74.01382465415666
 42
0.4142135623730951
 10
3730.655839298325
 20
68.51382465415666
 10
3730.655839298325
 20
29.51382465415667
 42
0.4142135623730951
 10
3736.155839298325
 20
24.01382465415667
 10
3745.655839298325
 20
24.01382465415667
 10
3745.655839298325
 20
25.61382465416249
 10
3736.155839298325
 20
25.61382465416249
 42
-0.4142135623731076
 10
3732.255839298331
 20
29.51382465415667
 10
3732.255839298331
 20
68.51382465415666
 42
-0.4142135623730951
 10
3736.155839298325
 20
72.41382465415084
 10
3775.155839298325
 20
72.41382465415084
 42
-0.4142135623730951
 10
3779.055839298319
 20
68.51382465415666
 10
3779.055839298319
 20
29.51382465415667
 42
-0.4142135623730951
 10
3775.155839298325
 20
25.61382465416249
 10
3765.655839298325
 20
25.61382465416249
  0
LWPOLYLINE
  5
7BDB
330
1E
100
AcDbEntity
  8
躯体と製品
  6
Continuous
 62
     3
100
AcDbPolyline
 90
        4
 70
     0
 43
0.0
 10
4145.346431240932
 20
70.51382465415667
 10
4147.846431240932
 20
70.51382465415667
 42
0.9999999999999998
 10
4147.846431240932
 20
75.51382465415667
 10
4145.346431240932
 20
75.51382465415667
  0
LWPOLYLINE
  5
7BDC
330
1E
100
AcDbEntity
  8
躯体と製品
  6
Continuous
 62
     3
100
AcDbPolyline
 90
        4
 70
     1
 43
0.0
 10
4177.846431240904
 20
75.51382465415667
 42
-0.9999999999999998
 10
4177.846431240904
 20
70.51382465415667
 10
4162.846431240932
 20
70.51382465415667
 42
-0.9999999999999998
 10
4162.846431240932
 20
75.51382465415667
  0
LWPOLYLINE
  5
7BDD
330
1E
100
AcDbEntity
  8
躯体と製品
  6
Continuous
 62
     3
100
AcDbPolyline
 90
        4
 70
     0
 43
0.0
 10
4195.346431240932
 20
70.51382465415667
 10
4192.846431240903
 20
70.51382465415667
 42
-0.9999999999999998
 10
4192.846431240903
 20
75.51382465415667
 10
4195.346431240932
 20
75.51382465415667
  0
LWPOLYLINE
  5
7BDE
330
1E
100
AcDbEntity
  8
躯体と製品
  6
Continuous
 62
     4
100
AcDbPolyline
 90
        6
 70
     1
 43
0.0
 10
4193.14643124095
 20
94.01382465415666
 42
-0.4142135623730951
 10
4195.346431240932
 20
91.81382465414502
 10
4195.346431240932
 20
20.41382465415084
 10
4145.346431240932
 20
20.41382465415084
 10
4145.346431240903
 20
91.81382465414502
 42
-0.4142135623730951
 10
4147.546431240915
 20
94.01382465415666
  0
LWPOLYLINE
  5
7BDF
330
1E
100
AcDbEntity
  8
躯体と製品
  6
Continuous
 62
     3
100
AcDbPolyline
 90
        4
 70
     1
 43
0.0
 10
4180.346431240903
 20
85.01382465415666
 42
-0.9999999999999998
 10
4190.346431240932
 20
85.01382465415666
 10
4190.346431240932
 20
29.41382465415085
 42
-0.9999999999999998
 10
4180.346431240932
 20
29.41382465415085
  0
LWPOLYLINE
  5
7BE0
330
1E
100
AcDbEntity
  8
躯体と製品
  6
Continuous
 62
     3
100
AcDbPolyline
 90
        4
 70
     1
 43
0.0
 10
4160.346431240932
 20
85.01382465415666
 42
0.9999999999999998
 10
4150.346431240932
 20
85.01382465415666
 10
4150.346431240932
 20
29.41382465415085
 42
0.9999999999999998
 10
4160.346431240932
 20
29.41382465415085
  0
LWPOLYLINE
  5
7BE1
330
1E
100
AcDbEntity
  8
躯体と製品
  6
Continuous
 62
     4
100
AcDbPolyline
 90
        2
 70
     0
 43
0.0
 10
3784.255839298302
 20
94.01382465415666
 10
3782.655839298325
 20
94.01382465415666
  0
LWPOLYLINE
  5
7BE2
330
1E
100
AcDbEntity
  8
躯体と製品
  6
Continuous
 62
     4
100
AcDbPolyline
 90
        2
 70
     0
 43
0.0
 10
3784.255839298302
 20
94.01382465415666
 10
3784.255839298302
 20
79.17682465415713
  0
LWPOLYLINE
  5
7BE3
330
1E
100
AcDbEntity
  8
躯体と製品
  6
Continuous
 62
     4
100
AcDbPolyline
 90
        2
 70
     0
 43
0.0
 10
3728.655839298325
 20
66.51082465413058
 10
3728.655839298325
 20
70.28482465413548
  0
LWPOLYLINE
  5
7BE4
330
1E
100
AcDbEntity
  8
躯体と製品
  6
Continuous
 62
     4
100
AcDbPolyline
 90
        2
 70
     0
 43
0.0
 10
3782.318631200175
 20
76.80801420381907
 42
0.1937217600909921
 10
3782.655839298325
 20
77.71582465414688
  0
LWPOLYLINE
  5
7BE5
330
1E
100
AcDbEntity
  8
躯体と製品
  6
Continuous
 62
     4
100
AcDbPolyline
 90
        2
 70
     0
 43
0.0
 10
3783.329542716467
 20
75.55714450269737
 42
0.2152198589141151
 10
3784.255839298302
 20
77.75482465413664
  0
LWPOLYLINE
  5
7BE6
330
1E
100
AcDbEntity
  8
躯体と製品
  6
Continuous
 62
     4
100
AcDbPolyline
 90
        2
 70
     0
 43
0.0
 10
3782.318631200175
 20
76.80801420381907
 42
0.5064780343894935
 10
3782.171003323977
 20
71.32803632292347
  0
LWPOLYLINE
  5
7BE7
330
1E
100
AcDbEntity
  8
躯体と製品
  6
Continuous
 62
     4
100
AcDbPolyline
 90
        2
 70
     0
 43
0.0
 10
3784.254589676243
 20
70.23780258782356
 42
0.2318861921651559
 10
3783.204038024091
 20
72.55310083372318
  0
LWPOLYLINE
  5
7BE8
330
1E
100
AcDbEntity
  8
躯体と製品
  6
Continuous
 62
     4
100
AcDbPolyline
 90
        2
 70
     0
 43
0.0
 10
3782.655839298325
 20
70.42263719776132
 42
0.2066484120291358
 10
3782.171003323977
 20
71.32803632292347
  0
LWPOLYLINE
  5
7BE9
330
1E
100
AcDbEntity
  8
躯体と製品
  6
Continuous
 62
     4
100
AcDbPolyline
 90
        2
 70
     0
 43
0.0
 10
3728.111876996289
 20
72.55777845700071
 42
0.2320932697563201
 10
3727.057088911472
 20
70.23780289059072
  0
LWPOLYLINE
  5
7BEA
330
1E
100
AcDbEntity
  8
躯体と製品
  6
Continuous
 62
     4
100
AcDbPolyline
 90
        2
 70
     0
 43
0.0
 10
3729.127886609724
 20
71.32176693633231
 42
0.2321120081614536
 10
3728.656398188262
 20
70.28481180039965
  0
LWPOLYLINE
  5
7BEB
330
1E
100
AcDbEntity
  8
躯体と製品
  6
Continuous
 62
     4
100
AcDbPolyline
 90
        2
 70
     0
 43
0.0
 10
3784.255839298302
 20
77.75482465413664
 10
3784.255839298302
 20
79.17682465415713
  0
LWPOLYLINE
  5
7BEC
330
1E
100
AcDbEntity
  8
躯体と製品
  6
Continuous
 62
     4
100
AcDbPolyline
 90
        2
 70
     0
 43
0.0
 10
3728.111876996289
 20
72.55777845700071
 42
0.5381935006581335
 10
3727.982135658004
 20
75.55714470860697
  0
LWPOLYLINE
  5
7BED
330
1E
100
AcDbEntity
  8
躯体と製品
  6
Continuous
 62
     4
100
AcDbPolyline
 90
        2
 70
     0
 43
0.0
 10
3727.055839298319
 20
79.17682465415713
 10
3727.055839298319
 20
77.76382465415666
  0
LWPOLYLINE
  5
7BEE
330
1E
100
AcDbEntity
  8
躯体と製品
  6
Continuous
 62
     4
100
AcDbPolyline
 90
        2
 70
     0
 43
0.0
 10
3784.254589676243
 20
70.23780258782356
 10
3784.255839298302
 20
69.08682465413152
  0
LWPOLYLINE
  5
7BEF
330
1E
100
AcDbEntity
  8
躯体と製品
  6
Continuous
 62
     4
100
AcDbPolyline
 90
        2
 70
     0
 43
0.0
 10
3783.329542716467
 20
75.55714450269737
 42
0.5388624668535512
 10
3783.204038024091
 20
72.55310083372318
  0
LWPOLYLINE
  5
7BF0
330
1E
100
AcDbEntity
  8
躯体と製品
  6
Continuous
 62
     4
100
AcDbPolyline
 90
        2
 70
     0
 43
0.0
 10
3728.655839298325
 20
77.71582465414688
 42
0.1930606428473286
 10
3728.991829078642
 20
76.80881008712025
  0
LWPOLYLINE
  5
7BF1
330
1E
100
AcDbEntity
  8
躯体と製品
  6
Continuous
 62
     4
100
AcDbPolyline
 90
        2
 70
     0
 43
0.0
 10
3727.055839298319
 20
77.76381704382514
 42
0.2159310961317872
 10
3727.982135658004
 20
75.55714470860697
  0
LWPOLYLINE
  5
7BF2
330
1E
100
AcDbEntity
  8
躯体と製品
  6
Continuous
 62
     4
100
AcDbPolyline
 90
        2
 70
     0
 43
0.0
 10
3729.127886609724
 20
71.32176693633231
 42
0.508430144426149
 10
3728.991829078642
 20
76.80881008712025
  0
LWPOLYLINE
  5
7BF3
330
1E
100
AcDbEntity
  8
躯体と製品
  6
Continuous
 62
     4
100
AcDbPolyline
 90
        2
 70
     0
 43
0.0
 10
3782.655839298325
 20
94.01382465415666
 10
3782.655839298325
 20
77.71582465414688
  0
LWPOLYLINE
  5
7BF4
330
1E
100
AcDbEntity
  8
躯体と製品
  6
Continuous
 62
     3
100
AcDbPolyline
 90
        2
 70
     0
 43
0.0
 10
3785.855839298307
 20
85.62982465413664
 42
0.4142135777083371
 10
3784.255839214541
 20
87.22982465414245
  0
LWPOLYLINE
  5
7BF5
330
1E
100
AcDbEntity
  8
躯体と製品
  6
Continuous
 62
     4
100
AcDbPolyline
 90
        2
 70
     0
 43
0.0
 10
3727.055839298319
 20
94.01382465415666
 10
3727.055839298319
 20
79.17682465415713
  0
LWPOLYLINE
  5
7BF6
330
1E
100
AcDbEntity
  8
躯体と製品
  6
Continuous
 62
     4
100
AcDbPolyline
 90
        2
 70
     0
 43
0.0
 10
3727.055839298319
 20
94.01382465415666
 10
3728.655839298325
 20
94.01382465415666
  0
LWPOLYLINE
  5
7BF7
330
1E
100
AcDbEntity
  8
躯体と製品
  6
Continuous
 62
     4
100
AcDbPolyline
 90
        2
 70
     0
 43
0.0
 10
3728.655839298325
 20
94.01382465415666
 10
3728.655839298325
 20
77.71582465417599
  0
LWPOLYLINE
  5
7BF8
330
1E
100
AcDbEntity
  8
躯体と製品
  6
Continuous
 62
     3
100
AcDbPolyline
 90
        2
 70
     0
 43
0.0
 10
3727.055839214558
 20
87.22982465414245
 42
0.4142135777083371
 10
3725.455839298314
 20
85.62982448658589
  0
LWPOLYLINE
  5
7BF9
330
1E
100
AcDbEntity
  8
躯体と製品
  6
Continuous
 62
     3
100
AcDbPolyline
 90
        2
 70
     0
 43
0.0
 10
3784.255839214541
 20
27.41382465415084
 42
0.4142135777083371
 10
3785.855839298307
 20
29.01382465415667
  0
LWPOLYLINE
  5
7BFA
330
1E
100
AcDbEntity
  8
躯体と製品
  6
Continuous
 62
     4
100
AcDbPolyline
 90
        2
 70
     0
 43
0.0
 10
3779.255839120273
 20
22.01382465415667
 42
0.4142135777083371
 10
3782.655839298296
 20
25.41382465415085
  0
LWPOLYLINE
  5
7BFB
330
1E
100
AcDbEntity
  8
躯体と製品
  6
Continuous
 62
     4
100
AcDbPolyline
 90
        2
 70
     0
 43
0.0
 10
3779.255839036512
 20
20.41382465415084
 42
0.4142135777083371
 10
3784.255839298302
 20
25.41382465415085
  0
LWPOLYLINE
  5
7BFC
330
1E
100
AcDbEntity
  8
躯体と製品
  6
Continuous
 62
     4
100
AcDbPolyline
 90
        2
 70
     0
 43
0.0
 10
3727.055839298319
 20
25.41382413057294
 42
0.41421351636737
 10
3732.05583903653
 20
20.41382465415084
  0
LWPOLYLINE
  5
7BFD
330
1E
100
AcDbEntity
  8
躯体と製品
  6
Continuous
 62
     4
100
AcDbPolyline
 90
        2
 70
     0
 43
0.0
 10
3779.255839298302
 20
20.41382465415084
 10
3755.655839298325
 20
20.41382465415084
  0
LWPOLYLINE
  5
7BFE
330
1E
100
AcDbEntity
  8
躯体と製品
  6
Continuous
 62
     4
100
AcDbPolyline
 90
        2
 70
     0
 43
0.0
 10
3779.255839298302
 20
22.01382465415667
 10
3755.655839298325
 20
22.01382465415667
  0
LWPOLYLINE
  5
7BFF
330
1E
100
AcDbEntity
  8
躯体と製品
  6
Continuous
 62
     4
100
AcDbPolyline
 90
        2
 70
     0
 43
0.0
 10
3732.055839298319
 20
22.01382465415667
 10
3755.655839298325
 20
22.01382465415667
  0
LWPOLYLINE
  5
7C00
330
1E
100
AcDbEntity
  8
躯体と製品
  6
Continuous
 62
     4
100
AcDbPolyline
 90
        2
 70
     0
 43
0.0
 10
3732.055839298319
 20
20.41382465415084
 10
3755.655839298325
 20
20.41382465415084
  0
LWPOLYLINE
  5
7C01
330
1E
100
AcDbEntity
  8
躯体と製品
  6
Continuous
 62
     3
100
AcDbPolyline
 90
        2
 70
     0
 43
0.0
 10
3725.455839298314
 20
29.01382448660591
 42
0.41421351636737
 10
3727.055839214558
 20
27.41382465415084
  0
LWPOLYLINE
  5
7C02
330
1E
100
AcDbEntity
  8
躯体と製品
  6
Continuous
 62
     4
100
AcDbPolyline
 90
        2
 70
     0
 43
0.0
 10
3728.655839298325
 20
25.41382429812369
 42
0.41421351636737
 10
3732.055839120291
 20
22.01382465415667
  0
LWPOLYLINE
  5
7C03
330
1E
100
AcDbEntity
  8
躯体と製品
  6
Continuous
 62
     4
100
AcDbPolyline
 90
        2
 70
     0
 43
0.0
 10
3782.655839298325
 20
70.42263719776132
 10
3782.655839298325
 20
25.41382465415085
  0
LWPOLYLINE
  5
7C04
330
1E
100
AcDbEntity
  8
躯体と製品
  6
Continuous
 62
     4
100
AcDbPolyline
 90
        2
 70
     0
 43
0.0
 10
3784.255839298302
 20
69.08682465413152
 10
3784.255839298302
 20
25.41382465415085
  0
LWPOLYLINE
  5
7C05
330
1E
100
AcDbEntity
  8
躯体と製品
  6
Continuous
 62
     4
100
AcDbPolyline
 90
        2
 70
     0
 43
0.0
 10
3727.057088911472
 20
70.23780289059072
 10
3727.055839298319
 20
25.41382465415085
  0
LWPOLYLINE
  5
7C06
330
1E
100
AcDbEntity
  8
躯体と製品
  6
Continuous
 62
     4
100
AcDbPolyline
 90
        2
 70
     0
 43
0.0
 10
3728.655839298325
 20
66.51082465413058
 10
3728.655839298325
 20
25.41382465415085
  0
LWPOLYLINE
  5
7C07
330
1E
100
AcDbEntity
  8
躯体と製品
  6
Continuous
 62
     3
100
AcDbPolyline
 90
        2
 70
     0
 43
0.0
 10
3785.855839298307
 20
29.01382465415667
 10
3785.855839298307
 20
85.62982465413664
  0
LWPOLYLINE
  5
7C08
330
1E
100
AcDbEntity
  8
躯体と製品
  6
Continuous
 62
     3
100
AcDbPolyline
 90
        2
 70
     0
 43
0.0
 10
3725.455839298314
 20
29.01382465415667
 10
3725.455839298314
 20
85.62982465413664
  0
LWPOLYLINE
  5
7C09
330
1E
100
AcDbEntity
  8
躯体と製品
  6
Continuous
 62
     4
100
AcDbPolyline
 90
        2
 70
     0
 43
0.0
 10
3745.263534452909
 20
7.413824654150843
 10
3766.048144143741
 20
7.413824654150843
  0
LWPOLYLINE
  5
7C0A
330
1E
100
AcDbEntity
  8
躯体と製品
  6
Continuous
 62
     4
100
AcDbPolyline
 90
        2
 70
     0
 43
0.0
 10
3748.727636068067
 20
8.913824654150843
 10
3748.727636068067
 20
20.41382465415084
  0
LWPOLYLINE
  5
7C0C
330
1E
100
AcDbEntity
  8
躯体と製品
  6
Continuous
 62
     4
100
AcDbPolyline
 90
        2
 70
     0
 43
0.0
 10
3762.584042528612
 20
8.913824654150843
 10
3762.584042528612
 20
20.41382465415084
  0
LWPOLYLINE
  5
7C0E
330
1E
100
AcDbEntity
  8
躯体と製品
  6
Continuous
 62
     4
100
AcDbPolyline
 90
        7
 70
     0
 43
0.0
 10
3741.79943283778
 20
8.913824654150843
 42
0.4330127018921689
 10
3748.727636068067
 20
8.913824654150843
 42
0.2165063550879564
 10
3762.584042528612
 20
8.913824654150843
 42
0.4330127018921274
 10
3769.51224575887
 20
8.913824654150843
 10
3769.51224575887
 20
20.41382465415084
 10
3741.79943283778
 20
20.41382465415084
 10
3741.79943283778
 20
8.913824654150843
  0
LWPOLYLINE
  5
7C0F
330
1E
100
AcDbEntity
  8
躯体と製品
  6
Continuous
 62
     4
100
AcDbPolyline
 90
        4
 70
     1
 43
0.0
 10
3741.655839293989
 20
3.413824654150843
 10
3769.655839331357
 20
3.413824654150843
 10
3769.655839331357
 20
7.413824654150843
 10
3741.655839293989
 20
7.413824654150843
  0
LWPOLYLINE
  5
7C11
330
1E
100
AcDbEntity
  8
躯体と製品
  6
Continuous
 62
     4
100
AcDbPolyline
 90
        2
 70
     0
 43
0.0
 10
3755.655839312673
 20
3.413824654150843
 10
3759.655839312673
 20
7.413824654150843
  0
LWPOLYLINE
  5
7C13
330
1E
100
AcDbEntity
  8
躯体と製品
  6
Continuous
 62
     4
100
AcDbPolyline
 90
        2
 70
     0
 43
0.0
 10
3751.655839265292
 20
3.413824625454466
 10
3755.655839265292
 20
7.413824625454466
  0
TEXT
  5
7C14
330
1E
100
AcDbEntity
  8
文字-記号
  6
Continuous
 62
     7
100
AcDbText
 10
3673.214379653977
 20
-111.4554029271339
 30
0.0
 40
6.5
  1
調整ボルト Ｍ１６
100
AcDbText
  0
LWPOLYLINE
  5
7C15
330
1E
100
AcDbEntity
  8
文字-記号
  6
Continuous
 62
     7
100
AcDbPolyline
 90
        3
 70
     0
 43
0.0
 10
3672.069666653977
 20
-114.0094729271341
 10
3738.187752384502
 20
-114.0094729271341
 10
3747.655839321431
 20
-130.4086805523744
  0
LWPOLYLINE
  5
7C16
330
1E
100
AcDbEntity
  8
文字-記号
  6
Continuous
 62
     7
100
AcDbPolyline
 90
        3
 70
     0
 43
0.0
 10
3731.193028420172
 20
46.75229728062844
 10
3716.100359235787
 20
20.61102743144475
 10
3684.021987763966
 20
20.61102743144475
  0
TEXT
  5
7C17
330
1E
100
AcDbEntity
  8
文字-記号
  6
Continuous
 62
     7
100
AcDbText
 10
3688.202390202431
 20
23.00046143144469
 30
0.0
 40
6.5
  1
大引鋼
100
AcDbText
  0
LWPOLYLINE
  5
7C18
330
1E
100
AcDbEntity
  8
文字-記号
  6
Continuous
 62
     7
100
AcDbPolyline
 90
        3
 70
     0
 43
0.0
 10
3683.388247436388
 20
76.01382465415666
 10
3672.544898278753
 20
57.23259298892536
 10
3640.466526806932
 20
57.23259298892536
  0
TEXT
  5
7C19
330
1E
100
AcDbEntity
  8
文字-記号
  6
Continuous
 62
     7
100
AcDbText
 10
3644.646929245398
 20
59.6220269889253
 30
0.0
 40
6.5
  1
根太鋼
100
AcDbText
  0
LWPOLYLINE
  5
7C1A
330
1E
100
AcDbEntity
  8
躯体と製品
  6
Continuous
 62
     4
100
AcDbPolyline
 90
        8
 70
     0
 43
0.0
 10
3718.347060172856
 20
-306.7861753458609
 10
3687.655839274793
 20
-306.7861753458609
 10
3687.655839274793
 20
-309.9861753458434
 10
3718.347060172856
 20
-309.9861753458434
 42
0.3762022828809111
 10
3725.484898588484
 20
-303.730242479306
 10
3737.000787652456
 20
-216.6616936050458
 42
-0.3762022828808944
 10
3740.966253438887
 20
-213.1861753458551
 10
3755.655839274793
 20
-213.1861753458551
  0
LWPOLYLINE
  5
7C1B
330
1E
100
AcDbEntity
  8
躯体と製品
  6
Continuous
 62
     4
100
AcDbPolyline
 90
        6
 70
     0
 43
0.0
 10
3714.791884634216
 20
-306.7861753458609
 10
3726.327295997946
 20
-219.5700235986777
 42
-0.3391200618031743
 10
3729.768280043596
 20
-216.1290395530276
 10
3733.915925858319
 20
-215.5804622573822
 42
-0.3463493062730853
 10
3740.966253438916
 20
-209.9861753458434
 10
3755.655839274793
 20
-209.9861753458434
  0
LWPOLYLINE
  5
7C1C
330
1E
100
AcDbEntity
  8
躯体と製品
  6
Continuous
 62
     4
100
AcDbPolyline
 90
        2
 70
     0
 43
0.0
 10
3716.155839274792
 20
-306.7861753458609
 10
3716.155839274792
 20
-309.9861753458434
  0
LWPOLYLINE
  5
7C1F
330
1E
100
AcDbEntity
  8
躯体と製品
  6
Continuous
 62
     4
100
AcDbPolyline
 90
        4
 70
     1
 43
0.0
 10
3687.655839274793
 20
-311.9861753458434
 10
3712.655839274793
 20
-311.9861753458434
 10
3712.655839274793
 20
-309.9861753458434
 10
3687.655839274793
 20
-309.9861753458434
  0
LWPOLYLINE
  5
7C20
330
1E
100
AcDbEntity
  8
躯体と製品
  6
Continuous
 62
     4
100
AcDbPolyline
 90
        2
 70
     0
 43
0.0
 10
3739.703138711144
 20
-210.1016794363721
 10
3740.966253438887
 20
-213.1861753458551
  0
LWPOLYLINE
  5
7C21
330
1E
100
AcDbEntity
  8
躯体と製品
  6
Continuous
 62
     4
100
AcDbPolyline
 90
        4
 70
     1
 43
0.0
 10
3741.655838312357
 20
-205.9861746621653
 10
3769.655838349727
 20
-205.9861746621653
 10
3769.655838349727
 20
-209.9861746621654
 10
3741.655838312357
 20
-209.9861746621654
  0
LWPOLYLINE
  5
7C22
330
1E
100
AcDbEntity
  8
躯体と製品
  6
Continuous
 62
     4
100
AcDbPolyline
 90
        2
 70
     0
 43
0.0
 10
3755.655837480192
 20
-205.9861746621653
 10
3751.655837480192
 20
-209.9861746621654
  0
LWPOLYLINE
  5
7C23
330
1E
100
AcDbEntity
  8
躯体と製品
  6
Continuous
 62
     4
100
AcDbPolyline
 90
        2
 70
     0
 43
0.0
 10
3759.655837527602
 20
-205.986174633469
 10
3755.655837527602
 20
-209.986174633469
  0
LWPOLYLINE
  5
7C24
330
1E
100
AcDbEntity
  8
躯体と製品
  6
Continuous
 62
     4
100
AcDbPolyline
 90
        8
 70
     0
 43
0.0
 10
3792.964617804896
 20
-306.7861753458609
 10
3823.655838702931
 20
-306.7861753458609
 10
3823.655838702931
 20
-309.9861753458434
 10
3792.964617804896
 20
-309.9861753458434
 42
-0.3762022828809111
 10
3785.826779389269
 20
-303.730242479306
 10
3774.310890325296
 20
-216.6616936050458
 42
0.3762022828808944
 10
3770.345424538837
 20
-213.1861753458551
 10
3755.655838702931
 20
-213.1861753458551
  0
LWPOLYLINE
  5
7C25
330
1E
100
AcDbEntity
  8
躯体と製品
  6
Continuous
 62
     4
100
AcDbPolyline
 90
        6
 70
     0
 43
0.0
 10
3796.519793343506
 20
-306.7861753458609
 10
3784.984381979806
 20
-219.5700235986777
 42
0.3391200618031743
 10
3781.543397934156
 20
-216.1290395530276
 10
3777.395752119404
 20
-215.5804622573822
 42
0.3463493062730853
 10
3770.345424538837
 20
-209.9861753458434
 10
3755.655838702931
 20
-209.9861753458434
  0
LWPOLYLINE
  5
7C26
330
1E
100
AcDbEntity
  8
躯体と製品
  6
Continuous
 62
     4
100
AcDbPolyline
 90
        2
 70
     0
 43
0.0
 10
3795.155838702931
 20
-306.7861753458609
 10
3795.155838702931
 20
-309.9861753458434
  0
LWPOLYLINE
  5
7C29
330
1E
100
AcDbEntity
  8
躯体と製品
  6
Continuous
 62
     4
100
AcDbPolyline
 90
        4
 70
     1
 43
0.0
 10
3798.655838702931
 20
-311.9861753458434
 10
3823.655838702931
 20
-311.9861753458434
 10
3823.655838702931
 20
-309.9861753458434
 10
3798.655838702931
 20
-309.9861753458434
  0
LWPOLYLINE
  5
7C2A
330
1E
100
AcDbEntity
  8
躯体と製品
  6
Continuous
 62
     4
100
AcDbPolyline
 90
        2
 70
     0
 43
0.0
 10
3771.608538376671
 20
-210.1016792074996
 10
3770.345423693167
 20
-213.1861751350851
  0
LWPOLYLINE
  5
7C2B
330
1E
100
AcDbEntity
  8
躯体と製品
  6
Continuous
 62
     4
100
AcDbPolyline
 90
        2
 70
     0
 43
0.0
 10
3762.584042685495
 20
-194.4861753458434
 10
3762.584042685495
 20
-205.9861753458434
  0
LWPOLYLINE
  5
7C2C
330
1E
100
AcDbEntity
  8
躯体と製品
  6
Continuous
 62
     4
100
AcDbPolyline
 90
        2
 70
     0
 43
0.0
 10
3748.727636224949
 20
-194.4861753458434
 10
3748.727636224949
 20
-205.9861753458434
  0
LWPOLYLINE
  5
7C2D
330
1E
100
AcDbEntity
  8
躯体と製品
  6
Continuous
 62
     4
100
AcDbPolyline
 90
        2
 70
     0
 43
0.0
 10
3745.26353460982
 20
-192.9861753458434
 10
3766.048144300652
 20
-192.9861753458434
  0
LWPOLYLINE
  5
7C2E
330
1E
100
AcDbEntity
  8
躯体と製品
  6
Continuous
 62
     4
100
AcDbPolyline
 90
        7
 70
     0
 43
0.0
 10
3741.799432994691
 20
-194.4861753458434
 42
-0.4330127018921053
 10
3748.727636224949
 20
-194.4861753458434
 42
-0.2165063509460898
 10
3762.584042685495
 20
-194.4861753458434
 42
-0.4330127018922323
 10
3769.512245915781
 20
-194.4861753458434
 10
3769.512245915781
 20
-205.9861753458434
 10
3741.799432994691
 20
-205.9861753458434
 10
3741.799432994691
 20
-194.4861753458434
  0
LWPOLYLINE
  5
7C2F
330
1E
100
AcDbEntity
  8
躯体と製品
  6
Continuous
 62
     4
100
AcDbPolyline
 90
        2
 70
     0
 43
0.0
 10
3762.584043747231
 20
-224.6861760295622
 10
3762.584043747231
 20
-213.1861760295623
  0
LWPOLYLINE
  5
7C30
330
1E
100
AcDbEntity
  8
躯体と製品
  6
Continuous
 62
     4
100
AcDbPolyline
 90
        2
 70
     0
 43
0.0
 10
3748.727637286685
 20
-224.6861760295622
 10
3748.727637286685
 20
-213.1861760295623
  0
LWPOLYLINE
  5
7C31
330
1E
100
AcDbEntity
  8
躯体と製品
  6
Continuous
 62
     4
100
AcDbPolyline
 90
        2
 70
     0
 43
0.0
 10
3745.263535671557
 20
-226.1861760295623
 10
3766.04814536236
 20
-226.1861760295623
  0
LWPOLYLINE
  5
7C32
330
1E
100
AcDbEntity
  8
躯体と製品
  6
Continuous
 62
     4
100
AcDbPolyline
 90
        7
 70
     0
 43
0.0
 10
3741.799434056399
 20
-224.6861760295622
 42
0.4330127018921053
 10
3748.727637286685
 20
-224.6861760295622
 42
0.2165063509460898
 10
3762.584043747231
 20
-224.6861760295622
 42
0.4330127018922323
 10
3769.512246977518
 20
-224.6861760295622
 10
3769.512246977518
 20
-213.1861760295623
 10
3741.799434056399
 20
-213.1861760295623
 10
3741.799434056399
 20
-224.6861760295622
  0
LWPOLYLINE
  5
7C34
330
1E
100
AcDbEntity
  8
躯体と製品
  6
Continuous
 62
     4
100
AcDbPolyline
 90
        2
 70
     0
 43
0.0
 10
3718.347060172856
 20
-309.9861753458725
 42
0.9999999999999998
 10
3718.347060172856
 20
-306.7861753458609
  0
LWPOLYLINE
  5
7C36
330
1E
100
AcDbEntity
  8
躯体と製品
  6
Continuous
 62
     4
100
AcDbPolyline
 90
        2
 70
     0
 43
0.0
 10
3792.964617804896
 20
-306.7861753458609
 42
0.9999999999999998
 10
3792.964617804896
 20
-309.9861753458725
  0
LWPOLYLINE
  5
7C37
330
1E
100
AcDbEntity
  8
躯体と製品
  6
Continuous
 62
     4
100
AcDbPolyline
 90
        4
 70
     1
 43
0.0
 10
4156.346429956172
 20
-205.9861740610839
 10
4184.346429993571
 20
-205.9861740610839
 10
4184.346429993571
 20
-209.9861740610839
 10
4156.346429956172
 20
-209.9861740610839
  0
LWPOLYLINE
  5
7C38
330
1E
100
AcDbEntity
  8
躯体と製品
  6
Continuous
 62
     4
100
AcDbPolyline
 90
        4
 70
     0
 43
0.0
 10
4195.346431240932
 20
-306.7861753458609
 10
4195.346431240932
 20
-215.5804622573822
 10
4145.346431240932
 20
-215.5804622573822
 10
4145.346431240932
 20
-306.7861753458609
  0
LWPOLYLINE
  5
7C39
330
1E
100
AcDbEntity
  8
躯体と製品
  6
Continuous
 62
     4
100
AcDbPolyline
 90
        4
 70
     1
 43
0.0
 10
4140.346431240932
 20
-309.9861753458434
 10
4200.346431240933
 20
-309.9861753458434
 10
4200.346431240933
 20
-306.7861753458609
 10
4140.346431240932
 20
-306.7861753458609
  0
LWPOLYLINE
  5
7C3A
330
1E
100
AcDbEntity
  8
躯体と製品
  6
Continuous
 62
     4
100
AcDbPolyline
 90
        2
 70
     0
 43
0.0
 10
4148.546431240943
 20
-209.9861753458434
 10
4148.546431240943
 20
-306.7861753458609
  0
LWPOLYLINE
  5
7C3B
330
1E
100
AcDbEntity
  8
躯体と製品
  6
Continuous
 62
     4
100
AcDbPolyline
 90
        2
 70
     0
 43
0.0
 10
4192.146431240949
 20
-209.9861753458434
 10
4192.146431240949
 20
-306.7861753458609
  0
LWPOLYLINE
  5
7C3C
330
1E
100
AcDbEntity
  8
躯体と製品
  6
Continuous
 62
     4
100
AcDbPolyline
 90
        6
 70
     0
 43
0.0
 10
4148.546431240943
 20
-213.1861753458551
 10
4140.346431240932
 20
-213.1861753458551
 10
4140.346431240932
 20
-209.9861753458434
 10
4200.346431240933
 20
-209.9861753458434
 10
4200.346431240933
 20
-213.1861753458551
 10
4192.146431240949
 20
-213.1861753458551
  0
LWPOLYLINE
  5
7C3D
330
1E
100
AcDbEntity
  8
躯体と製品
  6
Continuous
 62
     4
100
AcDbPolyline
 90
        4
 70
     1
 43
0.0
 10
4200.346431240933
 20
-311.9861753458434
 10
4140.346431240932
 20
-311.9861753458434
 10
4140.346431240932
 20
-309.9861753458434
 10
4200.346431240933
 20
-309.9861753458434
  0
LWPOLYLINE
  5
7C40
330
1E
100
AcDbEntity
  8
躯体と製品
  6
Continuous
 62
     4
100
AcDbPolyline
 90
        2
 70
     0
 43
0.0
 10
4164.345863924098
 20
-192.9861746307914
 10
4176.346429228199
 20
-192.9861746938303
  0
LWPOLYLINE
  5
7C41
330
1E
100
AcDbEntity
  8
躯体と製品
  6
Continuous
 62
     4
100
AcDbPolyline
 90
        5
 70
     0
 43
0.0
 10
4158.346429265335
 20
-205.9861743336995
 10
4158.346429265335
 20
-194.4861746623109
 42
-0.2500000085465462
 10
4170.346429207447
 20
-194.4861746623109
 42
-0.2499999935419728
 10
4182.346429265336
 20
-194.4861746623109
 10
4182.346429265336
 20
-205.9861745058778
  0
LWPOLYLINE
  5
7C42
330
1E
100
AcDbEntity
  8
躯体と製品
  6
Continuous
 62
     4
100
AcDbPolyline
 90
        2
 70
     0
 43
0.0
 10
4170.346429196708
 20
-194.4861746623109
 10
4170.346429117517
 20
-205.9861744197887
  0
TEXT
  5
7C6D
330
1E
100
AcDbEntity
  8
文字-記号
  6
Continuous
 62
     7
100
AcDbText
 10
4087.904971573478
 20
-125.8556029271282
 30
0.0
 40
6.5
  1
調整ボルト Ｍ１６
100
AcDbText
  0
LWPOLYLINE
  5
7C89
330
1E
100
AcDbEntity
  8
文字-記号
  6
Continuous
 62
     7
100
AcDbPolyline
 90
        3
 70
     0
 43
0.0
 10
4086.760258573478
 20
-128.4096729271283
 10
4152.878344304002
 20
-128.4096729271283
 10
4162.346431240933
 20
-144.8088805523687
  0
LWPOLYLINE
  5
7C8A
330
1E
100
AcDbEntity
  8
躯体と製品
  6
Continuous
 62
     4
100
AcDbPolyline
 90
        2
 70
     0
 43
0.0
 10
4164.345865859115
 20
7.413824865153614
 10
4176.346431163245
 20
7.413824928192511
  0
LWPOLYLINE
  5
7C8B
330
1E
100
AcDbEntity
  8
躯体と製品
  6
Continuous
 62
     4
100
AcDbPolyline
 90
        4
 70
     1
 43
0.0
 10
4156.346431196015
 20
3.41382484210338
 10
4184.346431233414
 20
3.41382484210338
 10
4184.346431233414
 20
7.41382484210338
 10
4156.346431196015
 20
7.41382484210338
  0
LWPOLYLINE
  5
7C8C
330
1E
100
AcDbEntity
  8
躯体と製品
  6
Continuous
 62
     4
100
AcDbPolyline
 90
        5
 70
     0
 43
0.0
 10
4158.346431200381
 20
20.41382456806172
 10
4158.346431200381
 20
8.91382484210338
 42
0.249999996945716
 10
4170.34643115658
 20
8.91382484210338
 42
0.2499999847397634
 10
4182.346431200381
 20
8.91382484210338
 10
4182.346431200381
 20
20.41382474023997
  0
LWPOLYLINE
  5
7C8F
330
1E
100
AcDbEntity
  8
躯体と製品
  6
Continuous
 62
     4
100
AcDbPolyline
 90
        2
 70
     0
 43
0.0
 10
4170.34643115658
 20
8.91382484210338
 10
4170.346431063302
 20
20.41382465415084
  0
LWPOLYLINE
  5
7C91
330
1E
100
AcDbEntity
  8
文字-記号
  6
Continuous
 62
     7
100
AcDbPolyline
 90
        3
 70
     0
 43
0.0
 10
4056.811072240932
 20
24.01382465415655
 10
4041.718403056546
 20
-2.127445195027135
 10
4009.640031584726
 20
-2.127445195027135
  0
TEXT
  5
7C92
330
1E
100
AcDbEntity
  8
文字-記号
  6
Continuous
 62
     7
100
AcDbText
 10
4013.82043402319
 20
0.2619888049728019
 30
0.0
 40
6.5
  1
大引鋼
100
AcDbText
  0
LWPOLYLINE
  5
7CD8
330
1E
100
AcDbEntity
  8
躯体と製品
  6
Continuous
 62
     4
100
AcDbPolyline
 90
        2
 70
     0
 43
0.0
 10
3745.263534452909
 20
-53.58820483653538
 10
3766.048144143741
 20
-53.58820483653538
  0
LWPOLYLINE
  5
7CD9
330
1E
100
AcDbEntity
  8
躯体と製品
  6
Continuous
 62
     4
100
AcDbPolyline
 90
        2
 70
     0
 43
0.0
 10
3748.727636068067
 20
-52.08820483653538
 10
3748.727636068067
 20
-51.58812854259007
  0
LWPOLYLINE
  5
7CDA
330
1E
100
AcDbEntity
  8
躯体と製品
  6
Continuous
 62
     4
100
AcDbPolyline
 90
        2
 70
     0
 43
0.0
 10
3762.584042528612
 20
-69.08820483653538
 10
3762.584042528612
 20
-57.58820483653538
  0
LWPOLYLINE
  5
7CDB
330
1E
100
AcDbEntity
  8
躯体と製品
  6
Continuous
 62
     4
100
AcDbPolyline
 90
        2
 70
     0
 43
0.0
 10
3762.584042528612
 20
-52.08820483653538
 10
3762.584042528612
 20
-51.58812854259007
  0
LWPOLYLINE
  5
7CDC
330
1E
100
AcDbEntity
  8
躯体と製品
  6
Continuous
 62
     4
100
AcDbPolyline
 90
        2
 70
     0
 43
0.0
 10
3748.727636068067
 20
-69.08820483653538
 10
3748.727636068067
 20
-57.58820483653538
  0
LWPOLYLINE
  5
7CDD
330
1E
100
AcDbEntity
  8
躯体と製品
  6
Continuous
 62
     4
100
AcDbPolyline
 90
        5
 70
     0
 43
0.0
 10
3741.79943283778
 20
-52.08820483653538
 42
0.4330127018921691
 10
3748.727636068067
 20
-52.08820483653538
 42
0.2165063550879564
 10
3762.584042528612
 20
-52.08820483653538
 42
0.4330127018921274
 10
3769.51224575887
 20
-52.08820483653538
 10
3769.51224575887
 20
-51.58812854259007
  0
LWPOLYLINE
  5
7CDE
330
1E
100
AcDbEntity
  8
躯体と製品
  6
Continuous
 62
     4
100
AcDbPolyline
 90
        4
 70
     1
 43
0.0
 10
3741.655839293989
 20
-57.58820483653538
 10
3769.655839331357
 20
-57.58820483653538
 10
3769.655839331357
 20
-53.58820483653538
 10
3741.655839293989
 20
-53.58820483653538
  0
LWPOLYLINE
  5
7CDF
330
1E
100
AcDbEntity
  8
躯体と製品
  6
Continuous
 62
     4
100
AcDbPolyline
 90
        2
 70
     0
 43
0.0
 10
3745.263534452909
 20
-70.58820483653538
 10
3766.048144143741
 20
-70.58820483653538
  0
LWPOLYLINE
  5
7CE0
330
1E
100
AcDbEntity
  8
躯体と製品
  6
Continuous
 62
     4
100
AcDbPolyline
 90
        2
 70
     0
 43
0.0
 10
3755.655839312673
 20
-57.58820483653538
 10
3759.655839312673
 20
-53.58820483653538
  0
LWPOLYLINE
  5
7CE1
330
1E
100
AcDbEntity
  8
躯体と製品
  6
Continuous
 62
     4
100
AcDbPolyline
 90
        7
 70
     0
 43
0.0
 10
3741.79943283778
 20
-69.08820483653538
 42
0.4330127018921053
 10
3748.727636068067
 20
-69.08820483653538
 42
0.2165063509460898
 10
3762.584042528612
 20
-69.08820483653538
 42
0.4330127018922323
 10
3769.51224575887
 20
-69.08820483653538
 10
3769.51224575887
 20
-57.58820483653538
 10
3741.79943283778
 20
-57.58820483653538
 10
3741.79943283778
 20
-69.08820483653538
  0
LWPOLYLINE
  5
7CE2
330
1E
100
AcDbEntity
  8
躯体と製品
  6
Continuous
 62
     4
100
AcDbPolyline
 90
        2
 70
     0
 43
0.0
 10
3751.655839265292
 20
-57.58820486523176
 10
3755.655839265292
 20
-53.58820486523176
  0
LWPOLYLINE
  5
7CE5
330
1E
100
AcDbEntity
  8
躯体と製品
  6
Continuous
 62
     4
100
AcDbPolyline
 90
        2
 70
     0
 43
0.0
 10
3741.79943283778
 20
-51.58812854259007
 10
3741.79943283778
 20
-52.08820483653538
  0
LWPOLYLINE
  5
7D34
330
1E
100
AcDbEntity
  8
躯体と製品
  6
Continuous
 62
     4
100
AcDbPolyline
 90
        2
 70
     0
 43
0.0
 10
4164.345865859115
 20
-53.58820481348515
 10
4176.346431163245
 20
-53.58820475044625
  0
LWPOLYLINE
  5
7D35
330
1E
100
AcDbEntity
  8
躯体と製品
  6
Continuous
 62
     4
100
AcDbPolyline
 90
        4
 70
     1
 43
0.0
 10
4156.346431196015
 20
-57.58820483653538
 10
4184.346431233414
 20
-57.58820483653538
 10
4184.346431233414
 20
-53.58820483653538
 10
4156.346431196015
 20
-53.58820483653538
  0
LWPOLYLINE
  5
7D36
330
1E
100
AcDbEntity
  8
躯体と製品
  6
Continuous
 62
     4
100
AcDbPolyline
 90
        5
 70
     0
 43
0.0
 10
4158.346431200381
 20
-51.58812854259007
 10
4158.346431200381
 20
-52.08820483653538
 42
0.249999996945716
 10
4170.34643115658
 20
-52.08820483653538
 42
0.2499999847397634
 10
4182.346431200381
 20
-52.08820483653538
 10
4182.346431200381
 20
-51.58812854259007
  0
LWPOLYLINE
  5
7D37
330
1E
100
AcDbEntity
  8
躯体と製品
  6
Continuous
 62
     4
100
AcDbPolyline
 90
        2
 70
     0
 43
0.0
 10
4164.345866010542
 20
-70.58820462553261
 10
4176.346431314644
 20
-70.58820456249371
  0
LWPOLYLINE
  5
7D38
330
1E
100
AcDbEntity
  8
躯体と製品
  6
Continuous
 62
     4
100
AcDbPolyline
 90
        5
 70
     0
 43
0.0
 10
4158.346431351779
 20
-57.58820492262451
 10
4158.346431351779
 20
-69.08820459401316
 42
0.2500000085465462
 10
4170.346431293892
 20
-69.08820459401316
 42
0.2499999935419728
 10
4182.346431351779
 20
-69.08820459401316
 10
4182.346431351779
 20
-57.58820475044625
  0
LWPOLYLINE
  5
7D39
330
1E
100
AcDbEntity
  8
躯体と製品
  6
Continuous
 62
     4
100
AcDbPolyline
 90
        2
 70
     0
 43
0.0
 10
4170.34643115658
 20
-52.08820483653538
 10
4170.346431152523
 20
-51.58812854259007
  0
LWPOLYLINE
  5
7D3A
330
1E
100
AcDbEntity
  8
躯体と製品
  6
Continuous
 62
     4
100
AcDbPolyline
 90
        2
 70
     0
 43
0.0
 10
4170.346431283124
 20
-69.08820459401316
 10
4170.346431203961
 20
-57.58820483653538
  0
LWPOLYLINE
  5
9A67
330
1E
100
AcDbEntity
  8
文字-記号
  6
Continuous
 62
     7
100
AcDbPolyline
 90
        3
 70
     0
 43
0.0
 10
3710.655839240932
 20
-29.58730075328439
 10
3701.609749769442
 20
-45.25558732772039
 10
3658.625640600769
 20
-45.25558732772039
  0
TEXT
  5
9A68
330
1E
100
AcDbEntity
  8
文字-記号
  6
Continuous
 62
     7
100
AcDbText
 10
3662.224307802965
 20
-42.86615332772046
 30
0.0
 40
6.5
  1
ハウジング
100
AcDbText
  0
LWPOLYLINE
  5
9A6B
330
1E
100
AcDbEntity
  8
文字-記号
  6
Continuous
 62
     7
100
AcDbPolyline
 90
        3
 70
     0
 43
0.0
 10
4125.34643117444
 20
-29.58730075328439
 10
4116.300341702949
 20
-45.25558732772039
 10
4073.316232534277
 20
-45.25558732772039
  0
TEXT
  5
9A6C
330
1E
100
AcDbEntity
  8
文字-記号
  6
Continuous
 62
     7
100
AcDbText
 10
4076.914899736473
 20
-42.86615332772046
 30
0.0
 40
6.5
  1
ハウジング
100
AcDbText
  0
DIMENSION
  5
A25A
330
1E
100
AcDbEntity
  8
寸法
  6
Continuous
100
AcDbDimension
  2
*D4
 10
4348.774049240932
 20
105.0138246541565
 30
0.0
 11
4341.905001621885
 21
-103.4861753458427
 31
0.0
 70
    32
  1
h=267～1,020
 71
     5
 42
417.0
  3
AutoCAD
100
AcDbAlignedDimension
 13
4309.542168240932
 23
-311.9861753458434
 33
0.0
 14
4309.542168240932
 24
105.0138246541565
 34
0.0
 50
90.0
100
AcDbRotatedDimension
  0
LWPOLYLINE
  5
A600
330
1E
100
AcDbEntity
  8
躯体と製品
  6
Continuous
 62
     4
100
AcDbPolyline
 90
       13
 70
     0
 43
0.0
 10
3986.346431240932
 20
74.01382465415655
 10
4054.346431240932
 20
74.01382465415655
 10
4054.346431240932
 20
81.01382465415655
 10
4049.346431240932
 20
81.01382465415655
 10
4049.346431240932
 20
79.01382465415655
 10
4052.346431240931
 20
79.01382465415655
 10
4052.346431240931
 20
76.01382465415655
 10
3988.346431240933
 20
76.01382465415655
 10
3988.346431240933
 20
79.01382465415655
 10
3991.346431240932
 20
79.01382465415655
 10
3991.346431240932
 20
81.01382465415655
 10
3986.346431240932
 20
81.01382465415655
 10
3986.346431240932
 20
74.01382465415655
  0
LWPOLYLINE
  5
A601
330
1E
100
AcDbEntity
  8
躯体と製品
  6
Continuous
 62
     4
100
AcDbPolyline
 90
       28
 70
     1
 43
0.0
 10
4036.146431240932
 20
105.0138246541564
 42
-0.4142135623730951
 10
4037.846431240931
 20
103.3138246541564
 10
4037.846431240931
 20
77.71382465415659
 42
0.4142135623730951
 10
4038.346431240932
 20
77.21382465415659
 10
4050.646431240932
 20
77.21382465415659
 42
0.4142135623730951
 10
4051.146431240932
 20
77.71382465415659
 10
4051.146431240932
 20
79.01382465415655
 10
4052.346431240931
 20
79.01382465415655
 10
4052.346431240931
 20
77.71382465415659
 42
-0.4142135623730951
 10
4050.646431240932
 20
76.01382465415655
 10
4038.346431240932
 20
76.01382465415655
 42
-0.4142135623730951
 10
4036.646431240932
 20
77.71382465415659
 10
4036.646431240932
 20
103.3138246541564
 42
0.4142135623730951
 10
4036.146431240932
 20
103.8138246541564
 10
4004.546431240933
 20
103.8138246541564
 42
0.4142135623730951
 10
4004.046431240932
 20
103.3138246541564
 10
4004.046431240932
 20
77.71382465415659
 42
-0.4142135623730951
 10
4002.346431240932
 20
76.01382465415655
 10
3990.046431240933
 20
76.01382465415655
 42
-0.4142135623730951
 10
3988.346431240933
 20
77.71382465415659
 10
3988.346431240933
 20
79.01382465415655
 10
3989.546431240933
 20
79.01382465415655
 10
3989.546431240933
 20
77.71382465415659
 42
0.4142135623730951
 10
3990.046431240933
 20
77.21382465415659
 10
4002.346431240932
 20
77.21382465415659
 42
0.4142135623730951
 10
4002.846431240931
 20
77.71382465415659
 10
4002.846431240931
 20
103.3138246541564
 42
-0.4142135623730951
 10
4004.546431240933
 20
105.0138246541564
  0
TEXT
  5
A602
330
1E
100
AcDbEntity
  8
文字-記号
  6
Continuous
 62
     7
100
AcDbText
 10
3975.207174240932
 20
95.86691265415639
 30
0.0
 40
6.5
  1
根太鋼
100
AcDbText
  0
LWPOLYLINE
  5
A603
330
1E
100
AcDbEntity
  8
躯体と製品
  6
Continuous
 62
     4
100
AcDbPolyline
 90
        2
 70
     0
 43
0.0
 10
3999.547431240915
 20
77.86282465416149
 10
3999.547431240915
 20
77.41382465416823
  0
LWPOLYLINE
  5
A604
330
1E
100
AcDbEntity
  8
躯体と製品
  6
Continuous
 62
     4
100
AcDbPolyline
 90
        2
 70
     0
 43
0.0
 10
3991.547431240915
 20
77.86282465416149
 10
3991.547431240915
 20
77.41382465416823
  0
LWPOLYLINE
  5
A605
330
1E
100
AcDbEntity
  8
躯体と製品
  6
Continuous
 62
     4
100
AcDbPolyline
 90
        2
 70
     0
 43
0.0
 10
3999.347431240932
 20
77.21382465415659
 10
3995.547431240915
 20
77.21382465415659
  0
LWPOLYLINE
  5
A606
330
1E
100
AcDbEntity
  8
躯体と製品
  6
Continuous
 62
     4
100
AcDbPolyline
 90
        2
 70
     0
 43
0.0
 10
3991.547431240915
 20
77.41382463321348
 42
0.41421351636737
 10
3991.747431230449
 20
77.21382465415659
  0
LWPOLYLINE
  5
A607
330
1E
100
AcDbEntity
  8
躯体と製品
  6
Continuous
 62
     4
100
AcDbPolyline
 90
        2
 70
     0
 43
0.0
 10
3991.747431240926
 20
77.21382465415659
 10
3995.547431240915
 20
77.21382465415659
  0
LWPOLYLINE
  5
A608
330
1E
100
AcDbEntity
  8
躯体と製品
  6
Continuous
 62
     4
100
AcDbPolyline
 90
        2
 70
     0
 43
0.0
 10
3999.347431230455
 20
77.21382465415659
 42
0.4142135777083371
 10
3999.547431240944
 20
77.41382465416823
  0
LWPOLYLINE
  5
A609
330
1E
100
AcDbEntity
  8
躯体と製品
  6
Continuous
 62
     4
100
AcDbPolyline
 90
        2
 70
     0
 43
0.0
 10
3999.312431240929
 20
79.01382465417405
 10
3995.547431240915
 20
79.01382465417405
  0
LWPOLYLINE
  5
A60A
330
1E
100
AcDbEntity
  8
躯体と製品
  6
Continuous
 62
     4
100
AcDbPolyline
 90
        2
 70
     0
 43
0.0
 10
3999.311980370091
 20
79.01332219438187
 42
0.2144073790574085
 10
3995.547447407569
 20
80.2136811355143
  0
LWPOLYLINE
  5
A60B
330
1E
100
AcDbEntity
  8
躯体と製品
  6
Continuous
 62
     4
100
AcDbPolyline
 90
        2
 70
     0
 43
0.0
 10
3991.78243124093
 20
79.01382465417405
 10
3991.547431240915
 20
77.86282465416149
  0
LWPOLYLINE
  5
A60C
330
1E
100
AcDbEntity
  8
躯体と製品
  6
Continuous
 62
     4
100
AcDbPolyline
 90
        2
 70
     0
 43
0.0
 10
3995.54741465633
 20
80.21368118327369
 42
0.2144073836089342
 10
3991.782881736124
 20
79.01332185753414
  0
LWPOLYLINE
  5
A60D
330
1E
100
AcDbEntity
  8
躯体と製品
  6
Continuous
 62
     4
100
AcDbPolyline
 90
        2
 70
     0
 43
0.0
 10
3991.78243124093
 20
79.01382465417405
 10
3995.547431240915
 20
79.01382465417405
  0
LWPOLYLINE
  5
A60E
330
1E
100
AcDbEntity
  8
躯体と製品
  6
Continuous
 62
     4
100
AcDbPolyline
 90
        2
 70
     0
 43
0.0
 10
3999.312431240929
 20
79.01382465417405
 10
3999.547431240915
 20
77.86282465416149
  0
LWPOLYLINE
  5
A60F
330
1E
100
AcDbEntity
  8
躯体と製品
  6
Continuous
 62
     4
100
AcDbPolyline
 90
        2
 70
     0
 43
0.0
 10
4049.14743124092
 20
77.86282465416149
 10
4049.14743124092
 20
77.41382465416823
  0
LWPOLYLINE
  5
A610
330
1E
100
AcDbEntity
  8
躯体と製品
  6
Continuous
 62
     4
100
AcDbPolyline
 90
        2
 70
     0
 43
0.0
 10
4041.14743124092
 20
77.86282465416149
 10
4041.14743124092
 20
77.41382465416823
  0
LWPOLYLINE
  5
A611
330
1E
100
AcDbEntity
  8
躯体と製品
  6
Continuous
 62
     4
100
AcDbPolyline
 90
        2
 70
     0
 43
0.0
 10
4048.947431240908
 20
77.21382465415659
 10
4045.14743124092
 20
77.21382465415659
  0
LWPOLYLINE
  5
A612
330
1E
100
AcDbEntity
  8
躯体と製品
  6
Continuous
 62
     4
100
AcDbPolyline
 90
        2
 70
     0
 43
0.0
 10
4041.14743124092
 20
77.41382463321348
 42
0.41421351636737
 10
4041.347431230454
 20
77.21382465415659
  0
LWPOLYLINE
  5
A613
330
1E
100
AcDbEntity
  8
躯体と製品
  6
Continuous
 62
     4
100
AcDbPolyline
 90
        2
 70
     0
 43
0.0
 10
4041.347431240931
 20
77.21382465415659
 10
4045.14743124092
 20
77.21382465415659
  0
LWPOLYLINE
  5
A614
330
1E
100
AcDbEntity
  8
躯体と製品
  6
Continuous
 62
     4
100
AcDbPolyline
 90
        2
 70
     0
 43
0.0
 10
4048.947431230431
 20
77.21382465415659
 42
0.4142135777083371
 10
4049.14743124092
 20
77.41382465416823
  0
LWPOLYLINE
  5
A615
330
1E
100
AcDbEntity
  8
躯体と製品
  6
Continuous
 62
     4
100
AcDbPolyline
 90
        2
 70
     0
 43
0.0
 10
4048.912431240935
 20
79.01382465417405
 10
4045.14743124092
 20
79.01382465417405
  0
LWPOLYLINE
  5
A616
330
1E
100
AcDbEntity
  8
躯体と製品
  6
Continuous
 62
     4
100
AcDbPolyline
 90
        2
 70
     0
 43
0.0
 10
4048.911980370097
 20
79.01332219438187
 42
0.2144073790574085
 10
4045.147447407575
 20
80.2136811355143
  0
LWPOLYLINE
  5
A617
330
1E
100
AcDbEntity
  8
躯体と製品
  6
Continuous
 62
     4
100
AcDbPolyline
 90
        2
 70
     0
 43
0.0
 10
4041.382431240907
 20
79.01382465417405
 10
4041.14743124092
 20
77.86282465416149
  0
LWPOLYLINE
  5
A618
330
1E
100
AcDbEntity
  8
躯体と製品
  6
Continuous
 62
     4
100
AcDbPolyline
 90
        2
 70
     0
 43
0.0
 10
4045.147414656306
 20
80.21368118327369
 42
0.2144073836089342
 10
4041.3828817361
 20
79.01332185753414
  0
LWPOLYLINE
  5
A619
330
1E
100
AcDbEntity
  8
躯体と製品
  6
Continuous
 62
     4
100
AcDbPolyline
 90
        2
 70
     0
 43
0.0
 10
4041.382431240907
 20
79.01382465417405
 10
4045.14743124092
 20
79.01382465417405
  0
LWPOLYLINE
  5
A61A
330
1E
100
AcDbEntity
  8
躯体と製品
  6
Continuous
 62
     4
100
AcDbPolyline
 90
        2
 70
     0
 43
0.0
 10
4048.912431240935
 20
79.01382465417405
 10
4049.14743124092
 20
77.86282465416149
  0
LWPOLYLINE
  5
A61B
330
1E
100
AcDbEntity
  8
文字-記号
  6
Continuous
 62
     7
100
AcDbPolyline
 90
        3
 70
     0
 43
0.0
 10
3972.393107240932
 20
93.47747865415646
 10
3997.626122240933
 20
93.47747865415646
 10
4002.846431240931
 20
85.70255037755257
  0
LWPOLYLINE
  5
A6DF
330
1E
100
AcDbEntity
  8
文字-記号
  6
Continuous
 62
     7
100
AcDbPolyline
 90
        3
 70
     0
 43
0.0
 10
3755.844628240932
 20
138.0138246541565
 10
3774.613710514805
 20
170.5228287639448
 10
3848.677986070823
 20
170.5228287639448
  0
TEXT
  5
A6E0
330
1E
100
AcDbEntity
  8
文字-記号
  6
Continuous
 62
     7
100
AcDbText
 10
3781.334029953196
 20
172.3531100416336
 30
0.0
 40
6.5
  1
フローリング貼り
100
AcDbText
  0
LWPOLYLINE
  5
A6E1
330
1E
100
AcDbEntity
  8
文字-記号
  6
Continuous
 62
     7
100
AcDbPolyline
 90
        3
 70
     0
 43
0.0
 10
3767.923984447906
 20
115.0138246541565
 10
3791.323554274747
 20
155.5430684695005
 10
3836.366506200779
 20
155.5430684695005
  0
TEXT
  5
A6E2
330
1E
100
AcDbEntity
  8
文字-記号
  6
Continuous
 62
     7
100
AcDbText
 10
3799.709978797506
 20
157.3733497471893
 30
0.0
 40
6.5
  1
捨板貼り
100
AcDbText
  0
LWPOLYLINE
  5
A8D2
330
1E
100
AcDbEntity
  8
躯体と製品
  6
Continuous
 62
     4
100
AcDbPolyline
 90
        2
 70
     0
 43
0.0
 10
4150.346431307425
 20
3.413824582409901
 10
4150.346431307425
 20
0.4138245824099016
  0
LWPOLYLINE
  5
A8D3
330
1E
100
AcDbEntity
  8
躯体と製品
  6
Continuous
 62
     4
100
AcDbPolyline
 90
        2
 70
     0
 43
0.0
 10
4190.34643117444
 20
3.413824582409901
 10
4190.34643117444
 20
0.4138245824099016
  0
LWPOLYLINE
  5
A8D4
330
1E
100
AcDbEntity
  8
躯体と製品
  6
Continuous
 62
     4
100
AcDbPolyline
 90
        2
 70
     0
 43
0.0
 10
4215.346426641001
 20
-7.586473767645489
 42
0.4144575715773263
 10
4207.339462480802
 20
0.4138245824622615
  0
LWPOLYLINE
  5
A8D5
330
1E
100
AcDbEntity
  8
躯体と製品
  6
Continuous
 62
     4
100
AcDbPolyline
 90
        2
 70
     0
 43
0.0
 10
4215.346431409371
 20
-7.586473068236912
 10
4215.346431307424
 20
-51.58812854259007
  0
LWPOLYLINE
  5
A8D6
330
1E
100
AcDbEntity
  8
躯体と製品
  6
Continuous
 62
     4
100
AcDbPolyline
 90
        2
 70
     0
 43
0.0
 10
4133.346736000518
 20
0.4138274434328793
 42
0.4142135751759165
 10
4125.346435942812
 20
-7.586473663385376
  0
LWPOLYLINE
  5
A8D7
330
1E
100
AcDbEntity
  8
躯体と製品
  6
Continuous
 62
     4
100
AcDbPolyline
 90
        2
 70
     0
 43
0.0
 10
4125.34643117444
 20
-7.586472963976788
 10
4125.34643117444
 20
-51.58812854259007
  0
LWPOLYLINE
  5
A8D8
330
1E
100
AcDbEntity
  8
躯体と製品
  6
Continuous
 62
     4
100
AcDbPolyline
 90
        2
 70
     0
 43
0.0
 10
4125.34643117444
 20
-51.58812854259007
 10
4215.346431307424
 20
-51.58812854259007
  0
LWPOLYLINE
  5
A8D9
330
1E
100
AcDbEntity
  8
躯体と製品
  6
Continuous
 62
     4
100
AcDbPolyline
 90
        2
 70
     0
 43
0.0
 10
4133.346736350222
 20
0.4138245824099016
 10
4207.339462480803
 20
0.4138245824099159
  0
LWPOLYLINE
  5
A8DA
330
1E
100
AcDbEntity
  8
躯体と製品
  6
Continuous
 62
     4
100
AcDbPolyline
 90
        2
 70
     0
 43
0.0
 10
4150.34643117444
 20
3.413824582409901
 10
4190.34643117444
 20
3.413824582409901
  0
LWPOLYLINE
  5
A8DB
330
1E
100
AcDbEntity
  8
躯体と製品
  6
Continuous
 62
     4
100
AcDbPolyline
 90
        2
 70
     0
 43
0.0
 10
3775.655839240932
 20
3.413824582409901
 10
3775.655839240932
 20
0.4138245824099016
  0
LWPOLYLINE
  5
A8DC
330
1E
100
AcDbEntity
  8
躯体と製品
  6
Continuous
 62
     4
100
AcDbPolyline
 90
        2
 70
     0
 43
0.0
 10
3800.655834707492
 20
-7.586473767645489
 42
0.4144575715773242
 10
3792.648870547296
 20
0.4138245824622615
  0
LWPOLYLINE
  5
A8DD
330
1E
100
AcDbEntity
  8
躯体と製品
  6
Continuous
 62
     4
100
AcDbPolyline
 90
        2
 70
     0
 43
0.0
 10
3800.655839475864
 20
-7.586473068236912
 10
3800.655839373917
 20
-51.58812854259007
  0
LWPOLYLINE
  5
A8DE
330
1E
100
AcDbEntity
  8
躯体と製品
  6
Continuous
 62
     4
100
AcDbPolyline
 90
        2
 70
     0
 43
0.0
 10
3718.65614406701
 20
0.4138274434328793
 42
0.4142135751759165
 10
3710.655844009304
 20
-7.586473663385376
  0
LWPOLYLINE
  5
A8DF
330
1E
100
AcDbEntity
  8
躯体と製品
  6
Continuous
 62
     4
100
AcDbPolyline
 90
        2
 70
     0
 43
0.0
 10
3741.655312812709
 20
-53.58820483653538
 10
3769.656361854457
 20
-53.58820483653538
  0
LWPOLYLINE
  5
A8E0
330
1E
100
AcDbEntity
  8
躯体と製品
  6
Continuous
 62
     4
100
AcDbPolyline
 90
        2
 70
     0
 43
0.0
 10
3710.655839240932
 20
-7.586472963976788
 10
3710.655839240932
 20
-51.58812854259007
  0
LWPOLYLINE
  5
A8E1
330
1E
100
AcDbEntity
  8
躯体と製品
  6
Continuous
 62
     4
100
AcDbPolyline
 90
        2
 70
     0
 43
0.0
 10
3710.655839240932
 20
-51.58812854259007
 10
3800.655839373917
 20
-51.58812854259007
  0
LWPOLYLINE
  5
A8E2
330
1E
100
AcDbEntity
  8
躯体と製品
  6
Continuous
 62
     4
100
AcDbPolyline
 90
        2
 70
     0
 43
0.0
 10
3718.656144416713
 20
0.4138245824099016
 10
3792.648870547295
 20
0.4138245824099159
  0
LWPOLYLINE
  5
A8E3
330
1E
100
AcDbEntity
  8
躯体と製品
  6
Continuous
 62
     4
100
AcDbPolyline
 90
        2
 70
     0
 43
0.0
 10
3735.655839240932
 20
3.413824582409901
 10
3735.655839240932
 20
0.4138245824099016
  0
LWPOLYLINE
  5
A8E4
330
1E
100
AcDbEntity
  8
躯体と製品
  6
Continuous
 62
     4
100
AcDbPolyline
 90
        2
 70
     0
 43
0.0
 10
3735.655839240932
 20
3.413824582409901
 10
3775.655839240932
 20
3.413824582409901
  0
LWPOLYLINE
  5
A8E5
330
1E
100
AcDbEntity
  8
躯体と製品
  6
Continuous
 62
     3
100
AcDbPolyline
 90
        2
 70
     0
 43
0.0
 10
3891.047379240932
 20
125.0137846541566
 10
3891.047379240932
 20
120.0138246541567
  0
LWPOLYLINE
  5
A8E6
330
1E
100
AcDbEntity
  8
躯体と製品
  6
Continuous
 62
     3
100
AcDbPolyline
 90
        2
 70
     0
 43
0.0
 10
3891.047381240932
 20
125.0137846541566
 42
0.4142135623730951
 10
3890.047341240932
 20
126.0138246541566
  0
LWPOLYLINE
  5
A8E7
330
1E
100
AcDbEntity
  8
躯体と製品
  6
Continuous
 62
     3
100
AcDbPolyline
 90
        2
 70
     0
 43
0.0
 10
3890.047341240932
 20
126.0138246541568
 10
3882.047025240932
 20
126.0138246541568
  0
LWPOLYLINE
  5
A8E8
330
1E
100
AcDbEntity
  8
躯体と製品
  6
Continuous
 62
     3
100
AcDbPolyline
 90
        2
 70
     0
 43
0.0
 10
3891.047379240932
 20
133.0138626541567
 10
3891.047379240932
 20
138.0138246541565
  0
LWPOLYLINE
  5
A8E9
330
1E
100
AcDbEntity
  8
躯体と製品
  6
Continuous
 62
     3
100
AcDbPolyline
 90
        2
 70
     0
 43
0.0
 10
3890.047341240932
 20
132.0138226541567
 42
0.4142135623730951
 10
3891.047381240932
 20
133.0138626541567
  0
LWPOLYLINE
  5
A8EA
330
1E
100
AcDbEntity
  8
躯体と製品
  6
Continuous
 62
     3
100
AcDbPolyline
 90
        2
 70
     0
 43
0.0
 10
3890.047341240932
 20
132.0138246541565
 10
3882.047025240932
 20
132.0138246541565
  0
LWPOLYLINE
  5
A8EB
330
1E
100
AcDbEntity
  8
躯体と製品
  6
Continuous
 62
     3
100
AcDbPolyline
 90
        2
 70
     0
 43
0.0
 10
3882.047025240932
 20
132.0138246541566
 42
0.4142135623730951
 10
3881.046985240933
 20
131.0137846541566
  0
LWPOLYLINE
  5
A8EC
330
1E
100
AcDbEntity
  8
躯体と製品
  6
Continuous
 62
     3
100
AcDbPolyline
 90
        2
 70
     0
 43
0.0
 10
3881.046987240932
 20
131.0137846541566
 10
3881.046987240932
 20
127.0138646541566
  0
LWPOLYLINE
  5
A8ED
330
1E
100
AcDbEntity
  8
躯体と製品
  6
Continuous
 62
     3
100
AcDbPolyline
 90
        2
 70
     0
 43
0.0
 10
3881.046985240933
 20
127.0138646541566
 42
0.4142135623730951
 10
3882.047025240932
 20
126.0138246541567
  0
LWPOLYLINE
  5
A8EE
330
1E
100
AcDbEntity
  8
躯体と製品
  6
Continuous
 62
     3
100
AcDbPolyline
 90
        2
 70
     0
 43
0.0
 10
3621.047374240932
 20
125.0137846541566
 10
3621.047374240932
 20
120.0138246541567
  0
LWPOLYLINE
  5
A8EF
330
1E
100
AcDbEntity
  8
躯体と製品
  6
Continuous
 62
     3
100
AcDbPolyline
 90
        2
 70
     0
 43
0.0
 10
3621.047376240932
 20
125.0137846541566
 42
0.4142135623730951
 10
3620.047336240932
 20
126.0138246541566
  0
LWPOLYLINE
  5
A8F0
330
1E
100
AcDbEntity
  8
躯体と製品
  6
Continuous
 62
     3
100
AcDbPolyline
 90
        2
 70
     0
 43
0.0
 10
3620.047336240932
 20
126.0138246541568
 10
3612.047020240932
 20
126.0138246541568
  0
LWPOLYLINE
  5
A8F1
330
1E
100
AcDbEntity
  8
躯体と製品
  6
Continuous
 62
     3
100
AcDbPolyline
 90
        2
 70
     0
 43
0.0
 10
3621.047374240932
 20
133.0138626541567
 10
3621.047374240932
 20
138.0138246541565
  0
LWPOLYLINE
  5
A8F2
330
1E
100
AcDbEntity
  8
躯体と製品
  6
Continuous
 62
     3
100
AcDbPolyline
 90
        2
 70
     0
 43
0.0
 10
3620.047336240932
 20
132.0138226541567
 42
0.4142135623730951
 10
3621.047376240932
 20
133.0138626541567
  0
LWPOLYLINE
  5
A8F3
330
1E
100
AcDbEntity
  8
躯体と製品
  6
Continuous
 62
     3
100
AcDbPolyline
 90
        2
 70
     0
 43
0.0
 10
3620.047336240932
 20
132.0138246541565
 10
3612.047020240932
 20
132.0138246541565
  0
LWPOLYLINE
  5
A8F4
330
1E
100
AcDbEntity
  8
躯体と製品
  6
Continuous
 62
     3
100
AcDbPolyline
 90
        2
 70
     0
 43
0.0
 10
3612.047020240932
 20
132.0138246541566
 42
0.4142135623730951
 10
3611.046980240933
 20
131.0137846541566
  0
LWPOLYLINE
  5
A8F5
330
1E
100
AcDbEntity
  8
躯体と製品
  6
Continuous
 62
     3
100
AcDbPolyline
 90
        2
 70
     0
 43
0.0
 10
3611.046982240932
 20
131.0137846541566
 10
3611.046982240932
 20
127.0138646541566
  0
LWPOLYLINE
  5
A8F6
330
1E
100
AcDbEntity
  8
躯体と製品
  6
Continuous
 62
     3
100
AcDbPolyline
 90
        2
 70
     0
 43
0.0
 10
3611.046980240933
 20
127.0138646541566
 42
0.4142135623730951
 10
3612.047020240932
 20
126.0138246541567
  0
LWPOLYLINE
  5
A8F7
330
1E
100
AcDbEntity
  8
躯体と製品
  6
Continuous
 62
     3
100
AcDbPolyline
 90
        2
 70
     0
 43
0.0
 10
3711.047374240933
 20
125.0137846541566
 10
3711.047374240933
 20
120.0138246541567
  0
LWPOLYLINE
  5
A8F8
330
1E
100
AcDbEntity
  8
躯体と製品
  6
Continuous
 62
     3
100
AcDbPolyline
 90
        2
 70
     0
 43
0.0
 10
3711.047376240932
 20
125.0137846541566
 42
0.4142135623730951
 10
3710.047336240933
 20
126.0138246541566
  0
LWPOLYLINE
  5
A8F9
330
1E
100
AcDbEntity
  8
躯体と製品
  6
Continuous
 62
     3
100
AcDbPolyline
 90
        2
 70
     0
 43
0.0
 10
3710.047336240933
 20
126.0138246541568
 10
3702.047020240933
 20
126.0138246541568
  0
LWPOLYLINE
  5
A8FA
330
1E
100
AcDbEntity
  8
躯体と製品
  6
Continuous
 62
     3
100
AcDbPolyline
 90
        2
 70
     0
 43
0.0
 10
3711.047374240933
 20
133.0138626541567
 10
3711.047374240933
 20
138.0138246541565
  0
LWPOLYLINE
  5
A8FB
330
1E
100
AcDbEntity
  8
躯体と製品
  6
Continuous
 62
     3
100
AcDbPolyline
 90
        2
 70
     0
 43
0.0
 10
3710.047336240933
 20
132.0138226541567
 42
0.4142135623730951
 10
3711.047376240932
 20
133.0138626541567
  0
LWPOLYLINE
  5
A8FC
330
1E
100
AcDbEntity
  8
躯体と製品
  6
Continuous
 62
     3
100
AcDbPolyline
 90
        2
 70
     0
 43
0.0
 10
3710.047336240933
 20
132.0138246541565
 10
3702.047020240933
 20
132.0138246541565
  0
LWPOLYLINE
  5
A8FD
330
1E
100
AcDbEntity
  8
躯体と製品
  6
Continuous
 62
     3
100
AcDbPolyline
 90
        2
 70
     0
 43
0.0
 10
3702.047020240933
 20
132.0138246541566
 42
0.4142135623730951
 10
3701.046980240933
 20
131.0137846541566
  0
LWPOLYLINE
  5
A8FE
330
1E
100
AcDbEntity
  8
躯体と製品
  6
Continuous
 62
     3
100
AcDbPolyline
 90
        2
 70
     0
 43
0.0
 10
3701.046982240933
 20
131.0137846541566
 10
3701.046982240933
 20
127.0138646541566
  0
LWPOLYLINE
  5
A8FF
330
1E
100
AcDbEntity
  8
躯体と製品
  6
Continuous
 62
     3
100
AcDbPolyline
 90
        2
 70
     0
 43
0.0
 10
3701.046980240933
 20
127.0138646541566
 42
0.4142135623730951
 10
3702.047020240933
 20
126.0138246541567
  0
LWPOLYLINE
  5
A900
330
1E
100
AcDbEntity
  8
躯体と製品
  6
Continuous
 62
     3
100
AcDbPolyline
 90
        2
 70
     0
 43
0.0
 10
3801.047379240932
 20
125.0137846541566
 10
3801.047379240932
 20
120.0138246541567
  0
LWPOLYLINE
  5
A901
330
1E
100
AcDbEntity
  8
躯体と製品
  6
Continuous
 62
     3
100
AcDbPolyline
 90
        2
 70
     0
 43
0.0
 10
3801.047381240932
 20
125.0137846541566
 42
0.4142135623730951
 10
3800.047341240932
 20
126.0138246541566
  0
LWPOLYLINE
  5
A902
330
1E
100
AcDbEntity
  8
躯体と製品
  6
Continuous
 62
     3
100
AcDbPolyline
 90
        2
 70
     0
 43
0.0
 10
3800.047341240932
 20
126.0138246541568
 10
3792.047025240933
 20
126.0138246541568
  0
LWPOLYLINE
  5
A903
330
1E
100
AcDbEntity
  8
躯体と製品
  6
Continuous
 62
     3
100
AcDbPolyline
 90
        2
 70
     0
 43
0.0
 10
3801.047379240932
 20
133.0138626541567
 10
3801.047379240932
 20
138.0138246541565
  0
LWPOLYLINE
  5
A904
330
1E
100
AcDbEntity
  8
躯体と製品
  6
Continuous
 62
     3
100
AcDbPolyline
 90
        2
 70
     0
 43
0.0
 10
3800.047341240932
 20
132.0138226541567
 42
0.4142135623730951
 10
3801.047381240932
 20
133.0138626541567
  0
LWPOLYLINE
  5
A905
330
1E
100
AcDbEntity
  8
躯体と製品
  6
Continuous
 62
     3
100
AcDbPolyline
 90
        2
 70
     0
 43
0.0
 10
3800.047341240932
 20
132.0138246541565
 10
3792.047025240933
 20
132.0138246541565
  0
LWPOLYLINE
  5
A906
330
1E
100
AcDbEntity
  8
躯体と製品
  6
Continuous
 62
     3
100
AcDbPolyline
 90
        2
 70
     0
 43
0.0
 10
3792.047025240933
 20
132.0138246541566
 42
0.4142135623730951
 10
3791.046985240933
 20
131.0137846541566
  0
LWPOLYLINE
  5
A907
330
1E
100
AcDbEntity
  8
躯体と製品
  6
Continuous
 62
     3
100
AcDbPolyline
 90
        2
 70
     0
 43
0.0
 10
3791.046987240932
 20
131.0137846541566
 10
3791.046987240932
 20
127.0138646541566
  0
LWPOLYLINE
  5
A908
330
1E
100
AcDbEntity
  8
躯体と製品
  6
Continuous
 62
     3
100
AcDbPolyline
 90
        2
 70
     0
 43
0.0
 10
3791.046985240933
 20
127.0138646541566
 42
0.4142135623730951
 10
3792.047025240933
 20
126.0138246541567
  0
LWPOLYLINE
  5
A909
330
1E
100
AcDbEntity
  8
躯体と製品
  6
Continuous
 62
     4
100
AcDbPolyline
 90
        2
 70
     0
 43
0.0
 10
3785.855839298307
 20
76.01382465415643
 10
3906.053281240932
 20
76.01382465415655
  0
LWPOLYLINE
  5
A90A
330
1E
100
AcDbEntity
  8
躯体と製品
  6
Continuous
 62
     4
100
AcDbPolyline
 90
        2
 70
     0
 43
0.0
 10
3775.655839240932
 20
76.01382465415645
 10
3780.655839298324
 20
76.01382465415643
  0
LWPOLYLINE
  5
A90B
330
1E
100
AcDbEntity
  8
躯体と製品
  6
Continuous
 62
     4
100
AcDbPolyline
 90
        2
 70
     0
 43
0.0
 10
3605.635975240931
 20
120.0138246541565
 10
3906.053281240932
 20
120.0138246541565
  0
LWPOLYLINE
  5
A90C
330
1E
100
AcDbEntity
  8
躯体と製品
  6
Continuous
 62
     3
100
AcDbPolyline
 90
        2
 70
     0
 43
0.0
 10
3605.635975240931
 20
110.0138246541565
 10
3906.053281240932
 20
110.0138246541565
  0
LWPOLYLINE
  5
A90D
330
1E
100
AcDbEntity
  8
躯体と製品
  6
Continuous
 62
     3
100
AcDbPolyline
 90
        2
 70
     0
 43
0.0
 10
3605.635975240931
 20
115.0138246541565
 10
3906.053281240932
 20
115.0138246541565
  0
LWPOLYLINE
  5
A90E
330
1E
100
AcDbEntity
  8
躯体と製品
  6
Continuous
 62
     4
100
AcDbPolyline
 90
        2
 70
     0
 43
0.0
 10
3605.635975240931
 20
138.0138246541565
 10
3906.053281240932
 20
138.0138246541565
  0
LWPOLYLINE
  5
A90F
330
1E
100
AcDbEntity
  8
躯体と製品
  6
Continuous
 62
     4
100
AcDbPolyline
 90
        2
 70
     0
 43
0.0
 10
3605.635975240931
 20
105.0138246541565
 10
3906.053281240932
 20
105.0138246541565
  0
LWPOLYLINE
  5
A910
330
1E
100
AcDbEntity
  8
躯体と製品
  6
Continuous
 62
     4
100
AcDbPolyline
 90
        2
 70
     0
 43
0.0
 10
3725.455839298314
 20
76.01382465415666
 10
3605.635975240931
 20
76.01382465415655
  0
LWPOLYLINE
  5
A911
330
1E
100
AcDbEntity
  8
躯体と製品
  6
Continuous
 62
     4
100
AcDbPolyline
 90
        2
 70
     0
 43
0.0
 10
3735.655839240932
 20
76.01382465415667
 10
3730.655839298325
 20
76.01382465415666
  0
LWPOLYLINE
  5
A912
330
1E
100
AcDbEntity
  8
躯体と製品
  6
Continuous
 62
     3
100
AcDbPolyline
 90
        2
 70
     0
 43
0.0
 10
3785.855839298307
 20
79.01382465415666
 10
3906.053281240932
 20
79.01382465415655
  0
LWPOLYLINE
  5
A913
330
1E
100
AcDbEntity
  8
躯体と製品
  6
Continuous
 62
     3
100
AcDbPolyline
 90
        2
 70
     0
 43
0.0
 10
3775.655839240932
 20
79.01382465415668
 10
3782.655839298325
 20
79.01382465415666
  0
LWPOLYLINE
  5
A914
330
1E
100
AcDbEntity
  8
躯体と製品
  6
Continuous
 62
     3
100
AcDbPolyline
 90
        2
 70
     0
 43
0.0
 10
3724.855071187918
 20
79.01382465415643
 10
3605.635975240931
 20
79.01382465415655
  0
LWPOLYLINE
  5
A915
330
1E
100
AcDbEntity
  8
躯体と製品
  6
Continuous
 62
     3
100
AcDbPolyline
 90
        2
 70
     0
 43
0.0
 10
3735.655839240932
 20
79.01382465415645
 10
3728.6563537093
 20
79.01382465415643
  0
LWPOLYLINE
  5
A916
330
1E
100
AcDbEntity
  8
躯体と製品
  6
PLINE2
 62
     3
100
AcDbPolyline
 90
        2
 70
     0
 43
0.0
 10
4195.346304240932
 20
25.61382465415669
 10
4304.542168240932
 20
25.61382465415669
  0
LWPOLYLINE
  5
A917
330
1E
100
AcDbEntity
  8
躯体と製品
  6
Continuous
 62
     4
100
AcDbPolyline
 90
        2
 70
     0
 43
0.0
 10
4195.346304240932
 20
24.01382465415655
 10
4304.542168240932
 20
24.01382465415655
  0
LWPOLYLINE
  5
A918
330
1E
100
AcDbEntity
  8
躯体と製品
  6
PLINE2
 62
     3
100
AcDbPolyline
 90
        2
 70
     0
 43
0.0
 10
4195.346304240932
 20
72.41408065415645
 10
4304.542168240932
 20
72.41408065415645
  0
LWPOLYLINE
  5
A919
330
1E
100
AcDbEntity
  8
躯体と製品
  6
Continuous
 62
     4
100
AcDbPolyline
 90
        2
 70
     0
 43
0.0
 10
3968.275586240932
 20
105.0138246541565
 10
4304.542168240932
 20
105.0138246541565
  0
LWPOLYLINE
  5
A91A
330
1E
100
AcDbEntity
  8
躯体と製品
  6
Continuous
 62
     4
100
AcDbPolyline
 90
        2
 70
     0
 43
0.0
 10
3968.275586240932
 20
138.0138246541565
 10
4304.542168240932
 20
138.0138246541565
  0
LWPOLYLINE
  5
A91B
330
1E
100
AcDbEntity
  8
躯体と製品
  6
Continuous
 62
     4
100
AcDbPolyline
 90
        2
 70
     0
 43
0.0
 10
3968.275586240932
 20
120.0138246541565
 10
4304.542168240932
 20
120.0138246541565
  0
LWPOLYLINE
  5
A91C
330
1E
100
AcDbEntity
  8
躯体と製品
  6
Continuous
 62
     4
100
AcDbPolyline
 90
        2
 70
     0
 43
0.0
 10
4195.346304240932
 20
74.01382465415655
 10
4304.542168240932
 20
74.01382465415655
  0
LWPOLYLINE
  5
A91D
330
1E
100
AcDbEntity
  8
躯体と製品
  6
Continuous
 62
     3
100
AcDbPolyline
 90
        2
 70
     0
 43
0.0
 10
3968.275586240932
 20
115.0138246541565
 10
4304.542168240932
 20
115.0138246541565
  0
LWPOLYLINE
  5
A91E
330
1E
100
AcDbEntity
  8
躯体と製品
  6
Continuous
 62
     3
100
AcDbPolyline
 90
        2
 70
     0
 43
0.0
 10
3968.275586240932
 20
110.0138246541565
 10
4304.542168240932
 20
110.0138246541565
  0
LWPOLYLINE
  5
A91F
330
1E
100
AcDbEntity
  8
躯体と製品
  6
PLINE2
 62
     3
100
AcDbPolyline
 90
        2
 70
     0
 43
0.0
 10
3968.275586240932
 20
25.61382465415669
 10
4145.346558240931
 20
25.61382465415669
  0
LWPOLYLINE
  5
A920
330
1E
100
AcDbEntity
  8
躯体と製品
  6
Continuous
 62
     4
100
AcDbPolyline
 90
        2
 70
     0
 43
0.0
 10
3968.275586240932
 20
24.01382465415655
 10
4145.346558240931
 20
24.01382465415655
  0
LWPOLYLINE
  5
A921
330
1E
100
AcDbEntity
  8
躯体と製品
  6
PLINE2
 62
     3
100
AcDbPolyline
 90
        2
 70
     0
 43
0.0
 10
3968.275586240932
 20
72.41408065415645
 10
4145.346558240931
 20
72.41408065415645
  0
LWPOLYLINE
  5
A922
330
1E
100
AcDbEntity
  8
躯体と製品
  6
Continuous
 62
     4
100
AcDbPolyline
 90
        2
 70
     0
 43
0.0
 10
4145.346558240931
 20
74.01382465415655
 10
3968.275586240932
 20
74.01382465415655
  0
LWPOLYLINE
  5
A923
330
1E
100
AcDbEntity
  8
躯体と製品
  6
Continuous
 62
     4
100
AcDbPolyline
 90
        2
 70
     0
 43
0.0
 10
4178.346431240932
 20
-70.43036483938633
 10
4178.346431240932
 20
-193.1440147483257
  0
LWPOLYLINE
  5
A924
330
1E
100
AcDbEntity
  8
躯体と製品
  6
Continuous
 62
     4
100
AcDbPolyline
 90
        2
 70
     0
 43
0.0
 10
4162.346431240933
 20
-70.4303648789191
 10
4162.346431240933
 20
-193.1440140460171
  0
LWPOLYLINE
  5
A925
330
1E
100
AcDbEntity
  8
躯体と製品
  6
Continuous
 62
     3
100
AcDbPolyline
 90
        2
 70
     0
 43
0.0
 10
4176.846439240931
 20
-70.57839655825787
 10
4176.846439240931
 20
-192.995982779952
  0
LWPOLYLINE
  5
A926
330
1E
100
AcDbEntity
  8
躯体と製品
  6
Continuous
 62
     3
100
AcDbPolyline
 90
        2
 70
     0
 43
0.0
 10
4163.846423240932
 20
-70.57839662677003
 10
4163.846423240932
 20
-192.9959825476685
  0
LWPOLYLINE
  5
A927
330
1E
100
AcDbEntity
  8
躯体と製品
  6
Continuous
 62
     3
100
AcDbPolyline
 90
        2
 70
     0
 43
0.0
 10
3749.156039240932
 20
-70.58820483653538
 10
3749.156039240932
 20
-192.9861753458434
  0
LWPOLYLINE
  5
A928
330
1E
100
AcDbEntity
  8
躯体と製品
  6
Continuous
 62
     3
100
AcDbPolyline
 90
        2
 70
     0
 43
0.0
 10
3762.155639240932
 20
-70.58820483653538
 10
3762.155639240932
 20
-192.9861753458434
  0
LWPOLYLINE
  5
A929
330
1E
100
AcDbEntity
  8
躯体と製品
  6
Continuous
 62
     4
100
AcDbPolyline
 90
        2
 70
     0
 43
0.0
 10
3747.655839240933
 20
-70.58820483653538
 10
3747.655839240933
 20
-192.9861753458434
  0
LWPOLYLINE
  5
A92A
330
1E
100
AcDbEntity
  8
躯体と製品
  6
Continuous
 62
     4
100
AcDbPolyline
 90
        2
 70
     0
 43
0.0
 10
3763.655839240932
 20
-70.58820483653538
 10
3763.655839240932
 20
-192.9861753458434
  0
LWPOLYLINE
  5
A92B
330
1E
100
AcDbEntity
  8
躯体と製品
  6
Continuous
 62
     3
100
AcDbPolyline
 90
        2
 70
     0
 43
0.0
 10
3747.655839307424
 20
-265.0879285425901
 10
3763.655839307425
 20
-265.0879285425901
  0
LWPOLYLINE
  5
A92C
330
1E
100
AcDbEntity
  8
躯体と製品
  6
Continuous
 62
     4
100
AcDbPolyline
 90
        2
 70
     0
 43
0.0
 10
3763.655839307425
 20
-265.0879285425901
 10
3762.155641307425
 20
-266.5881285425901
  0
LWPOLYLINE
  5
A92D
330
1E
100
AcDbEntity
  8
躯体と製品
  6
Continuous
 62
     4
100
AcDbPolyline
 90
        2
 70
     0
 43
0.0
 10
3747.655839307424
 20
-265.0879285425901
 10
3749.156037307424
 20
-266.5881285425901
  0
LWPOLYLINE
  5
A92E
330
1E
100
AcDbEntity
  8
躯体と製品
  6
Continuous
 62
     4
100
AcDbPolyline
 90
        2
 70
     0
 43
0.0
 10
3749.156037307424
 20
-266.5881285425901
 10
3762.155641307425
 20
-266.5881285425901
  0
LWPOLYLINE
  5
A92F
330
1E
100
AcDbEntity
  8
躯体と製品
  6
Continuous
 62
     3
100
AcDbPolyline
 90
        2
 70
     0
 43
0.0
 10
3749.156037240928
 20
-226.1861760295623
 10
3749.156037307424
 20
-266.5881285425901
  0
LWPOLYLINE
  5
A930
330
1E
100
AcDbEntity
  8
躯体と製品
  6
Continuous
 62
     3
100
AcDbPolyline
 90
        2
 70
     0
 43
0.0
 10
3762.155641240929
 20
-226.1861760295623
 10
3762.155641307425
 20
-266.5881285425901
  0
LWPOLYLINE
  5
A931
330
1E
100
AcDbEntity
  8
躯体と製品
  6
Continuous
 62
     4
100
AcDbPolyline
 90
        2
 70
     0
 43
0.0
 10
3763.655839240928
 20
-226.1861760295623
 10
3763.655839307425
 20
-265.0879285425901
  0
LWPOLYLINE
  5
A932
330
1E
100
AcDbEntity
  8
躯体と製品
  6
Continuous
 62
     4
100
AcDbPolyline
 90
        2
 70
     0
 43
0.0
 10
3747.655839240927
 20
-226.1861760295623
 10
3747.655839307424
 20
-265.0879285425901
  0
LWPOLYLINE
  5
A933
330
1E
100
AcDbEntity
  8
躯体と製品
  6
Continuous
 62
     4
100
AcDbPolyline
 90
        2
 70
     0
 43
0.0
 10
4175.445425240932
 20
85.26381865415668
 10
4175.846403240932
 20
85.26381865415668
  0
LWPOLYLINE
  5
A934
330
1E
100
AcDbEntity
  8
躯体と製品
  6
Continuous
 62
     4
100
AcDbPolyline
 90
        2
 70
     0
 43
0.0
 10
4176.346401240932
 20
84.76382065415668
 42
0.4142135623730951
 10
4175.846403240932
 20
85.26381865415668
  0
LWPOLYLINE
  5
A935
330
1E
100
AcDbEntity
  8
躯体と製品
  6
Continuous
 62
     4
100
AcDbPolyline
 90
        2
 70
     0
 43
0.0
 10
4176.346401240931
 20
84.76382065415668
 10
4176.346401240931
 20
83.26382865415665
  0
LWPOLYLINE
  5
A936
330
1E
100
AcDbEntity
  8
躯体と製品
  6
Continuous
 62
     4
100
AcDbPolyline
 90
        2
 70
     0
 43
0.0
 10
4175.846403240932
 20
82.76383065415664
 42
0.4142135623730951
 10
4176.346401240932
 20
83.26382865415665
  0
LWPOLYLINE
  5
A937
330
1E
100
AcDbEntity
  8
躯体と製品
  6
Continuous
 62
     4
100
AcDbPolyline
 90
        2
 70
     0
 43
0.0
 10
4175.846403240932
 20
82.76383065415664
 10
4175.445425240932
 20
82.76383065415664
  0
LWPOLYLINE
  5
A938
330
1E
100
AcDbEntity
  8
躯体と製品
  6
Continuous
 62
     4
100
AcDbPolyline
 90
        2
 70
     0
 43
0.0
 10
4165.247439240931
 20
85.26381865415668
 10
4164.846459240931
 20
85.26381865415668
  0
LWPOLYLINE
  5
A939
330
1E
100
AcDbEntity
  8
躯体と製品
  6
Continuous
 62
     4
100
AcDbPolyline
 90
        2
 70
     0
 43
0.0
 10
4164.846459240931
 20
85.26381865415668
 42
0.4142135623730951
 10
4164.34646124093
 20
84.76382065415668
  0
LWPOLYLINE
  5
A93A
330
1E
100
AcDbEntity
  8
躯体と製品
  6
Continuous
 62
     4
100
AcDbPolyline
 90
        2
 70
     0
 43
0.0
 10
4164.346463240932
 20
84.76382065415668
 10
4164.346463240932
 20
83.26382865415665
  0
LWPOLYLINE
  5
A93B
330
1E
100
AcDbEntity
  8
躯体と製品
  6
Continuous
 62
     4
100
AcDbPolyline
 90
        2
 70
     0
 43
0.0
 10
4164.34646124093
 20
83.26382865415665
 42
0.4142135623730951
 10
4164.846459240931
 20
82.76383065415664
  0
LWPOLYLINE
  5
A93C
330
1E
100
AcDbEntity
  8
躯体と製品
  6
Continuous
 62
     4
100
AcDbPolyline
 90
        2
 70
     0
 43
0.0
 10
4164.846459240931
 20
82.76383065415664
 10
4165.247439240931
 20
82.76383065415664
  0
LWPOLYLINE
  5
A93D
330
1E
100
AcDbEntity
  8
躯体と製品
  6
Continuous
 62
     3
100
AcDbPolyline
 90
        2
 70
     0
 43
0.0
 10
4170.346431240932
 20
78.24035065415658
 10
4165.346457240931
 20
81.12708865415651
  0
LWPOLYLINE
  5
A93E
330
1E
100
AcDbEntity
  8
躯体と製品
  6
Continuous
 62
     3
100
AcDbPolyline
 90
        2
 70
     0
 43
0.0
 10
4165.346457240931
 20
81.12708865415651
 10
4165.346457240931
 20
86.90056065415658
  0
LWPOLYLINE
  5
A93F
330
1E
100
AcDbEntity
  8
躯体と製品
  6
Continuous
 62
     3
100
AcDbPolyline
 90
        2
 70
     0
 43
0.0
 10
4165.346457240931
 20
86.90056065415658
 10
4170.346431240932
 20
89.78729865415674
  0
LWPOLYLINE
  5
A940
330
1E
100
AcDbEntity
  8
躯体と製品
  6
Continuous
 62
     3
100
AcDbPolyline
 90
        2
 70
     0
 43
0.0
 10
4170.346431240932
 20
89.78729865415674
 10
4175.346407240931
 20
86.90056065415658
  0
LWPOLYLINE
  5
A941
330
1E
100
AcDbEntity
  8
躯体と製品
  6
Continuous
 62
     3
100
AcDbPolyline
 90
        2
 70
     0
 43
0.0
 10
4175.346407240931
 20
86.90056065415658
 10
4175.346407240931
 20
81.12708865415651
  0
LWPOLYLINE
  5
A942
330
1E
100
AcDbEntity
  8
躯体と製品
  6
Continuous
 62
     3
100
AcDbPolyline
 90
        2
 70
     0
 43
0.0
 10
4175.346407240931
 20
81.12708865415651
 10
4170.346431240932
 20
78.24035065415658
  0
LWPOLYLINE
  5
A943
330
1E
100
AcDbEntity
  8
躯体と製品
  6
Continuous
 62
     3
100
AcDbPolyline
 90
        2
 70
     0
 43
0.0
 10
4245.632519240932
 20
-333.9364933458434
 10
4267.582837240932
 20
-311.9861753458434
  0
LWPOLYLINE
  5
A944
330
1E
100
AcDbEntity
  8
躯体と製品
  6
Continuous
 62
     3
100
AcDbPolyline
 90
        2
 70
     0
 43
0.0
 10
4231.488511240931
 20
-333.9364933458434
 10
4253.438827240932
 20
-311.9861753458434
  0
LWPOLYLINE
  5
A945
330
1E
100
AcDbEntity
  8
躯体と製品
  6
Continuous
 62
     3
100
AcDbPolyline
 90
        2
 70
     0
 43
0.0
 10
4259.776527240933
 20
-333.9364933458434
 10
4281.726845240931
 20
-311.9861753458434
  0
LWPOLYLINE
  5
A946
330
1E
100
AcDbEntity
  8
躯体と製品
  6
Continuous
 62
     3
100
AcDbPolyline
 90
        2
 70
     0
 43
0.0
 10
4063.507725252997
 20
-334.0697113458433
 10
4085.591259252997
 20
-311.9861753458434
  0
LWPOLYLINE
  5
A947
330
1E
100
AcDbEntity
  8
躯体と製品
  6
Continuous
 62
     3
100
AcDbPolyline
 90
        2
 70
     0
 43
0.0
 10
4077.651733252997
 20
-334.0697113458433
 10
4099.735267252997
 20
-311.9861753458434
  0
LWPOLYLINE
  5
A948
330
1E
100
AcDbEntity
  8
躯体と製品
  6
Continuous
 62
     3
100
AcDbPolyline
 90
        2
 70
     0
 43
0.0
 10
4049.363717252997
 20
-334.0697113458433
 10
4071.447251252997
 20
-311.9861753458434
  0
LWPOLYLINE
  5
A949
330
1E
100
AcDbEntity
  8
躯体と製品
  6
Continuous
 62
     4
100
AcDbPolyline
 90
        2
 70
     0
 43
0.0
 10
3968.275587240933
 20
-311.9861753458434
 10
4304.542171240931
 20
-311.9861753458434
  0
LWPOLYLINE
  5
A94A
330
1E
100
AcDbEntity
  8
躯体と製品
  6
Continuous
 62
     3
100
AcDbPolyline
 90
        2
 70
     0
 43
0.0
 10
3790.256423644347
 20
86.51415571823113
 42
0.2275707722563313
 10
3790.856503298308
 20
87.76432165415666
  0
LWPOLYLINE
  5
A94B
330
1E
100
AcDbEntity
  8
躯体と製品
  6
Continuous
 62
     3
100
AcDbPolyline
 90
        2
 70
     0
 43
0.0
 10
3790.856503298308
 20
88.38940365415668
 10
3790.256423298308
 20
89.0144876541567
  0
LWPOLYLINE
  5
A94C
330
1E
100
AcDbEntity
  8
躯体と製品
  6
Continuous
 62
     3
100
AcDbPolyline
 90
        2
 70
     0
 43
0.0
 10
3785.855839298307
 20
90.1146336541567
 10
3784.255839298302
 20
90.1146336541567
  0
LWPOLYLINE
  5
A94D
330
1E
100
AcDbEntity
  8
躯体と製品
  6
Continuous
 62
     3
100
AcDbPolyline
 90
        2
 70
     0
 43
0.0
 10
3785.855839298307
 20
87.76432165415666
 42
0.2275707722563313
 10
3786.455918952269
 20
86.51415571823113
  0
LWPOLYLINE
  5
A94E
330
1E
100
AcDbEntity
  8
躯体と製品
  6
Continuous
 62
     3
100
AcDbPolyline
 90
        2
 70
     0
 43
0.0
 10
3785.855839298307
 20
88.38940365415668
 10
3786.455919298307
 20
89.0144876541567
  0
LWPOLYLINE
  5
A94F
330
1E
100
AcDbEntity
  8
躯体と製品
  6
Continuous
 62
     3
100
AcDbPolyline
 90
        2
 70
     0
 43
0.0
 10
3790.256423298308
 20
89.0144876541567
 10
3786.455919298307
 20
89.0144876541567
  0
LWPOLYLINE
  5
A950
330
1E
100
AcDbEntity
  8
躯体と製品
  6
Continuous
 62
     3
100
AcDbPolyline
 90
        2
 70
     0
 43
0.0
 10
3790.256423298308
 20
86.51415565415662
 10
3786.455919298307
 20
86.51415565415662
  0
LWPOLYLINE
  5
A951
330
1E
100
AcDbEntity
  8
躯体と製品
  6
Continuous
 62
     3
100
AcDbPolyline
 90
        2
 70
     0
 43
0.0
 10
3790.856503298308
 20
87.01382465415681
 10
3799.055839298319
 20
87.01382465415671
  0
LWPOLYLINE
  5
A952
330
1E
100
AcDbEntity
  8
躯体と製品
  6
Continuous
 62
     3
100
AcDbPolyline
 90
        2
 70
     0
 43
0.0
 10
3790.856503298308
 20
86.51375865415664
 10
3799.055839298319
 20
86.51375865415664
  0
LWPOLYLINE
  5
A953
330
1E
100
AcDbEntity
  8
躯体と製品
  6
Continuous
 62
     3
100
AcDbPolyline
 90
        2
 70
     0
 43
0.0
 10
3790.856503298308
 20
80.26332965415667
 42
0.2275707722563312
 10
3790.256423644347
 20
81.5134955900822
  0
LWPOLYLINE
  5
A954
330
1E
100
AcDbEntity
  8
躯体と製品
  6
Continuous
 62
     3
100
AcDbPolyline
 90
        2
 70
     0
 43
0.0
 10
3790.856503298308
 20
79.63824565415665
 10
3790.256423298308
 20
79.01316365415663
  0
LWPOLYLINE
  5
A955
330
1E
100
AcDbEntity
  8
躯体と製品
  6
Continuous
 62
     3
100
AcDbPolyline
 90
        2
 70
     0
 43
0.0
 10
3786.455918952269
 20
81.5134955900822
 42
0.2275707722563313
 10
3785.855839298307
 20
80.26332965415667
  0
LWPOLYLINE
  5
A956
330
1E
100
AcDbEntity
  8
躯体と製品
  6
Continuous
 62
     3
100
AcDbPolyline
 90
        2
 70
     0
 43
0.0
 10
3785.855839298307
 20
79.63824565415665
 10
3786.455919298307
 20
79.01316365415663
  0
LWPOLYLINE
  5
A957
330
1E
100
AcDbEntity
  8
躯体と製品
  6
Continuous
 62
     3
100
AcDbPolyline
 90
        2
 70
     0
 43
0.0
 10
3790.256423298308
 20
81.5134936541567
 10
3786.455919298307
 20
81.5134936541567
  0
LWPOLYLINE
  5
A958
330
1E
100
AcDbEntity
  8
躯体と製品
  6
Continuous
 62
     3
100
AcDbPolyline
 90
        2
 70
     0
 43
0.0
 10
3790.256423298308
 20
79.01316365415663
 10
3786.455919298307
 20
79.01316365415663
  0
LWPOLYLINE
  5
A959
330
1E
100
AcDbEntity
  8
躯体と製品
  6
Continuous
 62
     3
100
AcDbPolyline
 90
        2
 70
     0
 43
0.0
 10
3799.055839298319
 20
81.01382465415671
 10
3790.856503298308
 20
81.01382465415671
  0
LWPOLYLINE
  5
A95A
330
1E
100
AcDbEntity
  8
躯体と製品
  6
Continuous
 62
     3
100
AcDbPolyline
 90
        2
 70
     0
 43
0.0
 10
3790.856503298308
 20
81.51389065415676
 10
3799.055839298319
 20
81.51389065415676
  0
LWPOLYLINE
  5
A95B
330
1E
100
AcDbEntity
  8
躯体と製品
  6
Continuous
 62
     3
100
AcDbPolyline
 90
        2
 70
     0
 43
0.0
 10
3785.855839298307
 20
85.62982465413664
 10
3785.855839298307
 20
90.1146336541567
  0
LWPOLYLINE
  5
A95C
330
1E
100
AcDbEntity
  8
躯体と製品
  6
Continuous
 62
     3
100
AcDbPolyline
 90
        2
 70
     0
 43
0.0
 10
3790.256421908525
 20
81.51349490555114
 42
0.2400000040461867
 10
3790.256421908525
 20
86.5141564027624
  0
LWPOLYLINE
  5
A95D
330
1E
100
AcDbEntity
  8
躯体と製品
  6
Continuous
 62
     3
100
AcDbPolyline
 90
        2
 70
     0
 43
0.0
 10
3790.856503298308
 20
79.63824565415665
 10
3790.856503298308
 20
88.38940365415668
  0
LWPOLYLINE
  5
A95E
330
1E
100
AcDbEntity
  8
躯体と製品
  6
Continuous
 62
     3
100
AcDbPolyline
 90
        2
 70
     0
 43
0.0
 10
3790.856503298308
 20
88.38940365415668
 10
3790.856503298308
 20
79.63824565415665
  0
LWPOLYLINE
  5
A95F
330
1E
100
AcDbEntity
  8
躯体と製品
  6
Continuous
 62
     3
100
AcDbPolyline
 90
        2
 70
     0
 43
0.0
 10
3786.45592068809
 20
86.5141564027624
 42
0.2400000040461867
 10
3786.45592068809
 20
81.51349490555114
  0
LWPOLYLINE
  5
A960
330
1E
100
AcDbEntity
  8
躯体と製品
  6
Continuous
 62
     3
100
AcDbPolyline
 90
        2
 70
     0
 43
0.0
 10
3785.855839298307
 20
79.63824565415665
 10
3785.855839298307
 20
88.38940365415668
  0
LWPOLYLINE
  5
A961
330
1E
100
AcDbEntity
  8
躯体と製品
  6
Continuous
 62
     3
100
AcDbPolyline
 90
        2
 70
     0
 43
0.0
 10
3785.855839298307
 20
88.38940365415668
 10
3785.855839298307
 20
79.63824565415665
  0
LWPOLYLINE
  5
A962
330
1E
100
AcDbEntity
  8
躯体と製品
  6
Continuous
 62
     3
100
AcDbPolyline
 90
        2
 70
     0
 43
0.0
 10
3799.055839298319
 20
87.01382465415671
 10
3799.055839298319
 20
81.01382465415671
  0
LWPOLYLINE
  5
A963
330
1E
100
AcDbEntity
  8
躯体と製品
  6
Continuous
 62
     3
100
AcDbPolyline
 90
        2
 70
     0
 43
0.0
 10
3778.055839298319
 20
87.01382465415671
 10
3777.555773298319
 20
86.51375865415664
  0
LWPOLYLINE
  5
A964
330
1E
100
AcDbEntity
  8
躯体と製品
  6
Continuous
 62
     3
100
AcDbPolyline
 90
        2
 70
     0
 43
0.0
 10
3778.055839298319
 20
81.01382465415671
 10
3777.555773298319
 20
81.51389065415676
  0
LWPOLYLINE
  5
A965
330
1E
100
AcDbEntity
  8
躯体と製品
  6
Continuous
 62
     3
100
AcDbPolyline
 90
        2
 70
     0
 43
0.0
 10
3778.055839298319
 20
81.01382465415671
 10
3778.055839298319
 20
87.01382465415671
  0
LWPOLYLINE
  5
A966
330
1E
100
AcDbEntity
  8
躯体と製品
  6
Continuous
 62
     3
100
AcDbPolyline
 90
        2
 70
     0
 43
0.0
 10
3782.655839298325
 20
81.01382465415671
 10
3778.055839298319
 20
81.01382465415671
  0
LWPOLYLINE
  5
A967
330
1E
100
AcDbEntity
  8
躯体と製品
  6
Continuous
 62
     3
100
AcDbPolyline
 90
        2
 70
     0
 43
0.0
 10
3782.655839298325
 20
87.01382465415671
 10
3778.055839298319
 20
87.01382465415671
  0
LWPOLYLINE
  5
A968
330
1E
100
AcDbEntity
  8
躯体と製品
  6
Continuous
 62
     3
100
AcDbPolyline
 90
        2
 70
     0
 43
0.0
 10
3727.055839298319
 20
89.26451865415668
 10
3726.05570729832
 20
89.26451865415668
  0
LWPOLYLINE
  5
A969
330
1E
100
AcDbEntity
  8
躯体と製品
  6
Continuous
 62
     3
100
AcDbPolyline
 90
        2
 70
     0
 43
0.0
 10
3726.05570729832
 20
89.26452065415677
 42
0.4142135623730951
 10
3723.055309298319
 20
86.26412265415677
  0
LWPOLYLINE
  5
A96A
330
1E
100
AcDbEntity
  8
躯体と製品
  6
Continuous
 62
     3
100
AcDbPolyline
 90
        2
 70
     0
 43
0.0
 10
3723.055309298319
 20
81.76352665415668
 42
0.3564142388398803
 10
3725.455839298314
 20
78.82370581931439
  0
LWPOLYLINE
  5
A96B
330
1E
100
AcDbEntity
  8
躯体と製品
  6
Continuous
 62
     3
100
AcDbPolyline
 90
        2
 70
     0
 43
0.0
 10
3723.055309298319
 20
86.26412265415677
 10
3723.055309298319
 20
81.76352665415668
  0
LWPOLYLINE
  5
A96C
330
1E
100
AcDbEntity
  8
躯体と製品
  6
Continuous
 62
     3
100
AcDbPolyline
 90
        2
 70
     0
 43
0.0
 10
3782.655839298325
 20
81.51389065415676
 10
3728.656257697269
 20
81.51389065415676
  0
LWPOLYLINE
  5
A96D
330
1E
100
AcDbEntity
  8
躯体と製品
  6
Continuous
 62
     3
100
AcDbPolyline
 90
        2
 70
     0
 43
0.0
 10
3782.655839298325
 20
86.51375865415664
 10
3728.656086204241
 20
86.51375865415664
  0
LWPOLYLINE
  5
A96E
330
1E
100
AcDbEntity
  8
躯体と製品
  6
Continuous
 62
     3
100
AcDbPolyline
 90
        2
 70
     0
 43
0.0
 10
3847.252929240932
 20
-333.8032933458434
 10
3869.070047240933
 20
-311.9861753458434
  0
LWPOLYLINE
  5
A96F
330
1E
100
AcDbEntity
  8
躯体と製品
  6
Continuous
 62
     3
100
AcDbPolyline
 90
        2
 70
     0
 43
0.0
 10
3833.110793240932
 20
-333.8032933458434
 10
3854.927911240933
 20
-311.9861753458434
  0
LWPOLYLINE
  5
A970
330
1E
100
AcDbEntity
  8
躯体と製品
  6
Continuous
 62
     3
100
AcDbPolyline
 90
        2
 70
     0
 43
0.0
 10
3861.395065240932
 20
-333.8032933458434
 10
3883.212181240933
 20
-311.9861753458434
  0
LWPOLYLINE
  5
A971
330
1E
100
AcDbEntity
  8
躯体と製品
  6
Continuous
 62
     3
100
AcDbPolyline
 90
        2
 70
     0
 43
0.0
 10
3634.615775240933
 20
-333.9364933458434
 10
3656.566093240932
 20
-311.9861753458434
  0
LWPOLYLINE
  5
A972
330
1E
100
AcDbEntity
  8
躯体と製品
  6
Continuous
 62
     3
100
AcDbPolyline
 90
        2
 70
     0
 43
0.0
 10
3648.757911240933
 20
-333.9364933458434
 10
3670.708229240933
 20
-311.9861753458434
  0
LWPOLYLINE
  5
A973
330
1E
100
AcDbEntity
  8
躯体と製品
  6
Continuous
 62
     3
100
AcDbPolyline
 90
        2
 70
     0
 43
0.0
 10
3620.473641240933
 20
-333.9364933458434
 10
3642.423957240933
 20
-311.9861753458434
  0
LWPOLYLINE
  5
A974
330
1E
100
AcDbEntity
  8
躯体と製品
  6
Continuous
 62
     4
100
AcDbPolyline
 90
        2
 70
     0
 43
0.0
 10
3605.834339240932
 20
-311.9861753458434
 10
3905.834339240932
 20
-311.9861753458434
  0
TEXT
  5
AB58
330
1E
100
AcDbEntity
  8
文字-記号
  6
Continuous
 62
     3
100
AcDbText
 10
3606.845955785382
 20
214.2327853395056
 30
0.0
 40
15.0
  1
■スリーベースＳＳ-１０：高遮音鋼製床下地システム（体育館・剣道場：一般用）
  7
ACAD
100
AcDbText
  0
TEXT
  5
AC5A
330
1E
100
AcDbEntity
  8
文字-記号
  6
Continuous
 62
     7
100
AcDbText
 10
3811.855717770487
 20
-0.6994271523855105
 30
0.0
 40
6.205583999999999
  1
ダンピングクッション付
 41
1.007498246740355
100
AcDbText
  0
LWPOLYLINE
  5
AC5B
330
1E
100
AcDbEntity
  8
文字-記号
  6
Continuous
 62
     7
100
AcDbPolyline
 90
        3
 70
     0
 43
0.0
 10
3791.044993342165
 20
-35.73028326663064
 10
3809.814075616038
 20
-3.221279156842342
 10
3897.266723585988
 20
-3.221279156842342
  0
TEXT
  5
AC62
330
1E
100
AcDbEntity
  8
文字-記号
  6
Continuous
 62
     7
100
AcDbText
 10
4226.546309703993
 20
-0.699428113178783
 30
0.0
 40
6.205583999999999
  1
ダンピングクッション付
 41
1.007498246740355
100
AcDbText
  0
LWPOLYLINE
  5
AC63
330
1E
100
AcDbEntity
  8
文字-記号
  6
Continuous
 62
     7
100
AcDbPolyline
 90
        3
 70
     0
 43
0.0
 10
4205.735585275672
 20
-35.73028422742391
 10
4224.504667549545
 20
-3.221280117635615
 10
4311.957315519495
 20
-3.221280117635615
  0
ENDSEC
  0
SECTION
  2
OBJECTS
  0
DICTIONARY
  5
C
330
0
100
AcDbDictionary
281
     1
  3
ACAD_CIP_PREVIOUS_PRODUCT_INFO
350
65B7
  3
ACAD_COLOR
350
659B
  3
ACAD_GROUP
350
D
  3
ACAD_LAYOUT
350
19
  3
ACAD_MATERIAL
350
6569
  3
ACAD_MLEADERSTYLE
350
65B0
  3
ACAD_MLINESTYLE
350
16
  3
ACAD_PLOTSETTINGS
350
18
  3
ACAD_PLOTSTYLENAME
350
E
  3
ACAD_SCALELIST
350
659E
  3
ACAD_TABLESTYLE
350
659C
  3
ACAD_VISUALSTYLE
350
6582
  3
ACDB_RECOMPOSE_DATA
350
B0E1
  3
AcDbVariableDictionary
350
169
  3
AEC_PROPERTY_SET_DEFS
350
6710
  0
DICTIONARY
  5
AAF4
330
8
100
AcDbDictionary
280
     1
281
     1
  0
DICTIONARY
  5
175
330
2
100
AcDbDictionary
280
     1
281
     1
  3
ACAD_LAYERFILTERS
360
185
  3
ACAD_LAYERSTATES
360
176
  0
DICTIONARY
  5
79A2
330
10
100
AcDbDictionary
280
     1
281
     1
  3
ADSK_XREC_LAYER_RECONCILED
360
79A3
  0
DICTIONARY
  5
79A4
330
178
100
AcDbDictionary
280
     1
281
     1
  3
ADSK_XREC_LAYER_RECONCILED
360
79A5
  0
DICTIONARY
  5
79A6
330
179
100
AcDbDictionary
280
     1
281
     1
  3
ADSK_XREC_LAYER_RECONCILED
360
79A7
  0
DICTIONARY
  5
79A8
330
4F62
100
AcDbDictionary
280
     1
281
     1
  3
ADSK_XREC_LAYER_RECONCILED
360
79A9
  0
DICTIONARY
  5
28B
330
1E
100
AcDbDictionary
280
     1
281
     1
  3
ACAD_LAYOUTSELFREF
360
5C3B
  3
ACAD_SORTENTS
360
7CE6
  0
DICTIONARY
  5
28D
330
1A
100
AcDbDictionary
280
     1
281
     1
  3
ACAD_LAYOUTSELFREF
360
5C3A
  0
XRECORD
  5
65B7
102
{ACAD_REACTORS
330
C
102
}
330
C
100
AcDbXrecord
280
     1
300
ACD
300
2012
300
ACD_F_S
  0
DICTIONARY
  5
659B
102
{ACAD_REACTORS
330
C
102
}
330
C
100
AcDbDictionary
281
     1
  0
DICTIONARY
  5
D
102
{ACAD_REACTORS
330
C
102
}
330
C
100
AcDbDictionary
281
     1
  0
DICTIONARY
  5
19
102
{ACAD_REACTORS
330
C
102
}
330
C
100
AcDbDictionary
281
     1
  3
Model
350
21
  3
ﾚｲｱｳﾄ1
350
1D
  0
DICTIONARY
  5
6569
102
{ACAD_REACTORS
330
C
102
}
330
C
100
AcDbDictionary
281
     1
  3
ByBlock
350
6572
  3
ByLayer
350
656A
  3
Global
350
657A
  0
DICTIONARY
  5
65B0
102
{ACAD_REACTORS
330
C
102
}
330
C
100
AcDbDictionary
281
     1
  3
Standard
350
65B1
  0
DICTIONARY
  5
16
102
{ACAD_REACTORS
330
C
102
}
330
C
100
AcDbDictionary
281
     1
  3
Standard
350
17
  0
DICTIONARY
  5
18
102
{ACAD_REACTORS
330
C
102
}
330
C
100
AcDbDictionary
281
     1
  0
ACDBDICTIONARYWDFLT
  5
E
102
{ACAD_REACTORS
330
C
102
}
330
C
100
AcDbDictionary
281
     1
  3
Normal
350
F
100
AcDbDictionaryWithDefault
340
F
  0
DICTIONARY
  5
659E
102
{ACAD_REACTORS
330
C
102
}
330
C
100
AcDbDictionary
281
     1
  3
A0
350
659F
  3
A1
350
65A0
  3
A2
350
65A1
  3
A3
350
65A2
  3
A4
350
65A3
  3
A5
350
65A4
  3
A6
350
65A5
  3
A7
350
65A6
  3
A8
350
65A7
  3
A9
350
65A8
  3
B0
350
65A9
  3
B1
350
65AA
  3
B2
350
65AB
  3
B3
350
65AC
  3
B4
350
65AD
  3
B5
350
65AE
  3
B6
350
65AF
  0
DICTIONARY
  5
659C
102
{ACAD_REACTORS
330
C
102
}
330
C
100
AcDbDictionary
281
     1
  3
Standard
350
659D
  0
DICTIONARY
  5
6582
102
{ACAD_REACTORS
330
C
102
}
330
C
100
AcDbDictionary
281
     1
  3
2dWireframe
350
6588
  3
Basic
350
6587
  3
Brighten
350
658E
  3
ColorChange
350
6592
  3
Conceptual
350
658B
  3
Dim
350
658D
  3
EdgeColorOff
350
659A
  3
Facepattern
350
6591
  3
Flat
350
6583
  3
FlatWithEdges
350
6584
  3
Gouraud
350
6585
  3
GouraudWithEdges
350
6586
  3
Hidden
350
658A
  3
JitterOff
350
6598
  3
Linepattern
350
6590
  3
OverhangOff
350
6599
  3
Realistic
350
658C
  3
Shaded
350
6597
  3
Shaded with edges
350
6596
  3
Shades of Gray
350
6593
  3
Sketchy
350
6594
  3
Thicken
350
658F
  3
Wireframe
350
6589
  3
X-Ray
350
6595
  0
XRECORD
  5
B0E1
102
{ACAD_REACTORS
330
C
102
}
330
C
100
AcDbXrecord
280
     1
 90
        1
330
659D
  0
DICTIONARY
  5
169
102
{ACAD_REACTORS
330
C
102
}
330
C
100
AcDbDictionary
281
     1
  3
CANNOSCALE
350
99EA
  3
CMLEADERSTYLE
350
99E8
  3
CTABLESTYLE
350
99E7
  3
DIMASSOC
350
16A
  3
LAYEREVAL
350
99EC
  3
LAYERNOTIFY
350
99ED
  3
LIGHTINGUNITS
350
99EB
  3
MSLTSCALE
350
99E9
  3
XCLIPFRAME
350
B0DD
  0
DICTIONARY
  5
6710
102
{ACAD_REACTORS
330
C
102
}
330
C
100
AcDbDictionary
281
     1
  0
DICTIONARY
  5
185
102
{ACAD_REACTORS
330
175
102
}
330
175
100
AcDbDictionary
280
     1
281
     1
  0
DICTIONARY
  5
176
102
{ACAD_REACTORS
330
175
102
}
330
175
100
AcDbDictionary
281
     1
  3
ACAD
350
177
  0
XRECORD
  5
79A3
102
{ACAD_REACTORS
330
79A2
102
}
330
79A2
100
AcDbXrecord
280
     1
290
     1
  0
XRECORD
  5
79A5
102
{ACAD_REACTORS
330
79A4
102
}
330
79A4
100
AcDbXrecord
280
     1
290
     1
  0
XRECORD
  5
79A7
102
{ACAD_REACTORS
330
79A6
102
}
330
79A6
100
AcDbXrecord
280
     1
290
     1
  0
XRECORD
  5
79A9
102
{ACAD_REACTORS
330
79A8
102
}
330
79A8
100
AcDbXrecord
280
     1
290
     1
  0
XRECORD
  5
5C3B
102
{ACAD_REACTORS
330
28B
102
}
330
28B
100
AcDbXrecord
280
     1
340
1E
  0
SORTENTSTABLE
  5
7CE6
102
{ACAD_REACTORS
330
28B
102
}
330
28B
100
AcDbSortentsTable
330
1E
331
7CDB
  5
80A8
331
7C05
  5
7E1B
331
7BD6
  5
7DEB
331
A25A
  5
A90D
331
7C8C
  5
8050
331
7C15
  5
7E95
331
7BDE
  5
7DF4
331
A972
  5
7B76
331
A933
  5
7C15
331
A602
  5
A913
331
7BE6
  5
7DFC
331
A8FC
  5
7D36
331
A93B
  5
7C09
331
A904
  5
7CDE
331
A943
  5
7BFD
331
A90C
  5
7C8C
331
A94B
  5
7BF5
331
A914
  5
7C3D
331
A8D5
  5
8116
331
A60A
  5
A91B
331
7C25
  5
7EBB
331
7BEE
  5
7E00
331
7B77
  5
7C07
331
A612
  5
A923
331
7C2D
  5
7F1E
331
7BF6
  5
7E0C
331
7B9F
  5
7C39
331
A61A
  5
A92B
331
7BFE
  5
7E10
331
A953
  5
7BED
331
A91C
  5
7C30
331
9A6B
  5
A8ED
331
7C3D
  5
7FB8
331
7BAF
  5
7CD8
331
A8DD
  5
80B0
331
A95B
  5
7BE5
331
A924
  5
7C26
331
A8E5
  5
7DE9
331
A963
  5
7BDD
331
A92C
  5
7C1C
331
A8ED
  5
7DE2
331
A96B
  5
7BD5
331
A8F5
  5
7D81
331
7CDC
  5
80A7
331
7C06
  5
7E1C
331
7C6D
  5
7FF1
331
7C0E
  5
7E73
331
7BD7
  5
7DEC
331
7D34
  5
80B4
331
7C16
  5
7E94
331
7BDF
  5
7DF5
331
A973
  5
7B75
331
A934
  5
7C14
331
A603
  5
A914
331
7BE7
  5
7DFD
331
A8FD
  5
7D35
331
A93C
  5
7C08
331
A905
  5
7CDD
331
A944
  5
7BFC
331
A90D
  5
7C8B
331
A94C
  5
7BF4
331
A915
  5
7C3C
331
A8D6
  5
8113
331
A60B
  5
A91C
331
7C26
  5
7EF9
331
7BEF
  5
7E04
331
A613
  5
A924
331
7C2E
  5
7F26
331
7BF7
  5
7E0D
331
7BA0
  5
7C3A
331
A61B
  5
A92C
331
7C36
  5
7F49
331
7BFF
  5
7E15
331
A954
  5
7BEC
331
A91D
  5
7C2F
331
9A6C
  5
A8EE
331
A8DE
  5
8055
331
A95C
  5
7BE4
331
A925
  5
7C25
331
A8E6
  5
7DE8
331
A964
  5
7BDC
331
A92D
  5
7C1B
331
A8EE
  5
7DE1
331
A96C
  5
7BB0
331
A8F6
  5
7D80
331
7BB0
  5
7CD9
331
7CDD
  5
80A9
331
7C07
  5
7E1A
331
7CE5
  5
80AA
331
7C0F
  5
7E90
331
7BD8
  5
7DED
331
7D35
  5
80B5
331
7C17
  5
7EA4
331
7BE0
  5
7DF6
331
A974
  5
7B6E
331
A935
  5
7C13
331
A604
  5
A915
331
7C1F
  5
7EA9
331
A93D
  5
7C04
331
A906
  5
7CDC
331
A6DF
  5
A965
331
A945
  5
7BFB
331
A90E
  5
7C8A
331
A94D
  5
7BF3
331
A916
  5
7C38
331
A8D7
  5
8111
331
7BE8
  5
7DFE
331
A60C
  5
A91D
331
7BF0
  5
7E05
331
A614
  5
A925
331
7C2F
  5
7F2B
331
7BF8
  5
7E08
331
7BA1
  5
7C3B
331
7C37
  5
7F24
331
A955
  5
7BEB
331
A91E
  5
7C2E
331
A8DF
  5
80A3
331
A95D
  5
7BE3
331
A926
  5
7C24
331
A8E7
  5
7DE7
331
A965
  5
7BDB
331
A92E
  5
7C1A
331
A8EF
  5
7DE0
331
A96D
  5
7BAF
331
A8F7
  5
7D39
331
7C00
  5
7E14
331
7CDE
  5
80AC
331
7C08
  5
7E1D
331
7BD9
  5
7DEF
331
7D36
  5
80B6
331
7C8F
  5
804F
331
7C18
  5
7EA1
331
7BE1
  5
7DF7
331
A936
  5
7C11
331
A8FF
  5
7D34
331
A605
  5
A916
331
A93E
  5
7C03
331
A907
  5
7CDB
331
A6E0
  5
A966
331
A946
  5
7BFA
331
A90F
  5
7C89
331
A94E
  5
7BF2
331
A917
  5
7C37
331
7C20
  5
7EAC
331
7BE9
  5
7DFA
331
A60D
  5
A91E
331
7BF1
  5
7E07
331
A615
  5
A926
331
7C30
  5
7F43
331
7BF9
  5
7E0E
331
A8D8
  5
8110
331
7C38
  5
7F56
331
A956
  5
7BEA
331
A91F
  5
7C2D
331
A8E0
  5
809C
331
A95E
  5
7BE2
331
A927
  5
7C23
331
A8E8
  5
7DBA
331
A966
  5
7BDA
331
A92F
  5
7C19
331
A8F0
  5
7DDF
331
A96E
  5
7BA1
331
7C40
  5
7FE1
331
7C01
  5
7E17
331
7CDF
  5
80AD
331
7C09
  5
7E1F
331
7C11
  5
7E91
331
7BDA
  5
7DEE
331
7D37
  5
80B7
331
7C19
  5
7EA6
331
7BE2
  5
7DF8
331
A8F8
  5
7D78
331
A937
  5
7C0F
331
A606
  5
A917
331
A900
  5
7CE2
331
A93F
  5
7C02
331
A908
  5
7CDA
331
A6E1
  5
A967
331
A947
  5
7BF9
331
A910
  5
7C6D
331
A94F
  5
7BF1
331
7C21
  5
7EAA
331
7BEA
  5
7DFF
331
A60E
  5
A91F
331
7C29
  5
7EFA
331
7BF2
  5
7E06
331
A616
  5
A927
331
7C31
  5
7F45
331
7BFA
  5
7E0F
331
A918
  5
7C36
331
9A67
  5
A8EB
331
7C39
  5
7F73
331
A8D9
  5
80E3
331
A957
  5
7BE9
331
A920
  5
7C2C
331
A8E1
  5
8080
331
A95F
  5
7BE1
331
A928
  5
7C22
331
A8E9
  5
7DE6
331
A967
  5
7BD9
331
A8F1
  5
7DB9
331
A96F
  5
7BA0
331
7CD8
  5
80A5
331
7C41
  5
7F77
331
7C02
  5
7E16
331
7CE0
  5
80AE
331
7C0A
  5
7E1E
331
7C89
  5
804A
331
7BDB
  5
7DF1
331
A930
  5
7C18
331
7D38
  5
80B8
331
7C91
  5
8051
331
7C1A
  5
7EA5
331
7BE3
  5
7DF0
331
A8F9
  5
7D3A
331
A938
  5
7C0E
331
A607
  5
A918
331
A901
  5
7CE1
331
A940
  5
7C01
331
A909
  5
7C92
331
A6E2
  5
A968
331
A948
  5
7BF8
331
A911
  5
7C42
331
A8D2
  5
812F
331
7C22
  5
7EB1
331
7BEB
  5
7E01
331
A60F
  5
A920
331
7C2A
  5
7EF8
331
7BF3
  5
7E09
331
A617
  5
A928
331
7C32
  5
7F47
331
7BFB
  5
7E11
331
A950
  5
7BF0
331
A919
  5
7C34
331
9A68
  5
A8EC
331
7C3A
  5
7F57
331
A8DA
  5
80E2
331
A958
  5
7BE8
331
A921
  5
7C2B
331
A8E2
  5
8056
331
A960
  5
7BE0
331
A929
  5
7C21
331
A8EA
  5
7DE5
331
A968
  5
7BD8
331
A8F2
  5
7D7F
331
7CD9
  5
80A6
331
7C42
  5
7FF0
331
7C03
  5
7E18
331
7CE1
  5
80AB
331
7C8A
  5
7FE2
331
7C13
  5
7E92
331
7BDC
  5
7DF2
331
A970
  5
7B9F
331
A931
  5
7C17
331
A600
  5
A911
331
7D39
  5
80E0
331
7C92
  5
8053
331
7C1B
  5
7EA8
331
7BE4
  5
7DF9
331
A8FA
  5
7D38
331
A939
  5
7C0C
331
A902
  5
7CE0
331
A941
  5
7C00
331
A90A
  5
7C91
331
A949
  5
7BF7
331
A912
  5
7C41
331
A8D3
  5
812E
331
A608
  5
A919
331
7C23
  5
7EAD
331
7BEC
  5
7E02
331
7B75
  5
7C05
331
A610
  5
A921
331
7C2B
  5
7EFE
331
7BF4
  5
7E0A
331
A618
  5
A929
331
7BFC
  5
7E12
331
A951
  5
7BEF
331
A91A
  5
7C32
331
7C3B
  5
7F74
331
A8DB
  5
80B3
331
A959
  5
7BE7
331
A922
  5
7C2A
331
A8E3
  5
8054
331
A961
  5
7BDF
331
A92A
  5
7C20
331
A8EB
  5
7DE4
331
A969
  5
7BD7
331
A8F3
  5
7DAB
331
7CDA
  5
80A4
331
7C04
  5
7E19
331
7CE2
  5
80AF
331
7C0C
  5
7E8F
331
7BD5
  5
7DEA
331
7C8B
  5
804E
331
7C14
  5
7E93
331
7BDD
  5
7DF3
331
A971
  5
7B77
331
A932
  5
7C16
331
A601
  5
A912
331
7D3A
  5
80E1
331
7C1C
  5
7EA7
331
7BE5
  5
7DFB
331
A8FB
  5
7D37
331
A93A
  5
7C0A
331
A903
  5
7CDF
331
A942
  5
7BFF
331
A90B
  5
7C8F
331
A94A
  5
7BF6
331
A913
  5
7C40
331
A8D4
  5
8117
331
A609
  5
A91A
331
7C24
  5
7EB2
331
7BED
  5
7E03
331
7B76
  5
7C06
331
A611
  5
A922
331
7C2C
  5
7EFB
331
7BF5
  5
7E0B
331
A619
  5
A92A
331
7C34
  5
7F48
331
7BFD
  5
7E13
331
A952
  5
7BEE
331
A91B
  5
7C31
331
7C3C
  5
7F75
331
A8DC
  5
80B2
331
A95A
  5
7BE6
331
A923
  5
7C29
331
A8E4
  5
8052
331
A962
  5
7BDE
331
A92B
  5
7C1F
331
A8EC
  5
7DE3
331
A96A
  5
7BD6
331
A8F4
  5
7DA9
  0
XRECORD
  5
5C3A
102
{ACAD_REACTORS
330
28D
102
}
330
28D
100
AcDbXrecord
280
     1
340
1A
  0
LAYOUT
  5
21
102
{ACAD_XDICTIONARY
360
79B1
102
}
102
{ACAD_REACTORS
330
19
102
}
330
19
100
AcDbPlotSettings
  1

  2
none_device
  4
Letter_(8.50_x_11.00_Inches)
  6

 40
6.349999904632568
 41
6.349999904632568
 42
6.350006103515625
 43
6.350006103515625
 44
215.8999938964844
 45
279.3999938964844
 46
0.0
 47
0.0
 48
0.0
 49
0.0
140
0.0
141
0.0
142
1.0
143
232.2932172438697
 70
 11952
 72
     0
 73
     1
 74
     0
  7
monochrome.ctb
 75
     0
147
0.0043049039996298
 76
     0
 77
     2
 78
   300
148
-91459.72138461631
149
12723.42292869828
100
AcDbLayout
  1
Model
 70
     1
 71
     0
 10
0.0
 20
0.0
 11
12.0
 21
9.0
 12
0.0
 22
0.0
 32
0.0
 14
0.0
 24
0.0
 34
0.0
 15
0.0
 25
0.0
 35
0.0
146
0.0
 13
0.0
 23
0.0
 33
0.0
 16
1.0
 26
0.0
 36
0.0
 17
0.0
 27
1.0
 37
0.0
 76
     0
330
1E
331
6567
1001
ACAD_PSEXT
1000
なし
1000
なし
1000
適切ではありません
1000
新しいプロッタ環境設定名を選択しない限り、レイアウトは印刷されません。
1070
     0
  0
LAYOUT
  5
1D
102
{ACAD_REACTORS
330
19
102
}
330
19
100
AcDbPlotSettings
  1

  2
\\MEISEI-1\EPSON Stylus Photo EX3
  4

  6

 40
0.0
 41
0.0
 42
0.0
 43
0.0
 44
0.0
 45
0.0
 46
0.0
 47
0.0
 48
0.0
 49
0.0
140
0.0
141
0.0
142
1.0
143
1.0
 70
   688
 72
     0
 73
     0
 74
     5
  7
monochrome.ctb
 75
    16
147
1.0
 76
     0
 77
     2
 78
   300
148
0.0
149
0.0
100
AcDbLayout
  1
ﾚｲｱｳﾄ1
 70
     1
 71
     1
 10
0.0
 20
0.0
 11
12.0
 21
9.0
 12
0.0
 22
0.0
 32
0.0
 14
1.000000000000000E+20
 24
1.000000000000000E+20
 34
1.000000000000000E+20
 15
-1.000000000000000E+20
 25
-1.000000000000000E+20
 35
-1.000000000000000E+20
146
0.0
 13
0.0
 23
0.0
 33
0.0
 16
1.0
 26
0.0
 36
0.0
 17
0.0
 27
1.0
 37
0.0
 76
     0
330
1A
  0
MATERIAL
  5
6572
102
{ACAD_XDICTIONARY
360
6573
102
}
102
{ACAD_REACTORS
330
6569
102
}
330
6569
100
AcDbMaterial
  1
ByBlock
 72
     0
 43
0.0208333333333333
 43
0.0
 43
0.0
 43
0.0
 43
0.0
 43
0.0208333333333333
 43
0.0
 43
0.0
 43
0.0
 43
0.0
 43
1.0
 43
0.0
 43
0.0
 43
0.0
 43
0.0
 43
1.0
 77
     0
 47
0.0208333333333333
 47
0.0
 47
0.0
 47
0.0
 47
0.0
 47
0.0208333333333333
 47
0.0
 47
0.0
 47
0.0
 47
0.0
 47
1.0
 47
0.0
 47
0.0
 47
0.0
 47
0.0
 47
1.0
171
     0
 49
0.0208333333333333
 49
0.0
 49
0.0
 49
0.0
 49
0.0
 49
0.0208333333333333
 49
0.0
 49
0.0
 49
0.0
 49
0.0
 49
1.0
 49
0.0
 49
0.0
 49
0.0
 49
0.0
 49
1.0
175
     0
142
0.0208333333333333
142
0.0
142
0.0
142
0.0
142
0.0
142
0.0208333333333333
142
0.0
142
0.0
142
0.0
142
0.0
142
1.0
142
0.0
142
0.0
142
0.0
142
0.0
142
1.0
179
     0
144
0.0208333333333333
144
0.0
144
0.0
144
0.0
144
0.0
144
0.0208333333333333
144
0.0
144
0.0
144
0.0
144
0.0
144
1.0
144
0.0
144
0.0
144
0.0
144
0.0
144
1.0
147
0.0208333333333333
147
0.0
147
0.0
147
0.0
147
0.0
147
0.0208333333333333
147
0.0
147
0.0
147
0.0
147
0.0
147
1.0
147
0.0
147
0.0
147
0.0
147
0.0
147
1.0
  0
MATERIAL
  5
656A
102
{ACAD_XDICTIONARY
360
656B
102
}
102
{ACAD_REACTORS
330
6569
102
}
330
6569
100
AcDbMaterial
  1
ByLayer
 72
     0
 43
0.0208333333333333
 43
0.0
 43
0.0
 43
0.0
 43
0.0
 43
0.0208333333333333
 43
0.0
 43
0.0
 43
0.0
 43
0.0
 43
1.0
 43
0.0
 43
0.0
 43
0.0
 43
0.0
 43
1.0
 77
     0
 47
0.0208333333333333
 47
0.0
 47
0.0
 47
0.0
 47
0.0
 47
0.0208333333333333
 47
0.0
 47
0.0
 47
0.0
 47
0.0
 47
1.0
 47
0.0
 47
0.0
 47
0.0
 47
0.0
 47
1.0
171
     0
 49
0.0208333333333333
 49
0.0
 49
0.0
 49
0.0
 49
0.0
 49
0.0208333333333333
 49
0.0
 49
0.0
 49
0.0
 49
0.0
 49
1.0
 49
0.0
 49
0.0
 49
0.0
 49
0.0
 49
1.0
175
     0
142
0.0208333333333333
142
0.0
142
0.0
142
0.0
142
0.0
142
0.0208333333333333
142
0.0
142
0.0
142
0.0
142
0.0
142
1.0
142
0.0
142
0.0
142
0.0
142
0.0
142
1.0
179
     0
144
0.0208333333333333
144
0.0
144
0.0
144
0.0
144
0.0
144
0.0208333333333333
144
0.0
144
0.0
144
0.0
144
0.0
144
1.0
144
0.0
144
0.0
144
0.0
144
0.0
144
1.0
147
0.0208333333333333
147
0.0
147
0.0
147
0.0
147
0.0
147
0.0208333333333333
147
0.0
147
0.0
147
0.0
147
0.0
147
1.0
147
0.0
147
0.0
147
0.0
147
0.0
147
1.0
  0
MATERIAL
  5
657A
102
{ACAD_XDICTIONARY
360
657B
102
}
102
{ACAD_REACTORS
330
6569
102
}
330
6569
100
AcDbMaterial
  1
Global
 72
     0
 43
0.0208333333333333
 43
0.0
 43
0.0
 43
0.0
 43
0.0
 43
0.0208333333333333
 43
0.0
 43
0.0
 43
0.0
 43
0.0
 43
1.0
 43
0.0
 43
0.0
 43
0.0
 43
0.0
 43
1.0
 77
     0
 47
0.0208333333333333
 47
0.0
 47
0.0
 47
0.0
 47
0.0
 47
0.0208333333333333
 47
0.0
 47
0.0
 47
0.0
 47
0.0
 47
1.0
 47
0.0
 47
0.0
 47
0.0
 47
0.0
 47
1.0
171
     0
 49
0.0208333333333333
 49
0.0
 49
0.0
 49
0.0
 49
0.0
 49
0.0208333333333333
 49
0.0
 49
0.0
 49
0.0
 49
0.0
 49
1.0
 49
0.0
 49
0.0
 49
0.0
 49
0.0
 49
1.0
175
     0
142
0.0208333333333333
142
0.0
142
0.0
142
0.0
142
0.0
142
0.0208333333333333
142
0.0
142
0.0
142
0.0
142
0.0
142
1.0
142
0.0
142
0.0
142
0.0
142
0.0
142
1.0
179
     0
144
0.0208333333333333
144
0.0
144
0.0
144
0.0
144
0.0
144
0.0208333333333333
144
0.0
144
0.0
144
0.0
144
0.0
144
1.0
144
0.0
144
0.0
144
0.0
144
0.0
144
1.0
147
0.0208333333333333
147
0.0
147
0.0
147
0.0
147
0.0
147
0.0208333333333333
147
0.0
147
0.0
147
0.0
147
0.0
147
1.0
147
0.0
147
0.0
147
0.0
147
0.0
147
1.0
  0
MLEADERSTYLE
  5
65B1
102
{ACAD_XDICTIONARY
360
B0DF
102
}
102
{ACAD_REACTORS
330
65B0
102
}
330
65B0
100
AcDbMLeaderStyle
170
     2
171
     1
172
     0
 90
        2
 40
0.0
 41
0.0
173
     1
 91
-1056964608
340
13
 92
       -2
290
     1
 42
0.09
291
     1
 43
0.36
  3
Standard
 44
0.18
300

342
11
174
     1
178
     6
175
     1
176
     0
 93
-1056964608
 45
0.18
292
     0
297
     0
 46
0.18
 94
-1056964608
 47
1.0
 49
1.0
140
1.0
293
     1
141
0.0
294
     1
177
     0
142
1.0
295
     0
296
     0
143
0.125
1001
ACAD_MLEADERVER
1070
     2
  0
MLINESTYLE
  5
17
102
{ACAD_REACTORS
330
16
102
}
330
16
100
AcDbMlineStyle
  2
STANDARD
 70
     0
  3

 62
   256
 51
90.0
 52
90.0
 71
     2
 49
0.5
 62
   256
  6
BYLAYER
 49
-0.5
 62
   256
  6
BYLAYER
  0
ACDBPLACEHOLDER
  5
F
102
{ACAD_REACTORS
330
E
102
}
330
E
  0
SCALE
  5
659F
102
{ACAD_REACTORS
330
659E
102
}
330
659E
100
AcDbScale
 70
     0
300
1:1
140
1.0
141
1.0
290
     1
  0
SCALE
  5
65A0
102
{ACAD_REACTORS
330
659E
102
}
330
659E
100
AcDbScale
 70
     0
300
1/128" = 1'-0"
140
0.0078125
141
12.0
290
     0
  0
SCALE
  5
65A1
102
{ACAD_REACTORS
330
659E
102
}
330
659E
100
AcDbScale
 70
     0
300
1/64" = 1'-0"
140
0.015625
141
12.0
290
     0
  0
SCALE
  5
65A2
102
{ACAD_REACTORS
330
659E
102
}
330
659E
100
AcDbScale
 70
     0
300
1/32" = 1'-0"
140
0.03125
141
12.0
290
     0
  0
SCALE
  5
65A3
102
{ACAD_REACTORS
330
659E
102
}
330
659E
100
AcDbScale
 70
     0
300
1/16" = 1'-0"
140
0.0625
141
12.0
290
     0
  0
SCALE
  5
65A4
102
{ACAD_REACTORS
330
659E
102
}
330
659E
100
AcDbScale
 70
     0
300
3/32" = 1'-0"
140
0.09375
141
12.0
290
     0
  0
SCALE
  5
65A5
102
{ACAD_REACTORS
330
659E
102
}
330
659E
100
AcDbScale
 70
     0
300
1/8" = 1'-0"
140
0.125
141
12.0
290
     0
  0
SCALE
  5
65A6
102
{ACAD_REACTORS
330
659E
102
}
330
659E
100
AcDbScale
 70
     0
300
3/16" = 1'-0"
140
0.1875
141
12.0
290
     0
  0
SCALE
  5
65A7
102
{ACAD_REACTORS
330
659E
102
}
330
659E
100
AcDbScale
 70
     0
300
1/4" = 1'-0"
140
0.25
141
12.0
290
     0
  0
SCALE
  5
65A8
102
{ACAD_REACTORS
330
659E
102
}
330
659E
100
AcDbScale
 70
     0
300
3/8" = 1'-0"
140
0.375
141
12.0
290
     0
  0
SCALE
  5
65A9
102
{ACAD_REACTORS
330
659E
102
}
330
659E
100
AcDbScale
 70
     0
300
1/2" = 1'-0"
140
0.5
141
12.0
290
     0
  0
SCALE
  5
65AA
102
{ACAD_REACTORS
330
659E
102
}
330
659E
100
AcDbScale
 70
     0
300
3/4" = 1'-0"
140
0.75
141
12.0
290
     0
  0
SCALE
  5
65AB
102
{ACAD_REACTORS
330
659E
102
}
330
659E
100
AcDbScale
 70
     0
300
1" = 1'-0"
140
1.0
141
12.0
290
     0
  0
SCALE
  5
65AC
102
{ACAD_REACTORS
330
659E
102
}
330
659E
100
AcDbScale
 70
     0
300
1-1/2" = 1'-0"
140
1.5
141
12.0
290
     0
  0
SCALE
  5
65AD
102
{ACAD_REACTORS
330
659E
102
}
330
659E
100
AcDbScale
 70
     0
300
3" = 1'-0"
140
3.0
141
12.0
290
     0
  0
SCALE
  5
65AE
102
{ACAD_REACTORS
330
659E
102
}
330
659E
100
AcDbScale
 70
     0
300
6" = 1'-0"
140
6.0
141
12.0
290
     0
  0
SCALE
  5
65AF
102
{ACAD_REACTORS
330
659E
102
}
330
659E
100
AcDbScale
 70
     0
300
1'-0" = 1'-0"
140
12.0
141
12.0
290
     0
  0
TABLESTYLE
  5
659D
102
{ACAD_XDICTIONARY
360
AAEF
102
}
102
{ACAD_REACTORS
330
659C
102
}
330
659C
100
AcDbTableStyle
  3
Standard
 70
     0
 71
     0
 40
0.06
 41
0.06
280
     0
281
     0
  7
STANDARD
140
0.18
170
     2
 62
     0
 63
     7
283
     0
274
    -2
284
     1
 64
     0
275
    -2
285
     1
 65
     0
276
    -2
286
     1
 66
     0
277
    -2
287
     1
 67
     0
278
    -2
288
     1
 68
     0
279
    -2
289
     1
 69
     0
  7
STANDARD
140
0.25
170
     5
 62
     0
 63
     7
283
     0
274
    -2
284
     1
 64
     0
275
    -2
285
     1
 65
     0
276
    -2
286
     1
 66
     0
277
    -2
287
     1
 67
     0
278
    -2
288
     1
 68
     0
279
    -2
289
     1
 69
     0
  7
STANDARD
140
0.18
170
     5
 62
     0
 63
     7
283
     0
274
    -2
284
     1
 64
     0
275
    -2
285
     1
 65
     0
276
    -2
286
     1
 66
     0
277
    -2
287
     1
 67
     0
278
    -2
288
     1
 68
     0
279
    -2
289
     1
 69
     0
  0
VISUALSTYLE
  5
6588
102
{ACAD_XDICTIONARY
360
B0EF
102
}
102
{ACAD_REACTORS
330
6582
102
}
330
6582
100
AcDbVisualStyle
  2
2dWireframe
 70
     4
 71
     0
 72
     2
 73
     0
 90
        0
 40
-0.6
 41
-30.0
 62
     5
 63
     7
421
 16777215
 74
     1
 91
        4
 64
     7
 65
   257
 75
     1
175
     1
 42
1.0
 92
        0
 66
   257
 43
1.0
 76
     1
 77
     6
 78
     2
 67
     7
 79
     5
170
     0
171
     0
290
     0
174
     0
 93
        1
 44
0.0
173
     0
291
     0
 45
0.0
1001
ACAD
1000
AcDbSavedByObjectVersion
1070
     0
  0
VISUALSTYLE
  5
6587
102
{ACAD_XDICTIONARY
360
B0ED
102
}
102
{ACAD_REACTORS
330
6582
102
}
330
6582
100
AcDbVisualStyle
  2
Basic
 70
     7
 71
     1
 72
     0
 73
     1
 90
        0
 40
-0.6
 41
-30.0
 62
     5
 63
     7
421
 16777215
 74
     0
 91
        4
 64
     7
 65
   257
 75
     1
175
     1
 42
1.0
 92
        8
 66
     7
 43
1.0
 76
     1
 77
     6
 78
     2
 67
     7
 79
     5
170
     0
171
     0
290
     0
174
     0
 93
        1
 44
0.0
173
     0
291
     1
 45
0.0
1001
ACAD
1000
AcDbSavedByObjectVersion
1070
     0
  0
VISUALSTYLE
  5
658E
102
{ACAD_XDICTIONARY
360
B0FB
102
}
102
{ACAD_REACTORS
330
6582
102
}
330
6582
100
AcDbVisualStyle
  2
Brighten
 70
    12
 71
     2
 72
     2
 73
     0
 90
        0
 40
-0.6
 41
-30.0
 62
     5
 63
     7
421
 16777215
 74
     1
 91
        4
 64
     7
 65
   257
 75
     1
175
     1
 42
1.0
 92
        8
 66
     7
 43
1.0
 76
     1
 77
     6
 78
     2
 67
     7
 79
     5
170
     0
171
     0
290
     0
174
     0
 93
        1
 44
50.0
173
     0
291
     1
 45
0.0
1001
ACAD
1000
AcDbSavedByObjectVersion
1070
     0
  0
VISUALSTYLE
  5
6592
102
{ACAD_XDICTIONARY
360
B103
102
}
102
{ACAD_REACTORS
330
6582
102
}
330
6582
100
AcDbVisualStyle
  2
ColorChange
 70
    16
 71
     2
 72
     2
 73
     3
 90
        0
 40
-0.6
 41
-30.0
 62
     5
 63
     8
421
  8421504
 74
     1
 91
        4
 64
     7
 65
   257
 75
     1
175
     1
 42
1.0
 92
        8
 66
     8
424
  8421504
 43
1.0
 76
     1
 77
     6
 78
     2
 67
     7
 79
     5
170
     0
171
     0
290
     0
174
     0
 93
        1
 44
0.0
173
     0
291
     1
 45
0.0
1001
ACAD
1000
AcDbSavedByObjectVersion
1070
     0
  0
VISUALSTYLE
  5
658B
102
{ACAD_XDICTIONARY
360
B0F5
102
}
102
{ACAD_REACTORS
330
6582
102
}
330
6582
100
AcDbVisualStyle
  2
Conceptual
 70
     9
 71
     3
 72
     2
 73
     0
 90
        0
 40
-0.6
 41
-30.0
 62
     5
 63
     7
421
 16777215
 74
     2
 91
        2
 64
     7
 65
   257
 75
     1
175
     1
 42
179.0
 92
        8
 66
     7
 43
1.0
 76
     1
 77
     6
 78
     2
 67
     7
 79
     3
170
     0
171
     0
290
     0
174
     0
 93
        1
 44
0.0
173
     0
291
     0
 45
0.0
1001
ACAD
1000
AcDbSavedByObjectVersion
1070
     0
  0
VISUALSTYLE
  5
658D
102
{ACAD_XDICTIONARY
360
B0F9
102
}
102
{ACAD_REACTORS
330
6582
102
}
330
6582
100
AcDbVisualStyle
  2
Dim
 70
    11
 71
     2
 72
     2
 73
     0
 90
        0
 40
-0.6
 41
-30.0
 62
     5
 63
     7
421
 16777215
 74
     1
 91
        4
 64
     7
 65
   257
 75
     1
175
     1
 42
1.0
 92
        8
 66
     7
 43
1.0
 76
     1
 77
     6
 78
     2
 67
     7
 79
     5
170
     0
171
     0
290
     0
174
     0
 93
        1
 44
-50.0
173
     0
291
     1
 45
0.0
1001
ACAD
1000
AcDbSavedByObjectVersion
1070
     0
  0
VISUALSTYLE
  5
659A
102
{ACAD_XDICTIONARY
360
B113
102
}
102
{ACAD_REACTORS
330
6582
102
}
330
6582
100
AcDbVisualStyle
  2
EdgeColorOff
 70
    22
 71
     2
 72
     2
 73
     0
 90
        0
 40
-0.6
 41
-30.0
 62
     5
 63
     7
421
 16777215
 74
     1
 91
        4
 64
     7
 65
   257
 75
     1
175
     1
 42
1.0
 92
        8
 66
     7
 43
1.0
 76
     1
 77
     6
 78
     2
 67
     7
 79
     5
170
     0
171
     0
290
     0
174
     0
 93
        1
 44
0.0
173
     0
291
     1
 45
0.0
1001
ACAD
1000
AcDbSavedByObjectVersion
1070
     0
  0
VISUALSTYLE
  5
6591
102
{ACAD_XDICTIONARY
360
B101
102
}
102
{ACAD_REACTORS
330
6582
102
}
330
6582
100
AcDbVisualStyle
  2
Facepattern
 70
    15
 71
     2
 72
     2
 73
     0
 90
        0
 40
-0.6
 41
-30.0
 62
     5
 63
     7
421
 16777215
 74
     1
 91
        4
 64
     7
 65
   257
 75
     1
175
     1
 42
1.0
 92
        8
 66
     7
 43
1.0
 76
     1
 77
     6
 78
     2
 67
     7
 79
     5
170
     0
171
     0
290
     0
174
     0
 93
        1
 44
0.0
173
     0
291
     1
 45
0.0
1001
ACAD
1000
AcDbSavedByObjectVersion
1070
     0
  0
VISUALSTYLE
  5
6583
102
{ACAD_XDICTIONARY
360
B0E5
102
}
102
{ACAD_REACTORS
330
6582
102
}
330
6582
100
AcDbVisualStyle
  2
Flat
 70
     0
 71
     2
 72
     1
 73
     1
 90
        2
 40
-0.6
 41
30.0
 62
     5
 63
     7
421
 16777215
 74
     0
 91
        0
 64
     7
 65
   257
 75
     1
175
     1
 42
1.0
 92
        8
 66
     7
 43
1.0
 76
     1
 77
     6
 78
     2
 67
     7
 79
     5
170
     0
171
     0
290
     0
174
     0
 93
       13
 44
0.0
173
     0
291
     1
 45
0.0
1001
ACAD
1000
AcDbSavedByObjectVersion
1070
     0
  0
VISUALSTYLE
  5
6584
102
{ACAD_XDICTIONARY
360
B0E7
102
}
102
{ACAD_REACTORS
330
6582
102
}
330
6582
100
AcDbVisualStyle
  2
FlatWithEdges
 70
     1
 71
     2
 72
     1
 73
     1
 90
        2
 40
-0.6
 41
30.0
 62
     5
 63
     7
421
 16777215
 74
     1
 91
        0
 64
     7
 65
   257
 75
     1
175
     1
 42
1.0
 92
        0
 66
   257
 43
1.0
 76
     1
 77
     6
 78
     2
 67
     7
 79
     5
170
     0
171
     0
290
     0
174
     0
 93
       13
 44
0.0
173
     0
291
     1
 45
0.0
1001
ACAD
1000
AcDbSavedByObjectVersion
1070
     0
  0
VISUALSTYLE
  5
6585
102
{ACAD_XDICTIONARY
360
B0E9
102
}
102
{ACAD_REACTORS
330
6582
102
}
330
6582
100
AcDbVisualStyle
  2
Gouraud
 70
     2
 71
     2
 72
     2
 73
     1
 90
        2
 40
-0.6
 41
30.0
 62
     5
 63
     7
421
 16777215
 74
     0
 91
        0
 64
     7
 65
   257
 75
     1
175
     1
 42
1.0
 92
        0
 66
     7
 43
1.0
 76
     1
 77
     6
 78
     2
 67
     7
 79
     5
170
     0
171
     0
290
     0
174
     0
 93
       13
 44
0.0
173
     0
291
     1
 45
0.0
1001
ACAD
1000
AcDbSavedByObjectVersion
1070
     0
  0
VISUALSTYLE
  5
6586
102
{ACAD_XDICTIONARY
360
B0EB
102
}
102
{ACAD_REACTORS
330
6582
102
}
330
6582
100
AcDbVisualStyle
  2
GouraudWithEdges
 70
     3
 71
     2
 72
     2
 73
     1
 90
        2
 40
-0.6
 41
30.0
 62
     5
 63
     7
421
 16777215
 74
     1
 91
        0
 64
     7
 65
   257
 75
     1
175
     1
 42
1.0
 92
        0
 66
   257
 43
1.0
 76
     1
 77
     6
 78
     2
 67
     7
 79
     5
170
     0
171
     0
290
     0
174
     0
 93
       13
 44
0.0
173
     0
291
     1
 45
0.0
1001
ACAD
1000
AcDbSavedByObjectVersion
1070
     0
  0
VISUALSTYLE
  5
658A
102
{ACAD_XDICTIONARY
360
B0F3
102
}
102
{ACAD_REACTORS
330
6582
102
}
330
6582
100
AcDbVisualStyle
  2
Hidden
 70
     6
 71
     1
 72
     2
 73
     2
 90
        0
 40
-0.6
 41
-30.0
 62
     5
 63
     7
421
 16777215
 74
     2
 91
        2
 64
     7
 65
   257
 75
     2
175
     1
 42
40.0
 92
        0
 66
   257
 43
1.0
 76
     1
 77
     6
 78
     2
 67
     7
 79
     3
170
     0
171
     0
290
     0
174
     0
 93
        1
 44
0.0
173
     0
291
     0
 45
0.0
1001
ACAD
1000
AcDbSavedByObjectVersion
1070
     0
  0
VISUALSTYLE
  5
6598
102
{ACAD_XDICTIONARY
360
B10F
102
}
102
{ACAD_REACTORS
330
6582
102
}
330
6582
100
AcDbVisualStyle
  2
JitterOff
 70
    20
 71
     2
 72
     2
 73
     0
 90
        0
 40
-0.6
 41
-30.0
 62
     5
 63
     7
421
 16777215
 74
     1
 91
        4
 64
     7
 65
   257
 75
     1
175
     1
 42
1.0
 92
       10
 66
     7
 43
1.0
 76
     1
 77
     6
 78
     2
 67
     7
 79
     5
170
     0
171
     0
290
     0
174
     0
 93
        1
 44
0.0
173
     0
291
     1
 45
0.0
1001
ACAD
1000
AcDbSavedByObjectVersion
1070
     0
  0
VISUALSTYLE
  5
6590
102
{ACAD_XDICTIONARY
360
B0FF
102
}
102
{ACAD_REACTORS
330
6582
102
}
330
6582
100
AcDbVisualStyle
  2
Linepattern
 70
    14
 71
     2
 72
     2
 73
     0
 90
        0
 40
-0.6
 41
-30.0
 62
     5
 63
     7
421
 16777215
 74
     1
 91
        4
 64
     7
 65
   257
 75
     7
175
     7
 42
1.0
 92
        8
 66
     7
 43
1.0
 76
     1
 77
     6
 78
     2
 67
     7
 79
     5
170
     0
171
     0
290
     0
174
     0
 93
        1
 44
0.0
173
     0
291
     1
 45
0.0
1001
ACAD
1000
AcDbSavedByObjectVersion
1070
     0
  0
VISUALSTYLE
  5
6599
102
{ACAD_XDICTIONARY
360
B111
102
}
102
{ACAD_REACTORS
330
6582
102
}
330
6582
100
AcDbVisualStyle
  2
OverhangOff
 70
    21
 71
     2
 72
     2
 73
     0
 90
        0
 40
-0.6
 41
-30.0
 62
     5
 63
     7
421
 16777215
 74
     1
 91
        4
 64
     7
 65
   257
 75
     1
175
     1
 42
1.0
 92
        9
 66
     7
 43
1.0
 76
     1
 77
     6
 78
     2
 67
     7
 79
     5
170
     0
171
     0
290
     0
174
     0
 93
        1
 44
0.0
173
     0
291
     1
 45
0.0
1001
ACAD
1000
AcDbSavedByObjectVersion
1070
     0
  0
VISUALSTYLE
  5
658C
102
{ACAD_XDICTIONARY
360
B0F7
102
}
102
{ACAD_REACTORS
330
6582
102
}
330
6582
100
AcDbVisualStyle
  2
Realistic
 70
     8
 71
     2
 72
     2
 73
     0
 90
        2
 40
-0.6
 41
30.0
 62
     5
 63
     7
421
 16777215
 74
     0
 91
        0
 64
     7
 65
   257
 75
     1
175
     1
 42
1.0
 92
        8
 66
   257
 43
1.0
 76
     1
 77
     6
 78
     2
 67
     7
 79
     3
170
     0
171
     0
290
     0
174
     0
 93
       13
 44
0.0
173
     0
291
     0
 45
0.0
1001
ACAD
1000
AcDbSavedByObjectVersion
1070
     0
  0
VISUALSTYLE
  5
6597
102
{ACAD_XDICTIONARY
360
B10D
102
}
102
{ACAD_REACTORS
330
6582
102
}
330
6582
100
AcDbVisualStyle
  2
Shaded
 70
    27
 71
     2
 72
     2
 73
     1
 90
        2
 40
-0.6
 41
30.0
 62
     5
 63
     7
421
 16777215
 74
     0
 91
        4
 64
     7
 65
   257
 75
     1
175
     1
 42
1.0
 92
        8
 66
   257
 43
1.0
 76
     1
 77
     6
 78
     2
 67
     8
425
  7895160
 79
     3
170
     0
171
     0
290
     0
174
     0
 93
        5
 44
0.0
173
     0
291
     0
 45
0.0
1001
ACAD
1000
AcDbSavedByObjectVersion
1070
     0
  0
VISUALSTYLE
  5
6596
102
{ACAD_XDICTIONARY
360
B10B
102
}
102
{ACAD_REACTORS
330
6582
102
}
330
6582
100
AcDbVisualStyle
  2
Shaded with edges
 70
    26
 71
     2
 72
     2
 73
     1
 90
        2
 40
-0.6
 41
30.0
 62
     5
 63
     7
421
 16777215
 74
     1
 91
       10
 64
     7
 65
   257
 75
     2
175
     1
 42
1.0
 92
        8
 66
   257
 43
1.0
 76
     1
 77
     6
 78
     2
 67
     7
 79
     3
170
     0
171
     0
290
     0
174
     0
 93
        5
 44
0.0
173
     0
291
     0
 45
0.0
1001
ACAD
1000
AcDbSavedByObjectVersion
1070
     0
  0
VISUALSTYLE
  5
6593
102
{ACAD_XDICTIONARY
360
B105
102
}
102
{ACAD_REACTORS
330
6582
102
}
330
6582
100
AcDbVisualStyle
  2
Shades of Gray
 70
    23
 71
     2
 72
     2
 73
     3
 90
        0
 40
-0.6
 41
-30.0
 62
     5
 63
     7
421
 16777215
 74
     2
 91
        2
 64
     7
 65
     7
 75
     1
175
     1
 42
40.0
 92
        8
 66
     7
 43
1.0
 76
     1
 77
     6
 78
     2
 67
     7
 79
     3
170
     0
171
     0
290
     0
174
     0
 93
        1
 44
0.0
173
     0
291
     0
 45
0.0
1001
ACAD
1000
AcDbSavedByObjectVersion
1070
     0
  0
VISUALSTYLE
  5
6594
102
{ACAD_XDICTIONARY
360
B107
102
}
102
{ACAD_REACTORS
330
6582
102
}
330
6582
100
AcDbVisualStyle
  2
Sketchy
 70
    24
 71
     1
 72
     2
 73
     2
 90
        0
 40
-0.6
 41
-30.0
 62
     5
 63
     7
421
 16777215
 74
     2
 91
        2
 64
     7
 65
     7
 75
     1
175
     1
 42
40.0
 92
       11
 66
     7
 43
1.0
 76
     1
 77
     6
 78
     2
 67
     7
 79
     6
170
     0
171
     0
290
     0
174
     0
 93
        1
 44
0.0
173
     0
291
     0
 45
0.0
1001
ACAD
1000
AcDbSavedByObjectVersion
1070
     0
  0
VISUALSTYLE
  5
658F
102
{ACAD_XDICTIONARY
360
B0FD
102
}
102
{ACAD_REACTORS
330
6582
102
}
330
6582
100
AcDbVisualStyle
  2
Thicken
 70
    13
 71
     2
 72
     2
 73
     0
 90
        0
 40
-0.6
 41
-30.0
 62
     5
 63
     7
421
 16777215
 74
     1
 91
        4
 64
     7
 65
   257
 75
     1
175
     1
 42
1.0
 92
       12
 66
     7
 43
1.0
 76
     1
 77
     6
 78
     2
 67
     7
 79
     5
170
     0
171
     0
290
     0
174
     0
 93
        1
 44
0.0
173
     0
291
     1
 45
0.0
1001
ACAD
1000
AcDbSavedByObjectVersion
1070
     0
  0
VISUALSTYLE
  5
6589
102
{ACAD_XDICTIONARY
360
B0F1
102
}
102
{ACAD_REACTORS
330
6582
102
}
330
6582
100
AcDbVisualStyle
  2
Wireframe
 70
     5
 71
     0
 72
     2
 73
     0
 90
        0
 40
-0.6
 41
-30.0
 62
     5
 63
     7
421
 16777215
 74
     1
 91
        4
 64
     7
 65
   257
 75
     1
175
     1
 42
1.0
 92
        0
 66
   257
 43
1.0
 76
     1
 77
     6
 78
     2
 67
     7
 79
     3
170
     0
171
     0
290
     0
174
     0
 93
        1
 44
0.0
173
     0
291
     0
 45
0.0
1001
ACAD
1000
AcDbSavedByObjectVersion
1070
     0
  0
VISUALSTYLE
  5
6595
102
{ACAD_XDICTIONARY
360
B109
102
}
102
{ACAD_REACTORS
330
6582
102
}
330
6582
100
AcDbVisualStyle
  2
X-Ray
 70
    25
 71
     2
 72
     2
 73
     1
 90
        1
 40
0.5
 41
-30.0
 62
     5
 63
     7
421
 16777215
 74
     1
 91
        0
 64
     7
 65
   257
 75
     1
175
     1
 42
1.0
 92
        8
 66
     7
 43
1.0
 76
     1
 77
     6
 78
     2
 67
     7
 79
     3
170
     0
171
     0
290
     0
174
     0
 93
       13
 44
0.0
173
     0
291
     0
 45
0.0
1001
ACAD
1000
AcDbSavedByObjectVersion
1070
     0
  0
DICTIONARYVAR
  5
99EA
102
{ACAD_REACTORS
330
169
102
}
330
169
100
DictionaryVariables
280
     0
  1
1:1
  0
DICTIONARYVAR
  5
99E8
102
{ACAD_REACTORS
330
169
102
}
330
169
100
DictionaryVariables
280
     0
  1
STANDARD
  0
DICTIONARYVAR
  5
99E7
102
{ACAD_REACTORS
330
169
102
}
330
169
100
DictionaryVariables
280
     0
  1
STANDARD
  0
DICTIONARYVAR
  5
16A
102
{ACAD_REACTORS
330
169
102
}
330
169
100
DictionaryVariables
280
     0
  1
1
  0
DICTIONARYVAR
  5
99EC
102
{ACAD_REACTORS
330
169
102
}
330
169
100
DictionaryVariables
280
     0
  1
1
  0
DICTIONARYVAR
  5
99ED
102
{ACAD_REACTORS
330
169
102
}
330
169
100
DictionaryVariables
280
     0
  1
15
  0
DICTIONARYVAR
  5
99EB
102
{ACAD_REACTORS
330
169
102
}
330
169
100
DictionaryVariables
280
     0
  1
0
  0
DICTIONARYVAR
  5
99E9
102
{ACAD_REACTORS
330
169
102
}
330
169
100
DictionaryVariables
280
     0
  1
0
  0
DICTIONARYVAR
  5
B0DD
102
{ACAD_REACTORS
330
169
102
}
330
169
100
DictionaryVariables
280
     0
  1
2
  0
XRECORD
  5
177
102
{ACAD_REACTORS
330
176
102
}
330
176
100
AcDbXrecord
280
     1
 91
      476
330
179
 90
        8
 62
     7
370
    -3
331
15
  1
Color_7
330
178
 90
        8
 62
     7
370
    -3
331
15
  1
Color_7
330
128
 90
        0
 62
     7
370
    -3
331
15
  1
Color_7
330
10
 90
        8
 62
     7
370
    -3
331
15
  1
Color_7
  0
DICTIONARY
  5
79B1
330
21
100
AcDbDictionary
280
     1
281
     1
  3
ADSK_XREC_LAYOUTTHUMBNAIL
360
79B2
  0
DICTIONARY
  5
6573
330
6572
100
AcDbDictionary
280
     1
281
     1
  3
ACAD_XREC_ROUNDTRIP
360
B0E3
  3
BUMPTILE
360
6575
  3
DIFFUSETILE
360
6574
  3
OPACITYTILE
360
6578
  3
REFLECTIONTILE
360
6577
  3
REFRACTIONTILE
360
6579
  3
SPECULARTILE
360
6576
  0
DICTIONARY
  5
656B
330
656A
100
AcDbDictionary
280
     1
281
     1
  3
ACAD_XREC_ROUNDTRIP
360
B0E2
  3
BUMPTILE
360
656D
  3
DIFFUSETILE
360
656C
  3
OPACITYTILE
360
6570
  3
REFLECTIONTILE
360
656F
  3
REFRACTIONTILE
360
6571
  3
SPECULARTILE
360
656E
  0
DICTIONARY
  5
657B
330
657A
100
AcDbDictionary
280
     1
281
     1
  3
ACAD_XREC_ROUNDTRIP
360
B0E4
  3
BUMPTILE
360
657D
  3
DIFFUSETILE
360
657C
  3
OPACITYTILE
360
6580
  3
REFLECTIONTILE
360
657F
  3
REFRACTIONTILE
360
6581
  3
SPECULARTILE
360
657E
  0
DICTIONARY
  5
B0DF
330
65B1
100
AcDbDictionary
280
     1
281
     1
  3
ACAD_XREC_ROUNDTRIP
360
B0E0
  0
DICTIONARY
  5
AAEF
330
659D
100
AcDbDictionary
280
     1
281
     1
  3
ACAD_ROUNDTRIP_2008_TABLESTYLE_CELLSTYLEMAP
360
B0DE
  3
ACAD_XREC_ROUNDTRIP
360
B115
  0
DICTIONARY
  5
B0EF
330
6588
100
AcDbDictionary
280
     1
281
     1
  3
ACAD_XREC_ROUNDTRIP
360
B0F0
  0
DICTIONARY
  5
B0ED
330
6587
100
AcDbDictionary
280
     1
281
     1
  3
ACAD_XREC_ROUNDTRIP
360
B0EE
  0
DICTIONARY
  5
B0FB
330
658E
100
AcDbDictionary
280
     1
281
     1
  3
ACAD_XREC_ROUNDTRIP
360
B0FC
  0
DICTIONARY
  5
B103
330
6592
100
AcDbDictionary
280
     1
281
     1
  3
ACAD_XREC_ROUNDTRIP
360
B104
  0
DICTIONARY
  5
B0F5
330
658B
100
AcDbDictionary
280
     1
281
     1
  3
ACAD_XREC_ROUNDTRIP
360
B0F6
  0
DICTIONARY
  5
B0F9
330
658D
100
AcDbDictionary
280
     1
281
     1
  3
ACAD_XREC_ROUNDTRIP
360
B0FA
  0
DICTIONARY
  5
B113
330
659A
100
AcDbDictionary
280
     1
281
     1
  3
ACAD_XREC_ROUNDTRIP
360
B114
  0
DICTIONARY
  5
B101
330
6591
100
AcDbDictionary
280
     1
281
     1
  3
ACAD_XREC_ROUNDTRIP
360
B102
  0
DICTIONARY
  5
B0E5
330
6583
100
AcDbDictionary
280
     1
281
     1
  3
ACAD_XREC_ROUNDTRIP
360
B0E6
  0
DICTIONARY
  5
B0E7
330
6584
100
AcDbDictionary
280
     1
281
     1
  3
ACAD_XREC_ROUNDTRIP
360
B0E8
  0
DICTIONARY
  5
B0E9
330
6585
100
AcDbDictionary
280
     1
281
     1
  3
ACAD_XREC_ROUNDTRIP
360
B0EA
  0
DICTIONARY
  5
B0EB
330
6586
100
AcDbDictionary
280
     1
281
     1
  3
ACAD_XREC_ROUNDTRIP
360
B0EC
  0
DICTIONARY
  5
B0F3
330
658A
100
AcDbDictionary
280
     1
281
     1
  3
ACAD_XREC_ROUNDTRIP
360
B0F4
  0
DICTIONARY
  5
B10F
330
6598
100
AcDbDictionary
280
     1
281
     1
  3
ACAD_XREC_ROUNDTRIP
360
B110
  0
DICTIONARY
  5
B0FF
330
6590
100
AcDbDictionary
280
     1
281
     1
  3
ACAD_XREC_ROUNDTRIP
360
B100
  0
DICTIONARY
  5
B111
330
6599
100
AcDbDictionary
280
     1
281
     1
  3
ACAD_XREC_ROUNDTRIP
360
B112
  0
DICTIONARY
  5
B0F7
330
658C
100
AcDbDictionary
280
     1
281
     1
  3
ACAD_XREC_ROUNDTRIP
360
B0F8
  0
DICTIONARY
  5
B10D
330
6597
100
AcDbDictionary
280
     1
281
     1
  3
ACAD_XREC_ROUNDTRIP
360
B10E
  0
DICTIONARY
  5
B10B
330
6596
100
AcDbDictionary
280
     1
281
     1
  3
ACAD_XREC_ROUNDTRIP
360
B10C
  0
DICTIONARY
  5
B105
330
6593
100
AcDbDictionary
280
     1
281
     1
  3
ACAD_XREC_ROUNDTRIP
360
B106
  0
DICTIONARY
  5
B107
330
6594
100
AcDbDictionary
280
     1
281
     1
  3
ACAD_XREC_ROUNDTRIP
360
B108
  0
DICTIONARY
  5
B0FD
330
658F
100
AcDbDictionary
280
     1
281
     1
  3
ACAD_XREC_ROUNDTRIP
360
B0FE
  0
DICTIONARY
  5
B0F1
330
6589
100
AcDbDictionary
280
     1
281
     1
  3
ACAD_XREC_ROUNDTRIP
360
B0F2
  0
DICTIONARY
  5
B109
330
6595
100
AcDbDictionary
280
     1
281
     1
  3
ACAD_XREC_ROUNDTRIP
360
B10A
  0
XRECORD
  5
79B2
102
{ACAD_REACTORS
330
79B1
102
}
330
79B1
100
AcDbXrecord
280
     1
310
280000000001000065000000010008000000000000650000000000000000000000010000000000003028210000000000FFFFFF000000000000000000000000000000000000000000000000000000000000000000330000006600000099000000CC000000FF00000000330000333300006633000099330000CC330000FF3300
310
0000660000336600006666000099660000CC660000FF66000000990000339900006699000099990000CC990000FF99000000CC000033CC000066CC000099CC0000CCCC0000FFCC000000FF000033FF000066FF000099FF0000CCFF0000FFFF000000003300330033006600330099003300CC003300FF003300003333003333
310
33006633330099333300CC333300FF33330000663300336633006666330099663300CC663300FF66330000993300339933006699330099993300CC993300FF99330000CC330033CC330066CC330099CC3300CCCC3300FFCC330000FF330033FF330066FF330099FF3300CCFF3300FFFF330000006600330066006600660099
310
006600CC006600FF00660000336600333366006633660099336600CC336600FF33660000666600336666006666660099666600CC666600FF66660000996600339966006699660099996600CC996600FF99660000CC660033CC660066CC660099CC6600CCCC6600FFCC660000FF660033FF660066FF660099FF6600CCFF6600
310
FFFF660000009900330099006600990099009900CC009900FF00990000339900333399006633990099339900CC339900FF33990000669900336699006666990099669900CC669900FF66990000999900339999006699990099999900CC999900FF99990000CC990033CC990066CC990099CC9900CCCC9900FFCC990000FF99
310
0033FF990066FF990099FF9900CCFF9900FFFF99000000CC003300CC006600CC009900CC00CC00CC00FF00CC000033CC003333CC006633CC009933CC00CC33CC00FF33CC000066CC003366CC006666CC009966CC00CC66CC00FF66CC000099CC003399CC006699CC009999CC00CC99CC00FF99CC0000CCCC0033CCCC0066CC
310
CC0099CCCC00CCCCCC00FFCCCC0000FFCC0033FFCC0066FFCC0099FFCC00CCFFCC00FFFFCC000000FF003300FF006600FF009900FF00CC00FF00FF00FF000033FF003333FF006633FF009933FF00CC33FF00FF33FF000066FF003366FF006666FF009966FF00CC66FF00FF66FF000099FF003399FF006699FF009999FF00CC
310
99FF00FF99FF0000CCFF0033CCFF0066CCFF0099CCFF00CCCCFF00FFCCFF0000FFFF0033FFFF0066FFFF0099FFFF00CCFFFF00FFFFFF00000000000D0D0D001A1A1A00282828003535350043434300505050005D5D5D006B6B6B00787878008686860093939300A1A1A100AEAEAE00BBBBBB00C9C9C900D6D6D600E4E4E400
310
F1F1F100FFFFFF000000000000000000000000000000000000000000000000000000000000000000000000000000000000000000000000000000000000000000000000000000000000000000000000000000000000000000000000000000000000000000000000000000000000000000000000000000000000000000000000
310
00000000000000000000000000000000000000000000000000000000000000000000000000000000000000000000000000000000000000000000000000000000000000000000000000000000002D000000000000000000002D0000000000000000000000000000000000000000000000000000000000000000000000000000
310
00000000000000000000000000000000000000000000000000000000000000000000000000000000000000000000000000000000000000000000000000000000000000000000000000000000000000000000000000000000000000000000000000000000000000000000000000000000000028000028002800000000000000
310
000000000000000000000000000000000000000000000000002800280000280000000000000000000000000000000000000000000000000000000000000000280000280028000000000000000000002D2D2D2D2D28282D2D2D2DF5000000002800002800280000000000000000000000000000000000000000000000000000
310
00000000000000000000000000000000000000000000000000000000000000000000000000000000000000000000000000000000000000000000000000000000000000000000000000000000000000000000000000000000000000000000000000000000000000000000000000000000000000000028000028002800000000
310
0000000000000000000000000000000000000000000000000000000028002800002800000000000000000000000000000000000000000000000000000000000000002800002800280000000000000000002D000000002828000000002D00000000002800002800280000000000000000000000000000000000000000000000
310
00000000000000000000000000000000000000000000000000000000000000000000000000000000000000000000000000000000000000000000000000000000000000000000000000000000000000000000000000000000000000000000000000000000000000000000000000000000000000000000000028000028002800
310
000000000000000000000000000000F5000000000000000000000000000000280028000028000000000000000000000000000000000000000000000000000000000000000028000028002800000000000000002D00000000F500000000002D0000000000002800002800280000000000000000000000000000000000000000
310
00000000000000000000000000000000000000000000000000000000000000000000000000000000000000000000000000000000000000000000000000000000000000000000000000000000000000000000000000000000000000000000000000000000000000000000000000000000000000000000000000000028000028
310
0028000000000000000000000000000000F5000000000000000000000000000000002800280000280000000000000000000000000000000000000000000000000000000000000000280028000028000000000000002D00000000F500000000002D000000000000002800002800280000000000000000000000000000000000
310
0000000000000000000000000000000000000000000000000000000000000000000000000000000000000000000000000000000000000000000000000000000000000000000000000000000000000000000000000000000000000000000000000000000000000000000000000000000000000000000000002D2D2D2D2D2D28
310
2D2D282D282D2D2D2D2D2D2D2D2D2D2D2D2D2DF52D2D2D2D2D2D2D2D2D2D2D2D2D2D2D2D2D282D282D2D282D2D2D2D000000000000000000002D2D2D2D2D2D2D2D2D2D2D2D2D2D2D2D2D2D282D282D2D282D2D2D2D2D2D2D2D2D2D2D2D2D2D2D2D2D2D2D2D2D2D2D2D2D2D282D2D282D282D2D2D2DF52D2D2D2D2D2D2D0000
310
00000000000000000000000000000000000000000000000000000000000000000000000000000000000000000000000000000000000000000000000000000000000000000000000000000000000000000000000000000000000000000000000000000000000000000000000000000000000000000000000000000000000000
310
0000000000000000002D2D2D2D2D2D2D2D00000000F500000000002D2D2D2D2D2D2D000000000000000000000000000000000000000000000000000000000000000000000000000000000000000000000000000000000000002D2D2D2D2D2D2D2D2D2D2D2D000000000000000000000000000000000000000000000000002D
310
00000000000000000000000000000000000000000000000000000000000000000000000000000000000000000000000000000000000000000000000000000000000000000000000000000000000000000000000000000000000000000000000000000000000000000000000000000000000000000000000000000000000000
310
000000000000000000000000000000002D002D00000000F500000000002D002D0000000000000000000000000000000000000000000000000000000000000000000000000000000000000000000000000000000000000000000000002D2D0000F50000002D2D00000000000000000000000000000000000000000000000000
310
002D0000000000000000000000000000000000000000000000000000000000000000000000000000000000000000000000000000000000000000000000000000000000000000000000000000000000000000000000000000000000000000000000000000000000000000000000000000000000000000000000000000000000
310
0000000000000000000000000000000000002D002D00000000F500000000002D002D0000000000000000000000000000000000000000000000000000000000000000000000000000000000000000000000000000000000000000000000002D2D0000F50000002D2D0000000000000000000000000000000000000000000000
310
0000002D000000000000000000000000000000000000000000000000000000000000000000000000000000000000000000000000000000000000000000000000000000000000000000000000000000000000000000000000000000000000000000000000000000000000000000000000000000000000000000000000000000
310
00000000000000000000000000000000000000002D002D00000000F500000000002D2D000000000000000000000000000000000000000000000000000000000000000000000000000000000000000000000000000000000000000000000000002D2D0000F50000002D2D000000000000000000000000000000000000000000
310
00000000002D00000000000000000000000000000000000000000000000000000000000000000000000000000000000000000000000000000000000000000000000000000000000000000000000000000000000000000000000000000000000000000000000000000000000000000000000000000000000000000000000000
310
00000000000000000000000000000000000000000000002D2D00000000F500000000002D2D000000000000000000000000000000000000000000000000000000000000000000000000000000000000000000000000000000000000000000000000002D2D0000F50000002D2D00000000000000000000000000000000000000
310
000000000000002D0000000000000000000000000000000000000000000000000000000000000000000000000000000000000000000000000000000000000000000000000000000000000000000000000000000000000000000000000000000000000000000000000000000000000000000000000000000000000000000000
310
000000000000000000000000000000000000000000000000002D002D000000F5000000002D002D000000000000000000000000000000000000000000000000000000000000000000000000000000000000000000000000000000000000000000000000002D2D0000F50000002D2D0000000000000000000000000000000000
310
0000000000000000002D000000000000000000000000000000000000000000000000000000000000000000000000000000000000000000000000000000000000000000000000000000000000000000000000000000000000000000000000000000000000000000000000000000000000000000000000000000000000000000
310
0000000000000000000000000000000000000000000000000000002D002D000000F5000000002D002D000000000000000000000000000000000000000000000000000000000000000000000000000000000000000000000000000000000000000000000000002D2D0000F50000002D2D000000000000000000000000000000
310
00000000000000000000002D00000000000000000000000000000000000000000000000000000000000000000000000000000000000000000000000000000000000000000000000000000000000000000000000000000000000000000000000000000000000000000000000000000000000000000000000000000000000000
310
00000000000000000000000000000000000000000000000000000000002D002D000028F5282800002D002D000000000000000000000000000000000000000000000000000000000000000000000000000000000000000000000000000000000000000000000000002D2D0000F50000002D2D00000000000000000000000000
310
000000000000000000000000002D0000000000000000000000000000000000000000000000000000000000000000000000000000000000000000000000000000000000000000000000000000000000000000000000000000000000000000000000000000000000000000000000000000000000000000000000000000000000
310
000000000000000000000000000000000000000000000000000000000000002D002D000028F5282D00002D2D00000000000000000000000000000000000000000000000000000000000000000000000000000000000000000000000000000000000000000000000000002D2D0000F50000002D2D0000000000000000000000
310
0000000000000000000000000000002D000000000000000000000000000000000000000000000000000000000000000000000000000000000000000000000000000000000000000000000000000000000000000000000000000000000000000000000000000000000000000000000000000000000000000000000000000000
310
0000000000000000000000000000000000000000000000000000000000000000002D002D000028F5282D00002D2D00000000000000000000000000000000000000000000000000000000000000000000000000000000000000000000000000000000000000000000000000002D2D0000F50000002D2D000000000000000000
310
00000000000000000000000000000000002D00000000000000000000000000000000000000000000000000000000000000000000000000000000000000000000000000000000000000000000000000000000000000000000000000000000000000000000000000000000000000000000000000000000000000000000000000
310
00000000000000000000000000000000000000000000000000000000000000000000002D002D000028F5282D00002D2D00000000000000000000000000000000000000000000000000000000000000000000000000000000000000000000000000000000000000000000000000002D2D0000F50000002D2D00000000000000
310
000000000000000000000000000000000000002D0000000000000000000000000000000000000000000000000000000000000000000000000000000000000000000000000000000000000000000000000000000000000000000000000000000000000000000000000000000000000000000000000000000000000000000000
310
000000000000000000000000000000000000000000000000000000000000000000000000002D002D000028F5282D00002D2D00000000000000000000000000000000000000000000000000000000000000000000000000000000000000000000000000000000000000000000000000002D2D0000F50000002D2D0000000000
310
0000000000000000000000000000000000000000002D000000000000000000000000000000000000000000000000000000000000000000000000000000000000000000000000000000000000000000000000000000000000000000000000000000000000000000000000000000000000000000000000000000000000000000
310
000000000000000000000000000000000000000000000000000000000000000000000000000000002D2D000028F5282D00002D2D00000000000000000000000000000000000000000000000000000000000000000000000000000000000000000000000000000000000000000000000000002D2D0000F50000002D2D000000
310
00000000000000000000000000000000000000000000002D00000000000000000000000000000000000000000000000000000000000000000000000000000000000000000000000000000000000000000000000000000000000000000000000000000000000000000000000000000000000000000000000000000000000000
310
0000000000000000000000000000000000000000000000000000000000000000000000000000000000002D002D0028F5282D002D2D0000000000000000000000000000000000000000000000000000000000000000000000000000000000000000000000000000000000000000000000000000002D2D0000F50000002D2D00
310
000000000000000000000000000000000000000000000000002D0000000000000000000000000000000000000000000000000000000000000000000000000000000000000000000000000000000000000000000000000000000000000000000000000000000000000000000000000000000000000000000000000000000000
310
00000000000000000000000000000000000000000000000000000000000000000000000000000000000000002D002D2D2D2D2D2D002D2D0000000000000000000000000000000000000000000000000000000000000000000000000000000000000000000000000000000000000000000000000000002D2D0000F50000002D
310
2D00000000000000000000000000000000000000000000000000002D000000000000000000000000000000000000000000000000000000000000000000000000000000000000000000000000000000000000000000000000000000000000000000000000000000000000000000000000000000000000000000000000000000
310
000000000000000000000000000000000000000000000000000000000000000000000000000000000000000000002D002D2D2DF52D2D2D2D2D0000000000000000000000000000000000000000000000000000000000000000000000000000000000000000000000000000000000000000000000000000002D2D0000F50000
310
002D2D00000000000000000000000000000000000000000000000000002D00000000000000000000000000000000000000000000000000000000000000000000000000000000000000000000000000000000000000000000000000000000000000000000000000000000000000000000000000000000000000000000000000
310
0000000000000000000000000000000000000000000000000000000000000000000000000000000000000000000000002D2D2D2D2DF5002D2D2D2D0000000000000000000000000000000000000000000000000000000000000000000000000000000000000000000000000000000000000000000000000000002D2D2D2D2D
310
2D2D2D2D2D00000000000000000000000000000000000000000000000000002D0000000000000000000000000000000000000000000000000000000000000000000000000000000000000000000000000000000000000000000000000000000000000000000000000000000000000000000000000000000000000000000000
310
000000000000000000000000000000000000000000000000000000000000000000000000000000000000000000000000000000002D2D2D2D2D2D2D2D0000000000000000000000000000000000000000000000000000000000000000000000000000000000000000000000000000000000000000000000000000002D2D2D2D
310
2D2D2D2D2D2D2D2D000000000000000000000000000000000000000000000000002D000000000000000000000000000000000000000000000000000000000000000000000000000000000000000000000000000000000000000000000000000000000000000000000000000000000000000000000000000000000000000000
310
000000000000000000000000000000000000000000000000000000000000000000000000000000000000000000000000000000000000002D2D2D2D2D2D000000000000000000000000000000000000000000000000000000000000000000000000000000000000000000000000000000000000000000000000000000000000
310
002D2D2D2D2D2D000000000000000000000000000000000000000000000000000000002D00000000000000000000000000000000000000000000000000000000000000000000000000000000000000000000000000000000000000000000000000000000000000000000000000000000000000000000000000000000000000
310
0000000000000000000000000000000000000000000000000000000000000000000000000000000000000000000000000000000000000000002D2DF5002D2D00000000000000000000000000000000000000000000000000000000000000000000000000000000000000000000000000000000000000000000000000000000
310
0000002D002D00002D000000000000000000000000000000000000000000000000000000002D0000000000000000000000000000000000000000000000000000000000000000000000000000000000000000000000000000000000000000000000000000000000000000000000000000000000000000000000000000000000
310
00000000000000000000000000000000000000000000000000000000000000000000000000000000000000000000000000000000000000000000002D2D2D2D2D2D0000000000000000000000000000000000000000000000000000000000000000000000000000000000000000000000000000000000000000000000000000
310
00000000002D2D2D2D2D2D000000000000000000000000000000000000000000000000000000002D000000000000000000000000000000000000000000000000000000000000000000000000000000000000000000000000000000000000000000000000000000000000000000000000000000000000000000000000000000
310
000000000000000000000000000000000000000000000000000000000000000000000000000000000000000000000000000000000000000000000000000028F5282D00000000000000000000000000000000000000000000000000000000000000000000000000000000000000000000000000000000000000000000000000
310
00000000000000002DF5002D00000000000000000000000000000000000000000000000000000000002D00000000000000000000000000000000000000000000000000000000000000000000000000000000000000000000000000000000000000000000000000000000000000000000000000000000000000000000000000
310
0000000000000000000000000000000000000000000000000000000000000000000000000000000000000000000000000000000000000000000000000000000028F5282D0000000000000000000000000000000000000000000000000000000000000000000000000000000000000000000000000000000000000000000000
310
000000000000000000002DF5002D00000000000000000000000000000000000000000000000000000000002D0000000000000000000000000000000000000000000000000000000000000000000000000000000000000000000000000000000000000000000000000000000000000000000000000000000000000000000000
310
00000000000000000000000000000000000000000000000000000000000000000000000000000000000000000000000000000000000000000000000000000000000028F5282D000000000000000000000000000000000000000000000000000000000000000000000000000000000000000000000000000000000000000000
310
0000000000000000000000002DF5002D00000000000000000000000000000000000000000000000000000000002D000000000000000000000000000000000000000000000000000000000000000000000000000000000000000000000000000000000000000000000000000000000000000000000000000000000000000000
310
000000000000000000000000000000000000000000000000000000000000000000000000000000000000000000000000000000000000000000000000000000000000000028F5282D00000000000000000000000000000000000000000000000000000000000000000000000000000000000000000000000000000000000000
310
00000000000000000000000000002DF5002D00000000000000000000000000000000000000000000000000000000002D00000000000000000000000000000000000000000000000000000000000000000000000000000000000000000000000000000000000000000000000000000000000000000000000000000000000000
310
0000000000000000000000000000000000000000000000000000000000000000000000000000000000000000000000000000000000000000000000000000000000000000000028F5282D0000000000000000000000000000000000000000000000000000000000000000000000000000000000000000000000000000000000
310
000000000000000000000000000000002DF5002D00000000000000000000000000000000000000000000000000000000002D0000000000000000000000000000000000000000000000000000000000000000000000000000000000000000000000000000000000000000000000000000000000000000000000000000000000
310
00000000000000000000000000000000000000000000000000000000000000000000000000000000000000000000000000000000000000000000000000000000000000000000000028F5282D000000000000000000000000000000000000000000000000000000000000000000000000000000000000000000000000000000
310
0000000000000000000000000000000000002DF5002D00000000000000000000000000000000000000000000000000000000002D000000000000000000000000000000000000000000000000000000000000000000000000000000000000000000000000000000000000000000000000000000000000000000000000000000
310
000000000000000000000000000000000000000000000000000000000000000000000000000000000000000000000000000000000000000000000000000000000000000000000000000028F5282D00000000000000000000000000000000000000000000000000000000000000000000000000000000000000000000000000
310
00000000000000000000000000000000000000002DF5002D00000000000000000000000000000000000000000000000000000000002D00000000000000000000000000000000000000000000000000000000000000000000000000000000000000000000000000000000000000000000000000000000000000000000000000
310
0000000000000000000000000000000000000000000000000000000000000000000000000000000000000000000000000000000000000000000000000000000000000000000000000000000028F5282D0000000000000000000000000000000000000000000000000000000000000000000000000000000000000000000000
310
00000000000000000000000000000000000000000000F5F5002D00000000000000000000000000000000000000000000000000000000002D0000000000000000000000000000000000000000000000000000000000000000000000000000000000000000000000000000000000000000000000000000000000000000000000
310
00000000000000000000000000000000000000000000000000000000000000000000000000000000000000000000000000000000000000000000000000000000000000000000000000000000000028F5282D000000000000000000000000000000000000000000000000000000000000000000000000000000000000000000
310
0000000000000000000000000000000000000000000000F52DF5002D00000000000000000000000000000000000000000000000000000000002D000000000000000000000000000000000000000000000000000000000000000000000000000000000000000000000000000000000000000000000000000000000000000000
310
000000000000000000000000000000000000000000000000000000000000000000000000000000000000000000000000000000000000000000000000000000000000000000000000000000000000000028F5282D00000000000000000000000000000000000000000000000000000000000000000000000000000000000000
310
00000000000000000000000000000000000000000000000000F52DF5002D00000000000000000000000000000000000000000000000000000028282D00000000000000000000000000000000000000000000000000000000000000000000000000000000000000000000000000000000000000000000000000000000000000
310
00000000000000000000000000000000000000000000000000000000000000000000000000000000000000000000000000000000000000000000000000000000000000000000000000000000000000000000F5F5282D0000000000000000000000000000000000000000000000000000000000000000000000000000000000
310
000000000000000000000000000000F5F5F5F5F5F5F5F5F5F5F5F5002DF5002D00000000000000000000000000000000000000000000000000000028282D0000000000000000000000000000000000000000000000000000000000000000000000000000000000000000000000000000000000000000000000000000000000
310
0000000000000000000000000000000000000000000000000000000000000000000000000000000000000000000000000000000000000000000000000000000000000000000000000000000000000000000000F528F5282D000000000000000000000000000000000000000000000000000000000000000000000000000000
310
0000000000000000000000000000000000F5F5F5F5F5F5F5F5F5F5F5F5002DF5002D00000000000000000000000000000000000000000000000000000028282D000000000000000000000000000000000000000000000000000000000000000000000000000000000000000000000000000000000000000000000000000000
310
00000000000000000000000000000000000000000000000000000000000000000000000000000000000000000000000000000000000000000000000000000000000000000000000000000000000000000000000000F528F5282D00000000000000000000000000000000000000000000000000000000000000000000000000
310
00000000000000000000000000000000000000F5F5F5F5F5F5F5F5F5F5F5F5002DF5002D00000000000000000000000000000000000000000000000000000028282D00000000000000000000000000000000000000000000000000000000000000000000000000000000000000000000000000000000000000000000000000
310
000000000000000000000000000000000000000000000000000000000000000000000000000000000000000000000000000000000000000000000000000000000000000000000000000000F5F5F5F5F5F5F5F5F5F5F5F50028F5282D0000000000000000000000000000000000000000000000000000000000000000000000
310
000000000000000000000000000000000000000000000000000000000000000000002DF5002D00000000000000000000000000000000000000000000000000000028282D0000000000000000000000000000000000000000000000000000000000000000000000000000000000000000000000000000000000000000000000
310
0000000000000000000000000000000000000000000000000000000000000000000000000000000000000000000000000000000000000000000000000000000000000000000000000000000000F5F5F5F5F5F5F5F5F5F5F5F50028F5282D000000000000000000000000000000000000000000000000000000000000000000
310
0000000000000000000000000000000000000000000000000000000000000000000000002DF5002D00000000000000000000000000000000000000000000000000000028282D000000000000000000000000000000000000000000000000000000000000000000000000000000000000000000000000000000000000000000
310
000000000000000000000000000000000000000000000000000000000000000000000000000000000000000000000000000000000000000000000000000000000000000000000000000000000000000000000000000000000000000028F5282D00000000000000000000000000000000000000000000000000000000000000
310
00000000000000000000000000000000000000000000000000000000000000000000000000002DF5002D00000000000000000000000000000000000000000000000000000028282D00000000000000000000000000000000000000000000000000000000000000000000000000000000000000000000000000000000000000
310
0000000000000000000000000000000000000000000000000000000000000000000000000000000000000000000000000000000000000000000000000000000000000000000000000000000000000000000000000000000000000000000028F5282D0000000000000000000000000000000000000000000000000000000000
310
000000000000000000000000000000000000000000000000000000000000000000000000000000002DF5002D00000000000000000000000000000000000000000000000000000028282D0000000000000000000000000000000000000000000000000000000000000000000000000000000000000000000000000000000000
310
00000000000000000000000000000000000000000000000000000000000000000000000000000000000000000000000000000000000000000000000000000000000000000000000000000000000000000000000000000000000000000000000028F5282D000000000000000000000000000000000000000000000000000000
310
0000000000000000000000000000000000000000000000000000000000000000000000000000000000002DF5002D00000000000000000000000000000000000000000000000000000028282D000000000000000000000000000000000000000000000000000000000000000000000000000000000000000000000000000000
310
000000000000000000000000000000000000000000000000000000000000000000000000000000000000000000000000000000000000000000000000000000000000000000000000000000000000000000000000000000000000000000000000000028F5282D00000000000000000000000000000000000000000000000000
310
00000000000000000000000000000000000000000000000000000000000000000000000000000000000000002DF5002D00000000000000000000000000000000000000000000000000000028282D00000000000000000000000000000000000000000000000000000000000000000000000000000000000000000000000000
310
0000000000000000000000000000000000000000000000000000000000000000000000000000000000000000000000000000000000000000000000000000000000000000000000000000000000000000000000000000000000000000000000000000000028F5282D0000000000000000000000000000000000000000000000
310
000000000000000000000000000000000000000000000000000000000000000000000000000000000000000000002DF5002D00000000000000000000000000000000000000000000000000000028282D0000000000000000000000000000000000000000000000000000000000000000000000000000000000000000000000
310
00000000000000000000000000000000000000000000000000000000000000000000000000000000000000000000000000000000000000000000000000000000000000000000000000000000000000000000000000000000000000000000000000000000002D2D2D2D2D000000000000000000000000000000000000000000
310
0000000000000000000000000000000000000000000000000000000000000000000000000000000000000000000000002D2D2D2D00000000000000000000000000000000000000000000000000000028282D000000000000000000000000000000000000000000000000000000000000000000000000000000000000000000
310
000000000000000000000000000000000000000000000000000000000000000000000000000000000000000000000000000000000000000000000000000000000000000000000000000000000000000000000000000000000000000000000000000000000000002D2DF52D2D2D000000000000000000000000000000000000
310
000000000000000000000000000000000000000000000000000000000000000000000000000000000000000000000000002D002D002D2D000000000000000000000000000000000000000000000000000000002D00000000000000000000000000000000000000000000000000000000000000000000000000000000000000
310
0000000000000000000000000000000000000000000000000000000000000000000000000000000000000000000000000000000000000000000000000000000000000000000000000000000000000000000000000000000000000000000000000000000000000000002D2DF5002D2D00000000000000000000000000000000
310
0000000000000000000000000000000000000000000000000000000000000000000000000000000000000000000000000000002D002D00002D000000000000000000000000000000000000000000000000000000002D0000000000000000000000000000000000000000000000000000000000000000000000000000000000
310
00000000000000000000000000000000000000000000000000000000000000000000000000000000000000000000000000000000000000000000000000000000000000000000000000000000000000000000000000000000000000000000000000000000000000000000002D2D2D2D2D2D0000000000000000000000000000
310
00000000000000000000000000000000000000000000000000000000000000000000000000000000000000000000000000000000002D2D2D2D2D2D000000000000000000000000000000000000000000000000000000002D000000000000000000000000000000000000000000000000000000000000000000000000000000
310
000000000000000000000000000000000000000000000000000000000000000000000000000000000000000000000000000000000000000000000000000000000000000000000000000000000000000000000000000000000000000000000000000000000000002D2D2D2D2D2D2D2D2D2D2D2D2D2D2D2D2D00000000000000
310
000000000000000000000000000000000000000000000000000000000000000000000000000000000000000000000000002D2D2D2D2D2D2D2D2D2D2D2D2D2D2D2D2D00000000000000000000000000000000000000000000002D00000000000000000000000000000000000000000000000000000000000000000000000000
310
000000000000000000000000000000000000000000000000000000000000000000000000000000000000000000000000000000000000000000000000000000000000000000000000000000000000000000000000000000000000000000000000F5F5F5F5F5F5F5F5F52D00000000000000F5000000000000002D0000000000
310
000000000000000000000000000000000000000000000000000000000000000000000000000000000000F5F5F5F5F5F5F5F5F52D00000000000000F5000000000000002D00000000000000000000000000000000000000000000002D0000000000000000000000000000000000000000000000000000000000000000000000
310
000000000000000000000000000000000000000000000000000000000000000000000000000000000000000000000000000000000000000000000000000000000000000000000000000000000000000000000000000000000000000000000000000000F5F5F5F5F5F5F5F52D00000000000000F5000000000000F52D000000
310
000000000000000000000000000000000000000000000000000000000000000000000000000000000000000000F5F5F5F5F5F5F5F52D00000000000000F5000000000000F52D00000000000000000000000000000000000000000000002D000000000000000000000000000000000000000000000000000000000000000000
310
00000000000000000000000000000000000000000000000000000000000000000000000000000000000000000000000000000000000000000000000000000000000000000000000000000000000000000000000000000000000000000000000000000000000000000000000000F500000000000000F500000000000000F500
310
00000000000000000000000000000000000000000000000000000000000000000000000000000000000000000000000000000000000000F500000000000000F500000000000000F500000000000000000000000000000000000000000000002D00000000000000000000000000000000000000000000000000000000000000
310
000000000000000000000000000000000000000000000000000000000000000000000000000000000000000000000000000000000000000000000000000000000000000000000000000000000000000000000000000000000000000000000000000000000000000000000000000000F500000000000000F500000000000000
310
F50000000000000000000000000000000000000000000000000000000000000000000000000000000000000000000000000000000000000000F500000000000000F500000000000000F500000000000000000000000000000000000000000000002D0000000000000000000000000000000000000000000000000000000000
310
00000000000000000000000000000000000000000000000000000000000000000000000000000000000000000000000000000000000000000000000000000000000000000000000000000000000000000000000000000000000000000000000000000000000000000000000000000000002D00000000000000F50000000000
310
00002DF5000000000000000000000000000000000000000000000000000000000000000000000000000000000000000000000000000000000000002D00000000000000F5000000000000002DF5000000000000000000000000000000000000000000002D000000000000000000000000000000000000000000000000000000
310
000000000000000000000000000000000000000000000000000000000000000000000000000000000000000000000000000000000000000000000000000000000000000000000000000000000000000000000000000000000000000000000000000000000000000000000000000000000000002D00000000000000F5000000
310
000000002DF5000000000000000000000000000000000000000000000000000000000000000000000000000000000000000000000000000000000000002D00000000000000F5000000000000002DF5000000000000000000000000000000000000000000002D00000000000000000000000000000000000000000000000000
310
0000000000000000000000000000000000000000000000000000000000000000000000000000000000000000000000000000000000000000000000000000000000000000000000000000000000000000000000000000000000000000000000000000000000000000000000000000000000000000002D00000000000000F500
310
0000000000002D00F50000000000000000000000000000000000000000000000000000000000000000000000000000000000000000000000000000000000002D00000000000000F5000000000000002D00F50000000000000000000000000000000000000000002D0000000000000000000000000000000000000000000000
310
0000000000000000000000000000000000000000000000000000000000000000000000000000000000000000000000000000000000000000000000000000000000000000000000000000000000000000000000000000000000000000000000000000000000000000000000000000000000000000000000002D000000000000
310
F5000000000000002D00F5F5F5F5F5F5F5F5F5F5F5F5F5F5F5F500000000000000000000000000000000000000F5F5F5F5F5F5F500000000000000000000000000002D000000000000F5000000000000002D00F5F5F5F5F5F5F5F5F5F5F5F5F5F5F5F50000000000002D000000000000000000000000000000000000000000
310
00000000000000000000000000000000000000000000000000000000000000000000000000000000000000000000000000000000000000000000000000000000000000000000000000000000000000000000000000000000000000000000000000000000000000000000000000000000000000000000000000002D2D2D2D2D
310
2D2D2D2D2D2D2D2D2D2D2D00F5F5F5F5F5F5F5F5F5F5F5F5F5F5F5000000000000000000000000000000000000000000F5F5F5F5F5F500000000000000000000000000002D2D2D2D2D2D2D2D2D2D2D2D2D2D2D2D00F5F5F5F5F5F5F5F5F5F5F5F5F5F5F5F50000000000002D00000000000000000000000000000000000000
310
00000000000000000000000000000000000000000000000000000000000000000000000000000000000000000000000000000000000000000000000000000000000000000000000000000000000000000000000000000000000000000000000000000000000000000000000000000000000000000000000000000000000000
310
00002D2D2D2D2D2D00000000000000F500F5F500F5F50000F5000000F5000000000000000000000000000000000000000000F5F5F5F5F500F50000000000000000000000000000000000002D2D2D2D2D2D00000000000000F500F5F500F5F50000F5000000F5000000000000002D0000000000000000000000000000000000
310
00000000000000000000000000000000000000000000000000000000000000000000000000000000000000000000000000000000000000000000000000000000000000000000000000000000000000000000000000000000000000000000000000000000000000000000000000000000000000000000000000000000000000
310
000000002D2DF5002D2D000000000000000000000000000000000000000000000000000000000000000000000000000000000000000000000000F50000000000000000000000000000000000002D002D00002D000000000000000000000000000000000000000000000000000000002D000000000000000000000000000000
310
000000000000000000000000000000000000000000000000000000000000000000000000000000000000000000000000000000000000000000000000000000000000000000000000000000000000000000000000000000000000000000000000000000000000000000000000000000000000000000000000000000F5F5F5F5
310
F5F500002D2D2D2D2D2D2D2D2D2D0000000000000000000000000000000000000000000000000000000000000000000000000000000000000000000000F50000000000000000000000000000002D2D2D2D2D2D2D2D2D2D00000000000000000000000000000000000000000000000000002D00000000000000000000000000
310
0000000000000000000000000000000000000000000000000000000000000000000000000000000000000000000000000000000000000000000000000000000000000000000000000000000000000000000000000000000000000000000000000000000000000000000000000000000000000000000000000000000000F5F5
310
F5F5F500F52D2D2D2D2D2D2D2D2D2D2D0000000000000000000000000000000000000000000000000000000000000000282828282828282828282828282828F52828282828282828282828282828282D282800F5002828282D282828282828282828282828282828F52D2828000000000000002D0000000000000000000000
310
00000000000000000000000000000000000000000000000000000000000000000000000000000000000000000000000000000000000000000000000000000000000000000000000000000000000000000000000000000000000000000000000000000000000000000000000000000000000000000000000000000000000000
310
00F5F5F5F500F5282D000000F50000002D2D2800000000000000000000000000000000000000000000000000000000000000000000000000000000000000000000000000000000000000000000000000002D280028F5002800282D0000000000000000000000000000002D000000000000000000002D000000000000000000
310
00000000000000000000000000000000000000000000000000000000000000000000000000000000000000000000000000000000000000000000000000000000000000000000000000000000000000000000000000000000000000000000000000000000000000000000000000000000000000000000000000000000000000
310
000000000000000000F52D000000F50000002D2D2800000000000000000000000000000000000000000000000000000000000000000000000000000000000000000000000000000000000000000000000000002D280028F5002800282D0000000000000000000000000000002D000000000000000000002D00000000000000
310
00000000000000000000000000000000000000000000000000000000000000000000000000000000000000000000000000000000000000000000000000000000000000000000000000000000000000000000000000000000000000000000000000000000000000000000000000000000000000000000000000000000000000
310
0000000000000000000000F52D000000F50000002D2D2800000000000000000000000000000000000000000000000000000000000000000000000000000000000000000000000000000000000000000000000000002D280028F5002800282D00000000000000000000000000002828000000000000000000002D0000000000
310
00000000000000000000000000000000000000000000000000000000000000000000000000000000000000000000000000000000000000000000000000000000000000000000000000000000000000000000000000000000000000000000000000000000000000000000000000000000000000000000000000000000000000
310
0000000000000000000000000028F5000000F50000002D2D2800000000000000000000000000000000000000000000000000000000000000000000000000000000000000000000000000000000000000000000000000002D280028F5002800282D00000000000000000000000000002828000000000000000000002D000000
310
00000000000000000000000000000000000000000000000000000000000000000000000000000000000000000000000000000000000000000000000000000000000000000000000000000000000000000000000000000000000000000000000000000000000000000000000000000000000000000000000000000000000000
310
000000000000000000000000000000282D000000F50000002D2D2800000000000000000000000000000000000000000000000000000000000000000000000000000000000000000000000000000000000000000000000000002D280028F5002800282D00000000000000000000000000002828000000000000000000002D00
310
00000000000000000000000000000000000000000000000000000000000000000000000000000000000000000000000000000000000000000000000000000000000000000000000000000000000000000000000000000000000000000000000000000000000000000000000000000000000000000000000000000000000000
310
0000F5F5F5F5F5F5F50000000000000000282D000000F50000002D2D2800000000000000000000000000000000000000000000000000000000000000000000000000000000000000000000000000000000000000000000000000002D280028F5002800282D0000000000000000000000000000002D00000000000000000000
310
2D000000000000000000000000000000000000000000000000000000000000000000000000000000000000000000000000000000000000000000000000000000000000000000000000000000000000000000000000000000000000000000000000000000000000000000000000000000000000000000000000000000000000
310
0000000000F5F5F5F5F500F500000000000000282D000000F50000002D2D2800000000000000000000000000000000000000000000000000000000000000000000000000000000000000000000000000000000000000000000000000002D280028F5002800282D0000000000000000000000000000002D0000000000000000
310
00002D00000000000000000000000000000000000000000000000000000000000000000000000000000000000000000000000000000000000000000000000000000000000000000000000000000000000000000000000000000000000000000000000000000000000000000000000000000000000000000000000000000000
310
00000000000000000000000000F500000000000000282D2D2D2D2D2D2D2D2D2D2800000000000000000000000000000000000000000000000000000000000000282828282828282828282828282828282828282828282828282828282828282D28002828282800282D2828282828282828282828282828282D2D2828000000
310
000000002D0000000000000000000000000000000000000000000000000000000000000000000000000000000000000000000000000000000000000000000000000000000000000000000000000000000000000000000000000000000000000000000000000000000000000000000000000000000000000000000000000000
310
00002D2D2D2D2D2D2D2D2D2D2D2D2D2DF52D2D2D2D2D2D282D2D2D2D2D2D2D2D2D2D282D2D2D2D2D2D2D2D2D2D2D2D2D2D2D2DF52D2D2D2D000000000000000000002D2D2D2D2D2D2D2D2D2D2D2D2D2D2D2D2D2D2D2D2D2D2D2D2D2D2D2D2D2D2D2D28002828282800282D2D2D2D2D2D2D2D2D2D2D2D2D2D2D2DF52D2D2D00
310
0000000000002D000000000000000000000000000000000000000000000000000000000000000000000000000000000000000000000000000000000000000000000000000000000000000000000000000000000000000000000000000000000000000000000000000000000000000000000000000000000000000000000000
310
00000000000000000000000000000000000000000000000000282D2D2D2D2D2D2D2D2D2D28282800000000000000000000000000002D00000000000000000000000000000000002D2D2D2D00000000002D2D2D2D0000000000000000000000000000002D280028F52D2800282D000000000000000000000000000000000000
310
00000000000000002D00000000000000000000000000000000000000000000000000000000000000000000000000000000000000000000000000000000000000000000000000000000000000000000000000000000000000000000000000000000000000000000000000000000000000000000000000000000000000000000
310
000000000000000000000000000000000000000000000000000000282D282828F528282828282828280000000000000000000000000028280000000000000000000000000000000000000000F500000000002D0000000000000000000000000000000000002D28282DF52D2828282D00000000000000000000000000000000
310
000000000000000000002D0000000000000000000000000000000000000000000000000000000000000000000000000000000000000000000000000000000000000000000000000000000000000000000000000000000000000000000000000000000000000000000000000000000000000000000000000000000000000000
310
00000000000000000000000000000000000000000000000000000000002D2D000000F5000000002D000000000000000000000000000000002828000000000000000000000000000000F5F5F5F5F52D00000000002D0000000000000000000000000000000000002D2D2D2D2D2D2D2D2D2D0000000000000000000000000000
310
0000000000000000000000002D000000000000000000000000000000000000000000000000000000000000000000000000000000000000000000000000000000000000000000000000000000000000000000000000000000000000000000000000000000000000000000000000000000000000000000000000000000000000
310
000000000000000000000000000000000000000000000000000000000000000000000000F5000000000000000000000000000000000000000000002D000000000000000000000000000000F5F5F5F5F52D00000000002D00000000000000000000000000000000000000000000F50000000000000000000000000000000000
310
00000000000000000000000000002D00000000000000000000000000000000000000000000000000000000000000000000000000000000000000000000000000000000000000000000000000000000000000000000000000000000000000000000000000000000000000000000000000000000000000000000000000000000
310
0000000000000000000000002D2D2D2D2D2D2D2D2D2D2D2D2D2D2D2D2D2D2D2D2D2D2D2D2D2D2D2D2D2D2D2D2D2D2D2D2D2D2D2D2D2D2D2D2D2D2D2D2DF52D2D2D2D000000000000000000002D2D2D2D2D2D2D2D2D2D2D2D2D2D2D2D2D2D2D2D2D2D2D2D2D2D2D2D2D2D2D2D2D2D2D2D2D2D2D2D2D2D2D2D2D2D2D2D2D2D2D
310
2D2D2D2D2D2D2D2D2DF52D2D2D2D2D2DF50000000000000000000000000000000000000000000000000000000000000000000000000000000000000000000000000000000000000000000000000000000000000000000000000000000000000000000000000000000000000000000000000000000000000000000000000000
310
00000000000000000000000000002828282828282828282828282828282828282828282828282828282828282828282828282828282828282828282828282828282828280000000000000000000028282828282828282828282828282828282828282828282828282828282828282828282828282828282828282828282828
310
28282828282828282828280000000000000000000000000000000000000000000000000000000000000000000000000000000000000000000000000000000000000000000000000000000000000000000000000000000000000000000000000000000000000000000000000000000000000000000000000000000000000000
310
0000000000000000000000000000000028282828282828282828282828282828282828282828282828282828F528282828282828282828282828282828282828282828282828000000000000000000002828282828282828282828282828282828282828282828282828282828282828282828282828282828282828282828
310
28282828282828282828282828000000000000000000000000000000000000000000000000000000000000000000000000000000000000000000000000000000000000000000000000000000000000000000000000000000000000000000000000000000000000000000000000000000000000000000000000000000000000
310
0000000000000000000000000000000000002D2D2D282D2D2D2D2D2D2D2D2D2D2D2D2D2D282D2D2D2D2D2D2D2D2D2DF52D2D2D2D282D2D2D2D2D2D2D2D2D2D2D2D2D2D2D282D2D2D000000000000000000002D2D2D2D2D2D2D2D2D2D2D2D2D2D2D2D2D2D2D2D2D2D2D2D2D2D2D2D2D2D2D2D2D2D2D2D2D2D2D2D2D2D2D2D2D
310
2D2D2D2D2D2D2D2D2D2D2D2D2D2D2D00000000000000000000000000000000000000000000000000000000000000000000000000000000000000000000000000000000000000000000000000000000000000000000000000000000000000000000000000000000000000000000000000000000000000000000000000000000
310
00000000000000000000000000000000000000000028282800000000000000000000000000282800000000000000000000F50000002828000000000000000000000000002828280000000000000000000000000000000000000000000000000000000000000000000000000000000000000000000000000000000000000000
310
00000000000000000000000000000000000000000000000000000000000000000000000000000000000000000000000000000000000000000000000000000000000000000000000000000000000000000000000000000000000000000000000000000000000000000000000000000000000000000000000000000000000000
310
00000000000000000000000000000000000000000000002828280000000000000000000000000028280000000000000000000000F50000282800000000000000000000000000282828000000000000000000000000000000000000000000000000000000000000000000000000000000000000000000000000000000000000
310
00000000000000000000000000000000000000000000000000000000000000000000000000000000000000000000000000000000000000000000000000000000000000000000000000000000000000000000000000000000000000000000000000000000000000000000000000000000000000000000000000000000000000
310
0000000000000000000000000000000000000000000000002D2D2D282D2D2D2D2D2D2D2D2D2D2D2D2D2D282D2D2D2D2D2D2DF52D2D2D2DF52D2D282D2D2D2D2D2D2D2D2D2D2D2D2D2D2D282D2D2D000000000000000000002D2D2D2D2D2D2D2D2D2D2D2D2D2D2D2D2D2D2D2D2D2D2D2D2D2D2D2D2D2D2D2D2D2D2D2D2D2D2D
310
2D2D2D2D2D2D2D2D2D2D2D2D2D2D2D2D2D2D2D2D2D00000000000000000000000000000000000000000000000000000000000000000000000000000000000000000000000000000000000000000000000000000000000000000000000000000000000000000000000000000000000000000000000000000000000000000000
310
0000000000000000000000000000000000000000000000000000000000000000000000000000000000000000000000000000000000F500000000F50000000000000000000000000000000000000000000000000000000000000000000000000000000000000000000000000000000000000000000000000000000000000000
310
00000000000000000000000000000000000000000000000000000000000000000000000000000000000000000000000000000000000000000000000000000000000000000000000000000000000000000000000000000000000000000000000000000000000000000000000000000000000000000000000000000000000000
310
0000000000000000000000000000000000000000000000000000000000000000000000000000000000000000000000000000000000000000F5000000F5000000000000000000000000000000000000000000000000000000000000000000000000000000000000000000000000000000000000000000000000000000000000
310
00000000000000000000000000000000000000000000000000000000000000000000000000000000000000000000000000000000000000000000000000000000000000000000000000000000000000000000000000000000000000000000000000000000000000000000000000000000000000000000000000000000000000
310
00000000000000000000000000000000000000000000000000000000000000000000000000000000000000000000000000000000000000000000F500000000F5F5F5F5F5F5F5F5F500000000000000000000000000000000000000000000000000000000000000000000000000000000000000000000000000000000000000
310
00000000000000000000000000000000000000000000000000000000000000000000000000000000000000000000000000000000000000000000000000000000000000000000000000000000000000000000000000000000000000000000000000000000000000000000000000000000000000000000000000000000000000
310
00000000000000000000000000000000000000000000000000000000000000000000000000000000000000000000000000000000000000000000000000F500000000F5F5F5F5F5F500000000000000000000000000000000000000000000000000000000000000000000000000000000000000000000000000000000000000
310
00000000000000000000000000000000000000000000000000000000000000000000000000000000000000000000000000000000000000000000000000000000000000000000000000000000000000000000000000000000000000000000000000000000000000000000000000000000000000000000000000000000000000
310
00000000000000000000000000000000000000000000000000000000000000000000000000000000000000000000000000000000000000000000000000000000F5F5F5F5F5F5F5F5F5F5F5F5F5F500000000000000000000000000000000000000000000000000000000000000000000000000000000000000000000000000
310
00000000000000000000000000000000000000000000000000000000000000000000000000000000000000000000000000000000000000000000000000000000000000000000000000000000000000000000000000000000000000000000000000000000000000000000000000000000000000000000000000000000000000
310
00000000000000000000000000000000000000000000000000000000000000000000000000000000000000000000000000000000000000000000000000000000000000F5F5F5F5F5F5F5F5F5F5F500000000000000000000000000000000000000000000000000000000000000000000000000000000000000000000000000
310
00000000000000000000000000000000000000000000000000000000000000000000000000000000000000000000000000000000000000000000000000000000000000000000000000000000000000000000000000000000000000000000000000000000000000000000000000000000000000000000000000000000000000
310
000000000000000000000000000000000000000000000000000000000000000000000000000000000000000000000000000000000000000000000000000000000000000000F5F5F500F5F5F5F5F5F5F50000000000000000000000000000000000000000000000000000000000000000000000000000000000000000000000
310
00000000000000000000000000000000000000000000000000000000000000000000000000000000000000000000000000000000000000000000000000000000000000000000000000000000000000000000000000000000000000000000000000000000000000000000000000000000000000000000000000000000000000
310
00000000000000000000000000000000000000000000000000000000000000000000000000000000000000000000000000000000000000000000000000000000000000000000000000000000000000000000000000000000000000000000000000000000000000000000000000000000000000000000000000000000000000
310
00000000000000000000000000000000000000000000000000000000000000000000000000000000000000000000000000000000000000000000000000000000000000000000000000000000000000000000000000000000000000000000000000000000000000000000000000000000000000000000000000000000000000
310
00000000000000000000000000000000000000000000000000000000000000000000000000000000000000000000000000000000000000000000000000000000000000000000000000000000000000000000000000000000000000000000000000000000000000000000000000000000000000000000000000000000000000
310
00000000000000000000000000000000000000000000000000000000000000000000000000000000000000000000000000000000000000000000000000000000000000000000000000000000000000000000000000000000000000000000000000000000000000000000000000000000000000000000000000000000000000
310
00000000000000000000000000000000000000000000000000000000000000000000000000000000000000000000000000000000000000000000000000000000000000000000000000000000000000000000000000000000000000000000000000000000000000000000000000000000000000000000000000000000000000
310
00000000000000000000000000000000000000000000000000000000000000000000000000000000000000000000000000000000000000000000000000000000000000000000000000000000000000000000000000000000000000000000000000000000000000000000000000000000000000000000000000000000000000
310
00000000000000000000000000000000000000000000000000000000000000000000000000000000000000000000000000000000000000000000000000000000000000000000000000000000000000000000000000000000000000000000000000000000000000000000000000000000000000000000000000000000000000
310
00000000000000000000000000000000000000000000000000000000000000000000000000000000000000000000000000000000000000000000000000000000000000000000000000000000000000000000000000000000000000000000000000000000000000000000000000000000000000000000000000000000000000
310
00000000000000000000000000000000000000000000000000000000000000000000000000000000000000000000000000000000000000000000000000000000000000000000000000000000000000000000000000000000000000000000000000000000000000000000000000000000000000000000000000000000000000
310
00000000000000000000000000000000000000000000000000000000000000000000000000000000000000000000000000000000000000000000000000000000000000000000000000000000000000000000000000000000000000000000000000000000000000000000000000000000000000000000000000000000000000
310
00000000000000000000000000000000000000000000000000000000000000000000000000000000000000000000000000002828280028280028280000000000000000000028282800282800282800000000002800002800002828002828282828282828282828282828282828282800280028282828280028282800280000
310
28002800282828282828002828282828000028282828282828282828002800000000282828282828282800000000000000000000000000000000000000000000000000000000000000000000000000000000000000000000000000000000000000000000000000000000000000000000000000000000000000000000000000
310
00000000000000000000000000000000000000000000000000000000000000000000000000000000000000000000000000000000282828002828002828002828282800282828280028280028280028282828282800280000282800282800282828282828282828282828282828282828000028282828280028280028280028
310
28000028000028002828282828282828282828282828282828282828282800280028282828282828282828280000000000000000000000000000000000000000000000000000000000000000000000000000000000000000000000000000000000000000000000000000000000000000000000000000000000000000000000
310
00000000000000000000000000000000000000000000000000000000000000000000000000000000000000000000000000000000000028282800282800282800000000282828000000002828002828002828280000000028000028280028282828282828282828282828282828282800282828002800282828282828002828
310
00282800002800002828282828282828282828280000282828282828282828280028000000002828282828282828000000000000000000000000000000000000000000000000000000000000000000000000000000000000000000000000000000000000000000000000000000000000000000000000000000000000000000
310
00000000000000000000000000000000000000000000000000000000000000000000000000000000000000000000000000000000000000000000000000000000000000000000000000000000000000000000000000000000000000000000000000000028000028000028002800002828280000282828282800280000000000
310
000000000000000000000000282800002800002828000000002800280028002828280000000000000028000000000000000000000000000000000000000000000000000000000000000000000000000000000000000000000000000000000000000000000000000000000000000000000000000000000000000000
  0
XRECORD
  5
B0E3
102
{ACAD_REACTORS
330
6573
102
}
330
6573
100
AcDbXrecord
280
     1
102
MATERIAL
148
0.0
149
0.0
149
0.0
 93
        0
 94
      127
282
     0
 72
     0
 77
     0
171
     0
175
     0
179
     0
273
     0
  0
XRECORD
  5
6575
102
{ACAD_REACTORS
330
6573
102
}
330
6573
100
AcDbXrecord
280
     1
270
     1
271
     1
  0
XRECORD
  5
6574
102
{ACAD_REACTORS
330
6573
102
}
330
6573
100
AcDbXrecord
280
     1
270
     1
271
     1
  0
XRECORD
  5
6578
102
{ACAD_REACTORS
330
6573
102
}
330
6573
100
AcDbXrecord
280
     1
270
     1
271
     1
  0
XRECORD
  5
6577
102
{ACAD_REACTORS
330
6573
102
}
330
6573
100
AcDbXrecord
280
     1
270
     1
271
     1
  0
XRECORD
  5
6579
102
{ACAD_REACTORS
330
6573
102
}
330
6573
100
AcDbXrecord
280
     1
270
     1
271
     1
  0
XRECORD
  5
6576
102
{ACAD_REACTORS
330
6573
102
}
330
6573
100
AcDbXrecord
280
     1
270
     1
271
     1
  0
XRECORD
  5
B0E2
102
{ACAD_REACTORS
330
656B
102
}
330
656B
100
AcDbXrecord
280
     1
102
MATERIAL
148
0.0
149
0.0
149
0.0
 93
        0
 94
      127
282
     0
 72
     0
 77
     0
171
     0
175
     0
179
     0
273
     0
  0
XRECORD
  5
656D
102
{ACAD_REACTORS
330
656B
102
}
330
656B
100
AcDbXrecord
280
     1
270
     1
271
     1
  0
XRECORD
  5
656C
102
{ACAD_REACTORS
330
656B
102
}
330
656B
100
AcDbXrecord
280
     1
270
     1
271
     1
  0
XRECORD
  5
6570
102
{ACAD_REACTORS
330
656B
102
}
330
656B
100
AcDbXrecord
280
     1
270
     1
271
     1
  0
XRECORD
  5
656F
102
{ACAD_REACTORS
330
656B
102
}
330
656B
100
AcDbXrecord
280
     1
270
     1
271
     1
  0
XRECORD
  5
6571
102
{ACAD_REACTORS
330
656B
102
}
330
656B
100
AcDbXrecord
280
     1
270
     1
271
     1
  0
XRECORD
  5
656E
102
{ACAD_REACTORS
330
656B
102
}
330
656B
100
AcDbXrecord
280
     1
270
     1
271
     1
  0
XRECORD
  5
B0E4
102
{ACAD_REACTORS
330
657B
102
}
330
657B
100
AcDbXrecord
280
     1
102
MATERIAL
148
0.0
149
0.0
149
0.0
 93
        0
 94
      127
282
     0
 72
     0
 77
     0
171
     0
175
     0
179
     0
273
     0
  0
XRECORD
  5
657D
102
{ACAD_REACTORS
330
657B
102
}
330
657B
100
AcDbXrecord
280
     1
270
     1
271
     1
  0
XRECORD
  5
657C
102
{ACAD_REACTORS
330
657B
102
}
330
657B
100
AcDbXrecord
280
     1
270
     1
271
     1
  0
XRECORD
  5
6580
102
{ACAD_REACTORS
330
657B
102
}
330
657B
100
AcDbXrecord
280
     1
270
     1
271
     1
  0
XRECORD
  5
657F
102
{ACAD_REACTORS
330
657B
102
}
330
657B
100
AcDbXrecord
280
     1
270
     1
271
     1
  0
XRECORD
  5
6581
102
{ACAD_REACTORS
330
657B
102
}
330
657B
100
AcDbXrecord
280
     1
270
     1
271
     1
  0
XRECORD
  5
657E
102
{ACAD_REACTORS
330
657B
102
}
330
657B
100
AcDbXrecord
280
     1
270
     1
271
     1
  0
XRECORD
  5
B0E0
102
{ACAD_REACTORS
330
B0DF
102
}
330
B0DF
100
AcDbXrecord
280
     1
102
ACAD_ROUNDTRIP_2012_MLEADER_STYLE
298
     1
  0
CELLSTYLEMAP
  5
B0DE
102
{ACAD_REACTORS
330
AAEF
102
}
330
AAEF
100
AcDbCellStyleMap
 90
        3
300
CELLSTYLE
  1
TABLEFORMAT_BEGIN
 90
        5
170
     1
 91
        0
 92
    32768
 62
   257
 93
        1
300
CONTENTFORMAT
  1
CONTENTFORMAT_BEGIN
 90
        0
 91
        0
 92
      512
 93
        0
300

 40
0.0
140
1.0
 94
        5
 62
     0
340
11
144
0.25
309
CONTENTFORMAT_END
171
     0
 94
        0
309
TABLEFORMAT_END
  1
CELLSTYLE_BEGIN
 90
        1
 91
        1
300
_TITLE
309
CELLSTYLE_END
300
CELLSTYLE
  1
TABLEFORMAT_BEGIN
 90
        5
170
     1
 91
        0
 92
        0
 62
   257
 93
        1
300
CONTENTFORMAT
  1
CONTENTFORMAT_BEGIN
 90
        0
 91
        0
 92
      512
 93
        0
300

 40
0.0
140
1.0
 94
        5
 62
     0
340
11
144
0.18
309
CONTENTFORMAT_END
171
     0
 94
        0
309
TABLEFORMAT_END
  1
CELLSTYLE_BEGIN
 90
        2
 91
        1
300
_HEADER
309
CELLSTYLE_END
300
CELLSTYLE
  1
TABLEFORMAT_BEGIN
 90
        5
170
     1
 91
        0
 92
        0
 62
   257
 93
        1
300
CONTENTFORMAT
  1
CONTENTFORMAT_BEGIN
 90
        0
 91
        0
 92
      512
 93
        0
300

 40
0.0
140
1.0
 94
        2
 62
     0
340
11
144
0.18
309
CONTENTFORMAT_END
171
     0
 94
        0
309
TABLEFORMAT_END
  1
CELLSTYLE_BEGIN
 90
        3
 91
        2
300
_DATA
309
CELLSTYLE_END
  0
XRECORD
  5
B115
102
{ACAD_REACTORS
330
AAEF
102
}
330
AAEF
100
AcDbXrecord
280
     1
102
ACAD_ROUNDTRIP_PRE2007_TABLESTYLE
 90
      512
 91
        0
  1

 92
      512
 93
        0
  2

 94
      512
 95
        0
  3

  0
XRECORD
  5
B0F0
102
{ACAD_REACTORS
330
B0EF
102
}
330
B0EF
100
AcDbXrecord
280
     1
102
RTVSPropertyOp0
 70
     1
102
RTVSPropertyOp1
 70
     1
102
RTVSPropertyOp2
 70
     1
102
RTVSPropertyOp3
 70
     1
102
RTVSPropertyOp4
 70
     1
102
RTVSPropertyOp5
 70
     1
102
RTVSPropertyOp6
 70
     1
102
RTVSPropertyOp7
 70
     1
102
RTVSPropertyOp8
 70
     1
102
RTVSPropertyOp9
 70
     1
102
RTVSPropertyOp10
 70
     1
102
RTVSPropertyOp11
 70
     1
102
RTVSPropertyOp12
 70
     1
102
RTVSPropertyOp13
 70
     1
102
RTVSPropertyOp14
 70
     1
102
RTVSPropertyOp15
 70
     1
102
RTVSPropertyOp16
 70
     1
102
RTVSPropertyOp17
 70
     1
102
RTVSPropertyOp18
 70
     1
102
RTVSPropertyOp19
 70
     1
102
RTVSPropertyOp20
 70
     1
102
RTVSPropertyOp21
 70
     1
102
RTVSPropertyOp22
 70
     1
102
RTVSPropertyOp23
 70
     1
102
RTVSPropertyOp24
 70
     1
102
RTVSPropertyOp25
 70
     1
102
RTVSPropertyOp26
 70
     1
102
RTVSPropertyOp27
 70
     1
102
RTVSPropertyOp28
 70
     1
102
RTVSPropertyOp29
 70
     1
102
RTVSPropertyOp30
 70
     1
102
RTVSPropertyOp31
 70
     1
102
RTVSPropertyOp32
 70
     1
  0
XRECORD
  5
B0EE
102
{ACAD_REACTORS
330
B0ED
102
}
330
B0ED
100
AcDbXrecord
280
     1
102
RTVSPropertyOp0
 70
     1
102
RTVSPropertyOp1
 70
     1
102
RTVSPropertyOp2
 70
     1
102
RTVSPropertyOp3
 70
     1
102
RTVSPropertyOp4
 70
     1
102
RTVSPropertyOp5
 70
     1
102
RTVSPropertyOp6
 70
     1
102
RTVSPropertyOp7
 70
     1
102
RTVSPropertyOp8
 70
     1
102
RTVSPropertyOp9
 70
     1
102
RTVSPropertyOp10
 70
     1
102
RTVSPropertyOp11
 70
     1
102
RTVSPropertyOp12
 70
     1
102
RTVSPropertyOp13
 70
     1
102
RTVSPropertyOp14
 70
     1
102
RTVSPropertyOp15
 70
     1
102
RTVSPropertyOp16
 70
     1
102
RTVSPropertyOp17
 70
     1
102
RTVSPropertyOp18
 70
     1
102
RTVSPropertyOp19
 70
     1
102
RTVSPropertyOp20
 70
     1
102
RTVSPropertyOp21
 70
     1
102
RTVSPropertyOp22
 70
     1
102
RTVSPropertyOp23
 70
     1
102
RTVSPropertyOp24
 70
     1
102
RTVSPropertyOp25
 70
     1
102
RTVSPropertyOp26
 70
     1
102
RTVSPropertyOp27
 70
     1
102
RTVSPropertyOp28
 70
     1
102
RTVSPropertyOp29
 70
     1
102
RTVSPropertyOp30
 70
     1
102
RTVSPropertyOp31
 70
     1
102
RTVSPropertyOp32
 70
     1
  0
XRECORD
  5
B0FC
102
{ACAD_REACTORS
330
B0FB
102
}
330
B0FB
100
AcDbXrecord
280
     1
102
RTVSPropertyOp0
 70
     1
102
RTVSPropertyOp1
 70
     1
102
RTVSPropertyOp2
 70
     1
102
RTVSPropertyOp3
 70
     1
102
RTVSPropertyOp4
 70
     1
102
RTVSPropertyOp5
 70
     1
102
RTVSPropertyOp6
 70
     1
102
RTVSPropertyOp7
 70
     1
102
RTVSPropertyOp8
 70
     1
102
RTVSPropertyOp9
 70
     1
102
RTVSPropertyOp10
 70
     1
102
RTVSPropertyOp11
 70
     1
102
RTVSPropertyOp12
 70
     1
102
RTVSPropertyOp13
 70
     1
102
RTVSPropertyOp14
 70
     1
102
RTVSPropertyOp15
 70
     1
102
RTVSPropertyOp16
 70
     1
102
RTVSPropertyOp17
 70
     1
102
RTVSPropertyOp18
 70
     1
102
RTVSPropertyOp19
 70
     1
102
RTVSPropertyOp20
 70
     1
102
RTVSPropertyOp21
 70
     1
102
RTVSPropertyOp22
 70
     1
102
RTVSPropertyOp23
 70
     1
102
RTVSPropertyOp24
 70
     1
102
RTVSPropertyOp25
 70
     1
102
RTVSPropertyOp26
 70
     1
102
RTVSPropertyOp27
 70
     1
102
RTVSPropertyOp28
 70
     1
102
RTVSPropertyOp29
 70
     1
102
RTVSPropertyOp30
 70
     1
102
RTVSPropertyOp31
 70
     1
102
RTVSPropertyOp32
 70
     1
  0
XRECORD
  5
B104
102
{ACAD_REACTORS
330
B103
102
}
330
B103
100
AcDbXrecord
280
     1
102
RTVSPropertyOp0
 70
     1
102
RTVSPropertyOp1
 70
     1
102
RTVSPropertyOp2
 70
     1
102
RTVSPropertyOp3
 70
     1
102
RTVSPropertyOp4
 70
     1
102
RTVSPropertyOp5
 70
     1
102
RTVSPropertyOp6
 70
     1
102
RTVSPropertyOp7
 70
     1
102
RTVSPropertyOp8
 70
     1
102
RTVSPropertyOp9
 70
     1
102
RTVSPropertyOp10
 70
     1
102
RTVSPropertyOp11
 70
     1
102
RTVSPropertyOp12
 70
     1
102
RTVSPropertyOp13
 70
     1
102
RTVSPropertyOp14
 70
     1
102
RTVSPropertyOp15
 70
     1
102
RTVSPropertyOp16
 70
     1
102
RTVSPropertyOp17
 70
     1
102
RTVSPropertyOp18
 70
     1
102
RTVSPropertyOp19
 70
     1
102
RTVSPropertyOp20
 70
     1
102
RTVSPropertyOp21
 70
     1
102
RTVSPropertyOp22
 70
     1
102
RTVSPropertyOp23
 70
     1
102
RTVSPropertyOp24
 70
     1
102
RTVSPropertyOp25
 70
     1
102
RTVSPropertyOp26
 70
     1
102
RTVSPropertyOp27
 70
     1
102
RTVSPropertyOp28
 70
     1
102
RTVSPropertyOp29
 70
     1
102
RTVSPropertyOp30
 70
     1
102
RTVSPropertyOp31
 70
     1
102
RTVSPropertyOp32
 70
     1
  0
XRECORD
  5
B0F6
102
{ACAD_REACTORS
330
B0F5
102
}
330
B0F5
100
AcDbXrecord
280
     1
102
RTVSPropertyOp0
 70
     1
102
RTVSPropertyOp1
 70
     1
102
RTVSPropertyOp2
 70
     1
102
RTVSPropertyOp3
 70
     1
102
RTVSPropertyOp4
 70
     1
102
RTVSPropertyOp5
 70
     1
102
RTVSPropertyOp6
 70
     1
102
RTVSPropertyOp7
 70
     1
102
RTVSPropertyOp8
 70
     1
102
RTVSPropertyOp9
 70
     1
102
RTVSPropertyOp10
 70
     1
102
RTVSPropertyOp11
 70
     1
102
RTVSPropertyOp12
 70
     1
102
RTVSPropertyOp13
 70
     1
102
RTVSPropertyOp14
 70
     1
102
RTVSPropertyOp15
 70
     1
102
RTVSPropertyOp16
 70
     1
102
RTVSPropertyOp17
 70
     1
102
RTVSPropertyOp18
 70
     1
102
RTVSPropertyOp19
 70
     1
102
RTVSPropertyOp20
 70
     1
102
RTVSPropertyOp21
 70
     1
102
RTVSPropertyOp22
 70
     1
102
RTVSPropertyOp23
 70
     1
102
RTVSPropertyOp24
 70
     1
102
RTVSPropertyOp25
 70
     1
102
RTVSPropertyOp26
 70
     1
102
RTVSPropertyOp27
 70
     1
102
RTVSPropertyOp28
 70
     1
102
RTVSPropertyOp29
 70
     1
102
RTVSPropertyOp30
 70
     1
102
RTVSPropertyOp31
 70
     1
102
RTVSPropertyOp32
 70
     1
  0
XRECORD
  5
B0FA
102
{ACAD_REACTORS
330
B0F9
102
}
330
B0F9
100
AcDbXrecord
280
     1
102
RTVSPropertyOp0
 70
     1
102
RTVSPropertyOp1
 70
     1
102
RTVSPropertyOp2
 70
     1
102
RTVSPropertyOp3
 70
     1
102
RTVSPropertyOp4
 70
     1
102
RTVSPropertyOp5
 70
     1
102
RTVSPropertyOp6
 70
     1
102
RTVSPropertyOp7
 70
     1
102
RTVSPropertyOp8
 70
     1
102
RTVSPropertyOp9
 70
     1
102
RTVSPropertyOp10
 70
     1
102
RTVSPropertyOp11
 70
     1
102
RTVSPropertyOp12
 70
     1
102
RTVSPropertyOp13
 70
     1
102
RTVSPropertyOp14
 70
     1
102
RTVSPropertyOp15
 70
     1
102
RTVSPropertyOp16
 70
     1
102
RTVSPropertyOp17
 70
     1
102
RTVSPropertyOp18
 70
     1
102
RTVSPropertyOp19
 70
     1
102
RTVSPropertyOp20
 70
     1
102
RTVSPropertyOp21
 70
     1
102
RTVSPropertyOp22
 70
     1
102
RTVSPropertyOp23
 70
     1
102
RTVSPropertyOp24
 70
     1
102
RTVSPropertyOp25
 70
     1
102
RTVSPropertyOp26
 70
     1
102
RTVSPropertyOp27
 70
     1
102
RTVSPropertyOp28
 70
     1
102
RTVSPropertyOp29
 70
     1
102
RTVSPropertyOp30
 70
     1
102
RTVSPropertyOp31
 70
     1
102
RTVSPropertyOp32
 70
     1
  0
XRECORD
  5
B114
102
{ACAD_REACTORS
330
B113
102
}
330
B113
100
AcDbXrecord
280
     1
102
RTVSPropertyOp0
 70
     0
102
RTVSPropertyOp1
 70
     0
102
RTVSPropertyOp2
 70
     0
102
RTVSPropertyOp3
 70
     0
102
RTVSPropertyOp4
 70
     0
102
RTVSPropertyOp5
 70
     0
102
RTVSPropertyOp6
 70
     0
102
RTVSPropertyOp7
 70
     0
102
RTVSPropertyOp8
 70
     0
102
RTVSPropertyOp9
 70
     0
102
RTVSPropertyOp10
 70
     0
102
RTVSPropertyOp11
 70
     0
102
RTVSPropertyOp12
 70
     0
102
RTVSPropertyOp13
 70
     0
102
RTVSPropertyOp14
 70
     2
102
RTVSPropertyOp15
 70
     0
102
RTVSPropertyOp16
 70
     0
102
RTVSPropertyOp17
 70
     0
102
RTVSPropertyOp18
 70
     0
102
RTVSPropertyOp19
 70
     0
102
RTVSPropertyOp20
 70
     0
102
RTVSPropertyOp21
 70
     0
102
RTVSPropertyOp22
 70
     0
102
RTVSPropertyOp23
 70
     0
102
RTVSPropertyOp24
 70
     0
102
RTVSPropertyOp25
 70
     0
102
RTVSPropertyOp26
 70
     0
102
RTVSPropertyOp27
 70
     0
102
RTVSPropertyOp28
 70
     1
102
RTVSPropertyOp29
 70
     1
102
RTVSPropertyOp30
 70
     1
102
RTVSPropertyOp31
 70
     1
102
RTVSPropertyOp32
 70
     1
  0
XRECORD
  5
B102
102
{ACAD_REACTORS
330
B101
102
}
330
B101
100
AcDbXrecord
280
     1
102
RTVSPropertyOp0
 70
     1
102
RTVSPropertyOp1
 70
     1
102
RTVSPropertyOp2
 70
     1
102
RTVSPropertyOp3
 70
     1
102
RTVSPropertyOp4
 70
     1
102
RTVSPropertyOp5
 70
     1
102
RTVSPropertyOp6
 70
     1
102
RTVSPropertyOp7
 70
     1
102
RTVSPropertyOp8
 70
     1
102
RTVSPropertyOp9
 70
     1
102
RTVSPropertyOp10
 70
     1
102
RTVSPropertyOp11
 70
     1
102
RTVSPropertyOp12
 70
     1
102
RTVSPropertyOp13
 70
     1
102
RTVSPropertyOp14
 70
     1
102
RTVSPropertyOp15
 70
     1
102
RTVSPropertyOp16
 70
     1
102
RTVSPropertyOp17
 70
     1
102
RTVSPropertyOp18
 70
     1
102
RTVSPropertyOp19
 70
     1
102
RTVSPropertyOp20
 70
     1
102
RTVSPropertyOp21
 70
     1
102
RTVSPropertyOp22
 70
     1
102
RTVSPropertyOp23
 70
     1
102
RTVSPropertyOp24
 70
     1
102
RTVSPropertyOp25
 70
     1
102
RTVSPropertyOp26
 70
     1
102
RTVSPropertyOp27
 70
     1
102
RTVSPropertyOp28
 70
     1
102
RTVSPropertyOp29
 70
     1
102
RTVSPropertyOp30
 70
     1
102
RTVSPropertyOp31
 70
     1
102
RTVSPropertyOp32
 70
     1
  0
XRECORD
  5
B0E6
102
{ACAD_REACTORS
330
B0E5
102
}
330
B0E5
100
AcDbXrecord
280
     1
102
RTVSPropertyOp0
 70
     1
102
RTVSPropertyOp1
 70
     1
102
RTVSPropertyOp2
 70
     1
102
RTVSPropertyOp3
 70
     1
102
RTVSPropertyOp4
 70
     1
102
RTVSPropertyOp5
 70
     1
102
RTVSPropertyOp6
 70
     1
102
RTVSPropertyOp7
 70
     1
102
RTVSPropertyOp8
 70
     1
102
RTVSPropertyOp9
 70
     1
102
RTVSPropertyOp10
 70
     1
102
RTVSPropertyOp11
 70
     1
102
RTVSPropertyOp12
 70
     1
102
RTVSPropertyOp13
 70
     1
102
RTVSPropertyOp14
 70
     1
102
RTVSPropertyOp15
 70
     1
102
RTVSPropertyOp16
 70
     1
102
RTVSPropertyOp17
 70
     1
102
RTVSPropertyOp18
 70
     1
102
RTVSPropertyOp19
 70
     1
102
RTVSPropertyOp20
 70
     1
102
RTVSPropertyOp21
 70
     1
102
RTVSPropertyOp22
 70
     1
102
RTVSPropertyOp23
 70
     1
102
RTVSPropertyOp24
 70
     1
102
RTVSPropertyOp25
 70
     1
102
RTVSPropertyOp26
 70
     1
102
RTVSPropertyOp27
 70
     1
102
RTVSPropertyOp28
 70
     1
102
RTVSPropertyOp29
 70
     1
102
RTVSPropertyOp30
 70
     1
102
RTVSPropertyOp31
 70
     1
102
RTVSPropertyOp32
 70
     1
  0
XRECORD
  5
B0E8
102
{ACAD_REACTORS
330
B0E7
102
}
330
B0E7
100
AcDbXrecord
280
     1
102
RTVSPropertyOp0
 70
     1
102
RTVSPropertyOp1
 70
     1
102
RTVSPropertyOp2
 70
     1
102
RTVSPropertyOp3
 70
     1
102
RTVSPropertyOp4
 70
     1
102
RTVSPropertyOp5
 70
     1
102
RTVSPropertyOp6
 70
     1
102
RTVSPropertyOp7
 70
     1
102
RTVSPropertyOp8
 70
     1
102
RTVSPropertyOp9
 70
     1
102
RTVSPropertyOp10
 70
     1
102
RTVSPropertyOp11
 70
     1
102
RTVSPropertyOp12
 70
     1
102
RTVSPropertyOp13
 70
     1
102
RTVSPropertyOp14
 70
     1
102
RTVSPropertyOp15
 70
     1
102
RTVSPropertyOp16
 70
     1
102
RTVSPropertyOp17
 70
     1
102
RTVSPropertyOp18
 70
     1
102
RTVSPropertyOp19
 70
     1
102
RTVSPropertyOp20
 70
     1
102
RTVSPropertyOp21
 70
     1
102
RTVSPropertyOp22
 70
     1
102
RTVSPropertyOp23
 70
     1
102
RTVSPropertyOp24
 70
     1
102
RTVSPropertyOp25
 70
     1
102
RTVSPropertyOp26
 70
     1
102
RTVSPropertyOp27
 70
     1
102
RTVSPropertyOp28
 70
     1
102
RTVSPropertyOp29
 70
     1
102
RTVSPropertyOp30
 70
     1
102
RTVSPropertyOp31
 70
     1
102
RTVSPropertyOp32
 70
     1
  0
XRECORD
  5
B0EA
102
{ACAD_REACTORS
330
B0E9
102
}
330
B0E9
100
AcDbXrecord
280
     1
102
RTVSPropertyOp0
 70
     1
102
RTVSPropertyOp1
 70
     1
102
RTVSPropertyOp2
 70
     1
102
RTVSPropertyOp3
 70
     1
102
RTVSPropertyOp4
 70
     1
102
RTVSPropertyOp5
 70
     1
102
RTVSPropertyOp6
 70
     1
102
RTVSPropertyOp7
 70
     1
102
RTVSPropertyOp8
 70
     1
102
RTVSPropertyOp9
 70
     1
102
RTVSPropertyOp10
 70
     1
102
RTVSPropertyOp11
 70
     1
102
RTVSPropertyOp12
 70
     1
102
RTVSPropertyOp13
 70
     1
102
RTVSPropertyOp14
 70
     1
102
RTVSPropertyOp15
 70
     1
102
RTVSPropertyOp16
 70
     1
102
RTVSPropertyOp17
 70
     1
102
RTVSPropertyOp18
 70
     1
102
RTVSPropertyOp19
 70
     1
102
RTVSPropertyOp20
 70
     1
102
RTVSPropertyOp21
 70
     1
102
RTVSPropertyOp22
 70
     1
102
RTVSPropertyOp23
 70
     1
102
RTVSPropertyOp24
 70
     1
102
RTVSPropertyOp25
 70
     1
102
RTVSPropertyOp26
 70
     1
102
RTVSPropertyOp27
 70
     1
102
RTVSPropertyOp28
 70
     1
102
RTVSPropertyOp29
 70
     1
102
RTVSPropertyOp30
 70
     1
102
RTVSPropertyOp31
 70
     1
102
RTVSPropertyOp32
 70
     1
  0
XRECORD
  5
B0EC
102
{ACAD_REACTORS
330
B0EB
102
}
330
B0EB
100
AcDbXrecord
280
     1
102
RTVSPropertyOp0
 70
     1
102
RTVSPropertyOp1
 70
     1
102
RTVSPropertyOp2
 70
     1
102
RTVSPropertyOp3
 70
     1
102
RTVSPropertyOp4
 70
     1
102
RTVSPropertyOp5
 70
     1
102
RTVSPropertyOp6
 70
     1
102
RTVSPropertyOp7
 70
     1
102
RTVSPropertyOp8
 70
     1
102
RTVSPropertyOp9
 70
     1
102
RTVSPropertyOp10
 70
     1
102
RTVSPropertyOp11
 70
     1
102
RTVSPropertyOp12
 70
     1
102
RTVSPropertyOp13
 70
     1
102
RTVSPropertyOp14
 70
     1
102
RTVSPropertyOp15
 70
     1
102
RTVSPropertyOp16
 70
     1
102
RTVSPropertyOp17
 70
     1
102
RTVSPropertyOp18
 70
     1
102
RTVSPropertyOp19
 70
     1
102
RTVSPropertyOp20
 70
     1
102
RTVSPropertyOp21
 70
     1
102
RTVSPropertyOp22
 70
     1
102
RTVSPropertyOp23
 70
     1
102
RTVSPropertyOp24
 70
     1
102
RTVSPropertyOp25
 70
     1
102
RTVSPropertyOp26
 70
     1
102
RTVSPropertyOp27
 70
     1
102
RTVSPropertyOp28
 70
     1
102
RTVSPropertyOp29
 70
     1
102
RTVSPropertyOp30
 70
     1
102
RTVSPropertyOp31
 70
     1
102
RTVSPropertyOp32
 70
     1
  0
XRECORD
  5
B0F4
102
{ACAD_REACTORS
330
B0F3
102
}
330
B0F3
100
AcDbXrecord
280
     1
102
RTVSPropertyOp0
 70
     1
102
RTVSPropertyOp1
 70
     1
102
RTVSPropertyOp2
 70
     1
102
RTVSPropertyOp3
 70
     1
102
RTVSPropertyOp4
 70
     1
102
RTVSPropertyOp5
 70
     1
102
RTVSPropertyOp6
 70
     1
102
RTVSPropertyOp7
 70
     1
102
RTVSPropertyOp8
 70
     1
102
RTVSPropertyOp9
 70
     1
102
RTVSPropertyOp10
 70
     1
102
RTVSPropertyOp11
 70
     1
102
RTVSPropertyOp12
 70
     1
102
RTVSPropertyOp13
 70
     1
102
RTVSPropertyOp14
 70
     1
102
RTVSPropertyOp15
 70
     1
102
RTVSPropertyOp16
 70
     1
102
RTVSPropertyOp17
 70
     1
102
RTVSPropertyOp18
 70
     1
102
RTVSPropertyOp19
 70
     1
102
RTVSPropertyOp20
 70
     1
102
RTVSPropertyOp21
 70
     1
102
RTVSPropertyOp22
 70
     1
102
RTVSPropertyOp23
 70
     1
102
RTVSPropertyOp24
 70
     1
102
RTVSPropertyOp25
 70
     1
102
RTVSPropertyOp26
 70
     1
102
RTVSPropertyOp27
 70
     1
102
RTVSPropertyOp28
 70
     1
102
RTVSPropertyOp29
 70
     1
102
RTVSPropertyOp30
 70
     1
102
RTVSPropertyOp31
 70
     1
102
RTVSPropertyOp32
 70
     1
  0
XRECORD
  5
B110
102
{ACAD_REACTORS
330
B10F
102
}
330
B10F
100
AcDbXrecord
280
     1
102
RTVSPropertyOp0
 70
     0
102
RTVSPropertyOp1
 70
     0
102
RTVSPropertyOp2
 70
     0
102
RTVSPropertyOp3
 70
     0
102
RTVSPropertyOp4
 70
     0
102
RTVSPropertyOp5
 70
     0
102
RTVSPropertyOp6
 70
     0
102
RTVSPropertyOp7
 70
     0
102
RTVSPropertyOp8
 70
     0
102
RTVSPropertyOp9
 70
     0
102
RTVSPropertyOp10
 70
     0
102
RTVSPropertyOp11
 70
     0
102
RTVSPropertyOp12
 70
     0
102
RTVSPropertyOp13
 70
     0
102
RTVSPropertyOp14
 70
     2
102
RTVSPropertyOp15
 70
     0
102
RTVSPropertyOp16
 70
     0
102
RTVSPropertyOp17
 70
     0
102
RTVSPropertyOp18
 70
     0
102
RTVSPropertyOp19
 70
     0
102
RTVSPropertyOp20
 70
     0
102
RTVSPropertyOp21
 70
     0
102
RTVSPropertyOp22
 70
     0
102
RTVSPropertyOp23
 70
     0
102
RTVSPropertyOp24
 70
     0
102
RTVSPropertyOp25
 70
     0
102
RTVSPropertyOp26
 70
     0
102
RTVSPropertyOp27
 70
     0
102
RTVSPropertyOp28
 70
     1
102
RTVSPropertyOp29
 70
     1
102
RTVSPropertyOp30
 70
     1
102
RTVSPropertyOp31
 70
     1
102
RTVSPropertyOp32
 70
     1
  0
XRECORD
  5
B100
102
{ACAD_REACTORS
330
B0FF
102
}
330
B0FF
100
AcDbXrecord
280
     1
102
RTVSPropertyOp0
 70
     1
102
RTVSPropertyOp1
 70
     1
102
RTVSPropertyOp2
 70
     1
102
RTVSPropertyOp3
 70
     1
102
RTVSPropertyOp4
 70
     1
102
RTVSPropertyOp5
 70
     1
102
RTVSPropertyOp6
 70
     1
102
RTVSPropertyOp7
 70
     1
102
RTVSPropertyOp8
 70
     1
102
RTVSPropertyOp9
 70
     1
102
RTVSPropertyOp10
 70
     1
102
RTVSPropertyOp11
 70
     1
102
RTVSPropertyOp12
 70
     1
102
RTVSPropertyOp13
 70
     1
102
RTVSPropertyOp14
 70
     1
102
RTVSPropertyOp15
 70
     1
102
RTVSPropertyOp16
 70
     1
102
RTVSPropertyOp17
 70
     1
102
RTVSPropertyOp18
 70
     1
102
RTVSPropertyOp19
 70
     1
102
RTVSPropertyOp20
 70
     1
102
RTVSPropertyOp21
 70
     1
102
RTVSPropertyOp22
 70
     1
102
RTVSPropertyOp23
 70
     1
102
RTVSPropertyOp24
 70
     1
102
RTVSPropertyOp25
 70
     1
102
RTVSPropertyOp26
 70
     1
102
RTVSPropertyOp27
 70
     1
102
RTVSPropertyOp28
 70
     1
102
RTVSPropertyOp29
 70
     1
102
RTVSPropertyOp30
 70
     1
102
RTVSPropertyOp31
 70
     1
102
RTVSPropertyOp32
 70
     1
  0
XRECORD
  5
B112
102
{ACAD_REACTORS
330
B111
102
}
330
B111
100
AcDbXrecord
280
     1
102
RTVSPropertyOp0
 70
     0
102
RTVSPropertyOp1
 70
     0
102
RTVSPropertyOp2
 70
     0
102
RTVSPropertyOp3
 70
     0
102
RTVSPropertyOp4
 70
     0
102
RTVSPropertyOp5
 70
     0
102
RTVSPropertyOp6
 70
     0
102
RTVSPropertyOp7
 70
     0
102
RTVSPropertyOp8
 70
     0
102
RTVSPropertyOp9
 70
     0
102
RTVSPropertyOp10
 70
     0
102
RTVSPropertyOp11
 70
     0
102
RTVSPropertyOp12
 70
     0
102
RTVSPropertyOp13
 70
     0
102
RTVSPropertyOp14
 70
     2
102
RTVSPropertyOp15
 70
     0
102
RTVSPropertyOp16
 70
     0
102
RTVSPropertyOp17
 70
     0
102
RTVSPropertyOp18
 70
     0
102
RTVSPropertyOp19
 70
     0
102
RTVSPropertyOp20
 70
     0
102
RTVSPropertyOp21
 70
     0
102
RTVSPropertyOp22
 70
     0
102
RTVSPropertyOp23
 70
     0
102
RTVSPropertyOp24
 70
     0
102
RTVSPropertyOp25
 70
     0
102
RTVSPropertyOp26
 70
     0
102
RTVSPropertyOp27
 70
     0
102
RTVSPropertyOp28
 70
     1
102
RTVSPropertyOp29
 70
     1
102
RTVSPropertyOp30
 70
     1
102
RTVSPropertyOp31
 70
     1
102
RTVSPropertyOp32
 70
     1
  0
XRECORD
  5
B0F8
102
{ACAD_REACTORS
330
B0F7
102
}
330
B0F7
100
AcDbXrecord
280
     1
102
RTVSPropertyOp0
 70
     1
102
RTVSPropertyOp1
 70
     1
102
RTVSPropertyOp2
 70
     1
102
RTVSPropertyOp3
 70
     1
102
RTVSPropertyOp4
 70
     1
102
RTVSPropertyOp5
 70
     1
102
RTVSPropertyOp6
 70
     1
102
RTVSPropertyOp7
 70
     1
102
RTVSPropertyOp8
 70
     1
102
RTVSPropertyOp9
 70
     1
102
RTVSPropertyOp10
 70
     1
102
RTVSPropertyOp11
 70
     1
102
RTVSPropertyOp12
 70
     1
102
RTVSPropertyOp13
 70
     1
102
RTVSPropertyOp14
 70
     1
102
RTVSPropertyOp15
 70
     1
102
RTVSPropertyOp16
 70
     1
102
RTVSPropertyOp17
 70
     1
102
RTVSPropertyOp18
 70
     1
102
RTVSPropertyOp19
 70
     1
102
RTVSPropertyOp20
 70
     1
102
RTVSPropertyOp21
 70
     1
102
RTVSPropertyOp22
 70
     1
102
RTVSPropertyOp23
 70
     1
102
RTVSPropertyOp24
 70
     1
102
RTVSPropertyOp25
 70
     1
102
RTVSPropertyOp26
 70
     1
102
RTVSPropertyOp27
 70
     1
102
RTVSPropertyOp28
 70
     1
102
RTVSPropertyOp29
 70
     1
102
RTVSPropertyOp30
 70
     1
102
RTVSPropertyOp31
 70
     1
102
RTVSPropertyOp32
 70
     1
  0
XRECORD
  5
B10E
102
{ACAD_REACTORS
330
B10D
102
}
330
B10D
100
AcDbXrecord
280
     1
102
RTVSPropertyOp0
 70
     1
102
RTVSPropertyOp1
 70
     1
102
RTVSPropertyOp2
 70
     1
102
RTVSPropertyOp3
 70
     1
102
RTVSPropertyOp4
 70
     1
102
RTVSPropertyOp5
 70
     1
102
RTVSPropertyOp6
 70
     1
102
RTVSPropertyOp7
 70
     1
102
RTVSPropertyOp8
 70
     1
102
RTVSPropertyOp9
 70
     1
102
RTVSPropertyOp10
 70
     1
102
RTVSPropertyOp11
 70
     1
102
RTVSPropertyOp12
 70
     1
102
RTVSPropertyOp13
 70
     1
102
RTVSPropertyOp14
 70
     1
102
RTVSPropertyOp15
 70
     1
102
RTVSPropertyOp16
 70
     1
102
RTVSPropertyOp17
 70
     1
102
RTVSPropertyOp18
 70
     1
102
RTVSPropertyOp19
 70
     1
102
RTVSPropertyOp20
 70
     1
102
RTVSPropertyOp21
 70
     1
102
RTVSPropertyOp22
 70
     1
102
RTVSPropertyOp23
 70
     1
102
RTVSPropertyOp24
 70
     1
102
RTVSPropertyOp25
 70
     1
102
RTVSPropertyOp26
 70
     1
102
RTVSPropertyOp27
 70
     1
102
RTVSPropertyOp28
 70
     1
102
RTVSPropertyOp29
 70
     1
102
RTVSPropertyOp30
 70
     1
102
RTVSPropertyOp31
 70
     1
102
RTVSPropertyOp32
 70
     1
  0
XRECORD
  5
B10C
102
{ACAD_REACTORS
330
B10B
102
}
330
B10B
100
AcDbXrecord
280
     1
102
RTVSPropertyOp0
 70
     1
102
RTVSPropertyOp1
 70
     1
102
RTVSPropertyOp2
 70
     1
102
RTVSPropertyOp3
 70
     1
102
RTVSPropertyOp4
 70
     1
102
RTVSPropertyOp5
 70
     1
102
RTVSPropertyOp6
 70
     1
102
RTVSPropertyOp7
 70
     1
102
RTVSPropertyOp8
 70
     1
102
RTVSPropertyOp9
 70
     1
102
RTVSPropertyOp10
 70
     1
102
RTVSPropertyOp11
 70
     1
102
RTVSPropertyOp12
 70
     1
102
RTVSPropertyOp13
 70
     1
102
RTVSPropertyOp14
 70
     1
102
RTVSPropertyOp15
 70
     1
102
RTVSPropertyOp16
 70
     1
102
RTVSPropertyOp17
 70
     1
102
RTVSPropertyOp18
 70
     1
102
RTVSPropertyOp19
 70
     1
102
RTVSPropertyOp20
 70
     1
102
RTVSPropertyOp21
 70
     1
102
RTVSPropertyOp22
 70
     1
102
RTVSPropertyOp23
 70
     1
102
RTVSPropertyOp24
 70
     1
102
RTVSPropertyOp25
 70
     1
102
RTVSPropertyOp26
 70
     1
102
RTVSPropertyOp27
 70
     1
102
RTVSPropertyOp28
 70
     1
102
RTVSPropertyOp29
 70
     1
102
RTVSPropertyOp30
 70
     1
102
RTVSPropertyOp31
 70
     1
102
RTVSPropertyOp32
 70
     1
  0
XRECORD
  5
B106
102
{ACAD_REACTORS
330
B105
102
}
330
B105
100
AcDbXrecord
280
     1
102
RTVSPropertyOp0
 70
     1
102
RTVSPropertyOp1
 70
     1
102
RTVSPropertyOp2
 70
     1
102
RTVSPropertyOp3
 70
     1
102
RTVSPropertyOp4
 70
     1
102
RTVSPropertyOp5
 70
     1
102
RTVSPropertyOp6
 70
     1
102
RTVSPropertyOp7
 70
     1
102
RTVSPropertyOp8
 70
     1
102
RTVSPropertyOp9
 70
     1
102
RTVSPropertyOp10
 70
     1
102
RTVSPropertyOp11
 70
     1
102
RTVSPropertyOp12
 70
     1
102
RTVSPropertyOp13
 70
     1
102
RTVSPropertyOp14
 70
     1
102
RTVSPropertyOp15
 70
     1
102
RTVSPropertyOp16
 70
     1
102
RTVSPropertyOp17
 70
     1
102
RTVSPropertyOp18
 70
     1
102
RTVSPropertyOp19
 70
     1
102
RTVSPropertyOp20
 70
     1
102
RTVSPropertyOp21
 70
     1
102
RTVSPropertyOp22
 70
     1
102
RTVSPropertyOp23
 70
     1
102
RTVSPropertyOp24
 70
     1
102
RTVSPropertyOp25
 70
     1
102
RTVSPropertyOp26
 70
     1
102
RTVSPropertyOp27
 70
     1
102
RTVSPropertyOp28
 70
     1
102
RTVSPropertyOp29
 70
     1
102
RTVSPropertyOp30
 70
     1
102
RTVSPropertyOp31
 70
     1
102
RTVSPropertyOp32
 70
     1
  0
XRECORD
  5
B108
102
{ACAD_REACTORS
330
B107
102
}
330
B107
100
AcDbXrecord
280
     1
102
RTVSPropertyOp0
 70
     1
102
RTVSPropertyOp1
 70
     1
102
RTVSPropertyOp2
 70
     1
102
RTVSPropertyOp3
 70
     1
102
RTVSPropertyOp4
 70
     1
102
RTVSPropertyOp5
 70
     1
102
RTVSPropertyOp6
 70
     1
102
RTVSPropertyOp7
 70
     1
102
RTVSPropertyOp8
 70
     1
102
RTVSPropertyOp9
 70
     1
102
RTVSPropertyOp10
 70
     1
102
RTVSPropertyOp11
 70
     1
102
RTVSPropertyOp12
 70
     1
102
RTVSPropertyOp13
 70
     1
102
RTVSPropertyOp14
 70
     1
102
RTVSPropertyOp15
 70
     1
102
RTVSPropertyOp16
 70
     1
102
RTVSPropertyOp17
 70
     1
102
RTVSPropertyOp18
 70
     1
102
RTVSPropertyOp19
 70
     1
102
RTVSPropertyOp20
 70
     1
102
RTVSPropertyOp21
 70
     1
102
RTVSPropertyOp22
 70
     1
102
RTVSPropertyOp23
 70
     1
102
RTVSPropertyOp24
 70
     1
102
RTVSPropertyOp25
 70
     1
102
RTVSPropertyOp26
 70
     1
102
RTVSPropertyOp27
 70
     1
102
RTVSPropertyOp28
 70
     1
102
RTVSPropertyOp29
 70
     1
102
RTVSPropertyOp30
 70
     1
102
RTVSPropertyOp31
 70
     1
102
RTVSPropertyOp32
 70
     1
  0
XRECORD
  5
B0FE
102
{ACAD_REACTORS
330
B0FD
102
}
330
B0FD
100
AcDbXrecord
280
     1
102
RTVSPropertyOp0
 70
     1
102
RTVSPropertyOp1
 70
     1
102
RTVSPropertyOp2
 70
     1
102
RTVSPropertyOp3
 70
     1
102
RTVSPropertyOp4
 70
     1
102
RTVSPropertyOp5
 70
     1
102
RTVSPropertyOp6
 70
     1
102
RTVSPropertyOp7
 70
     1
102
RTVSPropertyOp8
 70
     1
102
RTVSPropertyOp9
 70
     1
102
RTVSPropertyOp10
 70
     1
102
RTVSPropertyOp11
 70
     1
102
RTVSPropertyOp12
 70
     1
102
RTVSPropertyOp13
 70
     1
102
RTVSPropertyOp14
 70
     1
102
RTVSPropertyOp15
 70
     1
102
RTVSPropertyOp16
 70
     1
102
RTVSPropertyOp17
 70
     1
102
RTVSPropertyOp18
 70
     1
102
RTVSPropertyOp19
 70
     1
102
RTVSPropertyOp20
 70
     1
102
RTVSPropertyOp21
 70
     1
102
RTVSPropertyOp22
 70
     1
102
RTVSPropertyOp23
 70
     1
102
RTVSPropertyOp24
 70
     1
102
RTVSPropertyOp25
 70
     1
102
RTVSPropertyOp26
 70
     1
102
RTVSPropertyOp27
 70
     1
102
RTVSPropertyOp28
 70
     1
102
RTVSPropertyOp29
 70
     1
102
RTVSPropertyOp30
 70
     1
102
RTVSPropertyOp31
 70
     1
102
RTVSPropertyOp32
 70
     1
  0
XRECORD
  5
B0F2
102
{ACAD_REACTORS
330
B0F1
102
}
330
B0F1
100
AcDbXrecord
280
     1
102
RTVSPropertyOp0
 70
     1
102
RTVSPropertyOp1
 70
     1
102
RTVSPropertyOp2
 70
     1
102
RTVSPropertyOp3
 70
     1
102
RTVSPropertyOp4
 70
     1
102
RTVSPropertyOp5
 70
     1
102
RTVSPropertyOp6
 70
     1
102
RTVSPropertyOp7
 70
     1
102
RTVSPropertyOp8
 70
     1
102
RTVSPropertyOp9
 70
     1
102
RTVSPropertyOp10
 70
     1
102
RTVSPropertyOp11
 70
     1
102
RTVSPropertyOp12
 70
     1
102
RTVSPropertyOp13
 70
     1
102
RTVSPropertyOp14
 70
     1
102
RTVSPropertyOp15
 70
     1
102
RTVSPropertyOp16
 70
     1
102
RTVSPropertyOp17
 70
     1
102
RTVSPropertyOp18
 70
     1
102
RTVSPropertyOp19
 70
     1
102
RTVSPropertyOp20
 70
     1
102
RTVSPropertyOp21
 70
     1
102
RTVSPropertyOp22
 70
     1
102
RTVSPropertyOp23
 70
     1
102
RTVSPropertyOp24
 70
     1
102
RTVSPropertyOp25
 70
     1
102
RTVSPropertyOp26
 70
     1
102
RTVSPropertyOp27
 70
     1
102
RTVSPropertyOp28
 70
     1
102
RTVSPropertyOp29
 70
     1
102
RTVSPropertyOp30
 70
     1
102
RTVSPropertyOp31
 70
     1
102
RTVSPropertyOp32
 70
     1
  0
XRECORD
  5
B10A
102
{ACAD_REACTORS
330
B109
102
}
330
B109
100
AcDbXrecord
280
     1
102
RTVSPropertyOp0
 70
     1
102
RTVSPropertyOp1
 70
     1
102
RTVSPropertyOp2
 70
     1
102
RTVSPropertyOp3
 70
     1
102
RTVSPropertyOp4
 70
     1
102
RTVSPropertyOp5
 70
     1
102
RTVSPropertyOp6
 70
     1
102
RTVSPropertyOp7
 70
     1
102
RTVSPropertyOp8
 70
     1
102
RTVSPropertyOp9
 70
     1
102
RTVSPropertyOp10
 70
     1
102
RTVSPropertyOp11
 70
     1
102
RTVSPropertyOp12
 70
     1
102
RTVSPropertyOp13
 70
     1
102
RTVSPropertyOp14
 70
     1
102
RTVSPropertyOp15
 70
     1
102
RTVSPropertyOp16
 70
     1
102
RTVSPropertyOp17
 70
     1
102
RTVSPropertyOp18
 70
     1
102
RTVSPropertyOp19
 70
     1
102
RTVSPropertyOp20
 70
     1
102
RTVSPropertyOp21
 70
     1
102
RTVSPropertyOp22
 70
     1
102
RTVSPropertyOp23
 70
     1
102
RTVSPropertyOp24
 70
     1
102
RTVSPropertyOp25
 70
     1
102
RTVSPropertyOp26
 70
     1
102
RTVSPropertyOp27
 70
     1
102
RTVSPropertyOp28
 70
     1
102
RTVSPropertyOp29
 70
     1
102
RTVSPropertyOp30
 70
     1
102
RTVSPropertyOp31
 70
     1
102
RTVSPropertyOp32
 70
     1
  0
ENDSEC
  0
EOF
