  0
SECTION
  2
HEADER
  9
$ACADVER
  1
AC1018
  9
$ACADMAINTVER
 70
   104
  9
$DWGCODEPAGE
  3
ANSI_932
  9
$LASTSAVEDBY
  1
HON1000CV
  9
$INSBASE
 10
0.0
 20
0.0
 30
0.0
  9
$EXTMIN
 10
1230.043816349986
 20
477.2322186976924
 30
0.0
  9
$EXTMAX
 10
1961.316823349988
 20
1109.368394929834
 30
0.0
  9
$LIMMIN
 10
0.0
 20
0.0
  9
$LIMMAX
 10
420.0
 20
297.0
  9
$ORTHOMODE
 70
     0
  9
$REGENMODE
 70
     1
  9
$FILLMODE
 70
     1
  9
$QTEXTMODE
 70
     0
  9
$MIRRTEXT
 70
     1
  9
$LTSCALE
 40
3.0
  9
$ATTMODE
 70
     1
  9
$TEXTSIZE
 40
5.0
  9
$TRACEWID
 40
0.05
  9
$TEXTSTYLE
  7
ACAD
  9
$CLAYER
  8
0
  9
$CELTYPE
  6
CONTINUOUS
  9
$CECOLOR
 62
   256
  9
$CELTSCALE
 40
1.0
  9
$DISPSILH
 70
     0
  9
$DIMSCALE
 40
1.0
  9
$DIMASZ
 40
1.0
  9
$DIMEXO
 40
0.0
  9
$DIMDLI
 40
0.38
  9
$DIMRND
 40
0.0
  9
$DIMDLE
 40
0.0
  9
$DIMEXE
 40
0.0
  9
$DIMTP
 40
0.0
  9
$DIMTM
 40
0.0
  9
$DIMTXT
 40
6.5
  9
$DIMCEN
 40
0.09
  9
$DIMTSZ
 40
0.0
  9
$DIMTOL
 70
     0
  9
$DIMLIM
 70
     0
  9
$DIMTIH
 70
     0
  9
$DIMTOH
 70
     1
  9
$DIMSE1
 70
     0
  9
$DIMSE2
 70
     0
  9
$DIMTAD
 70
     1
  9
$DIMZIN
 70
     0
  9
$DIMBLK
  1
Dot
  9
$DIMASO
 70
     1
  9
$DIMSHO
 70
     1
  9
$DIMPOST
  1

  9
$DIMAPOST
  1

  9
$DIMALT
 70
     0
  9
$DIMALTD
 70
     2
  9
$DIMALTF
 40
25.4
  9
$DIMLFAC
 40
1.0
  9
$DIMTOFL
 70
     0
  9
$DIMTVP
 40
0.0
  9
$DIMTIX
 70
     1
  9
$DIMSOXD
 70
     0
  9
$DIMSAH
 70
     0
  9
$DIMBLK1
  1

  9
$DIMBLK2
  1

  9
$DIMSTYLE
  2
AutoCAD
  9
$DIMCLRD
 70
     4
  9
$DIMCLRE
 70
     4
  9
$DIMCLRT
 70
     3
  9
$DIMTFAC
 40
1.0
  9
$DIMGAP
 40
3.0
  9
$DIMJUST
 70
     0
  9
$DIMSD1
 70
     0
  9
$DIMSD2
 70
     0
  9
$DIMTOLJ
 70
     1
  9
$DIMTZIN
 70
     0
  9
$DIMALTZ
 70
     0
  9
$DIMALTTZ
 70
     0
  9
$DIMUPT
 70
     0
  9
$DIMDEC
 70
     0
  9
$DIMTDEC
 70
     0
  9
$DIMALTU
 70
     2
  9
$DIMALTTD
 70
     2
  9
$DIMTXSTY
  7
ACAD
  9
$DIMAUNIT
 70
     0
  9
$DIMADEC
 70
     0
  9
$DIMALTRND
 40
0.0
  9
$DIMAZIN
 70
     0
  9
$DIMDSEP
 70
    46
  9
$DIMATFIT
 70
     0
  9
$DIMFRAC
 70
     0
  9
$DIMLDRBLK
  1
None
  9
$DIMLUNIT
 70
     2
  9
$DIMLWD
 70
    -2
  9
$DIMLWE
 70
    -2
  9
$DIMTMOVE
 70
     0
  9
$LUNITS
 70
     2
  9
$LUPREC
 70
     4
  9
$SKETCHINC
 40
0.1
  9
$FILLETRAD
 40
0.0
  9
$AUNITS
 70
     0
  9
$AUPREC
 70
     0
  9
$MENU
  1
.
  9
$ELEVATION
 40
0.0
  9
$PELEVATION
 40
0.0
  9
$THICKNESS
 40
0.0
  9
$LIMCHECK
 70
     0
  9
$CHAMFERA
 40
0.0
  9
$CHAMFERB
 40
0.0
  9
$CHAMFERC
 40
0.0
  9
$CHAMFERD
 40
0.0
  9
$SKPOLY
 70
     0
  9
$TDCREATE
 40
2454316.693457674
  9
$TDUCREATE
 40
2454316.318457674
  9
$TDUPDATE
 40
2455961.442026493
  9
$TDUUPDATE
 40
2455961.067026493
  9
$TDINDWG
 40
0.6229343981
  9
$TDUSRTIMER
 40
0.6229343981
  9
$USRTIMER
 70
     1
  9
$ANGBASE
 50
0.0
  9
$ANGDIR
 70
     0
  9
$PDMODE
 70
     0
  9
$PDSIZE
 40
0.0
  9
$PLINEWID
 40
0.0
  9
$SPLFRAME
 70
     0
  9
$SPLINETYPE
 70
     6
  9
$SPLINESEGS
 70
     8
  9
$HANDSEED
  5
81E4
  9
$SURFTAB1
 70
     6
  9
$SURFTAB2
 70
     6
  9
$SURFTYPE
 70
     6
  9
$SURFU
 70
     6
  9
$SURFV
 70
     6
  9
$UCSBASE
  2

  9
$UCSNAME
  2

  9
$UCSORG
 10
0.0
 20
0.0
 30
0.0
  9
$UCSXDIR
 10
1.0
 20
0.0
 30
0.0
  9
$UCSYDIR
 10
0.0
 20
1.0
 30
0.0
  9
$UCSORTHOREF
  2

  9
$UCSORTHOVIEW
 70
     0
  9
$UCSORGTOP
 10
0.0
 20
0.0
 30
0.0
  9
$UCSORGBOTTOM
 10
0.0
 20
0.0
 30
0.0
  9
$UCSORGLEFT
 10
0.0
 20
0.0
 30
0.0
  9
$UCSORGRIGHT
 10
0.0
 20
0.0
 30
0.0
  9
$UCSORGFRONT
 10
0.0
 20
0.0
 30
0.0
  9
$UCSORGBACK
 10
0.0
 20
0.0
 30
0.0
  9
$PUCSBASE
  2

  9
$PUCSNAME
  2

  9
$PUCSORG
 10
0.0
 20
0.0
 30
0.0
  9
$PUCSXDIR
 10
1.0
 20
0.0
 30
0.0
  9
$PUCSYDIR
 10
0.0
 20
1.0
 30
0.0
  9
$PUCSORTHOREF
  2

  9
$PUCSORTHOVIEW
 70
     0
  9
$PUCSORGTOP
 10
0.0
 20
0.0
 30
0.0
  9
$PUCSORGBOTTOM
 10
0.0
 20
0.0
 30
0.0
  9
$PUCSORGLEFT
 10
0.0
 20
0.0
 30
0.0
  9
$PUCSORGRIGHT
 10
0.0
 20
0.0
 30
0.0
  9
$PUCSORGFRONT
 10
0.0
 20
0.0
 30
0.0
  9
$PUCSORGBACK
 10
0.0
 20
0.0
 30
0.0
  9
$USERI1
 70
     0
  9
$USERI2
 70
     0
  9
$USERI3
 70
     0
  9
$USERI4
 70
     0
  9
$USERI5
 70
     0
  9
$USERR1
 40
0.0
  9
$USERR2
 40
0.0
  9
$USERR3
 40
0.0
  9
$USERR4
 40
0.0
  9
$USERR5
 40
0.0
  9
$WORLDVIEW
 70
     1
  9
$SHADEDGE
 70
     3
  9
$SHADEDIF
 70
    70
  9
$TILEMODE
 70
     1
  9
$MAXACTVP
 70
    48
  9
$PINSBASE
 10
0.0
 20
0.0
 30
0.0
  9
$PLIMCHECK
 70
     0
  9
$PEXTMIN
 10
1.000000000000000E+20
 20
1.000000000000000E+20
 30
1.000000000000000E+20
  9
$PEXTMAX
 10
-1.000000000000000E+20
 20
-1.000000000000000E+20
 30
-1.000000000000000E+20
  9
$PLIMMIN
 10
0.0
 20
0.0
  9
$PLIMMAX
 10
12.0
 20
9.0
  9
$UNITMODE
 70
     0
  9
$VISRETAIN
 70
     0
  9
$PLINEGEN
 70
     0
  9
$PSLTSCALE
 70
     1
  9
$TREEDEPTH
 70
  3020
  9
$CMLSTYLE
  2
Standard
  9
$CMLJUST
 70
     0
  9
$CMLSCALE
 40
1.0
  9
$PROXYGRAPHICS
 70
     1
  9
$MEASUREMENT
 70
     0
  9
$CELWEIGHT
370
    -1
  9
$ENDCAPS
280
     0
  9
$JOINSTYLE
280
     0
  9
$LWDISPLAY
290
     0
  9
$INSUNITS
 70
     0
  9
$HYPERLINKBASE
  1

  9
$STYLESHEET
  1
monochrome.ctb
  9
$XEDIT
290
     1
  9
$CEPSNTYPE
380
     0
  9
$PSTYLEMODE
290
     1
  9
$FINGERPRINTGUID
  2
{CC7D6DEE-A9F1-4F3E-AC95-C84B62CCA3FD}
  9
$VERSIONGUID
  2
{5C13A550-C60C-4441-8AD4-4A35222338A9}
  9
$EXTNAMES
290
     1
  9
$PSVPSCALE
 40
0.0
  9
$OLESTARTUP
290
     0
  9
$SORTENTS
280
   127
  9
$INDEXCTL
280
     0
  9
$HIDETEXT
280
     0
  9
$XCLIPFRAME
290
     0
  9
$HALOGAP
280
     0
  9
$OBSCOLOR
 70
   257
  9
$OBSLTYPE
280
     0
  9
$INTERSECTIONDISPLAY
280
     0
  9
$INTERSECTIONCOLOR
 70
   257
  9
$DIMASSOC
280
     1
  9
$PROJECTNAME
  1

  0
ENDSEC
  0
SECTION
  2
CLASSES
  0
CLASS
  1
ACDBDICTIONARYWDFLT
  2
AcDbDictionaryWithDefault
  3
ObjectDBX Classes
 90
        0
 91
        1
280
     0
281
     0
  0
CLASS
  1
DICTIONARYVAR
  2
AcDbDictionaryVar
  3
ObjectDBX Classes
 90
        0
 91
       10
280
     0
281
     0
  0
CLASS
  1
MATERIAL
  2
AcDbMaterial
  3
ObjectDBX Classes
 90
     1153
 91
        3
280
     0
281
     0
  0
CLASS
  1
VISUALSTYLE
  2
AcDbVisualStyle
  3
ObjectDBX Classes
 90
     4095
 91
       25
280
     0
281
     0
  0
CLASS
  1
TABLESTYLE
  2
AcDbTableStyle
  3
ObjectDBX Classes
 90
     4095
 91
        1
280
     0
281
     0
  0
CLASS
  1
SCALE
  2
AcDbScale
  3
ObjectDBX Classes
 90
     1153
 91
       17
280
     0
281
     0
  0
CLASS
  1
MLEADERSTYLE
  2
AcDbMLeaderStyle
  3
ACDB_MLEADERSTYLE_CLASS
 90
     4095
 91
        1
280
     0
281
     0
  0
CLASS
  1
SORTENTSTABLE
  2
AcDbSortentsTable
  3
ObjectDBX Classes
 90
        0
 91
        1
280
     0
281
     0
  0
CLASS
  1
EXACXREFPANELOBJECT
  2
ExAcXREFPanelObject
  3
EXAC_ESW
 90
     1025
 91
        0
280
     0
281
     0
  0
CLASS
  1
NPOCOLLECTION
  2
AcDbImpNonPersistentObjectsCollection
  3
ObjectDBX Classes
 90
     1153
 91
        0
280
     0
281
     0
  0
CLASS
  1
CELLSTYLEMAP
  2
AcDbCellStyleMap
  3
ObjectDBX Classes
 90
     1152
 91
        2
280
     0
281
     0
  0
ENDSEC
  0
SECTION
  2
TABLES
  0
TABLE
  2
VPORT
  5
8
102
{ACAD_XDICTIONARY
360
7BA6
102
}
330
0
100
AcDbSymbolTable
 70
     1
  0
VPORT
  5
6174
330
8
100
AcDbSymbolTableRecord
100
AcDbViewportTableRecord
  2
*Active
 70
     0
 10
0.0
 20
0.0
 11
1.0
 21
1.0
 12
1595.664836632829
 22
793.2789806987966
 13
0.0
 23
0.0
 14
1.0
 24
1.0
 15
0.0
 25
0.0
 16
0.0
 26
0.0
 36
1.0
 17
0.0
 27
0.0
 37
0.0
 40
637.5321394673974
 41
2.519736842105263
 42
50.0
 43
0.0
 44
0.0
 50
0.0
 51
0.0
 71
     0
 72
   100
 73
     1
 74
     1
 75
     0
 76
     0
 77
     0
 78
     0
281
     0
 65
     1
110
0.0
120
0.0
130
0.0
111
1.0
121
0.0
131
0.0
112
0.0
122
1.0
132
0.0
 79
     0
146
0.0
1001
ACAD_NAV_VCDISPLAY
1070
     3
  0
ENDTAB
  0
TABLE
  2
LTYPE
  5
5
330
0
100
AcDbSymbolTable
 70
     3
  0
LTYPE
  5
13
330
5
100
AcDbSymbolTableRecord
100
AcDbLinetypeTableRecord
  2
ByBlock
 70
     0
  3

 72
    65
 73
     0
 40
0.0
  0
LTYPE
  5
14
330
5
100
AcDbSymbolTableRecord
100
AcDbLinetypeTableRecord
  2
ByLayer
 70
     0
  3

 72
    65
 73
     0
 40
0.0
  0
LTYPE
  5
15
330
5
100
AcDbSymbolTableRecord
100
AcDbLinetypeTableRecord
  2
CONTINUOUS
 70
     0
  3
実線
 72
    65
 73
     0
 40
0.0
  0
LTYPE
  5
25
330
5
100
AcDbSymbolTableRecord
100
AcDbLinetypeTableRecord
  2
CENTER1
 70
     0
  3
----- - ----- - ----- - ----- - 
 72
    65
 73
     4
 40
10.0
 49
6.25
 74
     0
 49
-1.25
 74
     0
 49
1.25
 74
     0
 49
-1.25
 74
     0
  0
LTYPE
  5
44
330
5
100
AcDbSymbolTableRecord
100
AcDbLinetypeTableRecord
  2
PLINE2
 70
     0
  3
------     -----------     -----
 72
    65
 73
     2
 40
3.0
 49
2.1
 74
     0
 49
-0.9
 74
     0
  0
ENDTAB
  0
TABLE
  2
LAYER
  5
2
102
{ACAD_XDICTIONARY
360
175
102
}
330
0
100
AcDbSymbolTable
 70
     6
  0
LAYER
  5
10
102
{ACAD_XDICTIONARY
360
73F4
102
}
330
2
100
AcDbSymbolTableRecord
100
AcDbLayerTableRecord
  2
0
 70
     0
 62
     7
  6
CONTINUOUS
370
    -3
390
F
  0
LAYER
  5
128
330
2
100
AcDbSymbolTableRecord
100
AcDbLayerTableRecord
  2
Defpoints
 70
     0
 62
     7
  6
CONTINUOUS
290
     0
370
    -3
390
F
  0
LAYER
  5
178
102
{ACAD_XDICTIONARY
360
73F6
102
}
330
2
100
AcDbSymbolTableRecord
100
AcDbLayerTableRecord
  2
寸法
 70
     0
 62
     7
  6
CONTINUOUS
370
    -3
390
F
  0
LAYER
  5
179
102
{ACAD_XDICTIONARY
360
73F8
102
}
330
2
100
AcDbSymbolTableRecord
100
AcDbLayerTableRecord
  2
躯体と製品
 70
     0
 62
     7
  6
CONTINUOUS
370
    -3
390
F
  0
LAYER
  5
4F62
102
{ACAD_XDICTIONARY
360
73FA
102
}
330
2
100
AcDbSymbolTableRecord
100
AcDbLayerTableRecord
  2
文字-記号
 70
     0
 62
     7
  6
CONTINUOUS
370
    -3
390
F
  0
LAYER
  5
7473
330
2
100
AcDbSymbolTableRecord
100
AcDbLayerTableRecord
  2
中心線
 70
     0
 62
     7
  6
CONTINUOUS
370
    -3
390
F
1001
AcAecLayerStandard
1000

1000

1001
AcCmTransparency
1071
        0
  0
ENDTAB
  0
TABLE
  2
STYLE
  5
3
330
0
100
AcDbSymbolTable
 70
     2
  0
STYLE
  5
11
330
3
100
AcDbSymbolTableRecord
100
AcDbTextStyleTableRecord
  2
STANDARD
 70
     0
 40
0.0
 41
1.0
 50
0.0
 71
     0
 42
0.2
  3
txt
  4
bigfont.shx
  0
STYLE
  5
123
330
3
100
AcDbSymbolTableRecord
100
AcDbTextStyleTableRecord
  2
ACAD
 70
     0
 40
0.0
 41
1.0
 50
0.0
 71
     0
 42
5.0
  3
romans.shx
  4
extfont.shx
  0
ENDTAB
  0
TABLE
  2
VIEW
  5
6
330
0
100
AcDbSymbolTable
 70
     0
  0
ENDTAB
  0
TABLE
  2
UCS
  5
7
330
0
100
AcDbSymbolTable
 70
     0
  0
ENDTAB
  0
TABLE
  2
APPID
  5
9
330
0
100
AcDbSymbolTable
 70
    10
  0
APPID
  5
12
330
9
100
AcDbSymbolTableRecord
100
AcDbRegAppTableRecord
  2
ACAD
 70
     0
  0
APPID
  5
62FC
330
9
100
AcDbSymbolTableRecord
100
AcDbRegAppTableRecord
  2
AcAecLayerStandard
 70
     0
  0
APPID
  5
62FD
330
9
100
AcDbSymbolTableRecord
100
AcDbRegAppTableRecord
  2
ACAD_DSTYLE_DIMJAG
 70
     0
  0
APPID
  5
62FE
330
9
100
AcDbSymbolTableRecord
100
AcDbRegAppTableRecord
  2
ACAD_DSTYLE_DIMTALN
 70
     0
  0
APPID
  5
62FF
330
9
100
AcDbSymbolTableRecord
100
AcDbRegAppTableRecord
  2
ACAD_PSEXT
 70
     0
  0
APPID
  5
6300
330
9
100
AcDbSymbolTableRecord
100
AcDbRegAppTableRecord
  2
ACAD_NAV_VCDISPLAY
 70
     0
  0
APPID
  5
6301
330
9
100
AcDbSymbolTableRecord
100
AcDbRegAppTableRecord
  2
AcCmTransparency
 70
     0
  0
APPID
  5
7194
330
9
100
AcDbSymbolTableRecord
100
AcDbRegAppTableRecord
  2
ACAD_EXEMPT_FROM_CAD_STANDARDS
 70
     0
  0
APPID
  5
7BDC
330
9
100
AcDbSymbolTableRecord
100
AcDbRegAppTableRecord
  2
ACAD_MLEADERVER
 70
     0
  0
APPID
  5
7BE8
330
9
100
AcDbSymbolTableRecord
100
AcDbRegAppTableRecord
  2
AcadAnnoPO
 70
     0
  0
ENDTAB
  0
TABLE
  2
DIMSTYLE
  5
A
330
0
100
AcDbSymbolTable
 70
     2
100
AcDbDimStyleTable
 71
     1
340
126
  0
DIMSTYLE
105
11C
330
A
100
AcDbSymbolTableRecord
100
AcDbDimStyleTableRecord
  2
Standard
 70
     0
340
11
  0
DIMSTYLE
105
126
102
{ACAD_REACTORS
330
60BD
330
7291
330
7292
330
7711
102
}
330
A
100
AcDbSymbolTableRecord
100
AcDbDimStyleTableRecord
  2
AutoCAD
 70
     0
 41
1.0
 42
0.0
 44
0.0
 73
     0
 77
     1
140
6.5
147
3.0
174
     1
176
     4
177
     4
178
     3
271
     0
272
     0
289
     0
340
123
341
15B0
342
11E
1001
ACAD_DSTYLE_DIMJAG
1070
   388
1040
1.5
1001
ACAD_DSTYLE_DIMTALN
1070
   392
1070
     0
  0
ENDTAB
  0
TABLE
  2
BLOCK_RECORD
  5
1
330
0
100
AcDbSymbolTable
 70
     6
  0
BLOCK_RECORD
  5
1E
102
{ACAD_XDICTIONARY
360
28B
102
}
330
1
100
AcDbSymbolTableRecord
100
AcDbBlockTableRecord
  2
*Model_Space
340
21
  0
BLOCK_RECORD
  5
1A
102
{ACAD_XDICTIONARY
360
28D
102
}
330
1
100
AcDbSymbolTableRecord
100
AcDbBlockTableRecord
  2
*Paper_Space
340
1D
  0
BLOCK_RECORD
  5
11E
330
1
100
AcDbSymbolTableRecord
100
AcDbBlockTableRecord
  2
_Dot
340
0
102
{BLKREFS
331
7BF5
331
7BF6
331
7BFC
331
7BFD
331
7C03
331
7C04
331
7C0C
331
7C0D
102
}
  0
BLOCK_RECORD
  5
15B0
330
1
100
AcDbSymbolTableRecord
100
AcDbBlockTableRecord
  2
_None
340
0
  0
BLOCK_RECORD
  5
60BE
330
1
100
AcDbSymbolTableRecord
100
AcDbBlockTableRecord
  2
*D2
340
0
  0
BLOCK_RECORD
  5
72B9
330
1
100
AcDbSymbolTableRecord
100
AcDbBlockTableRecord
  2
*D3
340
0
  0
BLOCK_RECORD
  5
72C3
330
1
100
AcDbSymbolTableRecord
100
AcDbBlockTableRecord
  2
*D4
340
0
  0
BLOCK_RECORD
  5
77C6
330
1
100
AcDbSymbolTableRecord
100
AcDbBlockTableRecord
  2
*D5
340
0
  0
ENDTAB
  0
ENDSEC
  0
SECTION
  2
BLOCKS
  0
BLOCK
  5
1F
330
1E
100
AcDbEntity
  8
0
100
AcDbBlockBegin
  2
*Model_Space
 70
     0
 10
0.0
 20
0.0
 30
0.0
  3
*Model_Space
  1

  0
ENDBLK
  5
20
330
1E
100
AcDbEntity
  8
0
100
AcDbBlockEnd
  0
BLOCK
  5
1B
330
1A
100
AcDbEntity
 67
     1
  8
0
100
AcDbBlockBegin
  2
*Paper_Space
 70
     0
 10
0.0
 20
0.0
 30
0.0
  3
*Paper_Space
  1

  0
ENDBLK
  5
1C
330
1A
100
AcDbEntity
 67
     1
  8
0
100
AcDbBlockEnd
  0
BLOCK
  5
121
330
11E
100
AcDbEntity
  8
0
100
AcDbBlockBegin
  2
_Dot
 70
     0
 10
0.0
 20
0.0
 30
0.0
  3
_Dot
  1

  0
LWPOLYLINE
  5
11F
330
11E
100
AcDbEntity
  8
0
  6
ByBlock
 62
     0
100
AcDbPolyline
 90
        2
 70
     1
 43
0.5
 10
-0.25
 20
0.0
 42
1.0
 10
0.25
 20
0.0
 42
1.0
  0
LINE
  5
120
330
11E
100
AcDbEntity
  8
0
  6
ByBlock
 62
     0
370
    -2
100
AcDbLine
 10
-0.5
 20
0.0
 30
0.0
 11
-1.0
 21
0.0
 31
0.0
  0
ENDBLK
  5
122
330
11E
100
AcDbEntity
  8
0
100
AcDbBlockEnd
  0
BLOCK
  5
15B1
330
15B0
100
AcDbEntity
  8
0
100
AcDbBlockBegin
  2
_None
 70
     0
 10
0.0
 20
0.0
 30
0.0
  3
_None
  1

  0
ENDBLK
  5
15B2
330
15B0
100
AcDbEntity
  8
0
100
AcDbBlockEnd
  0
BLOCK
  5
60C8
330
60BE
100
AcDbEntity
  8
0
100
AcDbBlockBegin
  2
*D2
 70
     1
 10
0.0
 20
0.0
 30
0.0
  3
*D2
  1

  0
LINE
  5
7BF2
330
60BE
100
AcDbEntity
  8
寸法
  6
Continuous
 62
     4
440
 16777216
370
    -2
100
AcDbLine
 10
1320.063680349986
 20
500.8366066976923
 30
0.0
 11
1320.063680349986
 21
477.7322186976924
 31
0.0
  0
LINE
  5
7BF3
330
60BE
100
AcDbEntity
  8
寸法
  6
Continuous
 62
     4
440
 16777216
370
    -2
100
AcDbLine
 10
1440.063414349986
 20
500.8366066976923
 30
0.0
 11
1440.063414349986
 21
477.7322186976924
 31
0.0
  0
LINE
  5
7BF4
330
60BE
100
AcDbEntity
  8
寸法
  6
Continuous
 62
     4
440
 16777216
370
    -2
100
AcDbLine
 10
1321.063680349986
 20
477.7322186976924
 30
0.0
 11
1439.063414349986
 21
477.7322186976924
 31
0.0
  0
INSERT
  5
7BF5
330
60BE
100
AcDbEntity
  8
寸法
  6
Continuous
 62
     4
440
 16777216
370
    -2
100
AcDbBlockReference
  2
_Dot
 10
1320.063680349986
 20
477.7322186976924
 30
0.0
 50
180.0
  0
INSERT
  5
7BF6
330
60BE
100
AcDbEntity
  8
寸法
  6
Continuous
 62
     4
440
 16777216
370
    -2
100
AcDbBlockReference
  2
_Dot
 10
1440.063414349986
 20
477.7322186976924
 30
0.0
  0
MTEXT
  5
7BF7
330
60BE
100
AcDbEntity
  8
寸法
  6
Continuous
 62
     3
440
 16777216
100
AcDbMText
 10
1380.063547349986
 20
483.9822186976924
 30
0.0
 40
6.5
 41
0.0
 71
     5
 72
     1
  1
\A1;120
  7
ACAD
 73
     1
 44
1.0
  0
POINT
  5
7BF8
330
60BE
100
AcDbEntity
  8
Defpoints
  6
Continuous
 62
     0
440
 16777216
100
AcDbPoint
 10
1320.063680349986
 20
500.8366066976923
 30
0.0
  0
POINT
  5
7BF9
330
60BE
100
AcDbEntity
  8
Defpoints
  6
Continuous
 62
     0
440
 16777216
100
AcDbPoint
 10
1440.063414349986
 20
500.8366066976923
 30
0.0
  0
POINT
  5
7BFA
330
60BE
100
AcDbEntity
  8
Defpoints
  6
Continuous
 62
     0
440
 16777216
100
AcDbPoint
 10
1440.063414349986
 20
477.7322186976924
 30
0.0
  0
ENDBLK
  5
60C9
330
60BE
100
AcDbEntity
  8
0
100
AcDbBlockEnd
  0
BLOCK
  5
72BA
330
72B9
100
AcDbEntity
  8
0
100
AcDbBlockBegin
  2
*D3
 70
     1
 10
0.0
 20
0.0
 30
0.0
  3
*D3
  1

  0
LINE
  5
7BFB
330
72B9
100
AcDbEntity
  8
寸法
  6
Continuous
 62
     4
440
 16777216
370
    -2
100
AcDbLine
 10
1511.014582349986
 20
974.3358826976923
 30
0.0
 11
1511.014582349986
 21
947.3344366976926
 31
0.0
  0
INSERT
  5
7BFC
330
72B9
100
AcDbEntity
  8
寸法
  6
Continuous
 62
     4
440
 16777216
370
    -2
100
AcDbBlockReference
  2
_Dot
 10
1511.014582349986
 20
975.3358826976922
 30
0.0
 50
90.0
  0
INSERT
  5
7BFD
330
72B9
100
AcDbEntity
  8
寸法
  6
Continuous
 62
     4
440
 16777216
370
    -2
100
AcDbBlockReference
  2
_Dot
 10
1511.014582349986
 20
946.3344366976926
 30
0.0
 50
270.0
  0
MTEXT
  5
7BFE
330
72B9
100
AcDbEntity
  8
寸法
  6
Continuous
 62
     3
440
 16777216
100
AcDbMText
 10
1504.764582349986
 20
960.8351596976927
 30
0.0
 40
6.5
 41
0.0
 71
     5
 72
     1
  1
\A1;29
  7
ACAD
 11
0.0000000000000001
 21
1.0
 31
0.0
 73
     1
 44
1.0
  0
POINT
  5
7BFF
330
72B9
100
AcDbEntity
  8
Defpoints
  6
Continuous
 62
     0
440
 16777216
100
AcDbPoint
 10
1511.014582349986
 20
975.3358826976922
 30
0.0
  0
POINT
  5
7C00
330
72B9
100
AcDbEntity
  8
Defpoints
  6
Continuous
 62
     0
440
 16777216
100
AcDbPoint
 10
1511.014582349986
 20
946.3344366976926
 30
0.0
  0
POINT
  5
7C01
330
72B9
100
AcDbEntity
  8
Defpoints
  6
Continuous
 62
     0
440
 16777216
100
AcDbPoint
 10
1511.014582349986
 20
946.3344366976926
 30
0.0
  0
ENDBLK
  5
72BB
330
72B9
100
AcDbEntity
  8
0
100
AcDbBlockEnd
  0
BLOCK
  5
72C4
330
72C3
100
AcDbEntity
  8
0
100
AcDbBlockBegin
  2
*D4
 70
     1
 10
0.0
 20
0.0
 30
0.0
  3
*D4
  1

  0
LINE
  5
7C02
330
72C3
100
AcDbEntity
  8
寸法
  6
Continuous
 62
     4
440
 16777216
370
    -2
100
AcDbLine
 10
1904.435180349987
 20
895.3358826976922
 30
0.0
 11
1904.435180349987
 21
943.335882697692
 31
0.0
  0
INSERT
  5
7C03
330
72C3
100
AcDbEntity
  8
寸法
  6
Continuous
 62
     4
440
 16777216
370
    -2
100
AcDbBlockReference
  2
_Dot
 10
1904.435180349987
 20
894.335882697692
 30
0.0
 50
270.0
  0
INSERT
  5
7C04
330
72C3
100
AcDbEntity
  8
寸法
  6
Continuous
 62
     4
440
 16777216
370
    -2
100
AcDbBlockReference
  2
_Dot
 10
1904.435180349987
 20
944.335882697692
 30
0.0
 50
90.0
  0
MTEXT
  5
7C05
330
72C3
100
AcDbEntity
  8
寸法
  6
Continuous
 62
     3
440
 16777216
100
AcDbMText
 10
1898.185180349987
 20
919.3358826976924
 30
0.0
 40
6.5
 41
0.0
 71
     5
 72
     1
  1
\A1;50
  7
ACAD
 11
0.0000000000000001
 21
1.0
 31
0.0
 73
     1
 44
1.0
  0
POINT
  5
7C06
330
72C3
100
AcDbEntity
  8
Defpoints
  6
Continuous
 62
     0
440
 16777216
100
AcDbPoint
 10
1904.435180349987
 20
894.335882697692
 30
0.0
  0
POINT
  5
7C07
330
72C3
100
AcDbEntity
  8
Defpoints
  6
Continuous
 62
     0
440
 16777216
100
AcDbPoint
 10
1904.435180349987
 20
944.335882697692
 30
0.0
  0
POINT
  5
7C08
330
72C3
100
AcDbEntity
  8
Defpoints
  6
Continuous
 62
     0
440
 16777216
100
AcDbPoint
 10
1904.435180349987
 20
944.335882697692
 30
0.0
  0
ENDBLK
  5
72C5
330
72C3
100
AcDbEntity
  8
0
100
AcDbBlockEnd
  0
BLOCK
  5
77C7
330
77C6
100
AcDbEntity
  8
0
100
AcDbBlockBegin
  2
*D5
 70
     1
 10
0.0
 20
0.0
 30
0.0
  3
*D5
  1

  0
LINE
  5
7C09
330
77C6
100
AcDbEntity
  8
寸法
  6
Continuous
 62
     4
440
 16777216
370
    -2
100
AcDbLine
 10
1921.584942349987
 20
508.3358826976923
 30
0.0
 11
1960.816823349987
 21
508.3358826976923
 31
0.0
  0
LINE
  5
7C0A
330
77C6
100
AcDbEntity
  8
寸法
  6
Continuous
 62
     4
440
 16777216
370
    -2
100
AcDbLine
 10
1921.584942349987
 20
975.3358826976922
 30
0.0
 11
1960.816823349987
 21
975.3358826976922
 31
0.0
  0
LINE
  5
7C0B
330
77C6
100
AcDbEntity
  8
寸法
  6
Continuous
 62
     4
440
 16777216
370
    -2
100
AcDbLine
 10
1960.816823349987
 20
509.3358826976923
 30
0.0
 11
1960.816823349987
 21
974.3358826976923
 31
0.0
  0
INSERT
  5
7C0C
330
77C6
100
AcDbEntity
  8
寸法
  6
Continuous
 62
     4
440
 16777216
370
    -2
100
AcDbBlockReference
  2
_Dot
 10
1960.816823349987
 20
508.3358826976923
 30
0.0
 50
270.0
  0
INSERT
  5
7C0D
330
77C6
100
AcDbEntity
  8
寸法
  6
Continuous
 62
     4
440
 16777216
370
    -2
100
AcDbBlockReference
  2
_Dot
 10
1960.816823349987
 20
975.3358826976922
 30
0.0
 50
90.0
  0
MTEXT
  5
7C0E
330
77C6
100
AcDbEntity
  8
寸法
  6
Continuous
 62
     3
440
 16777216
100
AcDbMText
 10
1953.947775730939
 20
741.8358826976927
 30
0.0
 40
6.5
 41
0.0
 71
     5
 72
     1
  1
\A1;h=912～1,220
  7
ACAD
 11
0.0000000000000001
 21
1.0
 31
0.0
 73
     1
 44
1.0
  0
POINT
  5
7C0F
330
77C6
100
AcDbEntity
  8
Defpoints
  6
Continuous
 62
     0
440
 16777216
100
AcDbPoint
 10
1921.584942349987
 20
508.3358826976923
 30
0.0
  0
POINT
  5
7C10
330
77C6
100
AcDbEntity
  8
Defpoints
  6
Continuous
 62
     0
440
 16777216
100
AcDbPoint
 10
1921.584942349987
 20
975.3358826976922
 30
0.0
  0
POINT
  5
7C11
330
77C6
100
AcDbEntity
  8
Defpoints
  6
Continuous
 62
     0
440
 16777216
100
AcDbPoint
 10
1960.816823349987
 20
975.3358826976922
 30
0.0
  0
ENDBLK
  5
77C8
330
77C6
100
AcDbEntity
  8
0
100
AcDbBlockEnd
  0
ENDSEC
  0
SECTION
  2
ENTITIES
  0
TEXT
  5
60A6
330
1E
100
AcDbEntity
  8
文字-記号
  6
Continuous
 62
     3
100
AcDbText
 10
1229.391366892283
 20
1096.368394929835
 30
0.0
 40
13.0
  1
■スリーベース３０１型（体育館用：高床タイプ）
  7
ACAD
100
AcDbText
  0
DIMENSION
  5
60BD
330
1E
100
AcDbEntity
  8
寸法
  6
Continuous
100
AcDbDimension
  2
*D2
 10
1440.063414349986
 20
477.7322186976924
 30
0.0
 11
1380.063547349986
 21
483.9822186976924
 31
0.0
 70
    32
 71
     5
 42
119.999734
  3
AutoCAD
100
AcDbAlignedDimension
 13
1320.063680349986
 23
500.8366066976923
 33
0.0
 14
1440.063414349986
 24
500.8366066976923
 34
0.0
100
AcDbRotatedDimension
  0
DIMENSION
  5
7291
330
1E
100
AcDbEntity
  8
寸法
  6
Continuous
100
AcDbDimension
  2
*D3
 10
1511.014582349986
 20
946.3344366976926
 30
0.0
 11
1504.764582349986
 21
960.8351596976927
 31
0.0
 70
    32
 71
     5
 42
29.00144599999976
  3
AutoCAD
100
AcDbAlignedDimension
 13
1511.014582349986
 23
975.3358826976922
 33
0.0
 14
1511.014582349986
 24
946.3344366976926
 34
0.0
 50
90.0
100
AcDbRotatedDimension
  0
DIMENSION
  5
7292
330
1E
100
AcDbEntity
  8
寸法
  6
Continuous
100
AcDbDimension
  2
*D4
 10
1904.435180349987
 20
944.335882697692
 30
0.0
 11
1898.185180349987
 21
919.3358826976924
 31
0.0
 70
    32
 71
     5
 42
50.0
  3
AutoCAD
100
AcDbAlignedDimension
 13
1904.435180349987
 23
894.335882697692
 33
0.0
 14
1904.435180349987
 24
944.335882697692
 34
0.0
 50
90.0
100
AcDbRotatedDimension
  0
LWPOLYLINE
  5
7293
330
1E
100
AcDbEntity
  8
中心線
  6
CENTER1
100
AcDbPolyline
 90
        2
 70
     0
 43
0.0
 10
1380.063680349986
 20
498.3358826976923
 10
1380.063680349986
 20
970.041816908467
  0
LWPOLYLINE
  5
7294
330
1E
100
AcDbEntity
  8
中心線
  6
CENTER1
100
AcDbPolyline
 90
        2
 70
     0
 43
0.0
 10
1785.389205349986
 20
498.3358826976923
 10
1785.389205349986
 20
970.0418169084668
  0
CIRCLE
  5
7336
330
1E
100
AcDbEntity
  8
躯体と製品
  6
Continuous
 62
     4
100
AcDbCircle
 10
1380.063685118358
 20
700.3358855587152
 30
0.0
 40
3.764999999999999
  0
CIRCLE
  5
7337
330
1E
100
AcDbEntity
  8
躯体と製品
  6
Continuous
 62
     4
100
AcDbCircle
 10
1380.063685118358
 20
700.3358855587152
 30
0.0
 40
3.999999999999999
  0
POINT
  5
7340
330
1E
100
AcDbEntity
  8
躯体と製品
  6
Continuous
 62
     4
100
AcDbPoint
 10
1807.389212979381
 20
761.3358846050407
 30
0.0
  0
POINT
  5
7341
330
1E
100
AcDbEntity
  8
躯体と製品
  6
Continuous
 62
     4
100
AcDbPoint
 10
1763.389216794078
 20
761.3358846050407
 30
0.0
  0
ELLIPSE
  5
7383
330
1E
100
AcDbEntity
  8
躯体と製品
  6
Continuous
 62
     4
100
AcDbEllipse
 10
1772.764264477794
 20
700.335885558715
 30
0.0
 11
0.0
 21
4.009999871383115
 31
0.0
210
0.0
220
0.0
230
1.0
 40
0.924826250867146
 41
-6.283185307179586
 42
0.0
  0
DIMENSION
  5
7711
330
1E
100
AcDbEntity
  8
寸法
  6
Continuous
100
AcDbDimension
  2
*D5
 10
1960.816823349987
 20
975.3358826976922
 30
0.0
 11
1953.947775730939
 21
741.8358826976927
 31
0.0
 70
    32
  1
h=912～1,220
 71
     5
 42
466.9999999999999
  3
AutoCAD
100
AcDbAlignedDimension
 13
1921.584942349987
 23
508.3358826976923
 33
0.0
 14
1921.584942349987
 24
975.3358826976922
 34
0.0
 50
90.0
100
AcDbRotatedDimension
  0
LWPOLYLINE
  5
7819
330
1E
100
AcDbEntity
  8
躯体と製品
  6
Continuous
 62
     4
100
AcDbPolyline
 90
        4
 70
     1
 43
0.0
 10
1366.063679387552
 20
762.3358833813703
 10
1394.063679424921
 20
762.3358833813703
 10
1394.063679424921
 20
758.3358833813704
 10
1366.063679387552
 20
758.3358833813704
  0
LWPOLYLINE
  5
781A
330
1E
100
AcDbEntity
  8
躯体と製品
  6
Continuous
 62
     4
100
AcDbPolyline
 90
        2
 70
     0
 43
0.0
 10
1380.063678555386
 20
762.3358833813703
 10
1376.063678555386
 20
758.3358833813704
  0
LWPOLYLINE
  5
781B
330
1E
100
AcDbEntity
  8
躯体と製品
  6
Continuous
 62
     4
100
AcDbPolyline
 90
        2
 70
     0
 43
0.0
 10
1384.063678602796
 20
762.3358834100668
 10
1380.063678602796
 20
758.3358834100668
  0
LWPOLYLINE
  5
781C
330
1E
100
AcDbEntity
  8
躯体と製品
  6
Continuous
 62
     4
100
AcDbPolyline
 90
        2
 70
     0
 43
0.0
 10
1386.991883760688
 20
773.8358826976923
 10
1386.991883760688
 20
762.3358826976923
  0
LWPOLYLINE
  5
781D
330
1E
100
AcDbEntity
  8
躯体と製品
  6
Continuous
 62
     4
100
AcDbPolyline
 90
        2
 70
     0
 43
0.0
 10
1373.135477300143
 20
773.8358826976923
 10
1373.135477300143
 20
762.3358826976923
  0
LWPOLYLINE
  5
781E
330
1E
100
AcDbEntity
  8
躯体と製品
  6
Continuous
 62
     4
100
AcDbPolyline
 90
        2
 70
     0
 43
0.0
 10
1369.671375685014
 20
775.3358826976923
 10
1390.455985375846
 20
775.3358826976923
  0
LWPOLYLINE
  5
781F
330
1E
100
AcDbEntity
  8
躯体と製品
  6
Continuous
 62
     4
100
AcDbPolyline
 90
        7
 70
     0
 43
0.0
 10
1366.207274069885
 20
773.8358826976923
 42
-0.4330127018921053
 10
1373.135477300143
 20
773.8358826976923
 42
-0.2165063509460898
 10
1386.991883760688
 20
773.8358826976923
 42
-0.4330127018922323
 10
1393.920086990975
 20
773.8358826976923
 10
1393.920086990975
 20
762.3358826976923
 10
1366.207274069885
 20
762.3358826976923
 10
1366.207274069885
 20
773.8358826976923
  0
LWPOLYLINE
  5
7820
330
1E
100
AcDbEntity
  8
躯体と製品
  6
Continuous
 62
     4
100
AcDbPolyline
 90
        2
 70
     0
 43
0.0
 10
1386.991889590797
 20
743.3358884197382
 10
1386.991889590797
 20
754.8358884197382
  0
LWPOLYLINE
  5
7821
330
1E
100
AcDbEntity
  8
躯体と製品
  6
Continuous
 62
     4
100
AcDbPolyline
 90
        2
 70
     0
 43
0.0
 10
1373.135483130251
 20
743.3358884197382
 10
1373.135483130251
 20
754.8358884197382
  0
LWPOLYLINE
  5
7822
330
1E
100
AcDbEntity
  8
躯体と製品
  6
Continuous
 62
     4
100
AcDbPolyline
 90
        2
 70
     0
 43
0.0
 10
1369.671381515122
 20
741.8358884197382
 10
1390.455991205926
 20
741.8358884197382
  0
LWPOLYLINE
  5
7823
330
1E
100
AcDbEntity
  8
躯体と製品
  6
Continuous
 62
     4
100
AcDbPolyline
 90
        7
 70
     0
 43
0.0
 10
1366.207279899964
 20
743.3358884197382
 42
0.4330127018921053
 10
1373.135483130251
 20
743.3358884197382
 42
0.2165063509460898
 10
1386.991889590797
 20
743.3358884197382
 42
0.4330127018922323
 10
1393.920092821084
 20
743.3358884197382
 10
1393.920092821084
 20
754.8358884197382
 10
1366.207279899964
 20
754.8358884197382
 10
1366.207279899964
 20
743.3358884197382
  0
LWPOLYLINE
  5
7828
330
1E
100
AcDbEntity
  8
躯体と製品
  6
Continuous
 62
     4
100
AcDbPolyline
 90
        6
 70
     0
 43
0.0
 10
1771.889220608775
 20
758.3358839824516
 10
1771.38921360197
 20
758.3358839824516
 10
1771.38921360197
 20
762.3358839824516
 10
1799.389213639368
 20
762.3358839824516
 10
1799.389213639368
 20
758.3358839824516
 10
1798.889209164684
 20
758.3358839824516
  0
LWPOLYLINE
  5
7829
330
1E
100
AcDbEntity
  8
躯体と製品
  6
Continuous
 62
     4
100
AcDbPolyline
 90
        2
 70
     0
 43
0.0
 10
1779.388647569895
 20
775.3358834127441
 10
1791.389212873996
 20
775.3358833497052
  0
LWPOLYLINE
  5
782A
330
1E
100
AcDbEntity
  8
躯体と製品
  6
Continuous
 62
     4
100
AcDbPolyline
 90
        5
 70
     0
 43
0.0
 10
1773.389212911132
 20
762.335883709836
 10
1773.389212911132
 20
773.8358833812246
 42
-0.2500000085465462
 10
1785.389212853245
 20
773.8358833812246
 42
-0.2499999935419728
 10
1797.389212911133
 20
773.8358833812246
 10
1797.389212911133
 20
762.3358835376578
  0
LWPOLYLINE
  5
782B
330
1E
100
AcDbEntity
  8
躯体と製品
  6
Continuous
 62
     4
100
AcDbPolyline
 90
        2
 70
     0
 43
0.0
 10
1785.389212842505
 20
773.8358833812246
 10
1785.389212763314
 20
762.3358836237469
  0
TEXT
  5
786F
330
1E
100
AcDbEntity
  8
文字-記号
  6
Continuous
 62
     7
100
AcDbText
 10
1702.947745682532
 20
826.8706716346219
 30
0.0
 40
6.5
  1
調整ボルト Ｍ１６
100
AcDbText
  0
LWPOLYLINE
  5
788B
330
1E
100
AcDbEntity
  8
文字-記号
  6
Continuous
 62
     7
100
AcDbPolyline
 90
        3
 70
     0
 43
0.0
 10
1701.803032682532
 20
824.3166016346217
 10
1767.921118413057
 20
824.3166016346217
 10
1777.389205349987
 20
807.9173940093813
  0
LWPOLYLINE
  5
788C
330
1E
100
AcDbEntity
  8
文字-記号
  6
Continuous
 62
     7
100
AcDbPolyline
 90
        3
 70
     0
 43
0.0
 10
1671.853846349986
 20
894.335882697692
 10
1656.761177165601
 20
868.1946128485083
 10
1624.682805693781
 20
868.1946128485083
  0
TEXT
  5
788D
330
1E
100
AcDbEntity
  8
文字-記号
  6
Continuous
 62
     7
100
AcDbText
 10
1628.863208132246
 20
870.5840468485083
 30
0.0
 40
6.5
  1
大引鋼
100
AcDbText
  0
TEXT
  5
789A
330
1E
100
AcDbEntity
  8
文字-記号
  6
Continuous
 62
     7
100
AcDbText
 10
1297.622220716393
 20
826.8706716346221
 30
0.0
 40
6.5
  1
調整ボルト Ｍ１６
100
AcDbText
  0
LWPOLYLINE
  5
789B
330
1E
100
AcDbEntity
  8
文字-記号
  6
Continuous
 62
     7
100
AcDbPolyline
 90
        3
 70
     0
 43
0.0
 10
1296.477507716392
 20
824.3166016346219
 10
1362.595593446917
 20
824.3166016346219
 10
1372.063680383847
 20
807.9173940093816
  0
LWPOLYLINE
  5
789C
330
1E
100
AcDbEntity
  8
文字-記号
  6
Continuous
 62
     7
100
AcDbPolyline
 90
        3
 70
     0
 43
0.0
 10
1356.208885105981
 20
918.127469275679
 10
1340.508200298202
 20
890.9330854749804
 10
1245.750690233477
 20
890.9330854749804
  0
TEXT
  5
789D
330
1E
100
AcDbEntity
  8
文字-記号
  6
Continuous
 62
     7
100
AcDbText
 10
1248.938748326759
 20
893.3225194749804
 30
0.0
 40
6.5
  1
大引鋼 ５０\U+00D7５０\U+00D7２.３
100
AcDbText
  0
LWPOLYLINE
  5
789E
330
1E
100
AcDbEntity
  8
文字-記号
  6
Continuous
 62
     7
100
AcDbPolyline
 90
        3
 70
     0
 43
0.0
 10
1307.796088498803
 20
946.3358826976923
 10
1296.952739341169
 20
927.5546510324611
 10
1264.874367869348
 20
927.5546510324611
  0
TEXT
  5
789F
330
1E
100
AcDbEntity
  8
文字-記号
  6
Continuous
 62
     7
100
AcDbText
 10
1269.054770307813
 20
929.9440850324609
 30
0.0
 40
6.5
  1
根太鋼
100
AcDbText
  0
LWPOLYLINE
  5
78A0
330
1E
100
AcDbEntity
  8
文字-記号
  6
Continuous
 62
     7
100
AcDbPolyline
 90
        3
 70
     0
 43
0.0
 10
1397.943046690657
 20
885.5391572243599
 10
1415.444817432936
 20
855.2252010763103
 10
1493.538714815344
 20
855.2252010763103
  0
TEXT
  5
78A1
330
1E
100
AcDbEntity
  8
文字-記号
  6
Continuous
 62
     7
100
AcDbText
 10
1417.905755056657
 20
857.7922313762693
 30
0.0
 40
6.5
  1
メインクッションゴム
100
AcDbText
  0
LWPOLYLINE
  5
7909
330
1E
100
AcDbEntity
  8
躯体と製品
  6
Continuous
 62
     4
100
AcDbPolyline
 90
       13
 70
     0
 43
0.0
 10
1601.389205349986
 20
944.335882697692
 10
1669.389205349986
 20
944.335882697692
 10
1669.389205349986
 20
951.335882697692
 10
1664.389205349987
 20
951.335882697692
 10
1664.389205349987
 20
949.3358826976921
 10
1667.389205349986
 20
949.3358826976921
 10
1667.389205349986
 20
946.3358826976921
 10
1603.389205349986
 20
946.3358826976921
 10
1603.389205349986
 20
949.3358826976921
 10
1606.389205349987
 20
949.3358826976921
 10
1606.389205349987
 20
951.335882697692
 10
1601.389205349986
 20
951.335882697692
 10
1601.389205349986
 20
944.335882697692
  0
LWPOLYLINE
  5
790A
330
1E
100
AcDbEntity
  8
躯体と製品
  6
Continuous
 62
     4
100
AcDbPolyline
 90
       28
 70
     1
 43
0.0
 10
1651.189205349987
 20
975.3358826976919
 42
-0.4142135623730951
 10
1652.889205349987
 20
973.6358826976921
 10
1652.889205349987
 20
948.0358826976921
 42
0.4142135623730951
 10
1653.389205349986
 20
947.5358826976922
 10
1665.689205349987
 20
947.5358826976922
 42
0.4142135623730951
 10
1666.189205349986
 20
948.0358826976921
 10
1666.189205349986
 20
949.3358826976921
 10
1667.389205349986
 20
949.3358826976921
 10
1667.389205349986
 20
948.0358826976921
 42
-0.4142135623730951
 10
1665.689205349987
 20
946.3358826976921
 10
1653.389205349986
 20
946.3358826976921
 42
-0.4142135623730951
 10
1651.689205349986
 20
948.0358826976921
 10
1651.689205349986
 20
973.6358826976921
 42
0.4142135623730951
 10
1651.189205349987
 20
974.135882697692
 10
1619.589205349987
 20
974.135882697692
 42
0.4142135623730951
 10
1619.089205349987
 20
973.6358826976921
 10
1619.089205349987
 20
948.0358826976921
 42
-0.4142135623730951
 10
1617.389205349986
 20
946.3358826976921
 10
1605.089205349987
 20
946.3358826976921
 42
-0.4142135623730951
 10
1603.389205349986
 20
948.0358826976921
 10
1603.389205349986
 20
949.3358826976921
 10
1604.589205349986
 20
949.3358826976921
 10
1604.589205349986
 20
948.0358826976921
 42
0.4142135623730951
 10
1605.089205349987
 20
947.5358826976922
 10
1617.389205349986
 20
947.5358826976922
 42
0.4142135623730951
 10
1617.889205349987
 20
948.0358826976921
 10
1617.889205349987
 20
973.6358826976921
 42
-0.4142135623730951
 10
1619.589205349987
 20
975.3358826976919
  0
TEXT
  5
790B
330
1E
100
AcDbEntity
  8
文字-記号
  6
Continuous
 62
     7
100
AcDbText
 10
1590.249948349987
 20
966.188970697692
 30
0.0
 40
6.5
  1
根太鋼
100
AcDbText
  0
LWPOLYLINE
  5
790C
330
1E
100
AcDbEntity
  8
躯体と製品
  6
Continuous
 62
     4
100
AcDbPolyline
 90
        2
 70
     0
 43
0.0
 10
1614.590205349969
 20
948.1848826976969
 10
1614.590205349969
 20
947.7358826977038
  0
LWPOLYLINE
  5
790D
330
1E
100
AcDbEntity
  8
躯体と製品
  6
Continuous
 62
     4
100
AcDbPolyline
 90
        2
 70
     0
 43
0.0
 10
1606.590205349969
 20
948.1848826976969
 10
1606.590205349969
 20
947.7358826977038
  0
LWPOLYLINE
  5
790E
330
1E
100
AcDbEntity
  8
躯体と製品
  6
Continuous
 62
     4
100
AcDbPolyline
 90
        2
 70
     0
 43
0.0
 10
1614.390205349986
 20
947.5358826976922
 10
1610.590205349969
 20
947.5358826976922
  0
LWPOLYLINE
  5
790F
330
1E
100
AcDbEntity
  8
躯体と製品
  6
Continuous
 62
     4
100
AcDbPolyline
 90
        2
 70
     0
 43
0.0
 10
1606.590205349969
 20
947.735882676749
 42
0.41421351636737
 10
1606.790205339503
 20
947.5358826976922
  0
LWPOLYLINE
  5
7910
330
1E
100
AcDbEntity
  8
躯体と製品
  6
Continuous
 62
     4
100
AcDbPolyline
 90
        2
 70
     0
 43
0.0
 10
1606.79020534998
 20
947.5358826976922
 10
1610.590205349969
 20
947.5358826976922
  0
LWPOLYLINE
  5
7911
330
1E
100
AcDbEntity
  8
躯体と製品
  6
Continuous
 62
     4
100
AcDbPolyline
 90
        2
 70
     0
 43
0.0
 10
1614.390205339509
 20
947.5358826976922
 42
0.4142135777083371
 10
1614.590205349998
 20
947.7358826977038
  0
LWPOLYLINE
  5
7912
330
1E
100
AcDbEntity
  8
躯体と製品
  6
Continuous
 62
     4
100
AcDbPolyline
 90
        2
 70
     0
 43
0.0
 10
1614.355205349983
 20
949.3358826977097
 10
1610.590205349969
 20
949.3358826977097
  0
LWPOLYLINE
  5
7913
330
1E
100
AcDbEntity
  8
躯体と製品
  6
Continuous
 62
     4
100
AcDbPolyline
 90
        2
 70
     0
 43
0.0
 10
1614.354754479146
 20
949.3353802379173
 42
0.2144073790574085
 10
1610.590221516623
 20
950.5357391790498
  0
LWPOLYLINE
  5
7914
330
1E
100
AcDbEntity
  8
躯体と製品
  6
Continuous
 62
     4
100
AcDbPolyline
 90
        2
 70
     0
 43
0.0
 10
1606.825205349984
 20
949.3358826977097
 10
1606.590205349969
 20
948.1848826976969
  0
LWPOLYLINE
  5
7915
330
1E
100
AcDbEntity
  8
躯体と製品
  6
Continuous
 62
     4
100
AcDbPolyline
 90
        2
 70
     0
 43
0.0
 10
1610.590188765384
 20
950.5357392268093
 42
0.2144073836089342
 10
1606.825655845178
 20
949.3353799010696
  0
LWPOLYLINE
  5
7916
330
1E
100
AcDbEntity
  8
躯体と製品
  6
Continuous
 62
     4
100
AcDbPolyline
 90
        2
 70
     0
 43
0.0
 10
1606.825205349984
 20
949.3358826977097
 10
1610.590205349969
 20
949.3358826977097
  0
LWPOLYLINE
  5
7917
330
1E
100
AcDbEntity
  8
躯体と製品
  6
Continuous
 62
     4
100
AcDbPolyline
 90
        2
 70
     0
 43
0.0
 10
1614.355205349983
 20
949.3358826977097
 10
1614.590205349969
 20
948.1848826976969
  0
LWPOLYLINE
  5
7918
330
1E
100
AcDbEntity
  8
躯体と製品
  6
Continuous
 62
     4
100
AcDbPolyline
 90
        2
 70
     0
 43
0.0
 10
1664.190205349975
 20
948.1848826976969
 10
1664.190205349975
 20
947.7358826977038
  0
LWPOLYLINE
  5
7919
330
1E
100
AcDbEntity
  8
躯体と製品
  6
Continuous
 62
     4
100
AcDbPolyline
 90
        2
 70
     0
 43
0.0
 10
1656.190205349975
 20
948.1848826976969
 10
1656.190205349975
 20
947.7358826977038
  0
LWPOLYLINE
  5
791A
330
1E
100
AcDbEntity
  8
躯体と製品
  6
Continuous
 62
     4
100
AcDbPolyline
 90
        2
 70
     0
 43
0.0
 10
1663.990205349963
 20
947.5358826976922
 10
1660.190205349975
 20
947.5358826976922
  0
LWPOLYLINE
  5
791B
330
1E
100
AcDbEntity
  8
躯体と製品
  6
Continuous
 62
     4
100
AcDbPolyline
 90
        2
 70
     0
 43
0.0
 10
1656.190205349975
 20
947.735882676749
 42
0.41421351636737
 10
1656.390205339509
 20
947.5358826976922
  0
LWPOLYLINE
  5
791C
330
1E
100
AcDbEntity
  8
躯体と製品
  6
Continuous
 62
     4
100
AcDbPolyline
 90
        2
 70
     0
 43
0.0
 10
1656.390205349986
 20
947.5358826976922
 10
1660.190205349975
 20
947.5358826976922
  0
LWPOLYLINE
  5
791D
330
1E
100
AcDbEntity
  8
躯体と製品
  6
Continuous
 62
     4
100
AcDbPolyline
 90
        2
 70
     0
 43
0.0
 10
1663.990205339486
 20
947.5358826976922
 42
0.4142135777083371
 10
1664.190205349975
 20
947.7358826977038
  0
LWPOLYLINE
  5
791E
330
1E
100
AcDbEntity
  8
躯体と製品
  6
Continuous
 62
     4
100
AcDbPolyline
 90
        2
 70
     0
 43
0.0
 10
1663.955205349989
 20
949.3358826977097
 10
1660.190205349975
 20
949.3358826977097
  0
LWPOLYLINE
  5
791F
330
1E
100
AcDbEntity
  8
躯体と製品
  6
Continuous
 62
     4
100
AcDbPolyline
 90
        2
 70
     0
 43
0.0
 10
1663.954754479152
 20
949.3353802379173
 42
0.2144073790574085
 10
1660.190221516629
 20
950.5357391790498
  0
LWPOLYLINE
  5
7920
330
1E
100
AcDbEntity
  8
躯体と製品
  6
Continuous
 62
     4
100
AcDbPolyline
 90
        2
 70
     0
 43
0.0
 10
1656.425205349961
 20
949.3358826977097
 10
1656.190205349975
 20
948.1848826976969
  0
LWPOLYLINE
  5
7921
330
1E
100
AcDbEntity
  8
躯体と製品
  6
Continuous
 62
     4
100
AcDbPolyline
 90
        2
 70
     0
 43
0.0
 10
1660.19018876536
 20
950.5357392268093
 42
0.2144073836089342
 10
1656.425655845154
 20
949.3353799010696
  0
LWPOLYLINE
  5
7922
330
1E
100
AcDbEntity
  8
躯体と製品
  6
Continuous
 62
     4
100
AcDbPolyline
 90
        2
 70
     0
 43
0.0
 10
1656.425205349961
 20
949.3358826977097
 10
1660.190205349975
 20
949.3358826977097
  0
LWPOLYLINE
  5
7923
330
1E
100
AcDbEntity
  8
躯体と製品
  6
Continuous
 62
     4
100
AcDbPolyline
 90
        2
 70
     0
 43
0.0
 10
1663.955205349989
 20
949.3358826977097
 10
1664.190205349975
 20
948.1848826976969
  0
LWPOLYLINE
  5
7924
330
1E
100
AcDbEntity
  8
文字-記号
  6
Continuous
 62
     7
100
AcDbPolyline
 90
        3
 70
     0
 43
0.0
 10
1587.435881349987
 20
963.799536697692
 10
1612.668896349987
 20
963.799536697692
 10
1617.889205349987
 20
956.0246084210881
  0
LWPOLYLINE
  5
7990
330
1E
100
AcDbEntity
  8
躯体と製品
  6
Continuous
 62
     3
100
AcDbPolyline
 90
        2
 70
     0
 43
0.0
 10
1373.566072349986
 20
741.8358884197382
 10
1373.566072349986
 20
716.8358865123894
  0
LWPOLYLINE
  5
7991
330
1E
100
AcDbEntity
  8
躯体と製品
  6
Continuous
 62
     3
100
AcDbPolyline
 90
        2
 70
     0
 43
0.0
 10
1386.561288349986
 20
741.8358884197382
 10
1386.561288349986
 20
716.8358865123894
  0
LWPOLYLINE
  5
7992
330
1E
100
AcDbEntity
  8
躯体と製品
  6
Continuous
 62
     4
100
AcDbPolyline
 90
        2
 70
     0
 43
0.0
 10
1372.063680349986
 20
741.8358884197382
 10
1372.063680349986
 20
716.8358865123894
  0
LWPOLYLINE
  5
7993
330
1E
100
AcDbEntity
  8
躯体と製品
  6
Continuous
 62
     4
100
AcDbPolyline
 90
        2
 70
     0
 43
0.0
 10
1388.063680349986
 20
741.8358884197382
 10
1388.063680349986
 20
716.8358865123894
  0
LWPOLYLINE
  5
7994
330
1E
100
AcDbEntity
  8
躯体と製品
  6
Continuous
 62
     4
100
AcDbPolyline
 90
        2
 70
     0
 43
0.0
 10
1783.889209164684
 20
761.3358846050407
 10
1786.889220608776
 20
761.3358846050407
  0
LWPOLYLINE
  5
7995
330
1E
100
AcDbEntity
  8
躯体と製品
  6
Continuous
 62
     4
100
AcDbPolyline
 90
        2
 70
     0
 43
0.0
 10
1772.264274014537
 20
703.5278855587105
 10
1773.264274014537
 20
703.5278855587105
  0
LWPOLYLINE
  5
7996
330
1E
100
AcDbEntity
  8
躯体と製品
  6
Continuous
 62
     4
100
AcDbPolyline
 90
        2
 70
     0
 43
0.0
 10
1775.119274014584
 20
700.835885558715
 10
1775.119274014584
 20
699.835885558715
  0
LWPOLYLINE
  5
7997
330
1E
100
AcDbEntity
  8
躯体と製品
  6
Continuous
 62
     4
100
AcDbPolyline
 90
        2
 70
     0
 43
0.0
 10
1772.264274014537
 20
697.2198855587205
 10
1773.264274014537
 20
697.2198855587205
  0
LWPOLYLINE
  5
7998
330
1E
100
AcDbEntity
  8
躯体と製品
  6
Continuous
 62
     4
100
AcDbPolyline
 90
        2
 70
     0
 43
0.0
 10
1770.299274014562
 20
700.835885558715
 10
1770.299274014562
 20
699.835885558715
  0
LWPOLYLINE
  5
7999
330
1E
100
AcDbEntity
  8
躯体と製品
  6
Continuous
 62
     4
100
AcDbPolyline
 90
        2
 70
     0
 43
0.0
 10
1774.26427396215
 20
699.835885558715
 42
0.4142135776848952
 10
1773.264274014537
 20
698.8358854540503
  0
LWPOLYLINE
  5
799A
330
1E
100
AcDbEntity
  8
躯体と製品
  6
Continuous
 62
     4
100
AcDbPolyline
 90
        2
 70
     0
 43
0.0
 10
1770.299274014562
 20
699.835885558715
 10
1771.264274014537
 20
699.835885558715
  0
LWPOLYLINE
  5
799B
330
1E
100
AcDbEntity
  8
躯体と製品
  6
Continuous
 62
     4
100
AcDbPolyline
 90
        2
 70
     0
 43
0.0
 10
1772.264274014537
 20
698.8358855587151
 10
1772.264274014537
 20
697.2198855587205
  0
LWPOLYLINE
  5
799C
330
1E
100
AcDbEntity
  8
躯体と製品
  6
Continuous
 62
     4
100
AcDbPolyline
 90
        2
 70
     0
 43
0.0
 10
1772.264274014537
 20
698.8358855587151
 42
0.4142135777168614
 10
1771.26427396215
 20
699.835885558715
  0
LWPOLYLINE
  5
799D
330
1E
100
AcDbEntity
  8
躯体と製品
  6
Continuous
 62
     4
100
AcDbPolyline
 90
        2
 70
     0
 43
0.0
 10
1770.299274014562
 20
700.835885558715
 10
1771.264274014537
 20
700.835885558715
  0
LWPOLYLINE
  5
799E
330
1E
100
AcDbEntity
  8
躯体と製品
  6
Continuous
 62
     4
100
AcDbPolyline
 90
        2
 70
     0
 43
0.0
 10
1772.264274014537
 20
703.5278855587105
 10
1772.264274014537
 20
701.835885558715
  0
LWPOLYLINE
  5
799F
330
1E
100
AcDbEntity
  8
躯体と製品
  6
Continuous
 62
     4
100
AcDbPolyline
 90
        2
 70
     0
 43
0.0
 10
1771.26427396215
 20
700.835885558715
 42
0.4142135777168614
 10
1772.264274014537
 20
701.835885558715
  0
LWPOLYLINE
  5
79A0
330
1E
100
AcDbEntity
  8
躯体と製品
  6
Continuous
 62
     4
100
AcDbPolyline
 90
        2
 70
     0
 43
0.0
 10
1773.264274014537
 20
703.5278855587105
 10
1773.264274014537
 20
701.835885558715
  0
LWPOLYLINE
  5
79A1
330
1E
100
AcDbEntity
  8
躯体と製品
  6
Continuous
 62
     4
100
AcDbPolyline
 90
        2
 70
     0
 43
0.0
 10
1774.264274014537
 20
700.835885558715
 10
1775.119274014584
 20
700.835885558715
  0
LWPOLYLINE
  5
79A2
330
1E
100
AcDbEntity
  8
躯体と製品
  6
Continuous
 62
     4
100
AcDbPolyline
 90
        2
 70
     0
 43
0.0
 10
1773.264274014537
 20
701.8358854540504
 42
0.4142135163737632
 10
1774.26427396215
 20
700.835885558715
  0
LWPOLYLINE
  5
79A3
330
1E
100
AcDbEntity
  8
躯体と製品
  6
Continuous
 62
     4
100
AcDbPolyline
 90
        2
 70
     0
 43
0.0
 10
1773.264274014537
 20
698.8358855587151
 10
1773.264274014537
 20
697.2198855587205
  0
LWPOLYLINE
  5
79A4
330
1E
100
AcDbEntity
  8
躯体と製品
  6
Continuous
 62
     4
100
AcDbPolyline
 90
        2
 70
     0
 43
0.0
 10
1774.264274014537
 20
699.835885558715
 10
1775.119274014584
 20
699.835885558715
  0
LWPOLYLINE
  5
79A5
330
1E
100
AcDbEntity
  8
躯体と製品
  6
Continuous
 62
     4
100
AcDbPolyline
 90
        2
 70
     0
 43
0.0
 10
1812.539203824081
 20
696.5708855587301
 10
1811.388203824098
 20
696.335885558715
  0
LWPOLYLINE
  5
79A6
330
1E
100
AcDbEntity
  8
躯体と製品
  6
Continuous
 62
     4
100
AcDbPolyline
 90
        2
 70
     0
 43
0.0
 10
1813.075203824103
 20
702.713885558712
 10
1813.193203824076
 20
702.4358855587209
  0
LWPOLYLINE
  5
79A7
330
1E
100
AcDbEntity
  8
躯体と製品
  6
Continuous
 62
     4
100
AcDbPolyline
 90
        2
 70
     0
 43
0.0
 10
1813.193203824076
 20
702.4358855587209
 10
1813.3282038241
 20
701.9858855587383
  0
LWPOLYLINE
  5
79A8
330
1E
100
AcDbEntity
  8
躯体と製品
  6
Continuous
 62
     4
100
AcDbPolyline
 90
        2
 70
     0
 43
0.0
 10
1813.3282038241
 20
701.9858855587383
 10
1813.427203824131
 20
701.5088855587248
  0
LWPOLYLINE
  5
79A9
330
1E
100
AcDbEntity
  8
躯体と製品
  6
Continuous
 62
     4
100
AcDbPolyline
 90
        2
 70
     0
 43
0.0
 10
1813.427203824131
 20
701.5088855587248
 10
1813.455203824122
 20
701.1948855587117
  0
LWPOLYLINE
  5
79AA
330
1E
100
AcDbEntity
  8
躯体と製品
  6
Continuous
 62
     4
100
AcDbPolyline
 90
        2
 70
     0
 43
0.0
 10
1813.170203824104
 20
697.7008855587349
 10
1813.270203824125
 20
697.6508855587174
  0
LWPOLYLINE
  5
79AB
330
1E
100
AcDbEntity
  8
躯体と製品
  6
Continuous
 62
     4
100
AcDbPolyline
 90
        2
 70
     0
 43
0.0
 10
1813.075065673675
 20
697.9579441364112
 42
0.3966138523328674
 10
1813.170161515562
 20
697.7008004748102
  0
LWPOLYLINE
  5
79AC
330
1E
100
AcDbEntity
  8
躯体と製品
  6
Continuous
 62
     4
100
AcDbPolyline
 90
        2
 70
     0
 43
0.0
 10
1813.455793145215
 20
699.4768319892184
 42
0.4410235310399222
 10
1813.35620381364
 20
699.5858855587384
  0
LWPOLYLINE
  5
79AD
330
1E
100
AcDbEntity
  8
躯体と製品
  6
Continuous
 62
     4
100
AcDbPolyline
 90
        2
 70
     0
 43
0.0
 10
1812.914203824107
 20
699.785885569204
 42
0.4142135777168614
 10
1813.114203824108
 20
699.5858855587266
  0
LWPOLYLINE
  5
79AE
330
1E
100
AcDbEntity
  8
躯体と製品
  6
Continuous
 62
     4
100
AcDbPolyline
 90
        2
 70
     0
 43
0.0
 10
1813.114203824108
 20
699.585885558715
 10
1813.356203824106
 20
699.585885558715
  0
LWPOLYLINE
  5
79AF
330
1E
100
AcDbEntity
  8
躯体と製品
  6
Continuous
 62
     4
100
AcDbPolyline
 90
        2
 70
     0
 43
0.0
 10
1812.914203824081
 20
699.7858855587267
 10
1812.914203824081
 20
700.335885558715
  0
LWPOLYLINE
  5
79B0
330
1E
100
AcDbEntity
  8
躯体と製品
  6
Continuous
 62
     4
100
AcDbPolyline
 90
        2
 70
     0
 43
0.0
 10
1813.170161534339
 20
702.9709706519847
 42
0.3966138523490597
 10
1813.075065665495
 20
702.7138270003441
  0
LWPOLYLINE
  5
79B1
330
1E
100
AcDbEntity
  8
躯体と製品
  6
Continuous
 62
     4
100
AcDbPolyline
 90
        2
 70
     0
 43
0.0
 10
1813.356203824106
 20
701.0858855587208
 42
0.4410235312015462
 10
1813.455793144262
 20
701.1949391387181
  0
LWPOLYLINE
  5
79B2
330
1E
100
AcDbEntity
  8
躯体と製品
  6
Continuous
 62
     4
100
AcDbPolyline
 90
        2
 70
     0
 43
0.0
 10
1813.114203803175
 20
701.0858855587326
 42
0.4142135163737632
 10
1812.914203824107
 20
700.8858855692099
  0
LWPOLYLINE
  5
79B3
330
1E
100
AcDbEntity
  8
躯体と製品
  6
Continuous
 62
     4
100
AcDbPolyline
 90
        2
 70
     0
 43
0.0
 10
1813.170203824104
 20
702.9708855587244
 10
1813.270203824125
 20
703.0208855587127
  0
LWPOLYLINE
  5
79B4
330
1E
100
AcDbEntity
  8
躯体と製品
  6
Continuous
 62
     4
100
AcDbPolyline
 90
        2
 70
     0
 43
0.0
 10
1813.114203824108
 20
701.0858855587151
 10
1813.356203824106
 20
701.0858855587151
  0
LWPOLYLINE
  5
79B5
330
1E
100
AcDbEntity
  8
躯体と製品
  6
Continuous
 62
     4
100
AcDbPolyline
 90
        2
 70
     0
 43
0.0
 10
1812.914203824081
 20
700.8858855587325
 10
1812.914203824081
 20
700.335885558715
  0
LWPOLYLINE
  5
79B6
330
1E
100
AcDbEntity
  8
躯体と製品
  6
Continuous
 62
     4
100
AcDbPolyline
 90
        2
 70
     0
 43
0.0
 10
1812.539203824081
 20
704.100885558729
 10
1812.539203824081
 20
700.335885558715
  0
LWPOLYLINE
  5
79B7
330
1E
100
AcDbEntity
  8
躯体と製品
  6
Continuous
 62
     4
100
AcDbPolyline
 90
        2
 70
     0
 43
0.0
 10
1813.739060353165
 20
700.3359021430648
 42
0.214407383641751
 10
1812.538701027242
 20
704.1004350637767
  0
LWPOLYLINE
  5
79B8
330
1E
100
AcDbEntity
  8
躯体と製品
  6
Continuous
 62
     4
100
AcDbPolyline
 90
        2
 70
     0
 43
0.0
 10
1812.539203824081
 20
704.100885558729
 10
1811.388203824098
 20
704.335885558715
  0
LWPOLYLINE
  5
79B9
330
1E
100
AcDbEntity
  8
躯体と製品
  6
Continuous
 62
     4
100
AcDbPolyline
 90
        2
 70
     0
 43
0.0
 10
1813.075203824103
 20
697.957885558718
 10
1813.193203824076
 20
698.2358855587383
  0
LWPOLYLINE
  5
79BA
330
1E
100
AcDbEntity
  8
躯体と製品
  6
Continuous
 62
     4
100
AcDbPolyline
 90
        2
 70
     0
 43
0.0
 10
1813.193203824076
 20
698.2358855587383
 10
1813.3282038241
 20
698.6858855587208
  0
LWPOLYLINE
  5
79BB
330
1E
100
AcDbEntity
  8
躯体と製品
  6
Continuous
 62
     4
100
AcDbPolyline
 90
        2
 70
     0
 43
0.0
 10
1813.3282038241
 20
698.6858855587208
 10
1813.427203824131
 20
699.1628855587343
  0
LWPOLYLINE
  5
79BC
330
1E
100
AcDbEntity
  8
躯体と製品
  6
Continuous
 62
     4
100
AcDbPolyline
 90
        2
 70
     0
 43
0.0
 10
1813.427203824131
 20
699.1628855587343
 10
1813.455203824122
 20
699.4768855587182
  0
LWPOLYLINE
  5
79BD
330
1E
100
AcDbEntity
  8
躯体と製品
  6
Continuous
 62
     4
100
AcDbPolyline
 90
        2
 70
     0
 43
0.0
 10
1812.538701364479
 20
696.5713364296942
 42
0.2144073790991701
 10
1813.739060305336
 20
700.3358693930447
  0
LWPOLYLINE
  5
79BE
330
1E
100
AcDbEntity
  8
躯体と製品
  6
Continuous
 62
     4
100
AcDbPolyline
 90
        2
 70
     0
 43
0.0
 10
1812.539203824081
 20
696.5708855587301
 10
1812.539203824081
 20
700.335885558715
  0
LWPOLYLINE
  5
79BF
330
1E
100
AcDbEntity
  8
躯体と製品
  6
Continuous
 62
     4
100
AcDbPolyline
 90
        2
 70
     0
 43
0.0
 10
1810.739203824104
 20
696.535885569204
 42
0.4142135777168614
 10
1810.939203824105
 20
696.3358855587266
  0
LWPOLYLINE
  5
79C0
330
1E
100
AcDbEntity
  8
躯体と製品
  6
Continuous
 62
     4
100
AcDbPolyline
 90
        2
 70
     0
 43
0.0
 10
1810.739203824107
 20
704.1358855587325
 10
1810.739203824107
 20
700.335885558715
  0
LWPOLYLINE
  5
79C1
330
1E
100
AcDbEntity
  8
躯体と製品
  6
Continuous
 62
     4
100
AcDbPolyline
 90
        2
 70
     0
 43
0.0
 10
1810.939203803172
 20
704.3358855587325
 42
0.4142135163737632
 10
1810.739203824104
 20
704.1358855692099
  0
LWPOLYLINE
  5
79C2
330
1E
100
AcDbEntity
  8
躯体と製品
  6
Continuous
 62
     4
100
AcDbPolyline
 90
        2
 70
     0
 43
0.0
 10
1810.739203824107
 20
696.5358855587266
 10
1810.739203824107
 20
700.335885558715
  0
LWPOLYLINE
  5
79C3
330
1E
100
AcDbEntity
  8
躯体と製品
  6
Continuous
 62
     4
100
AcDbPolyline
 90
        2
 70
     0
 43
0.0
 10
1811.388203824098
 20
704.335885558715
 10
1810.939203824105
 20
704.335885558715
  0
LWPOLYLINE
  5
79C4
330
1E
100
AcDbEntity
  8
躯体と製品
  6
Continuous
 62
     4
100
AcDbPolyline
 90
        2
 70
     0
 43
0.0
 10
1811.388203824098
 20
696.335885558715
 10
1810.939203824105
 20
696.335885558715
  0
LWPOLYLINE
  5
79C5
330
1E
100
AcDbEntity
  8
躯体と製品
  6
Continuous
 62
     4
100
AcDbPolyline
 90
        2
 70
     0
 43
0.0
 10
1811.739188609029
 20
713.3358836662676
 42
0.4142135751755501
 10
1810.739188550417
 20
712.3358836513664
  0
LWPOLYLINE
  5
79C6
330
1E
100
AcDbEntity
  8
躯体と製品
  6
Continuous
 62
     4
100
AcDbPolyline
 90
        2
 70
     0
 43
0.0
 10
1810.739203824107
 20
712.3358836513664
 10
1810.739203824107
 20
693.3358850818779
  0
LWPOLYLINE
  5
79C7
330
1E
100
AcDbEntity
  8
躯体と製品
  6
Continuous
 62
     4
100
AcDbPolyline
 90
        2
 70
     0
 43
0.0
 10
1808.889209164684
 20
716.8358865123893
 10
1805.889216794078
 20
716.8358865123893
  0
LWPOLYLINE
  5
79C8
330
1E
100
AcDbEntity
  8
躯体と製品
  6
Continuous
 62
     4
100
AcDbPolyline
 90
        2
 70
     0
 43
0.0
 10
1798.889209164684
 20
716.8358865123893
 10
1795.889216794078
 20
716.8358865123893
  0
LWPOLYLINE
  5
79C9
330
1E
100
AcDbEntity
  8
躯体と製品
  6
Continuous
 62
     4
100
AcDbPolyline
 90
        2
 70
     0
 43
0.0
 10
1760.039222149555
 20
712.3358836513664
 42
0.4142135751758163
 10
1759.039222090943
 20
713.3358836662676
  0
LWPOLYLINE
  5
79CA
330
1E
100
AcDbEntity
  8
躯体と製品
  6
Continuous
 62
     4
100
AcDbPolyline
 90
        2
 70
     0
 43
0.0
 10
1795.889216794078
 20
761.3358846050407
 10
1798.889209164684
 20
761.3358846050407
  0
LWPOLYLINE
  5
79CB
330
1E
100
AcDbEntity
  8
躯体と製品
  6
Continuous
 62
     4
100
AcDbPolyline
 90
        2
 70
     0
 43
0.0
 10
1786.889220608776
 20
758.3358826976921
 10
1795.889216794078
 20
758.3358826976921
  0
LWPOLYLINE
  5
79CC
330
1E
100
AcDbEntity
  8
躯体と製品
  6
Continuous
 62
     4
100
AcDbPolyline
 90
        2
 70
     0
 43
0.0
 10
1774.889212979381
 20
758.3358826976921
 10
1783.889209164684
 20
758.3358826976921
  0
LWPOLYLINE
  5
79CD
330
1E
100
AcDbEntity
  8
躯体と製品
  6
Continuous
 62
     4
100
AcDbPolyline
 90
        2
 70
     0
 43
0.0
 10
1798.889209164684
 20
758.3358826976921
 10
1805.889216794078
 20
758.3358826976921
  0
LWPOLYLINE
  5
79CE
330
1E
100
AcDbEntity
  8
躯体と製品
  6
Continuous
 62
     4
100
AcDbPolyline
 90
        2
 70
     0
 43
0.0
 10
1771.889220608775
 20
761.3358846050407
 10
1774.889212979381
 20
761.3358846050407
  0
LWPOLYLINE
  5
79CF
330
1E
100
AcDbEntity
  8
躯体と製品
  6
Continuous
 62
     4
100
AcDbPolyline
 90
        2
 70
     0
 43
0.0
 10
1771.889220608775
 20
761.3358846050407
 10
1771.889220608775
 20
716.8358865123893
  0
LWPOLYLINE
  5
79D0
330
1E
100
AcDbEntity
  8
躯体と製品
  6
Continuous
 62
     4
100
AcDbPolyline
 90
        2
 70
     0
 43
0.0
 10
1774.889212979381
 20
761.3358846050407
 10
1774.889212979381
 20
716.8358865123893
  0
LWPOLYLINE
  5
79D1
330
1E
100
AcDbEntity
  8
躯体と製品
  6
Continuous
 62
     4
100
AcDbPolyline
 90
        2
 70
     0
 43
0.0
 10
1795.889216794078
 20
761.3358846050407
 10
1795.889216794078
 20
716.8358865123893
  0
LWPOLYLINE
  5
79D2
330
1E
100
AcDbEntity
  8
躯体と製品
  6
Continuous
 62
     4
100
AcDbPolyline
 90
        2
 70
     0
 43
0.0
 10
1798.889209164684
 20
761.3358846050407
 10
1798.889209164684
 20
716.8358865123893
  0
LWPOLYLINE
  5
79D3
330
1E
100
AcDbEntity
  8
躯体と製品
  6
Continuous
 62
     4
100
AcDbPolyline
 90
        2
 70
     0
 43
0.0
 10
1761.889220608775
 20
761.3358846050407
 10
1761.889220608775
 20
716.8358865123893
  0
LWPOLYLINE
  5
79D4
330
1E
100
AcDbEntity
  8
躯体と製品
  6
Continuous
 62
     4
100
AcDbPolyline
 90
        2
 70
     0
 43
0.0
 10
1783.889209164684
 20
761.3358846050407
 10
1783.889209164684
 20
716.8358865123893
  0
LWPOLYLINE
  5
79D5
330
1E
100
AcDbEntity
  8
躯体と製品
  6
Continuous
 62
     4
100
AcDbPolyline
 90
        2
 70
     0
 43
0.0
 10
1764.889212979381
 20
761.3358846050407
 10
1761.889220608775
 20
761.3358846050407
  0
LWPOLYLINE
  5
79D6
330
1E
100
AcDbEntity
  8
躯体と製品
  6
Continuous
 62
     4
100
AcDbPolyline
 90
        2
 70
     0
 43
0.0
 10
1808.889209164684
 20
758.3358826976921
 10
1812.389212979381
 20
758.3358826976921
  0
LWPOLYLINE
  5
79D7
330
1E
100
AcDbEntity
  8
躯体と製品
  6
Continuous
 62
     4
100
AcDbPolyline
 90
        2
 70
     0
 43
0.0
 10
1764.889212979381
 20
761.3358846050407
 10
1764.889212979381
 20
716.8358865123893
  0
LWPOLYLINE
  5
79D8
330
1E
100
AcDbEntity
  8
躯体と製品
  6
Continuous
 62
     4
100
AcDbPolyline
 90
        2
 70
     0
 43
0.0
 10
1805.889216794078
 20
761.3358846050407
 10
1808.889209164684
 20
761.3358846050407
  0
LWPOLYLINE
  5
79D9
330
1E
100
AcDbEntity
  8
躯体と製品
  6
Continuous
 62
     4
100
AcDbPolyline
 90
        2
 70
     0
 43
0.0
 10
1808.889209164684
 20
761.3358846050407
 10
1808.889209164684
 20
716.8358865123893
  0
LWPOLYLINE
  5
79DA
330
1E
100
AcDbEntity
  8
躯体と製品
  6
Continuous
 62
     4
100
AcDbPolyline
 90
        2
 70
     0
 43
0.0
 10
1758.389216794078
 20
758.3358826976921
 10
1761.889220608775
 20
758.3358826976921
  0
LWPOLYLINE
  5
79DB
330
1E
100
AcDbEntity
  8
躯体と製品
  6
Continuous
 62
     4
100
AcDbPolyline
 90
        2
 70
     0
 43
0.0
 10
1786.889220608776
 20
761.3358846050402
 10
1786.889220608776
 20
716.8358865123893
  0
LWPOLYLINE
  5
79DC
330
1E
100
AcDbEntity
  8
躯体と製品
  6
Continuous
 62
     4
100
AcDbPolyline
 90
        2
 70
     0
 43
0.0
 10
1764.889212979381
 20
758.3358826976921
 10
1771.889220608775
 20
758.3358826976921
  0
LWPOLYLINE
  5
79DD
330
1E
100
AcDbEntity
  8
躯体と製品
  6
Continuous
 62
     4
100
AcDbPolyline
 90
        2
 70
     0
 43
0.0
 10
1805.889216794078
 20
761.3358846050407
 10
1805.889216794078
 20
716.8358865123893
  0
LWPOLYLINE
  5
79DE
330
1E
100
AcDbEntity
  8
躯体と製品
  6
Continuous
 62
     4
100
AcDbPolyline
 90
        2
 70
     0
 43
0.0
 10
1758.389216794078
 20
758.3358826976921
 10
1758.389216794078
 20
716.8358865123893
  0
LWPOLYLINE
  5
79DF
330
1E
100
AcDbEntity
  8
躯体と製品
  6
Continuous
 62
     4
100
AcDbPolyline
 90
        2
 70
     0
 43
0.0
 10
1812.389212979381
 20
758.3358826976921
 10
1812.389212979381
 20
713.3358874660636
  0
LWPOLYLINE
  5
79E0
330
1E
100
AcDbEntity
  8
躯体と製品
  6
Continuous
 62
     4
100
AcDbPolyline
 90
        2
 70
     0
 43
0.0
 10
1783.889209164684
 20
716.8358865123893
 10
1786.889220608776
 20
716.8358865123893
  0
LWPOLYLINE
  5
79E1
330
1E
100
AcDbEntity
  8
躯体と製品
  6
Continuous
 62
     4
100
AcDbPolyline
 90
        2
 70
     0
 43
0.0
 10
1810.739203824107
 20
693.3358850818779
 10
1760.039206875865
 20
693.3358850818779
  0
LWPOLYLINE
  5
79E2
330
1E
100
AcDbEntity
  8
躯体と製品
  6
Continuous
 62
     4
100
AcDbPolyline
 90
        2
 70
     0
 43
0.0
 10
1758.389216794078
 20
716.8358865123893
 10
1758.389216794078
 20
713.3358874660636
  0
LWPOLYLINE
  5
79E3
330
1E
100
AcDbEntity
  8
躯体と製品
  6
Continuous
 62
     4
100
AcDbPolyline
 90
        2
 70
     0
 43
0.0
 10
1760.039206875865
 20
712.3358836513664
 10
1760.039206875865
 20
693.3358850818779
  0
LWPOLYLINE
  5
79E4
330
1E
100
AcDbEntity
  8
躯体と製品
  6
Continuous
 62
     4
100
AcDbPolyline
 90
        2
 70
     0
 43
0.0
 10
1774.889212979381
 20
716.8358865123893
 10
1771.889220608775
 20
716.8358865123893
  0
LWPOLYLINE
  5
79E5
330
1E
100
AcDbEntity
  8
躯体と製品
  6
Continuous
 62
     4
100
AcDbPolyline
 90
        2
 70
     0
 43
0.0
 10
1764.889212979381
 20
716.8358865123893
 10
1761.889220608775
 20
716.8358865123893
  0
LWPOLYLINE
  5
79E6
330
1E
100
AcDbEntity
  8
躯体と製品
  6
Continuous
 62
     4
100
AcDbPolyline
 90
        2
 70
     0
 43
0.0
 10
1812.389212979381
 20
713.3358874660636
 10
1758.389216794078
 20
713.3358874660636
  0
LWPOLYLINE
  5
79E7
330
1E
100
AcDbEntity
  8
躯体と製品
  6
Continuous
 62
     4
100
AcDbPolyline
 90
        2
 70
     0
 43
0.0
 10
1379.563685118358
 20
703.5278855587107
 10
1380.563685118358
 20
703.5278855587107
  0
LWPOLYLINE
  5
79E8
330
1E
100
AcDbEntity
  8
躯体と製品
  6
Continuous
 62
     4
100
AcDbPolyline
 90
        2
 70
     0
 43
0.0
 10
1383.238685118405
 20
700.8358855587153
 10
1383.238685118405
 20
699.8358855587152
  0
LWPOLYLINE
  5
79E9
330
1E
100
AcDbEntity
  8
躯体と製品
  6
Continuous
 62
     4
100
AcDbPolyline
 90
        2
 70
     0
 43
0.0
 10
1379.563685118358
 20
697.2198855587207
 10
1380.563685118358
 20
697.2198855587207
  0
LWPOLYLINE
  5
79EA
330
1E
100
AcDbEntity
  8
躯体と製品
  6
Continuous
 62
     4
100
AcDbPolyline
 90
        2
 70
     0
 43
0.0
 10
1376.778685118384
 20
700.8358855587153
 10
1376.778685118384
 20
699.8358855587152
  0
LWPOLYLINE
  5
79EB
330
1E
100
AcDbEntity
  8
躯体と製品
  6
Continuous
 62
     4
100
AcDbPolyline
 90
        2
 70
     0
 43
0.0
 10
1381.563685065971
 20
699.8358855587152
 42
0.4142135776848952
 10
1380.563685118358
 20
698.8358854540506
  0
LWPOLYLINE
  5
79EC
330
1E
100
AcDbEntity
  8
躯体と製品
  6
Continuous
 62
     4
100
AcDbPolyline
 90
        2
 70
     0
 43
0.0
 10
1376.778685118384
 20
699.8358855587152
 10
1378.563685118358
 20
699.8358855587152
  0
LWPOLYLINE
  5
79ED
330
1E
100
AcDbEntity
  8
躯体と製品
  6
Continuous
 62
     4
100
AcDbPolyline
 90
        2
 70
     0
 43
0.0
 10
1379.563685118358
 20
698.8358855587152
 10
1379.563685118358
 20
697.2198855587207
  0
LWPOLYLINE
  5
79EE
330
1E
100
AcDbEntity
  8
躯体と製品
  6
Continuous
 62
     4
100
AcDbPolyline
 90
        2
 70
     0
 43
0.0
 10
1379.563685118358
 20
698.8358855587152
 42
0.4142135777168614
 10
1378.563685065971
 20
699.8358855587152
  0
LWPOLYLINE
  5
79EF
330
1E
100
AcDbEntity
  8
躯体と製品
  6
Continuous
 62
     4
100
AcDbPolyline
 90
        2
 70
     0
 43
0.0
 10
1376.778685118384
 20
700.8358855587153
 10
1378.563685118358
 20
700.8358855587153
  0
LWPOLYLINE
  5
79F0
330
1E
100
AcDbEntity
  8
躯体と製品
  6
Continuous
 62
     4
100
AcDbPolyline
 90
        2
 70
     0
 43
0.0
 10
1379.563685118358
 20
703.5278855587107
 10
1379.563685118358
 20
701.8358855587153
  0
LWPOLYLINE
  5
79F1
330
1E
100
AcDbEntity
  8
躯体と製品
  6
Continuous
 62
     4
100
AcDbPolyline
 90
        2
 70
     0
 43
0.0
 10
1378.563685065971
 20
700.8358855587153
 42
0.4142135777168614
 10
1379.563685118358
 20
701.8358855587153
  0
LWPOLYLINE
  5
79F2
330
1E
100
AcDbEntity
  8
躯体と製品
  6
Continuous
 62
     4
100
AcDbPolyline
 90
        2
 70
     0
 43
0.0
 10
1380.563685118358
 20
703.5278855587107
 10
1380.563685118358
 20
701.8358855587153
  0
LWPOLYLINE
  5
79F3
330
1E
100
AcDbEntity
  8
躯体と製品
  6
Continuous
 62
     4
100
AcDbPolyline
 90
        2
 70
     0
 43
0.0
 10
1381.563685118358
 20
700.8358855587153
 10
1383.238685118405
 20
700.8358855587153
  0
LWPOLYLINE
  5
79F4
330
1E
100
AcDbEntity
  8
躯体と製品
  6
Continuous
 62
     4
100
AcDbPolyline
 90
        2
 70
     0
 43
0.0
 10
1380.563685118358
 20
701.8358854540506
 42
0.4142135163737632
 10
1381.563685065971
 20
700.8358855587153
  0
LWPOLYLINE
  5
79F5
330
1E
100
AcDbEntity
  8
躯体と製品
  6
Continuous
 62
     4
100
AcDbPolyline
 90
        2
 70
     0
 43
0.0
 10
1380.563685118358
 20
698.8358855587152
 10
1380.563685118358
 20
697.2198855587207
  0
LWPOLYLINE
  5
79F6
330
1E
100
AcDbEntity
  8
躯体と製品
  6
Continuous
 62
     4
100
AcDbPolyline
 90
        2
 70
     0
 43
0.0
 10
1381.563685118358
 20
699.8358855587152
 10
1383.238685118405
 20
699.8358855587152
  0
LWPOLYLINE
  5
79F7
330
1E
100
AcDbEntity
  8
躯体と製品
  6
Continuous
 62
     4
100
AcDbPolyline
 90
        2
 70
     0
 43
0.0
 10
1354.713692381184
 20
712.3358836513666
 42
0.4142135751758164
 10
1353.713692322571
 20
713.3358836662678
  0
LWPOLYLINE
  5
79F8
330
1E
100
AcDbEntity
  8
躯体と製品
  6
Continuous
 62
     4
100
AcDbPolyline
 90
        2
 70
     0
 43
0.0
 10
1356.368425158531
 20
718.9321583049848
 42
0.4283893479014103
 10
1358.366106712033
 20
716.8358845752386
  0
LWPOLYLINE
  5
79F9
330
1E
100
AcDbEntity
  8
躯体と製品
  6
Continuous
 62
     4
100
AcDbPolyline
 90
        2
 70
     0
 43
0.0
 10
1360.114410692444
 20
761.3358852010874
 42
0.4001784525836748
 10
1351.824032997432
 20
753.4354212087604
  0
LWPOLYLINE
  5
79FA
330
1E
100
AcDbEntity
  8
躯体と製品
  6
Continuous
 62
     4
100
AcDbPolyline
 90
        2
 70
     0
 43
0.0
 10
1360.004662127493
 20
754.835880820146
 42
0.4001784525836748
 10
1358.006980685265
 20
752.9321544902876
  0
LWPOLYLINE
  5
79FB
330
1E
100
AcDbEntity
  8
躯体と製品
  6
Continuous
 62
     4
100
AcDbPolyline
 90
        2
 70
     0
 43
0.0
 10
1401.761263461111
 20
716.8358845752386
 42
0.4283893732523643
 10
1403.758945072996
 20
718.9321584126481
  0
LWPOLYLINE
  5
79FC
330
1E
100
AcDbEntity
  8
躯体と製品
  6
Continuous
 62
     4
100
AcDbPolyline
 90
        2
 70
     0
 43
0.0
 10
1408.303337217751
 20
753.4354216555628
 42
0.4001784623080917
 10
1400.012958818665
 20
761.3358852010874
  0
LWPOLYLINE
  5
79FD
330
1E
100
AcDbEntity
  8
躯体と製品
  6
Continuous
 62
     4
100
AcDbPolyline
 90
        2
 70
     0
 43
0.0
 10
1406.413687363465
 20
713.3358836662678
 42
0.4142135751758166
 10
1405.413687392275
 20
712.3358835639442
  0
LWPOLYLINE
  5
79FE
330
1E
100
AcDbEntity
  8
躯体と製品
  6
Continuous
 62
     4
100
AcDbPolyline
 90
        2
 70
     0
 43
0.0
 10
1402.120389546263
 20
752.9321545979509
 42
0.4001784623080917
 10
1400.122707934378
 20
754.835880820146
  0
LWPOLYLINE
  5
79FF
330
1E
100
AcDbEntity
  8
躯体と製品
  6
Continuous
 62
     4
100
AcDbPolyline
 90
        2
 70
     0
 43
0.0
 10
1407.063516869125
 20
716.8393612887832
 42
0.4142135653556679
 10
1409.915628545755
 20
719.9802943663638
  0
LWPOLYLINE
  5
7A00
330
1E
100
AcDbEntity
  8
躯体と製品
  6
Continuous
 62
     4
100
AcDbPolyline
 90
        2
 70
     0
 43
0.0
 10
1405.306814856638
 20
753.2910109405657
 42
0.4001784623080917
 10
1400.012958949799
 20
758.3358850818781
  0
LWPOLYLINE
  5
7A01
330
1E
100
AcDbEntity
  8
躯体と製品
  6
Continuous
 62
     4
100
AcDbPolyline
 90
        2
 70
     0
 43
0.0
 10
1360.114410823578
 20
758.3358850818781
 42
0.4001784525836748
 10
1354.820555366328
 20
753.2910106552581
  0
LWPOLYLINE
  5
7A02
330
1E
100
AcDbEntity
  8
躯体と製品
  6
Continuous
 62
     4
100
AcDbPolyline
 90
        2
 70
     0
 43
0.0
 10
1350.211741683178
 20
719.9802942048689
 42
0.4142136100914523
 10
1353.063853986767
 20
716.8393612589434
  0
LWPOLYLINE
  5
7A03
330
1E
100
AcDbEntity
  8
躯体と製品
  6
Continuous
 62
     4
100
AcDbPolyline
 90
        2
 70
     0
 43
0.0
 10
1353.713692366283
 20
713.3358874660639
 10
1353.063687025707
 20
713.3358874660639
  0
LWPOLYLINE
  5
7A04
330
1E
100
AcDbEntity
  8
躯体と製品
  6
Continuous
 62
     4
100
AcDbPolyline
 90
        2
 70
     0
 43
0.0
 10
1351.830834089916
 20
753.5765710216669
 10
1350.21174305598
 20
719.9802937847285
  0
LWPOLYLINE
  5
7A05
330
1E
100
AcDbEntity
  8
躯体と製品
  6
Continuous
 62
     4
100
AcDbPolyline
 90
        2
 70
     0
 43
0.0
 10
1354.820564924877
 20
753.2910123211054
 10
1353.063687025707
 20
716.8358865123896
  0
LWPOLYLINE
  5
7A06
330
1E
100
AcDbEntity
  8
躯体と製品
  6
Continuous
 62
     4
100
AcDbPolyline
 90
        2
 70
     0
 43
0.0
 10
1366.063679387552
 20
761.335884605041
 10
1360.114411055248
 20
761.335884605041
  0
LWPOLYLINE
  5
7A07
330
1E
100
AcDbEntity
  8
躯体と製品
  6
Continuous
 62
     4
100
AcDbPolyline
 90
        2
 70
     0
 43
0.0
 10
1380.063685118358
 20
716.8358865123896
 10
1358.366106688182
 20
716.8358865123896
  0
LWPOLYLINE
  5
7A08
330
1E
100
AcDbEntity
  8
躯体と製品
  6
Continuous
 62
     4
100
AcDbPolyline
 90
        2
 70
     0
 43
0.0
 10
1354.713677107494
 20
712.3358836513666
 10
1354.713677107494
 20
693.3358850818781
  0
LWPOLYLINE
  5
7A09
330
1E
100
AcDbEntity
  8
躯体と製品
  6
Continuous
 62
     4
100
AcDbPolyline
 90
        2
 70
     0
 43
0.0
 10
1353.063687025707
 20
716.8358865123896
 10
1353.063687025707
 20
713.3358874660639
  0
LWPOLYLINE
  5
7A0A
330
1E
100
AcDbEntity
  8
躯体と製品
  6
Continuous
 62
     4
100
AcDbPolyline
 90
        2
 70
     0
 43
0.0
 10
1380.063685118358
 20
754.8358884197382
 10
1360.004662214916
 20
754.8358884197382
  0
LWPOLYLINE
  5
7A0B
330
1E
100
AcDbEntity
  8
躯体と製品
  6
Continuous
 62
     4
100
AcDbPolyline
 90
        2
 70
     0
 43
0.0
 10
1380.063685118358
 20
758.3358826976923
 10
1360.114411055248
 20
758.3358826976923
  0
LWPOLYLINE
  5
7A0C
330
1E
100
AcDbEntity
  8
躯体と製品
  6
Continuous
 62
     4
100
AcDbPolyline
 90
        2
 70
     0
 43
0.0
 10
1405.413683592479
 20
693.3358850818781
 10
1354.713677107494
 20
693.3358850818781
  0
LWPOLYLINE
  5
7A0D
330
1E
100
AcDbEntity
  8
躯体と製品
  6
Continuous
 62
     4
100
AcDbPolyline
 90
        2
 70
     0
 43
0.0
 10
1406.413687407176
 20
713.3358874660639
 10
1407.063683211009
 20
713.3358874660639
  0
LWPOLYLINE
  5
7A0E
330
1E
100
AcDbEntity
  8
躯体と製品
  6
Continuous
 62
     4
100
AcDbPolyline
 90
        2
 70
     0
 43
0.0
 10
1408.2965361468
 20
753.5765710216669
 10
1409.915627180736
 20
719.9802937847285
  0
LWPOLYLINE
  5
7A0F
330
1E
100
AcDbEntity
  8
躯体と製品
  6
Continuous
 62
     4
100
AcDbPolyline
 90
        2
 70
     0
 43
0.0
 10
1405.306814848582
 20
753.2910123211054
 10
1407.063683211009
 20
716.8358865123896
  0
LWPOLYLINE
  5
7A10
330
1E
100
AcDbEntity
  8
躯体と製品
  6
Continuous
 62
     4
100
AcDbPolyline
 90
        2
 70
     0
 43
0.0
 10
1394.063679424921
 20
761.335884605041
 10
1400.012959181468
 20
761.335884605041
  0
LWPOLYLINE
  5
7A11
330
1E
100
AcDbEntity
  8
躯体と製品
  6
Continuous
 62
     4
100
AcDbPolyline
 90
        2
 70
     0
 43
0.0
 10
1380.063685118358
 20
716.8358865123896
 10
1401.761263548534
 20
716.8358865123896
  0
LWPOLYLINE
  5
7A12
330
1E
100
AcDbEntity
  8
躯体と製品
  6
Continuous
 62
     4
100
AcDbPolyline
 90
        2
 70
     0
 43
0.0
 10
1405.413683592479
 20
712.3358836513666
 10
1405.413683592479
 20
693.3358850818781
  0
LWPOLYLINE
  5
7A13
330
1E
100
AcDbEntity
  8
躯体と製品
  6
Continuous
 62
     4
100
AcDbPolyline
 90
        2
 70
     0
 43
0.0
 10
1407.063683211009
 20
716.8358865123896
 10
1407.063683211009
 20
713.3358874660639
  0
LWPOLYLINE
  5
7A14
330
1E
100
AcDbEntity
  8
躯体と製品
  6
Continuous
 62
     4
100
AcDbPolyline
 90
        2
 70
     0
 43
0.0
 10
1380.063685118358
 20
754.8358884197382
 10
1400.1227080218
 20
754.8358884197382
  0
LWPOLYLINE
  5
7A15
330
1E
100
AcDbEntity
  8
躯体と製品
  6
Continuous
 62
     4
100
AcDbPolyline
 90
        2
 70
     0
 43
0.0
 10
1380.063685118358
 20
758.3358826976923
 10
1400.012959181468
 20
758.3358826976923
  0
LWPOLYLINE
  5
7A16
330
1E
100
AcDbEntity
  8
躯体と製品
  6
Continuous
 62
     4
100
AcDbPolyline
 90
        2
 70
     0
 43
0.0
 10
1402.120388685863
 20
752.932163749328
 10
1403.758944212596
 20
718.9321580272822
  0
LWPOLYLINE
  5
7A17
330
1E
100
AcDbEntity
  8
躯体と製品
  6
Continuous
 62
     4
100
AcDbPolyline
 90
        2
 70
     0
 43
0.0
 10
1380.063685118358
 20
713.3358874660639
 10
1405.413683592479
 20
713.3358874660639
  0
LWPOLYLINE
  5
7A18
330
1E
100
AcDbEntity
  8
躯体と製品
  6
Continuous
 62
     4
100
AcDbPolyline
 90
        2
 70
     0
 43
0.0
 10
1380.063685118358
 20
713.3358874660639
 10
1353.713692366283
 20
713.3358874660639
  0
LWPOLYLINE
  5
7A19
330
1E
100
AcDbEntity
  8
躯体と製品
  6
Continuous
 62
     4
100
AcDbPolyline
 90
        2
 70
     0
 43
0.0
 10
1358.006981550853
 20
752.932163749328
 10
1356.368416487377
 20
718.9321580272822
  0
LWPOLYLINE
  5
7A1B
330
1E
100
AcDbEntity
  8
躯体と製品
  6
Continuous
 62
     4
100
AcDbPolyline
 90
        2
 70
     0
 43
0.0
 10
1357.363680349986
 20
900.3358826976921
 42
0.4142135623730951
 10
1361.063680349986
 20
896.635882697692
  0
LWPOLYLINE
  5
7A1D
330
1E
100
AcDbEntity
  8
躯体と製品
  6
Continuous
 62
     4
100
AcDbPolyline
 90
        2
 70
     0
 43
0.0
 10
1399.063680349986
 20
896.635882697692
 42
0.4142135623730951
 10
1402.763680349986
 20
900.3358826976921
  0
LWPOLYLINE
  5
7A1F
330
1E
100
AcDbEntity
  8
躯体と製品
  6
Continuous
 62
     4
100
AcDbPolyline
 90
        2
 70
     0
 43
0.0
 10
1390.027259349986
 20
896.6358826976922
 10
1390.027259349986
 20
894.3358826976922
  0
LWPOLYLINE
  5
7A20
330
1E
100
AcDbEntity
  8
躯体と製品
  6
Continuous
 62
     4
100
AcDbPolyline
 90
        2
 70
     0
 43
0.0
 10
1399.063680349986
 20
896.6358826976923
 10
1390.027259349986
 20
896.6358826976922
  0
LWPOLYLINE
  5
7A21
330
1E
100
AcDbEntity
  8
躯体と製品
  6
Continuous
 62
     3
100
AcDbPolyline
 90
        2
 70
     0
 43
0.0
 10
1515.455220349986
 20
995.3358426976924
 10
1515.455220349986
 20
990.3358826976925
  0
LWPOLYLINE
  5
7A22
330
1E
100
AcDbEntity
  8
躯体と製品
  6
Continuous
 62
     3
100
AcDbPolyline
 90
        2
 70
     0
 43
0.0
 10
1515.455222349986
 20
995.3358426976924
 42
0.4142135623730951
 10
1514.455182349986
 20
996.3358826976925
  0
LWPOLYLINE
  5
7A23
330
1E
100
AcDbEntity
  8
躯体と製品
  6
Continuous
 62
     3
100
AcDbPolyline
 90
        2
 70
     0
 43
0.0
 10
1514.455182349986
 20
996.3358826976925
 10
1506.454866349986
 20
996.3358826976925
  0
LWPOLYLINE
  5
7A24
330
1E
100
AcDbEntity
  8
躯体と製品
  6
Continuous
 62
     3
100
AcDbPolyline
 90
        2
 70
     0
 43
0.0
 10
1515.455220349986
 20
1003.335920697692
 10
1515.455220349986
 20
1008.335882697692
  0
LWPOLYLINE
  5
7A25
330
1E
100
AcDbEntity
  8
躯体と製品
  6
Continuous
 62
     3
100
AcDbPolyline
 90
        2
 70
     0
 43
0.0
 10
1514.455182349986
 20
1002.335880697692
 42
0.4142135623730951
 10
1515.455222349986
 20
1003.335920697692
  0
LWPOLYLINE
  5
7A26
330
1E
100
AcDbEntity
  8
躯体と製品
  6
Continuous
 62
     3
100
AcDbPolyline
 90
        2
 70
     0
 43
0.0
 10
1514.455182349986
 20
1002.335882697692
 10
1506.454866349986
 20
1002.335882697692
  0
LWPOLYLINE
  5
7A27
330
1E
100
AcDbEntity
  8
躯体と製品
  6
Continuous
 62
     3
100
AcDbPolyline
 90
        2
 70
     0
 43
0.0
 10
1506.454866349986
 20
1002.335882697692
 42
0.4142135623730951
 10
1505.454826349987
 20
1001.335842697692
  0
LWPOLYLINE
  5
7A28
330
1E
100
AcDbEntity
  8
躯体と製品
  6
Continuous
 62
     3
100
AcDbPolyline
 90
        2
 70
     0
 43
0.0
 10
1505.454828349986
 20
1001.335842697692
 10
1505.454828349986
 20
997.3359226976924
  0
LWPOLYLINE
  5
7A29
330
1E
100
AcDbEntity
  8
躯体と製品
  6
Continuous
 62
     3
100
AcDbPolyline
 90
        2
 70
     0
 43
0.0
 10
1505.454826349987
 20
997.3359226976924
 42
0.4142135623730951
 10
1506.454866349986
 20
996.3358826976925
  0
LWPOLYLINE
  5
7A2A
330
1E
100
AcDbEntity
  8
躯体と製品
  6
Continuous
 62
     3
100
AcDbPolyline
 90
        2
 70
     0
 43
0.0
 10
1245.455215349986
 20
995.3358426976924
 10
1245.455215349986
 20
990.3358826976925
  0
LWPOLYLINE
  5
7A2B
330
1E
100
AcDbEntity
  8
躯体と製品
  6
Continuous
 62
     3
100
AcDbPolyline
 90
        2
 70
     0
 43
0.0
 10
1245.455217349986
 20
995.3358426976924
 42
0.4142135623730951
 10
1244.455177349987
 20
996.3358826976925
  0
LWPOLYLINE
  5
7A2C
330
1E
100
AcDbEntity
  8
躯体と製品
  6
Continuous
 62
     3
100
AcDbPolyline
 90
        2
 70
     0
 43
0.0
 10
1244.455177349987
 20
996.3358826976925
 10
1236.454861349987
 20
996.3358826976925
  0
LWPOLYLINE
  5
7A2D
330
1E
100
AcDbEntity
  8
躯体と製品
  6
Continuous
 62
     3
100
AcDbPolyline
 90
        2
 70
     0
 43
0.0
 10
1245.455215349986
 20
1003.335920697692
 10
1245.455215349986
 20
1008.335882697692
  0
LWPOLYLINE
  5
7A2E
330
1E
100
AcDbEntity
  8
躯体と製品
  6
Continuous
 62
     3
100
AcDbPolyline
 90
        2
 70
     0
 43
0.0
 10
1244.455177349987
 20
1002.335880697692
 42
0.4142135623730951
 10
1245.455217349986
 20
1003.335920697692
  0
LWPOLYLINE
  5
7A2F
330
1E
100
AcDbEntity
  8
躯体と製品
  6
Continuous
 62
     3
100
AcDbPolyline
 90
        2
 70
     0
 43
0.0
 10
1244.455177349987
 20
1002.335882697692
 10
1236.454861349987
 20
1002.335882697692
  0
LWPOLYLINE
  5
7A30
330
1E
100
AcDbEntity
  8
躯体と製品
  6
Continuous
 62
     3
100
AcDbPolyline
 90
        2
 70
     0
 43
0.0
 10
1236.454861349987
 20
1002.335882697692
 42
0.4142135623730951
 10
1235.454821349987
 20
1001.335842697692
  0
LWPOLYLINE
  5
7A31
330
1E
100
AcDbEntity
  8
躯体と製品
  6
Continuous
 62
     3
100
AcDbPolyline
 90
        2
 70
     0
 43
0.0
 10
1235.454823349986
 20
1001.335842697692
 10
1235.454823349986
 20
997.3359226976924
  0
LWPOLYLINE
  5
7A32
330
1E
100
AcDbEntity
  8
躯体と製品
  6
Continuous
 62
     3
100
AcDbPolyline
 90
        2
 70
     0
 43
0.0
 10
1235.454821349987
 20
997.3359226976924
 42
0.4142135623730951
 10
1236.454861349987
 20
996.3358826976925
  0
LWPOLYLINE
  5
7A33
330
1E
100
AcDbEntity
  8
躯体と製品
  6
Continuous
 62
     3
100
AcDbPolyline
 90
        2
 70
     0
 43
0.0
 10
1335.455215349986
 20
995.3358426976924
 10
1335.455215349986
 20
990.3358826976925
  0
LWPOLYLINE
  5
7A34
330
1E
100
AcDbEntity
  8
躯体と製品
  6
Continuous
 62
     3
100
AcDbPolyline
 90
        2
 70
     0
 43
0.0
 10
1335.455217349986
 20
995.3358426976924
 42
0.4142135623730951
 10
1334.455177349987
 20
996.3358826976925
  0
LWPOLYLINE
  5
7A35
330
1E
100
AcDbEntity
  8
躯体と製品
  6
Continuous
 62
     3
100
AcDbPolyline
 90
        2
 70
     0
 43
0.0
 10
1334.455177349987
 20
996.3358826976925
 10
1326.454861349987
 20
996.3358826976925
  0
LWPOLYLINE
  5
7A36
330
1E
100
AcDbEntity
  8
躯体と製品
  6
Continuous
 62
     3
100
AcDbPolyline
 90
        2
 70
     0
 43
0.0
 10
1335.455215349986
 20
1003.335920697692
 10
1335.455215349986
 20
1008.335882697692
  0
LWPOLYLINE
  5
7A37
330
1E
100
AcDbEntity
  8
躯体と製品
  6
Continuous
 62
     3
100
AcDbPolyline
 90
        2
 70
     0
 43
0.0
 10
1334.455177349987
 20
1002.335880697692
 42
0.4142135623730951
 10
1335.455217349986
 20
1003.335920697692
  0
LWPOLYLINE
  5
7A38
330
1E
100
AcDbEntity
  8
躯体と製品
  6
Continuous
 62
     3
100
AcDbPolyline
 90
        2
 70
     0
 43
0.0
 10
1334.455177349987
 20
1002.335882697692
 10
1326.454861349987
 20
1002.335882697692
  0
LWPOLYLINE
  5
7A39
330
1E
100
AcDbEntity
  8
躯体と製品
  6
Continuous
 62
     3
100
AcDbPolyline
 90
        2
 70
     0
 43
0.0
 10
1326.454861349987
 20
1002.335882697692
 42
0.4142135623730951
 10
1325.454821349987
 20
1001.335842697692
  0
LWPOLYLINE
  5
7A3A
330
1E
100
AcDbEntity
  8
躯体と製品
  6
Continuous
 62
     3
100
AcDbPolyline
 90
        2
 70
     0
 43
0.0
 10
1325.454823349986
 20
1001.335842697692
 10
1325.454823349986
 20
997.3359226976924
  0
LWPOLYLINE
  5
7A3B
330
1E
100
AcDbEntity
  8
躯体と製品
  6
Continuous
 62
     3
100
AcDbPolyline
 90
        2
 70
     0
 43
0.0
 10
1325.454821349987
 20
997.3359226976924
 42
0.4142135623730951
 10
1326.454861349987
 20
996.3358826976925
  0
LWPOLYLINE
  5
7A3C
330
1E
100
AcDbEntity
  8
躯体と製品
  6
Continuous
 62
     3
100
AcDbPolyline
 90
        2
 70
     0
 43
0.0
 10
1425.455220349986
 20
995.3358426976924
 10
1425.455220349986
 20
990.3358826976925
  0
LWPOLYLINE
  5
7A3D
330
1E
100
AcDbEntity
  8
躯体と製品
  6
Continuous
 62
     3
100
AcDbPolyline
 90
        2
 70
     0
 43
0.0
 10
1425.455222349986
 20
995.3358426976924
 42
0.4142135623730951
 10
1424.455182349986
 20
996.3358826976925
  0
LWPOLYLINE
  5
7A3E
330
1E
100
AcDbEntity
  8
躯体と製品
  6
Continuous
 62
     3
100
AcDbPolyline
 90
        2
 70
     0
 43
0.0
 10
1424.455182349986
 20
996.3358826976925
 10
1416.454866349987
 20
996.3358826976925
  0
LWPOLYLINE
  5
7A3F
330
1E
100
AcDbEntity
  8
躯体と製品
  6
Continuous
 62
     3
100
AcDbPolyline
 90
        2
 70
     0
 43
0.0
 10
1425.455220349986
 20
1003.335920697692
 10
1425.455220349986
 20
1008.335882697692
  0
LWPOLYLINE
  5
7A40
330
1E
100
AcDbEntity
  8
躯体と製品
  6
Continuous
 62
     3
100
AcDbPolyline
 90
        2
 70
     0
 43
0.0
 10
1424.455182349986
 20
1002.335880697692
 42
0.4142135623730951
 10
1425.455222349986
 20
1003.335920697692
  0
LWPOLYLINE
  5
7A41
330
1E
100
AcDbEntity
  8
躯体と製品
  6
Continuous
 62
     3
100
AcDbPolyline
 90
        2
 70
     0
 43
0.0
 10
1424.455182349986
 20
1002.335882697692
 10
1416.454866349987
 20
1002.335882697692
  0
LWPOLYLINE
  5
7A42
330
1E
100
AcDbEntity
  8
躯体と製品
  6
Continuous
 62
     3
100
AcDbPolyline
 90
        2
 70
     0
 43
0.0
 10
1416.454866349987
 20
1002.335882697692
 42
0.4142135623730951
 10
1415.454826349987
 20
1001.335842697692
  0
LWPOLYLINE
  5
7A43
330
1E
100
AcDbEntity
  8
躯体と製品
  6
Continuous
 62
     3
100
AcDbPolyline
 90
        2
 70
     0
 43
0.0
 10
1415.454828349986
 20
1001.335842697692
 10
1415.454828349986
 20
997.3359226976924
  0
LWPOLYLINE
  5
7A44
330
1E
100
AcDbEntity
  8
躯体と製品
  6
Continuous
 62
     3
100
AcDbPolyline
 90
        2
 70
     0
 43
0.0
 10
1415.454826349987
 20
997.3359226976924
 42
0.4142135623730951
 10
1416.454866349987
 20
996.3358826976925
  0
LWPOLYLINE
  5
7A45
330
1E
100
AcDbEntity
  8
躯体と製品
  6
PLINE2
 62
     3
100
AcDbPolyline
 90
        2
 70
     0
 43
0.0
 10
1810.389078349987
 20
896.635882697692
 10
1919.584942349987
 20
896.635882697692
  0
LWPOLYLINE
  5
7A46
330
1E
100
AcDbEntity
  8
躯体と製品
  6
Continuous
 62
     4
100
AcDbPolyline
 90
        2
 70
     0
 43
0.0
 10
1810.389078349986
 20
894.335882697692
 10
1919.584942349987
 20
894.335882697692
  0
LWPOLYLINE
  5
7A47
330
1E
100
AcDbEntity
  8
躯体と製品
  6
PLINE2
 62
     3
100
AcDbPolyline
 90
        2
 70
     0
 43
0.0
 10
1810.389078349986
 20
942.035882697692
 10
1919.584942349987
 20
942.035882697692
  0
LWPOLYLINE
  5
7A48
330
1E
100
AcDbEntity
  8
躯体と製品
  6
Continuous
 62
     4
100
AcDbPolyline
 90
        2
 70
     0
 43
0.0
 10
1583.318360349986
 20
975.3358826976921
 10
1919.584942349987
 20
975.3358826976921
  0
LWPOLYLINE
  5
7A49
330
1E
100
AcDbEntity
  8
躯体と製品
  6
Continuous
 62
     4
100
AcDbPolyline
 90
        2
 70
     0
 43
0.0
 10
1583.318360349986
 20
1008.335882697692
 10
1919.584942349987
 20
1008.335882697692
  0
LWPOLYLINE
  5
7A4A
330
1E
100
AcDbEntity
  8
躯体と製品
  6
Continuous
 62
     4
100
AcDbPolyline
 90
        2
 70
     0
 43
0.0
 10
1583.318360349986
 20
990.3358826976921
 10
1919.584942349987
 20
990.3358826976921
  0
LWPOLYLINE
  5
7A4B
330
1E
100
AcDbEntity
  8
躯体と製品
  6
Continuous
 62
     4
100
AcDbPolyline
 90
        2
 70
     0
 43
0.0
 10
1810.389078349986
 20
944.335882697692
 10
1919.584942349987
 20
944.335882697692
  0
LWPOLYLINE
  5
7A4C
330
1E
100
AcDbEntity
  8
躯体と製品
  6
Continuous
 62
     3
100
AcDbPolyline
 90
        2
 70
     0
 43
0.0
 10
1583.318360349986
 20
985.335882697692
 10
1919.584942349987
 20
985.335882697692
  0
LWPOLYLINE
  5
7A4D
330
1E
100
AcDbEntity
  8
躯体と製品
  6
Continuous
 62
     3
100
AcDbPolyline
 90
        2
 70
     0
 43
0.0
 10
1583.318360349986
 20
980.3358826976921
 10
1919.584942349987
 20
980.3358826976921
  0
LWPOLYLINE
  5
7A4E
330
1E
100
AcDbEntity
  8
躯体と製品
  6
PLINE2
 62
     3
100
AcDbPolyline
 90
        2
 70
     0
 43
0.0
 10
1583.318360349987
 20
896.635882697692
 10
1760.389332349987
 20
896.635882697692
  0
LWPOLYLINE
  5
7A4F
330
1E
100
AcDbEntity
  8
躯体と製品
  6
Continuous
 62
     4
100
AcDbPolyline
 90
        2
 70
     0
 43
0.0
 10
1583.318360349986
 20
894.335882697692
 10
1760.389332349987
 20
894.335882697692
  0
LWPOLYLINE
  5
7A5D
330
1E
100
AcDbEntity
  8
躯体と製品
  6
PLINE2
 62
     3
100
AcDbPolyline
 90
        2
 70
     0
 43
0.0
 10
1583.318360349986
 20
942.035882697692
 10
1760.389332349987
 20
942.035882697692
  0
LWPOLYLINE
  5
7A79
330
1E
100
AcDbEntity
  8
躯体と製品
  6
Continuous
 62
     4
100
AcDbPolyline
 90
        2
 70
     0
 43
0.0
 10
1760.389332349987
 20
944.335882697692
 10
1583.318360349986
 20
944.335882697692
  0
LWPOLYLINE
  5
7A92
330
1E
100
AcDbEntity
  8
躯体と製品
  6
Continuous
 62
     4
100
AcDbPolyline
 90
        2
 70
     0
 43
0.0
 10
1413.818148349986
 20
946.3358826976923
 10
1530.461122349986
 20
946.3358826976923
  0
LWPOLYLINE
  5
7A9B
330
1E
100
AcDbEntity
  8
躯体と製品
  6
Continuous
 62
     4
100
AcDbPolyline
 90
        2
 70
     0
 43
0.0
 10
1230.043816349986
 20
990.3358826976923
 10
1530.461122349986
 20
990.3358826976923
  0
LWPOLYLINE
  5
7A9C
330
1E
100
AcDbEntity
  8
躯体と製品
  6
Continuous
 62
     3
100
AcDbPolyline
 90
        2
 70
     0
 43
0.0
 10
1230.043816349986
 20
980.3358826976923
 10
1530.461122349986
 20
980.3358826976923
  0
LWPOLYLINE
  5
7A9D
330
1E
100
AcDbEntity
  8
躯体と製品
  6
Continuous
 62
     3
100
AcDbPolyline
 90
        2
 70
     0
 43
0.0
 10
1230.043816349986
 20
985.3358826976924
 10
1530.461122349986
 20
985.3358826976924
  0
LWPOLYLINE
  5
7A9E
330
1E
100
AcDbEntity
  8
躯体と製品
  6
Continuous
 62
     4
100
AcDbPolyline
 90
        2
 70
     0
 43
0.0
 10
1230.043816349986
 20
1008.335882697692
 10
1530.461122349986
 20
1008.335882697692
  0
LWPOLYLINE
  5
7AA5
330
1E
100
AcDbEntity
  8
躯体と製品
  6
Continuous
 62
     4
100
AcDbPolyline
 90
        2
 70
     0
 43
0.0
 10
1230.043816349986
 20
975.3358826976922
 10
1530.461122349986
 20
975.3358826976922
  0
LWPOLYLINE
  5
7AB0
330
1E
100
AcDbEntity
  8
躯体と製品
  6
Continuous
 62
     4
100
AcDbPolyline
 90
        2
 70
     0
 43
0.0
 10
1346.209196349986
 20
946.3358826976923
 10
1230.043816349986
 20
946.3358826976923
  0
LWPOLYLINE
  5
7ABA
330
1E
100
AcDbEntity
  8
躯体と製品
  6
Continuous
 62
     3
100
AcDbPolyline
 90
        2
 70
     0
 43
0.0
 10
1413.818148349986
 20
949.3358826976923
 10
1530.461122349986
 20
949.3358826976923
  0
LWPOLYLINE
  5
7ABC
330
1E
100
AcDbEntity
  8
躯体と製品
  6
Continuous
 62
     3
100
AcDbPolyline
 90
        2
 70
     0
 43
0.0
 10
1346.209196349986
 20
949.3358826976923
 10
1230.043816349986
 20
949.3358826976923
  0
LWPOLYLINE
  5
7ACE
330
1E
100
AcDbEntity
  8
躯体と製品
  6
Continuous
 62
     4
100
AcDbPolyline
 90
        2
 70
     0
 43
0.0
 10
1401.413680349986
 20
514.1359126976923
 10
1401.413680349986
 20
654.8430910818782
  0
LWPOLYLINE
  5
7ACF
330
1E
100
AcDbEntity
  8
躯体と製品
  6
Continuous
 62
     4
100
AcDbPolyline
 90
        2
 70
     0
 43
0.0
 10
1401.413680349986
 20
693.335885081878
 10
1401.413680349986
 20
664.3199710818781
  0
LWPOLYLINE
  5
7AD0
330
1E
100
AcDbEntity
  8
躯体と製品
  6
Continuous
 62
     4
100
AcDbPolyline
 90
        2
 70
     0
 43
0.0
 10
1358.713680349987
 20
514.1359126976923
 10
1358.713680349987
 20
654.8430910818782
  0
LWPOLYLINE
  5
7AD1
330
1E
100
AcDbEntity
  8
躯体と製品
  6
Continuous
 62
     4
100
AcDbPolyline
 90
        2
 70
     0
 43
0.0
 10
1358.713680349987
 20
693.335885081878
 10
1358.713680349987
 20
664.3199710818781
  0
LWPOLYLINE
  5
7AD2
330
1E
100
AcDbEntity
  8
躯体と製品
  6
Continuous
 62
     4
100
AcDbPolyline
 90
        2
 70
     0
 43
0.0
 10
1764.039205349987
 20
514.1359117218305
 10
1764.039205349987
 20
654.8438783260089
  0
LWPOLYLINE
  5
7AD3
330
1E
100
AcDbEntity
  8
躯体と製品
  6
Continuous
 62
     4
100
AcDbPolyline
 90
        2
 70
     0
 43
0.0
 10
1764.039205349987
 20
693.335885081878
 10
1764.039205349987
 20
664.3199710818781
  0
LWPOLYLINE
  5
7AD4
330
1E
100
AcDbEntity
  8
躯体と製品
  6
Continuous
 62
     4
100
AcDbPolyline
 90
        2
 70
     0
 43
0.0
 10
1806.739205349986
 20
514.1359126976923
 10
1806.739205349986
 20
654.8430910818782
  0
LWPOLYLINE
  5
7AD5
330
1E
100
AcDbEntity
  8
躯体と製品
  6
Continuous
 62
     4
100
AcDbPolyline
 90
        2
 70
     0
 43
0.0
 10
1806.739205349986
 20
693.3358850818779
 10
1806.739205349986
 20
664.3193297339157
  0
LWPOLYLINE
  5
7AD6
330
1E
100
AcDbEntity
  8
躯体と製品
  6
Continuous
 62
     4
100
AcDbPolyline
 90
        2
 70
     0
 43
0.0
 10
1583.318360349986
 20
508.3358826976923
 10
1919.584942349987
 20
508.3358826976923
  0
LWPOLYLINE
  5
7AD7
330
1E
100
AcDbEntity
  8
躯体と製品
  6
Continuous
 62
     3
100
AcDbPolyline
 90
        2
 70
     0
 43
0.0
 10
1884.556853349986
 20
508.3358826976923
 10
1863.054363349986
 20
486.8333926976923
  0
LWPOLYLINE
  5
7AD8
330
1E
100
AcDbEntity
  8
躯体と製品
  6
Continuous
 62
     3
100
AcDbPolyline
 90
        2
 70
     0
 43
0.0
 10
1870.414643349986
 20
508.3358826976923
 10
1848.912153349986
 20
486.8333926976923
  0
LWPOLYLINE
  5
7AD9
330
1E
100
AcDbEntity
  8
躯体と製品
  6
Continuous
 62
     4
100
AcDbPolyline
 90
        2
 70
     0
 43
0.0
 10
1764.039255004462
 20
514.4340326976923
 10
1806.739205349986
 20
514.4340326976923
  0
LWPOLYLINE
  5
7ADA
330
1E
100
AcDbEntity
  8
躯体と製品
  6
Continuous
 62
     4
100
AcDbPolyline
 90
        2
 70
     0
 43
0.0
 10
1725.389205349987
 20
511.1358966976923
 10
1845.389205349986
 20
511.1358966976923
  0
LWPOLYLINE
  5
7ADB
330
1E
100
AcDbEntity
  8
躯体と製品
  6
Continuous
 62
     4
100
AcDbPolyline
 90
        2
 70
     0
 43
0.0
 10
1725.389205349987
 20
508.3358826976923
 10
1845.389205349986
 20
508.3358826976923
  0
LWPOLYLINE
  5
7ADC
330
1E
100
AcDbEntity
  8
躯体と製品
  6
Continuous
 62
     4
100
AcDbPolyline
 90
        2
 70
     0
 43
0.0
 10
1845.389205349986
 20
511.1358966976923
 10
1845.389205349986
 20
508.3358826976923
  0
LWPOLYLINE
  5
7ADD
330
1E
100
AcDbEntity
  8
躯体と製品
  6
Continuous
 62
     4
100
AcDbPolyline
 90
        2
 70
     0
 43
0.0
 10
1809.739221349986
 20
511.1358966976923
 42
0.4142135623730951
 10
1806.739205349986
 20
514.1359126976923
  0
LWPOLYLINE
  5
7ADE
330
1E
100
AcDbEntity
  8
躯体と製品
  6
Continuous
 62
     4
100
AcDbPolyline
 90
        2
 70
     0
 43
0.0
 10
1764.039205349987
 20
514.1359126976923
 42
0.4142135623730951
 10
1761.039189349987
 20
511.1358966976923
  0
LWPOLYLINE
  5
7ADF
330
1E
100
AcDbEntity
  8
躯体と製品
  6
Continuous
 62
     4
100
AcDbPolyline
 90
        2
 70
     0
 43
0.0
 10
1725.389205349987
 20
511.1358966976923
 10
1725.389205349987
 20
508.3358826976923
  0
LWPOLYLINE
  5
7AE0
330
1E
100
AcDbEntity
  8
躯体と製品
  6
Continuous
 62
     3
100
AcDbPolyline
 90
        2
 70
     0
 43
0.0
 10
1708.179543349986
 20
508.3358826976923
 10
1686.677051349986
 20
486.8333926976923
  0
LWPOLYLINE
  5
7AE1
330
1E
100
AcDbEntity
  8
躯体と製品
  6
Continuous
 62
     3
100
AcDbPolyline
 90
        2
 70
     0
 43
0.0
 10
1694.037331349987
 20
508.3358826976923
 10
1672.534841349986
 20
486.8333926976923
  0
LWPOLYLINE
  5
7AE2
330
1E
100
AcDbEntity
  8
躯体と製品
  6
Continuous
 62
     3
100
AcDbPolyline
 90
        2
 70
     0
 43
0.0
 10
1679.895121349987
 20
508.3358826976923
 10
1658.392629349986
 20
486.8333926976923
  0
LWPOLYLINE
  5
7AE3
330
1E
100
AcDbEntity
  8
躯体と製品
  6
Continuous
 62
     3
100
AcDbPolyline
 90
        2
 70
     0
 43
0.0
 10
1898.699065349986
 20
508.3358826976923
 10
1877.196575349987
 20
486.8333926976923
  0
LWPOLYLINE
  5
7AE4
330
1E
100
AcDbEntity
  8
躯体と製品
  6
Continuous
 62
     4
100
AcDbPolyline
 90
        2
 70
     0
 43
0.0
 10
1358.713680349987
 20
514.4340326976923
 10
1401.413680349986
 20
514.4340326976923
  0
LWPOLYLINE
  5
7AE5
330
1E
100
AcDbEntity
  8
躯体と製品
  6
Continuous
 62
     4
100
AcDbPolyline
 90
        2
 70
     0
 43
0.0
 10
1320.063680349986
 20
511.1358966976923
 10
1440.063680349986
 20
511.1358966976923
  0
LWPOLYLINE
  5
7AE6
330
1E
100
AcDbEntity
  8
躯体と製品
  6
Continuous
 62
     4
100
AcDbPolyline
 90
        2
 70
     0
 43
0.0
 10
1320.063680349986
 20
508.3358826976923
 10
1440.063680349986
 20
508.3358826976923
  0
LWPOLYLINE
  5
7AE7
330
1E
100
AcDbEntity
  8
躯体と製品
  6
Continuous
 62
     4
100
AcDbPolyline
 90
        2
 70
     0
 43
0.0
 10
1440.063680349986
 20
511.1358966976923
 10
1440.063680349986
 20
508.3358826976923
  0
LWPOLYLINE
  5
7AE8
330
1E
100
AcDbEntity
  8
躯体と製品
  6
Continuous
 62
     4
100
AcDbPolyline
 90
        2
 70
     0
 43
0.0
 10
1404.413696349986
 20
511.1358966976923
 42
0.4142135623730951
 10
1401.413680349986
 20
514.1359126976923
  0
LWPOLYLINE
  5
7AE9
330
1E
100
AcDbEntity
  8
躯体と製品
  6
Continuous
 62
     3
100
AcDbPolyline
 90
        2
 70
     0
 43
0.0
 10
1493.386411349987
 20
508.3358826976923
 10
1471.883919349986
 20
486.8333926976923
  0
LWPOLYLINE
  5
7AEA
330
1E
100
AcDbEntity
  8
躯体と製品
  6
Continuous
 62
     3
100
AcDbPolyline
 90
        2
 70
     0
 43
0.0
 10
1479.244199349986
 20
508.3358826976923
 10
1457.741709349986
 20
486.8333926976923
  0
LWPOLYLINE
  5
7AEB
330
1E
100
AcDbEntity
  8
躯体と製品
  6
Continuous
 62
     3
100
AcDbPolyline
 90
        2
 70
     0
 43
0.0
 10
1465.101989349986
 20
508.3358826976923
 10
1443.599499349986
 20
486.8333926976923
  0
LWPOLYLINE
  5
7AEC
330
1E
100
AcDbEntity
  8
躯体と製品
  6
Continuous
 62
     4
100
AcDbPolyline
 90
        2
 70
     0
 43
0.0
 10
1358.713680349987
 20
514.1359126976923
 42
0.4142135623730951
 10
1355.713664349986
 20
511.1358966976923
  0
LWPOLYLINE
  5
7AED
330
1E
100
AcDbEntity
  8
躯体と製品
  6
Continuous
 62
     4
100
AcDbPolyline
 90
        2
 70
     0
 43
0.0
 10
1320.063680349986
 20
511.1358966976923
 10
1320.063680349986
 20
508.3358826976923
  0
LWPOLYLINE
  5
7AEE
330
1E
100
AcDbEntity
  8
躯体と製品
  6
Continuous
 62
     3
100
AcDbPolyline
 90
        2
 70
     0
 43
0.0
 10
1302.866887349986
 20
508.3358826976923
 10
1281.364397349986
 20
486.8333926976923
  0
LWPOLYLINE
  5
7AEF
330
1E
100
AcDbEntity
  8
躯体と製品
  6
Continuous
 62
     3
100
AcDbPolyline
 90
        2
 70
     0
 43
0.0
 10
1288.724677349986
 20
508.3358826976923
 10
1267.222187349986
 20
486.8333926976923
  0
LWPOLYLINE
  5
7AF0
330
1E
100
AcDbEntity
  8
躯体と製品
  6
Continuous
 62
     3
100
AcDbPolyline
 90
        2
 70
     0
 43
0.0
 10
1274.582467349986
 20
508.3358826976923
 10
1253.079975349986
 20
486.8333926976923
  0
LWPOLYLINE
  5
7AF1
330
1E
100
AcDbEntity
  8
躯体と製品
  6
Continuous
 62
     4
100
AcDbPolyline
 90
        2
 70
     0
 43
0.0
 10
1230.043816349986
 20
508.3358826976923
 10
1530.461122349986
 20
508.3358826976923
  0
LWPOLYLINE
  5
7AF2
330
1E
100
AcDbEntity
  8
躯体と製品
  6
Continuous
 62
     3
100
AcDbPolyline
 90
        2
 70
     0
 43
0.0
 10
1792.306699349987
 20
845.5689451690629
 10
1792.306699349986
 20
775.3028294691503
  0
LWPOLYLINE
  5
7AF3
330
1E
100
AcDbEntity
  8
躯体と製品
  6
Continuous
 62
     4
100
AcDbPolyline
 90
        2
 70
     0
 43
0.0
 10
1793.389205349987
 20
845.6937304740982
 10
1793.389205349986
 20
775.1780448099188
  0
LWPOLYLINE
  5
7AF4
330
1E
100
AcDbEntity
  8
躯体と製品
  6
Continuous
 62
     4
100
AcDbPolyline
 90
        2
 70
     0
 43
0.0
 10
1777.389205349987
 20
845.6937304345661
 10
1777.389205349986
 20
775.1780424828049
  0
LWPOLYLINE
  5
7AF5
330
1E
100
AcDbEntity
  8
躯体と製品
  6
Continuous
 62
     3
100
AcDbPolyline
 90
        2
 70
     0
 43
0.0
 10
1778.471711349987
 20
845.5689451074007
 10
1778.471711349986
 20
775.3028284557741
  0
LWPOLYLINE
  5
7AF6
330
1E
100
AcDbEntity
  8
躯体と製品
  6
Continuous
 62
     3
100
AcDbPolyline
 90
        2
 70
     0
 43
0.0
 10
1413.854569349986
 20
949.3358826976921
 10
1530.461122349986
 20
949.3358826976923
  0
LWPOLYLINE
  5
7AF7
330
1E
100
AcDbEntity
  8
躯体と製品
  6
Continuous
 62
     3
100
AcDbPolyline
 90
        2
 70
     0
 43
0.0
 10
1373.566072349986
 20
845.5358826976922
 10
1373.566072349986
 20
775.3358826976923
  0
LWPOLYLINE
  5
7AF8
330
1E
100
AcDbEntity
  8
躯体と製品
  6
Continuous
 62
     3
100
AcDbPolyline
 90
        2
 70
     0
 43
0.0
 10
1386.561288349986
 20
845.5358826976922
 10
1386.561288349986
 20
775.3358826976923
  0
LWPOLYLINE
  5
7AF9
330
1E
100
AcDbEntity
  8
躯体と製品
  6
Continuous
 62
     4
100
AcDbPolyline
 90
        2
 70
     0
 43
0.0
 10
1372.063680349986
 20
845.5358826976922
 10
1372.063680349986
 20
775.3358826976923
  0
LWPOLYLINE
  5
7AFA
330
1E
100
AcDbEntity
  8
躯体と製品
  6
Continuous
 62
     4
100
AcDbPolyline
 90
        2
 70
     0
 43
0.0
 10
1388.063680349986
 20
845.5358826976922
 10
1388.063680349986
 20
775.3358826976923
  0
LWPOLYLINE
  5
7AFB
330
1E
100
AcDbEntity
  8
躯体と製品
  6
Continuous
 62
     4
100
AcDbPolyline
 90
        2
 70
     0
 43
0.0
 10
1370.100101349986
 20
896.6358826976922
 10
1370.100101349986
 20
894.3358826976922
  0
LWPOLYLINE
  5
7AFC
330
1E
100
AcDbEntity
  8
躯体と製品
  6
Continuous
 62
     4
100
AcDbPolyline
 90
        2
 70
     0
 43
0.0
 10
1361.063680349986
 20
942.0358826976924
 42
0.4142135623730951
 10
1357.363680349986
 20
938.3358826976923
  0
LWPOLYLINE
  5
7AFF
330
1E
100
AcDbEntity
  8
躯体と製品
  6
Continuous
 62
     4
100
AcDbPolyline
 90
        2
 70
     0
 43
0.0
 10
1402.763680349986
 20
938.3358826976923
 42
0.4142135623730951
 10
1399.063680349986
 20
942.0358826976924
  0
LWPOLYLINE
  5
7B01
330
1E
100
AcDbEntity
  8
躯体と製品
  6
Continuous
 62
     4
100
AcDbPolyline
 90
        2
 70
     0
 43
0.0
 10
1402.763680349986
 20
900.3358826976922
 10
1402.763680349987
 20
938.3358826976923
  0
LWPOLYLINE
  5
7B02
330
1E
100
AcDbEntity
  8
躯体と製品
  6
Continuous
 62
     4
100
AcDbPolyline
 90
        2
 70
     0
 43
0.0
 10
1399.063680349986
 20
942.035882697692
 10
1361.063680349986
 20
942.0358826976922
  0
LWPOLYLINE
  5
7B03
330
1E
100
AcDbEntity
  8
躯体と製品
  6
Continuous
 62
     4
100
AcDbPolyline
 90
        2
 70
     0
 43
0.0
 10
1357.363680349986
 20
938.3358826976923
 10
1357.363680349986
 20
900.3358826976922
  0
LWPOLYLINE
  5
7B04
330
1E
100
AcDbEntity
  8
躯体と製品
  6
Continuous
 62
     4
100
AcDbPolyline
 90
        2
 70
     0
 43
0.0
 10
1361.063680349986
 20
896.6358826976923
 10
1370.063680349986
 20
896.6358826976922
  0
LWPOLYLINE
  5
7B21
330
1E
100
AcDbEntity
  8
文字-記号
  6
Continuous
 62
     7
100
AcDbPolyline
 90
        3
 70
     0
 43
0.0
 10
1358.957375530686
 20
1008.335882697692
 10
1377.726457804559
 20
1040.84488680748
 10
1451.790733360577
 20
1040.84488680748
  0
TEXT
  5
7B22
330
1E
100
AcDbEntity
  8
文字-記号
  6
Continuous
 62
     7
100
AcDbText
 10
1384.44677724295
 20
1042.675168085169
 30
0.0
 40
6.5
  1
フローリング貼り
100
AcDbText
  0
LWPOLYLINE
  5
7B23
330
1E
100
AcDbEntity
  8
文字-記号
  6
Continuous
 62
     7
100
AcDbPolyline
 90
        3
 70
     0
 43
0.0
 10
1371.036731737659
 20
985.3358826976924
 10
1394.4363015645
 20
1025.865126513036
 10
1439.479253490533
 20
1025.865126513036
  0
TEXT
  5
7B24
330
1E
100
AcDbEntity
  8
文字-記号
  6
Continuous
 62
     7
100
AcDbText
 10
1402.82272608726
 20
1027.695407790725
 30
0.0
 40
6.5
  1
捨板貼り
100
AcDbText
  0
LWPOLYLINE
  5
7EAD
330
1E
100
AcDbEntity
  8
躯体と製品
  6
Continuous
 62
     4
100
AcDbPolyline
 90
        2
 70
     0
 43
0.0
 10
1399.563680349988
 20
894.3358826976922
 42
0.4142135623730951
 10
1405.063680349988
 20
899.8358826976922
  0
LWPOLYLINE
  5
7EAF
330
1E
100
AcDbEntity
  8
躯体と製品
  6
Continuous
 62
     4
100
AcDbPolyline
 90
        2
 70
     0
 43
0.0
 10
1355.063680349988
 20
899.8358826976922
 42
0.4142135623730951
 10
1360.563680349988
 20
894.3358826976922
  0
LWPOLYLINE
  5
7EB1
330
1E
100
AcDbEntity
  8
躯体と製品
  6
Continuous
 62
     4
100
AcDbPolyline
 90
        2
 70
     0
 43
0.0
 10
1405.063680349988
 20
938.8358826976922
 42
0.4142135623730951
 10
1399.563680349988
 20
944.3358826976922
  0
LWPOLYLINE
  5
7EB5
330
1E
100
AcDbEntity
  8
躯体と製品
  6
Continuous
 62
     4
100
AcDbPolyline
 90
        2
 70
     0
 43
0.0
 10
1405.063680349988
 20
949.7414686976922
 10
1405.063680349988
 20
899.8358826976922
  0
LWPOLYLINE
  5
7EB6
330
1E
100
AcDbEntity
  8
躯体と製品
  6
Continuous
 62
     4
100
AcDbPolyline
 90
        2
 70
     0
 43
0.0
 10
1399.563680349988
 20
944.3358826976922
 10
1360.563680349988
 20
944.3358826976922
  0
LWPOLYLINE
  5
7EB7
330
1E
100
AcDbEntity
  8
躯体と製品
  6
Continuous
 62
     4
100
AcDbPolyline
 90
        2
 70
     0
 43
0.0
 10
1360.563680349988
 20
944.3358826976922
 42
0.4142135623730951
 10
1355.063680349988
 20
938.8358826976922
  0
LWPOLYLINE
  5
7EB8
330
1E
100
AcDbEntity
  8
躯体と製品
  6
Continuous
 62
     4
100
AcDbPolyline
 90
        2
 70
     0
 43
0.0
 10
1355.063680349988
 20
949.7814746976922
 10
1355.063680349988
 20
899.8358826976922
  0
LWPOLYLINE
  5
7EB9
330
1E
100
AcDbEntity
  8
躯体と製品
  6
Continuous
 62
     4
100
AcDbPolyline
 90
        2
 70
     0
 43
0.0
 10
1399.563680349988
 20
894.3358826976922
 10
1360.563680349988
 20
894.3358826976922
  0
LWPOLYLINE
  5
7EC0
330
1E
100
AcDbEntity
  8
躯体と製品
  6
Continuous
 62
     4
100
AcDbPolyline
 90
        2
 70
     0
 43
0.0
 10
1410.063680349989
 20
951.3233631051683
 10
1410.063680349988
 20
964.3358826976921
  0
LWPOLYLINE
  5
7EC1
330
1E
100
AcDbEntity
  8
躯体と製品
  6
Continuous
 62
     4
100
AcDbPolyline
 90
        2
 70
     0
 43
0.0
 10
1350.063680349988
 20
951.3233631051679
 10
1350.063680349988
 20
964.3358826976921
  0
LWPOLYLINE
  5
7EC2
330
1E
100
AcDbEntity
  8
躯体と製品
  6
Continuous
 62
     4
100
AcDbPolyline
 90
        6
 70
     0
 43
0.0
 10
1350.063680349988
 20
943.3484022902165
 10
1350.063680349988
 20
881.6358826976921
 42
0.4142135623730835
 10
1352.363680349988
 20
879.3358826976922
 10
1407.763680349988
 20
879.3358826976922
 42
0.4142135623730835
 10
1410.063680349988
 20
881.6358826976921
 10
1410.063680349989
 20
943.3484022902161
  0
LWPOLYLINE
  5
7EC3
330
1E
100
AcDbEntity
  8
躯体と製品
  6
Continuous
 62
     4
100
AcDbPolyline
 90
        6
 70
     0
 43
0.0
 10
1347.763680349988
 20
944.335882697692
 10
1347.763680349988
 20
881.6358826976921
 42
0.4142135623730604
 10
1352.363680349988
 20
877.035882697692
 10
1407.763680349988
 20
877.0358826976922
 42
0.4142135623730602
 10
1412.363680349988
 20
881.6358826976921
 10
1412.363680349988
 20
944.335882697692
  0
LWPOLYLINE
  5
7EC4
330
1E
100
AcDbEntity
  8
躯体と製品
  6
Continuous
 62
     3
100
AcDbPolyline
 90
        2
 70
     0
 43
0.0
 10
1405.063680349988
 20
949.3358826976923
 10
1400.063680349988
 20
949.3358826976923
  0
LWPOLYLINE
  5
7EC6
330
1E
100
AcDbEntity
  8
躯体と製品
  6
Continuous
 62
     3
100
AcDbPolyline
 90
        2
 70
     0
 43
0.0
 10
1355.063680349988
 20
949.3358826976923
 10
1360.063680349988
 20
949.3358826976923
  0
LWPOLYLINE
  5
7ED7
330
1E
100
AcDbEntity
  8
躯体と製品
  6
Continuous
 62
     4
100
AcDbPolyline
 90
        2
 70
     0
 43
0.0
 10
1360.063680349988
 20
951.3358826976922
 10
1400.063680349988
 20
951.3358826976922
  0
LWPOLYLINE
  5
7ED8
330
1E
100
AcDbEntity
  8
躯体と製品
  6
Continuous
 62
     3
100
AcDbPolyline
 90
        2
 70
     0
 43
0.0
 10
1404.763680349988
 20
952.3354856976922
 10
1404.763680349988
 20
958.3362796976922
  0
LWPOLYLINE
  5
7ED9
330
1E
100
AcDbEntity
  8
躯体と製品
  6
Continuous
 62
     3
100
AcDbPolyline
 90
        2
 70
     0
 43
0.0
 10
1404.763680349988
 20
952.3358826976922
 10
1404.263614349988
 20
952.8359486976922
  0
LWPOLYLINE
  5
7EDA
330
1E
100
AcDbEntity
  8
躯体と製品
  6
Continuous
 62
     3
100
AcDbPolyline
 90
        2
 70
     0
 43
0.0
 10
1404.763680349988
 20
958.3358826976922
 10
1404.263614349988
 20
957.8358166976924
  0
LWPOLYLINE
  5
7EDB
330
1E
100
AcDbEntity
  8
躯体と製品
  6
Continuous
 62
     4
100
AcDbPolyline
 90
        2
 70
     0
 43
0.0
 10
1400.063680349988
 20
951.3358826976922
 10
1400.063680349988
 20
944.3358826976922
  0
LWPOLYLINE
  5
7EDC
330
1E
100
AcDbEntity
  8
躯体と製品
  6
Continuous
 62
     4
100
AcDbPolyline
 90
        2
 70
     0
 43
0.0
 10
1405.063680349988
 20
946.3358826976921
 10
1400.063680349988
 20
946.3358826976921
  0
LWPOLYLINE
  5
7EDD
330
1E
100
AcDbEntity
  8
躯体と製品
  6
Continuous
 62
     3
100
AcDbPolyline
 90
        2
 70
     0
 43
0.0
 10
1346.263681385271
 20
957.8356847402513
 10
1346.263679385271
 20
885.8360806976923
  0
LWPOLYLINE
  5
7EDE
330
1E
100
AcDbEntity
  8
躯体と製品
  6
Continuous
 62
     3
100
AcDbPolyline
 90
        2
 70
     0
 43
0.0
 10
1347.763680349988
 20
959.3358826844887
 42
0.4141747039798736
 10
1346.263681385271
 20
957.8356846976923
  0
LWPOLYLINE
  5
7EDF
330
1E
100
AcDbEntity
  8
躯体と製品
  6
Continuous
 62
     3
100
AcDbPolyline
 90
        2
 70
     0
 43
0.0
 10
1346.263681385271
 20
885.8360806976923
 42
0.4141747039798828
 10
1347.763680349988
 20
884.3358827108957
 42
0.4141747039798828
  0
LWPOLYLINE
  5
7EE1
330
1E
100
AcDbEntity
  8
躯体と製品
  6
Continuous
 62
     3
100
AcDbPolyline
 90
        2
 70
     0
 43
0.0
 10
1343.763680349989
 20
957.585484697692
 10
1343.763680349989
 20
953.086280697364
  0
LWPOLYLINE
  5
7EE2
330
1E
100
AcDbEntity
  8
躯体と製品
  6
Continuous
 62
     3
100
AcDbPolyline
 90
        2
 70
     0
 43
0.0
 10
1346.764078349988
 20
960.585882697692
 42
0.4142135623730951
 10
1343.763680349989
 20
957.585484697692
  0
LWPOLYLINE
  5
7EE3
330
1E
100
AcDbEntity
  8
躯体と製品
  6
Continuous
 62
     3
100
AcDbPolyline
 90
        2
 70
     0
 43
0.0
 10
1347.763680349988
 20
960.5858826976922
 10
1346.764078349988
 20
960.5858826976922
  0
LWPOLYLINE
  5
7EE4
330
1E
100
AcDbEntity
  8
躯体と製品
  6
Continuous
 62
     4
100
AcDbPolyline
 90
        2
 70
     0
 43
0.0
 10
1350.063680349988
 20
964.3358826976921
 10
1347.763680349988
 20
964.3358826976921
  0
LWPOLYLINE
  5
7EE5
330
1E
100
AcDbEntity
  8
躯体と製品
  6
Continuous
 62
     4
100
AcDbPolyline
 90
        2
 70
     0
 43
0.0
 10
1360.063680349988
 20
951.3358826976922
 10
1360.063680349988
 20
944.3358826976922
  0
LWPOLYLINE
  5
7EE6
330
1E
100
AcDbEntity
  8
躯体と製品
  6
Continuous
 62
     4
100
AcDbPolyline
 90
        2
 70
     0
 43
0.0
 10
1351.047357226129
 20
949.7814746976922
 10
1355.063680349988
 20
949.7814746976922
  0
LWPOLYLINE
  5
7EE7
330
1E
100
AcDbEntity
  8
躯体と製品
  6
Continuous
 62
     4
100
AcDbPolyline
 90
        2
 70
     0
 43
0.0
 10
1347.763680349988
 20
950.3358826976922
 10
1347.763680349988
 20
964.3358826976921
  0
LWPOLYLINE
  5
7EE8
330
1E
100
AcDbEntity
  8
躯体と製品
  6
Continuous
 62
     4
100
AcDbPolyline
 90
        2
 70
     0
 43
0.0
 10
1354.063680349988
 20
877.035882697692
 42
0.4141745156370421
 10
1355.563878336657
 20
875.5358846976923
  0
LWPOLYLINE
  5
7EE9
330
1E
100
AcDbEntity
  8
躯体と製品
  6
Continuous
 62
     4
100
AcDbPolyline
 90
        2
 70
     0
 43
0.0
 10
1355.063680349988
 20
946.3358826976921
 10
1360.063680349988
 20
946.3358826976921
  0
LWPOLYLINE
  5
7EEB
330
1E
100
AcDbEntity
  8
躯体と製品
  6
Continuous
 62
     3
100
AcDbPolyline
 90
        2
 70
     0
 43
0.0
 10
1410.063680349988
 20
957.8358166976924
 10
1350.063680349988
 20
957.8358166976924
  0
LWPOLYLINE
  5
7EEC
330
1E
100
AcDbEntity
  8
躯体と製品
  6
Continuous
 62
     3
100
AcDbPolyline
 90
        2
 70
     0
 43
0.0
 10
1418.890540349988
 20
957.8358166976924
 10
1427.763680349988
 20
957.8358166976922
  0
LWPOLYLINE
  5
7EED
330
1E
100
AcDbEntity
  8
躯体と製品
  6
Continuous
 62
     3
100
AcDbPolyline
 90
        2
 70
     0
 43
0.0
 10
1410.063680349988
 20
952.8355516976922
 10
1350.063680349988
 20
952.8355516976921
  0
LWPOLYLINE
  5
7EEE
330
1E
100
AcDbEntity
  8
躯体と製品
  6
Continuous
 62
     3
100
AcDbPolyline
 90
        2
 70
     0
 43
0.0
 10
1418.890540349988
 20
952.8359486976922
 10
1427.763680349988
 20
952.8359486976922
  0
LWPOLYLINE
  5
7EEF
330
1E
100
AcDbEntity
  8
躯体と製品
  6
Continuous
 62
     4
100
AcDbPolyline
 90
        2
 70
     0
 43
0.0
 10
1355.563878336657
 20
875.5358826976923
 10
1404.563482363319
 20
875.5358826976923
  0
LWPOLYLINE
  5
7EF4
330
1E
100
AcDbEntity
  8
躯体と製品
  6
Continuous
 62
     3
100
AcDbPolyline
 90
        2
 70
     0
 43
0.0
 10
1410.063680349988
 20
958.3358826976922
 10
1404.763680349988
 20
958.3358826976922
  0
LWPOLYLINE
  5
7EF5
330
1E
100
AcDbEntity
  8
躯体と製品
  6
Continuous
 62
     3
100
AcDbPolyline
 90
        2
 70
     0
 43
0.0
 10
1418.890540349988
 20
958.3358826976922
 10
1427.763680349988
 20
958.3358826976921
  0
LWPOLYLINE
  5
7EF6
330
1E
100
AcDbEntity
  8
躯体と製品
  6
Continuous
 62
     3
100
AcDbPolyline
 90
        2
 70
     0
 43
0.0
 10
1410.063680349988
 20
952.3358826976922
 10
1404.763680349988
 20
952.3358826976922
  0
LWPOLYLINE
  5
7EF7
330
1E
100
AcDbEntity
  8
躯体と製品
  6
Continuous
 62
     3
100
AcDbPolyline
 90
        2
 70
     0
 43
0.0
 10
1427.763680349988
 20
952.335882697692
 10
1418.890540349988
 20
952.3358826976922
  0
LWPOLYLINE
  5
7EF8
330
1E
100
AcDbEntity
  8
躯体と製品
  6
Continuous
 62
     4
100
AcDbPolyline
 90
        2
 70
     0
 43
0.0
 10
1409.062495251596
 20
949.7414686976924
 10
1405.063680349988
 20
949.7414686976924
  0
LWPOLYLINE
  5
7EF9
330
1E
100
AcDbEntity
  8
躯体と製品
  6
Continuous
 62
     3
100
AcDbPolyline
 90
        2
 70
     0
 43
0.0
 10
1413.863680349988
 20
885.8360806976921
 10
1413.863680349988
 20
961.1329766976922
  0
LWPOLYLINE
  5
7EFA
330
1E
100
AcDbEntity
  8
躯体と製品
  6
Continuous
 62
     3
100
AcDbPolyline
 90
        2
 70
     0
 43
0.0
 10
1412.363482349988
 20
884.3358826976922
 42
0.4142135623730951
 10
1413.863680349988
 20
885.8360806976921
  0
LWPOLYLINE
  5
7EFB
330
1E
100
AcDbEntity
  8
躯体と製品
  6
Continuous
 62
     3
100
AcDbPolyline
 90
        2
 70
     0
 43
0.0
 10
1413.863680349988
 20
957.8356846976923
 42
0.4142135623730951
 10
1412.363482349988
 20
959.3358826976922
  0
LWPOLYLINE
  5
7EFD
330
1E
100
AcDbEntity
  8
躯体と製品
  6
Continuous
 62
     3
100
AcDbPolyline
 90
        2
 70
     0
 43
0.0
 10
1427.763680349988
 20
958.3358826976921
 10
1427.763680349988
 20
952.335882697692
  0
LWPOLYLINE
  5
7EFE
330
1E
100
AcDbEntity
  8
躯体と製品
  6
Continuous
 62
     3
100
AcDbPolyline
 90
        2
 70
     0
 43
0.0
 10
1413.863680349988
 20
959.4077486976924
 10
1413.863680349988
 20
950.6565906976923
  0
LWPOLYLINE
  5
7EFF
330
1E
100
AcDbEntity
  8
躯体と製品
  6
Continuous
 62
     3
100
AcDbPolyline
 90
        2
 70
     0
 43
0.0
 10
1413.863680349988
 20
950.9603036976924
 10
1413.863680349988
 20
956.6393976976925
  0
LWPOLYLINE
  5
7F00
330
1E
100
AcDbEntity
  8
躯体と製品
  6
Continuous
 62
     3
100
AcDbPolyline
 90
        2
 70
     0
 43
0.0
 10
1413.863680349988
 20
950.9603036976924
 10
1414.463760349988
 20
950.3352196976921
  0
LWPOLYLINE
  5
7F01
330
1E
100
AcDbEntity
  8
躯体と製品
  6
Continuous
 62
     3
100
AcDbPolyline
 90
        2
 70
     0
 43
0.0
 10
1413.863680349988
 20
959.7114616976924
 10
1414.463760349988
 20
960.3365436976922
  0
LWPOLYLINE
  5
7F02
330
1E
100
AcDbEntity
  8
躯体と製品
  6
Continuous
 62
     3
100
AcDbPolyline
 90
        2
 70
     0
 43
0.0
 10
1414.463760003949
 20
952.835551633618
 42
0.2275707722563265
 10
1413.863680349988
 20
951.5853856976924
  0
LWPOLYLINE
  5
7F03
330
1E
100
AcDbEntity
  8
躯体と製品
  6
Continuous
 62
     3
100
AcDbPolyline
 90
        2
 70
     0
 43
0.0
 10
1414.463761739771
 20
957.836212446298
 42
0.2400000040461867
 10
1414.463761739771
 20
952.8355509490866
  0
LWPOLYLINE
  5
7F04
330
1E
100
AcDbEntity
  8
躯体と製品
  6
Continuous
 62
     3
100
AcDbPolyline
 90
        2
 70
     0
 43
0.0
 10
1413.863680349988
 20
959.0863776976922
 42
0.2275707722563264
 10
1414.463760003949
 20
957.8362117617666
  0
LWPOLYLINE
  5
7F05
330
1E
100
AcDbEntity
  8
躯体と製品
  6
Continuous
 62
     3
100
AcDbPolyline
 90
        2
 70
     0
 43
0.0
 10
1418.864342349988
 20
959.7114616976924
 10
1418.864342349988
 20
950.9603036976924
  0
LWPOLYLINE
  5
7F06
330
1E
100
AcDbEntity
  8
躯体と製品
  6
Continuous
 62
     3
100
AcDbPolyline
 90
        2
 70
     0
 43
0.0
 10
1418.864342349988
 20
950.9603036976924
 10
1418.864342349988
 20
959.7114616976924
  0
LWPOLYLINE
  5
7F07
330
1E
100
AcDbEntity
  8
躯体と製品
  6
Continuous
 62
     3
100
AcDbPolyline
 90
        2
 70
     0
 43
0.0
 10
1418.264264349988
 20
950.3352196976921
 10
1414.463760349988
 20
950.3352196976921
  0
LWPOLYLINE
  5
7F08
330
1E
100
AcDbEntity
  8
躯体と製品
  6
Continuous
 62
     3
100
AcDbPolyline
 90
        2
 70
     0
 43
0.0
 10
1418.264264349988
 20
952.8355516976922
 10
1414.463760349988
 20
952.8355516976922
  0
LWPOLYLINE
  5
7F09
330
1E
100
AcDbEntity
  8
躯体と製品
  6
Continuous
 62
     3
100
AcDbPolyline
 90
        2
 70
     0
 43
0.0
 10
1418.264264349988
 20
957.8362136976924
 10
1414.463760349988
 20
957.8362136976924
  0
LWPOLYLINE
  5
7F0A
330
1E
100
AcDbEntity
  8
躯体と製品
  6
Continuous
 62
     3
100
AcDbPolyline
 90
        2
 70
     0
 43
0.0
 10
1418.264264349988
 20
960.3365436976922
 10
1414.463760349988
 20
960.3365436976922
  0
LWPOLYLINE
  5
7F0B
330
1E
100
AcDbEntity
  8
躯体と製品
  6
Continuous
 62
     3
100
AcDbPolyline
 90
        2
 70
     0
 43
0.0
 10
1418.864342349988
 20
950.9603036976924
 10
1418.264264349988
 20
950.3352196976921
  0
LWPOLYLINE
  5
7F0C
330
1E
100
AcDbEntity
  8
躯体と製品
  6
Continuous
 62
     3
100
AcDbPolyline
 90
        2
 70
     0
 43
0.0
 10
1418.864342349988
 20
959.7114616976924
 10
1418.264264349988
 20
960.3365436976922
  0
LWPOLYLINE
  5
7F0D
330
1E
100
AcDbEntity
  8
躯体と製品
  6
Continuous
 62
     3
100
AcDbPolyline
 90
        2
 70
     0
 43
0.0
 10
1418.864344349988
 20
951.5853856976924
 42
0.2275707722563265
 10
1418.264264696027
 20
952.835551633618
  0
LWPOLYLINE
  5
7F0E
330
1E
100
AcDbEntity
  8
躯体と製品
  6
Continuous
 62
     3
100
AcDbPolyline
 90
        2
 70
     0
 43
0.0
 10
1418.264262960206
 20
952.8355509490866
 42
0.2400000040461867
 10
1418.264262960206
 20
957.836212446298
  0
LWPOLYLINE
  5
7F0F
330
1E
100
AcDbEntity
  8
躯体と製品
  6
Continuous
 62
     3
100
AcDbPolyline
 90
        2
 70
     0
 43
0.0
 10
1418.264264696027
 20
957.8362117617666
 42
0.2275707722563264
 10
1418.864344349988
 20
959.0863776976922
  0
LWPOLYLINE
  5
7F10
330
1E
100
AcDbEntity
  8
躯体と製品
  6
Continuous
 62
     3
100
AcDbPolyline
 90
        2
 70
     0
 43
0.0
 10
1413.863680349988
 20
961.4366896976923
 10
1412.363482349988
 20
961.4366896976923
  0
LWPOLYLINE
  5
7F11
330
1E
100
AcDbEntity
  8
躯体と製品
  6
Continuous
 62
     4
100
AcDbPolyline
 90
        2
 70
     0
 43
0.0
 10
1410.063680349988
 20
964.3358826976921
 10
1412.363680349988
 20
964.3358826976921
  0
LWPOLYLINE
  5
7F12
330
1E
100
AcDbEntity
  8
躯体と製品
  6
Continuous
 62
     4
100
AcDbPolyline
 90
        2
 70
     0
 43
0.0
 10
1412.363680349988
 20
950.3358826976922
 10
1412.363680349988
 20
964.3358826976921
  0
LWPOLYLINE
  5
7F13
330
1E
100
AcDbEntity
  8
躯体と製品
  6
Continuous
 62
     4
100
AcDbPolyline
 90
        2
 70
     0
 43
0.0
 10
1404.563482363319
 20
875.5358846976923
 42
0.4141745156370864
 10
1406.063680349988
 20
877.0358826976922
 42
0.4141745156370864
  0
LWPOLYLINE
  5
7F15
330
1E
100
AcDbEntity
  8
躯体と製品
  6
Continuous
 62
     3
100
AcDbPolyline
 90
        2
 70
     0
 43
0.0
 10
1790.389181349988
 20
952.449146697692
 10
1785.389205349989
 20
949.5624086976921
  0
LWPOLYLINE
  5
7F16
330
1E
100
AcDbEntity
  8
躯体と製品
  6
Continuous
 62
     3
100
AcDbPolyline
 90
        2
 70
     0
 43
0.0
 10
1790.389181349988
 20
958.2226186976921
 10
1790.389181349988
 20
952.449146697692
  0
LWPOLYLINE
  5
7F17
330
1E
100
AcDbEntity
  8
躯体と製品
  6
Continuous
 62
     3
100
AcDbPolyline
 90
        2
 70
     0
 43
0.0
 10
1785.389205349989
 20
961.1093566976922
 10
1790.389181349988
 20
958.2226186976921
  0
LWPOLYLINE
  5
7F18
330
1E
100
AcDbEntity
  8
躯体と製品
  6
Continuous
 62
     3
100
AcDbPolyline
 90
        2
 70
     0
 43
0.0
 10
1780.389231349988
 20
958.2226186976921
 10
1785.389205349989
 20
961.1093566976922
  0
LWPOLYLINE
  5
7F19
330
1E
100
AcDbEntity
  8
躯体と製品
  6
Continuous
 62
     3
100
AcDbPolyline
 90
        2
 70
     0
 43
0.0
 10
1780.389231349988
 20
952.449146697692
 10
1780.389231349988
 20
958.2226186976921
  0
LWPOLYLINE
  5
7F1A
330
1E
100
AcDbEntity
  8
躯体と製品
  6
Continuous
 62
     3
100
AcDbPolyline
 90
        2
 70
     0
 43
0.0
 10
1785.389205349989
 20
949.5624086976921
 10
1780.389231349988
 20
952.449146697692
  0
CIRCLE
  5
7F1B
330
1E
100
AcDbEntity
  8
躯体と製品
  6
Continuous
 62
     3
100
AcDbCircle
 10
1785.389205349989
 20
955.3358826976921
 30
0.0
 40
2.499988
  0
CIRCLE
  5
7F1C
330
1E
100
AcDbEntity
  8
躯体と製品
  6
Continuous
 62
     3
100
AcDbCircle
 10
1785.389205349989
 20
955.3358826976921
 30
0.0
 40
2.999983999999999
  0
CIRCLE
  5
7F1D
330
1E
100
AcDbEntity
  8
躯体と製品
  6
Continuous
 62
     3
100
AcDbCircle
 10
1785.389205349989
 20
955.3358826976921
 30
0.0
 40
4.999973999999999
  0
LWPOLYLINE
  5
7F1E
330
1E
100
AcDbEntity
  8
躯体と製品
  6
Continuous
 62
     4
100
AcDbPolyline
 90
        2
 70
     0
 43
0.0
 10
1779.889233349988
 20
954.0858886976922
 10
1780.290213349988
 20
954.0858886976922
  0
LWPOLYLINE
  5
7F1F
330
1E
100
AcDbEntity
  8
躯体と製品
  6
Continuous
 62
     4
100
AcDbPolyline
 90
        2
 70
     0
 43
0.0
 10
1779.389235349988
 20
954.5858866976923
 42
0.4142135623730951
 10
1779.889233349988
 20
954.0858886976922
  0
LWPOLYLINE
  5
7F20
330
1E
100
AcDbEntity
  8
躯体と製品
  6
Continuous
 62
     4
100
AcDbPolyline
 90
        2
 70
     0
 43
0.0
 10
1779.389237349988
 20
956.0858786976922
 10
1779.389237349988
 20
954.5858866976923
  0
LWPOLYLINE
  5
7F21
330
1E
100
AcDbEntity
  8
躯体と製品
  6
Continuous
 62
     4
100
AcDbPolyline
 90
        2
 70
     0
 43
0.0
 10
1779.889233349988
 20
956.5858766976923
 42
0.4142135623730951
 10
1779.389235349988
 20
956.0858786976922
  0
LWPOLYLINE
  5
7F22
330
1E
100
AcDbEntity
  8
躯体と製品
  6
Continuous
 62
     4
100
AcDbPolyline
 90
        2
 70
     0
 43
0.0
 10
1780.290213349988
 20
956.5858766976923
 10
1779.889233349988
 20
956.5858766976923
  0
LWPOLYLINE
  5
7F23
330
1E
100
AcDbEntity
  8
躯体と製品
  6
Continuous
 62
     4
100
AcDbPolyline
 90
        2
 70
     0
 43
0.0
 10
1790.889177349988
 20
954.0858886976922
 10
1790.488199349988
 20
954.0858886976922
  0
LWPOLYLINE
  5
7F24
330
1E
100
AcDbEntity
  8
躯体と製品
  6
Continuous
 62
     4
100
AcDbPolyline
 90
        2
 70
     0
 43
0.0
 10
1790.889177349988
 20
954.0858886976922
 42
0.4142135623730951
 10
1791.389175349988
 20
954.5858866976923
  0
LWPOLYLINE
  5
7F25
330
1E
100
AcDbEntity
  8
躯体と製品
  6
Continuous
 62
     4
100
AcDbPolyline
 90
        2
 70
     0
 43
0.0
 10
1791.389175349988
 20
956.0858786976922
 10
1791.389175349988
 20
954.5858866976923
  0
LWPOLYLINE
  5
7F26
330
1E
100
AcDbEntity
  8
躯体と製品
  6
Continuous
 62
     4
100
AcDbPolyline
 90
        2
 70
     0
 43
0.0
 10
1791.389175349988
 20
956.0858786976922
 42
0.4142135623730951
 10
1790.889177349988
 20
956.5858766976923
  0
LWPOLYLINE
  5
7F27
330
1E
100
AcDbEntity
  8
躯体と製品
  6
Continuous
 62
     4
100
AcDbPolyline
 90
        2
 70
     0
 43
0.0
 10
1790.488199349988
 20
956.5858766976923
 10
1790.889177349988
 20
956.5858766976923
  0
LWPOLYLINE
  5
7F28
330
1E
100
AcDbEntity
  8
躯体と製品
  6
Continuous
 62
     3
100
AcDbPolyline
 90
        2
 70
     0
 43
0.0
 10
1805.389153349989
 20
954.3359086976922
 42
0.9999999999999998
 10
1795.389205349989
 20
954.3359086976922
  0
LWPOLYLINE
  5
7F29
330
1E
100
AcDbEntity
  8
躯体と製品
  6
Continuous
 62
     3
100
AcDbPolyline
 90
        2
 70
     0
 43
0.0
 10
1805.389153349989
 20
944.3358826976924
 10
1810.389205349989
 20
944.3358826976924
  0
LWPOLYLINE
  5
7F2A
330
1E
100
AcDbEntity
  8
躯体と製品
  6
Continuous
 62
     3
100
AcDbPolyline
 90
        2
 70
     0
 43
0.0
 10
1805.389153349989
 20
950.3358826976922
 10
1810.389205349989
 20
950.3358826976922
  0
LWPOLYLINE
  5
7F2B
330
1E
100
AcDbEntity
  8
躯体と製品
  6
Continuous
 62
     3
100
AcDbPolyline
 90
        2
 70
     0
 43
0.0
 10
1775.389205349988
 20
944.3358826976924
 10
1795.389205349988
 20
944.3358826976924
  0
LWPOLYLINE
  5
7F2C
330
1E
100
AcDbEntity
  8
躯体と製品
  6
Continuous
 62
     3
100
AcDbPolyline
 90
        2
 70
     0
 43
0.0
 10
1760.389205349988
 20
944.3358826976924
 10
1765.389255349989
 20
944.3358826976924
  0
LWPOLYLINE
  5
7F2D
330
1E
100
AcDbEntity
  8
躯体と製品
  6
Continuous
 62
     3
100
AcDbPolyline
 90
        2
 70
     0
 43
0.0
 10
1784.049509856432
 20
950.3358826976922
 10
1775.389205349988
 20
950.3358826976922
  0
LWPOLYLINE
  5
7F2E
330
1E
100
AcDbEntity
  8
躯体と製品
  6
Continuous
 62
     3
100
AcDbPolyline
 90
        2
 70
     0
 43
0.0
 10
1786.728901379425
 20
950.3358826976922
 10
1795.389205349988
 20
950.3358826976922
  0
LWPOLYLINE
  5
7F2F
330
1E
100
AcDbEntity
  8
躯体と製品
  6
Continuous
 62
     3
100
AcDbPolyline
 90
        2
 70
     0
 43
0.0
 10
1760.389205349988
 20
950.3358826976922
 10
1765.389255349989
 20
950.3358826976922
  0
LWPOLYLINE
  5
7F30
330
1E
100
AcDbEntity
  8
躯体と製品
  6
Continuous
 62
     3
100
AcDbPolyline
 90
        2
 70
     0
 43
0.0
 10
1775.389205349988
 20
954.335908697692
 42
0.9999999999999998
 10
1765.389257349988
 20
954.335908697692
  0
LWPOLYLINE
  5
7F31
330
1E
100
AcDbEntity
  8
躯体と製品
  6
Continuous
 62
     4
100
AcDbPolyline
 90
        2
 70
     0
 43
0.0
 10
1806.389205349988
 20
964.3358826976921
 10
1764.389205349988
 20
964.3358826976921
  0
LWPOLYLINE
  5
7F32
330
1E
100
AcDbEntity
  8
躯体と製品
  6
Continuous
 62
     4
100
AcDbPolyline
 90
        2
 70
     0
 43
0.0
 10
1764.389205349988
 20
964.3358826976921
 42
0.4142135623730951
 10
1760.389205349988
 20
960.335882697692
  0
LWPOLYLINE
  5
7F34
330
1E
100
AcDbEntity
  8
躯体と製品
  6
Continuous
 62
     3
100
AcDbPolyline
 90
        2
 70
     0
 43
0.0
 10
1795.389205349988
 20
954.3359086976922
 10
1795.389205349988
 20
889.3358566976921
  0
LWPOLYLINE
  5
7F35
330
1E
100
AcDbEntity
  8
躯体と製品
  6
Continuous
 62
     3
100
AcDbPolyline
 90
        2
 70
     0
 43
0.0
 10
1775.389205349988
 20
954.335908697692
 10
1775.389205349988
 20
889.3358566976921
  0
LWPOLYLINE
  5
7F36
330
1E
100
AcDbEntity
  8
躯体と製品
  6
Continuous
 62
     3
100
AcDbPolyline
 90
        2
 70
     0
 43
0.0
 10
1765.389255349989
 20
954.335908697692
 10
1765.389255349989
 20
889.3358566976921
  0
LWPOLYLINE
  5
7F37
330
1E
100
AcDbEntity
  8
躯体と製品
  6
Continuous
 62
     3
100
AcDbPolyline
 90
        2
 70
     0
 43
0.0
 10
1805.389153349989
 20
954.3359086976922
 10
1805.389153349989
 20
889.3358566976921
  0
LWPOLYLINE
  5
7F38
330
1E
100
AcDbEntity
  8
躯体と製品
  6
Continuous
 62
     4
100
AcDbPolyline
 90
        2
 70
     0
 43
0.0
 10
1810.389205349989
 20
877.0358826976922
 10
1810.389205349989
 20
960.335882697692
  0
LWPOLYLINE
  5
7F39
330
1E
100
AcDbEntity
  8
躯体と製品
  6
Continuous
 62
     4
100
AcDbPolyline
 90
        2
 70
     0
 43
0.0
 10
1810.389205349989
 20
960.335882697692
 42
0.4142135623730951
 10
1806.389205349988
 20
964.3358826976921
  0
LWPOLYLINE
  5
7F3A
330
1E
100
AcDbEntity
  8
躯体と製品
  6
Continuous
 62
     4
100
AcDbPolyline
 90
        2
 70
     0
 43
0.0
 10
1760.389205349988
 20
877.0358826976922
 10
1760.389205349988
 20
960.335882697692
  0
LWPOLYLINE
  5
7F3B
330
1E
100
AcDbEntity
  8
躯体と製品
  6
Continuous
 62
     4
100
AcDbPolyline
 90
        2
 70
     0
 43
0.0
 10
1803.889213349988
 20
875.5358826976923
 42
0.4142124577991956
 10
1805.389205349988
 20
877.0358826976922
  0
LWPOLYLINE
  5
7F3C
330
1E
100
AcDbEntity
  8
躯体と製品
  6
Continuous
 62
     3
100
AcDbPolyline
 90
        2
 70
     0
 43
0.0
 10
1795.389205349989
 20
889.3358566976921
 42
0.9999999999999998
 10
1805.389153349989
 20
889.3358566976921
  0
LWPOLYLINE
  5
7F3D
330
1E
100
AcDbEntity
  8
躯体と製品
  6
Continuous
 62
     4
100
AcDbPolyline
 90
        2
 70
     0
 43
0.0
 10
1766.889197349989
 20
875.5358826976923
 10
1803.889213349988
 20
875.5358826976923
  0
LWPOLYLINE
  5
7F3E
330
1E
100
AcDbEntity
  8
躯体と製品
  6
Continuous
 62
     3
100
AcDbPolyline
 90
        2
 70
     0
 43
0.0
 10
1765.389257349988
 20
889.3358566976921
 42
0.9999999999999998
 10
1775.389205349988
 20
889.3358566976921
  0
LWPOLYLINE
  5
7F3F
330
1E
100
AcDbEntity
  8
躯体と製品
  6
Continuous
 62
     4
100
AcDbPolyline
 90
        2
 70
     0
 43
0.0
 10
1765.389205349989
 20
877.0358826976922
 42
0.4142124577991956
 10
1766.889197349989
 20
875.5358826976923
  0
LWPOLYLINE
  5
7F40
330
1E
100
AcDbEntity
  8
躯体と製品
  6
Continuous
 62
     4
100
AcDbPolyline
 90
        2
 70
     0
 43
0.0
 10
1760.389205349988
 20
877.0358826976922
 10
1810.389205349989
 20
877.0358826976922
  0
LWPOLYLINE
  5
7F98
330
1E
100
AcDbEntity
  8
躯体と製品
  6
Continuous
 62
     4
100
AcDbPolyline
 90
        2
 70
     0
 43
0.0
 10
1369.671375515326
 20
862.5358826976922
 10
1390.455985206158
 20
862.5358826976922
  0
LWPOLYLINE
  5
7F99
330
1E
100
AcDbEntity
  8
躯体と製品
  6
Continuous
 62
     4
100
AcDbPolyline
 90
        2
 70
     0
 43
0.0
 10
1373.135477130484
 20
864.0358826976923
 10
1373.135477130484
 20
875.5358826976923
  0
LWPOLYLINE
  5
7F9A
330
1E
100
AcDbEntity
  8
躯体と製品
  6
Continuous
 62
     4
100
AcDbPolyline
 90
        2
 70
     0
 43
0.0
 10
1386.991883591029
 20
847.0358826976923
 10
1386.991883591029
 20
858.5358826976923
  0
LWPOLYLINE
  5
7F9B
330
1E
100
AcDbEntity
  8
躯体と製品
  6
Continuous
 62
     4
100
AcDbPolyline
 90
        2
 70
     0
 43
0.0
 10
1386.991883591029
 20
864.0358826976923
 10
1386.991883591029
 20
875.5358826976923
  0
LWPOLYLINE
  5
7F9C
330
1E
100
AcDbEntity
  8
躯体と製品
  6
Continuous
 62
     4
100
AcDbPolyline
 90
        2
 70
     0
 43
0.0
 10
1373.135477130484
 20
847.0358826976923
 10
1373.135477130484
 20
858.5358826976923
  0
LWPOLYLINE
  5
7F9D
330
1E
100
AcDbEntity
  8
躯体と製品
  6
Continuous
 62
     4
100
AcDbPolyline
 90
        7
 70
     0
 43
0.0
 10
1366.207273900197
 20
864.0358826976923
 42
0.4330127018921689
 10
1373.135477130484
 20
864.0358826976923
 42
0.2165063550879564
 10
1386.991883591029
 20
864.0358826976923
 42
0.4330127018921274
 10
1393.920086821287
 20
864.0358826976923
 10
1393.920086821287
 20
875.5358826976923
 10
1366.207273900197
 20
875.5358826976923
 10
1366.207273900197
 20
864.0358826976923
  0
LWPOLYLINE
  5
7F9E
330
1E
100
AcDbEntity
  8
躯体と製品
  6
Continuous
 62
     4
100
AcDbPolyline
 90
        4
 70
     1
 43
0.0
 10
1366.063680356406
 20
858.5358826976923
 10
1394.063680393775
 20
858.5358826976923
 10
1394.063680393775
 20
862.5358826976922
 10
1366.063680356406
 20
862.5358826976922
  0
LWPOLYLINE
  5
7F9F
330
1E
100
AcDbEntity
  8
躯体と製品
  6
Continuous
 62
     4
100
AcDbPolyline
 90
        2
 70
     0
 43
0.0
 10
1369.671375515326
 20
845.5358826976922
 10
1390.455985206158
 20
845.5358826976922
  0
LWPOLYLINE
  5
7FA0
330
1E
100
AcDbEntity
  8
躯体と製品
  6
Continuous
 62
     4
100
AcDbPolyline
 90
        2
 70
     0
 43
0.0
 10
1380.06368037509
 20
858.5358826976923
 10
1384.06368037509
 20
862.5358826976922
  0
LWPOLYLINE
  5
7FA1
330
1E
100
AcDbEntity
  8
躯体と製品
  6
Continuous
 62
     4
100
AcDbPolyline
 90
        7
 70
     0
 43
0.0
 10
1366.207273900197
 20
847.0358826976923
 42
0.4330127018921053
 10
1373.135477130484
 20
847.0358826976923
 42
0.2165063509460898
 10
1386.991883591029
 20
847.0358826976923
 42
0.4330127018922323
 10
1393.920086821287
 20
847.0358826976923
 10
1393.920086821287
 20
858.5358826976923
 10
1366.207273900197
 20
858.5358826976923
 10
1366.207273900197
 20
847.0358826976923
  0
LWPOLYLINE
  5
7FA2
330
1E
100
AcDbEntity
  8
躯体と製品
  6
Continuous
 62
     4
100
AcDbPolyline
 90
        2
 70
     0
 43
0.0
 10
1376.063680327709
 20
858.5358826689958
 10
1380.063680327709
 20
862.5358826689959
  0
LWPOLYLINE
  5
7FA3
330
1E
100
AcDbEntity
  8
躯体と製品
  6
Continuous
 62
     4
100
AcDbPolyline
 90
        2
 70
     0
 43
0.0
 10
1779.388639968172
 20
862.5358904999997
 10
1791.389205272302
 20
862.5358905630386
  0
LWPOLYLINE
  5
7FA4
330
1E
100
AcDbEntity
  8
躯体と製品
  6
Continuous
 62
     4
100
AcDbPolyline
 90
        4
 70
     1
 43
0.0
 10
1771.389205305073
 20
858.5358904769494
 10
1799.389205342471
 20
858.5358904769494
 10
1799.389205342471
 20
862.5358904769495
 10
1771.389205305073
 20
862.5358904769495
  0
LWPOLYLINE
  5
7FA5
330
1E
100
AcDbEntity
  8
躯体と製品
  6
Continuous
 62
     4
100
AcDbPolyline
 90
        5
 70
     0
 43
0.0
 10
1773.389205309438
 20
875.5358902478953
 10
1773.389205309438
 20
864.0358904769495
 42
0.249999996945716
 10
1785.389205265637
 20
864.0358904769495
 42
0.2499999847397634
 10
1797.389205309438
 20
864.0358904769495
 10
1797.389205309438
 20
875.5358904200734
  0
LWPOLYLINE
  5
7FA6
330
1E
100
AcDbEntity
  8
躯体と製品
  6
Continuous
 62
     4
100
AcDbPolyline
 90
        2
 70
     0
 43
0.0
 10
1779.388640119599
 20
845.5358906879522
 10
1791.3892054237
 20
845.5358907509911
  0
LWPOLYLINE
  5
7FA7
330
1E
100
AcDbEntity
  8
躯体と製品
  6
Continuous
 62
     4
100
AcDbPolyline
 90
        5
 70
     0
 43
0.0
 10
1773.389205460836
 20
858.5358903908604
 10
1773.389205460836
 20
847.0358907194716
 42
0.2500000085465462
 10
1785.389205402949
 20
847.0358907194716
 42
0.2499999935419728
 10
1797.389205460836
 20
847.0358907194716
 10
1797.389205460836
 20
858.5358905630386
  0
LWPOLYLINE
  5
7FA8
330
1E
100
AcDbEntity
  8
躯体と製品
  6
Continuous
 62
     4
100
AcDbPolyline
 90
        2
 70
     0
 43
0.0
 10
1785.389205265637
 20
864.0358904769495
 10
1785.389205172359
 20
875.5358903339844
  0
LWPOLYLINE
  5
7FA9
330
1E
100
AcDbEntity
  8
躯体と製品
  6
Continuous
 62
     4
100
AcDbPolyline
 90
        2
 70
     0
 43
0.0
 10
1785.38920539218
 20
847.0358907194716
 10
1785.389205313018
 20
858.5358904769494
  0
LWPOLYLINE
  5
7FDD
330
1E
100
AcDbEntity
  8
躯体と製品
  6
Continuous
 62
     4
100
AcDbPolyline
 90
        2
 70
     0
 43
0.0
 10
1360.063680349988
 20
944.3358826976922
 10
1400.063680349988
 20
944.3358826976922
  0
ARC
  5
7FE2
330
1E
100
AcDbEntity
  8
躯体と製品
  6
Continuous
 62
     4
100
AcDbCircle
 10
1345.513680349988
 20
947.3358826976921
 30
0.0
 40
3.750000000000136
100
AcDbArc
 50
306.8698976458378
 51
53.13010235414847
  0
ARC
  5
7FE3
330
1E
100
AcDbEntity
  8
躯体と製品
  6
Continuous
 62
     4
100
AcDbCircle
 10
1345.513680349988
 20
947.3358826976921
 30
0.0
 40
6.050000000000135
100
AcDbArc
 50
318.7696695640541
 51
41.23033043594586
  0
ARC
  5
7FE4
330
1E
100
AcDbEntity
  8
躯体と製品
  6
Continuous
 62
     4
100
AcDbCircle
 10
1414.613680349988
 20
947.3358826976921
 30
0.0
 40
3.750000000000136
100
AcDbArc
 50
126.8698976458375
 51
233.1301023541625
  0
ARC
  5
7FE5
330
1E
100
AcDbEntity
  8
躯体と製品
  6
Continuous
 62
     4
100
AcDbCircle
 10
1414.613680349988
 20
947.3358826976921
 30
0.0
 40
6.050000000000135
100
AcDbArc
 50
138.7696695640375
 51
221.2303304359624
  0
LWPOLYLINE
  5
7FE6
330
1E
100
AcDbEntity
  8
躯体と製品
  6
Continuous
 62
     3
100
AcDbPolyline
 90
        2
 70
     0
 43
0.0
 10
1346.263681171164
 20
950.1279043149732
 42
-0.3659456793920637
 10
1343.763680349989
 20
953.0862806976923
  0
ENDSEC
  0
SECTION
  2
OBJECTS
  0
DICTIONARY
  5
C
330
0
100
AcDbDictionary
281
     1
  3
ACAD_CIP_PREVIOUS_PRODUCT_INFO
350
620E
  3
ACAD_COLOR
350
61F2
  3
ACAD_GROUP
350
D
  3
ACAD_LAYOUT
350
19
  3
ACAD_MATERIAL
350
61C0
  3
ACAD_MLEADERSTYLE
350
6207
  3
ACAD_MLINESTYLE
350
16
  3
ACAD_PLOTSETTINGS
350
18
  3
ACAD_PLOTSTYLENAME
350
E
  3
ACAD_SCALELIST
350
61F5
  3
ACAD_TABLESTYLE
350
61F3
  3
ACAD_VISUALSTYLE
350
61D9
  3
ACDB_RECOMPOSE_DATA
350
81AD
  3
AcDbVariableDictionary
350
169
  3
AEC_PROPERTY_SET_DEFS
350
7631
  0
DICTIONARY
  5
7BA6
330
8
100
AcDbDictionary
280
     1
281
     1
  0
DICTIONARY
  5
175
330
2
100
AcDbDictionary
280
     1
281
     1
  3
ACAD_LAYERFILTERS
360
185
  3
ACAD_LAYERSTATES
360
176
  0
DICTIONARY
  5
73F4
330
10
100
AcDbDictionary
280
     1
281
     1
  3
ADSK_XREC_LAYER_RECONCILED
360
73F5
  0
DICTIONARY
  5
73F6
330
178
100
AcDbDictionary
280
     1
281
     1
  3
ADSK_XREC_LAYER_RECONCILED
360
73F7
  0
DICTIONARY
  5
73F8
330
179
100
AcDbDictionary
280
     1
281
     1
  3
ADSK_XREC_LAYER_RECONCILED
360
73F9
  0
DICTIONARY
  5
73FA
330
4F62
100
AcDbDictionary
280
     1
281
     1
  3
ADSK_XREC_LAYER_RECONCILED
360
73FB
  0
DICTIONARY
  5
28B
330
1E
100
AcDbDictionary
280
     1
281
     1
  3
ACAD_LAYOUTSELFREF
360
61B9
  3
ACAD_SORTENTS
360
72F9
  0
DICTIONARY
  5
28D
330
1A
100
AcDbDictionary
280
     1
281
     1
  3
ACAD_LAYOUTSELFREF
360
61B8
  0
XRECORD
  5
620E
102
{ACAD_REACTORS
330
C
102
}
330
C
100
AcDbXrecord
280
     1
300
ACD
300
2012
300
ACD_F_S
  0
DICTIONARY
  5
61F2
102
{ACAD_REACTORS
330
C
102
}
330
C
100
AcDbDictionary
281
     1
  0
DICTIONARY
  5
D
102
{ACAD_REACTORS
330
C
102
}
330
C
100
AcDbDictionary
281
     1
  0
DICTIONARY
  5
19
102
{ACAD_REACTORS
330
C
102
}
330
C
100
AcDbDictionary
281
     1
  3
Model
350
21
  3
ﾚｲｱｳﾄ1
350
1D
  0
DICTIONARY
  5
61C0
102
{ACAD_REACTORS
330
C
102
}
330
C
100
AcDbDictionary
281
     1
  3
ByBlock
350
61C9
  3
ByLayer
350
61C1
  3
Global
350
61D1
  0
DICTIONARY
  5
6207
102
{ACAD_REACTORS
330
C
102
}
330
C
100
AcDbDictionary
281
     1
  3
Standard
350
6208
  0
DICTIONARY
  5
16
102
{ACAD_REACTORS
330
C
102
}
330
C
100
AcDbDictionary
281
     1
  3
Standard
350
17
  0
DICTIONARY
  5
18
102
{ACAD_REACTORS
330
C
102
}
330
C
100
AcDbDictionary
281
     1
  0
ACDBDICTIONARYWDFLT
  5
E
102
{ACAD_REACTORS
330
C
102
}
330
C
100
AcDbDictionary
281
     1
  3
Normal
350
F
100
AcDbDictionaryWithDefault
340
F
  0
DICTIONARY
  5
61F5
102
{ACAD_REACTORS
330
C
102
}
330
C
100
AcDbDictionary
281
     1
  3
A0
350
61F6
  3
A1
350
61F7
  3
A2
350
61F8
  3
A3
350
61F9
  3
A4
350
61FA
  3
A5
350
61FB
  3
A6
350
61FC
  3
A7
350
61FD
  3
A8
350
61FE
  3
A9
350
61FF
  3
B0
350
6200
  3
B1
350
6201
  3
B2
350
6202
  3
B3
350
6203
  3
B4
350
6204
  3
B5
350
6205
  3
B6
350
6206
  0
DICTIONARY
  5
61F3
102
{ACAD_REACTORS
330
C
102
}
330
C
100
AcDbDictionary
281
     1
  3
Standard
350
61F4
  0
DICTIONARY
  5
61D9
102
{ACAD_REACTORS
330
C
102
}
330
C
100
AcDbDictionary
281
     1
  3
2dWireframe
350
61DF
  3
3dWireframe
350
6302
  3
Basic
350
61DE
  3
Brighten
350
61E5
  3
ColorChange
350
61E9
  3
Conceptual
350
61E2
  3
Dim
350
61E4
  3
EdgeColorOff
350
61F1
  3
Facepattern
350
61E8
  3
Flat
350
61DA
  3
FlatWithEdges
350
61DB
  3
Gouraud
350
61DC
  3
GouraudWithEdges
350
61DD
  3
Hidden
350
61E1
  3
JitterOff
350
61EF
  3
Linepattern
350
61E7
  3
OverhangOff
350
61F0
  3
Realistic
350
61E3
  3
Shaded
350
61EE
  3
Shaded with edges
350
61ED
  3
Shades of Gray
350
61EA
  3
Sketchy
350
61EB
  3
Thicken
350
61E6
  3
Wireframe
350
61E0
  3
X-Ray
350
61EC
  0
XRECORD
  5
81AD
102
{ACAD_REACTORS
330
C
102
}
330
C
100
AcDbXrecord
280
     1
 90
        1
330
61F4
  0
DICTIONARY
  5
169
102
{ACAD_REACTORS
330
C
102
}
330
C
100
AcDbDictionary
281
     1
  3
CANNOSCALE
350
7467
  3
CMLEADERSTYLE
350
7465
  3
CTABLESTYLE
350
7464
  3
DIMASSOC
350
16A
  3
LAYEREVAL
350
7469
  3
LAYERNOTIFY
350
746A
  3
LIGHTINGUNITS
350
7468
  3
MSLTSCALE
350
7466
  3
XCLIPFRAME
350
81A9
  0
DICTIONARY
  5
7631
102
{ACAD_REACTORS
330
C
102
}
330
C
100
AcDbDictionary
281
     1
  0
DICTIONARY
  5
185
102
{ACAD_REACTORS
330
175
102
}
330
175
100
AcDbDictionary
280
     1
281
     1
  0
DICTIONARY
  5
176
102
{ACAD_REACTORS
330
175
102
}
330
175
100
AcDbDictionary
281
     1
  3
ACAD
350
177
  0
XRECORD
  5
73F5
102
{ACAD_REACTORS
330
73F4
102
}
330
73F4
100
AcDbXrecord
280
     1
290
     1
  0
XRECORD
  5
73F7
102
{ACAD_REACTORS
330
73F6
102
}
330
73F6
100
AcDbXrecord
280
     1
290
     1
  0
XRECORD
  5
73F9
102
{ACAD_REACTORS
330
73F8
102
}
330
73F8
100
AcDbXrecord
280
     1
290
     1
  0
XRECORD
  5
73FB
102
{ACAD_REACTORS
330
73FA
102
}
330
73FA
100
AcDbXrecord
280
     1
290
     1
  0
XRECORD
  5
61B9
102
{ACAD_REACTORS
330
28B
102
}
330
28B
100
AcDbXrecord
280
     1
340
1E
  0
SORTENTSTABLE
  5
72F9
102
{ACAD_REACTORS
330
28B
102
}
330
28B
100
AcDbSortentsTable
330
1E
331
7828
  5
7AD8
331
79C6
  5
7A82
331
791F
  5
7AFE
331
7AF4
  5
780D
331
7AA5
  5
7998
331
79FF
  5
7A45
331
7A3E
  5
7A06
331
79CE
  5
7A7A
331
60BD
  5
789E
331
7AFC
  5
7296
331
7A07
  5
7A3D
331
7A46
  5
79FA
331
7997
  5
7AB2
331
7711
  5
7ABA
331
79D6
  5
7A72
331
7B04
  5
66CE
331
7A4E
  5
79F2
331
7A0F
  5
7A35
331
799F
  5
7AAA
331
79DE
  5
7A6A
331
7A17
  5
7A2D
331
78A0
  5
7AE6
331
7293
  5
79FE
331
79A7
  5
7AA1
331
79E6
  5
7A62
331
7AD5
  5
782E
331
7A1F
  5
7A25
331
7910
  5
7AEF
331
7819
  5
7ACD
331
79AF
  5
7A99
331
79EE
  5
7A56
331
7ADD
  5
7824
331
7A27
  5
7A1D
331
79B7
  5
7A91
331
7821
  5
7AD5
331
79F6
  5
7A4E
331
7AE5
  5
781C
331
7A9E
  5
799F
331
7A2F
  5
7A15
331
79BF
  5
7A89
331
7AED
  5
7814
331
7A37
  5
7A0D
331
7829
  5
7AD9
331
7918
  5
7AF7
331
79F8
  5
7A4C
331
79C7
  5
7A81
331
7920
  5
7AFF
331
60A6
  5
789D
331
7AF5
  5
780C
331
7A00
  5
7A44
331
7A3F
  5
7A05
331
79CF
  5
7A79
331
7990
  5
7AB9
331
7383
  5
7AA4
331
7A08
  5
7A3C
331
7A47
  5
79F9
331
7998
  5
7AB1
331
79D7
  5
7A71
331
7A4F
  5
79F1
331
7A10
  5
7A34
331
79DF
  5
7A69
331
7ACE
  5
789C
331
78A1
  5
7AE7
331
7294
  5
79FF
331
79A0
  5
7AA9
331
7A18
  5
7A2C
331
7909
  5
7AE8
331
79A8
  5
7AA0
331
79E7
  5
7A5D
331
7AD6
  5
782D
331
7A20
  5
7A24
331
7911
  5
7AF0
331
781A
  5
7ACE
331
79B0
  5
7A98
331
79EF
  5
7A55
331
7ADE
  5
7823
331
7A28
  5
7A1C
331
79B8
  5
7A90
331
7822
  5
7AD6
331
79F7
  5
7A4D
331
7AE6
  5
781B
331
7A30
  5
7A14
331
7AEE
  5
7813
331
79C0
  5
7A88
331
782A
  5
7ADA
331
7919
  5
7AF8
331
79C8
  5
7A80
331
7921
  5
7B00
331
79F9
  5
7A4B
331
7A38
  5
7A0C
331
7AF6
  5
7716
331
7991
  5
7AB8
331
79D0
  5
7A78
331
7A01
  5
7A43
331
7A40
  5
7A04
331
7A48
  5
79F8
331
789A
  5
7AE0
331
7999
  5
7AB0
331
79D8
  5
7A70
331
7A09
  5
7A3B
331
7A11
  5
7A33
331
7ACF
  5
789B
331
79A1
  5
7AA8
331
79E0
  5
7A68
331
790A
  5
7AE9
331
79A9
  5
7A9F
331
79E8
  5
7A5C
331
7A19
  5
7A2B
331
7AD7
  5
782C
331
7912
  5
7AF1
331
781B
  5
7ACF
331
79B1
  5
7A97
331
79F0
  5
7A54
331
7A21
  5
7A23
331
7ADF
  5
7822
331
79B9
  5
7A8F
331
7823
  5
7AD7
331
7A29
  5
7A1B
331
7AE7
  5
781A
331
7A31
  5
7A13
331
7AEF
  5
7812
331
79C1
  5
7A87
331
782B
  5
7ADB
331
791A
  5
7AF9
331
79C9
  5
7A7F
331
7922
  5
7B01
331
79FA
  5
7A4A
331
7A39
  5
7A0B
331
7AF7
  5
7384
331
7AB0
  5
7923
331
7992
  5
7AB7
331
788B
  5
7ADD
331
79D1
  5
7A77
331
7A02
  5
7A42
331
7A41
  5
7A03
331
7AFF
  5
7293
331
7A49
  5
79F7
331
79D9
  5
7A6F
331
789B
  5
7AE1
331
799A
  5
7AAF
331
7A0A
  5
7A3A
331
7A12
  5
7A32
331
79E1
  5
7A67
331
79A2
  5
7AA7
331
7AD0
  5
789A
331
79E9
  5
7A5B
331
790B
  5
7AEA
331
79AA
  5
7A9E
331
7A79
  5
79C4
331
79F1
  5
7A53
331
7913
  5
7AF2
331
781C
  5
7AD0
331
79B2
  5
7A96
331
7AD8
  5
7829
331
7AE0
  5
7821
331
79BA
  5
7A8E
331
7A2A
  5
7A1A
331
7AE8
  5
7819
331
7A32
  5
7A12
331
79C2
  5
7A86
331
791B
  5
7AFA
331
7336
  5
7A5E
331
7AF0
  5
7811
331
79FB
  5
7A49
331
7A3A
  5
7A0A
331
79CA
  5
7A7E
331
7923
  5
7B02
331
7AF8
  5
7341
331
7A03
  5
7A41
331
7A42
  5
7A02
331
79D2
  5
7A76
331
7993
  5
7AB6
331
788C
  5
7ADE
331
7A4A
  5
79F6
331
7A0B
  5
7A39
331
79DA
  5
7A6E
331
789C
  5
7AE2
331
799B
  5
7AAE
331
7A13
  5
7A31
331
79E2
  5
7A66
331
79A3
  5
7AA6
331
7A1B
  5
7A29
331
7AD1
  5
788D
331
79EA
  5
7A5A
331
790C
  5
7AEB
331
79AB
  5
7A9D
331
7AD9
  5
7828
331
7A23
  5
7A21
331
7A92
  5
79AB
331
79F2
  5
7A52
331
7914
  5
7AF3
331
781D
  5
7AD1
331
79B3
  5
7A95
331
7A2B
  5
7A19
331
7AE1
  5
7820
331
79BB
  5
7A8D
331
7A33
  5
7A11
331
7AE9
  5
7818
331
79C3
  5
7A85
331
791C
  5
7AFB
331
7337
  5
7A5F
331
79FC
  5
7A48
331
7A3B
  5
7A09
331
7AF1
  5
7810
331
79CB
  5
7A7D
331
7924
  5
7B03
331
7A04
  5
7A40
331
7A43
  5
7A01
331
7AF9
  5
7340
331
79D3
  5
7A75
331
7994
  5
7AB5
331
788D
  5
7ADF
331
7B01
  5
7255
331
7ABA
  5
7919
331
7A0C
  5
7A38
331
7A4B
  5
79F5
331
79DB
  5
7A6D
331
789D
  5
7AE3
331
799C
  5
7AAD
331
7A14
  5
7A30
331
79E3
  5
7A65
331
79A4
  5
7AA5
331
7AD2
  5
788C
331
79EB
  5
7A59
331
790D
  5
7AEC
331
79AC
  5
7A9C
331
7ADA
  5
7827
331
7A24
  5
7A20
331
79F3
  5
7A51
331
7915
  5
7AF4
331
781E
  5
7AD2
331
79B4
  5
7A94
331
7AE2
  5
781F
331
7A9B
  5
79A2
331
7A2C
  5
7A18
331
79BC
  5
7A8C
331
7AEA
  5
7817
331
7A34
  5
7A10
331
79C4
  5
7A84
331
791D
  5
7AFC
331
7340
  5
7A60
331
7AF2
  5
780F
331
79FD
  5
7A47
331
7A3C
  5
7A08
331
79CC
  5
7A7C
331
7AFA
  5
7337
331
7A05
  5
7A3F
331
7A44
  5
7A00
331
79D4
  5
7A74
331
7995
  5
7AB4
331
7B02
  5
7254
331
7A4C
  5
79F4
331
7A0D
  5
7A37
331
79DC
  5
7A6C
331
789E
  5
7AE4
331
799D
  5
7AAC
331
7A15
  5
7A2F
331
7291
  5
79FC
331
79E4
  5
7A64
331
79A5
  5
7AA3
331
7AD3
  5
788B
331
7A1D
  5
7A27
331
79EC
  5
7A58
331
790E
  5
7AED
331
79AD
  5
7A9B
331
7ADB
  5
7826
331
7A25
  5
7A1F
331
79F4
  5
7A50
331
79B5
  5
7A93
331
7916
  5
7AF5
331
781F
  5
7AD3
331
7AE3
  5
781E
331
7A9C
  5
79A1
331
7A2D
  5
7A17
331
79BD
  5
7A8B
331
7AEB
  5
7816
331
7A35
  5
7A0F
331
79C5
  5
7A83
331
791E
  5
7AFD
331
7341
  5
7A61
331
7AF3
  5
780E
331
79FE
  5
7A46
331
7A3D
  5
7A07
331
79CD
  5
7A7B
331
786F
  5
7ADC
331
7AFB
  5
7336
331
7A06
  5
7A3E
331
7A45
  5
79FB
331
7996
  5
7AB3
331
79D5
  5
7A73
331
7B03
  5
66CF
331
7ABC
  5
7917
331
7A4D
  5
79F3
331
7A0E
  5
7A36
331
789F
  5
7AE5
331
799E
  5
7AAB
331
79DD
  5
7A6B
331
7A5D
  5
79E3
331
7A16
  5
7A2E
331
7292
  5
79FD
331
79A6
  5
7AA2
331
79E5
  5
7A63
331
7AD4
  5
786F
331
790F
  5
7AEE
331
79AE
  5
7A9A
331
79ED
  5
7A57
331
7ADC
  5
7825
331
7A26
  5
7A1E
331
7917
  5
7AF6
331
7820
  5
7AD4
331
79B6
  5
7A92
331
79F5
  5
7A4F
331
7AE4
  5
781D
331
7A9D
  5
79A0
331
7A2E
  5
7A16
331
79BE
  5
7A8A
331
7AEC
  5
7815
331
7A36
  5
7A0E
  0
XRECORD
  5
61B8
102
{ACAD_REACTORS
330
28D
102
}
330
28D
100
AcDbXrecord
280
     1
340
1A
  0
LAYOUT
  5
21
102
{ACAD_XDICTIONARY
360
7416
102
}
102
{ACAD_REACTORS
330
19
102
}
330
19
100
AcDbPlotSettings
  1

  2
none_device
  4
Letter_(8.50_x_11.00_Inches)
  6

 40
6.349999904632568
 41
6.349999904632568
 42
6.350006103515625
 43
6.350006103515625
 44
215.8999938964844
 45
279.3999938964844
 46
0.0
 47
0.0
 48
0.0
 49
0.0
140
0.0
141
0.0
142
1.0
143
135.2217119237289
 70
 11952
 72
     0
 73
     1
 74
     0
  7
monochrome.ctb
 75
     0
147
0.0073952620904847
 76
     0
 77
     2
 78
   300
148
-22947.89517201031
149
-12293.60019753845
100
AcDbLayout
  1
Model
 70
     1
 71
     0
 10
0.0
 20
0.0
 11
12.0
 21
9.0
 12
0.0
 22
0.0
 32
0.0
 14
0.0
 24
0.0
 34
0.0
 15
0.0
 25
0.0
 35
0.0
146
0.0
 13
0.0
 23
0.0
 33
0.0
 16
1.0
 26
0.0
 36
0.0
 17
0.0
 27
1.0
 37
0.0
 76
     0
330
1E
331
6174
1001
ACAD_PSEXT
1000
なし
1000
なし
1000
適切ではありません
1000
新しいプロッタ環境設定名を選択しない限り、レイアウトは印刷されません。
1070
     0
  0
LAYOUT
  5
1D
102
{ACAD_REACTORS
330
19
102
}
330
19
100
AcDbPlotSettings
  1

  2
\\MEISEI-1\EPSON Stylus Photo EX3
  4

  6

 40
0.0
 41
0.0
 42
0.0
 43
0.0
 44
0.0
 45
0.0
 46
0.0
 47
0.0
 48
0.0
 49
0.0
140
0.0
141
0.0
142
1.0
143
1.0
 70
   688
 72
     0
 73
     0
 74
     5
  7
monochrome.ctb
 75
    16
147
1.0
 76
     0
 77
     2
 78
   300
148
0.0
149
0.0
100
AcDbLayout
  1
ﾚｲｱｳﾄ1
 70
     1
 71
     1
 10
0.0
 20
0.0
 11
12.0
 21
9.0
 12
0.0
 22
0.0
 32
0.0
 14
1.000000000000000E+20
 24
1.000000000000000E+20
 34
1.000000000000000E+20
 15
-1.000000000000000E+20
 25
-1.000000000000000E+20
 35
-1.000000000000000E+20
146
0.0
 13
0.0
 23
0.0
 33
0.0
 16
1.0
 26
0.0
 36
0.0
 17
0.0
 27
1.0
 37
0.0
 76
     0
330
1A
  0
MATERIAL
  5
61C9
102
{ACAD_XDICTIONARY
360
61CA
102
}
102
{ACAD_REACTORS
330
61C0
102
}
330
61C0
100
AcDbMaterial
  1
ByBlock
 72
     0
 43
0.0208333333333333
 43
0.0
 43
0.0
 43
0.0
 43
0.0
 43
0.0208333333333333
 43
0.0
 43
0.0
 43
0.0
 43
0.0
 43
1.0
 43
0.0
 43
0.0
 43
0.0
 43
0.0
 43
1.0
 77
     0
 47
0.0208333333333333
 47
0.0
 47
0.0
 47
0.0
 47
0.0
 47
0.0208333333333333
 47
0.0
 47
0.0
 47
0.0
 47
0.0
 47
1.0
 47
0.0
 47
0.0
 47
0.0
 47
0.0
 47
1.0
171
     0
 49
0.0208333333333333
 49
0.0
 49
0.0
 49
0.0
 49
0.0
 49
0.0208333333333333
 49
0.0
 49
0.0
 49
0.0
 49
0.0
 49
1.0
 49
0.0
 49
0.0
 49
0.0
 49
0.0
 49
1.0
175
     0
142
0.0208333333333333
142
0.0
142
0.0
142
0.0
142
0.0
142
0.0208333333333333
142
0.0
142
0.0
142
0.0
142
0.0
142
1.0
142
0.0
142
0.0
142
0.0
142
0.0
142
1.0
179
     0
144
0.0208333333333333
144
0.0
144
0.0
144
0.0
144
0.0
144
0.0208333333333333
144
0.0
144
0.0
144
0.0
144
0.0
144
1.0
144
0.0
144
0.0
144
0.0
144
0.0
144
1.0
147
0.0208333333333333
147
0.0
147
0.0
147
0.0
147
0.0
147
0.0208333333333333
147
0.0
147
0.0
147
0.0
147
0.0
147
1.0
147
0.0
147
0.0
147
0.0
147
0.0
147
1.0
  0
MATERIAL
  5
61C1
102
{ACAD_XDICTIONARY
360
61C2
102
}
102
{ACAD_REACTORS
330
61C0
102
}
330
61C0
100
AcDbMaterial
  1
ByLayer
 72
     0
 43
0.0208333333333333
 43
0.0
 43
0.0
 43
0.0
 43
0.0
 43
0.0208333333333333
 43
0.0
 43
0.0
 43
0.0
 43
0.0
 43
1.0
 43
0.0
 43
0.0
 43
0.0
 43
0.0
 43
1.0
 77
     0
 47
0.0208333333333333
 47
0.0
 47
0.0
 47
0.0
 47
0.0
 47
0.0208333333333333
 47
0.0
 47
0.0
 47
0.0
 47
0.0
 47
1.0
 47
0.0
 47
0.0
 47
0.0
 47
0.0
 47
1.0
171
     0
 49
0.0208333333333333
 49
0.0
 49
0.0
 49
0.0
 49
0.0
 49
0.0208333333333333
 49
0.0
 49
0.0
 49
0.0
 49
0.0
 49
1.0
 49
0.0
 49
0.0
 49
0.0
 49
0.0
 49
1.0
175
     0
142
0.0208333333333333
142
0.0
142
0.0
142
0.0
142
0.0
142
0.0208333333333333
142
0.0
142
0.0
142
0.0
142
0.0
142
1.0
142
0.0
142
0.0
142
0.0
142
0.0
142
1.0
179
     0
144
0.0208333333333333
144
0.0
144
0.0
144
0.0
144
0.0
144
0.0208333333333333
144
0.0
144
0.0
144
0.0
144
0.0
144
1.0
144
0.0
144
0.0
144
0.0
144
0.0
144
1.0
147
0.0208333333333333
147
0.0
147
0.0
147
0.0
147
0.0
147
0.0208333333333333
147
0.0
147
0.0
147
0.0
147
0.0
147
1.0
147
0.0
147
0.0
147
0.0
147
0.0
147
1.0
  0
MATERIAL
  5
61D1
102
{ACAD_XDICTIONARY
360
61D2
102
}
102
{ACAD_REACTORS
330
61C0
102
}
330
61C0
100
AcDbMaterial
  1
Global
 72
     0
 43
0.0208333333333333
 43
0.0
 43
0.0
 43
0.0
 43
0.0
 43
0.0208333333333333
 43
0.0
 43
0.0
 43
0.0
 43
0.0
 43
1.0
 43
0.0
 43
0.0
 43
0.0
 43
0.0
 43
1.0
 77
     0
 47
0.0208333333333333
 47
0.0
 47
0.0
 47
0.0
 47
0.0
 47
0.0208333333333333
 47
0.0
 47
0.0
 47
0.0
 47
0.0
 47
1.0
 47
0.0
 47
0.0
 47
0.0
 47
0.0
 47
1.0
171
     0
 49
0.0208333333333333
 49
0.0
 49
0.0
 49
0.0
 49
0.0
 49
0.0208333333333333
 49
0.0
 49
0.0
 49
0.0
 49
0.0
 49
1.0
 49
0.0
 49
0.0
 49
0.0
 49
0.0
 49
1.0
175
     0
142
0.0208333333333333
142
0.0
142
0.0
142
0.0
142
0.0
142
0.0208333333333333
142
0.0
142
0.0
142
0.0
142
0.0
142
1.0
142
0.0
142
0.0
142
0.0
142
0.0
142
1.0
179
     0
144
0.0208333333333333
144
0.0
144
0.0
144
0.0
144
0.0
144
0.0208333333333333
144
0.0
144
0.0
144
0.0
144
0.0
144
1.0
144
0.0
144
0.0
144
0.0
144
0.0
144
1.0
147
0.0208333333333333
147
0.0
147
0.0
147
0.0
147
0.0
147
0.0208333333333333
147
0.0
147
0.0
147
0.0
147
0.0
147
1.0
147
0.0
147
0.0
147
0.0
147
0.0
147
1.0
  0
MLEADERSTYLE
  5
6208
102
{ACAD_XDICTIONARY
360
81AB
102
}
102
{ACAD_REACTORS
330
6207
102
}
330
6207
100
AcDbMLeaderStyle
170
     2
171
     1
172
     0
 90
        2
 40
0.0
 41
0.0
173
     1
 91
-1056964608
340
13
 92
       -2
290
     1
 42
0.09
291
     1
 43
0.36
  3
Standard
 44
0.18
300

342
11
174
     1
178
     6
175
     1
176
     0
 93
-1056964608
 45
0.18
292
     0
297
     0
 46
0.18
 94
-1056964608
 47
1.0
 49
1.0
140
1.0
293
     1
141
0.0
294
     1
177
     0
142
1.0
295
     0
296
     0
143
0.125
1001
ACAD_MLEADERVER
1070
     2
  0
MLINESTYLE
  5
17
102
{ACAD_REACTORS
330
16
102
}
330
16
100
AcDbMlineStyle
  2
STANDARD
 70
     0
  3

 62
   256
 51
90.0
 52
90.0
 71
     2
 49
0.5
 62
   256
  6
BYLAYER
 49
-0.5
 62
   256
  6
BYLAYER
  0
ACDBPLACEHOLDER
  5
F
102
{ACAD_REACTORS
330
E
102
}
330
E
  0
SCALE
  5
61F6
102
{ACAD_REACTORS
330
61F5
102
}
330
61F5
100
AcDbScale
 70
     0
300
1:1
140
1.0
141
1.0
290
     1
  0
SCALE
  5
61F7
102
{ACAD_REACTORS
330
61F5
102
}
330
61F5
100
AcDbScale
 70
     0
300
1/128" = 1'-0"
140
0.0078125
141
12.0
290
     0
  0
SCALE
  5
61F8
102
{ACAD_REACTORS
330
61F5
102
}
330
61F5
100
AcDbScale
 70
     0
300
1/64" = 1'-0"
140
0.015625
141
12.0
290
     0
  0
SCALE
  5
61F9
102
{ACAD_REACTORS
330
61F5
102
}
330
61F5
100
AcDbScale
 70
     0
300
1/32" = 1'-0"
140
0.03125
141
12.0
290
     0
  0
SCALE
  5
61FA
102
{ACAD_REACTORS
330
61F5
102
}
330
61F5
100
AcDbScale
 70
     0
300
1/16" = 1'-0"
140
0.0625
141
12.0
290
     0
  0
SCALE
  5
61FB
102
{ACAD_REACTORS
330
61F5
102
}
330
61F5
100
AcDbScale
 70
     0
300
3/32" = 1'-0"
140
0.09375
141
12.0
290
     0
  0
SCALE
  5
61FC
102
{ACAD_REACTORS
330
61F5
102
}
330
61F5
100
AcDbScale
 70
     0
300
1/8" = 1'-0"
140
0.125
141
12.0
290
     0
  0
SCALE
  5
61FD
102
{ACAD_REACTORS
330
61F5
102
}
330
61F5
100
AcDbScale
 70
     0
300
3/16" = 1'-0"
140
0.1875
141
12.0
290
     0
  0
SCALE
  5
61FE
102
{ACAD_REACTORS
330
61F5
102
}
330
61F5
100
AcDbScale
 70
     0
300
1/4" = 1'-0"
140
0.25
141
12.0
290
     0
  0
SCALE
  5
61FF
102
{ACAD_REACTORS
330
61F5
102
}
330
61F5
100
AcDbScale
 70
     0
300
3/8" = 1'-0"
140
0.375
141
12.0
290
     0
  0
SCALE
  5
6200
102
{ACAD_REACTORS
330
61F5
102
}
330
61F5
100
AcDbScale
 70
     0
300
1/2" = 1'-0"
140
0.5
141
12.0
290
     0
  0
SCALE
  5
6201
102
{ACAD_REACTORS
330
61F5
102
}
330
61F5
100
AcDbScale
 70
     0
300
3/4" = 1'-0"
140
0.75
141
12.0
290
     0
  0
SCALE
  5
6202
102
{ACAD_REACTORS
330
61F5
102
}
330
61F5
100
AcDbScale
 70
     0
300
1" = 1'-0"
140
1.0
141
12.0
290
     0
  0
SCALE
  5
6203
102
{ACAD_REACTORS
330
61F5
102
}
330
61F5
100
AcDbScale
 70
     0
300
1-1/2" = 1'-0"
140
1.5
141
12.0
290
     0
  0
SCALE
  5
6204
102
{ACAD_REACTORS
330
61F5
102
}
330
61F5
100
AcDbScale
 70
     0
300
3" = 1'-0"
140
3.0
141
12.0
290
     0
  0
SCALE
  5
6205
102
{ACAD_REACTORS
330
61F5
102
}
330
61F5
100
AcDbScale
 70
     0
300
6" = 1'-0"
140
6.0
141
12.0
290
     0
  0
SCALE
  5
6206
102
{ACAD_REACTORS
330
61F5
102
}
330
61F5
100
AcDbScale
 70
     0
300
1'-0" = 1'-0"
140
12.0
141
12.0
290
     0
  0
TABLESTYLE
  5
61F4
102
{ACAD_XDICTIONARY
360
7BA1
102
}
102
{ACAD_REACTORS
330
61F3
102
}
330
61F3
100
AcDbTableStyle
  3
Standard
 70
     0
 71
     0
 40
0.06
 41
0.06
280
     0
281
     0
  7
STANDARD
140
0.18
170
     2
 62
     0
 63
     7
283
     0
274
    -2
284
     1
 64
     0
275
    -2
285
     1
 65
     0
276
    -2
286
     1
 66
     0
277
    -2
287
     1
 67
     0
278
    -2
288
     1
 68
     0
279
    -2
289
     1
 69
     0
  7
STANDARD
140
0.25
170
     5
 62
     0
 63
     7
283
     0
274
    -2
284
     1
 64
     0
275
    -2
285
     1
 65
     0
276
    -2
286
     1
 66
     0
277
    -2
287
     1
 67
     0
278
    -2
288
     1
 68
     0
279
    -2
289
     1
 69
     0
  7
STANDARD
140
0.18
170
     5
 62
     0
 63
     7
283
     0
274
    -2
284
     1
 64
     0
275
    -2
285
     1
 65
     0
276
    -2
286
     1
 66
     0
277
    -2
287
     1
 67
     0
278
    -2
288
     1
 68
     0
279
    -2
289
     1
 69
     0
  0
VISUALSTYLE
  5
61DF
102
{ACAD_XDICTIONARY
360
81BB
102
}
102
{ACAD_REACTORS
330
61D9
102
}
330
61D9
100
AcDbVisualStyle
  2
2dWireframe
 70
     4
 71
     0
 72
     2
 73
     0
 90
        0
 40
-0.6
 41
-30.0
 62
     5
 63
     7
421
 16777215
 74
     1
 91
        4
 64
     7
 65
   257
 75
     1
175
     1
 42
1.0
 92
        0
 66
   257
 43
1.0
 76
     1
 77
     6
 78
     2
 67
     7
 79
     5
170
     0
171
     0
290
     0
174
     0
 93
        1
 44
0.0
173
     0
291
     0
 45
0.0
1001
ACAD
1000
AcDbSavedByObjectVersion
1070
     0
  0
VISUALSTYLE
  5
6302
102
{ACAD_XDICTIONARY
360
81E2
102
}
102
{ACAD_REACTORS
330
61D9
102
}
330
61D9
100
AcDbVisualStyle
  2
3dWireframe
 70
     5
 71
     0
 72
     2
 73
     0
 90
        0
 40
-0.6
 41
-30.0
 62
     5
 63
     7
421
 16777215
 74
     1
 91
        4
 64
     7
 65
   257
 75
     1
175
     1
 42
1.0
 92
        0
 66
   257
 43
1.0
 76
     1
 77
     6
 78
     2
 67
     7
 79
     5
170
     0
171
     0
290
     0
174
     0
 93
        1
 44
0.0
173
     0
291
     0
 45
0.0
1001
ACAD
1000
AcDbSavedByObjectVersion
1070
     0
  0
VISUALSTYLE
  5
61DE
102
{ACAD_XDICTIONARY
360
81B9
102
}
102
{ACAD_REACTORS
330
61D9
102
}
330
61D9
100
AcDbVisualStyle
  2
Basic
 70
     7
 71
     1
 72
     0
 73
     1
 90
        0
 40
-0.6
 41
-30.0
 62
     5
 63
     7
421
 16777215
 74
     0
 91
        4
 64
     7
 65
   257
 75
     1
175
     1
 42
1.0
 92
        8
 66
     7
 43
1.0
 76
     1
 77
     6
 78
     2
 67
     7
 79
     5
170
     0
171
     0
290
     0
174
     0
 93
        1
 44
0.0
173
     0
291
     1
 45
0.0
1001
ACAD
1000
AcDbSavedByObjectVersion
1070
     0
  0
VISUALSTYLE
  5
61E5
102
{ACAD_XDICTIONARY
360
81C7
102
}
102
{ACAD_REACTORS
330
61D9
102
}
330
61D9
100
AcDbVisualStyle
  2
Brighten
 70
    12
 71
     2
 72
     2
 73
     0
 90
        0
 40
-0.6
 41
-30.0
 62
     5
 63
     7
421
 16777215
 74
     1
 91
        4
 64
     7
 65
   257
 75
     1
175
     1
 42
1.0
 92
        8
 66
     7
 43
1.0
 76
     1
 77
     6
 78
     2
 67
     7
 79
     5
170
     0
171
     0
290
     0
174
     0
 93
        1
 44
50.0
173
     0
291
     1
 45
0.0
1001
ACAD
1000
AcDbSavedByObjectVersion
1070
     0
  0
VISUALSTYLE
  5
61E9
102
{ACAD_XDICTIONARY
360
81CF
102
}
102
{ACAD_REACTORS
330
61D9
102
}
330
61D9
100
AcDbVisualStyle
  2
ColorChange
 70
    16
 71
     2
 72
     2
 73
     3
 90
        0
 40
-0.6
 41
-30.0
 62
     5
 63
     8
421
  8421504
 74
     1
 91
        4
 64
     7
 65
   257
 75
     1
175
     1
 42
1.0
 92
        8
 66
     8
424
  8421504
 43
1.0
 76
     1
 77
     6
 78
     2
 67
     7
 79
     5
170
     0
171
     0
290
     0
174
     0
 93
        1
 44
0.0
173
     0
291
     1
 45
0.0
1001
ACAD
1000
AcDbSavedByObjectVersion
1070
     0
  0
VISUALSTYLE
  5
61E2
102
{ACAD_XDICTIONARY
360
81C1
102
}
102
{ACAD_REACTORS
330
61D9
102
}
330
61D9
100
AcDbVisualStyle
  2
Conceptual
 70
     9
 71
     3
 72
     2
 73
     0
 90
        0
 40
-0.6
 41
-30.0
 62
     5
 63
     7
421
 16777215
 74
     2
 91
        2
 64
     7
 65
   257
 75
     1
175
     1
 42
179.0
 92
        8
 66
     7
 43
1.0
 76
     1
 77
     6
 78
     2
 67
     7
 79
     3
170
     0
171
     0
290
     0
174
     0
 93
        1
 44
0.0
173
     0
291
     0
 45
0.0
1001
ACAD
1000
AcDbSavedByObjectVersion
1070
     0
  0
VISUALSTYLE
  5
61E4
102
{ACAD_XDICTIONARY
360
81C5
102
}
102
{ACAD_REACTORS
330
61D9
102
}
330
61D9
100
AcDbVisualStyle
  2
Dim
 70
    11
 71
     2
 72
     2
 73
     0
 90
        0
 40
-0.6
 41
-30.0
 62
     5
 63
     7
421
 16777215
 74
     1
 91
        4
 64
     7
 65
   257
 75
     1
175
     1
 42
1.0
 92
        8
 66
     7
 43
1.0
 76
     1
 77
     6
 78
     2
 67
     7
 79
     5
170
     0
171
     0
290
     0
174
     0
 93
        1
 44
-50.0
173
     0
291
     1
 45
0.0
1001
ACAD
1000
AcDbSavedByObjectVersion
1070
     0
  0
VISUALSTYLE
  5
61F1
102
{ACAD_XDICTIONARY
360
81DF
102
}
102
{ACAD_REACTORS
330
61D9
102
}
330
61D9
100
AcDbVisualStyle
  2
EdgeColorOff
 70
    22
 71
     2
 72
     2
 73
     0
 90
        0
 40
-0.6
 41
-30.0
 62
     5
 63
     7
421
 16777215
 74
     1
 91
        4
 64
     7
 65
   257
 75
     1
175
     1
 42
1.0
 92
        8
 66
     7
 43
1.0
 76
     1
 77
     6
 78
     2
 67
     7
 79
     5
170
     0
171
     0
290
     0
174
     0
 93
        1
 44
0.0
173
     0
291
     1
 45
0.0
1001
ACAD
1000
AcDbSavedByObjectVersion
1070
     0
  0
VISUALSTYLE
  5
61E8
102
{ACAD_XDICTIONARY
360
81CD
102
}
102
{ACAD_REACTORS
330
61D9
102
}
330
61D9
100
AcDbVisualStyle
  2
Facepattern
 70
    15
 71
     2
 72
     2
 73
     0
 90
        0
 40
-0.6
 41
-30.0
 62
     5
 63
     7
421
 16777215
 74
     1
 91
        4
 64
     7
 65
   257
 75
     1
175
     1
 42
1.0
 92
        8
 66
     7
 43
1.0
 76
     1
 77
     6
 78
     2
 67
     7
 79
     5
170
     0
171
     0
290
     0
174
     0
 93
        1
 44
0.0
173
     0
291
     1
 45
0.0
1001
ACAD
1000
AcDbSavedByObjectVersion
1070
     0
  0
VISUALSTYLE
  5
61DA
102
{ACAD_XDICTIONARY
360
81B1
102
}
102
{ACAD_REACTORS
330
61D9
102
}
330
61D9
100
AcDbVisualStyle
  2
Flat
 70
     0
 71
     2
 72
     1
 73
     1
 90
        2
 40
-0.6
 41
30.0
 62
     5
 63
     7
421
 16777215
 74
     0
 91
        0
 64
     7
 65
   257
 75
     1
175
     1
 42
1.0
 92
        8
 66
     7
 43
1.0
 76
     1
 77
     6
 78
     2
 67
     7
 79
     5
170
     0
171
     0
290
     0
174
     0
 93
       13
 44
0.0
173
     0
291
     1
 45
0.0
1001
ACAD
1000
AcDbSavedByObjectVersion
1070
     0
  0
VISUALSTYLE
  5
61DB
102
{ACAD_XDICTIONARY
360
81B3
102
}
102
{ACAD_REACTORS
330
61D9
102
}
330
61D9
100
AcDbVisualStyle
  2
FlatWithEdges
 70
     1
 71
     2
 72
     1
 73
     1
 90
        2
 40
-0.6
 41
30.0
 62
     5
 63
     7
421
 16777215
 74
     1
 91
        0
 64
     7
 65
   257
 75
     1
175
     1
 42
1.0
 92
        0
 66
   257
 43
1.0
 76
     1
 77
     6
 78
     2
 67
     7
 79
     5
170
     0
171
     0
290
     0
174
     0
 93
       13
 44
0.0
173
     0
291
     1
 45
0.0
1001
ACAD
1000
AcDbSavedByObjectVersion
1070
     0
  0
VISUALSTYLE
  5
61DC
102
{ACAD_XDICTIONARY
360
81B5
102
}
102
{ACAD_REACTORS
330
61D9
102
}
330
61D9
100
AcDbVisualStyle
  2
Gouraud
 70
     2
 71
     2
 72
     2
 73
     1
 90
        2
 40
-0.6
 41
30.0
 62
     5
 63
     7
421
 16777215
 74
     0
 91
        0
 64
     7
 65
   257
 75
     1
175
     1
 42
1.0
 92
        0
 66
     7
 43
1.0
 76
     1
 77
     6
 78
     2
 67
     7
 79
     5
170
     0
171
     0
290
     0
174
     0
 93
       13
 44
0.0
173
     0
291
     1
 45
0.0
1001
ACAD
1000
AcDbSavedByObjectVersion
1070
     0
  0
VISUALSTYLE
  5
61DD
102
{ACAD_XDICTIONARY
360
81B7
102
}
102
{ACAD_REACTORS
330
61D9
102
}
330
61D9
100
AcDbVisualStyle
  2
GouraudWithEdges
 70
     3
 71
     2
 72
     2
 73
     1
 90
        2
 40
-0.6
 41
30.0
 62
     5
 63
     7
421
 16777215
 74
     1
 91
        0
 64
     7
 65
   257
 75
     1
175
     1
 42
1.0
 92
        0
 66
   257
 43
1.0
 76
     1
 77
     6
 78
     2
 67
     7
 79
     5
170
     0
171
     0
290
     0
174
     0
 93
       13
 44
0.0
173
     0
291
     1
 45
0.0
1001
ACAD
1000
AcDbSavedByObjectVersion
1070
     0
  0
VISUALSTYLE
  5
61E1
102
{ACAD_XDICTIONARY
360
81BF
102
}
102
{ACAD_REACTORS
330
61D9
102
}
330
61D9
100
AcDbVisualStyle
  2
Hidden
 70
     6
 71
     1
 72
     2
 73
     2
 90
        0
 40
-0.6
 41
-30.0
 62
     5
 63
     7
421
 16777215
 74
     2
 91
        2
 64
     7
 65
   257
 75
     2
175
     1
 42
40.0
 92
        0
 66
   257
 43
1.0
 76
     1
 77
     6
 78
     2
 67
     7
 79
     3
170
     0
171
     0
290
     0
174
     0
 93
        1
 44
0.0
173
     0
291
     0
 45
0.0
1001
ACAD
1000
AcDbSavedByObjectVersion
1070
     0
  0
VISUALSTYLE
  5
61EF
102
{ACAD_XDICTIONARY
360
81DB
102
}
102
{ACAD_REACTORS
330
61D9
102
}
330
61D9
100
AcDbVisualStyle
  2
JitterOff
 70
    20
 71
     2
 72
     2
 73
     0
 90
        0
 40
-0.6
 41
-30.0
 62
     5
 63
     7
421
 16777215
 74
     1
 91
        4
 64
     7
 65
   257
 75
     1
175
     1
 42
1.0
 92
       10
 66
     7
 43
1.0
 76
     1
 77
     6
 78
     2
 67
     7
 79
     5
170
     0
171
     0
290
     0
174
     0
 93
        1
 44
0.0
173
     0
291
     1
 45
0.0
1001
ACAD
1000
AcDbSavedByObjectVersion
1070
     0
  0
VISUALSTYLE
  5
61E7
102
{ACAD_XDICTIONARY
360
81CB
102
}
102
{ACAD_REACTORS
330
61D9
102
}
330
61D9
100
AcDbVisualStyle
  2
Linepattern
 70
    14
 71
     2
 72
     2
 73
     0
 90
        0
 40
-0.6
 41
-30.0
 62
     5
 63
     7
421
 16777215
 74
     1
 91
        4
 64
     7
 65
   257
 75
     7
175
     7
 42
1.0
 92
        8
 66
     7
 43
1.0
 76
     1
 77
     6
 78
     2
 67
     7
 79
     5
170
     0
171
     0
290
     0
174
     0
 93
        1
 44
0.0
173
     0
291
     1
 45
0.0
1001
ACAD
1000
AcDbSavedByObjectVersion
1070
     0
  0
VISUALSTYLE
  5
61F0
102
{ACAD_XDICTIONARY
360
81DD
102
}
102
{ACAD_REACTORS
330
61D9
102
}
330
61D9
100
AcDbVisualStyle
  2
OverhangOff
 70
    21
 71
     2
 72
     2
 73
     0
 90
        0
 40
-0.6
 41
-30.0
 62
     5
 63
     7
421
 16777215
 74
     1
 91
        4
 64
     7
 65
   257
 75
     1
175
     1
 42
1.0
 92
        9
 66
     7
 43
1.0
 76
     1
 77
     6
 78
     2
 67
     7
 79
     5
170
     0
171
     0
290
     0
174
     0
 93
        1
 44
0.0
173
     0
291
     1
 45
0.0
1001
ACAD
1000
AcDbSavedByObjectVersion
1070
     0
  0
VISUALSTYLE
  5
61E3
102
{ACAD_XDICTIONARY
360
81C3
102
}
102
{ACAD_REACTORS
330
61D9
102
}
330
61D9
100
AcDbVisualStyle
  2
Realistic
 70
     8
 71
     2
 72
     2
 73
     0
 90
        2
 40
-0.6
 41
30.0
 62
     5
 63
     7
421
 16777215
 74
     0
 91
        0
 64
     7
 65
   257
 75
     1
175
     1
 42
1.0
 92
        8
 66
   257
 43
1.0
 76
     1
 77
     6
 78
     2
 67
     7
 79
     3
170
     0
171
     0
290
     0
174
     0
 93
       13
 44
0.0
173
     0
291
     0
 45
0.0
1001
ACAD
1000
AcDbSavedByObjectVersion
1070
     0
  0
VISUALSTYLE
  5
61EE
102
{ACAD_XDICTIONARY
360
81D9
102
}
102
{ACAD_REACTORS
330
61D9
102
}
330
61D9
100
AcDbVisualStyle
  2
Shaded
 70
    27
 71
     2
 72
     2
 73
     1
 90
        2
 40
-0.6
 41
30.0
 62
     5
 63
     7
421
 16777215
 74
     0
 91
        4
 64
     7
 65
   257
 75
     1
175
     1
 42
1.0
 92
        8
 66
   257
 43
1.0
 76
     1
 77
     6
 78
     2
 67
     8
425
  7895160
 79
     3
170
     0
171
     0
290
     0
174
     0
 93
        5
 44
0.0
173
     0
291
     0
 45
0.0
1001
ACAD
1000
AcDbSavedByObjectVersion
1070
     0
  0
VISUALSTYLE
  5
61ED
102
{ACAD_XDICTIONARY
360
81D7
102
}
102
{ACAD_REACTORS
330
61D9
102
}
330
61D9
100
AcDbVisualStyle
  2
Shaded with edges
 70
    26
 71
     2
 72
     2
 73
     1
 90
        2
 40
-0.6
 41
30.0
 62
     5
 63
     7
421
 16777215
 74
     1
 91
       10
 64
     7
 65
   257
 75
     2
175
     1
 42
1.0
 92
        8
 66
   257
 43
1.0
 76
     1
 77
     6
 78
     2
 67
     7
 79
     3
170
     0
171
     0
290
     0
174
     0
 93
        5
 44
0.0
173
     0
291
     0
 45
0.0
1001
ACAD
1000
AcDbSavedByObjectVersion
1070
     0
  0
VISUALSTYLE
  5
61EA
102
{ACAD_XDICTIONARY
360
81D1
102
}
102
{ACAD_REACTORS
330
61D9
102
}
330
61D9
100
AcDbVisualStyle
  2
Shades of Gray
 70
    23
 71
     2
 72
     2
 73
     3
 90
        0
 40
-0.6
 41
-30.0
 62
     5
 63
     7
421
 16777215
 74
     2
 91
        2
 64
     7
 65
     7
 75
     1
175
     1
 42
40.0
 92
        8
 66
     7
 43
1.0
 76
     1
 77
     6
 78
     2
 67
     7
 79
     3
170
     0
171
     0
290
     0
174
     0
 93
        1
 44
0.0
173
     0
291
     0
 45
0.0
1001
ACAD
1000
AcDbSavedByObjectVersion
1070
     0
  0
VISUALSTYLE
  5
61EB
102
{ACAD_XDICTIONARY
360
81D3
102
}
102
{ACAD_REACTORS
330
61D9
102
}
330
61D9
100
AcDbVisualStyle
  2
Sketchy
 70
    24
 71
     1
 72
     2
 73
     2
 90
        0
 40
-0.6
 41
-30.0
 62
     5
 63
     7
421
 16777215
 74
     2
 91
        2
 64
     7
 65
     7
 75
     1
175
     1
 42
40.0
 92
       11
 66
     7
 43
1.0
 76
     1
 77
     6
 78
     2
 67
     7
 79
     6
170
     0
171
     0
290
     0
174
     0
 93
        1
 44
0.0
173
     0
291
     0
 45
0.0
1001
ACAD
1000
AcDbSavedByObjectVersion
1070
     0
  0
VISUALSTYLE
  5
61E6
102
{ACAD_XDICTIONARY
360
81C9
102
}
102
{ACAD_REACTORS
330
61D9
102
}
330
61D9
100
AcDbVisualStyle
  2
Thicken
 70
    13
 71
     2
 72
     2
 73
     0
 90
        0
 40
-0.6
 41
-30.0
 62
     5
 63
     7
421
 16777215
 74
     1
 91
        4
 64
     7
 65
   257
 75
     1
175
     1
 42
1.0
 92
       12
 66
     7
 43
1.0
 76
     1
 77
     6
 78
     2
 67
     7
 79
     5
170
     0
171
     0
290
     0
174
     0
 93
        1
 44
0.0
173
     0
291
     1
 45
0.0
1001
ACAD
1000
AcDbSavedByObjectVersion
1070
     0
  0
VISUALSTYLE
  5
61E0
102
{ACAD_XDICTIONARY
360
81BD
102
}
102
{ACAD_REACTORS
330
61D9
102
}
330
61D9
100
AcDbVisualStyle
  2
Wireframe
 70
     5
 71
     0
 72
     2
 73
     0
 90
        0
 40
-0.6
 41
-30.0
 62
     5
 63
     7
421
 16777215
 74
     1
 91
        4
 64
     7
 65
   257
 75
     1
175
     1
 42
1.0
 92
        0
 66
   257
 43
1.0
 76
     1
 77
     6
 78
     2
 67
     7
 79
     3
170
     0
171
     0
290
     0
174
     0
 93
        1
 44
0.0
173
     0
291
     0
 45
0.0
1001
ACAD
1000
AcDbSavedByObjectVersion
1070
     0
  0
VISUALSTYLE
  5
61EC
102
{ACAD_XDICTIONARY
360
81D5
102
}
102
{ACAD_REACTORS
330
61D9
102
}
330
61D9
100
AcDbVisualStyle
  2
X-Ray
 70
    25
 71
     2
 72
     2
 73
     1
 90
        1
 40
0.5
 41
-30.0
 62
     5
 63
     7
421
 16777215
 74
     1
 91
        0
 64
     7
 65
   257
 75
     1
175
     1
 42
1.0
 92
        8
 66
     7
 43
1.0
 76
     1
 77
     6
 78
     2
 67
     7
 79
     3
170
     0
171
     0
290
     0
174
     0
 93
       13
 44
0.0
173
     0
291
     0
 45
0.0
1001
ACAD
1000
AcDbSavedByObjectVersion
1070
     0
  0
DICTIONARYVAR
  5
7467
102
{ACAD_REACTORS
330
169
102
}
330
169
100
DictionaryVariables
280
     0
  1
1:1
  0
DICTIONARYVAR
  5
7465
102
{ACAD_REACTORS
330
169
102
}
330
169
100
DictionaryVariables
280
     0
  1
STANDARD
  0
DICTIONARYVAR
  5
7464
102
{ACAD_REACTORS
330
169
102
}
330
169
100
DictionaryVariables
280
     0
  1
STANDARD
  0
DICTIONARYVAR
  5
16A
102
{ACAD_REACTORS
330
169
102
}
330
169
100
DictionaryVariables
280
     0
  1
1
  0
DICTIONARYVAR
  5
7469
102
{ACAD_REACTORS
330
169
102
}
330
169
100
DictionaryVariables
280
     0
  1
1
  0
DICTIONARYVAR
  5
746A
102
{ACAD_REACTORS
330
169
102
}
330
169
100
DictionaryVariables
280
     0
  1
15
  0
DICTIONARYVAR
  5
7468
102
{ACAD_REACTORS
330
169
102
}
330
169
100
DictionaryVariables
280
     0
  1
0
  0
DICTIONARYVAR
  5
7466
102
{ACAD_REACTORS
330
169
102
}
330
169
100
DictionaryVariables
280
     0
  1
0
  0
DICTIONARYVAR
  5
81A9
102
{ACAD_REACTORS
330
169
102
}
330
169
100
DictionaryVariables
280
     0
  1
2
  0
XRECORD
  5
177
102
{ACAD_REACTORS
330
176
102
}
330
176
100
AcDbXrecord
280
     1
 91
      476
330
179
 90
        8
 62
     7
370
    -3
331
15
  1
Color_7
330
178
 90
        8
 62
     7
370
    -3
331
15
  1
Color_7
330
128
 90
        0
 62
     7
370
    -3
331
15
  1
Color_7
330
10
 90
        8
 62
     7
370
    -3
331
15
  1
Color_7
  0
DICTIONARY
  5
7416
330
21
100
AcDbDictionary
280
     1
281
     1
  3
ADSK_XREC_LAYOUTTHUMBNAIL
360
7417
  0
DICTIONARY
  5
61CA
330
61C9
100
AcDbDictionary
280
     1
281
     1
  3
ACAD_XREC_ROUNDTRIP
360
81AF
  3
BUMPTILE
360
61CC
  3
DIFFUSETILE
360
61CB
  3
OPACITYTILE
360
61CF
  3
REFLECTIONTILE
360
61CE
  3
REFRACTIONTILE
360
61D0
  3
SPECULARTILE
360
61CD
  0
DICTIONARY
  5
61C2
330
61C1
100
AcDbDictionary
280
     1
281
     1
  3
ACAD_XREC_ROUNDTRIP
360
81AE
  3
BUMPTILE
360
61C4
  3
DIFFUSETILE
360
61C3
  3
OPACITYTILE
360
61C7
  3
REFLECTIONTILE
360
61C6
  3
REFRACTIONTILE
360
61C8
  3
SPECULARTILE
360
61C5
  0
DICTIONARY
  5
61D2
330
61D1
100
AcDbDictionary
280
     1
281
     1
  3
ACAD_XREC_ROUNDTRIP
360
81B0
  3
BUMPTILE
360
61D4
  3
DIFFUSETILE
360
61D3
  3
OPACITYTILE
360
61D7
  3
REFLECTIONTILE
360
61D6
  3
REFRACTIONTILE
360
61D8
  3
SPECULARTILE
360
61D5
  0
DICTIONARY
  5
81AB
330
6208
100
AcDbDictionary
280
     1
281
     1
  3
ACAD_XREC_ROUNDTRIP
360
81AC
  0
DICTIONARY
  5
7BA1
330
61F4
100
AcDbDictionary
280
     1
281
     1
  3
ACAD_ROUNDTRIP_2008_TABLESTYLE_CELLSTYLEMAP
360
81AA
  3
ACAD_XREC_ROUNDTRIP
360
81E1
  0
DICTIONARY
  5
81BB
330
61DF
100
AcDbDictionary
280
     1
281
     1
  3
ACAD_XREC_ROUNDTRIP
360
81BC
  0
DICTIONARY
  5
81E2
330
6302
100
AcDbDictionary
280
     1
281
     1
  3
ACAD_XREC_ROUNDTRIP
360
81E3
  0
DICTIONARY
  5
81B9
330
61DE
100
AcDbDictionary
280
     1
281
     1
  3
ACAD_XREC_ROUNDTRIP
360
81BA
  0
DICTIONARY
  5
81C7
330
61E5
100
AcDbDictionary
280
     1
281
     1
  3
ACAD_XREC_ROUNDTRIP
360
81C8
  0
DICTIONARY
  5
81CF
330
61E9
100
AcDbDictionary
280
     1
281
     1
  3
ACAD_XREC_ROUNDTRIP
360
81D0
  0
DICTIONARY
  5
81C1
330
61E2
100
AcDbDictionary
280
     1
281
     1
  3
ACAD_XREC_ROUNDTRIP
360
81C2
  0
DICTIONARY
  5
81C5
330
61E4
100
AcDbDictionary
280
     1
281
     1
  3
ACAD_XREC_ROUNDTRIP
360
81C6
  0
DICTIONARY
  5
81DF
330
61F1
100
AcDbDictionary
280
     1
281
     1
  3
ACAD_XREC_ROUNDTRIP
360
81E0
  0
DICTIONARY
  5
81CD
330
61E8
100
AcDbDictionary
280
     1
281
     1
  3
ACAD_XREC_ROUNDTRIP
360
81CE
  0
DICTIONARY
  5
81B1
330
61DA
100
AcDbDictionary
280
     1
281
     1
  3
ACAD_XREC_ROUNDTRIP
360
81B2
  0
DICTIONARY
  5
81B3
330
61DB
100
AcDbDictionary
280
     1
281
     1
  3
ACAD_XREC_ROUNDTRIP
360
81B4
  0
DICTIONARY
  5
81B5
330
61DC
100
AcDbDictionary
280
     1
281
     1
  3
ACAD_XREC_ROUNDTRIP
360
81B6
  0
DICTIONARY
  5
81B7
330
61DD
100
AcDbDictionary
280
     1
281
     1
  3
ACAD_XREC_ROUNDTRIP
360
81B8
  0
DICTIONARY
  5
81BF
330
61E1
100
AcDbDictionary
280
     1
281
     1
  3
ACAD_XREC_ROUNDTRIP
360
81C0
  0
DICTIONARY
  5
81DB
330
61EF
100
AcDbDictionary
280
     1
281
     1
  3
ACAD_XREC_ROUNDTRIP
360
81DC
  0
DICTIONARY
  5
81CB
330
61E7
100
AcDbDictionary
280
     1
281
     1
  3
ACAD_XREC_ROUNDTRIP
360
81CC
  0
DICTIONARY
  5
81DD
330
61F0
100
AcDbDictionary
280
     1
281
     1
  3
ACAD_XREC_ROUNDTRIP
360
81DE
  0
DICTIONARY
  5
81C3
330
61E3
100
AcDbDictionary
280
     1
281
     1
  3
ACAD_XREC_ROUNDTRIP
360
81C4
  0
DICTIONARY
  5
81D9
330
61EE
100
AcDbDictionary
280
     1
281
     1
  3
ACAD_XREC_ROUNDTRIP
360
81DA
  0
DICTIONARY
  5
81D7
330
61ED
100
AcDbDictionary
280
     1
281
     1
  3
ACAD_XREC_ROUNDTRIP
360
81D8
  0
DICTIONARY
  5
81D1
330
61EA
100
AcDbDictionary
280
     1
281
     1
  3
ACAD_XREC_ROUNDTRIP
360
81D2
  0
DICTIONARY
  5
81D3
330
61EB
100
AcDbDictionary
280
     1
281
     1
  3
ACAD_XREC_ROUNDTRIP
360
81D4
  0
DICTIONARY
  5
81C9
330
61E6
100
AcDbDictionary
280
     1
281
     1
  3
ACAD_XREC_ROUNDTRIP
360
81CA
  0
DICTIONARY
  5
81BD
330
61E0
100
AcDbDictionary
280
     1
281
     1
  3
ACAD_XREC_ROUNDTRIP
360
81BE
  0
DICTIONARY
  5
81D5
330
61EC
100
AcDbDictionary
280
     1
281
     1
  3
ACAD_XREC_ROUNDTRIP
360
81D6
  0
XRECORD
  5
7417
102
{ACAD_REACTORS
330
7416
102
}
330
7416
100
AcDbXrecord
280
     1
310
280000000001000065000000010008000000000000650000000000000000000000010000000000003028210000000000FFFFFF000000000000000000000000000000000000000000000000000000000000000000330000006600000099000000CC000000FF00000000330000333300006633000099330000CC330000FF3300
310
0000660000336600006666000099660000CC660000FF66000000990000339900006699000099990000CC990000FF99000000CC000033CC000066CC000099CC0000CCCC0000FFCC000000FF000033FF000066FF000099FF0000CCFF0000FFFF000000003300330033006600330099003300CC003300FF003300003333003333
310
33006633330099333300CC333300FF33330000663300336633006666330099663300CC663300FF66330000993300339933006699330099993300CC993300FF99330000CC330033CC330066CC330099CC3300CCCC3300FFCC330000FF330033FF330066FF330099FF3300CCFF3300FFFF330000006600330066006600660099
310
006600CC006600FF00660000336600333366006633660099336600CC336600FF33660000666600336666006666660099666600CC666600FF66660000996600339966006699660099996600CC996600FF99660000CC660033CC660066CC660099CC6600CCCC6600FFCC660000FF660033FF660066FF660099FF6600CCFF6600
310
FFFF660000009900330099006600990099009900CC009900FF00990000339900333399006633990099339900CC339900FF33990000669900336699006666990099669900CC669900FF66990000999900339999006699990099999900CC999900FF99990000CC990033CC990066CC990099CC9900CCCC9900FFCC990000FF99
310
0033FF990066FF990099FF9900CCFF9900FFFF99000000CC003300CC006600CC009900CC00CC00CC00FF00CC000033CC003333CC006633CC009933CC00CC33CC00FF33CC000066CC003366CC006666CC009966CC00CC66CC00FF66CC000099CC003399CC006699CC009999CC00CC99CC00FF99CC0000CCCC0033CCCC0066CC
310
CC0099CCCC00CCCCCC00FFCCCC0000FFCC0033FFCC0066FFCC0099FFCC00CCFFCC00FFFFCC000000FF003300FF006600FF009900FF00CC00FF00FF00FF000033FF003333FF006633FF009933FF00CC33FF00FF33FF000066FF003366FF006666FF009966FF00CC66FF00FF66FF000099FF003399FF006699FF009999FF00CC
310
99FF00FF99FF0000CCFF0033CCFF0066CCFF0099CCFF00CCCCFF00FFCCFF0000FFFF0033FFFF0066FFFF0099FFFF00CCFFFF00FFFFFF00000000000D0D0D001A1A1A00282828003535350043434300505050005D5D5D006B6B6B00787878008686860093939300A1A1A100AEAEAE00BBBBBB00C9C9C900D6D6D600E4E4E400
310
F1F1F100FFFFFF000000000000000000000000000000000000000000000000000000000000000000000000000000000000000000000000000000000000000000000000000000000000000000000000000000000000000000000000000000000000000000000000000000000000000000000000000000000000000000000000
310
00000000002D2D2D2D2D2D2D2D2D2D2D2D2D2D2D2D2D2D2DF5000000000000000000000000000000000000000000000000000000000000000000000000000000000000000000000000000000000000000000000000000000000000000000000000000000000000000000000000000000000000000000000000000000000000
310
00000000000000000000000000000000000000000000000000000000000000000000000000000000000000000000000000000000000000000000000000000000000000000000000000000000000000000000000000000000000000000000000000000000000000000000000000000000000000000000000000000000000000
310
000000000000002D0000000000000028282828000000000000002D00000000000000000000000000000000000000000000000000000000000000000000000000000000000000000000000000000000000000000000000000000000000000000000000000000000000000000000000000000000000000000000000000000000
310
00000000000000000000000000000000000000000000000000000000000000000000000000000000000000000000000000000000000000000000000000000000000000000000000000000000000000000000000000000000000000000000000000000000000000000000000000000000000000000000000000000000002800
310
2800002800000000002D0000000000000028282828000000000000002D0000280028000000000000000000000000000000000000000000000000000000002800002800280000000000000000000000000000000000000000000000000028002800280000000000000000000000000000000000000000000000000000000000
310
00000000000000000000000000000000000000000000000000000000000000000000000000000000000000000000000000000000000000000000000000000000000000000000000000000000000000000000000000000000000000000000000000000000000000000000000000000000000000000000000000000000000000
310
00282828280028000000002D0000000000000000000000000000000000002D282800280028000000000000000000000000000000000000000000000000000000002828002800280000000000000000000000000000000000000000000000000028002800282800000000000000000000000000000000000000000000000000
310
00000000000000000000000000000000000000000000000000000000000000000000000000000000000000000000000000000000000000000000000000000000000000000000000000000000000000000000000000000000000000000000000000000000000000000000000000000000000000000000000000000000000000
310
00000000002800280028000000F50000000000000000F5000000000000000000F5000028002800280000000000000000000000000000000000000000000000000000000000280028002800000000000000000000000000F5000000000000000000000028002800002800000000000000000000000000000000000000000000
310
00000000000000000000000000000000000000000000000000000000000000000000000000000000000000000000000000000000000000000000000000000000000000000000000000000000000000000000000000000000000000000000000000000000000000000000000000000000000000000000000000000000000000
310
2D2D2D2D2D2D2D2D282D282D282D2D2D2D2D2D2D2D2D2D2DF52D2D2D2D2D2D2D2D2D2D2D2D2D282D282D282D2D2D2D2D2D00000000000000002D2D2D2D2D2D2D2D2D2D2D2D2D2D2D2D2D2D2D2D2D2D2D2D2D2D2D2D2D2D2D2DF52D2D2D2D2D2D2D2D2D2D2D2D2D2D2D2D2D2D2D2DF52D2D2D2D2D2D2D000000000000000000
310
00000000000000000000000000000000000000000000000000000000000000000000000000000000000000000000000000000000000000000000000000000000000000000000000000000000000000000000000000000000000000000000000000000000000000000000000000000000000000000000000000000000000000
310
00000000000000000000000000000000002D2D2D2D2D2D2D2D2DF52D2D2D2D2D2D2D2D2D2D00000000000000000000000000000000000000000000000000000000000000000000000000000000000000002D2D2D2D2D2D2D2D2D2DF52D2D2D2D2D2D2D2D2D00000000000000000000000000000000002D0000000000000000
310
00000000000000000000000000000000000000000000000000000000000000000000000000000000000000000000000000000000000000000000000000000000000000000000000000000000000000000000000000000000000000000000000000000000000000000000000000000000000000000000000000000000000000
310
000000000000000000000000000000000000000000000000002D0000F50000002D00000000000000000000000000000000000000000000000000000000000000000000000000000000000000000000000000000000000000002D000000F500002D00000000000000000000000000000000000000000000002D000000000000
310
00000000000000000000000000000000000000000000000000000000000000000000000000000000000000000000000000000000000000000000000000000000000000000000000000000000000000000000000000000000000000000000000000000000000000000000000000000000000000000000000000000000000000
310
0000000000000000000000000000000000000000000000000000002D0000F50000002D00000000000000000000000000000000000000000000000000000000000000000000000000000000000000000000000000000000000000002D000000F500002D00000000000000000000000000000000000000000000002D00000000
310
00000000000000000000000000000000000000000000000000000000000000000000000000000000000000000000000000000000000000000000000000000000000000000000000000000000000000000000000000000000000000000000000000000000000000000000000000000000000000000000000000000000000000
310
00000000000000000000000000000000000000000000000000000000002D0000F50000002D00000000000000000000000000000000000000000000000000000000000000000000000000000000000000000000000000000000000000002D000000F500002D00000000000000000000000000000000000000000000002D0000
310
00000000000000000000000000000000000000000000000000000000000000000000000000000000000000000000000000000000000000000000000000000000000000000000000000000000000000000000000000000000000000000000000000000000000000000000000000000000000000000000000000000000000000
310
000000000000000000000000000000000000000000000000000000000000002D0000F50000002D00000000000000000000000000000000000000000000000000000000000000000000000000000000000000000000000000000000000000002D000000F500002D00000000000000000000000000000000000000000000002D
310
00000000000000000000000000000000000000000000000000000000000000000000000000000000000000000000000000000000000000000000000000000000000000000000000000000000000000000000000000000000000000000000000000000000000000000000000000000000000000000000000000000000000000
310
0000000000000000000000000000000000000000000000000000000000000000002D0000F50000002D00000000000000000000000000000000000000000000000000000000000000000000000000000000000000000000000000000000000000002D000000F500002D00000000000000000000000000000000000000000000
310
002D0000000000000000000000000000000000000000000000000000000000000000000000000000000000000000000000000000000000000000000000000000000000000000000000000000000000000000000000000000000000000000000000000000000000000000000000000000000000000000000000000000000000
310
00000000000000000000000000000000000000000000000000000000000000000000002D0000F50000002D00000000000000000000000000000000000000000000000000000000000000000000000000000000000000000000000000000000000000002D000000F500002D0000000000000000000000000000000000000000
310
0000002D000000000000000000000000000000000000000000000000000000000000000000000000000000000000000000000000000000000000000000000000000000000000000000000000000000000000000000000000000000000000000000000000000000000000000000000000000000000000000000000000000000
310
000000000000000000000000000000000000000000000000000000000000000000000000002D0000F50000002D00000000000000000000000000000000000000000000000000000000000000000000000000000000000000000000000000000000000000002D000000F500002D000000000000000000000000000000000000
310
00000000002D00000000000000000000000000000000000000000000000000000000000000000000000000000000000000000000000000000000000000000000000000000000000000000000000000000000000000000000000000000000000000000000000000000000000000000000000000000000000000000000000000
310
0000000000000000000000000000000000000000000000000000000000000000000000000000002D0000F50000002D00000000000000000000000000000000000000000000000000000000000000000000000000000000000000000000000000000000000000002D000000F500002D00000000000000000000000000000000
310
000000000000002D0000000000000000000000000000000000000000000000000000000000000000000000000000000000000000000000000000000000000000000000000000000000000000000000000000000000000000000000000000000000000000000000000000000000000000000000000000000000000000000000
310
00000000000000000000000000000000000000000000000000000000000000000000000000000000002D0000F50000002D00000000000000000000000000000000000000000000000000000000000000000000000000000000000000000000000000000000000000002D000000F500002D0000000000000000000000000000
310
0000000000000000002D000000000000000000000000000000000000000000000000000000000000000000000000000000000000000000000000000000000000000000000000000000000000000000000000000000000000000000000000000000000000000000000000000000000000000000000000000000000000000000
310
000000000000000000000000000000000000000000000000000000000000000000000000000000000000002D0000F50000002D00000000000000000000000000000000000000000000000000000000000000000000000000000000000000000000000000000000000000002D000000F500002D000000000000000000000000
310
00000000000000000000002D00000000000000000000000000000000000000000000000000000000000000000000000000000000000000000000000000000000000000000000000000000000000000000000000000000000000000000000000000000000000000000000000000000000000000000000000000000000000000
310
0000000000000000000000000000000000000000000000000000000000000000000000000000000000000000002D0000F50000002D00000000000000000000000000000000000000000000000000000000000000000000000000000000000000000000000000000000000000002D000000F500002D00000000000000000000
310
000000000000000000000000002D0000000000000000000000000000000000000000000000000000000000000000000000000000000000000000000000000000000000000000000000000000000000000000000000000000000000000000000000000000000000000000000000000000000000000000000000000000000000
310
00000000000000000000000000000000000000000000000000000000000000000000000000000000000000000000002D0000F50000002D00000000000000000000000000000000000000000000000000000000000000000000000000000000000000000000000000000000000000002D000000F500002D0000000000000000
310
0000000000000000000000000000002D000000000000000000000000000000000000000000000000000000000000000000000000000000000000000000000000000000000000000000000000000000000000000000000000000000000000000000000000000000000000000000000000000000000000000000000000000000
310
000000000000000000000000000000000000000000000000000000000000000000000000000000000000000000000000002D0000F50000002D00000000000000000000000000000000000000000000000000000000000000000000000000000000000000000000000000000000000000002D000000F500002D000000000000
310
00000000000000000000000000000000002D00000000000000000000000000000000000000000000000000000000000000000000000000000000000000000000000000000000000000000000000000000000000000000000000000000000000000000000000000000000000000000000000000000000000000000000000000
310
0000000000000000000000000000000000000000000000000000000000000000000000000000000000000000000000000000002D0000F50000002D00000000000000000000000000000000000000000000000000000000000000000000000000000000000000000000000000000000000000002D000000F500002D00000000
310
000000000000000000000000000000000000002D0000000000000000000000000000000000000000000000000000000000000000000000000000000000000000000000000000000000000000000000000000000000000000000000000000000000000000000000000000000000000000000000000000000000000000000000
310
00000000000000000000000000000000000000000000000000000000000000000000000000000000000000000000000000000000002D0000F50000002D00000000000000000000000000000000000000000000000000000000000000000000000000000000000000000000000000000000000000002D000000F500002D0000
310
0000000000000000000000000000000000000000002D000000000000000000000000000000000000000000000000000000000000000000000000000000000000000000000000000000000000000000000000000000000000000000000000000000000000000000000000000000000000000000000000000000000000000000
310
000000000000000000000000000000000000000000000000000000000000000000000000000000000000000000000000000000000000002D0000F50000002D00000000000000000000000000000000000000000000000000000000000000000000000000000000000000000000000000000000000000002D000000F500002D
310
00000000000000000000000000000000000000000000002D00000000000000000000000000000000000000000000000000000000000000000000000000000000000000000000000000000000000000000000000000000000000000000000000000000000000000000000000000000000000000000000000000000000000000
310
0000000000000000000000000000000000000000000000000000000000000000000000000000000000000000000000000000000000000000002D0000F50000002D00000000000000000000000000000000000000000000000000000000000000000000000000000000000000000000000000000000000000002D000000F500
310
002D00000000000000000000000000000000000000000000002D0000000000000000000000000000000000000000000000000000000000000000000000000000000000000000000000000000000000000000000000000000000000000000000000000000000000000000000000000000000000000000000000000000000000
310
00000000000000000000000000000000000000000000000000000000000000000000000000000000000000000000000000000000000000000000002D0000F50000002D00000000000000000000000000000000000000000000000000000000000000000000000000000000000000000000000000000000000000002D000000
310
F500002D00000000000000000000000000000000000000000000002D000000000000000000000000000000000000000000000000000000000000000000000000000000000000000000000000000000000000000000000000000000000000000000000000000000000000000000000000000000000000000000000000000000
310
000000000000000000000000000000000000000000000000000000000000000000000000000000000000000000000000000000000000000000000000002D0000F50000002D00000000000000000000000000000000000000000000000000000000000000000000000000000000000000000000000000000000000000002D00
310
0000F500002D00000000000000000000000000000000000000000000002D00000000000000000000000000000000000000000000000000000000000000000000000000000000000000000000000000000000000000000000000000000000000000000000000000000000000000000000000000000000000000000000000000
310
0000000000000000000000000000000000000000000000000000000000000000000000000000000000000000000000000000000000000000000000000000002D0000F50000002D0000000000000000000000000000000000000000000000000000000000000000000000000000000000000000000000000000000000000000
310
2D000000F500002D00000000000000000000000000000000000000000000002D0000000000000000000000000000000000000000000000000000000000000000000000000000000000000000000000000000000000000000000000000000000000000000000000000000000000000000000000000000000000000000000000
310
00000000000000000000000000000000000000000000000000000000000000000000000000000000000000000000000000000000000000000000000000000000002D0000F50000002D000000000000000000000000000000000000000000000000000000000000000000000000000000000000000000000000000000000000
310
00002D000000F500002D00000000000000000000000000000000000000000000002D000000000000000000000000000000000000000000000000000000000000000000000000000000000000000000000000000000000000000000000000000000000000000000000000000000000000000000000000000000000000000000
310
000000000000000000000000000000000000000000000000000000000000000000000000000000000000000000000000000000000000000000000000000000000000002D0000F50000002D00000000000000000000000000000000000000000000000000000000000000000000000000000000000000000000000000000000
310
000000002D000000F500002D00000000000000000000000000000000000000000000002D00000000000000000000000000000000000000000000000000000000000000000000000000000000000000000000000000000000000000000000000000000000000000000000000000000000000000000000000000000000000000
310
000000000000000000000000000000000000000000000000000000000000000000000000000000000000000000000000000000000000000000000000000000000000000000000000F5000000000000000000000000000000000000000000000000000000000000000000000000000000000000000000000000000000000000
310
00000000000000000000F500000000000000000000000000000000000000000000000000002D0000000000000000000000000000000000000000000000000000000000000000000000000000000000000000000000000000000000000000000000000000000000000000000000000000000000000000000000000000000000
310
00000000000000000000000000000000000000000000000000000000000000000000000000000000000000000000000000000000000000000000000000000000000000000000002D0000F50000002D000000000000000000000000000000000000000000000000000000000000000000000000000000000000000000000000
310
00000000000000002D000000F500002D00000000000000000000000000000000000000000000002D000000000000000000000000000000000000000000000000000000000000000000000000000000000000000000000000000000000000000000000000000000000000000000000000000000000000000000000000000000
310
000000000000000000000000000000000000000000000000000000000000000000000000000000000000000000000000000000000000000000000000000000000000000000000000002D0000F50000002D00000000000000000000000000000000000000000000000000000000000000000000000000000000000000000000
310
000000000000000000002D000000F500002D00000000000000000000000000000000000000000000002D00000000000000000000000000000000000000000000000000000000000000000000000000000000000000000000000000000000000000000000000000000000000000000000000000000000000000000000000000
310
0000000000000000000000000000000000000000000000000000000000000000000000000000000000000000000000000000000000000000000000000000000000000000000000000000002D0000F50000002D0000000000000000000000000000000000000000000000000000000000000000000000000000000000000000
310
0000000000000000000000002D000000F500002D00000000000000000000000000000000000000000000002D0000000000000000000000000000000000000000000000000000000000000000000000000000000000000000000000000000000000000000000000000000000000000000000000000000000000000000000000
310
00000000000000000000000000000000000000000000000000000000000000000000000000000000000000000000000000000000000000000000000000000000000000000000000000000000002D0000F50000002D000000000000000000000000000000000000000000000000000000000000000000000000000000000000
310
00000000000000000000000000002D000000F500002D00000000000000000000000000000000000000000000002D000000000000000000000000000000000000000000000000000000000000000000000000000000000000000000000000000000000000000000000000000000000000000000000000000000000000000000
310
0000000000000000000000000000000000000000000000000000000000000000000000000000000000000000000000000000000000000000000000000000000000000000000000000000000000002D2D2D2D2D2D2D2D2D00000000000000000000000000000000000000000000000000000000000000000000000000000000
310
000000000000000000000000000000002D2D2D2D2D2D2D2D2D000000000000000000000000000000000000000000002D00000000000000000000000000000000000000000000000000000000000000000000000000000000000000000000000000000000000000000000000000000000000000000000000000000000000000
310
00000000000000000000000000000000000000000000000000000000000000000000000000000000000000000000000000000000000000000000000000000000000000000000000000000000000000002D0000002D2D00002D0000000000000000000000000000000000000000000000000000000000000000000000000000
310
0000000000000000000000000000000000002D2D2D00F50000002D000000000000000000000000000000000000000000002D0000000000000000000000000000000000000000000000000000000000000000000000000000000000000000000000000000000000000000000000000000000000000000000000000000000000
310
000000000000000000000000000000000000000000000000000000000000000000000000000000000000000000000000000000000000000000000000000000000000000000000000000000000000000000002D0000002D2D00002D000000000000000000000000000000000000000000000000000000000000000000000000
310
00000000000000000000000000000000000000002D2D2D00F50000002D000000000000000000000000000000000000000000002D000000000000000000000000000000000000000000000000000000000000000000000000000000000000000000000000000000000000000000000000000000000000000000000000000000
310
0000000000000000000000000000000000000000000000000000000000000000000000000000000000000000000000000000000000000000000000000000000000000000000000000000000000000000000000002D2D2D2D2D2D2D2D2D2D000000000000000000000000000000000000000000000000000000000000000000
310
0000000000000000000000000000000000000000002D2D2D2D2D2D2D2D2D2D000000000000000000000000000000000000000000282800000000000000000000000000000000000000000000000000000000000000000000000000000000000000000000000000000000000000000000000000000000000000000000000000
310
00000000000000000000000000000000000000000000000000000000000000000000000000000000000000000000000000000000000000000000000000000000000000000000000000000000000000000000000000002D2D2D282D282D2D2D2D00000000000000000000000000000000000000000000000000000000000000
310
00000000000000000000000000000000000000000000002D2D2D2D2D2D2D2D2D2D00000000000000000000000000000000000000000028280000000000000000000000000000000000000000000000000000000000000000000000000000000000000000000000000000000000000000000000000000000000000000000000
310
000000000000000000000000000000000000000000000000000000000000000000000000000000000000000000000000000000000000000000000000000000000000000000000000000000000000000000000000000000002D000028F5282D002D2D0000000000000000000000000000000000000000000000000000000000
310
000000000000000000000000000000000000000000000000002D2D2D2D2D2D2D2D2D2D0000000000000000000000000000000000000000002828000000000000000000000000000000000000000000000000000000000000000000000000000000000000000000000000000000000000000000000000000000000000000000
310
0000000000000000000000000000000000000000000000000000000000000000000000000000000000000000000000000000000000000000000000000000000000000000000000000000000000000000000000000000000000002D000028F5282D002D2D000000000000000000000000000000000000000000000000000000
310
0000000000000000000000000000000000000000000000000000002D2D2D2D2D2D2D2D2D2D000000000000000000000000000000000000000000282800000000000000000000000000000000000000000000000000000000000000000000000000000000000000000000000000000000000000000000000000000000000000
310
00000000000000000000000000000000000000000000000000000000000000000000000000000000000000000000000000000000000000000000000000000000000000000000000000000000000000000000000000000000000000002D000028F5282D002D2D00000000000000000000000000000000000000000000000000
310
00000000000000000000000000000000000000000000000000000000002D2D2D2D2D2D2D2D2D2D00000000000000000000000000000000000000000028280000000000000000000000000000000000000000000000000000000000000000000000000000000000000000000000000000000000000000000000000000000000
310
000000000000000000000000000000000000000000000000000000000000000000000000000000000000000000000000000000000000000000000000000000000000000000000000000000000000000000000000000000000000000000002D2D2D2D2D2D2D002D2D0000000000000000000000000000000000000000000000
310
000000000000000000000000000000000000000000000000000000000000002D2D2D2D2D2D2D2D2D2D0000000000000000000000000000000000000000002828000000000000000000000000000000000000000000000000000000000000000000000000000000000000000000000000000000000000000000000000000000
310
0000000000000000000000000000000000000000000000000000000000000000000000000000000000000000000000000000000000000000000000000000000000000000000000000000000000000000000000000000000000000000000000002D2D2D2DF52D2D002D2D000000000000000000000000000000000000000000
310
0000000000000000000000000000000000000000000000000000000000000000002D2D2D2D2D2D2D2D2D2D000000000000000000000000000000000000000000282800000000000000000000000000000000000000000000000000000000000000000000000000000000000000000000000000000000000000000000000000
310
00000000000000000000000000000000000000000000000000000000000000000000000000000000000000000000000000000000000000000000000000000000000000000000000000000000000000000000000000000000000000000000000000002D2D2D2D2D2D2D2D2D2D00000000000000000000000000000000000000
310
00000000000000000000000000000000000000000000000000000000000000000000002D2D2D2D2D2D2D2D2D2D00000000000000000000000000000000000000000000280000000000000000000000000000000000000000000000000000000000000000000000000000000000000000000000000000000000000000000000
310
000000000000000000000000000000000000000000000000000000000000000000000000000000000000000000000000000000000000000000000000000000000000000000000000000000000000000000000000000000000000000000000000000000002D2D2D2D2D2D2D2D2D000000000000000000000000000000000000
310
000000000000000000000000000000000000000000000000000000000000000000000000002D2D2D2D2D2D2D2D2D2D0000000000000000000000000000000000000000002828000000000000000000000000000000000000000000000000000000000000000000000000000000000000000000000000000000000000000000
310
00000000000000000000000000000000000000000000000000000000000000000000000000000000000000000000000000000000000000000000000000000000000000000000000000000000000000000000000000000000000000000000000000000000000000002D2DF52D2D000000000000000000000000000000000000
310
0000000000000000000000000000000000000000000000000000000000000000000000000000000000002D002D002D0000000000000000000000000000000000000000000000282800000000000000000000000000000000000000000000000000000000000000000000000000000000000000000000000000000000000000
310
000000000000000000000000000000000000000000000000000000000000000000000000000000000000000000000000000000000000000000000000000000000000000000000000000000000000000000000000000000000000000000000000000000000000000000002D2D2D2D2D00000000000000000000000000000000
310
00000000000000000000000000000000000000000000000000000000000000000000000000000000000000002D2D2D2D2D000000000000000000000000000000000000000000000028280000000000000000000000000000000000000000000000000000000000000000000000000000000000000000000000000000000000
310
0000000000000000000000000000000000000000000000000000000000000000000000000000000000000000000000000000000000000000000000000000000000000000000000000000000000000000000000000000000000000000000000000000000000000000000000000028F5282D0000000000000000000000000000
310
000000000000000000000000000000000000000000000000000000000000000000000000000000000000000000002D28F528000000000000000000000000000000000000000000000000002D000000000000000000000000000000000000000000000000000000000000000000000000000000000000000000000000000000
310
00000000000000000000000000000000000000000000000000000000000000000000000000000000000000000000000000000000000000000000000000000000000000000000000000000000000000000000000000000000000000000000000000000000000000000000000000000028F5282D000000000000000000000000
310
0000000000000000000000000000000000000000000000000000000000000000000000000000000000000000000000002D28F528000000000000000000000000000000000000000000000000002D00000000000000000000000000000000000000000000000000000000000000000000000000000000000000000000000000
310
000000000000000000000000000000000000000000000000000000000000000000000000000000000000000000000000000000000000000000000000000000000000000000000000000000000000000000000000000000000000000000000000000000000000000000000000000000000028F5282D00000000000000000000
310
00000000000000000000000000000000000000000000000000000000000000000000000000000000000000000000000000002D28F528000000000000000000000000000000000000000000000000002D0000000000000000000000000000000000000000000000000000000000000000000000000000000000000000000000
310
0000000000000000000000000000000000000000000000000000000000000000000000000000000000000000000000000000000000000000000000000000000000000000000000000000000000000000000000000000000000000000000000000000000000000000000000000000000000000028F5282D0000000000000000
310
000000000000000000000000000000000000000000000000000000000000000000000000000000000000000000000000000000002D28F528000000000000000000000000000000000000000000000000002D000000000000000000000000000000000000000000000000000000000000000000000000000000000000000000
310
000000000000000000000000000000000000000000000000000000000000000000000000000000000000000000000000000000000000000000000000000000000000000000000000000000000000000000000000000000000000000000000000000000000000000000000000000000000000000000F5F5282D000000000000
310
000000000000000000000000000000000000000000000000000000000000000000000000000000000000000000000000000000000000F528F528000000000000000000000000000000000000000000000000002D00000000000000000000000000000000000000000000000000000000000000000000000000000000000000
310
00000000000000000000000000000000000000000000000000000000000000000000000000000000000000000000000000000000000000000000000000000000000000000000000000000000000000000000000000000000000000000000000000000000000000000000000000000000000000000000F528F5282D00000000
310
0000000000000000000000000000000000000000000000000000000000000000000000000000000000000000000000000000000000000000F528F528000000000000000000000000000000000000000000000000002D0000000000000000000000000000000000000000000000000000000000000000000000000000000000
310
000000000000000000000000000000000000000000000000000000000000000000000000000000000000000000000000000000000000000000000000000000000000000000000000000000000000000000000000000000000000000000000000000000000000000000000000000000000000000000000000F528F5282D0000
310
000000000000000000000000000000000000000000000000000000000000000000000000000000000000000000000000000000000000000000F52D28F528000000000000000000000000000000000000000000000000002D000000000000000000000000000000000000000000000000000000000000000000000000000000
310
000000000000000000000000000000000000000000000000000000000000000000000000000000000000000000000000000000000000000000000000000000000000000000000000000000000000000000000000000000000000000000000000000000000000000000000000000000F5F5F5F5F5F5F5F5F5F5F50028F5282D
310
000000000000000000000000000000000000000000000000000000000000000000000000000000000000000000000000F5F5F5F5F5F5F5F5F5F5F5F52D28F528000000000000000000000000000000000000000000000000002D00000000000000000000000000000000000000000000000000000000000000000000000000
310
0000000000000000000000000000000000000000000000000000000000000000000000000000000000000000000000000000000000000000000000000000000000000000000000000000000000000000000000000000000000000000000000000000000000000000000000000000000000F5F5F5F5F5F5F5F5F5F5F50028F5
310
282D00000000000000000000000000000000000000000000000000000000000000000000000000000000000000000000000000F5F5F5F5F5F5F5F5F5F5F52D28F528000000000000000000000000000000000000000000000000002D0000000000000000000000000000000000000000000000000000000000000000000000
310
00000000000000000000000000000000000000000000000000000000000000000000000000000000000000000000000000000000000000000000000000000000000000000000000000000000000000000000000000000000000000000000000000000000000000000000000000000000000000000000000000000000000000
310
28F5282D0000000000000000000000000000000000000000000000000000000000000000000000000000000000000000000000000000000000000000000000002D28F528000000000000000000000000000000000000000000000000002D000000000000000000000000000000000000000000000000000000000000000000
310
00000000000000000000000000000000000000000000000000000000000000000000000000000000000000000000000000000000000000000000000000000000000000000000000000000000000000000000000000000000000000000000000000000000000000000000000000000000000000000000000000000000000000
310
002D2D2D2D2D0000000000000000000000000000000000000000000000000000000000000000000000000000000000000000000000000000000000000000000000002D2D2D2D2D0000000000000000000000000000000000000000000000002D00000000000000000000000000000000000000000000000000000000000000
310
00000000000000000000000000000000000000000000000000000000000000000000000000000000000000000000000000000000000000000000000000000000000000000000000000000000000000000000000000000000000000000000000000000000000000000000000000000000000000000000000000000000000000
310
0000002D2DF52D2D0000000000000000000000000000000000000000000000000000000000000000000000000000000000000000000000000000000000000000000000002D002D002D0000000000000000000000000000000000000000000000002D0000000000000000000000000000000000000000000000000000000000
310
00000000000000000000000000000000000000000000000000000000000000000000000000000000000000000000000000000000000000000000000000000000000000000000000000000000000000000000000000000000000000000000000000000000000000000000000000000000000000000000000000000000000000
310
00000000002D2D2D2D2D000000F5F5F5F5F5F5F5F5F5F5F5F5F5000000000000000000000000000000000000000000000000000000000000000000000000000000000000002D2D2D2D2D2D0000000000000000000000000000000000000000000000002D000000000000000000000000000000000000000000000000000000
310
00000000000000000000000000000000000000000000000000000000000000000000000000000000000000000000000000000000000000000000000000000000000000000000000000000000000000000000000000000000000000000000000000000000000000000000000000000000000000000000000000000000000000
310
000000000000002D2D2D2D2D0000F500F5F5F5F5F5F5F5F5F5F5F5F5000000000000000000000000000000000000000000000000000000000000000000000000000000000000002D2D2D2D2D2D0000000000000000000000000000000000000000000000002D00000000000000000000000000000000000000000000000000
310
00000000000000000000000000000000000000000000000000000000000000000000000000000000000000000000000000000000000000000000000000000000000000000000000000000000000000000000000000000000000000000000000000000000000000000000000000000000000000000000000000000000000000
310
0000000000000000002D2DF52D2D0000F5000000000000000000000000000000000000000000000000000000000000000000F5F5F5F5F5F50000000000000000000000000000000000002D002D002D0000000000000000000000000000000000000000000000002D0000000000000000000000000000000000000000000000
310
00000000000000000000000000000000000000000000000000000000000000000000000000000000000000000000000000000000000000000000000000000000000000000000000000000000000000000000000000000000000000000000000000000000000000000000000000000000000000000000000000000000000000
310
00000000000000002D2D2D2D2D2D2D2D2D2D2D00000000000000000000000000000000000000000000000000000000000000000000F5F5F5F500F50000000000000000000000000000002D2D2D2D2D2D2D2D2D000000000000000000000000000000000000000000002D000000000000000000000000000000000000000000
310
00000000000000000000000000000000000000000000000000000000000000000000000000000000000000000000000000000000000000000000000000000000000000000000000000000000000000000000000000000000000000000000000000000000000000000000000000000000000000000000000000000000000000
310
00000000000000000000282D2D2D2D2D2D2D2D2D2828000000000000000000000000000000000000000000000000000000000000000000000000000000F500000000000000000000000000002D280000F50028002D000000000000000000000000000000000000000000002D00000000000000000000000000000000000000
310
000000000000000000000000000000000000000000000000000000000000000000000000000000000000000000000000000000000000000000000000000000000000000000000000000000000000000000000000000000000000000000000000000000000000000000000000000000000000000000000000000000F5F5F5F5
310
F5F5F5F5F5F5F5F5F5F5F5F52800000000F5000000002D28000000000000000000000000000000000000000000000000000000000000000000000000000000F5000000000000000000000000000028282800F52800282D000000000000000000000000000000000000000000002D0000000000000000000000000000000000
310
0000000000000000000000000000000000000000000000000000000000000000000000000000000000000000000000000000000000000000000000000000000000000000000000000000000000000000000000000000000000000000000000000000000000000000000000000000000000000000000000000000000000F5F5
310
F5F5F5F5F5F5F5F5F5F5F5F5F5F528002D2D2D2D2D2D2D2D2D2800000000000000000000000000000000000000000000000000002828282828282828282828282828F5282828282828282828282828282D002800F52800282D282828282828282828282828282DF5282800000000002D000000000000000000000000000000
310
00000000000000000000000000000000000000000000000000000000000000000000000000000000000000000000000000000000000000000000000000000000000000000000000000000000000000000000000000000000000000000000000000000000000000000000000000000000000000000000000000000000000000
310
00F5F5F5F5F5F5F5F5F5F5F5F5F5F5F5282D2D0000F50000002D2D280000000000000000000000000000000000000000000000000000000000000000000000000000000000000000000000000000000000002D002800F52800282D00000000000000000000000000002D000000000000002D00000000000000000000000000
310
00000000000000000000000000000000000000000000000000000000000000000000000000000000000000000000000000000000000000000000000000000000000000000000000000000000000000000000000000000000000000000000000000000000000000000000000000000000000000000000000000000000000000
310
000000000000000000000000000000000000282D2D0000F50000002D2D280000000000000000000000000000000000000000000000000000000000000000000000000000000000000000000000000000000000002D002800F52800282D00000000000000000000000000002D000000000000002D0000000000000000000000
310
00000000000000000000000000000000000000000000000000000000000000000000000000000000000000000000000000000000000000000000000000000000000000000000000000000000000000000000000000000000000000000000000000000000000000000000000000000000000000000000000000000000000000
310
0000000000000000000000000000000000000000282D2D0000F50000002D2D280000000000000000000000000000000000000000000000000000000000000000000000000000000000000000000000000000000000002D002800F52800282D00000000000000000000000028282D000000000000002D000000000000000000
310
00000000000000000000000000000000000000000000000000000000000000000000000000000000000000000000000000000000000000000000000000000000000000000000000000000000000000000000000000000000000000000000000000000000000000000000000000000000000000000000000000000000000000
310
00000000000000000000000000000000000000000000282D2D0000F50000002D2D280000000000000000000000000000000000000000000000000000000000000000000000000000000000000000000000000000000000002D002800F52800282D00000000000000000000000028282D000000000000002D00000000000000
310
00000000000000000000000000000000000000000000000000000000000000000000000000000000000000000000000000000000000000000000000000000000000000000000000000000000000000000000000000000000000000000000000000000000000000000000000000000000000000000000000000000000000000
310
0000000000000000000000F5F5F5F5F5F500000000000000282D2D0000F50000002D2D280000000000000000000000000000000000000000000000000000000000000000000000000000000000000000000000000000000000002D002800F52800282D00000000000000000000000028282D000000000000002D0000000000
310
00000000000000000000000000000000000000000000000000000000000000000000000000000000000000000000000000000000000000000000000000000000000000000000000000000000000000000000000000000000000000000000000000000000000000000000000000000000000000000000000000000000000000
310
0000000000000000000000000000F5F5F5F500F5000000000000282D2D0000F50000002D2D280000000000000000000000000000000000000000000000000000000000000000000000000000000000000000000000000000000000002D002800F52800282D00000000000000000000000000002D000000000000002D000000
310
00000000000000000000000000000000000000000000000000000000000000000000000000000000000000000000000000000000000000000000000000000000000000000000000000000000000000000000000000000000000000000000000000000000000000000000000000000000000000000000000000000000000000
310
000000000000000000000000000000000000000000F5000000000000282D2D2D2DF52D2D2D2D2D280000000000000000000000000000000000000000000000000000282828282828282828282828282828282828282828282828282828282D002800F52800282D28282828282828282828282828282D282800000000002D00
310
00000000000000000000000000000000000000000000000000000000000000000000000000000000000000000000000000000000000000000000000000000000000000000000000000000000000000000000000000000000000000000000000000000000000000000000000000000000000000000000000000000000000000
310
00000000000000000000002D2D2D2D2D2D2D2D2D2D2D2D2DF52D2D2D2D2D2D2D2D2D2D2D2D2D2D2D2D282D2D2D2D2D2D2D2D2D2D2D2D2D2DF52D2D2D00000000000000002D2D2D2D2D2D2D2D2D2D2D2D2D2D2D2D2D2D2D2D2D2D2D2D2D2D2D2D2D002828282800282D2D2D2D2D2D2D2D2D2D2D2D2D2D2DF52D2D0000000000
310
2D000000000000000000000000000000000000000000000000000000000000000000000000000000000000000000000000000000000000000000000000000000000000000000000000000000000000000000000000000000000000000000000000000000000000000000000000000000000000000000000000000000000000
310
00000000000000000000000000000000000000000000000000000000000000282828282828282828282D2D28282800000000000000000000000028000000000000000000000000002D2D2D2D000000002D2D2D2D00000000000000000000000000002D002828282800282D0000000000000000000000000000000000000000
310
00002D00000000000000000000000000000000000000000000000000000000000000000000000000000000000000000000000000000000000000000000000000000000000000000000000000000000000000000000000000000000000000000000000000000000000000000000000000000000000000000000000000000000
310
00000000000000000000000000000000000000000000000000000000000000000028282828282828282828282D2828280000000000000000000000282800000000000000000000000000000000F5000000002D2D000000000000000000000000000000002D28282D2D2828282D000000000000000000000000000000000000
310
000000002D0000000000000000000000000000000000000000000000000000000000000000000000000000000000000000000000000000000000000000000000000000000000000000000000000000000000000000000000000000000000000000000000000000000000000000000000000000000000000000000000000000
310
0000000000000000000000000000000000000000000000000000000000000000000000002D00000000F5000000002D000000000000000000000000000028280000000000000000000000F5F5F5F5F52D000000002D2D000000000000000000000000000000002D2D2D2D2D2D2D2D0000000000000000000000000000000000
310
0000000000002D000000000000000000000000000000000000000000000000000000000000000000000000000000000000000000000000000000000000000000000000000000000000000000000000000000000000000000000000000000000000000000000000000000000000000000000000000000000000000000000000
310
00000000000000000000000000000000000000000000000000000000000000000000000000000000000000F500000000000000000000000000000000000000002D000000000000000000000000F5F5F5F52D2D2D2D2D2D2D0000000000000000000000000000000000000000F5000000000000000000000000000000000000
310
00000000000000002D00000000000000000000000000000000000000000000000000000000000000000000000000000000000000000000000000000000000000000000000000000000000000000000000000000000000000000000000000000000000000000000000000000000000000000000000000000000000000000000
310
000000000000000000000000000000000000000000282828282828282828282828282828282828282828282828282828282828282828282828282828282828282828F528282800000000000000002D2D2D2D2D2D2D2D2D2D2D2D2D2D2D2D2D2D2D2D2D2D2D2D2D2D2D2D2D2D2D2D2D2D2D2D2D2D2D2D2D2D2D2D2D2D2D2D2D
310
2D2D2D2DF52D2D2D2D2DF52D00000000000000000000000000000000000000000000000000000000000000000000000000000000000000000000000000000000000000000000000000000000000000000000000000000000000000000000000000000000000000000000000000000000000000000000000000000000000000
310
00000000000000000000000000000000000000000000002828282828282828282828282828282828282828282828F52828282828282828282828282828282828282828282828282800000000000000002828282828282828282828282828282828282828282828282828282828282828282828282828282828282828282828
310
28282828282828000000000000000000000000000000000000000000000000000000000000000000000000000000000000000000000000000000000000000000000000000000000000000000000000000000000000000000000000000000000000000000000000000000000000000000000000000000000000000000000000
310
000000000000000000000000000000000000000000000000002D2D2D282D2D2D2D2D2D2D2D2D2D2D2D2D282D2D2D2D2D2DF52D2D2D2D2D2D282D2D2D2D2D2D2D2D2D2D2D2D2D2D282D2D00000000000000002D2D2D2D2D2D2D2D2D2D2D2D2D2D2D2D2D2D2D2D2D2D2D2D2D2D2D2D2D2D2D2D2D2D2D2D2D2D2D2D2D2D2D2D2D
310
2D2D2D2D2D2D2D2D2D00000000000000000000000000000000000000000000000000000000000000000000000000000000000000000000000000000000000000000000000000000000000000000000000000000000000000000000000000000000000000000000000000000000000000000000000000000000000000000000
310
000000000000000000000000000000000000000000000000000000002828280000000000000000000000002828000000000000F5000000000028280000000000000000000000002828280000000000000000000000000000000000000000000000000000000000000000000000000000000000000000000000000000000000
310
00000000000000000000000000000000000000000000000000000000000000000000000000000000000000000000000000000000000000000000000000000000000000000000000000000000000000000000000000000000000000000000000000000000000000000000000000000000000000000000000000000000000000
310
000000000000000000000000000000000000000000000000000000000000282828000000000000000000000000282800000000000000F5000000002828000000000000000000000000282828000000000000000000000000000000000000000000000000000000000000000000000000000000000000000000000000000000
310
00000000000000000000000000000000000000000000000000000000000000000000000000000000000000000000000000000000000000000000000000000000000000000000000000000000000000000000000000000000000000000000000000000000000000000000000000000000000000000000000000000000000000
310
000000000000000000000000000000000000000000000000000000000000002D2D2D282D2D2D2D2D2D2D2D2D2D2D2D2D282D2D2DF52D2D2D2DF52D2D2D2D282D2D2D2D2D2D2D2D2D2D2D2D2D2D282D2D00000000000000002D2D2D2D2D2D2D2D2D2D2D2D2D2D2D2D2D2D2D2D2D2D2D2D2D2D2D2D2D2D2D2D2D2D2D2D2D2D2D
310
2D2D2D2D2D2D2D2D2D2D2D2D2D2D2D00000000000000000000000000000000000000000000000000000000000000000000000000000000000000000000000000000000000000000000000000000000000000000000000000000000000000000000000000000000000000000000000000000000000000000000000000000000
310
00000000000000000000000000000000000000000000000000000000000000000000000000000000000000000000000000000000000000F5000000F500000000000000000000000000000000000000000000000000000000000000000000000000000000000000000000000000000000000000000000000000000000000000
310
00000000000000000000000000000000000000000000000000000000000000000000000000000000000000000000000000000000000000000000000000000000000000000000000000000000000000000000000000000000000000000000000000000000000000000000000000000000000000000000000000000000000000
310
000000000000000000000000000000000000000000000000000000000000000000000000000000000000000000000000000000000000000000F500000000F5F5F5F5F5F5F5F5000000000000000000000000000000000000000000000000000000000000000000000000000000000000000000000000000000000000000000
310
00000000000000000000000000000000000000000000000000000000000000000000000000000000000000000000000000000000000000000000000000000000000000000000000000000000000000000000000000000000000000000000000000000000000000000000000000000000000000000000000000000000000000
310
000000000000000000000000000000000000000000000000000000000000000000000000000000000000000000000000000000000000000000000000F500000000F5F5F5F5F5000000000000000000000000000000000000000000000000000000000000000000000000000000000000000000000000000000000000000000
310
00000000000000000000000000000000000000000000000000000000000000000000000000000000000000000000000000000000000000000000000000000000000000000000000000000000000000000000000000000000000000000000000000000000000000000000000000000000000000000000000000000000000000
310
0000000000000000000000000000000000000000000000000000000000000000000000000000000000000000000000000000000000000000000000000000F500000000F5F5F5F5F500000000000000000000000000000000000000000000000000000000000000000000000000000000000000000000000000000000000000
310
00000000000000000000000000000000000000000000000000000000000000000000000000000000000000000000000000000000000000000000000000000000000000000000000000000000000000000000000000000000000000000000000000000000000000000000000000000000000000000000000000000000000000
310
0000000000000000000000000000000000000000000000000000000000000000000000000000000000000000000000000000000000000000000000000000000000F5F5F5F5F5F5F5F5F5F5F5F5F500000000000000000000000000000000000000000000000000000000000000000000000000000000000000000000000000
310
00000000000000000000000000000000000000000000000000000000000000000000000000000000000000000000000000000000000000000000000000000000000000000000000000000000000000000000000000000000000000000000000000000000000000000000000000000000000000000000000000000000000000
310
0000000000000000000000000000000000000000000000000000000000000000000000000000000000000000000000000000000000000000000000000000000000000000F5F5F5F5F5F5F5F5F5F500000000000000000000000000000000000000000000000000000000000000000000000000000000000000000000000000
310
00000000000000000000000000000000000000000000000000000000000000000000000000000000000000000000000000000000000000000000000000000000000000000000000000000000000000000000000000000000000000000000000000000000000000000000000000000000000000000000000000000000000000
310
00000000000000000000000000000000000000000000000000000000000000000000000000000000000000000000000000000000000000000000000000000000000000000000000000000000000000000000000000000000000000000000000000000000000000000000000000000000000000000000000000000000000000
310
00000000000000000000000000000000000000000000000000000000000000000000000000000000000000000000000000000000000000000000000000000000000000000000000000000000000000000000000000000000000000000000000000000000000000000000000000000000000000000000000000000000000000
310
00000000000000000000000000000000000000000000000000000000000000000000000000000000000000000000000000000000000000000000000000000000000000000000000000000000000000000000000000000000000000000000000000000000000000000000000000000000000000000000000000000000000000
310
00000000000000000000000000000000000000000000000000000000000000000000000000000000000000000000000000000000000000000000000000000000000000000000000000000000000000000000000000000000000000000000000000000000000000000000000000000000000000000000000000000000000000
310
00000000000000000000000000000000000000000000000000000000000000000000000000000000000000000000000000000000000000000000000000000000000000000000000000000000000000000000000000000000000000000000000000000000000000000000000000000000000000000000000000000000000000
310
00000000000000000000000000000000000000000000000000000000000000000000000000000000000000000000000000000000000000000000000000000000000000000000000000000000000000000000000000000000000000000000000000000000000000000000000000000000000000000000000000000000000000
310
00000000000000000000000000000000000000000000000000000000000000000000000000000000000000000000000000000000000000000000000000000000000000000000000000000000000000000000000000000000000000000000000000000000000000000000000000000000000000000000000000000000000000
310
00000000000000000000000000000000000000000000000000000000000000000000000000000000000000000000000000000000000000000000000000000000000000000000000000000000000000000000000000000000000000000000000000000000000000000000000000000000000000000000000000000000000000
310
00000000000000000000000000000000000000000000000000000000000000000000000000000000000000000000000000000000000000000000000000000000000000000000000000000000000000000000000000000000000000000000000000000000000000000000000000000000000000000000000000000000000000
310
00000000000000000000000000000000000000000000000000000000000000000000000000000000000000000000000000000000000000000000000000000000000000000000000000000000000000000000000000000000000000000000000000000000000000000000000000000000000000000000000000000000000000
310
00000000000000000000000000000000000000000000000000000000000000000000000000000000000000000000000000000000000000000000000000000000000000000000000000000000000000000000000000000000000000000000000000000000000000000000000000000000000000000000000000000000000000
310
00000000000000000000000000000000000000000000000000000000000000000000000000000000000000000000000000000000000000000000000000000000000000000000000000000000000000000000000000000000000000000000000000000000000000000000000000000000000000000000000000000000000000
310
00000000000000000000000000000000000000000000000000000000000000000000000000000000000000000000000000000000000000000000000000000000000000000000000000000000000000000000000000000000000000000000000000000000000000000000000000000000000000000000000000000000000000
310
00000000000000000000000000000000000000000000000000000000000000000000000000000000000000000000000000000000000000000000000000000000000000000000000000000000000000000000000000000000000000000000000000000000000000000000000000000000000000000000000000000000000000
310
00000000000000000000000000000000000000000000000000000000000000000000000000000000000000000000000000000000000000000000000028282828002828000000282800002828282828002828282828282800282828282828282828282800280028282828282828282800280028280000000000000000000000
310
00000000000000000000000000000000000000000000000000000000000000000000000000000000000000000000000000000000000000000000000000000000000000000000000000000000000000000000000000000000000000000000000000000000000000000000000000000000000000000000000000000000000000
310
00000000000000000000000000000000000000000000000000000000000000000000000000000000000000000000000000000000000000000000000000002828282800282828280028282828002828282800282828282828280028282828282828282828280028282828282828282800280028282828000000000000000000
310
00000000000000000000000000000000000000000000000000000000000000000000000000000000000000000000000000000000000000000000000000000000000000000000000000000000000000000000000000000000000000000000000000000000000000000000000000000000000000000000000000000000000000
310
00000000000000000000000000000000000000000000000000000000000000000000000000000000000000000000000000000000000000000000000000000000000000000000000000000000000000000000000000000000000028000000280000282828000000000000280000280000000000000028000000000000000000
310
000000000000000000000000000000000000000000000000000000000000000000000000000000000000000000000000000000000000000000000000000000000000000000000000000000000000000000000000000000000000000000000000000000000000000000000000000000000000000000000000000000
  0
XRECORD
  5
81AF
102
{ACAD_REACTORS
330
61CA
102
}
330
61CA
100
AcDbXrecord
280
     1
102
MATERIAL
148
0.0
149
0.0
149
0.0
 93
        0
 94
      127
282
     0
 72
     0
 77
     0
171
     0
175
     0
179
     0
273
     0
  0
XRECORD
  5
61CC
102
{ACAD_REACTORS
330
61CA
102
}
330
61CA
100
AcDbXrecord
280
     1
270
     1
271
     1
  0
XRECORD
  5
61CB
102
{ACAD_REACTORS
330
61CA
102
}
330
61CA
100
AcDbXrecord
280
     1
270
     1
271
     1
  0
XRECORD
  5
61CF
102
{ACAD_REACTORS
330
61CA
102
}
330
61CA
100
AcDbXrecord
280
     1
270
     1
271
     1
  0
XRECORD
  5
61CE
102
{ACAD_REACTORS
330
61CA
102
}
330
61CA
100
AcDbXrecord
280
     1
270
     1
271
     1
  0
XRECORD
  5
61D0
102
{ACAD_REACTORS
330
61CA
102
}
330
61CA
100
AcDbXrecord
280
     1
270
     1
271
     1
  0
XRECORD
  5
61CD
102
{ACAD_REACTORS
330
61CA
102
}
330
61CA
100
AcDbXrecord
280
     1
270
     1
271
     1
  0
XRECORD
  5
81AE
102
{ACAD_REACTORS
330
61C2
102
}
330
61C2
100
AcDbXrecord
280
     1
102
MATERIAL
148
0.0
149
0.0
149
0.0
 93
        0
 94
      127
282
     0
 72
     0
 77
     0
171
     0
175
     0
179
     0
273
     0
  0
XRECORD
  5
61C4
102
{ACAD_REACTORS
330
61C2
102
}
330
61C2
100
AcDbXrecord
280
     1
270
     1
271
     1
  0
XRECORD
  5
61C3
102
{ACAD_REACTORS
330
61C2
102
}
330
61C2
100
AcDbXrecord
280
     1
270
     1
271
     1
  0
XRECORD
  5
61C7
102
{ACAD_REACTORS
330
61C2
102
}
330
61C2
100
AcDbXrecord
280
     1
270
     1
271
     1
  0
XRECORD
  5
61C6
102
{ACAD_REACTORS
330
61C2
102
}
330
61C2
100
AcDbXrecord
280
     1
270
     1
271
     1
  0
XRECORD
  5
61C8
102
{ACAD_REACTORS
330
61C2
102
}
330
61C2
100
AcDbXrecord
280
     1
270
     1
271
     1
  0
XRECORD
  5
61C5
102
{ACAD_REACTORS
330
61C2
102
}
330
61C2
100
AcDbXrecord
280
     1
270
     1
271
     1
  0
XRECORD
  5
81B0
102
{ACAD_REACTORS
330
61D2
102
}
330
61D2
100
AcDbXrecord
280
     1
102
MATERIAL
148
0.0
149
0.0
149
0.0
 93
        0
 94
      127
282
     0
 72
     0
 77
     0
171
     0
175
     0
179
     0
273
     0
  0
XRECORD
  5
61D4
102
{ACAD_REACTORS
330
61D2
102
}
330
61D2
100
AcDbXrecord
280
     1
270
     1
271
     1
  0
XRECORD
  5
61D3
102
{ACAD_REACTORS
330
61D2
102
}
330
61D2
100
AcDbXrecord
280
     1
270
     1
271
     1
  0
XRECORD
  5
61D7
102
{ACAD_REACTORS
330
61D2
102
}
330
61D2
100
AcDbXrecord
280
     1
270
     1
271
     1
  0
XRECORD
  5
61D6
102
{ACAD_REACTORS
330
61D2
102
}
330
61D2
100
AcDbXrecord
280
     1
270
     1
271
     1
  0
XRECORD
  5
61D8
102
{ACAD_REACTORS
330
61D2
102
}
330
61D2
100
AcDbXrecord
280
     1
270
     1
271
     1
  0
XRECORD
  5
61D5
102
{ACAD_REACTORS
330
61D2
102
}
330
61D2
100
AcDbXrecord
280
     1
270
     1
271
     1
  0
XRECORD
  5
81AC
102
{ACAD_REACTORS
330
81AB
102
}
330
81AB
100
AcDbXrecord
280
     1
102
ACAD_ROUNDTRIP_2012_MLEADER_STYLE
298
     1
  0
CELLSTYLEMAP
  5
81AA
102
{ACAD_REACTORS
330
7BA1
102
}
330
7BA1
100
AcDbCellStyleMap
 90
        3
300
CELLSTYLE
  1
TABLEFORMAT_BEGIN
 90
        5
170
     1
 91
        0
 92
    32768
 62
   257
 93
        1
300
CONTENTFORMAT
  1
CONTENTFORMAT_BEGIN
 90
        0
 91
        0
 92
      512
 93
        0
300

 40
0.0
140
1.0
 94
        5
 62
     0
340
11
144
0.25
309
CONTENTFORMAT_END
171
     0
 94
        0
309
TABLEFORMAT_END
  1
CELLSTYLE_BEGIN
 90
        1
 91
        1
300
_TITLE
309
CELLSTYLE_END
300
CELLSTYLE
  1
TABLEFORMAT_BEGIN
 90
        5
170
     1
 91
        0
 92
        0
 62
   257
 93
        1
300
CONTENTFORMAT
  1
CONTENTFORMAT_BEGIN
 90
        0
 91
        0
 92
      512
 93
        0
300

 40
0.0
140
1.0
 94
        5
 62
     0
340
11
144
0.18
309
CONTENTFORMAT_END
171
     0
 94
        0
309
TABLEFORMAT_END
  1
CELLSTYLE_BEGIN
 90
        2
 91
        1
300
_HEADER
309
CELLSTYLE_END
300
CELLSTYLE
  1
TABLEFORMAT_BEGIN
 90
        5
170
     1
 91
        0
 92
        0
 62
   257
 93
        1
300
CONTENTFORMAT
  1
CONTENTFORMAT_BEGIN
 90
        0
 91
        0
 92
      512
 93
        0
300

 40
0.0
140
1.0
 94
        2
 62
     0
340
11
144
0.18
309
CONTENTFORMAT_END
171
     0
 94
        0
309
TABLEFORMAT_END
  1
CELLSTYLE_BEGIN
 90
        3
 91
        2
300
_DATA
309
CELLSTYLE_END
  0
XRECORD
  5
81E1
102
{ACAD_REACTORS
330
7BA1
102
}
330
7BA1
100
AcDbXrecord
280
     1
102
ACAD_ROUNDTRIP_PRE2007_TABLESTYLE
 90
      512
 91
        0
  1

 92
      512
 93
        0
  2

 94
      512
 95
        0
  3

  0
XRECORD
  5
81BC
102
{ACAD_REACTORS
330
81BB
102
}
330
81BB
100
AcDbXrecord
280
     1
102
RTVSPropertyOp0
 70
     1
102
RTVSPropertyOp1
 70
     1
102
RTVSPropertyOp2
 70
     1
102
RTVSPropertyOp3
 70
     1
102
RTVSPropertyOp4
 70
     1
102
RTVSPropertyOp5
 70
     1
102
RTVSPropertyOp6
 70
     1
102
RTVSPropertyOp7
 70
     1
102
RTVSPropertyOp8
 70
     1
102
RTVSPropertyOp9
 70
     1
102
RTVSPropertyOp10
 70
     1
102
RTVSPropertyOp11
 70
     1
102
RTVSPropertyOp12
 70
     1
102
RTVSPropertyOp13
 70
     1
102
RTVSPropertyOp14
 70
     1
102
RTVSPropertyOp15
 70
     1
102
RTVSPropertyOp16
 70
     1
102
RTVSPropertyOp17
 70
     1
102
RTVSPropertyOp18
 70
     1
102
RTVSPropertyOp19
 70
     1
102
RTVSPropertyOp20
 70
     1
102
RTVSPropertyOp21
 70
     1
102
RTVSPropertyOp22
 70
     1
102
RTVSPropertyOp23
 70
     1
102
RTVSPropertyOp24
 70
     1
102
RTVSPropertyOp25
 70
     1
102
RTVSPropertyOp26
 70
     1
102
RTVSPropertyOp27
 70
     1
102
RTVSPropertyOp28
 70
     1
102
RTVSPropertyOp29
 70
     1
102
RTVSPropertyOp30
 70
     1
102
RTVSPropertyOp31
 70
     1
102
RTVSPropertyOp32
 70
     1
  0
XRECORD
  5
81E3
102
{ACAD_REACTORS
330
81E2
102
}
330
81E2
100
AcDbXrecord
280
     1
102
RTVSPropertyOp0
 70
     1
102
RTVSPropertyOp1
 70
     1
102
RTVSPropertyOp2
 70
     1
102
RTVSPropertyOp3
 70
     1
102
RTVSPropertyOp4
 70
     1
102
RTVSPropertyOp5
 70
     1
102
RTVSPropertyOp6
 70
     1
102
RTVSPropertyOp7
 70
     1
102
RTVSPropertyOp8
 70
     1
102
RTVSPropertyOp9
 70
     1
102
RTVSPropertyOp10
 70
     1
102
RTVSPropertyOp11
 70
     1
102
RTVSPropertyOp12
 70
     1
102
RTVSPropertyOp13
 70
     1
102
RTVSPropertyOp14
 70
     1
102
RTVSPropertyOp15
 70
     1
102
RTVSPropertyOp16
 70
     1
102
RTVSPropertyOp17
 70
     1
102
RTVSPropertyOp18
 70
     1
102
RTVSPropertyOp19
 70
     1
102
RTVSPropertyOp20
 70
     1
102
RTVSPropertyOp21
 70
     1
102
RTVSPropertyOp22
 70
     1
102
RTVSPropertyOp23
 70
     1
102
RTVSPropertyOp24
 70
     1
102
RTVSPropertyOp25
 70
     1
102
RTVSPropertyOp26
 70
     1
102
RTVSPropertyOp27
 70
     1
102
RTVSPropertyOp28
 70
     1
102
RTVSPropertyOp29
 70
     1
102
RTVSPropertyOp30
 70
     1
102
RTVSPropertyOp31
 70
     1
102
RTVSPropertyOp32
 70
     1
  0
XRECORD
  5
81BA
102
{ACAD_REACTORS
330
81B9
102
}
330
81B9
100
AcDbXrecord
280
     1
102
RTVSPropertyOp0
 70
     1
102
RTVSPropertyOp1
 70
     1
102
RTVSPropertyOp2
 70
     1
102
RTVSPropertyOp3
 70
     1
102
RTVSPropertyOp4
 70
     1
102
RTVSPropertyOp5
 70
     1
102
RTVSPropertyOp6
 70
     1
102
RTVSPropertyOp7
 70
     1
102
RTVSPropertyOp8
 70
     1
102
RTVSPropertyOp9
 70
     1
102
RTVSPropertyOp10
 70
     1
102
RTVSPropertyOp11
 70
     1
102
RTVSPropertyOp12
 70
     1
102
RTVSPropertyOp13
 70
     1
102
RTVSPropertyOp14
 70
     1
102
RTVSPropertyOp15
 70
     1
102
RTVSPropertyOp16
 70
     1
102
RTVSPropertyOp17
 70
     1
102
RTVSPropertyOp18
 70
     1
102
RTVSPropertyOp19
 70
     1
102
RTVSPropertyOp20
 70
     1
102
RTVSPropertyOp21
 70
     1
102
RTVSPropertyOp22
 70
     1
102
RTVSPropertyOp23
 70
     1
102
RTVSPropertyOp24
 70
     1
102
RTVSPropertyOp25
 70
     1
102
RTVSPropertyOp26
 70
     1
102
RTVSPropertyOp27
 70
     1
102
RTVSPropertyOp28
 70
     1
102
RTVSPropertyOp29
 70
     1
102
RTVSPropertyOp30
 70
     1
102
RTVSPropertyOp31
 70
     1
102
RTVSPropertyOp32
 70
     1
  0
XRECORD
  5
81C8
102
{ACAD_REACTORS
330
81C7
102
}
330
81C7
100
AcDbXrecord
280
     1
102
RTVSPropertyOp0
 70
     1
102
RTVSPropertyOp1
 70
     1
102
RTVSPropertyOp2
 70
     1
102
RTVSPropertyOp3
 70
     1
102
RTVSPropertyOp4
 70
     1
102
RTVSPropertyOp5
 70
     1
102
RTVSPropertyOp6
 70
     1
102
RTVSPropertyOp7
 70
     1
102
RTVSPropertyOp8
 70
     1
102
RTVSPropertyOp9
 70
     1
102
RTVSPropertyOp10
 70
     1
102
RTVSPropertyOp11
 70
     1
102
RTVSPropertyOp12
 70
     1
102
RTVSPropertyOp13
 70
     1
102
RTVSPropertyOp14
 70
     1
102
RTVSPropertyOp15
 70
     1
102
RTVSPropertyOp16
 70
     1
102
RTVSPropertyOp17
 70
     1
102
RTVSPropertyOp18
 70
     1
102
RTVSPropertyOp19
 70
     1
102
RTVSPropertyOp20
 70
     1
102
RTVSPropertyOp21
 70
     1
102
RTVSPropertyOp22
 70
     1
102
RTVSPropertyOp23
 70
     1
102
RTVSPropertyOp24
 70
     1
102
RTVSPropertyOp25
 70
     1
102
RTVSPropertyOp26
 70
     1
102
RTVSPropertyOp27
 70
     1
102
RTVSPropertyOp28
 70
     1
102
RTVSPropertyOp29
 70
     1
102
RTVSPropertyOp30
 70
     1
102
RTVSPropertyOp31
 70
     1
102
RTVSPropertyOp32
 70
     1
  0
XRECORD
  5
81D0
102
{ACAD_REACTORS
330
81CF
102
}
330
81CF
100
AcDbXrecord
280
     1
102
RTVSPropertyOp0
 70
     1
102
RTVSPropertyOp1
 70
     1
102
RTVSPropertyOp2
 70
     1
102
RTVSPropertyOp3
 70
     1
102
RTVSPropertyOp4
 70
     1
102
RTVSPropertyOp5
 70
     1
102
RTVSPropertyOp6
 70
     1
102
RTVSPropertyOp7
 70
     1
102
RTVSPropertyOp8
 70
     1
102
RTVSPropertyOp9
 70
     1
102
RTVSPropertyOp10
 70
     1
102
RTVSPropertyOp11
 70
     1
102
RTVSPropertyOp12
 70
     1
102
RTVSPropertyOp13
 70
     1
102
RTVSPropertyOp14
 70
     1
102
RTVSPropertyOp15
 70
     1
102
RTVSPropertyOp16
 70
     1
102
RTVSPropertyOp17
 70
     1
102
RTVSPropertyOp18
 70
     1
102
RTVSPropertyOp19
 70
     1
102
RTVSPropertyOp20
 70
     1
102
RTVSPropertyOp21
 70
     1
102
RTVSPropertyOp22
 70
     1
102
RTVSPropertyOp23
 70
     1
102
RTVSPropertyOp24
 70
     1
102
RTVSPropertyOp25
 70
     1
102
RTVSPropertyOp26
 70
     1
102
RTVSPropertyOp27
 70
     1
102
RTVSPropertyOp28
 70
     1
102
RTVSPropertyOp29
 70
     1
102
RTVSPropertyOp30
 70
     1
102
RTVSPropertyOp31
 70
     1
102
RTVSPropertyOp32
 70
     1
  0
XRECORD
  5
81C2
102
{ACAD_REACTORS
330
81C1
102
}
330
81C1
100
AcDbXrecord
280
     1
102
RTVSPropertyOp0
 70
     1
102
RTVSPropertyOp1
 70
     1
102
RTVSPropertyOp2
 70
     1
102
RTVSPropertyOp3
 70
     1
102
RTVSPropertyOp4
 70
     1
102
RTVSPropertyOp5
 70
     1
102
RTVSPropertyOp6
 70
     1
102
RTVSPropertyOp7
 70
     1
102
RTVSPropertyOp8
 70
     1
102
RTVSPropertyOp9
 70
     1
102
RTVSPropertyOp10
 70
     1
102
RTVSPropertyOp11
 70
     1
102
RTVSPropertyOp12
 70
     1
102
RTVSPropertyOp13
 70
     1
102
RTVSPropertyOp14
 70
     1
102
RTVSPropertyOp15
 70
     1
102
RTVSPropertyOp16
 70
     1
102
RTVSPropertyOp17
 70
     1
102
RTVSPropertyOp18
 70
     1
102
RTVSPropertyOp19
 70
     1
102
RTVSPropertyOp20
 70
     1
102
RTVSPropertyOp21
 70
     1
102
RTVSPropertyOp22
 70
     1
102
RTVSPropertyOp23
 70
     1
102
RTVSPropertyOp24
 70
     1
102
RTVSPropertyOp25
 70
     1
102
RTVSPropertyOp26
 70
     1
102
RTVSPropertyOp27
 70
     1
102
RTVSPropertyOp28
 70
     1
102
RTVSPropertyOp29
 70
     1
102
RTVSPropertyOp30
 70
     1
102
RTVSPropertyOp31
 70
     1
102
RTVSPropertyOp32
 70
     1
  0
XRECORD
  5
81C6
102
{ACAD_REACTORS
330
81C5
102
}
330
81C5
100
AcDbXrecord
280
     1
102
RTVSPropertyOp0
 70
     1
102
RTVSPropertyOp1
 70
     1
102
RTVSPropertyOp2
 70
     1
102
RTVSPropertyOp3
 70
     1
102
RTVSPropertyOp4
 70
     1
102
RTVSPropertyOp5
 70
     1
102
RTVSPropertyOp6
 70
     1
102
RTVSPropertyOp7
 70
     1
102
RTVSPropertyOp8
 70
     1
102
RTVSPropertyOp9
 70
     1
102
RTVSPropertyOp10
 70
     1
102
RTVSPropertyOp11
 70
     1
102
RTVSPropertyOp12
 70
     1
102
RTVSPropertyOp13
 70
     1
102
RTVSPropertyOp14
 70
     1
102
RTVSPropertyOp15
 70
     1
102
RTVSPropertyOp16
 70
     1
102
RTVSPropertyOp17
 70
     1
102
RTVSPropertyOp18
 70
     1
102
RTVSPropertyOp19
 70
     1
102
RTVSPropertyOp20
 70
     1
102
RTVSPropertyOp21
 70
     1
102
RTVSPropertyOp22
 70
     1
102
RTVSPropertyOp23
 70
     1
102
RTVSPropertyOp24
 70
     1
102
RTVSPropertyOp25
 70
     1
102
RTVSPropertyOp26
 70
     1
102
RTVSPropertyOp27
 70
     1
102
RTVSPropertyOp28
 70
     1
102
RTVSPropertyOp29
 70
     1
102
RTVSPropertyOp30
 70
     1
102
RTVSPropertyOp31
 70
     1
102
RTVSPropertyOp32
 70
     1
  0
XRECORD
  5
81E0
102
{ACAD_REACTORS
330
81DF
102
}
330
81DF
100
AcDbXrecord
280
     1
102
RTVSPropertyOp0
 70
     0
102
RTVSPropertyOp1
 70
     0
102
RTVSPropertyOp2
 70
     0
102
RTVSPropertyOp3
 70
     0
102
RTVSPropertyOp4
 70
     0
102
RTVSPropertyOp5
 70
     0
102
RTVSPropertyOp6
 70
     0
102
RTVSPropertyOp7
 70
     0
102
RTVSPropertyOp8
 70
     0
102
RTVSPropertyOp9
 70
     0
102
RTVSPropertyOp10
 70
     0
102
RTVSPropertyOp11
 70
     0
102
RTVSPropertyOp12
 70
     0
102
RTVSPropertyOp13
 70
     0
102
RTVSPropertyOp14
 70
     2
102
RTVSPropertyOp15
 70
     0
102
RTVSPropertyOp16
 70
     0
102
RTVSPropertyOp17
 70
     0
102
RTVSPropertyOp18
 70
     0
102
RTVSPropertyOp19
 70
     0
102
RTVSPropertyOp20
 70
     0
102
RTVSPropertyOp21
 70
     0
102
RTVSPropertyOp22
 70
     0
102
RTVSPropertyOp23
 70
     0
102
RTVSPropertyOp24
 70
     0
102
RTVSPropertyOp25
 70
     0
102
RTVSPropertyOp26
 70
     0
102
RTVSPropertyOp27
 70
     0
102
RTVSPropertyOp28
 70
     1
102
RTVSPropertyOp29
 70
     1
102
RTVSPropertyOp30
 70
     1
102
RTVSPropertyOp31
 70
     1
102
RTVSPropertyOp32
 70
     1
  0
XRECORD
  5
81CE
102
{ACAD_REACTORS
330
81CD
102
}
330
81CD
100
AcDbXrecord
280
     1
102
RTVSPropertyOp0
 70
     1
102
RTVSPropertyOp1
 70
     1
102
RTVSPropertyOp2
 70
     1
102
RTVSPropertyOp3
 70
     1
102
RTVSPropertyOp4
 70
     1
102
RTVSPropertyOp5
 70
     1
102
RTVSPropertyOp6
 70
     1
102
RTVSPropertyOp7
 70
     1
102
RTVSPropertyOp8
 70
     1
102
RTVSPropertyOp9
 70
     1
102
RTVSPropertyOp10
 70
     1
102
RTVSPropertyOp11
 70
     1
102
RTVSPropertyOp12
 70
     1
102
RTVSPropertyOp13
 70
     1
102
RTVSPropertyOp14
 70
     1
102
RTVSPropertyOp15
 70
     1
102
RTVSPropertyOp16
 70
     1
102
RTVSPropertyOp17
 70
     1
102
RTVSPropertyOp18
 70
     1
102
RTVSPropertyOp19
 70
     1
102
RTVSPropertyOp20
 70
     1
102
RTVSPropertyOp21
 70
     1
102
RTVSPropertyOp22
 70
     1
102
RTVSPropertyOp23
 70
     1
102
RTVSPropertyOp24
 70
     1
102
RTVSPropertyOp25
 70
     1
102
RTVSPropertyOp26
 70
     1
102
RTVSPropertyOp27
 70
     1
102
RTVSPropertyOp28
 70
     1
102
RTVSPropertyOp29
 70
     1
102
RTVSPropertyOp30
 70
     1
102
RTVSPropertyOp31
 70
     1
102
RTVSPropertyOp32
 70
     1
  0
XRECORD
  5
81B2
102
{ACAD_REACTORS
330
81B1
102
}
330
81B1
100
AcDbXrecord
280
     1
102
RTVSPropertyOp0
 70
     1
102
RTVSPropertyOp1
 70
     1
102
RTVSPropertyOp2
 70
     1
102
RTVSPropertyOp3
 70
     1
102
RTVSPropertyOp4
 70
     1
102
RTVSPropertyOp5
 70
     1
102
RTVSPropertyOp6
 70
     1
102
RTVSPropertyOp7
 70
     1
102
RTVSPropertyOp8
 70
     1
102
RTVSPropertyOp9
 70
     1
102
RTVSPropertyOp10
 70
     1
102
RTVSPropertyOp11
 70
     1
102
RTVSPropertyOp12
 70
     1
102
RTVSPropertyOp13
 70
     1
102
RTVSPropertyOp14
 70
     1
102
RTVSPropertyOp15
 70
     1
102
RTVSPropertyOp16
 70
     1
102
RTVSPropertyOp17
 70
     1
102
RTVSPropertyOp18
 70
     1
102
RTVSPropertyOp19
 70
     1
102
RTVSPropertyOp20
 70
     1
102
RTVSPropertyOp21
 70
     1
102
RTVSPropertyOp22
 70
     1
102
RTVSPropertyOp23
 70
     1
102
RTVSPropertyOp24
 70
     1
102
RTVSPropertyOp25
 70
     1
102
RTVSPropertyOp26
 70
     1
102
RTVSPropertyOp27
 70
     1
102
RTVSPropertyOp28
 70
     1
102
RTVSPropertyOp29
 70
     1
102
RTVSPropertyOp30
 70
     1
102
RTVSPropertyOp31
 70
     1
102
RTVSPropertyOp32
 70
     1
  0
XRECORD
  5
81B4
102
{ACAD_REACTORS
330
81B3
102
}
330
81B3
100
AcDbXrecord
280
     1
102
RTVSPropertyOp0
 70
     1
102
RTVSPropertyOp1
 70
     1
102
RTVSPropertyOp2
 70
     1
102
RTVSPropertyOp3
 70
     1
102
RTVSPropertyOp4
 70
     1
102
RTVSPropertyOp5
 70
     1
102
RTVSPropertyOp6
 70
     1
102
RTVSPropertyOp7
 70
     1
102
RTVSPropertyOp8
 70
     1
102
RTVSPropertyOp9
 70
     1
102
RTVSPropertyOp10
 70
     1
102
RTVSPropertyOp11
 70
     1
102
RTVSPropertyOp12
 70
     1
102
RTVSPropertyOp13
 70
     1
102
RTVSPropertyOp14
 70
     1
102
RTVSPropertyOp15
 70
     1
102
RTVSPropertyOp16
 70
     1
102
RTVSPropertyOp17
 70
     1
102
RTVSPropertyOp18
 70
     1
102
RTVSPropertyOp19
 70
     1
102
RTVSPropertyOp20
 70
     1
102
RTVSPropertyOp21
 70
     1
102
RTVSPropertyOp22
 70
     1
102
RTVSPropertyOp23
 70
     1
102
RTVSPropertyOp24
 70
     1
102
RTVSPropertyOp25
 70
     1
102
RTVSPropertyOp26
 70
     1
102
RTVSPropertyOp27
 70
     1
102
RTVSPropertyOp28
 70
     1
102
RTVSPropertyOp29
 70
     1
102
RTVSPropertyOp30
 70
     1
102
RTVSPropertyOp31
 70
     1
102
RTVSPropertyOp32
 70
     1
  0
XRECORD
  5
81B6
102
{ACAD_REACTORS
330
81B5
102
}
330
81B5
100
AcDbXrecord
280
     1
102
RTVSPropertyOp0
 70
     1
102
RTVSPropertyOp1
 70
     1
102
RTVSPropertyOp2
 70
     1
102
RTVSPropertyOp3
 70
     1
102
RTVSPropertyOp4
 70
     1
102
RTVSPropertyOp5
 70
     1
102
RTVSPropertyOp6
 70
     1
102
RTVSPropertyOp7
 70
     1
102
RTVSPropertyOp8
 70
     1
102
RTVSPropertyOp9
 70
     1
102
RTVSPropertyOp10
 70
     1
102
RTVSPropertyOp11
 70
     1
102
RTVSPropertyOp12
 70
     1
102
RTVSPropertyOp13
 70
     1
102
RTVSPropertyOp14
 70
     1
102
RTVSPropertyOp15
 70
     1
102
RTVSPropertyOp16
 70
     1
102
RTVSPropertyOp17
 70
     1
102
RTVSPropertyOp18
 70
     1
102
RTVSPropertyOp19
 70
     1
102
RTVSPropertyOp20
 70
     1
102
RTVSPropertyOp21
 70
     1
102
RTVSPropertyOp22
 70
     1
102
RTVSPropertyOp23
 70
     1
102
RTVSPropertyOp24
 70
     1
102
RTVSPropertyOp25
 70
     1
102
RTVSPropertyOp26
 70
     1
102
RTVSPropertyOp27
 70
     1
102
RTVSPropertyOp28
 70
     1
102
RTVSPropertyOp29
 70
     1
102
RTVSPropertyOp30
 70
     1
102
RTVSPropertyOp31
 70
     1
102
RTVSPropertyOp32
 70
     1
  0
XRECORD
  5
81B8
102
{ACAD_REACTORS
330
81B7
102
}
330
81B7
100
AcDbXrecord
280
     1
102
RTVSPropertyOp0
 70
     1
102
RTVSPropertyOp1
 70
     1
102
RTVSPropertyOp2
 70
     1
102
RTVSPropertyOp3
 70
     1
102
RTVSPropertyOp4
 70
     1
102
RTVSPropertyOp5
 70
     1
102
RTVSPropertyOp6
 70
     1
102
RTVSPropertyOp7
 70
     1
102
RTVSPropertyOp8
 70
     1
102
RTVSPropertyOp9
 70
     1
102
RTVSPropertyOp10
 70
     1
102
RTVSPropertyOp11
 70
     1
102
RTVSPropertyOp12
 70
     1
102
RTVSPropertyOp13
 70
     1
102
RTVSPropertyOp14
 70
     1
102
RTVSPropertyOp15
 70
     1
102
RTVSPropertyOp16
 70
     1
102
RTVSPropertyOp17
 70
     1
102
RTVSPropertyOp18
 70
     1
102
RTVSPropertyOp19
 70
     1
102
RTVSPropertyOp20
 70
     1
102
RTVSPropertyOp21
 70
     1
102
RTVSPropertyOp22
 70
     1
102
RTVSPropertyOp23
 70
     1
102
RTVSPropertyOp24
 70
     1
102
RTVSPropertyOp25
 70
     1
102
RTVSPropertyOp26
 70
     1
102
RTVSPropertyOp27
 70
     1
102
RTVSPropertyOp28
 70
     1
102
RTVSPropertyOp29
 70
     1
102
RTVSPropertyOp30
 70
     1
102
RTVSPropertyOp31
 70
     1
102
RTVSPropertyOp32
 70
     1
  0
XRECORD
  5
81C0
102
{ACAD_REACTORS
330
81BF
102
}
330
81BF
100
AcDbXrecord
280
     1
102
RTVSPropertyOp0
 70
     1
102
RTVSPropertyOp1
 70
     1
102
RTVSPropertyOp2
 70
     1
102
RTVSPropertyOp3
 70
     1
102
RTVSPropertyOp4
 70
     1
102
RTVSPropertyOp5
 70
     1
102
RTVSPropertyOp6
 70
     1
102
RTVSPropertyOp7
 70
     1
102
RTVSPropertyOp8
 70
     1
102
RTVSPropertyOp9
 70
     1
102
RTVSPropertyOp10
 70
     1
102
RTVSPropertyOp11
 70
     1
102
RTVSPropertyOp12
 70
     1
102
RTVSPropertyOp13
 70
     1
102
RTVSPropertyOp14
 70
     1
102
RTVSPropertyOp15
 70
     1
102
RTVSPropertyOp16
 70
     1
102
RTVSPropertyOp17
 70
     1
102
RTVSPropertyOp18
 70
     1
102
RTVSPropertyOp19
 70
     1
102
RTVSPropertyOp20
 70
     1
102
RTVSPropertyOp21
 70
     1
102
RTVSPropertyOp22
 70
     1
102
RTVSPropertyOp23
 70
     1
102
RTVSPropertyOp24
 70
     1
102
RTVSPropertyOp25
 70
     1
102
RTVSPropertyOp26
 70
     1
102
RTVSPropertyOp27
 70
     1
102
RTVSPropertyOp28
 70
     1
102
RTVSPropertyOp29
 70
     1
102
RTVSPropertyOp30
 70
     1
102
RTVSPropertyOp31
 70
     1
102
RTVSPropertyOp32
 70
     1
  0
XRECORD
  5
81DC
102
{ACAD_REACTORS
330
81DB
102
}
330
81DB
100
AcDbXrecord
280
     1
102
RTVSPropertyOp0
 70
     0
102
RTVSPropertyOp1
 70
     0
102
RTVSPropertyOp2
 70
     0
102
RTVSPropertyOp3
 70
     0
102
RTVSPropertyOp4
 70
     0
102
RTVSPropertyOp5
 70
     0
102
RTVSPropertyOp6
 70
     0
102
RTVSPropertyOp7
 70
     0
102
RTVSPropertyOp8
 70
     0
102
RTVSPropertyOp9
 70
     0
102
RTVSPropertyOp10
 70
     0
102
RTVSPropertyOp11
 70
     0
102
RTVSPropertyOp12
 70
     0
102
RTVSPropertyOp13
 70
     0
102
RTVSPropertyOp14
 70
     2
102
RTVSPropertyOp15
 70
     0
102
RTVSPropertyOp16
 70
     0
102
RTVSPropertyOp17
 70
     0
102
RTVSPropertyOp18
 70
     0
102
RTVSPropertyOp19
 70
     0
102
RTVSPropertyOp20
 70
     0
102
RTVSPropertyOp21
 70
     0
102
RTVSPropertyOp22
 70
     0
102
RTVSPropertyOp23
 70
     0
102
RTVSPropertyOp24
 70
     0
102
RTVSPropertyOp25
 70
     0
102
RTVSPropertyOp26
 70
     0
102
RTVSPropertyOp27
 70
     0
102
RTVSPropertyOp28
 70
     1
102
RTVSPropertyOp29
 70
     1
102
RTVSPropertyOp30
 70
     1
102
RTVSPropertyOp31
 70
     1
102
RTVSPropertyOp32
 70
     1
  0
XRECORD
  5
81CC
102
{ACAD_REACTORS
330
81CB
102
}
330
81CB
100
AcDbXrecord
280
     1
102
RTVSPropertyOp0
 70
     1
102
RTVSPropertyOp1
 70
     1
102
RTVSPropertyOp2
 70
     1
102
RTVSPropertyOp3
 70
     1
102
RTVSPropertyOp4
 70
     1
102
RTVSPropertyOp5
 70
     1
102
RTVSPropertyOp6
 70
     1
102
RTVSPropertyOp7
 70
     1
102
RTVSPropertyOp8
 70
     1
102
RTVSPropertyOp9
 70
     1
102
RTVSPropertyOp10
 70
     1
102
RTVSPropertyOp11
 70
     1
102
RTVSPropertyOp12
 70
     1
102
RTVSPropertyOp13
 70
     1
102
RTVSPropertyOp14
 70
     1
102
RTVSPropertyOp15
 70
     1
102
RTVSPropertyOp16
 70
     1
102
RTVSPropertyOp17
 70
     1
102
RTVSPropertyOp18
 70
     1
102
RTVSPropertyOp19
 70
     1
102
RTVSPropertyOp20
 70
     1
102
RTVSPropertyOp21
 70
     1
102
RTVSPropertyOp22
 70
     1
102
RTVSPropertyOp23
 70
     1
102
RTVSPropertyOp24
 70
     1
102
RTVSPropertyOp25
 70
     1
102
RTVSPropertyOp26
 70
     1
102
RTVSPropertyOp27
 70
     1
102
RTVSPropertyOp28
 70
     1
102
RTVSPropertyOp29
 70
     1
102
RTVSPropertyOp30
 70
     1
102
RTVSPropertyOp31
 70
     1
102
RTVSPropertyOp32
 70
     1
  0
XRECORD
  5
81DE
102
{ACAD_REACTORS
330
81DD
102
}
330
81DD
100
AcDbXrecord
280
     1
102
RTVSPropertyOp0
 70
     0
102
RTVSPropertyOp1
 70
     0
102
RTVSPropertyOp2
 70
     0
102
RTVSPropertyOp3
 70
     0
102
RTVSPropertyOp4
 70
     0
102
RTVSPropertyOp5
 70
     0
102
RTVSPropertyOp6
 70
     0
102
RTVSPropertyOp7
 70
     0
102
RTVSPropertyOp8
 70
     0
102
RTVSPropertyOp9
 70
     0
102
RTVSPropertyOp10
 70
     0
102
RTVSPropertyOp11
 70
     0
102
RTVSPropertyOp12
 70
     0
102
RTVSPropertyOp13
 70
     0
102
RTVSPropertyOp14
 70
     2
102
RTVSPropertyOp15
 70
     0
102
RTVSPropertyOp16
 70
     0
102
RTVSPropertyOp17
 70
     0
102
RTVSPropertyOp18
 70
     0
102
RTVSPropertyOp19
 70
     0
102
RTVSPropertyOp20
 70
     0
102
RTVSPropertyOp21
 70
     0
102
RTVSPropertyOp22
 70
     0
102
RTVSPropertyOp23
 70
     0
102
RTVSPropertyOp24
 70
     0
102
RTVSPropertyOp25
 70
     0
102
RTVSPropertyOp26
 70
     0
102
RTVSPropertyOp27
 70
     0
102
RTVSPropertyOp28
 70
     1
102
RTVSPropertyOp29
 70
     1
102
RTVSPropertyOp30
 70
     1
102
RTVSPropertyOp31
 70
     1
102
RTVSPropertyOp32
 70
     1
  0
XRECORD
  5
81C4
102
{ACAD_REACTORS
330
81C3
102
}
330
81C3
100
AcDbXrecord
280
     1
102
RTVSPropertyOp0
 70
     1
102
RTVSPropertyOp1
 70
     1
102
RTVSPropertyOp2
 70
     1
102
RTVSPropertyOp3
 70
     1
102
RTVSPropertyOp4
 70
     1
102
RTVSPropertyOp5
 70
     1
102
RTVSPropertyOp6
 70
     1
102
RTVSPropertyOp7
 70
     1
102
RTVSPropertyOp8
 70
     1
102
RTVSPropertyOp9
 70
     1
102
RTVSPropertyOp10
 70
     1
102
RTVSPropertyOp11
 70
     1
102
RTVSPropertyOp12
 70
     1
102
RTVSPropertyOp13
 70
     1
102
RTVSPropertyOp14
 70
     1
102
RTVSPropertyOp15
 70
     1
102
RTVSPropertyOp16
 70
     1
102
RTVSPropertyOp17
 70
     1
102
RTVSPropertyOp18
 70
     1
102
RTVSPropertyOp19
 70
     1
102
RTVSPropertyOp20
 70
     1
102
RTVSPropertyOp21
 70
     1
102
RTVSPropertyOp22
 70
     1
102
RTVSPropertyOp23
 70
     1
102
RTVSPropertyOp24
 70
     1
102
RTVSPropertyOp25
 70
     1
102
RTVSPropertyOp26
 70
     1
102
RTVSPropertyOp27
 70
     1
102
RTVSPropertyOp28
 70
     1
102
RTVSPropertyOp29
 70
     1
102
RTVSPropertyOp30
 70
     1
102
RTVSPropertyOp31
 70
     1
102
RTVSPropertyOp32
 70
     1
  0
XRECORD
  5
81DA
102
{ACAD_REACTORS
330
81D9
102
}
330
81D9
100
AcDbXrecord
280
     1
102
RTVSPropertyOp0
 70
     1
102
RTVSPropertyOp1
 70
     1
102
RTVSPropertyOp2
 70
     1
102
RTVSPropertyOp3
 70
     1
102
RTVSPropertyOp4
 70
     1
102
RTVSPropertyOp5
 70
     1
102
RTVSPropertyOp6
 70
     1
102
RTVSPropertyOp7
 70
     1
102
RTVSPropertyOp8
 70
     1
102
RTVSPropertyOp9
 70
     1
102
RTVSPropertyOp10
 70
     1
102
RTVSPropertyOp11
 70
     1
102
RTVSPropertyOp12
 70
     1
102
RTVSPropertyOp13
 70
     1
102
RTVSPropertyOp14
 70
     1
102
RTVSPropertyOp15
 70
     1
102
RTVSPropertyOp16
 70
     1
102
RTVSPropertyOp17
 70
     1
102
RTVSPropertyOp18
 70
     1
102
RTVSPropertyOp19
 70
     1
102
RTVSPropertyOp20
 70
     1
102
RTVSPropertyOp21
 70
     1
102
RTVSPropertyOp22
 70
     1
102
RTVSPropertyOp23
 70
     1
102
RTVSPropertyOp24
 70
     1
102
RTVSPropertyOp25
 70
     1
102
RTVSPropertyOp26
 70
     1
102
RTVSPropertyOp27
 70
     1
102
RTVSPropertyOp28
 70
     1
102
RTVSPropertyOp29
 70
     1
102
RTVSPropertyOp30
 70
     1
102
RTVSPropertyOp31
 70
     1
102
RTVSPropertyOp32
 70
     1
  0
XRECORD
  5
81D8
102
{ACAD_REACTORS
330
81D7
102
}
330
81D7
100
AcDbXrecord
280
     1
102
RTVSPropertyOp0
 70
     1
102
RTVSPropertyOp1
 70
     1
102
RTVSPropertyOp2
 70
     1
102
RTVSPropertyOp3
 70
     1
102
RTVSPropertyOp4
 70
     1
102
RTVSPropertyOp5
 70
     1
102
RTVSPropertyOp6
 70
     1
102
RTVSPropertyOp7
 70
     1
102
RTVSPropertyOp8
 70
     1
102
RTVSPropertyOp9
 70
     1
102
RTVSPropertyOp10
 70
     1
102
RTVSPropertyOp11
 70
     1
102
RTVSPropertyOp12
 70
     1
102
RTVSPropertyOp13
 70
     1
102
RTVSPropertyOp14
 70
     1
102
RTVSPropertyOp15
 70
     1
102
RTVSPropertyOp16
 70
     1
102
RTVSPropertyOp17
 70
     1
102
RTVSPropertyOp18
 70
     1
102
RTVSPropertyOp19
 70
     1
102
RTVSPropertyOp20
 70
     1
102
RTVSPropertyOp21
 70
     1
102
RTVSPropertyOp22
 70
     1
102
RTVSPropertyOp23
 70
     1
102
RTVSPropertyOp24
 70
     1
102
RTVSPropertyOp25
 70
     1
102
RTVSPropertyOp26
 70
     1
102
RTVSPropertyOp27
 70
     1
102
RTVSPropertyOp28
 70
     1
102
RTVSPropertyOp29
 70
     1
102
RTVSPropertyOp30
 70
     1
102
RTVSPropertyOp31
 70
     1
102
RTVSPropertyOp32
 70
     1
  0
XRECORD
  5
81D2
102
{ACAD_REACTORS
330
81D1
102
}
330
81D1
100
AcDbXrecord
280
     1
102
RTVSPropertyOp0
 70
     1
102
RTVSPropertyOp1
 70
     1
102
RTVSPropertyOp2
 70
     1
102
RTVSPropertyOp3
 70
     1
102
RTVSPropertyOp4
 70
     1
102
RTVSPropertyOp5
 70
     1
102
RTVSPropertyOp6
 70
     1
102
RTVSPropertyOp7
 70
     1
102
RTVSPropertyOp8
 70
     1
102
RTVSPropertyOp9
 70
     1
102
RTVSPropertyOp10
 70
     1
102
RTVSPropertyOp11
 70
     1
102
RTVSPropertyOp12
 70
     1
102
RTVSPropertyOp13
 70
     1
102
RTVSPropertyOp14
 70
     1
102
RTVSPropertyOp15
 70
     1
102
RTVSPropertyOp16
 70
     1
102
RTVSPropertyOp17
 70
     1
102
RTVSPropertyOp18
 70
     1
102
RTVSPropertyOp19
 70
     1
102
RTVSPropertyOp20
 70
     1
102
RTVSPropertyOp21
 70
     1
102
RTVSPropertyOp22
 70
     1
102
RTVSPropertyOp23
 70
     1
102
RTVSPropertyOp24
 70
     1
102
RTVSPropertyOp25
 70
     1
102
RTVSPropertyOp26
 70
     1
102
RTVSPropertyOp27
 70
     1
102
RTVSPropertyOp28
 70
     1
102
RTVSPropertyOp29
 70
     1
102
RTVSPropertyOp30
 70
     1
102
RTVSPropertyOp31
 70
     1
102
RTVSPropertyOp32
 70
     1
  0
XRECORD
  5
81D4
102
{ACAD_REACTORS
330
81D3
102
}
330
81D3
100
AcDbXrecord
280
     1
102
RTVSPropertyOp0
 70
     1
102
RTVSPropertyOp1
 70
     1
102
RTVSPropertyOp2
 70
     1
102
RTVSPropertyOp3
 70
     1
102
RTVSPropertyOp4
 70
     1
102
RTVSPropertyOp5
 70
     1
102
RTVSPropertyOp6
 70
     1
102
RTVSPropertyOp7
 70
     1
102
RTVSPropertyOp8
 70
     1
102
RTVSPropertyOp9
 70
     1
102
RTVSPropertyOp10
 70
     1
102
RTVSPropertyOp11
 70
     1
102
RTVSPropertyOp12
 70
     1
102
RTVSPropertyOp13
 70
     1
102
RTVSPropertyOp14
 70
     1
102
RTVSPropertyOp15
 70
     1
102
RTVSPropertyOp16
 70
     1
102
RTVSPropertyOp17
 70
     1
102
RTVSPropertyOp18
 70
     1
102
RTVSPropertyOp19
 70
     1
102
RTVSPropertyOp20
 70
     1
102
RTVSPropertyOp21
 70
     1
102
RTVSPropertyOp22
 70
     1
102
RTVSPropertyOp23
 70
     1
102
RTVSPropertyOp24
 70
     1
102
RTVSPropertyOp25
 70
     1
102
RTVSPropertyOp26
 70
     1
102
RTVSPropertyOp27
 70
     1
102
RTVSPropertyOp28
 70
     1
102
RTVSPropertyOp29
 70
     1
102
RTVSPropertyOp30
 70
     1
102
RTVSPropertyOp31
 70
     1
102
RTVSPropertyOp32
 70
     1
  0
XRECORD
  5
81CA
102
{ACAD_REACTORS
330
81C9
102
}
330
81C9
100
AcDbXrecord
280
     1
102
RTVSPropertyOp0
 70
     1
102
RTVSPropertyOp1
 70
     1
102
RTVSPropertyOp2
 70
     1
102
RTVSPropertyOp3
 70
     1
102
RTVSPropertyOp4
 70
     1
102
RTVSPropertyOp5
 70
     1
102
RTVSPropertyOp6
 70
     1
102
RTVSPropertyOp7
 70
     1
102
RTVSPropertyOp8
 70
     1
102
RTVSPropertyOp9
 70
     1
102
RTVSPropertyOp10
 70
     1
102
RTVSPropertyOp11
 70
     1
102
RTVSPropertyOp12
 70
     1
102
RTVSPropertyOp13
 70
     1
102
RTVSPropertyOp14
 70
     1
102
RTVSPropertyOp15
 70
     1
102
RTVSPropertyOp16
 70
     1
102
RTVSPropertyOp17
 70
     1
102
RTVSPropertyOp18
 70
     1
102
RTVSPropertyOp19
 70
     1
102
RTVSPropertyOp20
 70
     1
102
RTVSPropertyOp21
 70
     1
102
RTVSPropertyOp22
 70
     1
102
RTVSPropertyOp23
 70
     1
102
RTVSPropertyOp24
 70
     1
102
RTVSPropertyOp25
 70
     1
102
RTVSPropertyOp26
 70
     1
102
RTVSPropertyOp27
 70
     1
102
RTVSPropertyOp28
 70
     1
102
RTVSPropertyOp29
 70
     1
102
RTVSPropertyOp30
 70
     1
102
RTVSPropertyOp31
 70
     1
102
RTVSPropertyOp32
 70
     1
  0
XRECORD
  5
81BE
102
{ACAD_REACTORS
330
81BD
102
}
330
81BD
100
AcDbXrecord
280
     1
102
RTVSPropertyOp0
 70
     1
102
RTVSPropertyOp1
 70
     1
102
RTVSPropertyOp2
 70
     1
102
RTVSPropertyOp3
 70
     1
102
RTVSPropertyOp4
 70
     1
102
RTVSPropertyOp5
 70
     1
102
RTVSPropertyOp6
 70
     1
102
RTVSPropertyOp7
 70
     1
102
RTVSPropertyOp8
 70
     1
102
RTVSPropertyOp9
 70
     1
102
RTVSPropertyOp10
 70
     1
102
RTVSPropertyOp11
 70
     1
102
RTVSPropertyOp12
 70
     1
102
RTVSPropertyOp13
 70
     1
102
RTVSPropertyOp14
 70
     1
102
RTVSPropertyOp15
 70
     1
102
RTVSPropertyOp16
 70
     1
102
RTVSPropertyOp17
 70
     1
102
RTVSPropertyOp18
 70
     1
102
RTVSPropertyOp19
 70
     1
102
RTVSPropertyOp20
 70
     1
102
RTVSPropertyOp21
 70
     1
102
RTVSPropertyOp22
 70
     1
102
RTVSPropertyOp23
 70
     1
102
RTVSPropertyOp24
 70
     1
102
RTVSPropertyOp25
 70
     1
102
RTVSPropertyOp26
 70
     1
102
RTVSPropertyOp27
 70
     1
102
RTVSPropertyOp28
 70
     1
102
RTVSPropertyOp29
 70
     1
102
RTVSPropertyOp30
 70
     1
102
RTVSPropertyOp31
 70
     1
102
RTVSPropertyOp32
 70
     1
  0
XRECORD
  5
81D6
102
{ACAD_REACTORS
330
81D5
102
}
330
81D5
100
AcDbXrecord
280
     1
102
RTVSPropertyOp0
 70
     1
102
RTVSPropertyOp1
 70
     1
102
RTVSPropertyOp2
 70
     1
102
RTVSPropertyOp3
 70
     1
102
RTVSPropertyOp4
 70
     1
102
RTVSPropertyOp5
 70
     1
102
RTVSPropertyOp6
 70
     1
102
RTVSPropertyOp7
 70
     1
102
RTVSPropertyOp8
 70
     1
102
RTVSPropertyOp9
 70
     1
102
RTVSPropertyOp10
 70
     1
102
RTVSPropertyOp11
 70
     1
102
RTVSPropertyOp12
 70
     1
102
RTVSPropertyOp13
 70
     1
102
RTVSPropertyOp14
 70
     1
102
RTVSPropertyOp15
 70
     1
102
RTVSPropertyOp16
 70
     1
102
RTVSPropertyOp17
 70
     1
102
RTVSPropertyOp18
 70
     1
102
RTVSPropertyOp19
 70
     1
102
RTVSPropertyOp20
 70
     1
102
RTVSPropertyOp21
 70
     1
102
RTVSPropertyOp22
 70
     1
102
RTVSPropertyOp23
 70
     1
102
RTVSPropertyOp24
 70
     1
102
RTVSPropertyOp25
 70
     1
102
RTVSPropertyOp26
 70
     1
102
RTVSPropertyOp27
 70
     1
102
RTVSPropertyOp28
 70
     1
102
RTVSPropertyOp29
 70
     1
102
RTVSPropertyOp30
 70
     1
102
RTVSPropertyOp31
 70
     1
102
RTVSPropertyOp32
 70
     1
  0
ENDSEC
  0
EOF
