  0
SECTION
  2
HEADER
  9
$ACADVER
  1
AC1018
  9
$ACADMAINTVER
 70
   104
  9
$DWGCODEPAGE
  3
ANSI_932
  9
$LASTSAVEDBY
  1
HON1000CV
  9
$INSBASE
 10
0.0
 20
0.0
 30
0.0
  9
$EXTMIN
 10
1940.712987732005
 20
175.4072739588159
 30
-0.0000000000000129
  9
$EXTMAX
 10
2640.284963260941
 20
491.3848083933753
 30
0.0000000000000023
  9
$LIMMIN
 10
0.0
 20
0.0
  9
$LIMMAX
 10
420.0
 20
297.0
  9
$ORTHOMODE
 70
     0
  9
$REGENMODE
 70
     1
  9
$FILLMODE
 70
     1
  9
$QTEXTMODE
 70
     0
  9
$MIRRTEXT
 70
     1
  9
$LTSCALE
 40
3.0
  9
$ATTMODE
 70
     1
  9
$TEXTSIZE
 40
5.0
  9
$TRACEWID
 40
0.05
  9
$TEXTSTYLE
  7
ACAD
  9
$CLAYER
  8
0
  9
$CELTYPE
  6
CONTINUOUS
  9
$CECOLOR
 62
   256
  9
$CELTSCALE
 40
1.0
  9
$DISPSILH
 70
     0
  9
$DIMSCALE
 40
1.0
  9
$DIMASZ
 40
5.0
  9
$DIMEXO
 40
0.0
  9
$DIMDLI
 40
0.38
  9
$DIMRND
 40
0.0
  9
$DIMDLE
 40
0.0
  9
$DIMEXE
 40
0.0
  9
$DIMTP
 40
0.0
  9
$DIMTM
 40
0.0
  9
$DIMTXT
 40
6.5
  9
$DIMCEN
 40
0.09
  9
$DIMTSZ
 40
0.0
  9
$DIMTOL
 70
     0
  9
$DIMLIM
 70
     0
  9
$DIMTIH
 70
     0
  9
$DIMTOH
 70
     1
  9
$DIMSE1
 70
     0
  9
$DIMSE2
 70
     0
  9
$DIMTAD
 70
     1
  9
$DIMZIN
 70
     0
  9
$DIMBLK
  1
Small
  9
$DIMASO
 70
     1
  9
$DIMSHO
 70
     1
  9
$DIMPOST
  1

  9
$DIMAPOST
  1

  9
$DIMALT
 70
     0
  9
$DIMALTD
 70
     2
  9
$DIMALTF
 40
25.4
  9
$DIMLFAC
 40
1.0
  9
$DIMTOFL
 70
     0
  9
$DIMTVP
 40
0.0
  9
$DIMTIX
 70
     1
  9
$DIMSOXD
 70
     0
  9
$DIMSAH
 70
     0
  9
$DIMBLK1
  1

  9
$DIMBLK2
  1

  9
$DIMSTYLE
  2
AutoCAD
  9
$DIMCLRD
 70
     4
  9
$DIMCLRE
 70
     4
  9
$DIMCLRT
 70
     3
  9
$DIMTFAC
 40
1.0
  9
$DIMGAP
 40
3.0
  9
$DIMJUST
 70
     0
  9
$DIMSD1
 70
     0
  9
$DIMSD2
 70
     0
  9
$DIMTOLJ
 70
     1
  9
$DIMTZIN
 70
     0
  9
$DIMALTZ
 70
     0
  9
$DIMALTTZ
 70
     0
  9
$DIMUPT
 70
     0
  9
$DIMDEC
 70
     0
  9
$DIMTDEC
 70
     0
  9
$DIMALTU
 70
     2
  9
$DIMALTTD
 70
     2
  9
$DIMTXSTY
  7
ACAD
  9
$DIMAUNIT
 70
     0
  9
$DIMADEC
 70
     0
  9
$DIMALTRND
 40
0.0
  9
$DIMAZIN
 70
     0
  9
$DIMDSEP
 70
    46
  9
$DIMATFIT
 70
     0
  9
$DIMFRAC
 70
     0
  9
$DIMLDRBLK
  1
None
  9
$DIMLUNIT
 70
     2
  9
$DIMLWD
 70
    -2
  9
$DIMLWE
 70
    -2
  9
$DIMTMOVE
 70
     0
  9
$LUNITS
 70
     2
  9
$LUPREC
 70
     4
  9
$SKETCHINC
 40
0.1
  9
$FILLETRAD
 40
0.0
  9
$AUNITS
 70
     0
  9
$AUPREC
 70
     0
  9
$MENU
  1
.
  9
$ELEVATION
 40
0.0
  9
$PELEVATION
 40
0.0
  9
$THICKNESS
 40
0.0
  9
$LIMCHECK
 70
     0
  9
$CHAMFERA
 40
0.0
  9
$CHAMFERB
 40
0.0
  9
$CHAMFERC
 40
0.0
  9
$CHAMFERD
 40
0.0
  9
$SKPOLY
 70
     0
  9
$TDCREATE
 40
2454316.693457674
  9
$TDUCREATE
 40
2454316.318457674
  9
$TDUPDATE
 40
2455961.433542419
  9
$TDUUPDATE
 40
2455961.058542419
  9
$TDINDWG
 40
0.7999395486
  9
$TDUSRTIMER
 40
0.7999395486
  9
$USRTIMER
 70
     1
  9
$ANGBASE
 50
0.0
  9
$ANGDIR
 70
     0
  9
$PDMODE
 70
     0
  9
$PDSIZE
 40
0.0
  9
$PLINEWID
 40
0.0
  9
$SPLFRAME
 70
     0
  9
$SPLINETYPE
 70
     6
  9
$SPLINESEGS
 70
     8
  9
$HANDSEED
  5
AA14
  9
$SURFTAB1
 70
     6
  9
$SURFTAB2
 70
     6
  9
$SURFTYPE
 70
     6
  9
$SURFU
 70
     6
  9
$SURFV
 70
     6
  9
$UCSBASE
  2

  9
$UCSNAME
  2

  9
$UCSORG
 10
0.0
 20
0.0
 30
0.0
  9
$UCSXDIR
 10
1.0
 20
0.0
 30
0.0
  9
$UCSYDIR
 10
0.0
 20
1.0
 30
0.0
  9
$UCSORTHOREF
  2

  9
$UCSORTHOVIEW
 70
     0
  9
$UCSORGTOP
 10
0.0
 20
0.0
 30
0.0
  9
$UCSORGBOTTOM
 10
0.0
 20
0.0
 30
0.0
  9
$UCSORGLEFT
 10
0.0
 20
0.0
 30
0.0
  9
$UCSORGRIGHT
 10
0.0
 20
0.0
 30
0.0
  9
$UCSORGFRONT
 10
0.0
 20
0.0
 30
0.0
  9
$UCSORGBACK
 10
0.0
 20
0.0
 30
0.0
  9
$PUCSBASE
  2

  9
$PUCSNAME
  2

  9
$PUCSORG
 10
0.0
 20
0.0
 30
0.0
  9
$PUCSXDIR
 10
1.0
 20
0.0
 30
0.0
  9
$PUCSYDIR
 10
0.0
 20
1.0
 30
0.0
  9
$PUCSORTHOREF
  2

  9
$PUCSORTHOVIEW
 70
     0
  9
$PUCSORGTOP
 10
0.0
 20
0.0
 30
0.0
  9
$PUCSORGBOTTOM
 10
0.0
 20
0.0
 30
0.0
  9
$PUCSORGLEFT
 10
0.0
 20
0.0
 30
0.0
  9
$PUCSORGRIGHT
 10
0.0
 20
0.0
 30
0.0
  9
$PUCSORGFRONT
 10
0.0
 20
0.0
 30
0.0
  9
$PUCSORGBACK
 10
0.0
 20
0.0
 30
0.0
  9
$USERI1
 70
     0
  9
$USERI2
 70
     0
  9
$USERI3
 70
     0
  9
$USERI4
 70
     0
  9
$USERI5
 70
     0
  9
$USERR1
 40
0.0
  9
$USERR2
 40
0.0
  9
$USERR3
 40
0.0
  9
$USERR4
 40
0.0
  9
$USERR5
 40
0.0
  9
$WORLDVIEW
 70
     1
  9
$SHADEDGE
 70
     3
  9
$SHADEDIF
 70
    70
  9
$TILEMODE
 70
     1
  9
$MAXACTVP
 70
    48
  9
$PINSBASE
 10
0.0
 20
0.0
 30
0.0
  9
$PLIMCHECK
 70
     0
  9
$PEXTMIN
 10
1.000000000000000E+20
 20
1.000000000000000E+20
 30
1.000000000000000E+20
  9
$PEXTMAX
 10
-1.000000000000000E+20
 20
-1.000000000000000E+20
 30
-1.000000000000000E+20
  9
$PLIMMIN
 10
0.0
 20
0.0
  9
$PLIMMAX
 10
12.0
 20
9.0
  9
$UNITMODE
 70
     0
  9
$VISRETAIN
 70
     0
  9
$PLINEGEN
 70
     0
  9
$PSLTSCALE
 70
     1
  9
$TREEDEPTH
 70
  3020
  9
$CMLSTYLE
  2
Standard
  9
$CMLJUST
 70
     0
  9
$CMLSCALE
 40
1.0
  9
$PROXYGRAPHICS
 70
     1
  9
$MEASUREMENT
 70
     0
  9
$CELWEIGHT
370
    -1
  9
$ENDCAPS
280
     0
  9
$JOINSTYLE
280
     0
  9
$LWDISPLAY
290
     0
  9
$INSUNITS
 70
     0
  9
$HYPERLINKBASE
  1

  9
$STYLESHEET
  1
monochrome.ctb
  9
$XEDIT
290
     1
  9
$CEPSNTYPE
380
     0
  9
$PSTYLEMODE
290
     1
  9
$FINGERPRINTGUID
  2
{CC7D6DEE-A9F1-4F3E-AC95-C84B62CCA3FD}
  9
$VERSIONGUID
  2
{FA68668F-EDCD-4755-9702-9499E53D029E}
  9
$EXTNAMES
290
     1
  9
$PSVPSCALE
 40
0.0
  9
$OLESTARTUP
290
     0
  9
$SORTENTS
280
   127
  9
$INDEXCTL
280
     0
  9
$HIDETEXT
280
     0
  9
$XCLIPFRAME
290
     0
  9
$HALOGAP
280
     0
  9
$OBSCOLOR
 70
   257
  9
$OBSLTYPE
280
     0
  9
$INTERSECTIONDISPLAY
280
     0
  9
$INTERSECTIONCOLOR
 70
   257
  9
$DIMASSOC
280
     1
  9
$PROJECTNAME
  1

  0
ENDSEC
  0
SECTION
  2
CLASSES
  0
CLASS
  1
ACDBDICTIONARYWDFLT
  2
AcDbDictionaryWithDefault
  3
ObjectDBX Classes
 90
        0
 91
        1
280
     0
281
     0
  0
CLASS
  1
DICTIONARYVAR
  2
AcDbDictionaryVar
  3
ObjectDBX Classes
 90
        0
 91
       10
280
     0
281
     0
  0
CLASS
  1
MATERIAL
  2
AcDbMaterial
  3
ObjectDBX Classes
 90
     1153
 91
        3
280
     0
281
     0
  0
CLASS
  1
VISUALSTYLE
  2
AcDbVisualStyle
  3
ObjectDBX Classes
 90
     4095
 91
       24
280
     0
281
     0
  0
CLASS
  1
TABLESTYLE
  2
AcDbTableStyle
  3
ObjectDBX Classes
 90
     4095
 91
        1
280
     0
281
     0
  0
CLASS
  1
SCALE
  2
AcDbScale
  3
ObjectDBX Classes
 90
     1153
 91
       17
280
     0
281
     0
  0
CLASS
  1
MLEADERSTYLE
  2
AcDbMLeaderStyle
  3
ACDB_MLEADERSTYLE_CLASS
 90
     4095
 91
        1
280
     0
281
     0
  0
CLASS
  1
SORTENTSTABLE
  2
AcDbSortentsTable
  3
ObjectDBX Classes
 90
        0
 91
        1
280
     0
281
     0
  0
CLASS
  1
CELLSTYLEMAP
  2
AcDbCellStyleMap
  3
ObjectDBX Classes
 90
     1152
 91
        2
280
     0
281
     0
  0
ENDSEC
  0
SECTION
  2
TABLES
  0
TABLE
  2
VPORT
  5
8
102
{ACAD_XDICTIONARY
360
A2D3
102
}
330
0
100
AcDbSymbolTable
 70
     1
  0
VPORT
  5
5F61
330
8
100
AcDbSymbolTableRecord
100
AcDbViewportTableRecord
  2
*Active
 70
     0
 10
0.0
 20
0.0
 11
1.0
 21
1.0
 12
2290.437326689431
 22
333.4041061803599
 13
0.0
 23
0.0
 14
1.0
 24
1.0
 15
0.0
 25
0.0
 16
0.0
 26
0.0
 36
1.0
 17
0.0
 27
0.0
 37
0.0
 40
318.6699387976089
 41
2.519736842105263
 42
50.0
 43
0.0
 44
0.0
 50
0.0
 51
0.0
 71
     0
 72
   100
 73
     1
 74
     1
 75
     0
 76
     0
 77
     0
 78
     0
281
     0
 65
     1
110
0.0
120
0.0
130
0.0
111
1.0
121
0.0
131
0.0
112
0.0
122
1.0
132
0.0
 79
     0
146
0.0
1001
ACAD_NAV_VCDISPLAY
1070
     3
  0
ENDTAB
  0
TABLE
  2
LTYPE
  5
5
330
0
100
AcDbSymbolTable
 70
     3
  0
LTYPE
  5
13
330
5
100
AcDbSymbolTableRecord
100
AcDbLinetypeTableRecord
  2
ByBlock
 70
     0
  3

 72
    65
 73
     0
 40
0.0
  0
LTYPE
  5
14
330
5
100
AcDbSymbolTableRecord
100
AcDbLinetypeTableRecord
  2
ByLayer
 70
     0
  3

 72
    65
 73
     0
 40
0.0
  0
LTYPE
  5
15
330
5
100
AcDbSymbolTableRecord
100
AcDbLinetypeTableRecord
  2
CONTINUOUS
 70
     0
  3
実線
 72
    65
 73
     0
 40
0.0
  0
LTYPE
  5
25
330
5
100
AcDbSymbolTableRecord
100
AcDbLinetypeTableRecord
  2
CENTER1
 70
     0
  3
----- - ----- - ----- - ----- - 
 72
    65
 73
     4
 40
10.0
 49
6.25
 74
     0
 49
-1.25
 74
     0
 49
1.25
 74
     0
 49
-1.25
 74
     0
  0
LTYPE
  5
44
330
5
100
AcDbSymbolTableRecord
100
AcDbLinetypeTableRecord
  2
PLINE2
 70
     0
  3
------     -----------     -----
 72
    65
 73
     2
 40
3.0
 49
2.1
 74
     0
 49
-0.9
 74
     0
  0
ENDTAB
  0
TABLE
  2
LAYER
  5
2
102
{ACAD_XDICTIONARY
360
175
102
}
330
0
100
AcDbSymbolTable
 70
     6
  0
LAYER
  5
10
102
{ACAD_XDICTIONARY
360
655F
102
}
330
2
100
AcDbSymbolTableRecord
100
AcDbLayerTableRecord
  2
0
 70
     0
 62
     7
  6
CONTINUOUS
370
    -3
390
F
  0
LAYER
  5
128
330
2
100
AcDbSymbolTableRecord
100
AcDbLayerTableRecord
  2
Defpoints
 70
     0
 62
     7
  6
CONTINUOUS
290
     0
370
    -3
390
F
  0
LAYER
  5
178
102
{ACAD_XDICTIONARY
360
6561
102
}
330
2
100
AcDbSymbolTableRecord
100
AcDbLayerTableRecord
  2
寸法
 70
     0
 62
     7
  6
CONTINUOUS
370
    -3
390
F
  0
LAYER
  5
179
102
{ACAD_XDICTIONARY
360
6563
102
}
330
2
100
AcDbSymbolTableRecord
100
AcDbLayerTableRecord
  2
躯体と製品
 70
     0
 62
     7
  6
CONTINUOUS
370
    -3
390
F
  0
LAYER
  5
4F62
102
{ACAD_XDICTIONARY
360
6565
102
}
330
2
100
AcDbSymbolTableRecord
100
AcDbLayerTableRecord
  2
文字-記号
 70
     0
 62
     7
  6
CONTINUOUS
370
    -3
390
F
  0
LAYER
  5
69B5
330
2
100
AcDbSymbolTableRecord
100
AcDbLayerTableRecord
  2
中心線
 70
     0
 62
     7
  6
CONTINUOUS
370
    -3
390
F
1001
AcAecLayerStandard
1000

1000

1001
AcCmTransparency
1071
        0
  0
ENDTAB
  0
TABLE
  2
STYLE
  5
3
330
0
100
AcDbSymbolTable
 70
     3
  0
STYLE
  5
11
330
3
100
AcDbSymbolTableRecord
100
AcDbTextStyleTableRecord
  2
STANDARD
 70
     0
 40
0.0
 41
1.0
 50
0.0
 71
     0
 42
0.2
  3
txt
  4
bigfont.shx
  0
STYLE
  5
123
330
3
100
AcDbSymbolTableRecord
100
AcDbTextStyleTableRecord
  2
ACAD
 70
     0
 40
0.0
 41
1.0
 50
0.0
 71
     0
 42
5.0
  3
romans.shx
  4
extfont.shx
  0
ENDTAB
  0
TABLE
  2
VIEW
  5
6
330
0
100
AcDbSymbolTable
 70
     0
  0
ENDTAB
  0
TABLE
  2
UCS
  5
7
330
0
100
AcDbSymbolTable
 70
     0
  0
ENDTAB
  0
TABLE
  2
APPID
  5
9
330
0
100
AcDbSymbolTable
 70
    10
  0
APPID
  5
12
330
9
100
AcDbSymbolTableRecord
100
AcDbRegAppTableRecord
  2
ACAD
 70
     0
  0
APPID
  5
5FB2
330
9
100
AcDbSymbolTableRecord
100
AcDbRegAppTableRecord
  2
ACAD_NAV_VCDISPLAY
 70
     0
  0
APPID
  5
629D
330
9
100
AcDbSymbolTableRecord
100
AcDbRegAppTableRecord
  2
ACAD_EXEMPT_FROM_CAD_STANDARDS
 70
     0
  0
APPID
  5
69B6
330
9
100
AcDbSymbolTableRecord
100
AcDbRegAppTableRecord
  2
AcAecLayerStandard
 70
     0
  0
APPID
  5
69B7
330
9
100
AcDbSymbolTableRecord
100
AcDbRegAppTableRecord
  2
AcCmTransparency
 70
     0
  0
APPID
  5
9926
330
9
100
AcDbSymbolTableRecord
100
AcDbRegAppTableRecord
  2
ACAD_PSEXT
 70
     0
  0
APPID
  5
A309
330
9
100
AcDbSymbolTableRecord
100
AcDbRegAppTableRecord
  2
ACAD_MLEADERVER
 70
     0
  0
APPID
  5
A312
330
9
100
AcDbSymbolTableRecord
100
AcDbRegAppTableRecord
  2
AcadAnnoPO
 70
     0
  0
APPID
  5
A313
330
9
100
AcDbSymbolTableRecord
100
AcDbRegAppTableRecord
  2
ACAD_DSTYLE_DIMJAG
 70
     0
  0
APPID
  5
A314
330
9
100
AcDbSymbolTableRecord
100
AcDbRegAppTableRecord
  2
ACAD_DSTYLE_DIMTALN
 70
     0
  0
ENDTAB
  0
TABLE
  2
DIMSTYLE
  5
A
330
0
100
AcDbSymbolTable
 70
     3
100
AcDbDimStyleTable
 71
     1
340
126
  0
DIMSTYLE
105
11C
330
A
100
AcDbSymbolTableRecord
100
AcDbDimStyleTableRecord
  2
Standard
 70
     0
340
11
  0
DIMSTYLE
105
126
102
{ACAD_REACTORS
330
8B2A
330
8B2B
330
8B94
102
}
330
A
100
AcDbSymbolTableRecord
100
AcDbDimStyleTableRecord
  2
AutoCAD
 70
     0
 41
5.0
 42
0.0
 44
0.0
 73
     0
 77
     1
140
6.5
147
3.0
174
     1
176
     4
177
     4
178
     3
271
     0
272
     0
289
     0
340
123
341
15B0
342
A7F4
1001
ACAD_DSTYLE_DIMJAG
1070
   388
1040
1.5
1001
ACAD_DSTYLE_DIMTALN
1070
   392
1070
     0
  0
ENDTAB
  0
TABLE
  2
BLOCK_RECORD
  5
1
330
0
100
AcDbSymbolTable
 70
     6
  0
BLOCK_RECORD
  5
1E
102
{ACAD_XDICTIONARY
360
28B
102
}
330
1
100
AcDbSymbolTableRecord
100
AcDbBlockTableRecord
  2
*Model_Space
340
21
  0
BLOCK_RECORD
  5
1A
102
{ACAD_XDICTIONARY
360
28D
102
}
330
1
100
AcDbSymbolTableRecord
100
AcDbBlockTableRecord
  2
*Paper_Space
340
1D
  0
BLOCK_RECORD
  5
15B0
330
1
100
AcDbSymbolTableRecord
100
AcDbBlockTableRecord
  2
_None
340
0
  0
BLOCK_RECORD
  5
8C3C
330
1
100
AcDbSymbolTableRecord
100
AcDbBlockTableRecord
  2
*D1
340
0
  0
BLOCK_RECORD
  5
8C46
330
1
100
AcDbSymbolTableRecord
100
AcDbBlockTableRecord
  2
*D2
340
0
  0
BLOCK_RECORD
  5
8C50
330
1
100
AcDbSymbolTableRecord
100
AcDbBlockTableRecord
  2
*D3
340
0
  0
BLOCK_RECORD
  5
A7F4
330
1
100
AcDbSymbolTableRecord
100
AcDbBlockTableRecord
  2
_Small
340
0
102
{BLKREFS
331
A7F9
331
A7FA
331
A800
331
A801
331
A809
331
A80A
102
}
  0
ENDTAB
  0
ENDSEC
  0
SECTION
  2
BLOCKS
  0
BLOCK
  5
1F
330
1E
100
AcDbEntity
  8
0
100
AcDbBlockBegin
  2
*Model_Space
 70
     0
 10
0.0
 20
0.0
 30
0.0
  3
*Model_Space
  1

  0
ENDBLK
  5
20
330
1E
100
AcDbEntity
  8
0
100
AcDbBlockEnd
  0
BLOCK
  5
1B
330
1A
100
AcDbEntity
 67
     1
  8
0
100
AcDbBlockBegin
  2
*Paper_Space
 70
     0
 10
0.0
 20
0.0
 30
0.0
  3
*Paper_Space
  1

  0
ENDBLK
  5
1C
330
1A
100
AcDbEntity
 67
     1
  8
0
100
AcDbBlockEnd
  0
BLOCK
  5
15B1
330
15B0
100
AcDbEntity
  8
0
100
AcDbBlockBegin
  2
_None
 70
     0
 10
0.0
 20
0.0
 30
0.0
  3
_None
  1

  0
ENDBLK
  5
15B2
330
15B0
100
AcDbEntity
  8
0
100
AcDbBlockEnd
  0
BLOCK
  5
8C3D
330
8C3C
100
AcDbEntity
  8
0
100
AcDbBlockBegin
  2
*D1
 70
     1
 10
0.0
 20
0.0
 30
0.0
  3
*D1
  1

  0
LINE
  5
A7F8
330
8C3C
100
AcDbEntity
  8
寸法
  6
Continuous
 62
     4
440
 16777216
370
    -2
100
AcDbLine
 10
2219.420370058806
 20
336.8609152567245
 30
0.0
 11
2219.420370058806
 21
365.8609152567246
 31
0.0
  0
INSERT
  5
A7F9
330
8C3C
100
AcDbEntity
  8
寸法
  6
Continuous
 62
     4
440
 16777216
370
    -2
100
AcDbBlockReference
  2
_Small
 10
2219.420370058806
 20
336.8609152567245
 30
0.0
 41
5.0
 42
5.0
 43
5.0
 50
270.0
  0
INSERT
  5
A7FA
330
8C3C
100
AcDbEntity
  8
寸法
  6
Continuous
 62
     4
440
 16777216
370
    -2
100
AcDbBlockReference
  2
_Small
 10
2219.420370058806
 20
365.8609152567246
 30
0.0
 41
5.0
 42
5.0
 43
5.0
 50
90.0
  0
MTEXT
  5
A7FB
330
8C3C
100
AcDbEntity
  8
寸法
  6
Continuous
 62
     3
440
 16777216
100
AcDbMText
 10
2213.170370058806
 20
351.3609152567249
 30
0.0
 40
6.5
 41
0.0
 71
     5
 72
     1
  1
\A1;29
  7
ACAD
 11
0.0000000000000001
 21
1.0
 31
0.0
 73
     1
 44
1.0
  0
POINT
  5
A7FC
330
8C3C
100
AcDbEntity
  8
Defpoints
  6
Continuous
 62
     0
440
 16777216
100
AcDbPoint
 10
2219.420370058806
 20
336.8609152567245
 30
0.0
  0
POINT
  5
A7FD
330
8C3C
100
AcDbEntity
  8
Defpoints
  6
Continuous
 62
     0
440
 16777216
100
AcDbPoint
 10
2219.420370058806
 20
365.8609152567246
 30
0.0
  0
POINT
  5
A7FE
330
8C3C
100
AcDbEntity
  8
Defpoints
  6
Continuous
 62
     0
440
 16777216
100
AcDbPoint
 10
2219.420370058806
 20
365.8609152567246
 30
0.0
  0
ENDBLK
  5
8C3E
330
8C3C
100
AcDbEntity
  8
0
100
AcDbBlockEnd
  0
BLOCK
  5
8C47
330
8C46
100
AcDbEntity
  8
0
100
AcDbBlockBegin
  2
*D2
 70
     1
 10
0.0
 20
0.0
 30
0.0
  3
*D2
  1

  0
LINE
  5
A7FF
330
8C46
100
AcDbEntity
  8
寸法
  6
Continuous
 62
     4
440
 16777216
370
    -2
100
AcDbLine
 10
2582.170364058806
 20
284.8620232567244
 30
0.0
 11
2582.170364058806
 21
334.8617692567246
 31
0.0
  0
INSERT
  5
A800
330
8C46
100
AcDbEntity
  8
寸法
  6
Continuous
 62
     4
440
 16777216
370
    -2
100
AcDbBlockReference
  2
_Small
 10
2582.170364058806
 20
284.8620232567244
 30
0.0
 41
5.0
 42
5.0
 43
5.0
 50
270.0
  0
INSERT
  5
A801
330
8C46
100
AcDbEntity
  8
寸法
  6
Continuous
 62
     4
440
 16777216
370
    -2
100
AcDbBlockReference
  2
_Small
 10
2582.170364058806
 20
334.8617692567246
 30
0.0
 41
5.0
 42
5.0
 43
5.0
 50
90.0
  0
MTEXT
  5
A802
330
8C46
100
AcDbEntity
  8
寸法
  6
Continuous
 62
     3
440
 16777216
100
AcDbMText
 10
2575.920364058806
 20
309.8618962567249
 30
0.0
 40
6.5
 41
0.0
 71
     5
 72
     1
  1
\A1;50
  7
ACAD
 11
0.0000000000000001
 21
1.0
 31
0.0
 73
     1
 44
1.0
  0
POINT
  5
A803
330
8C46
100
AcDbEntity
  8
Defpoints
  6
Continuous
 62
     0
440
 16777216
100
AcDbPoint
 10
2582.170364058806
 20
284.8620232567244
 30
0.0
  0
POINT
  5
A804
330
8C46
100
AcDbEntity
  8
Defpoints
  6
Continuous
 62
     0
440
 16777216
100
AcDbPoint
 10
2582.170364058806
 20
334.8617692567246
 30
0.0
  0
POINT
  5
A805
330
8C46
100
AcDbEntity
  8
Defpoints
  6
Continuous
 62
     0
440
 16777216
100
AcDbPoint
 10
2582.170364058806
 20
334.8617692567246
 30
0.0
  0
ENDBLK
  5
8C48
330
8C46
100
AcDbEntity
  8
0
100
AcDbBlockEnd
  0
BLOCK
  5
8C51
330
8C50
100
AcDbEntity
  8
0
100
AcDbBlockBegin
  2
*D3
 70
     1
 10
0.0
 20
0.0
 30
0.0
  3
*D3
  1

  0
LINE
  5
A806
330
8C50
100
AcDbEntity
  8
寸法
  6
Continuous
 62
     4
440
 16777216
370
    -2
100
AcDbLine
 10
2599.719042058806
 20
218.8609152567246
 30
0.0
 11
2638.950923058807
 21
218.8609152567245
 31
0.0
  0
LINE
  5
A807
330
8C50
100
AcDbEntity
  8
寸法
  6
Continuous
 62
     4
440
 16777216
370
    -2
100
AcDbLine
 10
2599.719042058807
 20
365.8609152567246
 30
0.0
 11
2638.950923058807
 21
365.8609152567246
 31
0.0
  0
LINE
  5
A808
330
8C50
100
AcDbEntity
  8
寸法
  6
Continuous
 62
     4
440
 16777216
370
    -2
100
AcDbLine
 10
2638.950923058807
 20
218.8609152567245
 30
0.0
 11
2638.950923058807
 21
365.8609152567246
 31
0.0
  0
INSERT
  5
A809
330
8C50
100
AcDbEntity
  8
寸法
  6
Continuous
 62
     4
440
 16777216
370
    -2
100
AcDbBlockReference
  2
_Small
 10
2638.950923058807
 20
218.8609152567245
 30
0.0
 41
5.0
 42
5.0
 43
5.0
 50
270.0
  0
INSERT
  5
A80A
330
8C50
100
AcDbEntity
  8
寸法
  6
Continuous
 62
     4
440
 16777216
370
    -2
100
AcDbBlockReference
  2
_Small
 10
2638.950923058807
 20
365.8609152567246
 30
0.0
 41
5.0
 42
5.0
 43
5.0
 50
90.0
  0
MTEXT
  5
A80B
330
8C50
100
AcDbEntity
  8
寸法
  6
Continuous
 62
     3
440
 16777216
100
AcDbMText
 10
2632.700923058808
 20
292.360915256725
 30
0.0
 40
6.5
 41
0.0
 71
     5
 72
     1
  1
\A1;h
  7
ACAD
 11
0.0000000000000001
 21
1.0
 31
0.0
 73
     1
 44
1.0
  0
POINT
  5
A80C
330
8C50
100
AcDbEntity
  8
Defpoints
  6
Continuous
 62
     0
440
 16777216
100
AcDbPoint
 10
2599.719042058806
 20
218.8609152567246
 30
0.0
  0
POINT
  5
A80D
330
8C50
100
AcDbEntity
  8
Defpoints
  6
Continuous
 62
     0
440
 16777216
100
AcDbPoint
 10
2599.719042058807
 20
365.8609152567246
 30
0.0
  0
POINT
  5
A80E
330
8C50
100
AcDbEntity
  8
Defpoints
  6
Continuous
 62
     0
440
 16777216
100
AcDbPoint
 10
2638.950923058807
 20
365.8609152567246
 30
0.0
  0
ENDBLK
  5
8C52
330
8C50
100
AcDbEntity
  8
0
100
AcDbBlockEnd
  0
BLOCK
  5
A7F6
330
A7F4
100
AcDbEntity
  8
0
100
AcDbBlockBegin
  2
_Small
 70
     0
 10
0.0
 20
0.0
 30
0.0
  3
_Small
  1

  0
CIRCLE
  5
A7F5
330
A7F4
100
AcDbEntity
  8
0
  6
ByBlock
 62
     0
370
    -2
100
AcDbCircle
 10
0.0
 20
0.0
 30
0.0
 40
0.25
  0
ENDBLK
  5
A7F7
330
A7F4
100
AcDbEntity
  8
0
100
AcDbBlockEnd
  0
ENDSEC
  0
SECTION
  2
ENTITIES
  0
CIRCLE
  5
8ADD
330
1E
100
AcDbEntity
  8
躯体と製品
  6
Continuous
 62
     3
100
AcDbCircle
 10
2469.818804058806
 20
342.6609335672714
 30
0.0
 40
2.499988
  0
CIRCLE
  5
8ADE
330
1E
100
AcDbEntity
  8
躯体と製品
  6
Continuous
 62
     3
100
AcDbCircle
 10
2469.818804058806
 20
342.6609335672714
 30
0.0
 40
2.999983999999999
  0
CIRCLE
  5
8ADF
330
1E
100
AcDbEntity
  8
躯体と製品
  6
Continuous
 62
     3
100
AcDbCircle
 10
2469.818804058806
 20
342.6609335672714
 30
0.0
 40
4.999973999999999
  0
DIMENSION
  5
8B2A
330
1E
100
AcDbEntity
  8
寸法
  6
Continuous
100
AcDbDimension
  2
*D1
 10
2219.420370058806
 20
365.8609152567246
 30
0.0
 11
2213.170370058806
 21
351.3609152567249
 31
0.0
 70
    32
 71
     5
 42
29.00000000000011
  3
AutoCAD
100
AcDbAlignedDimension
 13
2219.420370058806
 23
336.8609152567245
 33
0.0
 14
2219.420370058806
 24
365.8609152567246
 34
0.0
 50
90.0
100
AcDbRotatedDimension
  0
DIMENSION
  5
8B2B
330
1E
100
AcDbEntity
  8
寸法
  6
Continuous
100
AcDbDimension
  2
*D2
 10
2582.170364058806
 20
334.8617692567246
 30
0.0
 11
2575.920364058806
 21
309.8618962567249
 31
0.0
 70
    32
 71
     5
 42
49.99974600000019
  3
AutoCAD
100
AcDbAlignedDimension
 13
2582.170364058806
 23
284.8620232567244
 33
0.0
 14
2582.170364058806
 24
334.8617692567246
 34
0.0
 50
90.0
100
AcDbRotatedDimension
  0
LWPOLYLINE
  5
8B2C
330
1E
100
AcDbEntity
  8
躯体と製品
  6
Continuous
 62
     4
100
AcDbPolyline
 90
        2
 70
     0
 43
0.0
 10
2469.818804058806
 20
244.1608888778314
 10
2469.818804058806
 20
238.660888877833
  0
LWPOLYLINE
  5
8B2D
330
1E
100
AcDbEntity
  8
躯体と製品
  6
Continuous
 62
     4
100
AcDbPolyline
 90
        2
 70
     0
 43
0.0
 10
2478.814983461736
 20
238.6608888778328
 10
2478.814983461736
 20
244.1608888778314
  0
LWPOLYLINE
  5
8B2E
330
1E
100
AcDbEntity
  8
躯体と製品
  6
Continuous
 62
     4
100
AcDbPolyline
 90
        2
 70
     0
 43
0.0
 10
2460.822624655874
 20
238.6608888778332
 10
2460.822624655874
 20
244.1608888778314
  0
LWPOLYLINE
  5
8B2F
330
1E
100
AcDbEntity
  8
躯体と製品
  6
Continuous
 62
     4
100
AcDbPolyline
 90
        2
 70
     0
 43
0.0
 10
2465.32071435734
 20
237.6608888778313
 10
2474.316893760271
 20
237.6608888778313
  0
LWPOLYLINE
  5
8B86
330
1E
100
AcDbEntity
  8
中心線
  6
CENTER1
100
AcDbPolyline
 90
        2
 70
     0
 43
0.0
 10
2090.722442058805
 20
175.4204588554139
 10
2090.722442058805
 20
358.7248009767197
  0
LWPOLYLINE
  5
8B87
330
1E
100
AcDbEntity
  8
中心線
  6
CENTER1
100
AcDbPolyline
 90
        2
 70
     0
 43
0.0
 10
2469.818804058806
 20
175.4204588554139
 10
2469.818804058806
 20
358.7248009767197
  0
LWPOLYLINE
  5
8B8A
330
1E
100
AcDbEntity
  8
文字-記号
  6
Continuous
 62
     7
100
AcDbPolyline
 90
        3
 70
     0
 43
0.0
 10
2106.429579855959
 20
264.8752119953325
 10
2123.931350598238
 20
234.5612558472829
 10
2202.025247980646
 20
234.5612558472829
  0
TEXT
  5
8B8B
330
1E
100
AcDbEntity
  8
文字-記号
  6
Continuous
 62
     7
100
AcDbText
 10
2126.392288221958
 20
237.1282861472419
 30
0.0
 40
6.205583999999999
  1
メインクッションゴム
100
AcDbText
  0
LWPOLYLINE
  5
8B8C
330
1E
100
AcDbEntity
  8
文字-記号
  6
Continuous
 62
     7
100
AcDbPolyline
 90
        3
 70
     0
 43
0.0
 10
2066.259631191406
 20
307.5993878831964
 10
2051.166962007021
 20
281.4581180340127
 10
2019.0885905352
 20
281.4581180340127
  0
TEXT
  5
8B8D
330
1E
100
AcDbEntity
  8
文字-記号
  6
Continuous
 62
     7
100
AcDbText
 10
2023.268992973665
 20
283.8475520340126
 30
0.0
 40
6.205583999999999
  1
大引鋼
100
AcDbText
  0
LWPOLYLINE
  5
8B8E
330
1E
100
AcDbEntity
  8
文字-記号
  6
Continuous
 62
     7
100
AcDbPolyline
 90
        3
 70
     0
 43
0.0
 10
2018.454850207622
 20
336.8609152567246
 10
2007.611501049988
 20
318.0796835914933
 10
1975.533129578168
 20
318.0796835914933
  0
TEXT
  5
8B8F
330
1E
100
AcDbEntity
  8
文字-記号
  6
Continuous
 62
     7
100
AcDbText
 10
1979.713532016632
 20
320.4691175914932
 30
0.0
 40
6.205583999999999
  1
根太鋼
100
AcDbText
  0
LWPOLYLINE
  5
8B90
330
1E
100
AcDbEntity
  8
文字-記号
  6
Continuous
 62
     7
100
AcDbPolyline
 90
        3
 70
     0
 43
0.0
 10
2352.256718058806
 20
284.8609152567245
 10
2337.16404887442
 20
258.7196454075408
 10
2305.0856774026
 20
258.7196454075408
  0
TEXT
  5
8B91
330
1E
100
AcDbEntity
  8
文字-記号
  6
Continuous
 62
     7
100
AcDbText
 10
2309.266079841064
 20
261.1090794075407
 30
0.0
 40
6.205583999999999
  1
大引鋼
100
AcDbText
  0
DIMENSION
  5
8B94
330
1E
100
AcDbEntity
  8
寸法
  6
Continuous
100
AcDbDimension
  2
*D3
 10
2638.950923058807
 20
365.8609152567246
 30
0.0
 11
2632.700923058808
 21
292.360915256725
 31
0.0
 70
    32
  1
h
 71
     5
 42
147.0
  3
AutoCAD
100
AcDbAlignedDimension
 13
2599.719042058806
 23
218.8609152567246
 33
0.0
 14
2599.719042058807
 24
365.8609152567246
 34
0.0
 50
90.0
100
AcDbRotatedDimension
  0
LWPOLYLINE
  5
8B95
330
1E
100
AcDbEntity
  8
躯体と製品
  6
Continuous
 62
     4
100
AcDbPolyline
 90
       13
 70
     0
 43
0.0
 10
2285.818804058806
 20
334.8609152567246
 10
2353.818804058806
 20
334.8609152567246
 10
2353.818804058806
 20
341.8609152567246
 10
2348.818804058806
 20
341.8609152567246
 10
2348.818804058806
 20
339.8609152567246
 10
2351.818804058806
 20
339.8609152567246
 10
2351.818804058806
 20
336.8609152567246
 10
2287.818804058806
 20
336.8609152567246
 10
2287.818804058806
 20
339.8609152567246
 10
2290.818804058806
 20
339.8609152567246
 10
2290.818804058806
 20
341.8609152567246
 10
2285.818804058806
 20
341.8609152567246
 10
2285.818804058806
 20
334.8609152567246
  0
LWPOLYLINE
  5
8B96
330
1E
100
AcDbEntity
  8
躯体と製品
  6
Continuous
 62
     4
100
AcDbPolyline
 90
       28
 70
     1
 43
0.0
 10
2335.618804058806
 20
365.8609152567243
 42
-0.4142135623730951
 10
2337.318804058806
 20
364.1609152567243
 10
2337.318804058806
 20
338.5609152567244
 42
0.4142135623730951
 10
2337.818804058806
 20
338.0609152567244
 10
2350.118804058806
 20
338.0609152567244
 42
0.4142135623730951
 10
2350.618804058806
 20
338.5609152567244
 10
2350.618804058806
 20
339.8609152567246
 10
2351.818804058806
 20
339.8609152567246
 10
2351.818804058806
 20
338.5609152567244
 42
-0.4142135623730951
 10
2350.118804058806
 20
336.8609152567246
 10
2337.818804058806
 20
336.8609152567246
 42
-0.4142135623730951
 10
2336.118804058806
 20
338.5609152567244
 10
2336.118804058806
 20
364.1609152567243
 42
0.4142135623730951
 10
2335.618804058806
 20
364.6609152567243
 10
2304.018804058806
 20
364.6609152567243
 42
0.4142135623730951
 10
2303.518804058807
 20
364.1609152567243
 10
2303.518804058807
 20
338.5609152567244
 42
-0.4142135623730951
 10
2301.818804058806
 20
336.8609152567246
 10
2289.518804058806
 20
336.8609152567246
 42
-0.4142135623730951
 10
2287.818804058806
 20
338.5609152567244
 10
2287.818804058806
 20
339.8609152567246
 10
2289.018804058807
 20
339.8609152567246
 10
2289.018804058807
 20
338.5609152567244
 42
0.4142135623730951
 10
2289.518804058806
 20
338.0609152567244
 10
2301.818804058806
 20
338.0609152567244
 42
0.4142135623730951
 10
2302.318804058806
 20
338.5609152567244
 10
2302.318804058806
 20
364.1609152567243
 42
-0.4142135623730951
 10
2304.018804058806
 20
365.8609152567243
  0
TEXT
  5
8B97
330
1E
100
AcDbEntity
  8
文字-記号
  6
Continuous
 62
     7
100
AcDbText
 10
2274.679547058806
 20
356.7140032567244
 30
0.0
 40
6.205583999999999
  1
根太鋼
100
AcDbText
  0
LWPOLYLINE
  5
8B98
330
1E
100
AcDbEntity
  8
躯体と製品
  6
Continuous
 62
     4
100
AcDbPolyline
 90
        2
 70
     0
 43
0.0
 10
2299.019804058788
 20
338.7099152567293
 10
2299.019804058788
 20
338.260915256736
  0
LWPOLYLINE
  5
8B99
330
1E
100
AcDbEntity
  8
躯体と製品
  6
Continuous
 62
     4
100
AcDbPolyline
 90
        2
 70
     0
 43
0.0
 10
2291.019804058788
 20
338.7099152567293
 10
2291.019804058788
 20
338.260915256736
  0
LWPOLYLINE
  5
8B9A
330
1E
100
AcDbEntity
  8
躯体と製品
  6
Continuous
 62
     4
100
AcDbPolyline
 90
        2
 70
     0
 43
0.0
 10
2298.819804058806
 20
338.0609152567244
 10
2295.019804058789
 20
338.0609152567244
  0
LWPOLYLINE
  5
8B9B
330
1E
100
AcDbEntity
  8
躯体と製品
  6
Continuous
 62
     4
100
AcDbPolyline
 90
        2
 70
     0
 43
0.0
 10
2291.019804058788
 20
338.2609152357813
 42
0.41421351636737
 10
2291.219804048322
 20
338.0609152567244
  0
LWPOLYLINE
  5
8B9C
330
1E
100
AcDbEntity
  8
躯体と製品
  6
Continuous
 62
     4
100
AcDbPolyline
 90
        2
 70
     0
 43
0.0
 10
2291.2198040588
 20
338.0609152567244
 10
2295.019804058789
 20
338.0609152567244
  0
LWPOLYLINE
  5
8B9D
330
1E
100
AcDbEntity
  8
躯体と製品
  6
Continuous
 62
     4
100
AcDbPolyline
 90
        2
 70
     0
 43
0.0
 10
2298.819804048329
 20
338.0609152567244
 42
0.4142135777083371
 10
2299.019804058818
 20
338.260915256736
  0
LWPOLYLINE
  5
8B9E
330
1E
100
AcDbEntity
  8
躯体と製品
  6
Continuous
 62
     4
100
AcDbPolyline
 90
        2
 70
     0
 43
0.0
 10
2298.784804058803
 20
339.8609152567419
 10
2295.019804058789
 20
339.8609152567419
  0
LWPOLYLINE
  5
8B9F
330
1E
100
AcDbEntity
  8
躯体と製品
  6
Continuous
 62
     4
100
AcDbPolyline
 90
        2
 70
     0
 43
0.0
 10
2298.784353187965
 20
339.8604127969497
 42
0.2144073790574085
 10
2295.019820225443
 20
341.0607717380821
  0
LWPOLYLINE
  5
8BA0
330
1E
100
AcDbEntity
  8
躯体と製品
  6
Continuous
 62
     4
100
AcDbPolyline
 90
        2
 70
     0
 43
0.0
 10
2291.254804058803
 20
339.8609152567419
 10
2291.019804058788
 20
338.7099152567293
  0
LWPOLYLINE
  5
8BA1
330
1E
100
AcDbEntity
  8
躯体と製品
  6
Continuous
 62
     4
100
AcDbPolyline
 90
        2
 70
     0
 43
0.0
 10
2295.019787474203
 20
341.0607717858415
 42
0.2144073836089342
 10
2291.255254553997
 20
339.8604124601019
  0
LWPOLYLINE
  5
8BA2
330
1E
100
AcDbEntity
  8
躯体と製品
  6
Continuous
 62
     4
100
AcDbPolyline
 90
        2
 70
     0
 43
0.0
 10
2291.254804058803
 20
339.8609152567419
 10
2295.019804058789
 20
339.8609152567419
  0
LWPOLYLINE
  5
8BA3
330
1E
100
AcDbEntity
  8
躯体と製品
  6
Continuous
 62
     4
100
AcDbPolyline
 90
        2
 70
     0
 43
0.0
 10
2298.784804058803
 20
339.8609152567419
 10
2299.019804058788
 20
338.7099152567293
  0
LWPOLYLINE
  5
8BA4
330
1E
100
AcDbEntity
  8
躯体と製品
  6
Continuous
 62
     4
100
AcDbPolyline
 90
        2
 70
     0
 43
0.0
 10
2348.619804058794
 20
338.7099152567293
 10
2348.619804058794
 20
338.260915256736
  0
LWPOLYLINE
  5
8BA5
330
1E
100
AcDbEntity
  8
躯体と製品
  6
Continuous
 62
     4
100
AcDbPolyline
 90
        2
 70
     0
 43
0.0
 10
2340.619804058794
 20
338.7099152567293
 10
2340.619804058794
 20
338.260915256736
  0
LWPOLYLINE
  5
8BA6
330
1E
100
AcDbEntity
  8
躯体と製品
  6
Continuous
 62
     4
100
AcDbPolyline
 90
        2
 70
     0
 43
0.0
 10
2348.419804058783
 20
338.0609152567244
 10
2344.619804058794
 20
338.0609152567244
  0
LWPOLYLINE
  5
8BA7
330
1E
100
AcDbEntity
  8
躯体と製品
  6
Continuous
 62
     4
100
AcDbPolyline
 90
        2
 70
     0
 43
0.0
 10
2340.619804058794
 20
338.2609152357813
 42
0.41421351636737
 10
2340.819804048329
 20
338.0609152567244
  0
LWPOLYLINE
  5
8BA8
330
1E
100
AcDbEntity
  8
躯体と製品
  6
Continuous
 62
     4
100
AcDbPolyline
 90
        2
 70
     0
 43
0.0
 10
2340.819804058806
 20
338.0609152567244
 10
2344.619804058794
 20
338.0609152567244
  0
LWPOLYLINE
  5
8BA9
330
1E
100
AcDbEntity
  8
躯体と製品
  6
Continuous
 62
     4
100
AcDbPolyline
 90
        2
 70
     0
 43
0.0
 10
2348.419804048305
 20
338.0609152567244
 42
0.4142135777083371
 10
2348.619804058794
 20
338.260915256736
  0
LWPOLYLINE
  5
8BAA
330
1E
100
AcDbEntity
  8
躯体と製品
  6
Continuous
 62
     4
100
AcDbPolyline
 90
        2
 70
     0
 43
0.0
 10
2348.384804058808
 20
339.8609152567419
 10
2344.619804058794
 20
339.8609152567419
  0
LWPOLYLINE
  5
8BAB
330
1E
100
AcDbEntity
  8
躯体と製品
  6
Continuous
 62
     4
100
AcDbPolyline
 90
        2
 70
     0
 43
0.0
 10
2348.384353187971
 20
339.8604127969497
 42
0.2144073790574085
 10
2344.619820225448
 20
341.0607717380821
  0
LWPOLYLINE
  5
8BAC
330
1E
100
AcDbEntity
  8
躯体と製品
  6
Continuous
 62
     4
100
AcDbPolyline
 90
        2
 70
     0
 43
0.0
 10
2340.85480405878
 20
339.8609152567419
 10
2340.619804058794
 20
338.7099152567293
  0
LWPOLYLINE
  5
8BAD
330
1E
100
AcDbEntity
  8
躯体と製品
  6
Continuous
 62
     4
100
AcDbPolyline
 90
        2
 70
     0
 43
0.0
 10
2344.61978747418
 20
341.0607717858415
 42
0.2144073836089342
 10
2340.855254553974
 20
339.8604124601019
  0
LWPOLYLINE
  5
8BAE
330
1E
100
AcDbEntity
  8
躯体と製品
  6
Continuous
 62
     4
100
AcDbPolyline
 90
        2
 70
     0
 43
0.0
 10
2340.85480405878
 20
339.8609152567419
 10
2344.619804058794
 20
339.8609152567419
  0
LWPOLYLINE
  5
8BAF
330
1E
100
AcDbEntity
  8
躯体と製品
  6
Continuous
 62
     4
100
AcDbPolyline
 90
        2
 70
     0
 43
0.0
 10
2348.384804058808
 20
339.8609152567419
 10
2348.619804058794
 20
338.7099152567293
  0
LWPOLYLINE
  5
8BB0
330
1E
100
AcDbEntity
  8
文字-記号
  6
Continuous
 62
     7
100
AcDbPolyline
 90
        3
 70
     0
 43
0.0
 10
2271.865480058806
 20
354.3245692567243
 10
2297.098495058806
 20
354.3245692567243
 10
2302.318804058806
 20
346.5496409801205
  0
LWPOLYLINE
  5
8C35
330
1E
100
AcDbEntity
  8
躯体と製品
  6
Continuous
 62
     4
100
AcDbPolyline
 90
        2
 70
     0
 43
0.0
 10
2085.531222624344
 20
237.6609168778314
 10
2082.934249324364
 20
237.6609168778314
  0
LWPOLYLINE
  5
8C38
330
1E
100
AcDbEntity
  8
躯体と製品
  6
Continuous
 62
     4
100
AcDbPolyline
 90
        2
 70
     0
 43
0.0
 10
2080.337276024384
 20
238.6609168778314
 10
2080.337276024384
 20
244.1609168778314
  0
LWPOLYLINE
  5
8C39
330
1E
100
AcDbEntity
  8
躯体と製品
  6
Continuous
 62
     4
100
AcDbPolyline
 90
        2
 70
     0
 43
0.0
 10
2101.113062424226
 20
238.6609168778317
 10
2101.113062424227
 20
244.1609168778314
  0
LWPOLYLINE
  5
8C3A
330
1E
100
AcDbEntity
  8
躯体と製品
  6
Continuous
 62
     4
100
AcDbPolyline
 90
        2
 70
     0
 43
0.0
 10
2095.919115824263
 20
244.1609168778314
 10
2095.919115824269
 20
238.6609168778288
  0
LWPOLYLINE
  5
8C3B
330
1E
100
AcDbEntity
  8
躯体と製品
  6
Continuous
 62
     4
100
AcDbPolyline
 90
        2
 70
     0
 43
0.0
 10
2085.531222624339
 20
244.1609168778314
 10
2085.531222624344
 20
238.6609168778333
  0
CIRCLE
  5
8C73
330
1E
100
AcDbEntity
  8
躯体と製品
  6
Continuous
 62
     6
100
AcDbCircle
 10
2083.377092058805
 20
215.4899272567246
 30
0.0
 40
0.062502
  0
CIRCLE
  5
8C74
330
1E
100
AcDbEntity
  8
躯体と製品
  6
Continuous
 62
     6
100
AcDbCircle
 10
2083.489662058805
 20
211.0996852567246
 30
0.0
 40
0.062502
  0
CIRCLE
  5
8C75
330
1E
100
AcDbEntity
  8
躯体と製品
  6
Continuous
 62
     6
100
AcDbCircle
 10
2083.452138058806
 20
205.2460292567246
 30
0.0
 40
0.062502
  0
CIRCLE
  5
8C76
330
1E
100
AcDbEntity
  8
躯体と製品
  6
Continuous
 62
     6
100
AcDbCircle
 10
2083.058142058806
 20
200.8557872567246
 30
0.0
 40
0.062502
  0
CIRCLE
  5
8C77
330
1E
100
AcDbEntity
  8
躯体と製品
  6
Continuous
 62
     6
100
AcDbCircle
 10
2083.452138058806
 20
196.4280212567245
 30
0.0
 40
0.062502
  0
CIRCLE
  5
8C78
330
1E
100
AcDbEntity
  8
躯体と製品
  6
Continuous
 62
     6
100
AcDbCircle
 10
2083.452138058806
 20
192.7694852567246
 30
0.0
 40
0.062502
  0
CIRCLE
  5
8C79
330
1E
100
AcDbEntity
  8
躯体と製品
  6
Continuous
 62
     6
100
AcDbCircle
 10
2083.377092058805
 20
189.4123172567246
 30
0.0
 40
0.062502
  0
CIRCLE
  5
8C7A
330
1E
100
AcDbEntity
  8
躯体と製品
  6
Continuous
 62
     6
100
AcDbCircle
 10
2083.508424058805
 20
186.6168212567247
 30
0.0
 40
0.062502
  0
CIRCLE
  5
8C7B
330
1E
100
AcDbEntity
  8
躯体と製品
  6
Continuous
 62
     6
100
AcDbCircle
 10
2085.215740058805
 20
187.3672912567247
 30
0.0
 40
0.062502
  0
CIRCLE
  5
8C7C
330
1E
100
AcDbEntity
  8
躯体と製品
  6
Continuous
 62
     6
100
AcDbCircle
 10
2085.872400058805
 20
185.3597872567247
 30
0.0
 40
0.062502
  0
CIRCLE
  5
8C7D
330
1E
100
AcDbEntity
  8
躯体と製品
  6
Continuous
 62
     6
100
AcDbCircle
 10
2087.371254058806
 20
187.3672912567247
 30
0.0
 40
0.062502
  0
CIRCLE
  5
8C7E
330
1E
100
AcDbEntity
  8
躯体と製品
  6
Continuous
 62
     6
100
AcDbCircle
 10
2089.359996058806
 20
185.4723572567247
 30
0.0
 40
0.062502
  0
CIRCLE
  5
8C7F
330
1E
100
AcDbEntity
  8
躯体と製品
  6
Continuous
 62
     6
100
AcDbCircle
 10
2091.217406058806
 20
187.2547212567247
 30
0.0
 40
0.062502
  0
CIRCLE
  5
8C80
330
1E
100
AcDbEntity
  8
躯体と製品
  6
Continuous
 62
     6
100
AcDbCircle
 10
2092.981008058806
 20
185.3785492567247
 30
0.0
 40
0.062502
  0
CIRCLE
  5
8C81
330
1E
100
AcDbEntity
  8
躯体と製品
  6
Continuous
 62
     6
100
AcDbCircle
 10
2093.297656058806
 20
187.3860532567246
 30
0.0
 40
0.062502
  0
CIRCLE
  5
8C82
330
1E
100
AcDbEntity
  8
躯体と製品
  6
Continuous
 62
     6
100
AcDbCircle
 10
2095.417732058805
 20
186.3166352567246
 30
0.0
 40
0.062502
  0
CIRCLE
  5
8C83
330
1E
100
AcDbEntity
  8
躯体と製品
  6
Continuous
 62
     6
100
AcDbCircle
 10
2097.988086058805
 20
185.1346452567247
 30
0.0
 40
0.062502
  0
CIRCLE
  5
8C84
330
1E
100
AcDbEntity
  8
躯体と製品
  6
Continuous
 62
     6
100
AcDbCircle
 10
2097.500282058806
 20
187.4423372567246
 30
0.0
 40
0.062502
  0
CIRCLE
  5
8C85
330
1E
100
AcDbEntity
  8
躯体と製品
  6
Continuous
 62
     6
100
AcDbCircle
 10
2098.400844058806
 20
190.3691652567246
 30
0.0
 40
0.062502
  0
CIRCLE
  5
8C86
330
1E
100
AcDbEntity
  8
躯体と製品
  6
Continuous
 62
     6
100
AcDbCircle
 10
2097.500282058806
 20
192.7132012567246
 30
0.0
 40
0.062502
  0
CIRCLE
  5
8C87
330
1E
100
AcDbEntity
  8
躯体と製品
  6
Continuous
 62
     6
100
AcDbCircle
 10
2098.213228058805
 20
196.0152632567246
 30
0.0
 40
0.062502
  0
CIRCLE
  5
8C88
330
1E
100
AcDbEntity
  8
躯体と製品
  6
Continuous
 62
     6
100
AcDbCircle
 10
2097.350188058805
 20
199.0546612567246
 30
0.0
 40
0.062502
  0
CIRCLE
  5
8C89
330
1E
100
AcDbEntity
  8
躯体と製品
  6
Continuous
 62
     6
100
AcDbCircle
 10
2098.307036058805
 20
202.1315832567246
 30
0.0
 40
0.062502
  0
CIRCLE
  5
8C8A
330
1E
100
AcDbEntity
  8
躯体と製品
  6
Continuous
 62
     6
100
AcDbCircle
 10
2098.044372058806
 20
205.3961232567246
 30
0.0
 40
0.062502
  0
CIRCLE
  5
8C8B
330
1E
100
AcDbEntity
  8
躯体と製品
  6
Continuous
 62
     6
100
AcDbCircle
 10
2098.063134058805
 20
209.2422752567245
 30
0.0
 40
0.062502
  0
CIRCLE
  5
8C8C
330
1E
100
AcDbEntity
  8
躯体と製品
  6
Continuous
 62
     6
100
AcDbCircle
 10
2098.457130058806
 20
212.8257632567247
 30
0.0
 40
0.062502
  0
CIRCLE
  5
8C8D
330
1E
100
AcDbEntity
  8
躯体と製品
  6
Continuous
 62
     6
100
AcDbCircle
 10
2097.519044058806
 20
215.3398332567246
 30
0.0
 40
0.062502
  0
CIRCLE
  5
8C8E
330
1E
100
AcDbEntity
  8
躯体と製品
  6
Continuous
 62
     6
100
AcDbCircle
 10
2098.438368058805
 20
217.6287632567245
 30
0.0
 40
0.062502
  0
CIRCLE
  5
8C8F
330
1E
100
AcDbEntity
  8
躯体と製品
  6
Continuous
 62
     6
100
AcDbCircle
 10
2084.014990058805
 20
217.6850492567246
 30
0.0
 40
0.062502
  0
CIRCLE
  5
8C98
330
1E
100
AcDbEntity
  8
躯体と製品
  6
Continuous
 62
     6
100
AcDbCircle
 10
2081.911100058805
 20
208.0348832567247
 30
0.0
 40
0.062502
  0
CIRCLE
  5
8C99
330
1E
100
AcDbEntity
  8
躯体と製品
  6
Continuous
 62
     6
100
AcDbCircle
 10
2081.871008058806
 20
197.8918492567246
 30
0.0
 40
0.062502
  0
CIRCLE
  5
8C9A
330
1E
100
AcDbEntity
  8
躯体と製品
  6
Continuous
 62
     6
100
AcDbCircle
 10
2081.670554058806
 20
191.6777372567246
 30
0.0
 40
0.062502
  0
CIRCLE
  5
8C9B
330
1E
100
AcDbEntity
  8
躯体と製品
  6
Continuous
 62
     6
100
AcDbCircle
 10
2081.610416058806
 20
186.7878112567246
 30
0.0
 40
0.062502
  0
CIRCLE
  5
8C9C
330
1E
100
AcDbEntity
  8
躯体と製品
  6
Continuous
 62
     6
100
AcDbCircle
 10
2099.118632058805
 20
199.1747632567246
 30
0.0
 40
0.062502
  0
CIRCLE
  5
8C9D
330
1E
100
AcDbEntity
  8
躯体と製品
  6
Continuous
 62
     6
100
AcDbCircle
 10
2099.098586058806
 20
192.8804692567245
 30
0.0
 40
0.062502
  0
CIRCLE
  5
8C9E
330
1E
100
AcDbEntity
  8
躯体と製品
  6
Continuous
 62
     6
100
AcDbCircle
 10
2099.539588058805
 20
187.4292672567247
 30
0.0
 40
0.062502
  0
CIRCLE
  5
8C9F
330
1E
100
AcDbEntity
  8
躯体と製品
  6
Continuous
 62
     6
100
AcDbCircle
 10
2099.519542058805
 20
212.0840792567246
 30
0.0
 40
0.062502
  0
CIRCLE
  5
8CA0
330
1E
100
AcDbEntity
  8
躯体と製品
  6
Continuous
 62
     6
100
AcDbCircle
 10
2099.760088058805
 20
206.4512872567246
 30
0.0
 40
0.062502
  0
TEXT
  5
8CA7
330
1E
100
AcDbEntity
  8
文字-記号
  6
Continuous
 62
     7
100
AcDbText
 10
1993.808278802701
 20
238.2551537452079
 30
0.0
 40
6.383249
  1
調整ボルト Ｍ１２
100
AcDbText
  0
LWPOLYLINE
  5
8CA8
330
1E
100
AcDbEntity
  8
文字-記号
  6
Continuous
 62
     7
100
AcDbPolyline
 90
        3
 70
     0
 43
0.0
 10
1992.663565802702
 20
235.7010837452077
 10
2079.777462803373
 20
235.7010837452077
 10
2084.722442058806
 20
227.1361284324246
  0
CIRCLE
  5
8CA9
330
1E
100
AcDbEntity
  8
躯体と製品
  6
Continuous
 62
     6
100
AcDbCircle
 10
2462.473454058806
 20
215.4899272567246
 30
0.0
 40
0.062502
  0
CIRCLE
  5
8CAA
330
1E
100
AcDbEntity
  8
躯体と製品
  6
Continuous
 62
     6
100
AcDbCircle
 10
2462.586024058806
 20
211.0996852567246
 30
0.0
 40
0.062502
  0
CIRCLE
  5
8CAB
330
1E
100
AcDbEntity
  8
躯体と製品
  6
Continuous
 62
     6
100
AcDbCircle
 10
2462.548500058806
 20
205.2460292567246
 30
0.0
 40
0.062502
  0
CIRCLE
  5
8CAC
330
1E
100
AcDbEntity
  8
躯体と製品
  6
Continuous
 62
     6
100
AcDbCircle
 10
2462.154504058806
 20
200.8557872567246
 30
0.0
 40
0.062502
  0
CIRCLE
  5
8CAD
330
1E
100
AcDbEntity
  8
躯体と製品
  6
Continuous
 62
     6
100
AcDbCircle
 10
2462.548500058806
 20
196.4280212567245
 30
0.0
 40
0.062502
  0
CIRCLE
  5
8CAE
330
1E
100
AcDbEntity
  8
躯体と製品
  6
Continuous
 62
     6
100
AcDbCircle
 10
2462.548500058806
 20
192.7694852567246
 30
0.0
 40
0.062502
  0
CIRCLE
  5
8CAF
330
1E
100
AcDbEntity
  8
躯体と製品
  6
Continuous
 62
     6
100
AcDbCircle
 10
2462.473454058806
 20
189.4123172567246
 30
0.0
 40
0.062502
  0
CIRCLE
  5
8CB0
330
1E
100
AcDbEntity
  8
躯体と製品
  6
Continuous
 62
     6
100
AcDbCircle
 10
2462.604786058806
 20
186.6168212567247
 30
0.0
 40
0.062502
  0
CIRCLE
  5
8CB1
330
1E
100
AcDbEntity
  8
躯体と製品
  6
Continuous
 62
     6
100
AcDbCircle
 10
2464.312102058805
 20
187.3672912567247
 30
0.0
 40
0.062502
  0
CIRCLE
  5
8CB2
330
1E
100
AcDbEntity
  8
躯体と製品
  6
Continuous
 62
     6
100
AcDbCircle
 10
2464.968762058806
 20
185.3597872567247
 30
0.0
 40
0.062502
  0
CIRCLE
  5
8CB3
330
1E
100
AcDbEntity
  8
躯体と製品
  6
Continuous
 62
     6
100
AcDbCircle
 10
2466.467616058805
 20
187.3672912567247
 30
0.0
 40
0.062502
  0
CIRCLE
  5
8CB4
330
1E
100
AcDbEntity
  8
躯体と製品
  6
Continuous
 62
     6
100
AcDbCircle
 10
2468.456358058805
 20
185.4723572567247
 30
0.0
 40
0.062502
  0
CIRCLE
  5
8CB5
330
1E
100
AcDbEntity
  8
躯体と製品
  6
Continuous
 62
     6
100
AcDbCircle
 10
2470.313768058806
 20
187.2547212567247
 30
0.0
 40
0.062502
  0
CIRCLE
  5
8CB6
330
1E
100
AcDbEntity
  8
躯体と製品
  6
Continuous
 62
     6
100
AcDbCircle
 10
2472.077370058806
 20
185.3785492567247
 30
0.0
 40
0.062502
  0
CIRCLE
  5
8CB7
330
1E
100
AcDbEntity
  8
躯体と製品
  6
Continuous
 62
     6
100
AcDbCircle
 10
2472.394018058805
 20
187.3860532567246
 30
0.0
 40
0.062502
  0
CIRCLE
  5
8CB8
330
1E
100
AcDbEntity
  8
躯体と製品
  6
Continuous
 62
     6
100
AcDbCircle
 10
2474.514094058806
 20
186.3166352567246
 30
0.0
 40
0.062502
  0
CIRCLE
  5
8CB9
330
1E
100
AcDbEntity
  8
躯体と製品
  6
Continuous
 62
     6
100
AcDbCircle
 10
2477.084448058806
 20
185.1346452567247
 30
0.0
 40
0.062502
  0
CIRCLE
  5
8CBA
330
1E
100
AcDbEntity
  8
躯体と製品
  6
Continuous
 62
     6
100
AcDbCircle
 10
2476.596644058806
 20
187.4423372567246
 30
0.0
 40
0.062502
  0
CIRCLE
  5
8CBB
330
1E
100
AcDbEntity
  8
躯体と製品
  6
Continuous
 62
     6
100
AcDbCircle
 10
2477.497206058806
 20
190.3691652567246
 30
0.0
 40
0.062502
  0
CIRCLE
  5
8CBC
330
1E
100
AcDbEntity
  8
躯体と製品
  6
Continuous
 62
     6
100
AcDbCircle
 10
2476.596644058806
 20
192.7132012567246
 30
0.0
 40
0.062502
  0
CIRCLE
  5
8CBD
330
1E
100
AcDbEntity
  8
躯体と製品
  6
Continuous
 62
     6
100
AcDbCircle
 10
2477.309590058806
 20
196.0152632567246
 30
0.0
 40
0.062502
  0
CIRCLE
  5
8CBE
330
1E
100
AcDbEntity
  8
躯体と製品
  6
Continuous
 62
     6
100
AcDbCircle
 10
2476.446550058805
 20
199.0546612567246
 30
0.0
 40
0.062502
  0
CIRCLE
  5
8CBF
330
1E
100
AcDbEntity
  8
躯体と製品
  6
Continuous
 62
     6
100
AcDbCircle
 10
2477.403398058806
 20
202.1315832567246
 30
0.0
 40
0.062502
  0
CIRCLE
  5
8CC0
330
1E
100
AcDbEntity
  8
躯体と製品
  6
Continuous
 62
     6
100
AcDbCircle
 10
2477.140734058806
 20
205.3961232567246
 30
0.0
 40
0.062502
  0
CIRCLE
  5
8CC1
330
1E
100
AcDbEntity
  8
躯体と製品
  6
Continuous
 62
     6
100
AcDbCircle
 10
2477.159496058805
 20
209.2422752567245
 30
0.0
 40
0.062502
  0
CIRCLE
  5
8CC2
330
1E
100
AcDbEntity
  8
躯体と製品
  6
Continuous
 62
     6
100
AcDbCircle
 10
2477.553492058806
 20
212.8257632567247
 30
0.0
 40
0.062502
  0
CIRCLE
  5
8CC3
330
1E
100
AcDbEntity
  8
躯体と製品
  6
Continuous
 62
     6
100
AcDbCircle
 10
2476.615406058806
 20
215.3398332567246
 30
0.0
 40
0.062502
  0
CIRCLE
  5
8CC4
330
1E
100
AcDbEntity
  8
躯体と製品
  6
Continuous
 62
     6
100
AcDbCircle
 10
2477.534730058806
 20
217.6287632567245
 30
0.0
 40
0.062502
  0
CIRCLE
  5
8CC5
330
1E
100
AcDbEntity
  8
躯体と製品
  6
Continuous
 62
     6
100
AcDbCircle
 10
2463.111352058806
 20
217.6850492567246
 30
0.0
 40
0.062502
  0
CIRCLE
  5
8CCE
330
1E
100
AcDbEntity
  8
躯体と製品
  6
Continuous
 62
     6
100
AcDbCircle
 10
2461.007462058806
 20
208.0348832567247
 30
0.0
 40
0.062502
  0
CIRCLE
  5
8CCF
330
1E
100
AcDbEntity
  8
躯体と製品
  6
Continuous
 62
     6
100
AcDbCircle
 10
2460.967370058805
 20
197.8918492567246
 30
0.0
 40
0.062502
  0
CIRCLE
  5
8CD0
330
1E
100
AcDbEntity
  8
躯体と製品
  6
Continuous
 62
     6
100
AcDbCircle
 10
2460.766916058806
 20
191.6777372567246
 30
0.0
 40
0.062502
  0
CIRCLE
  5
8CD1
330
1E
100
AcDbEntity
  8
躯体と製品
  6
Continuous
 62
     6
100
AcDbCircle
 10
2460.706778058806
 20
186.7878112567246
 30
0.0
 40
0.062502
  0
CIRCLE
  5
8CD2
330
1E
100
AcDbEntity
  8
躯体と製品
  6
Continuous
 62
     6
100
AcDbCircle
 10
2478.214994058806
 20
199.1747632567246
 30
0.0
 40
0.062502
  0
CIRCLE
  5
8CD3
330
1E
100
AcDbEntity
  8
躯体と製品
  6
Continuous
 62
     6
100
AcDbCircle
 10
2478.194948058805
 20
192.8804692567245
 30
0.0
 40
0.062502
  0
CIRCLE
  5
8CD4
330
1E
100
AcDbEntity
  8
躯体と製品
  6
Continuous
 62
     6
100
AcDbCircle
 10
2478.635950058805
 20
187.4292672567247
 30
0.0
 40
0.062502
  0
CIRCLE
  5
8CD5
330
1E
100
AcDbEntity
  8
躯体と製品
  6
Continuous
 62
     6
100
AcDbCircle
 10
2478.615904058806
 20
212.0840792567246
 30
0.0
 40
0.062502
  0
CIRCLE
  5
8CD6
330
1E
100
AcDbEntity
  8
躯体と製品
  6
Continuous
 62
     6
100
AcDbCircle
 10
2478.856450058806
 20
206.4512872567246
 30
0.0
 40
0.062502
  0
TEXT
  5
8CDD
330
1E
100
AcDbEntity
  8
文字-記号
  6
Continuous
 62
     7
100
AcDbText
 10
2372.904640802702
 20
238.2551537452079
 30
0.0
 40
6.383249
  1
調整ボルト Ｍ１２
100
AcDbText
  0
LWPOLYLINE
  5
8CDE
330
1E
100
AcDbEntity
  8
文字-記号
  6
Continuous
 62
     7
100
AcDbPolyline
 90
        3
 70
     0
 43
0.0
 10
2371.759927802702
 20
235.7010837452077
 10
2458.873824803374
 20
235.7010837452077
 10
2463.818804058806
 20
227.1361284324246
  0
LWPOLYLINE
  5
9960
330
1E
100
AcDbEntity
  8
文字-記号
  6
Continuous
 62
     7
100
AcDbPolyline
 90
        3
 70
     0
 43
0.0
 10
2073.537839374416
 20
398.8609152567246
 10
2092.306921648289
 20
431.3699193665128
 10
2166.371197204307
 20
431.3699193665128
  0
TEXT
  5
9961
330
1E
100
AcDbEntity
  8
文字-記号
  6
Continuous
 62
     7
100
AcDbText
 10
2099.02724108668
 20
433.2002006442016
 30
0.0
 40
6.205583999999999
  1
フローリング貼り
100
AcDbText
  0
LWPOLYLINE
  5
9962
330
1E
100
AcDbEntity
  8
文字-記号
  6
Continuous
 62
     7
100
AcDbPolyline
 90
        3
 70
     0
 43
0.0
 10
2094.223319066643
 20
375.8609152567246
 10
2117.622888893484
 20
416.3901590720685
 10
2162.665840819517
 20
416.3901590720685
  0
TEXT
  5
9963
330
1E
100
AcDbEntity
  8
文字-記号
  6
Continuous
 62
     7
100
AcDbText
 10
2126.009313416243
 20
418.2204403497573
 30
0.0
 40
6.205583999999999
  1
捨板貼り
100
AcDbText
  0
LWPOLYLINE
  5
9DF7
330
1E
100
AcDbEntity
  8
躯体と製品
  6
Continuous
 62
     4
100
AcDbPolyline
 90
        2
 70
     0
 43
0.0
 10
2475.818804058806
 20
189.8608872567244
 10
2474.818804058806
 20
188.8608872567246
  0
LWPOLYLINE
  5
9DF8
330
1E
100
AcDbEntity
  8
躯体と製品
  6
Continuous
 62
     4
100
AcDbPolyline
 90
        2
 70
     0
 43
0.0
 10
2463.818804058806
 20
189.8608872567244
 10
2464.818804058806
 20
188.8608872567246
  0
LWPOLYLINE
  5
9DF9
330
1E
100
AcDbEntity
  8
躯体と製品
  6
Continuous
 62
     3
100
AcDbPolyline
 90
        2
 70
     0
 43
0.0
 10
2463.818804058806
 20
189.8608872567244
 10
2475.818804058806
 20
189.8608872567247
  0
LWPOLYLINE
  5
9DFA
330
1E
100
AcDbEntity
  8
躯体と製品
  6
Continuous
 62
     4
100
AcDbPolyline
 90
        2
 70
     0
 43
0.0
 10
2443.818804058806
 20
221.1608903084825
 10
2443.818804058806
 20
218.8608872567247
  0
LWPOLYLINE
  5
9DFB
330
1E
100
AcDbEntity
  8
躯体と製品
  6
Continuous
 62
     4
100
AcDbPolyline
 90
        2
 70
     0
 43
0.0
 10
2495.81880334355
 20
221.1608903084825
 10
2495.81880334355
 20
218.8608872567247
  0
LWPOLYLINE
  5
9DFC
330
1E
100
AcDbEntity
  8
躯体と製品
  6
Continuous
 62
     4
100
AcDbPolyline
 90
        2
 70
     0
 43
0.0
 10
2443.818804058806
 20
221.1608903084825
 10
2495.81880334355
 20
221.1608903084825
  0
LWPOLYLINE
  5
9DFD
330
1E
100
AcDbEntity
  8
躯体と製品
  6
Continuous
 62
     4
100
AcDbPolyline
 90
        2
 70
     0
 43
0.0
 10
2464.818804058806
 20
188.8608872567246
 10
2474.818804058806
 20
188.8608872567246
  0
LWPOLYLINE
  5
9DFE
330
1E
100
AcDbEntity
  8
躯体と製品
  6
Continuous
 62
     4
100
AcDbPolyline
 90
        2
 70
     0
 43
0.0
 10
2475.818804058806
 20
218.8608872567247
 10
2475.818804058806
 20
189.8608872567247
  0
LWPOLYLINE
  5
9DFF
330
1E
100
AcDbEntity
  8
躯体と製品
  6
Continuous
 62
     4
100
AcDbPolyline
 90
        2
 70
     0
 43
0.0
 10
2463.818804058806
 20
218.8608872567247
 10
2463.818804058806
 20
189.8608872567243
  0
LWPOLYLINE
  5
9E00
330
1E
100
AcDbEntity
  8
躯体と製品
  6
Continuous
 62
     3
100
AcDbPolyline
 90
        2
 70
     0
 43
0.0
 10
2474.818804058806
 20
218.8608872567247
 10
2474.818804058806
 20
188.8608872567246
  0
LWPOLYLINE
  5
9E01
330
1E
100
AcDbEntity
  8
躯体と製品
  6
Continuous
 62
     3
100
AcDbPolyline
 90
        2
 70
     0
 43
0.0
 10
2464.818804058806
 20
218.8608872567247
 10
2464.818804058806
 20
188.8608872567246
  0
LWPOLYLINE
  5
9E02
330
1E
100
AcDbEntity
  8
躯体と製品
  6
Continuous
 62
     4
100
AcDbPolyline
 90
        2
 70
     0
 43
0.0
 10
2479.568952058806
 20
183.8606892567247
 10
2460.068656058806
 20
183.8606892567247
  0
LWPOLYLINE
  5
9E03
330
1E
100
AcDbEntity
  8
躯体と製品
  6
Continuous
 62
     4
100
AcDbPolyline
 90
        2
 70
     0
 43
0.0
 10
2479.568952058806
 20
218.8608872567247
 10
2479.568952058806
 20
183.8606892567247
  0
LWPOLYLINE
  5
9E04
330
1E
100
AcDbEntity
  8
躯体と製品
  6
Continuous
 62
     4
100
AcDbPolyline
 90
        2
 70
     0
 43
0.0
 10
2460.068656058806
 20
218.8608872567247
 10
2460.068656058806
 20
183.8606892567247
  0
LWPOLYLINE
  5
9E05
330
1E
100
AcDbEntity
  8
躯体と製品
  6
Continuous
 62
     4
100
AcDbPolyline
 90
        2
 70
     0
 43
0.0
 10
2096.722442058805
 20
189.8608872567244
 10
2095.722442058805
 20
188.8608872567246
  0
LWPOLYLINE
  5
9E06
330
1E
100
AcDbEntity
  8
躯体と製品
  6
Continuous
 62
     4
100
AcDbPolyline
 90
        2
 70
     0
 43
0.0
 10
2084.722442058806
 20
189.8608872567244
 10
2085.722442058806
 20
188.8608872567246
  0
LWPOLYLINE
  5
9E07
330
1E
100
AcDbEntity
  8
躯体と製品
  6
Continuous
 62
     3
100
AcDbPolyline
 90
        2
 70
     0
 43
0.0
 10
2084.722442058806
 20
189.8608872567244
 10
2096.722442058805
 20
189.8608872567247
  0
LWPOLYLINE
  5
9E08
330
1E
100
AcDbEntity
  8
躯体と製品
  6
Continuous
 62
     4
100
AcDbPolyline
 90
        2
 70
     0
 43
0.0
 10
2064.722442058806
 20
221.1608903084825
 10
2064.722442058806
 20
218.8608872567247
  0
LWPOLYLINE
  5
9E09
330
1E
100
AcDbEntity
  8
躯体と製品
  6
Continuous
 62
     4
100
AcDbPolyline
 90
        2
 70
     0
 43
0.0
 10
2116.72244134355
 20
221.1608903084825
 10
2116.72244134355
 20
218.8608872567247
  0
LWPOLYLINE
  5
9E0A
330
1E
100
AcDbEntity
  8
躯体と製品
  6
Continuous
 62
     4
100
AcDbPolyline
 90
        2
 70
     0
 43
0.0
 10
2064.722442058806
 20
221.1608903084825
 10
2116.72244134355
 20
221.1608903084825
  0
LWPOLYLINE
  5
9E0B
330
1E
100
AcDbEntity
  8
躯体と製品
  6
Continuous
 62
     4
100
AcDbPolyline
 90
        2
 70
     0
 43
0.0
 10
2085.722442058806
 20
188.8608872567246
 10
2095.722442058805
 20
188.8608872567246
  0
LWPOLYLINE
  5
9E0C
330
1E
100
AcDbEntity
  8
躯体と製品
  6
Continuous
 62
     4
100
AcDbPolyline
 90
        2
 70
     0
 43
0.0
 10
2096.722442058805
 20
218.8608872567247
 10
2096.722442058805
 20
189.8608872567247
  0
LWPOLYLINE
  5
9E0D
330
1E
100
AcDbEntity
  8
躯体と製品
  6
Continuous
 62
     4
100
AcDbPolyline
 90
        2
 70
     0
 43
0.0
 10
2084.722442058806
 20
218.8608872567247
 10
2084.722442058806
 20
189.8608872567243
  0
LWPOLYLINE
  5
9E0E
330
1E
100
AcDbEntity
  8
躯体と製品
  6
Continuous
 62
     3
100
AcDbPolyline
 90
        2
 70
     0
 43
0.0
 10
2095.722442058805
 20
218.8608872567247
 10
2095.722442058805
 20
188.8608872567246
  0
LWPOLYLINE
  5
9E0F
330
1E
100
AcDbEntity
  8
躯体と製品
  6
Continuous
 62
     3
100
AcDbPolyline
 90
        2
 70
     0
 43
0.0
 10
2085.722442058806
 20
218.8608872567247
 10
2085.722442058806
 20
188.8608872567246
  0
LWPOLYLINE
  5
9E10
330
1E
100
AcDbEntity
  8
躯体と製品
  6
Continuous
 62
     4
100
AcDbPolyline
 90
        2
 70
     0
 43
0.0
 10
2100.472590058806
 20
183.8606892567247
 10
2080.972294058805
 20
183.8606892567247
  0
LWPOLYLINE
  5
9E11
330
1E
100
AcDbEntity
  8
躯体と製品
  6
Continuous
 62
     4
100
AcDbPolyline
 90
        2
 70
     0
 43
0.0
 10
2100.472590058806
 20
218.8608872567247
 10
2100.472590058806
 20
183.8606892567247
  0
LWPOLYLINE
  5
9E12
330
1E
100
AcDbEntity
  8
躯体と製品
  6
Continuous
 62
     4
100
AcDbPolyline
 90
        2
 70
     0
 43
0.0
 10
2080.972294058805
 20
218.8608872567247
 10
2080.972294058805
 20
183.8606892567247
  0
LWPOLYLINE
  5
9E13
330
1E
100
AcDbEntity
  8
躯体と製品
  6
Continuous
 62
     4
100
AcDbPolyline
 90
        2
 70
     0
 43
0.0
 10
2095.919115824264
 20
238.660916877832
 42
0.3850636431294864
 10
2101.113062424226
 20
238.660916877832
  0
LWPOLYLINE
  5
9E14
330
1E
100
AcDbEntity
  8
躯体と製品
  6
Continuous
 62
     4
100
AcDbPolyline
 90
        2
 70
     0
 43
0.0
 10
2080.337276024383
 20
238.660916877832
 42
0.3850636431294772
 10
2085.531222624345
 20
238.660916877832
  0
LWPOLYLINE
  5
9E15
330
1E
100
AcDbEntity
  8
躯体と製品
  6
Continuous
 62
     4
100
AcDbPolyline
 90
        2
 70
     0
 43
0.0
 10
2085.531222624345
 20
238.6609168778312
 42
0.1925318215646519
 10
2095.919115824264
 20
238.6609168778312
  0
LWPOLYLINE
  5
9E16
330
1E
100
AcDbEntity
  8
躯体と製品
  6
Continuous
 62
     4
100
AcDbPolyline
 90
        2
 70
     0
 43
0.0
 10
2082.934249324364
 20
237.6609168778315
 10
2098.516089124245
 20
237.6609168778314
  0
LWPOLYLINE
  5
9E17
330
1E
100
AcDbEntity
  8
躯体と製品
  6
Continuous
 62
     4
100
AcDbPolyline
 90
        2
 70
     0
 43
0.0
 10
2070.675162224305
 20
249.4609199295892
 10
2070.675162224305
 20
247.1609168778314
  0
LWPOLYLINE
  5
9E18
330
1E
100
AcDbEntity
  8
躯体と製品
  6
Continuous
 62
     4
100
AcDbPolyline
 90
        2
 70
     0
 43
0.0
 10
2110.675161270631
 20
249.4609199295892
 10
2110.675161270631
 20
247.1609168778314
  0
LWPOLYLINE
  5
9E19
330
1E
100
AcDbEntity
  8
躯体と製品
  6
Continuous
 62
     4
100
AcDbPolyline
 90
        2
 70
     0
 43
0.0
 10
2070.675162224305
 20
247.1609168778314
 10
2110.675161270631
 20
247.1609168778314
  0
LWPOLYLINE
  5
9E1A
330
1E
100
AcDbEntity
  8
躯体と製品
  6
Continuous
 62
     4
100
AcDbPolyline
 90
        2
 70
     0
 43
0.0
 10
2080.224792046112
 20
247.1609168778314
 10
2080.224792046112
 20
244.1609168778314
  0
LWPOLYLINE
  5
9E1B
330
1E
100
AcDbEntity
  8
躯体と製品
  6
Continuous
 62
     4
100
AcDbPolyline
 90
        2
 70
     0
 43
0.0
 10
2101.225546402497
 20
247.1609168778314
 10
2101.225546402497
 20
244.1609168778314
  0
LWPOLYLINE
  5
9E1C
330
1E
100
AcDbEntity
  8
躯体と製品
  6
Continuous
 62
     4
100
AcDbPolyline
 90
        2
 70
     0
 43
0.0
 10
2080.224792046112
 20
244.1609168778314
 10
2101.225546402497
 20
244.1609168778314
  0
LWPOLYLINE
  5
9E1D
330
1E
100
AcDbEntity
  8
躯体と製品
  6
Continuous
 62
     4
100
AcDbPolyline
 90
        2
 70
     0
 43
0.0
 10
2091.709458393616
 20
247.160909248437
 10
2090.905608219665
 20
244.1608939896482
  0
LWPOLYLINE
  5
9E1E
330
1E
100
AcDbEntity
  8
躯体と製品
  6
Continuous
 62
     4
100
AcDbPolyline
 90
        2
 70
     0
 43
0.0
 10
2090.544730228943
 20
247.1609245072258
 10
2089.740880054993
 20
244.160909248437
  0
LWPOLYLINE
  5
9E1F
330
1E
100
AcDbEntity
  8
躯体と製品
  6
Continuous
 62
     4
100
AcDbPolyline
 90
        2
 70
     0
 43
0.0
 10
2070.722441701178
 20
334.8609152567245
 10
2110.722441701177
 20
334.8609152567245
  0
LWPOLYLINE
  5
9E20
330
1E
100
AcDbEntity
  8
躯体と製品
  6
Continuous
 62
     4
100
AcDbPolyline
 90
        2
 70
     0
 43
0.0
 10
2096.722442058805
 20
287.8608872567248
 10
2095.722442058805
 20
288.8608872567248
  0
LWPOLYLINE
  5
9E21
330
1E
100
AcDbEntity
  8
躯体と製品
  6
Continuous
 62
     4
100
AcDbPolyline
 90
        2
 70
     0
 43
0.0
 10
2084.722442058806
 20
287.8608872567248
 10
2085.722442058806
 20
288.8608872567248
  0
LWPOLYLINE
  5
9E22
330
1E
100
AcDbEntity
  8
躯体と製品
  6
Continuous
 62
     3
100
AcDbPolyline
 90
        2
 70
     0
 43
0.0
 10
2084.722442058806
 20
287.8608872567248
 10
2096.722442058805
 20
287.8608872567248
  0
LWPOLYLINE
  5
9E23
330
1E
100
AcDbEntity
  8
躯体と製品
  6
Continuous
 62
     4
100
AcDbPolyline
 90
        2
 70
     0
 43
0.0
 10
2085.722442058806
 20
288.8608872567248
 10
2095.722442058805
 20
288.8608872567248
  0
LWPOLYLINE
  5
9E24
330
1E
100
AcDbEntity
  8
躯体と製品
  6
Continuous
 62
     4
100
AcDbPolyline
 90
        2
 70
     0
 43
0.0
 10
2096.722442058807
 20
284.8598532567242
 10
2096.722442058805
 20
287.8608872567248
  0
LWPOLYLINE
  5
9E25
330
1E
100
AcDbEntity
  8
躯体と製品
  6
Continuous
 62
     4
100
AcDbPolyline
 90
        2
 70
     0
 43
0.0
 10
2084.722442058806
 20
284.8598532567242
 10
2084.722442058806
 20
287.8608872567252
  0
LWPOLYLINE
  5
9E26
330
1E
100
AcDbEntity
  8
躯体と製品
  6
Continuous
 62
     3
100
AcDbPolyline
 90
        2
 70
     0
 43
0.0
 10
2095.722442058805
 20
284.8598532567244
 10
2095.722442058805
 20
288.8608872567248
  0
LWPOLYLINE
  5
9E27
330
1E
100
AcDbEntity
  8
躯体と製品
  6
Continuous
 62
     3
100
AcDbPolyline
 90
        2
 70
     0
 43
0.0
 10
2085.722442058806
 20
284.8598532567244
 10
2085.722442058806
 20
288.8608872567248
  0
LWPOLYLINE
  5
9E28
330
1E
100
AcDbEntity
  8
躯体と製品
  6
Continuous
 62
     4
100
AcDbPolyline
 90
        2
 70
     0
 43
0.0
 10
2065.722442058806
 20
336.8609152567245
 10
2070.722441701178
 20
336.8609152567245
  0
LWPOLYLINE
  5
9E29
330
1E
100
AcDbEntity
  8
躯体と製品
  6
Continuous
 62
     4
100
AcDbPolyline
 90
        2
 70
     0
 43
0.0
 10
2070.722441701178
 20
341.8609152567245
 10
2070.722441701178
 20
334.8609152567245
  0
LWPOLYLINE
  5
9E2A
330
1E
100
AcDbEntity
  8
躯体と製品
  6
Continuous
 62
     4
100
AcDbPolyline
 90
        2
 70
     0
 43
0.0
 10
2110.722441701177
 20
336.8609152567245
 10
2115.722442058805
 20
336.8609152567247
  0
LWPOLYLINE
  5
9E2B
330
1E
100
AcDbEntity
  8
躯体と製品
  6
Continuous
 62
     4
100
AcDbPolyline
 90
        2
 70
     0
 43
0.0
 10
2110.722441701177
 20
341.8609152567245
 10
2110.722441701177
 20
334.8609152567245
  0
LWPOLYLINE
  5
9E2C
330
1E
100
AcDbEntity
  8
躯体と製品
  6
Continuous
 62
     4
100
AcDbPolyline
 90
        2
 70
     0
 43
0.0
 10
2070.722441701178
 20
341.8609152567245
 10
2110.722441701177
 20
341.8609152567245
  0
LWPOLYLINE
  5
9E2D
330
1E
100
AcDbEntity
  8
躯体と製品
  6
Continuous
 62
     3
100
AcDbPolyline
 90
        2
 70
     0
 43
0.0
 10
2060.722442416433
 20
339.8619772567252
 10
2070.722441701178
 20
339.8619772567245
  0
LWPOLYLINE
  5
9E2E
330
1E
100
AcDbEntity
  8
躯体と製品
  6
Continuous
 62
     3
100
AcDbPolyline
 90
        2
 70
     0
 43
0.0
 10
2110.722441701177
 20
339.8619772567248
 10
2114.321001011725
 20
339.8619772567245
  0
LWPOLYLINE
  5
9E2F
330
1E
100
AcDbEntity
  8
躯体と製品
  6
Continuous
 62
     4
100
AcDbPolyline
 90
        2
 70
     0
 43
0.0
 10
2114.122442058805
 20
329.3609152567245
 10
2114.122442058806
 20
290.3609152567245
  0
LWPOLYLINE
  5
9E30
330
1E
100
AcDbEntity
  8
躯体と製品
  6
Continuous
 62
     4
100
AcDbPolyline
 90
        2
 70
     0
 43
0.0
 10
2110.222442058805
 20
286.4609152567244
 10
2100.722442058806
 20
286.4609152567244
  0
LWPOLYLINE
  5
9E31
330
1E
100
AcDbEntity
  8
躯体と製品
  6
Continuous
 62
     4
100
AcDbPolyline
 90
        2
 70
     0
 43
0.0
 10
2071.222442058806
 20
333.2609152567244
 42
0.4142135623730951
 10
2067.322442058805
 20
329.3609152567245
  0
LWPOLYLINE
  5
9E32
330
1E
100
AcDbEntity
  8
躯体と製品
  6
Continuous
 62
     4
100
AcDbPolyline
 90
        2
 70
     0
 43
0.0
 10
2110.222442058805
 20
333.2609152567241
 10
2071.222442058806
 20
333.2609152567241
  0
LWPOLYLINE
  5
9E33
330
1E
100
AcDbEntity
  8
躯体と製品
  6
Continuous
 62
     4
100
AcDbPolyline
 90
        2
 70
     0
 43
0.0
 10
2080.722442058805
 20
286.4609152567244
 10
2080.722442058805
 20
284.8609152567245
  0
LWPOLYLINE
  5
9E34
330
1E
100
AcDbEntity
  8
躯体と製品
  6
Continuous
 62
     4
100
AcDbPolyline
 90
        2
 70
     0
 43
0.0
 10
2100.722442058806
 20
284.8609152567245
 10
2100.722442058806
 20
286.4609152567244
  0
LWPOLYLINE
  5
9E35
330
1E
100
AcDbEntity
  8
躯体と製品
  6
Continuous
 62
     4
100
AcDbPolyline
 90
        2
 70
     0
 43
0.0
 10
2110.222442058805
 20
284.8609152567245
 10
2071.222442058806
 20
284.8609152567245
  0
LWPOLYLINE
  5
9E36
330
1E
100
AcDbEntity
  8
躯体と製品
  6
Continuous
 62
     4
100
AcDbPolyline
 90
        2
 70
     0
 43
0.0
 10
2071.222442058806
 20
334.8609152567245
 42
0.4142135623730951
 10
2065.722442058806
 20
329.3609152567245
  0
LWPOLYLINE
  5
9E37
330
1E
100
AcDbEntity
  8
躯体と製品
  6
Continuous
 62
     4
100
AcDbPolyline
 90
        2
 70
     0
 43
0.0
 10
2110.222442058805
 20
334.8609152567245
 10
2071.222442058806
 20
334.8609152567245
  0
LWPOLYLINE
  5
9E38
330
1E
100
AcDbEntity
  8
躯体と製品
  6
Continuous
 62
     4
100
AcDbPolyline
 90
        2
 70
     0
 43
0.0
 10
2067.322442058806
 20
290.3609152567245
 10
2067.322442058806
 20
329.3609152567245
  0
LWPOLYLINE
  5
9E39
330
1E
100
AcDbEntity
  8
躯体と製品
  6
Continuous
 62
     4
100
AcDbPolyline
 90
        2
 70
     0
 43
0.0
 10
2071.222442058806
 20
286.4609152567244
 10
2080.722442058805
 20
286.4609152567244
  0
LWPOLYLINE
  5
9E3A
330
1E
100
AcDbEntity
  8
躯体と製品
  6
Continuous
 62
     4
100
AcDbPolyline
 90
        2
 70
     0
 43
0.0
 10
2114.122442058806
 20
329.3609152567245
 42
0.4142135623730951
 10
2110.222442058805
 20
333.2609152567244
  0
LWPOLYLINE
  5
9E3B
330
1E
100
AcDbEntity
  8
躯体と製品
  6
Continuous
 62
     4
100
AcDbPolyline
 90
        2
 70
     0
 43
0.0
 10
2115.722442058805
 20
329.3609152567245
 42
0.4142135623730951
 10
2110.222442058805
 20
334.8609152567245
  0
LWPOLYLINE
  5
9E3C
330
1E
100
AcDbEntity
  8
躯体と製品
  6
Continuous
 62
     4
100
AcDbPolyline
 90
        2
 70
     0
 43
0.0
 10
2067.322442058805
 20
290.3609152567245
 42
0.4142135623730951
 10
2071.222442058806
 20
286.4609152567245
  0
LWPOLYLINE
  5
9E3D
330
1E
100
AcDbEntity
  8
躯体と製品
  6
Continuous
 62
     4
100
AcDbPolyline
 90
        2
 70
     0
 43
0.0
 10
2065.722442058806
 20
290.3609152567245
 42
0.4142135623730951
 10
2071.222442058806
 20
284.8609152567245
  0
LWPOLYLINE
  5
9E3E
330
1E
100
AcDbEntity
  8
躯体と製品
  6
Continuous
 62
     4
100
AcDbPolyline
 90
        2
 70
     0
 43
0.0
 10
2110.222442058805
 20
286.4609152567245
 42
0.4142135623730951
 10
2114.122442058806
 20
290.3609152567245
  0
LWPOLYLINE
  5
9E3F
330
1E
100
AcDbEntity
  8
躯体と製品
  6
Continuous
 62
     4
100
AcDbPolyline
 90
        2
 70
     0
 43
0.0
 10
2110.222442058805
 20
284.8609152567245
 42
0.4142135623730951
 10
2115.722442058805
 20
290.3609152567245
  0
LWPOLYLINE
  5
9E40
330
1E
100
AcDbEntity
  8
躯体と製品
  6
Continuous
 62
     3
100
AcDbPolyline
 90
        2
 70
     0
 43
0.0
 10
2125.422641653494
 20
336.5601265672713
 10
2125.422641653494
 20
348.7617405672714
  0
LWPOLYLINE
  5
9E41
330
1E
100
AcDbEntity
  8
躯体と製品
  6
Continuous
 62
     3
100
AcDbPolyline
 90
        2
 70
     0
 43
0.0
 10
2125.422641653494
 20
348.7617405672714
 10
2123.922441653494
 20
348.7617405672714
  0
LWPOLYLINE
  5
9E42
330
1E
100
AcDbEntity
  8
躯体と製品
  6
Continuous
 62
     3
100
AcDbPolyline
 90
        2
 70
     0
 43
0.0
 10
2129.823223999532
 20
345.1612646313458
 42
0.2275707722563385
 10
2130.423303653493
 20
346.4114305672713
  0
LWPOLYLINE
  5
9E43
330
1E
100
AcDbEntity
  8
躯体と製品
  6
Continuous
 62
     3
100
AcDbPolyline
 90
        2
 70
     0
 43
0.0
 10
2129.823222263711
 20
340.1606038186658
 42
0.2400000040461909
 10
2129.823222263711
 20
345.1612653158771
  0
LWPOLYLINE
  5
9E44
330
1E
100
AcDbEntity
  8
躯体と製品
  6
Continuous
 62
     3
100
AcDbPolyline
 90
        2
 70
     0
 43
0.0
 10
2130.423303653493
 20
338.9104365672714
 42
0.2275707722563364
 10
2129.823223999532
 20
340.1606025031969
  0
LWPOLYLINE
  5
9E45
330
1E
100
AcDbEntity
  8
躯体と製品
  6
Continuous
 62
     3
100
AcDbPolyline
 90
        2
 70
     0
 43
0.0
 10
2130.423303653493
 20
347.0365125672714
 10
2129.823223653494
 20
347.6615965672714
  0
LWPOLYLINE
  5
9E46
330
1E
100
AcDbEntity
  8
躯体と製品
  6
Continuous
 62
     3
100
AcDbPolyline
 90
        2
 70
     0
 43
0.0
 10
2130.423303653493
 20
338.2853545672713
 10
2129.823223653494
 20
337.6602705672713
  0
LWPOLYLINE
  5
9E47
330
1E
100
AcDbEntity
  8
躯体と製品
  6
Continuous
 62
     3
100
AcDbPolyline
 90
        2
 70
     0
 43
0.0
 10
2129.823223653494
 20
347.6615965672714
 10
2126.022721653494
 20
347.6615965672714
  0
LWPOLYLINE
  5
9E48
330
1E
100
AcDbEntity
  8
躯体と製品
  6
Continuous
 62
     3
100
AcDbPolyline
 90
        2
 70
     0
 43
0.0
 10
2129.823223653494
 20
345.1612645672713
 10
2126.022721653494
 20
345.1612645672713
  0
LWPOLYLINE
  5
9E49
330
1E
100
AcDbEntity
  8
躯体と製品
  6
Continuous
 62
     3
100
AcDbPolyline
 90
        2
 70
     0
 43
0.0
 10
2129.823223653494
 20
340.1606025672714
 10
2126.022721653494
 20
340.1606025672714
  0
LWPOLYLINE
  5
9E4A
330
1E
100
AcDbEntity
  8
躯体と製品
  6
Continuous
 62
     3
100
AcDbPolyline
 90
        2
 70
     0
 43
0.0
 10
2129.823223653494
 20
337.6602705672713
 10
2126.022721653494
 20
337.6602705672713
  0
LWPOLYLINE
  5
9E4B
330
1E
100
AcDbEntity
  8
躯体と製品
  6
Continuous
 62
     3
100
AcDbPolyline
 90
        2
 70
     0
 43
0.0
 10
2130.423303653493
 20
338.2853545672713
 10
2130.423303653493
 20
347.0365125672714
  0
LWPOLYLINE
  5
9E4C
330
1E
100
AcDbEntity
  8
躯体と製品
  6
Continuous
 62
     3
100
AcDbPolyline
 90
        2
 70
     0
 43
0.0
 10
2130.423303653493
 20
347.0365125672714
 10
2130.423303653493
 20
338.2853545672713
  0
LWPOLYLINE
  5
9E4D
330
1E
100
AcDbEntity
  8
躯体と製品
  6
Continuous
 62
     3
100
AcDbPolyline
 90
        2
 70
     0
 43
0.0
 10
2125.422641653493
 20
346.4114305672713
 42
0.2275707722563381
 10
2126.022721307454
 20
345.1612646313458
  0
LWPOLYLINE
  5
9E4E
330
1E
100
AcDbEntity
  8
躯体と製品
  6
Continuous
 62
     3
100
AcDbPolyline
 90
        2
 70
     0
 43
0.0
 10
2126.022721043276
 20
345.1612653158771
 42
0.2400000040461907
 10
2126.022721043276
 20
340.1606038186658
  0
LWPOLYLINE
  5
9E4F
330
1E
100
AcDbEntity
  8
躯体と製品
  6
Continuous
 62
     3
100
AcDbPolyline
 90
        2
 70
     0
 43
0.0
 10
2126.022721307454
 20
340.1606025031969
 42
0.2275707722563383
 10
2125.422641653493
 20
338.9104365672714
  0
LWPOLYLINE
  5
9E50
330
1E
100
AcDbEntity
  8
躯体と製品
  6
Continuous
 62
     3
100
AcDbPolyline
 90
        2
 70
     0
 43
0.0
 10
2125.422641653494
 20
347.0365125672714
 10
2126.022721653494
 20
347.6615965672714
  0
LWPOLYLINE
  5
9E51
330
1E
100
AcDbEntity
  8
躯体と製品
  6
Continuous
 62
     3
100
AcDbPolyline
 90
        2
 70
     0
 43
0.0
 10
2125.422641653494
 20
338.2853545672713
 10
2126.022721653494
 20
337.6602705672713
  0
LWPOLYLINE
  5
9E52
330
1E
100
AcDbEntity
  8
躯体と製品
  6
Continuous
 62
     3
100
AcDbPolyline
 90
        2
 70
     0
 43
0.0
 10
2125.422641653494
 20
338.2853545672713
 10
2125.422641653494
 20
347.0365125672714
  0
LWPOLYLINE
  5
9E53
330
1E
100
AcDbEntity
  8
躯体と製品
  6
Continuous
 62
     3
100
AcDbPolyline
 90
        2
 70
     0
 43
0.0
 10
2125.422641653494
 20
347.0365125672714
 10
2125.422641653494
 20
338.2853545672713
  0
LWPOLYLINE
  5
9E54
330
1E
100
AcDbEntity
  8
躯体と製品
  6
Continuous
 62
     3
100
AcDbPolyline
 90
        2
 70
     0
 43
0.0
 10
2137.522441701178
 20
345.6613305672714
 10
2137.522441701178
 20
339.6605365672713
  0
LWPOLYLINE
  5
9E55
330
1E
100
AcDbEntity
  8
躯体と製品
  6
Continuous
 62
     3
100
AcDbPolyline
 90
        2
 70
     0
 43
0.0
 10
2137.522441701178
 20
339.6605365672713
 10
2130.423303653493
 20
339.6605365672713
  0
LWPOLYLINE
  5
9E56
330
1E
100
AcDbEntity
  8
躯体と製品
  6
Continuous
 62
     3
100
AcDbPolyline
 90
        2
 70
     0
 43
0.0
 10
2120.722441653494
 20
339.6605365672713
 10
2114.522441701178
 20
339.6605365672713
  0
LWPOLYLINE
  5
9E57
330
1E
100
AcDbEntity
  8
躯体と製品
  6
Continuous
 62
     3
100
AcDbPolyline
 90
        2
 70
     0
 43
0.0
 10
2130.423303653493
 20
345.6613305672714
 10
2137.522441701178
 20
345.6613305672714
  0
LWPOLYLINE
  5
9E58
330
1E
100
AcDbEntity
  8
躯体と製品
  6
Continuous
 62
     3
100
AcDbPolyline
 90
        2
 70
     0
 43
0.0
 10
2120.722441653494
 20
345.6613305672714
 10
2114.522441701178
 20
345.6613305672714
  0
LWPOLYLINE
  5
9E59
330
1E
100
AcDbEntity
  8
躯体と製品
  6
Continuous
 62
     3
100
AcDbPolyline
 90
        2
 70
     0
 43
0.0
 10
2130.423303653493
 20
340.1606025672714
 10
2137.522441701178
 20
340.1606025672714
  0
LWPOLYLINE
  5
9E5A
330
1E
100
AcDbEntity
  8
躯体と製品
  6
Continuous
 62
     3
100
AcDbPolyline
 90
        2
 70
     0
 43
0.0
 10
2110.722441701177
 20
340.1606025672714
 10
2120.722441653494
 20
340.1606025672714
  0
LWPOLYLINE
  5
9E5B
330
1E
100
AcDbEntity
  8
躯体と製品
  6
Continuous
 62
     3
100
AcDbPolyline
 90
        2
 70
     0
 43
0.0
 10
2060.722442416433
 20
340.1606025672714
 10
2070.722441701178
 20
340.1606025672714
  0
LWPOLYLINE
  5
9E5C
330
1E
100
AcDbEntity
  8
躯体と製品
  6
Continuous
 62
     3
100
AcDbPolyline
 90
        2
 70
     0
 43
0.0
 10
2130.423303653493
 20
345.1612645672713
 10
2137.522441701178
 20
345.1612645672713
  0
LWPOLYLINE
  5
9E5D
330
1E
100
AcDbEntity
  8
躯体と製品
  6
Continuous
 62
     3
100
AcDbPolyline
 90
        2
 70
     0
 43
0.0
 10
2060.722442416433
 20
345.1612645672713
 10
2120.722441653494
 20
345.1612645672713
  0
LWPOLYLINE
  5
9E5E
330
1E
100
AcDbEntity
  8
躯体と製品
  6
Continuous
 62
     3
100
AcDbPolyline
 90
        2
 70
     0
 43
0.0
 10
2057.522441653494
 20
347.9116285672713
 10
2056.522309653494
 20
347.9116285672713
  0
LWPOLYLINE
  5
9E5F
330
1E
100
AcDbEntity
  8
躯体と製品
  6
Continuous
 62
     3
100
AcDbPolyline
 90
        2
 70
     0
 43
0.0
 10
2056.522309653494
 20
347.9116285672714
 42
0.4142135623730951
 10
2053.521911653493
 20
344.9112305672714
  0
LWPOLYLINE
  5
9E60
330
1E
100
AcDbEntity
  8
躯体と製品
  6
Continuous
 62
     3
100
AcDbPolyline
 90
        2
 70
     0
 43
0.0
 10
2053.521913653494
 20
344.9112305672714
 10
2053.521913653494
 20
340.4106365672713
  0
LWPOLYLINE
  5
9E61
330
1E
100
AcDbEntity
  8
躯体と製品
  6
Continuous
 62
     3
100
AcDbPolyline
 90
        2
 70
     0
 43
0.0
 10
2053.521911653493
 20
340.4106365672713
 42
0.424447275499424
 10
2056.626742131262
 20
337.4120565673394
  0
LWPOLYLINE
  5
9E62
330
1E
100
AcDbEntity
  8
躯体と製品
  6
Continuous
 62
     3
100
AcDbPolyline
 90
        2
 70
     0
 43
0.0
 10
2114.522441701178
 20
345.6613305672714
 10
2114.022375701178
 20
345.1612645672713
  0
LWPOLYLINE
  5
9E63
330
1E
100
AcDbEntity
  8
躯体と製品
  6
Continuous
 62
     3
100
AcDbPolyline
 90
        2
 70
     0
 43
0.0
 10
2114.522441701178
 20
339.6605365672713
 10
2114.022375701178
 20
340.1606025672714
  0
LWPOLYLINE
  5
9E64
330
1E
100
AcDbEntity
  8
躯体と製品
  6
Continuous
 62
     3
100
AcDbPolyline
 90
        2
 70
     0
 43
0.0
 10
2114.522441701178
 20
339.6605365672713
 10
2114.522441701178
 20
345.6613305672714
  0
LWPOLYLINE
  5
9E65
330
1E
100
AcDbEntity
  8
躯体と製品
  6
Continuous
 62
     3
100
AcDbPolyline
 90
        2
 70
     0
 43
0.0
 10
2125.422641653494
 20
348.7617405672714
 10
2123.922441653494
 20
348.7617405672714
  0
LWPOLYLINE
  5
9E66
330
1E
100
AcDbEntity
  8
躯体と製品
  6
Continuous
 62
     3
100
AcDbPolyline
 90
        2
 70
     0
 43
0.0
 10
2125.422641653494
 20
336.5601265672713
 10
2123.922441653494
 20
336.5601265672713
  0
LWPOLYLINE
  5
9E67
330
1E
100
AcDbEntity
  8
躯体と製品
  6
Continuous
 62
     3
100
AcDbPolyline
 90
        2
 70
     0
 43
0.0
 10
2057.522441653494
 20
337.4120565672714
 10
2056.626742131264
 20
337.4120565672714
  0
LWPOLYLINE
  5
9E68
330
1E
100
AcDbEntity
  8
0
  6
Continuous
 62
     4
100
AcDbPolyline
 90
        2
 70
     0
 43
0.0
 10
2070.492237289781
 20
282.8609207095852
 10
2072.492233289785
 20
284.8609207095852
  0
LWPOLYLINE
  5
9E69
330
1E
100
AcDbEntity
  8
0
  6
Continuous
 62
     4
100
AcDbPolyline
 90
        2
 70
     0
 43
0.0
 10
2083.064583772469
 20
282.8609207095852
 10
2085.064579772473
 20
284.8609207095852
  0
LWPOLYLINE
  5
9E6A
330
1E
100
AcDbEntity
  8
0
  6
Continuous
 62
     4
100
AcDbPolyline
 90
        2
 70
     0
 43
0.0
 10
2095.636930255157
 20
282.8609207095852
 10
2097.636926255162
 20
284.8609207095852
  0
LWPOLYLINE
  5
9E6B
330
1E
100
AcDbEntity
  8
0
  6
Continuous
 62
     4
100
AcDbPolyline
 90
        2
 70
     0
 43
0.0
 10
2108.209276737845
 20
282.8609207095852
 10
2110.209272737851
 20
284.8609207095852
  0
LWPOLYLINE
  5
9E6C
330
1E
100
AcDbEntity
  8
0
  6
Continuous
 62
     4
100
AcDbPolyline
 90
        2
 70
     0
 43
0.0
 10
2072.288286690972
 20
282.8609207095852
 10
2074.288282690976
 20
284.8609207095852
  0
LWPOLYLINE
  5
9E6D
330
1E
100
AcDbEntity
  8
0
  6
Continuous
 62
     4
100
AcDbPolyline
 90
        2
 70
     0
 43
0.0
 10
2084.86063317366
 20
282.8609207095852
 10
2086.860629173664
 20
284.8609207095852
  0
LWPOLYLINE
  5
9E6E
330
1E
100
AcDbEntity
  8
0
  6
Continuous
 62
     4
100
AcDbPolyline
 90
        2
 70
     0
 43
0.0
 10
2097.43297965635
 20
282.8609207095852
 10
2099.432975656352
 20
284.8609207095852
  0
LWPOLYLINE
  5
9E6F
330
1E
100
AcDbEntity
  8
0
  6
Continuous
 62
     4
100
AcDbPolyline
 90
        2
 70
     0
 43
0.0
 10
2110.005326139038
 20
282.8609207095852
 10
2112.00532213904
 20
284.8609207095852
  0
LWPOLYLINE
  5
9E70
330
1E
100
AcDbEntity
  8
0
  6
Continuous
 62
     4
100
AcDbPolyline
 90
        2
 70
     0
 43
0.0
 10
2074.084336092164
 20
282.8609207095852
 10
2076.084332092168
 20
284.8609207095852
  0
LWPOLYLINE
  5
9E71
330
1E
100
AcDbEntity
  8
0
  6
Continuous
 62
     4
100
AcDbPolyline
 90
        2
 70
     0
 43
0.0
 10
2086.656682574851
 20
282.8609207095852
 10
2088.656678574856
 20
284.8609207095852
  0
LWPOLYLINE
  5
9E72
330
1E
100
AcDbEntity
  8
0
  6
Continuous
 62
     4
100
AcDbPolyline
 90
        2
 70
     0
 43
0.0
 10
2099.229029057539
 20
282.8609207095852
 10
2101.229025057545
 20
284.8609207095852
  0
LWPOLYLINE
  5
9E73
330
1E
100
AcDbEntity
  8
0
  6
Continuous
 62
     4
100
AcDbPolyline
 90
        2
 70
     0
 43
0.0
 10
2111.801375540227
 20
282.8609207095852
 10
2113.801371540233
 20
284.8609207095852
  0
LWPOLYLINE
  5
9E74
330
1E
100
AcDbEntity
  8
0
  6
Continuous
 62
     4
100
AcDbPolyline
 90
        2
 70
     0
 43
0.0
 10
2075.880385493355
 20
282.8609207095852
 10
2077.880381493359
 20
284.8609207095852
  0
LWPOLYLINE
  5
9E75
330
1E
100
AcDbEntity
  8
0
  6
Continuous
 62
     4
100
AcDbPolyline
 90
        2
 70
     0
 43
0.0
 10
2088.452731976043
 20
282.8609207095852
 10
2090.452727976047
 20
284.8609207095852
  0
LWPOLYLINE
  5
9E76
330
1E
100
AcDbEntity
  8
0
  6
Continuous
 62
     4
100
AcDbPolyline
 90
        2
 70
     0
 43
0.0
 10
2101.025078458732
 20
282.8609207095852
 10
2103.025074458735
 20
284.8609207095852
  0
LWPOLYLINE
  5
9E77
330
1E
100
AcDbEntity
  8
0
  6
Continuous
 62
     4
100
AcDbPolyline
 90
        2
 70
     0
 43
0.0
 10
2113.597424941421
 20
282.8609207095852
 10
2114.222441683717
 20
283.4859387019169
  0
LWPOLYLINE
  5
9E78
330
1E
100
AcDbEntity
  8
0
  6
Continuous
 62
     4
100
AcDbPolyline
 90
        2
 70
     0
 43
0.0
 10
2118.722441701178
 20
252.6609183084823
 42
0.4142135623730951
 10
2120.722441701178
 20
254.6609183084823
  0
LWPOLYLINE
  5
9E79
330
1E
100
AcDbEntity
  8
0
  6
Continuous
 62
     4
100
AcDbPolyline
 90
        2
 70
     0
 43
0.0
 10
2057.522442607168
 20
254.6609187630808
 42
0.4145208549687631
 10
2062.727897013097
 20
249.4609213600473
  0
LWPOLYLINE
  5
9E7A
330
1E
100
AcDbEntity
  8
0
  6
Continuous
 62
     4
100
AcDbPolyline
 90
        2
 70
     0
 43
0.0
 10
2060.722442416433
 20
254.6609184833279
 42
0.4142135879786379
 10
2062.722442416433
 20
252.6609183084823
  0
LWPOLYLINE
  5
9E7B
330
1E
100
AcDbEntity
  8
0
  6
Continuous
 62
     4
100
AcDbPolyline
 90
        2
 70
     0
 43
0.0
 10
2118.722441435511
 20
249.4609184992171
 42
0.41421357733693
 10
2123.922441510443
 20
254.6609183084823
  0
LWPOLYLINE
  5
9E7C
330
1E
100
AcDbEntity
  8
0
  6
Continuous
 62
     4
100
AcDbPolyline
 90
        2
 70
     0
 43
0.0
 10
2090.722442416433
 20
277.8609152567245
 10
2114.222441701178
 20
277.8609152567245
  0
LWPOLYLINE
  5
9E7D
330
1E
100
AcDbEntity
  8
0
  6
Continuous
 62
     4
100
AcDbPolyline
 90
        2
 70
     0
 43
0.0
 10
2090.722442416433
 20
282.8609152567245
 10
2114.222441701178
 20
282.8609152567245
  0
LWPOLYLINE
  5
9E7E
330
1E
100
AcDbEntity
  8
0
  6
Continuous
 62
     4
100
AcDbPolyline
 90
        2
 70
     0
 43
0.0
 10
2114.222441701178
 20
284.8609152567245
 10
2114.222441701178
 20
277.8609152567245
  0
LWPOLYLINE
  5
9E7F
330
1E
100
AcDbEntity
  8
0
  6
Continuous
 62
     4
100
AcDbPolyline
 90
        2
 70
     0
 43
0.0
 10
2067.222442416433
 20
284.8609152567245
 10
2067.222442416433
 20
277.8609152567245
  0
LWPOLYLINE
  5
9E80
330
1E
100
AcDbEntity
  8
0
  6
Continuous
 62
     4
100
AcDbPolyline
 90
        2
 70
     0
 43
0.0
 10
2090.722442416433
 20
282.8609152567245
 10
2067.222442416433
 20
282.8609152567245
  0
LWPOLYLINE
  5
9E81
330
1E
100
AcDbEntity
  8
0
  6
Continuous
 62
     4
100
AcDbPolyline
 90
        2
 70
     0
 43
0.0
 10
2090.722442416433
 20
277.8609152567245
 10
2067.222442416433
 20
277.8609152567245
  0
LWPOLYLINE
  5
9E82
330
1E
100
AcDbEntity
  8
0
  6
Continuous
 62
     4
100
AcDbPolyline
 90
        2
 70
     0
 43
0.0
 10
2080.722442416433
 20
267.6609183084823
 10
2084.222442416433
 20
267.6609183084823
  0
LWPOLYLINE
  5
9E83
330
1E
100
AcDbEntity
  8
0
  6
Continuous
 62
     4
100
AcDbPolyline
 90
        2
 70
     0
 43
0.0
 10
2070.451011447195
 20
277.8609152567245
 10
2069.722438601736
 20
267.6609183084823
  0
LWPOLYLINE
  5
9E84
330
1E
100
AcDbEntity
  8
0
  6
Continuous
 62
     4
100
AcDbPolyline
 90
        2
 70
     0
 43
0.0
 10
2080.722442416433
 20
267.6609183084823
 10
2079.629585055593
 20
277.8609152567245
  0
LWPOLYLINE
  5
9E85
330
1E
100
AcDbEntity
  8
0
  6
Continuous
 62
     4
100
AcDbPolyline
 90
        2
 70
     0
 43
0.0
 10
2065.722434787039
 20
267.6609183084823
 10
2069.722442416433
 20
267.6609183084823
  0
LWPOLYLINE
  5
9E86
330
1E
100
AcDbEntity
  8
0
  6
Continuous
 62
     4
100
AcDbPolyline
 90
        2
 70
     0
 43
0.0
 10
2085.315299777273
 20
277.8609152567245
 10
2084.222442416433
 20
267.6609183084823
  0
LWPOLYLINE
  5
9E87
330
1E
100
AcDbEntity
  8
0
  6
Continuous
 62
     4
100
AcDbPolyline
 90
        2
 70
     0
 43
0.0
 10
2110.99387028623
 20
277.8609152567245
 10
2111.722441701178
 20
267.6609183084823
  0
LWPOLYLINE
  5
9E88
330
1E
100
AcDbEntity
  8
0
  6
Continuous
 62
     4
100
AcDbPolyline
 90
        2
 70
     0
 43
0.0
 10
2097.222442416434
 20
267.6609183084823
 10
2100.722441462759
 20
267.6609183084823
  0
LWPOLYLINE
  5
9E89
330
1E
100
AcDbEntity
  8
0
  6
Continuous
 62
     4
100
AcDbPolyline
 90
        2
 70
     0
 43
0.0
 10
2096.129585055594
 20
277.8609152567245
 10
2097.222442416434
 20
267.6609183084823
  0
LWPOLYLINE
  5
9E8A
330
1E
100
AcDbEntity
  8
0
  6
Continuous
 62
     4
100
AcDbPolyline
 90
        2
 70
     0
 43
0.0
 10
2111.722441701178
 20
267.6609183084823
 10
2115.722445515875
 20
267.6609183084823
  0
LWPOLYLINE
  5
9E8B
330
1E
100
AcDbEntity
  8
0
  6
Continuous
 62
     4
100
AcDbPolyline
 90
        2
 70
     0
 43
0.0
 10
2100.722441462759
 20
267.6609183084823
 10
2101.815298823599
 20
277.8609152567245
  0
LWPOLYLINE
  5
9E8C
330
1E
100
AcDbEntity
  8
0
  6
Continuous
 62
     4
100
AcDbPolyline
 90
        2
 70
     0
 43
0.0
 10
2120.722441462759
 20
351.6609335672713
 10
2120.722441462759
 20
254.6609183084823
  0
LWPOLYLINE
  5
9E8D
330
1E
100
AcDbEntity
  8
0
  6
Continuous
 62
     4
100
AcDbPolyline
 90
        2
 70
     0
 43
0.0
 10
2123.922441272024
 20
351.6609335672713
 10
2123.922441272024
 20
254.6609183084823
  0
LWPOLYLINE
  5
9E8E
330
1E
100
AcDbEntity
  8
0
  6
Continuous
 62
     4
100
AcDbPolyline
 90
        2
 70
     0
 43
0.0
 10
2067.222442416433
 20
284.8609152567245
 10
2114.222441701178
 20
284.8609152567245
  0
LWPOLYLINE
  5
9E8F
330
1E
100
AcDbEntity
  8
0
  6
Continuous
 62
     4
100
AcDbPolyline
 90
        2
 70
     0
 43
0.0
 10
2060.722442416433
 20
351.6609335672713
 10
2057.522441653494
 20
351.6609335672713
  0
LWPOLYLINE
  5
9E90
330
1E
100
AcDbEntity
  8
0
  6
Continuous
 62
     4
100
AcDbPolyline
 90
        2
 70
     0
 43
0.0
 10
2065.722442416433
 20
338.1609335672714
 10
2060.722442416433
 20
338.1609335672714
  0
LWPOLYLINE
  5
9E91
330
1E
100
AcDbEntity
  8
0
  6
Continuous
 62
     4
100
AcDbPolyline
 90
        2
 70
     0
 43
0.0
 10
2120.722441462759
 20
351.6609335672713
 10
2123.922441272024
 20
351.6609335672713
  0
LWPOLYLINE
  5
9E92
330
1E
100
AcDbEntity
  8
0
  6
Continuous
 62
     4
100
AcDbPolyline
 90
        2
 70
     0
 43
0.0
 10
2115.722441701178
 20
338.1609335672714
 10
2120.722441462759
 20
338.1609335672714
  0
LWPOLYLINE
  5
9E93
330
1E
100
AcDbEntity
  8
0
  6
Continuous
 62
     4
100
AcDbPolyline
 90
        2
 70
     0
 43
0.0
 10
2118.722441701178
 20
252.6609183084823
 10
2062.722442416433
 20
252.6609183084823
  0
LWPOLYLINE
  5
9E94
330
1E
100
AcDbEntity
  8
0
  6
Continuous
 62
     4
100
AcDbPolyline
 90
        2
 70
     0
 43
0.0
 10
2118.722441435512
 20
249.460918499217
 10
2062.727897013097
 20
249.4609213599613
  0
LWPOLYLINE
  5
9E95
330
1E
100
AcDbEntity
  8
0
  6
Continuous
 62
     4
100
AcDbPolyline
 90
        2
 70
     0
 43
0.0
 10
2057.522441653494
 20
351.6609335672713
 10
2057.522441653494
 20
254.6609183084823
  0
LWPOLYLINE
  5
9E96
330
1E
100
AcDbEntity
  8
0
  6
Continuous
 62
     4
100
AcDbPolyline
 90
        2
 70
     0
 43
0.0
 10
2115.722441701178
 20
338.1609335672714
 10
2115.722441701178
 20
267.6609183084823
  0
LWPOLYLINE
  5
9E97
330
1E
100
AcDbEntity
  8
0
  6
Continuous
 62
     4
100
AcDbPolyline
 90
        2
 70
     0
 43
0.0
 10
2060.722442416433
 20
351.6609335672713
 10
2060.722442416433
 20
254.6609183084823
  0
LWPOLYLINE
  5
9E98
330
1E
100
AcDbEntity
  8
0
  6
Continuous
 62
     4
100
AcDbPolyline
 90
        2
 70
     0
 43
0.0
 10
2065.722442416433
 20
338.1609335672714
 10
2065.722442416433
 20
267.6609183084823
  0
LWPOLYLINE
  5
9E99
330
1E
100
AcDbEntity
  8
躯体と製品
  6
Continuous
 62
     3
100
AcDbPolyline
 90
        2
 70
     0
 43
0.0
 10
2225.722442058806
 20
385.8608752567245
 10
2225.722442058806
 20
380.8609152567246
  0
LWPOLYLINE
  5
9E9A
330
1E
100
AcDbEntity
  8
躯体と製品
  6
Continuous
 62
     3
100
AcDbPolyline
 90
        2
 70
     0
 43
0.0
 10
2225.722444058805
 20
385.8608752567245
 42
0.4142135623730951
 10
2224.722404058805
 20
386.8609152567245
  0
LWPOLYLINE
  5
9E9B
330
1E
100
AcDbEntity
  8
躯体と製品
  6
Continuous
 62
     3
100
AcDbPolyline
 90
        2
 70
     0
 43
0.0
 10
2224.722404058805
 20
386.8609152567246
 10
2216.722088058806
 20
386.8609152567246
  0
LWPOLYLINE
  5
9E9C
330
1E
100
AcDbEntity
  8
躯体と製品
  6
Continuous
 62
     3
100
AcDbPolyline
 90
        2
 70
     0
 43
0.0
 10
2225.722442058806
 20
393.8609532567244
 10
2225.722442058806
 20
398.8609152567245
  0
LWPOLYLINE
  5
9E9D
330
1E
100
AcDbEntity
  8
躯体と製品
  6
Continuous
 62
     3
100
AcDbPolyline
 90
        2
 70
     0
 43
0.0
 10
2224.722404058805
 20
392.8609132567244
 42
0.4142135623730951
 10
2225.722444058805
 20
393.8609532567244
  0
LWPOLYLINE
  5
9E9E
330
1E
100
AcDbEntity
  8
躯体と製品
  6
Continuous
 62
     3
100
AcDbPolyline
 90
        2
 70
     0
 43
0.0
 10
2224.722404058805
 20
392.8609152567245
 10
2216.722088058806
 20
392.8609152567245
  0
LWPOLYLINE
  5
9E9F
330
1E
100
AcDbEntity
  8
躯体と製品
  6
Continuous
 62
     3
100
AcDbPolyline
 90
        2
 70
     0
 43
0.0
 10
2216.722088058806
 20
392.8609152567246
 42
0.4142135623730951
 10
2215.722048058806
 20
391.8608752567246
  0
LWPOLYLINE
  5
9EA0
330
1E
100
AcDbEntity
  8
躯体と製品
  6
Continuous
 62
     3
100
AcDbPolyline
 90
        2
 70
     0
 43
0.0
 10
2215.722050058806
 20
391.8608752567246
 10
2215.722050058806
 20
387.8609552567245
  0
LWPOLYLINE
  5
9EA1
330
1E
100
AcDbEntity
  8
躯体と製品
  6
Continuous
 62
     3
100
AcDbPolyline
 90
        2
 70
     0
 43
0.0
 10
2215.722048058806
 20
387.8609552567245
 42
0.4142135623730951
 10
2216.722088058806
 20
386.8609152567245
  0
LWPOLYLINE
  5
9EA2
330
1E
100
AcDbEntity
  8
躯体と製品
  6
Continuous
 62
     3
100
AcDbPolyline
 90
        2
 70
     0
 43
0.0
 10
1955.722437058806
 20
385.8608752567245
 10
1955.722437058806
 20
380.8609152567246
  0
LWPOLYLINE
  5
9EA3
330
1E
100
AcDbEntity
  8
躯体と製品
  6
Continuous
 62
     3
100
AcDbPolyline
 90
        2
 70
     0
 43
0.0
 10
1955.722439058806
 20
385.8608752567245
 42
0.4142135623730951
 10
1954.722399058806
 20
386.8609152567245
  0
LWPOLYLINE
  5
9EA4
330
1E
100
AcDbEntity
  8
躯体と製品
  6
Continuous
 62
     3
100
AcDbPolyline
 90
        2
 70
     0
 43
0.0
 10
1954.722399058806
 20
386.8609152567246
 10
1946.722083058806
 20
386.8609152567246
  0
LWPOLYLINE
  5
9EA5
330
1E
100
AcDbEntity
  8
躯体と製品
  6
Continuous
 62
     3
100
AcDbPolyline
 90
        2
 70
     0
 43
0.0
 10
1955.722437058806
 20
393.8609532567244
 10
1955.722437058806
 20
398.8609152567245
  0
LWPOLYLINE
  5
9EA6
330
1E
100
AcDbEntity
  8
躯体と製品
  6
Continuous
 62
     3
100
AcDbPolyline
 90
        2
 70
     0
 43
0.0
 10
1954.722399058806
 20
392.8609132567244
 42
0.4142135623730951
 10
1955.722439058806
 20
393.8609532567244
  0
LWPOLYLINE
  5
9EA7
330
1E
100
AcDbEntity
  8
躯体と製品
  6
Continuous
 62
     3
100
AcDbPolyline
 90
        2
 70
     0
 43
0.0
 10
1954.722399058806
 20
392.8609152567245
 10
1946.722083058806
 20
392.8609152567245
  0
LWPOLYLINE
  5
9EA8
330
1E
100
AcDbEntity
  8
躯体と製品
  6
Continuous
 62
     3
100
AcDbPolyline
 90
        2
 70
     0
 43
0.0
 10
1946.722083058806
 20
392.8609152567246
 42
0.4142135623730951
 10
1945.722043058806
 20
391.8608752567246
  0
LWPOLYLINE
  5
9EA9
330
1E
100
AcDbEntity
  8
躯体と製品
  6
Continuous
 62
     3
100
AcDbPolyline
 90
        2
 70
     0
 43
0.0
 10
1945.722045058806
 20
391.8608752567246
 10
1945.722045058806
 20
387.8609552567245
  0
LWPOLYLINE
  5
9EAA
330
1E
100
AcDbEntity
  8
躯体と製品
  6
Continuous
 62
     3
100
AcDbPolyline
 90
        2
 70
     0
 43
0.0
 10
1945.722043058806
 20
387.8609552567245
 42
0.4142135623730951
 10
1946.722083058806
 20
386.8609152567245
  0
LWPOLYLINE
  5
9EAB
330
1E
100
AcDbEntity
  8
躯体と製品
  6
Continuous
 62
     3
100
AcDbPolyline
 90
        2
 70
     0
 43
0.0
 10
2085.722442058806
 20
237.6609168778314
 10
2085.722442058806
 20
221.1608903084825
  0
LWPOLYLINE
  5
9EAC
330
1E
100
AcDbEntity
  8
躯体と製品
  6
Continuous
 62
     3
100
AcDbPolyline
 90
        2
 70
     0
 43
0.0
 10
2095.722442058806
 20
237.6609168778315
 10
2095.722442058805
 20
221.1608903084825
  0
LWPOLYLINE
  5
9EAD
330
1E
100
AcDbEntity
  8
躯体と製品
  6
Continuous
 62
     4
100
AcDbPolyline
 90
        2
 70
     0
 43
0.0
 10
2084.722442058806
 20
237.6609168778315
 10
2084.722442058806
 20
221.1608903084825
  0
LWPOLYLINE
  5
9EAE
330
1E
100
AcDbEntity
  8
躯体と製品
  6
Continuous
 62
     4
100
AcDbPolyline
 90
        2
 70
     0
 43
0.0
 10
2096.722442058807
 20
237.6609168778315
 10
2096.722442058805
 20
221.1608903084825
  0
LWPOLYLINE
  5
9EAF
330
1E
100
AcDbEntity
  8
躯体と製品
  6
Continuous
 62
     4
100
AcDbPolyline
 90
        2
 70
     0
 43
0.0
 10
2449.818804058806
 20
249.4608919295892
 10
2449.818804058806
 20
247.1608888778314
  0
LWPOLYLINE
  5
9EB0
330
1E
100
AcDbEntity
  8
躯体と製品
  6
Continuous
 62
     4
100
AcDbPolyline
 90
        2
 70
     0
 43
0.0
 10
2489.818803105132
 20
249.4608919295892
 10
2489.818803105132
 20
247.1608888778314
  0
LWPOLYLINE
  5
9EB1
330
1E
100
AcDbEntity
  8
躯体と製品
  6
Continuous
 62
     4
100
AcDbPolyline
 90
        2
 70
     0
 43
0.0
 10
2449.818804058806
 20
247.1608888778314
 10
2489.818803105132
 20
247.1608888778314
  0
LWPOLYLINE
  5
9EB2
330
1E
100
AcDbEntity
  8
躯体と製品
  6
Continuous
 62
     4
100
AcDbPolyline
 90
        2
 70
     0
 43
0.0
 10
2459.368433880614
 20
247.1608888778314
 10
2459.368433880614
 20
244.1608888778314
  0
LWPOLYLINE
  5
9EB3
330
1E
100
AcDbEntity
  8
躯体と製品
  6
Continuous
 62
     4
100
AcDbPolyline
 90
        2
 70
     0
 43
0.0
 10
2480.369188236998
 20
247.1608888778314
 10
2480.369188236998
 20
244.1608888778314
  0
LWPOLYLINE
  5
9EB4
330
1E
100
AcDbEntity
  8
躯体と製品
  6
Continuous
 62
     4
100
AcDbPolyline
 90
        2
 70
     0
 43
0.0
 10
2459.368433880614
 20
244.1608888778314
 10
2480.369188236998
 20
244.1608888778314
  0
LWPOLYLINE
  5
9EB5
330
1E
100
AcDbEntity
  8
躯体と製品
  6
Continuous
 62
     4
100
AcDbPolyline
 90
        2
 70
     0
 43
0.0
 10
2469.818804058806
 20
238.6608888778333
 42
0.2223165980162914
 10
2478.814983461737
 20
238.6608888778333
  0
LWPOLYLINE
  5
9EB6
330
1E
100
AcDbEntity
  8
躯体と製品
  6
Continuous
 62
     4
100
AcDbPolyline
 90
        2
 70
     0
 43
0.0
 10
2460.822624655874
 20
238.6608888778333
 42
0.2223165980162598
 10
2469.818804058805
 20
238.6608888778328
  0
LWPOLYLINE
  5
9EB7
330
1E
100
AcDbEntity
  8
躯体と製品
  6
Continuous
 62
     3
100
AcDbPolyline
 90
        2
 70
     0
 43
0.0
 10
2571.224650058806
 20
218.8609152567246
 10
2546.432860058806
 20
194.0691252567246
  0
LWPOLYLINE
  5
9EB8
330
1E
100
AcDbEntity
  8
躯体と製品
  6
Continuous
 62
     3
100
AcDbPolyline
 90
        2
 70
     0
 43
0.0
 10
2542.936516058806
 20
218.8609152567246
 10
2518.144726058806
 20
194.0691252567246
  0
LWPOLYLINE
  5
9EB9
330
1E
100
AcDbEntity
  8
躯体と製品
  6
Continuous
 62
     3
100
AcDbPolyline
 90
        2
 70
     0
 43
0.0
 10
2557.080582058806
 20
218.8609152567246
 10
2532.288792058805
 20
194.0691252567246
  0
LWPOLYLINE
  5
9EBA
330
1E
100
AcDbEntity
  8
躯体と製品
  6
Continuous
 62
     3
100
AcDbPolyline
 90
        2
 70
     0
 43
0.0
 10
2597.719042058806
 20
370.8609152567245
 10
2263.721232058806
 20
370.8609152567245
  0
LWPOLYLINE
  5
9EBB
330
1E
100
AcDbEntity
  8
躯体と製品
  6
Continuous
 62
     3
100
AcDbPolyline
 90
        2
 70
     0
 43
0.0
 10
2597.719042058806
 20
375.8609152567245
 10
2263.721232058806
 20
375.8609152567245
  0
LWPOLYLINE
  5
9EBC
330
1E
100
AcDbEntity
  8
躯体と製品
  6
Continuous
 62
     4
100
AcDbPolyline
 90
        2
 70
     0
 43
0.0
 10
2597.719042058806
 20
380.8609152567245
 10
2263.721232058806
 20
380.8609152567245
  0
LWPOLYLINE
  5
9EBD
330
1E
100
AcDbEntity
  8
躯体と製品
  6
Continuous
 62
     4
100
AcDbPolyline
 90
        2
 70
     0
 43
0.0
 10
2597.719042058806
 20
398.8609152567245
 10
2263.721232058806
 20
398.8609152567245
  0
LWPOLYLINE
  5
9EBE
330
1E
100
AcDbEntity
  8
躯体と製品
  6
Continuous
 62
     4
100
AcDbPolyline
 90
        2
 70
     0
 43
0.0
 10
2597.719042058806
 20
365.8609152567245
 10
2263.721232058806
 20
365.8609152567245
  0
LWPOLYLINE
  5
9EBF
330
1E
100
AcDbEntity
  8
躯体と製品
  6
Continuous
 62
     4
100
AcDbPolyline
 90
        2
 70
     0
 43
0.0
 10
2597.719039222328
 20
334.8609152567245
 10
2494.818804058806
 20
334.8609152567245
  0
LWPOLYLINE
  5
9EC0
330
1E
100
AcDbEntity
  8
躯体と製品
  6
PLINE2
 62
     3
100
AcDbPolyline
 90
        2
 70
     0
 43
0.0
 10
2597.719042058806
 20
333.2609152567244
 10
2494.818908058807
 20
333.2609152567244
  0
LWPOLYLINE
  5
9EC1
330
1E
100
AcDbEntity
  8
躯体と製品
  6
Continuous
 62
     4
100
AcDbPolyline
 90
        2
 70
     0
 43
0.0
 10
2597.719042058806
 20
284.8609152567245
 10
2494.818804058806
 20
284.8609152567245
  0
LWPOLYLINE
  5
9EC2
330
1E
100
AcDbEntity
  8
躯体と製品
  6
PLINE2
 62
     3
100
AcDbPolyline
 90
        2
 70
     0
 43
0.0
 10
2597.719042058806
 20
286.4609152567245
 10
2494.818908058807
 20
286.4609152567245
  0
LWPOLYLINE
  5
9EC3
330
1E
100
AcDbEntity
  8
躯体と製品
  6
Continuous
 62
     3
100
AcDbPolyline
 90
        2
 70
     0
 43
0.0
 10
2464.818804058806
 20
237.6727598858222
 10
2464.818804058806
 20
221.1608903084825
  0
LWPOLYLINE
  5
9EC4
330
1E
100
AcDbEntity
  8
躯体と製品
  6
Continuous
 62
     3
100
AcDbPolyline
 90
        2
 70
     0
 43
0.0
 10
2474.818804058806
 20
237.6727598858222
 10
2474.818804058806
 20
221.1608903084825
  0
LWPOLYLINE
  5
9EC5
330
1E
100
AcDbEntity
  8
躯体と製品
  6
Continuous
 62
     4
100
AcDbPolyline
 90
        2
 70
     0
 43
0.0
 10
2463.818804058806
 20
237.7676639755968
 10
2463.818804058806
 20
221.1608903084825
  0
LWPOLYLINE
  5
9EC6
330
1E
100
AcDbEntity
  8
躯体と製品
  6
Continuous
 62
     4
100
AcDbPolyline
 90
        2
 70
     0
 43
0.0
 10
2475.818804058806
 20
237.7676639755968
 10
2475.818804058806
 20
221.1608903084825
  0
LWPOLYLINE
  5
9EC7
330
1E
100
AcDbEntity
  8
躯体と製品
  6
Continuous
 62
     4
100
AcDbPolyline
 90
        2
 70
     0
 43
0.0
 10
2263.721201503839
 20
334.8609152567245
 10
2444.818804058806
 20
334.8609152567245
  0
LWPOLYLINE
  5
9EC8
330
1E
100
AcDbEntity
  8
躯体と製品
  6
PLINE2
 62
     3
100
AcDbPolyline
 90
        2
 70
     0
 43
0.0
 10
2263.721336058805
 20
333.2609152567244
 10
2444.818804058806
 20
333.2609152567244
  0
LWPOLYLINE
  5
9EC9
330
1E
100
AcDbEntity
  8
躯体と製品
  6
Continuous
 62
     4
100
AcDbPolyline
 90
        2
 70
     0
 43
0.0
 10
2263.721232058806
 20
284.8609152567245
 10
2444.818700058806
 20
284.8609152567245
  0
LWPOLYLINE
  5
9ECA
330
1E
100
AcDbEntity
  8
躯体と製品
  6
PLINE2
 62
     3
100
AcDbPolyline
 90
        2
 70
     0
 43
0.0
 10
2263.721232058806
 20
286.4609152567245
 10
2444.818700058806
 20
286.4609152567245
  0
LWPOLYLINE
  5
9ECB
330
1E
100
AcDbEntity
  8
躯体と製品
  6
Continuous
 62
     3
100
AcDbPolyline
 90
        2
 70
     0
 43
0.0
 10
2045.722437058806
 20
385.8608752567245
 10
2045.722437058806
 20
380.8609152567246
  0
LWPOLYLINE
  5
9ECC
330
1E
100
AcDbEntity
  8
躯体と製品
  6
Continuous
 62
     3
100
AcDbPolyline
 90
        2
 70
     0
 43
0.0
 10
2045.722439058806
 20
385.8608752567245
 42
0.4142135623730951
 10
2044.722399058807
 20
386.8609152567245
  0
LWPOLYLINE
  5
9ECD
330
1E
100
AcDbEntity
  8
躯体と製品
  6
Continuous
 62
     3
100
AcDbPolyline
 90
        2
 70
     0
 43
0.0
 10
2044.722399058807
 20
386.8609152567246
 10
2036.722083058807
 20
386.8609152567246
  0
LWPOLYLINE
  5
9ECE
330
1E
100
AcDbEntity
  8
躯体と製品
  6
Continuous
 62
     3
100
AcDbPolyline
 90
        2
 70
     0
 43
0.0
 10
2045.722437058806
 20
393.8609532567244
 10
2045.722437058806
 20
398.8609152567245
  0
LWPOLYLINE
  5
9ECF
330
1E
100
AcDbEntity
  8
躯体と製品
  6
Continuous
 62
     3
100
AcDbPolyline
 90
        2
 70
     0
 43
0.0
 10
2044.722399058807
 20
392.8609132567244
 42
0.4142135623730951
 10
2045.722439058806
 20
393.8609532567244
  0
LWPOLYLINE
  5
9ED0
330
1E
100
AcDbEntity
  8
躯体と製品
  6
Continuous
 62
     3
100
AcDbPolyline
 90
        2
 70
     0
 43
0.0
 10
2044.722399058807
 20
392.8609152567245
 10
2036.722083058807
 20
392.8609152567245
  0
LWPOLYLINE
  5
9ED1
330
1E
100
AcDbEntity
  8
躯体と製品
  6
Continuous
 62
     3
100
AcDbPolyline
 90
        2
 70
     0
 43
0.0
 10
2036.722083058807
 20
392.8609152567246
 42
0.4142135623730951
 10
2035.722043058806
 20
391.8608752567246
  0
LWPOLYLINE
  5
9ED2
330
1E
100
AcDbEntity
  8
躯体と製品
  6
Continuous
 62
     3
100
AcDbPolyline
 90
        2
 70
     0
 43
0.0
 10
2035.722045058806
 20
391.8608752567246
 10
2035.722045058806
 20
387.8609552567245
  0
LWPOLYLINE
  5
9ED3
330
1E
100
AcDbEntity
  8
躯体と製品
  6
Continuous
 62
     3
100
AcDbPolyline
 90
        2
 70
     0
 43
0.0
 10
2035.722043058806
 20
387.8609552567245
 42
0.4142135623730951
 10
2036.722083058807
 20
386.8609152567245
  0
LWPOLYLINE
  5
9ED4
330
1E
100
AcDbEntity
  8
躯体と製品
  6
Continuous
 62
     3
100
AcDbPolyline
 90
        2
 70
     0
 43
0.0
 10
2053.572700418504
 20
339.8609152567246
 10
1940.716530058806
 20
339.8609152567246
  0
LWPOLYLINE
  5
9ED5
330
1E
100
AcDbEntity
  8
躯体と製品
  6
Continuous
 62
     4
100
AcDbPolyline
 90
        2
 70
     0
 43
0.0
 10
2057.472434058805
 20
336.8609152567245
 10
1940.716530058806
 20
336.8609152567245
  0
LWPOLYLINE
  5
9ED6
330
1E
100
AcDbEntity
  8
躯体と製品
  6
Continuous
 62
     4
100
AcDbPolyline
 90
        2
 70
     0
 43
0.0
 10
1940.716530058806
 20
365.8609152567246
 10
2240.728344058807
 20
365.8609152567246
  0
LWPOLYLINE
  5
9ED7
330
1E
100
AcDbEntity
  8
躯体と製品
  6
Continuous
 62
     4
100
AcDbPolyline
 90
        2
 70
     0
 43
0.0
 10
1940.716530058806
 20
398.8609152567245
 10
2240.728344058807
 20
398.8609152567245
  0
LWPOLYLINE
  5
9ED8
330
1E
100
AcDbEntity
  8
躯体と製品
  6
Continuous
 62
     3
100
AcDbPolyline
 90
        2
 70
     0
 43
0.0
 10
1940.716530058806
 20
375.8609152567245
 10
2240.728344058807
 20
375.8609152567245
  0
LWPOLYLINE
  5
9ED9
330
1E
100
AcDbEntity
  8
躯体と製品
  6
Continuous
 62
     3
100
AcDbPolyline
 90
        2
 70
     0
 43
0.0
 10
1940.716530058806
 20
370.8609152567245
 10
2240.728344058807
 20
370.8609152567245
  0
LWPOLYLINE
  5
9EDA
330
1E
100
AcDbEntity
  8
躯体と製品
  6
Continuous
 62
     4
100
AcDbPolyline
 90
        2
 70
     0
 43
0.0
 10
1940.716530058806
 20
380.8609152567246
 10
2240.728344058807
 20
380.8609152567246
  0
LWPOLYLINE
  5
9EDB
330
1E
100
AcDbEntity
  8
躯体と製品
  6
Continuous
 62
     3
100
AcDbPolyline
 90
        2
 70
     0
 43
0.0
 10
2135.722442058805
 20
385.8608752567245
 10
2135.722442058805
 20
380.8609152567246
  0
LWPOLYLINE
  5
9EDC
330
1E
100
AcDbEntity
  8
躯体と製品
  6
Continuous
 62
     3
100
AcDbPolyline
 90
        2
 70
     0
 43
0.0
 10
2135.722444058805
 20
385.8608752567245
 42
0.4142135623730951
 10
2134.722404058805
 20
386.8609152567245
  0
LWPOLYLINE
  5
9EDD
330
1E
100
AcDbEntity
  8
躯体と製品
  6
Continuous
 62
     3
100
AcDbPolyline
 90
        2
 70
     0
 43
0.0
 10
2134.722404058805
 20
386.8609152567246
 10
2126.722088058806
 20
386.8609152567246
  0
LWPOLYLINE
  5
9EDE
330
1E
100
AcDbEntity
  8
躯体と製品
  6
Continuous
 62
     3
100
AcDbPolyline
 90
        2
 70
     0
 43
0.0
 10
2135.722442058805
 20
393.8609532567244
 10
2135.722442058805
 20
398.8609152567245
  0
LWPOLYLINE
  5
9EDF
330
1E
100
AcDbEntity
  8
躯体と製品
  6
Continuous
 62
     3
100
AcDbPolyline
 90
        2
 70
     0
 43
0.0
 10
2134.722404058805
 20
392.8609132567244
 42
0.4142135623730951
 10
2135.722444058805
 20
393.8609532567244
  0
LWPOLYLINE
  5
9EE0
330
1E
100
AcDbEntity
  8
躯体と製品
  6
Continuous
 62
     3
100
AcDbPolyline
 90
        2
 70
     0
 43
0.0
 10
2134.722404058805
 20
392.8609152567245
 10
2126.722088058806
 20
392.8609152567245
  0
LWPOLYLINE
  5
9EE1
330
1E
100
AcDbEntity
  8
躯体と製品
  6
Continuous
 62
     3
100
AcDbPolyline
 90
        2
 70
     0
 43
0.0
 10
2126.722088058806
 20
392.8609152567246
 42
0.4142135623730951
 10
2125.722048058806
 20
391.8608752567246
  0
LWPOLYLINE
  5
9EE2
330
1E
100
AcDbEntity
  8
躯体と製品
  6
Continuous
 62
     3
100
AcDbPolyline
 90
        2
 70
     0
 43
0.0
 10
2125.722050058806
 20
391.8608752567246
 10
2125.722050058806
 20
387.8609552567245
  0
LWPOLYLINE
  5
9EE3
330
1E
100
AcDbEntity
  8
躯体と製品
  6
Continuous
 62
     3
100
AcDbPolyline
 90
        2
 70
     0
 43
0.0
 10
2125.722048058806
 20
387.8609552567245
 42
0.4142135623730951
 10
2126.722088058806
 20
386.8609152567245
  0
LWPOLYLINE
  5
9EE4
330
1E
100
AcDbEntity
  8
躯体と製品
  6
Continuous
 62
     3
100
AcDbPolyline
 90
        2
 70
     0
 43
0.0
 10
2137.522441701178
 20
339.8610472567246
 10
2240.728344058807
 20
339.8610472567246
  0
LWPOLYLINE
  5
9EE5
330
1E
100
AcDbEntity
  8
躯体と製品
  6
Continuous
 62
     4
100
AcDbPolyline
 90
        2
 70
     0
 43
0.0
 10
2123.872434058806
 20
336.8609152567245
 10
2240.728344058807
 20
336.8609152567245
  0
LWPOLYLINE
  5
9EE6
330
1E
100
AcDbEntity
  8
躯体と製品
  6
Continuous
 62
     3
100
AcDbPolyline
 90
        2
 70
     0
 43
0.0
 10
2320.068986058805
 20
218.8609152567246
 10
2295.277196058806
 20
194.0691252567246
  0
LWPOLYLINE
  5
9EE7
330
1E
100
AcDbEntity
  8
躯体と製品
  6
Continuous
 62
     3
100
AcDbPolyline
 90
        2
 70
     0
 43
0.0
 10
2348.357120058806
 20
218.8609152567246
 10
2323.565330058805
 20
194.0691252567246
  0
LWPOLYLINE
  5
9EE8
330
1E
100
AcDbEntity
  8
躯体と製品
  6
Continuous
 62
     3
100
AcDbPolyline
 90
        2
 70
     0
 43
0.0
 10
2334.213054058806
 20
218.8609152567246
 10
2309.421262058806
 20
194.0691252567246
  0
LWPOLYLINE
  5
9EE9
330
1E
100
AcDbEntity
  8
躯体と製品
  6
Continuous
 62
     4
100
AcDbPolyline
 90
        2
 70
     0
 43
0.0
 10
1940.716530058805
 20
218.8609152567246
 10
2240.728344058806
 20
218.8609152567246
  0
LWPOLYLINE
  5
9EEA
330
1E
100
AcDbEntity
  8
躯体と製品
  6
Continuous
 62
     4
100
AcDbPolyline
 90
        2
 70
     0
 43
0.0
 10
2597.719042058806
 20
218.8609152567246
 10
2263.721232058806
 20
218.8609152567246
  0
LWPOLYLINE
  5
9EEB
330
1E
100
AcDbEntity
  8
躯体と製品
  6
Continuous
 62
     3
100
AcDbPolyline
 90
        2
 70
     0
 43
0.0
 10
2179.227906058806
 20
218.8609152567246
 10
2154.436116058806
 20
194.0691252567246
  0
LWPOLYLINE
  5
9EEC
330
1E
100
AcDbEntity
  8
躯体と製品
  6
Continuous
 62
     3
100
AcDbPolyline
 90
        2
 70
     0
 43
0.0
 10
2207.516040058806
 20
218.8609152567246
 10
2182.724250058805
 20
194.0691252567246
  0
LWPOLYLINE
  5
9EED
330
1E
100
AcDbEntity
  8
躯体と製品
  6
Continuous
 62
     3
100
AcDbPolyline
 90
        2
 70
     0
 43
0.0
 10
2193.371972058806
 20
218.8609152567246
 10
2168.580182058806
 20
194.0691252567246
  0
LWPOLYLINE
  5
9EEE
330
1E
100
AcDbEntity
  8
躯体と製品
  6
Continuous
 62
     3
100
AcDbPolyline
 90
        2
 70
     0
 43
0.0
 10
1980.605030058805
 20
218.8609152567246
 10
1955.813240058805
 20
194.0691252567246
  0
LWPOLYLINE
  5
9EEF
330
1E
100
AcDbEntity
  8
躯体と製品
  6
Continuous
 62
     3
100
AcDbPolyline
 90
        2
 70
     0
 43
0.0
 10
2008.893164058806
 20
218.8609152567246
 10
1984.101374058806
 20
194.0691252567246
  0
LWPOLYLINE
  5
9EF0
330
1E
100
AcDbEntity
  8
躯体と製品
  6
Continuous
 62
     3
100
AcDbPolyline
 90
        2
 70
     0
 43
0.0
 10
1994.749098058806
 20
218.8609152567246
 10
1969.957308058806
 20
194.0691252567246
  0
LWPOLYLINE
  5
9EF1
330
1E
100
AcDbEntity
  8
躯体と製品
  6
Continuous
 62
     4
100
AcDbPolyline
 90
        2
 70
     0
 43
0.0
 10
2444.818804058806
 20
249.4609199295891
 10
2494.818804058806
 20
249.4609199295891
  0
LWPOLYLINE
  5
9EF2
330
1E
100
AcDbEntity
  8
躯体と製品
  6
Continuous
 62
     4
100
AcDbPolyline
 90
        2
 70
     0
 43
0.0
 10
2444.818804058806
 20
249.4609199295891
 10
2444.818804058806
 20
349.1609335672714
  0
LWPOLYLINE
  5
9EF3
330
1E
100
AcDbEntity
  8
躯体と製品
  6
Continuous
 62
     4
100
AcDbPolyline
 90
        2
 70
     0
 43
0.0
 10
2494.818804058806
 20
349.1609335672714
 10
2494.818804058806
 20
249.4609199295891
  0
LWPOLYLINE
  5
9EF4
330
1E
100
AcDbEntity
  8
躯体と製品
  6
Continuous
 62
     4
100
AcDbPolyline
 90
        2
 70
     0
 43
0.0
 10
2447.318804058806
 20
351.6609335672713
 42
0.4142135623730951
 10
2444.818804058806
 20
349.1609335672714
  0
LWPOLYLINE
  5
9EF5
330
1E
100
AcDbEntity
  8
躯体と製品
  6
Continuous
 62
     4
100
AcDbPolyline
 90
        2
 70
     0
 43
0.0
 10
2492.318804058806
 20
351.6609335672713
 10
2447.318804058806
 20
351.6609335672713
  0
LWPOLYLINE
  5
9EF6
330
1E
100
AcDbEntity
  8
躯体と製品
  6
Continuous
 62
     4
100
AcDbPolyline
 90
        2
 70
     0
 43
0.0
 10
2474.917798058806
 20
343.9109255672712
 10
2475.318776058805
 20
343.9109255672712
  0
LWPOLYLINE
  5
9EF7
330
1E
100
AcDbEntity
  8
躯体と製品
  6
Continuous
 62
     4
100
AcDbPolyline
 90
        2
 70
     0
 43
0.0
 10
2475.818774058805
 20
343.4109295672714
 42
0.4142135623730951
 10
2475.318776058805
 20
343.9109275672714
  0
LWPOLYLINE
  5
9EF8
330
1E
100
AcDbEntity
  8
躯体と製品
  6
Continuous
 62
     4
100
AcDbPolyline
 90
        2
 70
     0
 43
0.0
 10
2475.818774058806
 20
343.4109295672714
 10
2475.818774058806
 20
341.9109355672711
  0
LWPOLYLINE
  5
9EF9
330
1E
100
AcDbEntity
  8
躯体と製品
  6
Continuous
 62
     4
100
AcDbPolyline
 90
        2
 70
     0
 43
0.0
 10
2475.318776058805
 20
341.4109375672711
 42
0.4142135623730951
 10
2475.818774058805
 20
341.9109355672711
  0
LWPOLYLINE
  5
9EFA
330
1E
100
AcDbEntity
  8
躯体と製品
  6
Continuous
 62
     4
100
AcDbPolyline
 90
        2
 70
     0
 43
0.0
 10
2475.318776058805
 20
341.4109395672711
 10
2474.917798058806
 20
341.4109395672711
  0
LWPOLYLINE
  5
9EFB
330
1E
100
AcDbEntity
  8
躯体と製品
  6
Continuous
 62
     4
100
AcDbPolyline
 90
        2
 70
     0
 43
0.0
 10
2464.719810058806
 20
343.9109255672712
 10
2464.318832058806
 20
343.9109255672712
  0
LWPOLYLINE
  5
9EFC
330
1E
100
AcDbEntity
  8
躯体と製品
  6
Continuous
 62
     4
100
AcDbPolyline
 90
        2
 70
     0
 43
0.0
 10
2464.318832058806
 20
343.9109275672714
 42
0.4142135623730951
 10
2463.818834058806
 20
343.4109295672714
  0
LWPOLYLINE
  5
9EFD
330
1E
100
AcDbEntity
  8
躯体と製品
  6
Continuous
 62
     4
100
AcDbPolyline
 90
        2
 70
     0
 43
0.0
 10
2463.818834058806
 20
343.4109295672714
 10
2463.818834058806
 20
341.9109355672711
  0
LWPOLYLINE
  5
9EFE
330
1E
100
AcDbEntity
  8
躯体と製品
  6
Continuous
 62
     4
100
AcDbPolyline
 90
        2
 70
     0
 43
0.0
 10
2463.818834058806
 20
341.9109355672711
 42
0.4142135623730951
 10
2464.318832058806
 20
341.4109375672711
  0
LWPOLYLINE
  5
9EFF
330
1E
100
AcDbEntity
  8
躯体と製品
  6
Continuous
 62
     4
100
AcDbPolyline
 90
        2
 70
     0
 43
0.0
 10
2464.318832058806
 20
341.4109395672711
 10
2464.719810058806
 20
341.4109395672711
  0
LWPOLYLINE
  5
9F00
330
1E
100
AcDbEntity
  8
躯体と製品
  6
Continuous
 62
     3
100
AcDbPolyline
 90
        2
 70
     0
 43
0.0
 10
2469.818804058806
 20
336.8874595672713
 10
2464.818830058805
 20
339.7741955672712
  0
LWPOLYLINE
  5
9F01
330
1E
100
AcDbEntity
  8
躯体と製品
  6
Continuous
 62
     3
100
AcDbPolyline
 90
        2
 70
     0
 43
0.0
 10
2464.818830058805
 20
339.7741955672712
 10
2464.818830058805
 20
345.5476695672713
  0
LWPOLYLINE
  5
9F02
330
1E
100
AcDbEntity
  8
躯体と製品
  6
Continuous
 62
     3
100
AcDbPolyline
 90
        2
 70
     0
 43
0.0
 10
2464.818830058805
 20
345.5476695672713
 10
2469.818804058806
 20
348.4344055672712
  0
LWPOLYLINE
  5
9F03
330
1E
100
AcDbEntity
  8
躯体と製品
  6
Continuous
 62
     3
100
AcDbPolyline
 90
        2
 70
     0
 43
0.0
 10
2469.818804058806
 20
348.4344055672712
 10
2474.818778058806
 20
345.5476695672713
  0
LWPOLYLINE
  5
9F04
330
1E
100
AcDbEntity
  8
躯体と製品
  6
Continuous
 62
     3
100
AcDbPolyline
 90
        2
 70
     0
 43
0.0
 10
2474.818778058806
 20
345.5476695672713
 10
2474.818778058806
 20
339.7741955672712
  0
LWPOLYLINE
  5
9F05
330
1E
100
AcDbEntity
  8
躯体と製品
  6
Continuous
 62
     3
100
AcDbPolyline
 90
        2
 70
     0
 43
0.0
 10
2474.818778058806
 20
339.7741955672712
 10
2469.818804058806
 20
336.8874595672713
  0
LWPOLYLINE
  5
9F06
330
1E
100
AcDbEntity
  8
躯体と製品
  6
Continuous
 62
     4
100
AcDbPolyline
 90
        2
 70
     0
 43
0.0
 10
2494.818804058806
 20
349.1609335672714
 42
0.4142135623730951
 10
2492.318804058806
 20
351.6609335672713
  0
TEXT
  5
A5C0
330
1E
100
AcDbEntity
  8
文字-記号
  6
Continuous
 62
     3
100
AcDbText
 10
2254.462152749153
 20
458.1454237804188
 30
0.0
 40
12.9999999999
  1
ｈ=134mm～266mm
  7
ACAD
100
AcDbText
  0
TEXT
  5
A8A0
330
1E
100
AcDbEntity
  8
文字-記号
  6
Continuous
 62
     3
100
AcDbText
 10
1948.850534345784
 20
478.3807456357053
 30
0.0
 40
12.9999999999
  1
■スリーベース２０１Ｌ-Ｕ型（柔・剣道場用 低床用：埋め込みタイプ）
  7
ACAD
100
AcDbText
  0
ENDSEC
  0
SECTION
  2
OBJECTS
  0
DICTIONARY
  5
C
330
0
100
AcDbDictionary
281
     1
  3
ACAD_CIP_PREVIOUS_PRODUCT_INFO
350
5FB1
  3
ACAD_COLOR
350
5F95
  3
ACAD_GROUP
350
D
  3
ACAD_LAYOUT
350
19
  3
ACAD_MATERIAL
350
5F63
  3
ACAD_MLEADERSTYLE
350
5FAA
  3
ACAD_MLINESTYLE
350
16
  3
ACAD_PLOTSETTINGS
350
18
  3
ACAD_PLOTSTYLENAME
350
E
  3
ACAD_SCALELIST
350
5F98
  3
ACAD_TABLESTYLE
350
5F96
  3
ACAD_VISUALSTYLE
350
5F7C
  3
ACDB_RECOMPOSE_DATA
350
A9DF
  3
AcDbVariableDictionary
350
169
  3
AEC_PROPERTY_SET_DEFS
350
6B75
  0
DICTIONARY
  5
A2D3
330
8
100
AcDbDictionary
280
     1
281
     1
  0
DICTIONARY
  5
175
330
2
100
AcDbDictionary
280
     1
281
     1
  3
ACAD_LAYERFILTERS
360
185
  3
ACAD_LAYERSTATES
360
176
  0
DICTIONARY
  5
655F
330
10
100
AcDbDictionary
280
     1
281
     1
  3
ADSK_XREC_LAYER_RECONCILED
360
6560
  0
DICTIONARY
  5
6561
330
178
100
AcDbDictionary
280
     1
281
     1
  3
ADSK_XREC_LAYER_RECONCILED
360
6562
  0
DICTIONARY
  5
6563
330
179
100
AcDbDictionary
280
     1
281
     1
  3
ADSK_XREC_LAYER_RECONCILED
360
6564
  0
DICTIONARY
  5
6565
330
4F62
100
AcDbDictionary
280
     1
281
     1
  3
ADSK_XREC_LAYER_RECONCILED
360
6566
  0
DICTIONARY
  5
28B
330
1E
100
AcDbDictionary
280
     1
281
     1
  3
ACAD_LAYOUTSELFREF
360
5C3B
  3
ACAD_SORTENTS
360
8525
  0
DICTIONARY
  5
28D
330
1A
100
AcDbDictionary
280
     1
281
     1
  3
ACAD_LAYOUTSELFREF
360
5C3A
  0
XRECORD
  5
5FB1
102
{ACAD_REACTORS
330
C
102
}
330
C
100
AcDbXrecord
280
     1
300
ACD
300
2012
300
ACD_F_S
  0
DICTIONARY
  5
5F95
102
{ACAD_REACTORS
330
C
102
}
330
C
100
AcDbDictionary
281
     1
  0
DICTIONARY
  5
D
102
{ACAD_REACTORS
330
C
102
}
330
C
100
AcDbDictionary
281
     1
  0
DICTIONARY
  5
19
102
{ACAD_REACTORS
330
C
102
}
330
C
100
AcDbDictionary
281
     1
  3
Model
350
21
  3
ﾚｲｱｳﾄ1
350
1D
  0
DICTIONARY
  5
5F63
102
{ACAD_REACTORS
330
C
102
}
330
C
100
AcDbDictionary
281
     1
  3
ByBlock
350
5F6C
  3
ByLayer
350
5F64
  3
Global
350
5F74
  0
DICTIONARY
  5
5FAA
102
{ACAD_REACTORS
330
C
102
}
330
C
100
AcDbDictionary
281
     1
  3
Standard
350
5FAB
  0
DICTIONARY
  5
16
102
{ACAD_REACTORS
330
C
102
}
330
C
100
AcDbDictionary
281
     1
  3
Standard
350
17
  0
DICTIONARY
  5
18
102
{ACAD_REACTORS
330
C
102
}
330
C
100
AcDbDictionary
281
     1
  0
ACDBDICTIONARYWDFLT
  5
E
102
{ACAD_REACTORS
330
C
102
}
330
C
100
AcDbDictionary
281
     1
  3
Normal
350
F
100
AcDbDictionaryWithDefault
340
F
  0
DICTIONARY
  5
5F98
102
{ACAD_REACTORS
330
C
102
}
330
C
100
AcDbDictionary
281
     1
  3
A0
350
5F99
  3
A1
350
5F9A
  3
A2
350
5F9B
  3
A3
350
5F9C
  3
A4
350
5F9D
  3
A5
350
5F9E
  3
A6
350
5F9F
  3
A7
350
5FA0
  3
A8
350
5FA1
  3
A9
350
5FA2
  3
B0
350
5FA3
  3
B1
350
5FA4
  3
B2
350
5FA5
  3
B3
350
5FA6
  3
B4
350
5FA7
  3
B5
350
5FA8
  3
B6
350
5FA9
  0
DICTIONARY
  5
5F96
102
{ACAD_REACTORS
330
C
102
}
330
C
100
AcDbDictionary
281
     1
  3
Standard
350
5F97
  0
DICTIONARY
  5
5F7C
102
{ACAD_REACTORS
330
C
102
}
330
C
100
AcDbDictionary
281
     1
  3
2dWireframe
350
5F82
  3
Basic
350
5F81
  3
Brighten
350
5F88
  3
ColorChange
350
5F8C
  3
Conceptual
350
5F85
  3
Dim
350
5F87
  3
EdgeColorOff
350
5F94
  3
Facepattern
350
5F8B
  3
Flat
350
5F7D
  3
FlatWithEdges
350
5F7E
  3
Gouraud
350
5F7F
  3
GouraudWithEdges
350
5F80
  3
Hidden
350
5F84
  3
JitterOff
350
5F92
  3
Linepattern
350
5F8A
  3
OverhangOff
350
5F93
  3
Realistic
350
5F86
  3
Shaded
350
5F91
  3
Shaded with edges
350
5F90
  3
Shades of Gray
350
5F8D
  3
Sketchy
350
5F8E
  3
Thicken
350
5F89
  3
Wireframe
350
5F83
  3
X-Ray
350
5F8F
  0
XRECORD
  5
A9DF
102
{ACAD_REACTORS
330
C
102
}
330
C
100
AcDbXrecord
280
     1
 90
        1
330
5F97
  0
DICTIONARY
  5
169
102
{ACAD_REACTORS
330
C
102
}
330
C
100
AcDbDictionary
281
     1
  3
CANNOSCALE
350
69AA
  3
CMLEADERSTYLE
350
69A8
  3
CTABLESTYLE
350
69A7
  3
DIMASSOC
350
16A
  3
LAYEREVAL
350
69AC
  3
LAYERNOTIFY
350
69AD
  3
LIGHTINGUNITS
350
69AB
  3
MSLTSCALE
350
69A9
  3
XCLIPFRAME
350
A9DB
  0
DICTIONARY
  5
6B75
102
{ACAD_REACTORS
330
C
102
}
330
C
100
AcDbDictionary
281
     1
  0
DICTIONARY
  5
185
102
{ACAD_REACTORS
330
175
102
}
330
175
100
AcDbDictionary
280
     1
281
     1
  0
DICTIONARY
  5
176
102
{ACAD_REACTORS
330
175
102
}
330
175
100
AcDbDictionary
281
     1
  3
ACAD
350
177
  0
XRECORD
  5
6560
102
{ACAD_REACTORS
330
655F
102
}
330
655F
100
AcDbXrecord
280
     1
290
     1
  0
XRECORD
  5
6562
102
{ACAD_REACTORS
330
6561
102
}
330
6561
100
AcDbXrecord
280
     1
290
     1
  0
XRECORD
  5
6564
102
{ACAD_REACTORS
330
6563
102
}
330
6563
100
AcDbXrecord
280
     1
290
     1
  0
XRECORD
  5
6566
102
{ACAD_REACTORS
330
6565
102
}
330
6565
100
AcDbXrecord
280
     1
290
     1
  0
XRECORD
  5
5C3B
102
{ACAD_REACTORS
330
28B
102
}
330
28B
100
AcDbXrecord
280
     1
340
1E
  0
SORTENTSTABLE
  5
8525
102
{ACAD_REACTORS
330
28B
102
}
330
28B
100
AcDbSortentsTable
330
1E
  0
XRECORD
  5
5C3A
102
{ACAD_REACTORS
330
28D
102
}
330
28D
100
AcDbXrecord
280
     1
340
1A
  0
LAYOUT
  5
21
102
{ACAD_XDICTIONARY
360
656E
102
}
102
{ACAD_REACTORS
330
19
102
}
330
19
100
AcDbPlotSettings
  1

  2
none_device
  4
Letter_(8.50_x_11.00_Inches)
  6

 40
6.349999904632568
 41
6.349999904632568
 42
6.350006103515625
 43
6.350006103515625
 44
215.8999938964844
 45
279.3999938964844
 46
0.0
 47
0.0
 48
0.0
 49
0.0
140
0.0
141
0.0
142
1.0
143
319.7862139123437
 70
 11952
 72
     0
 73
     1
 74
     0
  7
monochrome.ctb
 75
     0
147
0.0031270891504851
 76
     0
 77
     2
 78
   300
148
-4592.16848121651
149
12923.7211331627
100
AcDbLayout
  1
Model
 70
     1
 71
     0
 10
0.0
 20
0.0
 11
12.0
 21
9.0
 12
0.0
 22
0.0
 32
0.0
 14
0.0
 24
0.0
 34
0.0
 15
0.0
 25
0.0
 35
0.0
146
0.0
 13
0.0
 23
0.0
 33
0.0
 16
1.0
 26
0.0
 36
0.0
 17
0.0
 27
1.0
 37
0.0
 76
     0
330
1E
331
5F61
1001
ACAD_PSEXT
1000
なし
1000
なし
1000
適切ではありません
1000
新しいプロッタ環境設定名を選択しない限り、レイアウトは印刷されません。
1070
     0
  0
LAYOUT
  5
1D
102
{ACAD_REACTORS
330
19
102
}
330
19
100
AcDbPlotSettings
  1

  2
\\MEISEI-1\EPSON Stylus Photo EX3
  4

  6

 40
0.0
 41
0.0
 42
0.0
 43
0.0
 44
0.0
 45
0.0
 46
0.0
 47
0.0
 48
0.0
 49
0.0
140
0.0
141
0.0
142
1.0
143
1.0
 70
   688
 72
     0
 73
     0
 74
     5
  7
monochrome.ctb
 75
    16
147
1.0
 76
     0
 77
     2
 78
   300
148
0.0
149
0.0
100
AcDbLayout
  1
ﾚｲｱｳﾄ1
 70
     1
 71
     1
 10
0.0
 20
0.0
 11
12.0
 21
9.0
 12
0.0
 22
0.0
 32
0.0
 14
1.000000000000000E+20
 24
1.000000000000000E+20
 34
1.000000000000000E+20
 15
-1.000000000000000E+20
 25
-1.000000000000000E+20
 35
-1.000000000000000E+20
146
0.0
 13
0.0
 23
0.0
 33
0.0
 16
1.0
 26
0.0
 36
0.0
 17
0.0
 27
1.0
 37
0.0
 76
     0
330
1A
  0
MATERIAL
  5
5F6C
102
{ACAD_XDICTIONARY
360
5F6D
102
}
102
{ACAD_REACTORS
330
5F63
102
}
330
5F63
100
AcDbMaterial
  1
ByBlock
 72
     0
 43
0.0208333333333333
 43
0.0
 43
0.0
 43
0.0
 43
0.0
 43
0.0208333333333333
 43
0.0
 43
0.0
 43
0.0
 43
0.0
 43
1.0
 43
0.0
 43
0.0
 43
0.0
 43
0.0
 43
1.0
 77
     0
 47
0.0208333333333333
 47
0.0
 47
0.0
 47
0.0
 47
0.0
 47
0.0208333333333333
 47
0.0
 47
0.0
 47
0.0
 47
0.0
 47
1.0
 47
0.0
 47
0.0
 47
0.0
 47
0.0
 47
1.0
171
     0
 49
0.0208333333333333
 49
0.0
 49
0.0
 49
0.0
 49
0.0
 49
0.0208333333333333
 49
0.0
 49
0.0
 49
0.0
 49
0.0
 49
1.0
 49
0.0
 49
0.0
 49
0.0
 49
0.0
 49
1.0
175
     0
142
0.0208333333333333
142
0.0
142
0.0
142
0.0
142
0.0
142
0.0208333333333333
142
0.0
142
0.0
142
0.0
142
0.0
142
1.0
142
0.0
142
0.0
142
0.0
142
0.0
142
1.0
179
     0
144
0.0208333333333333
144
0.0
144
0.0
144
0.0
144
0.0
144
0.0208333333333333
144
0.0
144
0.0
144
0.0
144
0.0
144
1.0
144
0.0
144
0.0
144
0.0
144
0.0
144
1.0
147
0.0208333333333333
147
0.0
147
0.0
147
0.0
147
0.0
147
0.0208333333333333
147
0.0
147
0.0
147
0.0
147
0.0
147
1.0
147
0.0
147
0.0
147
0.0
147
0.0
147
1.0
  0
MATERIAL
  5
5F64
102
{ACAD_XDICTIONARY
360
5F65
102
}
102
{ACAD_REACTORS
330
5F63
102
}
330
5F63
100
AcDbMaterial
  1
ByLayer
 72
     0
 43
0.0208333333333333
 43
0.0
 43
0.0
 43
0.0
 43
0.0
 43
0.0208333333333333
 43
0.0
 43
0.0
 43
0.0
 43
0.0
 43
1.0
 43
0.0
 43
0.0
 43
0.0
 43
0.0
 43
1.0
 77
     0
 47
0.0208333333333333
 47
0.0
 47
0.0
 47
0.0
 47
0.0
 47
0.0208333333333333
 47
0.0
 47
0.0
 47
0.0
 47
0.0
 47
1.0
 47
0.0
 47
0.0
 47
0.0
 47
0.0
 47
1.0
171
     0
 49
0.0208333333333333
 49
0.0
 49
0.0
 49
0.0
 49
0.0
 49
0.0208333333333333
 49
0.0
 49
0.0
 49
0.0
 49
0.0
 49
1.0
 49
0.0
 49
0.0
 49
0.0
 49
0.0
 49
1.0
175
     0
142
0.0208333333333333
142
0.0
142
0.0
142
0.0
142
0.0
142
0.0208333333333333
142
0.0
142
0.0
142
0.0
142
0.0
142
1.0
142
0.0
142
0.0
142
0.0
142
0.0
142
1.0
179
     0
144
0.0208333333333333
144
0.0
144
0.0
144
0.0
144
0.0
144
0.0208333333333333
144
0.0
144
0.0
144
0.0
144
0.0
144
1.0
144
0.0
144
0.0
144
0.0
144
0.0
144
1.0
147
0.0208333333333333
147
0.0
147
0.0
147
0.0
147
0.0
147
0.0208333333333333
147
0.0
147
0.0
147
0.0
147
0.0
147
1.0
147
0.0
147
0.0
147
0.0
147
0.0
147
1.0
  0
MATERIAL
  5
5F74
102
{ACAD_XDICTIONARY
360
5F75
102
}
102
{ACAD_REACTORS
330
5F63
102
}
330
5F63
100
AcDbMaterial
  1
Global
 72
     0
 43
0.0208333333333333
 43
0.0
 43
0.0
 43
0.0
 43
0.0
 43
0.0208333333333333
 43
0.0
 43
0.0
 43
0.0
 43
0.0
 43
1.0
 43
0.0
 43
0.0
 43
0.0
 43
0.0
 43
1.0
 77
     0
 47
0.0208333333333333
 47
0.0
 47
0.0
 47
0.0
 47
0.0
 47
0.0208333333333333
 47
0.0
 47
0.0
 47
0.0
 47
0.0
 47
1.0
 47
0.0
 47
0.0
 47
0.0
 47
0.0
 47
1.0
171
     0
 49
0.0208333333333333
 49
0.0
 49
0.0
 49
0.0
 49
0.0
 49
0.0208333333333333
 49
0.0
 49
0.0
 49
0.0
 49
0.0
 49
1.0
 49
0.0
 49
0.0
 49
0.0
 49
0.0
 49
1.0
175
     0
142
0.0208333333333333
142
0.0
142
0.0
142
0.0
142
0.0
142
0.0208333333333333
142
0.0
142
0.0
142
0.0
142
0.0
142
1.0
142
0.0
142
0.0
142
0.0
142
0.0
142
1.0
179
     0
144
0.0208333333333333
144
0.0
144
0.0
144
0.0
144
0.0
144
0.0208333333333333
144
0.0
144
0.0
144
0.0
144
0.0
144
1.0
144
0.0
144
0.0
144
0.0
144
0.0
144
1.0
147
0.0208333333333333
147
0.0
147
0.0
147
0.0
147
0.0
147
0.0208333333333333
147
0.0
147
0.0
147
0.0
147
0.0
147
1.0
147
0.0
147
0.0
147
0.0
147
0.0
147
1.0
  0
MLEADERSTYLE
  5
5FAB
102
{ACAD_XDICTIONARY
360
A9DD
102
}
102
{ACAD_REACTORS
330
5FAA
102
}
330
5FAA
100
AcDbMLeaderStyle
170
     2
171
     1
172
     0
 90
        2
 40
0.0
 41
0.0
173
     1
 91
-1056964608
340
13
 92
       -2
290
     1
 42
0.09
291
     1
 43
0.36
  3
Standard
 44
0.18
300

342
11
174
     1
178
     6
175
     1
176
     0
 93
-1056964608
 45
0.18
292
     0
297
     0
 46
0.18
 94
-1056964608
 47
1.0
 49
1.0
140
1.0
293
     1
141
0.0
294
     1
177
     0
142
1.0
295
     0
296
     0
143
0.125
1001
ACAD_MLEADERVER
1070
     2
  0
MLINESTYLE
  5
17
102
{ACAD_REACTORS
330
16
102
}
330
16
100
AcDbMlineStyle
  2
STANDARD
 70
     0
  3

 62
   256
 51
90.0
 52
90.0
 71
     2
 49
0.5
 62
   256
  6
BYLAYER
 49
-0.5
 62
   256
  6
BYLAYER
  0
ACDBPLACEHOLDER
  5
F
102
{ACAD_REACTORS
330
E
102
}
330
E
  0
SCALE
  5
5F99
102
{ACAD_REACTORS
330
5F98
102
}
330
5F98
100
AcDbScale
 70
     0
300
1:1
140
1.0
141
1.0
290
     1
  0
SCALE
  5
5F9A
102
{ACAD_REACTORS
330
5F98
102
}
330
5F98
100
AcDbScale
 70
     0
300
1/128" = 1'-0"
140
0.0078125
141
12.0
290
     0
  0
SCALE
  5
5F9B
102
{ACAD_REACTORS
330
5F98
102
}
330
5F98
100
AcDbScale
 70
     0
300
1/64" = 1'-0"
140
0.015625
141
12.0
290
     0
  0
SCALE
  5
5F9C
102
{ACAD_REACTORS
330
5F98
102
}
330
5F98
100
AcDbScale
 70
     0
300
1/32" = 1'-0"
140
0.03125
141
12.0
290
     0
  0
SCALE
  5
5F9D
102
{ACAD_REACTORS
330
5F98
102
}
330
5F98
100
AcDbScale
 70
     0
300
1/16" = 1'-0"
140
0.0625
141
12.0
290
     0
  0
SCALE
  5
5F9E
102
{ACAD_REACTORS
330
5F98
102
}
330
5F98
100
AcDbScale
 70
     0
300
3/32" = 1'-0"
140
0.09375
141
12.0
290
     0
  0
SCALE
  5
5F9F
102
{ACAD_REACTORS
330
5F98
102
}
330
5F98
100
AcDbScale
 70
     0
300
1/8" = 1'-0"
140
0.125
141
12.0
290
     0
  0
SCALE
  5
5FA0
102
{ACAD_REACTORS
330
5F98
102
}
330
5F98
100
AcDbScale
 70
     0
300
3/16" = 1'-0"
140
0.1875
141
12.0
290
     0
  0
SCALE
  5
5FA1
102
{ACAD_REACTORS
330
5F98
102
}
330
5F98
100
AcDbScale
 70
     0
300
1/4" = 1'-0"
140
0.25
141
12.0
290
     0
  0
SCALE
  5
5FA2
102
{ACAD_REACTORS
330
5F98
102
}
330
5F98
100
AcDbScale
 70
     0
300
3/8" = 1'-0"
140
0.375
141
12.0
290
     0
  0
SCALE
  5
5FA3
102
{ACAD_REACTORS
330
5F98
102
}
330
5F98
100
AcDbScale
 70
     0
300
1/2" = 1'-0"
140
0.5
141
12.0
290
     0
  0
SCALE
  5
5FA4
102
{ACAD_REACTORS
330
5F98
102
}
330
5F98
100
AcDbScale
 70
     0
300
3/4" = 1'-0"
140
0.75
141
12.0
290
     0
  0
SCALE
  5
5FA5
102
{ACAD_REACTORS
330
5F98
102
}
330
5F98
100
AcDbScale
 70
     0
300
1" = 1'-0"
140
1.0
141
12.0
290
     0
  0
SCALE
  5
5FA6
102
{ACAD_REACTORS
330
5F98
102
}
330
5F98
100
AcDbScale
 70
     0
300
1-1/2" = 1'-0"
140
1.5
141
12.0
290
     0
  0
SCALE
  5
5FA7
102
{ACAD_REACTORS
330
5F98
102
}
330
5F98
100
AcDbScale
 70
     0
300
3" = 1'-0"
140
3.0
141
12.0
290
     0
  0
SCALE
  5
5FA8
102
{ACAD_REACTORS
330
5F98
102
}
330
5F98
100
AcDbScale
 70
     0
300
6" = 1'-0"
140
6.0
141
12.0
290
     0
  0
SCALE
  5
5FA9
102
{ACAD_REACTORS
330
5F98
102
}
330
5F98
100
AcDbScale
 70
     0
300
1'-0" = 1'-0"
140
12.0
141
12.0
290
     0
  0
TABLESTYLE
  5
5F97
102
{ACAD_XDICTIONARY
360
A2CE
102
}
102
{ACAD_REACTORS
330
5F96
102
}
330
5F96
100
AcDbTableStyle
  3
Standard
 70
     0
 71
     0
 40
0.06
 41
0.06
280
     0
281
     0
  7
STANDARD
140
0.18
170
     2
 62
     0
 63
     7
283
     0
274
    -2
284
     1
 64
     0
275
    -2
285
     1
 65
     0
276
    -2
286
     1
 66
     0
277
    -2
287
     1
 67
     0
278
    -2
288
     1
 68
     0
279
    -2
289
     1
 69
     0
  7
STANDARD
140
0.25
170
     5
 62
     0
 63
     7
283
     0
274
    -2
284
     1
 64
     0
275
    -2
285
     1
 65
     0
276
    -2
286
     1
 66
     0
277
    -2
287
     1
 67
     0
278
    -2
288
     1
 68
     0
279
    -2
289
     1
 69
     0
  7
STANDARD
140
0.18
170
     5
 62
     0
 63
     7
283
     0
274
    -2
284
     1
 64
     0
275
    -2
285
     1
 65
     0
276
    -2
286
     1
 66
     0
277
    -2
287
     1
 67
     0
278
    -2
288
     1
 68
     0
279
    -2
289
     1
 69
     0
  0
VISUALSTYLE
  5
5F82
102
{ACAD_XDICTIONARY
360
A9ED
102
}
102
{ACAD_REACTORS
330
5F7C
102
}
330
5F7C
100
AcDbVisualStyle
  2
2dWireframe
 70
     4
 71
     0
 72
     2
 73
     0
 90
        0
 40
-0.6
 41
-30.0
 62
     5
 63
     7
421
 16777215
 74
     1
 91
        4
 64
     7
 65
   257
 75
     1
175
     1
 42
1.0
 92
        0
 66
   257
 43
1.0
 76
     1
 77
     6
 78
     2
 67
     7
 79
     5
170
     0
171
     0
290
     0
174
     0
 93
        1
 44
0.0
173
     0
291
     0
 45
0.0
1001
ACAD
1000
AcDbSavedByObjectVersion
1070
     0
  0
VISUALSTYLE
  5
5F81
102
{ACAD_XDICTIONARY
360
A9EB
102
}
102
{ACAD_REACTORS
330
5F7C
102
}
330
5F7C
100
AcDbVisualStyle
  2
Basic
 70
     7
 71
     1
 72
     0
 73
     1
 90
        0
 40
-0.6
 41
-30.0
 62
     5
 63
     7
421
 16777215
 74
     0
 91
        4
 64
     7
 65
   257
 75
     1
175
     1
 42
1.0
 92
        8
 66
     7
 43
1.0
 76
     1
 77
     6
 78
     2
 67
     7
 79
     5
170
     0
171
     0
290
     0
174
     0
 93
        1
 44
0.0
173
     0
291
     1
 45
0.0
1001
ACAD
1000
AcDbSavedByObjectVersion
1070
     0
  0
VISUALSTYLE
  5
5F88
102
{ACAD_XDICTIONARY
360
A9F9
102
}
102
{ACAD_REACTORS
330
5F7C
102
}
330
5F7C
100
AcDbVisualStyle
  2
Brighten
 70
    12
 71
     2
 72
     2
 73
     0
 90
        0
 40
-0.6
 41
-30.0
 62
     5
 63
     7
421
 16777215
 74
     1
 91
        4
 64
     7
 65
   257
 75
     1
175
     1
 42
1.0
 92
        8
 66
     7
 43
1.0
 76
     1
 77
     6
 78
     2
 67
     7
 79
     5
170
     0
171
     0
290
     0
174
     0
 93
        1
 44
50.0
173
     0
291
     1
 45
0.0
1001
ACAD
1000
AcDbSavedByObjectVersion
1070
     0
  0
VISUALSTYLE
  5
5F8C
102
{ACAD_XDICTIONARY
360
AA01
102
}
102
{ACAD_REACTORS
330
5F7C
102
}
330
5F7C
100
AcDbVisualStyle
  2
ColorChange
 70
    16
 71
     2
 72
     2
 73
     3
 90
        0
 40
-0.6
 41
-30.0
 62
     5
 63
     8
421
  8421504
 74
     1
 91
        4
 64
     7
 65
   257
 75
     1
175
     1
 42
1.0
 92
        8
 66
     8
424
  8421504
 43
1.0
 76
     1
 77
     6
 78
     2
 67
     7
 79
     5
170
     0
171
     0
290
     0
174
     0
 93
        1
 44
0.0
173
     0
291
     1
 45
0.0
1001
ACAD
1000
AcDbSavedByObjectVersion
1070
     0
  0
VISUALSTYLE
  5
5F85
102
{ACAD_XDICTIONARY
360
A9F3
102
}
102
{ACAD_REACTORS
330
5F7C
102
}
330
5F7C
100
AcDbVisualStyle
  2
Conceptual
 70
     9
 71
     3
 72
     2
 73
     0
 90
        0
 40
-0.6
 41
-30.0
 62
     5
 63
     7
421
 16777215
 74
     2
 91
        2
 64
     7
 65
   257
 75
     1
175
     1
 42
179.0
 92
        8
 66
     7
 43
1.0
 76
     1
 77
     6
 78
     2
 67
     7
 79
     3
170
     0
171
     0
290
     0
174
     0
 93
        1
 44
0.0
173
     0
291
     0
 45
0.0
1001
ACAD
1000
AcDbSavedByObjectVersion
1070
     0
  0
VISUALSTYLE
  5
5F87
102
{ACAD_XDICTIONARY
360
A9F7
102
}
102
{ACAD_REACTORS
330
5F7C
102
}
330
5F7C
100
AcDbVisualStyle
  2
Dim
 70
    11
 71
     2
 72
     2
 73
     0
 90
        0
 40
-0.6
 41
-30.0
 62
     5
 63
     7
421
 16777215
 74
     1
 91
        4
 64
     7
 65
   257
 75
     1
175
     1
 42
1.0
 92
        8
 66
     7
 43
1.0
 76
     1
 77
     6
 78
     2
 67
     7
 79
     5
170
     0
171
     0
290
     0
174
     0
 93
        1
 44
-50.0
173
     0
291
     1
 45
0.0
1001
ACAD
1000
AcDbSavedByObjectVersion
1070
     0
  0
VISUALSTYLE
  5
5F94
102
{ACAD_XDICTIONARY
360
AA11
102
}
102
{ACAD_REACTORS
330
5F7C
102
}
330
5F7C
100
AcDbVisualStyle
  2
EdgeColorOff
 70
    22
 71
     2
 72
     2
 73
     0
 90
        0
 40
-0.6
 41
-30.0
 62
     5
 63
     7
421
 16777215
 74
     1
 91
        4
 64
     7
 65
   257
 75
     1
175
     1
 42
1.0
 92
        8
 66
     7
 43
1.0
 76
     1
 77
     6
 78
     2
 67
     7
 79
     5
170
     0
171
     0
290
     0
174
     0
 93
        1
 44
0.0
173
     0
291
     1
 45
0.0
1001
ACAD
1000
AcDbSavedByObjectVersion
1070
     0
  0
VISUALSTYLE
  5
5F8B
102
{ACAD_XDICTIONARY
360
A9FF
102
}
102
{ACAD_REACTORS
330
5F7C
102
}
330
5F7C
100
AcDbVisualStyle
  2
Facepattern
 70
    15
 71
     2
 72
     2
 73
     0
 90
        0
 40
-0.6
 41
-30.0
 62
     5
 63
     7
421
 16777215
 74
     1
 91
        4
 64
     7
 65
   257
 75
     1
175
     1
 42
1.0
 92
        8
 66
     7
 43
1.0
 76
     1
 77
     6
 78
     2
 67
     7
 79
     5
170
     0
171
     0
290
     0
174
     0
 93
        1
 44
0.0
173
     0
291
     1
 45
0.0
1001
ACAD
1000
AcDbSavedByObjectVersion
1070
     0
  0
VISUALSTYLE
  5
5F7D
102
{ACAD_XDICTIONARY
360
A9E3
102
}
102
{ACAD_REACTORS
330
5F7C
102
}
330
5F7C
100
AcDbVisualStyle
  2
Flat
 70
     0
 71
     2
 72
     1
 73
     1
 90
        2
 40
-0.6
 41
30.0
 62
     5
 63
     7
421
 16777215
 74
     0
 91
        0
 64
     7
 65
   257
 75
     1
175
     1
 42
1.0
 92
        8
 66
     7
 43
1.0
 76
     1
 77
     6
 78
     2
 67
     7
 79
     5
170
     0
171
     0
290
     0
174
     0
 93
       13
 44
0.0
173
     0
291
     1
 45
0.0
1001
ACAD
1000
AcDbSavedByObjectVersion
1070
     0
  0
VISUALSTYLE
  5
5F7E
102
{ACAD_XDICTIONARY
360
A9E5
102
}
102
{ACAD_REACTORS
330
5F7C
102
}
330
5F7C
100
AcDbVisualStyle
  2
FlatWithEdges
 70
     1
 71
     2
 72
     1
 73
     1
 90
        2
 40
-0.6
 41
30.0
 62
     5
 63
     7
421
 16777215
 74
     1
 91
        0
 64
     7
 65
   257
 75
     1
175
     1
 42
1.0
 92
        0
 66
   257
 43
1.0
 76
     1
 77
     6
 78
     2
 67
     7
 79
     5
170
     0
171
     0
290
     0
174
     0
 93
       13
 44
0.0
173
     0
291
     1
 45
0.0
1001
ACAD
1000
AcDbSavedByObjectVersion
1070
     0
  0
VISUALSTYLE
  5
5F7F
102
{ACAD_XDICTIONARY
360
A9E7
102
}
102
{ACAD_REACTORS
330
5F7C
102
}
330
5F7C
100
AcDbVisualStyle
  2
Gouraud
 70
     2
 71
     2
 72
     2
 73
     1
 90
        2
 40
-0.6
 41
30.0
 62
     5
 63
     7
421
 16777215
 74
     0
 91
        0
 64
     7
 65
   257
 75
     1
175
     1
 42
1.0
 92
        0
 66
     7
 43
1.0
 76
     1
 77
     6
 78
     2
 67
     7
 79
     5
170
     0
171
     0
290
     0
174
     0
 93
       13
 44
0.0
173
     0
291
     1
 45
0.0
1001
ACAD
1000
AcDbSavedByObjectVersion
1070
     0
  0
VISUALSTYLE
  5
5F80
102
{ACAD_XDICTIONARY
360
A9E9
102
}
102
{ACAD_REACTORS
330
5F7C
102
}
330
5F7C
100
AcDbVisualStyle
  2
GouraudWithEdges
 70
     3
 71
     2
 72
     2
 73
     1
 90
        2
 40
-0.6
 41
30.0
 62
     5
 63
     7
421
 16777215
 74
     1
 91
        0
 64
     7
 65
   257
 75
     1
175
     1
 42
1.0
 92
        0
 66
   257
 43
1.0
 76
     1
 77
     6
 78
     2
 67
     7
 79
     5
170
     0
171
     0
290
     0
174
     0
 93
       13
 44
0.0
173
     0
291
     1
 45
0.0
1001
ACAD
1000
AcDbSavedByObjectVersion
1070
     0
  0
VISUALSTYLE
  5
5F84
102
{ACAD_XDICTIONARY
360
A9F1
102
}
102
{ACAD_REACTORS
330
5F7C
102
}
330
5F7C
100
AcDbVisualStyle
  2
Hidden
 70
     6
 71
     1
 72
     2
 73
     2
 90
        0
 40
-0.6
 41
-30.0
 62
     5
 63
     7
421
 16777215
 74
     2
 91
        2
 64
     7
 65
   257
 75
     2
175
     1
 42
40.0
 92
        0
 66
   257
 43
1.0
 76
     1
 77
     6
 78
     2
 67
     7
 79
     3
170
     0
171
     0
290
     0
174
     0
 93
        1
 44
0.0
173
     0
291
     0
 45
0.0
1001
ACAD
1000
AcDbSavedByObjectVersion
1070
     0
  0
VISUALSTYLE
  5
5F92
102
{ACAD_XDICTIONARY
360
AA0D
102
}
102
{ACAD_REACTORS
330
5F7C
102
}
330
5F7C
100
AcDbVisualStyle
  2
JitterOff
 70
    20
 71
     2
 72
     2
 73
     0
 90
        0
 40
-0.6
 41
-30.0
 62
     5
 63
     7
421
 16777215
 74
     1
 91
        4
 64
     7
 65
   257
 75
     1
175
     1
 42
1.0
 92
       10
 66
     7
 43
1.0
 76
     1
 77
     6
 78
     2
 67
     7
 79
     5
170
     0
171
     0
290
     0
174
     0
 93
        1
 44
0.0
173
     0
291
     1
 45
0.0
1001
ACAD
1000
AcDbSavedByObjectVersion
1070
     0
  0
VISUALSTYLE
  5
5F8A
102
{ACAD_XDICTIONARY
360
A9FD
102
}
102
{ACAD_REACTORS
330
5F7C
102
}
330
5F7C
100
AcDbVisualStyle
  2
Linepattern
 70
    14
 71
     2
 72
     2
 73
     0
 90
        0
 40
-0.6
 41
-30.0
 62
     5
 63
     7
421
 16777215
 74
     1
 91
        4
 64
     7
 65
   257
 75
     7
175
     7
 42
1.0
 92
        8
 66
     7
 43
1.0
 76
     1
 77
     6
 78
     2
 67
     7
 79
     5
170
     0
171
     0
290
     0
174
     0
 93
        1
 44
0.0
173
     0
291
     1
 45
0.0
1001
ACAD
1000
AcDbSavedByObjectVersion
1070
     0
  0
VISUALSTYLE
  5
5F93
102
{ACAD_XDICTIONARY
360
AA0F
102
}
102
{ACAD_REACTORS
330
5F7C
102
}
330
5F7C
100
AcDbVisualStyle
  2
OverhangOff
 70
    21
 71
     2
 72
     2
 73
     0
 90
        0
 40
-0.6
 41
-30.0
 62
     5
 63
     7
421
 16777215
 74
     1
 91
        4
 64
     7
 65
   257
 75
     1
175
     1
 42
1.0
 92
        9
 66
     7
 43
1.0
 76
     1
 77
     6
 78
     2
 67
     7
 79
     5
170
     0
171
     0
290
     0
174
     0
 93
        1
 44
0.0
173
     0
291
     1
 45
0.0
1001
ACAD
1000
AcDbSavedByObjectVersion
1070
     0
  0
VISUALSTYLE
  5
5F86
102
{ACAD_XDICTIONARY
360
A9F5
102
}
102
{ACAD_REACTORS
330
5F7C
102
}
330
5F7C
100
AcDbVisualStyle
  2
Realistic
 70
     8
 71
     2
 72
     2
 73
     0
 90
        2
 40
-0.6
 41
30.0
 62
     5
 63
     7
421
 16777215
 74
     0
 91
        0
 64
     7
 65
   257
 75
     1
175
     1
 42
1.0
 92
        8
 66
   257
 43
1.0
 76
     1
 77
     6
 78
     2
 67
     7
 79
     3
170
     0
171
     0
290
     0
174
     0
 93
       13
 44
0.0
173
     0
291
     0
 45
0.0
1001
ACAD
1000
AcDbSavedByObjectVersion
1070
     0
  0
VISUALSTYLE
  5
5F91
102
{ACAD_XDICTIONARY
360
AA0B
102
}
102
{ACAD_REACTORS
330
5F7C
102
}
330
5F7C
100
AcDbVisualStyle
  2
Shaded
 70
    27
 71
     2
 72
     2
 73
     1
 90
        2
 40
-0.6
 41
30.0
 62
     5
 63
     7
421
 16777215
 74
     0
 91
        4
 64
     7
 65
   257
 75
     1
175
     1
 42
1.0
 92
        8
 66
   257
 43
1.0
 76
     1
 77
     6
 78
     2
 67
     8
425
  7895160
 79
     3
170
     0
171
     0
290
     0
174
     0
 93
        5
 44
0.0
173
     0
291
     0
 45
0.0
1001
ACAD
1000
AcDbSavedByObjectVersion
1070
     0
  0
VISUALSTYLE
  5
5F90
102
{ACAD_XDICTIONARY
360
AA09
102
}
102
{ACAD_REACTORS
330
5F7C
102
}
330
5F7C
100
AcDbVisualStyle
  2
Shaded with edges
 70
    26
 71
     2
 72
     2
 73
     1
 90
        2
 40
-0.6
 41
30.0
 62
     5
 63
     7
421
 16777215
 74
     1
 91
       10
 64
     7
 65
   257
 75
     2
175
     1
 42
1.0
 92
        8
 66
   257
 43
1.0
 76
     1
 77
     6
 78
     2
 67
     7
 79
     3
170
     0
171
     0
290
     0
174
     0
 93
        5
 44
0.0
173
     0
291
     0
 45
0.0
1001
ACAD
1000
AcDbSavedByObjectVersion
1070
     0
  0
VISUALSTYLE
  5
5F8D
102
{ACAD_XDICTIONARY
360
AA03
102
}
102
{ACAD_REACTORS
330
5F7C
102
}
330
5F7C
100
AcDbVisualStyle
  2
Shades of Gray
 70
    23
 71
     2
 72
     2
 73
     3
 90
        0
 40
-0.6
 41
-30.0
 62
     5
 63
     7
421
 16777215
 74
     2
 91
        2
 64
     7
 65
     7
 75
     1
175
     1
 42
40.0
 92
        8
 66
     7
 43
1.0
 76
     1
 77
     6
 78
     2
 67
     7
 79
     3
170
     0
171
     0
290
     0
174
     0
 93
        1
 44
0.0
173
     0
291
     0
 45
0.0
1001
ACAD
1000
AcDbSavedByObjectVersion
1070
     0
  0
VISUALSTYLE
  5
5F8E
102
{ACAD_XDICTIONARY
360
AA05
102
}
102
{ACAD_REACTORS
330
5F7C
102
}
330
5F7C
100
AcDbVisualStyle
  2
Sketchy
 70
    24
 71
     1
 72
     2
 73
     2
 90
        0
 40
-0.6
 41
-30.0
 62
     5
 63
     7
421
 16777215
 74
     2
 91
        2
 64
     7
 65
     7
 75
     1
175
     1
 42
40.0
 92
       11
 66
     7
 43
1.0
 76
     1
 77
     6
 78
     2
 67
     7
 79
     6
170
     0
171
     0
290
     0
174
     0
 93
        1
 44
0.0
173
     0
291
     0
 45
0.0
1001
ACAD
1000
AcDbSavedByObjectVersion
1070
     0
  0
VISUALSTYLE
  5
5F89
102
{ACAD_XDICTIONARY
360
A9FB
102
}
102
{ACAD_REACTORS
330
5F7C
102
}
330
5F7C
100
AcDbVisualStyle
  2
Thicken
 70
    13
 71
     2
 72
     2
 73
     0
 90
        0
 40
-0.6
 41
-30.0
 62
     5
 63
     7
421
 16777215
 74
     1
 91
        4
 64
     7
 65
   257
 75
     1
175
     1
 42
1.0
 92
       12
 66
     7
 43
1.0
 76
     1
 77
     6
 78
     2
 67
     7
 79
     5
170
     0
171
     0
290
     0
174
     0
 93
        1
 44
0.0
173
     0
291
     1
 45
0.0
1001
ACAD
1000
AcDbSavedByObjectVersion
1070
     0
  0
VISUALSTYLE
  5
5F83
102
{ACAD_XDICTIONARY
360
A9EF
102
}
102
{ACAD_REACTORS
330
5F7C
102
}
330
5F7C
100
AcDbVisualStyle
  2
Wireframe
 70
     5
 71
     0
 72
     2
 73
     0
 90
        0
 40
-0.6
 41
-30.0
 62
     5
 63
     7
421
 16777215
 74
     1
 91
        4
 64
     7
 65
   257
 75
     1
175
     1
 42
1.0
 92
        0
 66
   257
 43
1.0
 76
     1
 77
     6
 78
     2
 67
     7
 79
     3
170
     0
171
     0
290
     0
174
     0
 93
        1
 44
0.0
173
     0
291
     0
 45
0.0
1001
ACAD
1000
AcDbSavedByObjectVersion
1070
     0
  0
VISUALSTYLE
  5
5F8F
102
{ACAD_XDICTIONARY
360
AA07
102
}
102
{ACAD_REACTORS
330
5F7C
102
}
330
5F7C
100
AcDbVisualStyle
  2
X-Ray
 70
    25
 71
     2
 72
     2
 73
     1
 90
        1
 40
0.5
 41
-30.0
 62
     5
 63
     7
421
 16777215
 74
     1
 91
        0
 64
     7
 65
   257
 75
     1
175
     1
 42
1.0
 92
        8
 66
     7
 43
1.0
 76
     1
 77
     6
 78
     2
 67
     7
 79
     3
170
     0
171
     0
290
     0
174
     0
 93
       13
 44
0.0
173
     0
291
     0
 45
0.0
1001
ACAD
1000
AcDbSavedByObjectVersion
1070
     0
  0
DICTIONARYVAR
  5
69AA
102
{ACAD_REACTORS
330
169
102
}
330
169
100
DictionaryVariables
280
     0
  1
1:1
  0
DICTIONARYVAR
  5
69A8
102
{ACAD_REACTORS
330
169
102
}
330
169
100
DictionaryVariables
280
     0
  1
STANDARD
  0
DICTIONARYVAR
  5
69A7
102
{ACAD_REACTORS
330
169
102
}
330
169
100
DictionaryVariables
280
     0
  1
STANDARD
  0
DICTIONARYVAR
  5
16A
102
{ACAD_REACTORS
330
169
102
}
330
169
100
DictionaryVariables
280
     0
  1
1
  0
DICTIONARYVAR
  5
69AC
102
{ACAD_REACTORS
330
169
102
}
330
169
100
DictionaryVariables
280
     0
  1
1
  0
DICTIONARYVAR
  5
69AD
102
{ACAD_REACTORS
330
169
102
}
330
169
100
DictionaryVariables
280
     0
  1
15
  0
DICTIONARYVAR
  5
69AB
102
{ACAD_REACTORS
330
169
102
}
330
169
100
DictionaryVariables
280
     0
  1
0
  0
DICTIONARYVAR
  5
69A9
102
{ACAD_REACTORS
330
169
102
}
330
169
100
DictionaryVariables
280
     0
  1
0
  0
DICTIONARYVAR
  5
A9DB
102
{ACAD_REACTORS
330
169
102
}
330
169
100
DictionaryVariables
280
     0
  1
2
  0
XRECORD
  5
177
102
{ACAD_REACTORS
330
176
102
}
330
176
100
AcDbXrecord
280
     1
 91
      476
330
179
 90
        8
 62
     7
370
    -3
331
15
  1
Color_7
330
178
 90
        8
 62
     7
370
    -3
331
15
  1
Color_7
330
128
 90
        0
 62
     7
370
    -3
331
15
  1
Color_7
330
10
 90
        8
 62
     7
370
    -3
331
15
  1
Color_7
  0
DICTIONARY
  5
656E
330
21
100
AcDbDictionary
280
     1
281
     1
  3
ADSK_XREC_LAYOUTTHUMBNAIL
360
656F
  0
DICTIONARY
  5
5F6D
330
5F6C
100
AcDbDictionary
280
     1
281
     1
  3
ACAD_XREC_ROUNDTRIP
360
A9E1
  3
BUMPTILE
360
5F6F
  3
DIFFUSETILE
360
5F6E
  3
OPACITYTILE
360
5F72
  3
REFLECTIONTILE
360
5F71
  3
REFRACTIONTILE
360
5F73
  3
SPECULARTILE
360
5F70
  0
DICTIONARY
  5
5F65
330
5F64
100
AcDbDictionary
280
     1
281
     1
  3
ACAD_XREC_ROUNDTRIP
360
A9E0
  3
BUMPTILE
360
5F67
  3
DIFFUSETILE
360
5F66
  3
OPACITYTILE
360
5F6A
  3
REFLECTIONTILE
360
5F69
  3
REFRACTIONTILE
360
5F6B
  3
SPECULARTILE
360
5F68
  0
DICTIONARY
  5
5F75
330
5F74
100
AcDbDictionary
280
     1
281
     1
  3
ACAD_XREC_ROUNDTRIP
360
A9E2
  3
BUMPTILE
360
5F77
  3
DIFFUSETILE
360
5F76
  3
OPACITYTILE
360
5F7A
  3
REFLECTIONTILE
360
5F79
  3
REFRACTIONTILE
360
5F7B
  3
SPECULARTILE
360
5F78
  0
DICTIONARY
  5
A9DD
330
5FAB
100
AcDbDictionary
280
     1
281
     1
  3
ACAD_XREC_ROUNDTRIP
360
A9DE
  0
DICTIONARY
  5
A2CE
330
5F97
100
AcDbDictionary
280
     1
281
     1
  3
ACAD_ROUNDTRIP_2008_TABLESTYLE_CELLSTYLEMAP
360
A9DC
  3
ACAD_XREC_ROUNDTRIP
360
AA13
  0
DICTIONARY
  5
A9ED
330
5F82
100
AcDbDictionary
280
     1
281
     1
  3
ACAD_XREC_ROUNDTRIP
360
A9EE
  0
DICTIONARY
  5
A9EB
330
5F81
100
AcDbDictionary
280
     1
281
     1
  3
ACAD_XREC_ROUNDTRIP
360
A9EC
  0
DICTIONARY
  5
A9F9
330
5F88
100
AcDbDictionary
280
     1
281
     1
  3
ACAD_XREC_ROUNDTRIP
360
A9FA
  0
DICTIONARY
  5
AA01
330
5F8C
100
AcDbDictionary
280
     1
281
     1
  3
ACAD_XREC_ROUNDTRIP
360
AA02
  0
DICTIONARY
  5
A9F3
330
5F85
100
AcDbDictionary
280
     1
281
     1
  3
ACAD_XREC_ROUNDTRIP
360
A9F4
  0
DICTIONARY
  5
A9F7
330
5F87
100
AcDbDictionary
280
     1
281
     1
  3
ACAD_XREC_ROUNDTRIP
360
A9F8
  0
DICTIONARY
  5
AA11
330
5F94
100
AcDbDictionary
280
     1
281
     1
  3
ACAD_XREC_ROUNDTRIP
360
AA12
  0
DICTIONARY
  5
A9FF
330
5F8B
100
AcDbDictionary
280
     1
281
     1
  3
ACAD_XREC_ROUNDTRIP
360
AA00
  0
DICTIONARY
  5
A9E3
330
5F7D
100
AcDbDictionary
280
     1
281
     1
  3
ACAD_XREC_ROUNDTRIP
360
A9E4
  0
DICTIONARY
  5
A9E5
330
5F7E
100
AcDbDictionary
280
     1
281
     1
  3
ACAD_XREC_ROUNDTRIP
360
A9E6
  0
DICTIONARY
  5
A9E7
330
5F7F
100
AcDbDictionary
280
     1
281
     1
  3
ACAD_XREC_ROUNDTRIP
360
A9E8
  0
DICTIONARY
  5
A9E9
330
5F80
100
AcDbDictionary
280
     1
281
     1
  3
ACAD_XREC_ROUNDTRIP
360
A9EA
  0
DICTIONARY
  5
A9F1
330
5F84
100
AcDbDictionary
280
     1
281
     1
  3
ACAD_XREC_ROUNDTRIP
360
A9F2
  0
DICTIONARY
  5
AA0D
330
5F92
100
AcDbDictionary
280
     1
281
     1
  3
ACAD_XREC_ROUNDTRIP
360
AA0E
  0
DICTIONARY
  5
A9FD
330
5F8A
100
AcDbDictionary
280
     1
281
     1
  3
ACAD_XREC_ROUNDTRIP
360
A9FE
  0
DICTIONARY
  5
AA0F
330
5F93
100
AcDbDictionary
280
     1
281
     1
  3
ACAD_XREC_ROUNDTRIP
360
AA10
  0
DICTIONARY
  5
A9F5
330
5F86
100
AcDbDictionary
280
     1
281
     1
  3
ACAD_XREC_ROUNDTRIP
360
A9F6
  0
DICTIONARY
  5
AA0B
330
5F91
100
AcDbDictionary
280
     1
281
     1
  3
ACAD_XREC_ROUNDTRIP
360
AA0C
  0
DICTIONARY
  5
AA09
330
5F90
100
AcDbDictionary
280
     1
281
     1
  3
ACAD_XREC_ROUNDTRIP
360
AA0A
  0
DICTIONARY
  5
AA03
330
5F8D
100
AcDbDictionary
280
     1
281
     1
  3
ACAD_XREC_ROUNDTRIP
360
AA04
  0
DICTIONARY
  5
AA05
330
5F8E
100
AcDbDictionary
280
     1
281
     1
  3
ACAD_XREC_ROUNDTRIP
360
AA06
  0
DICTIONARY
  5
A9FB
330
5F89
100
AcDbDictionary
280
     1
281
     1
  3
ACAD_XREC_ROUNDTRIP
360
A9FC
  0
DICTIONARY
  5
A9EF
330
5F83
100
AcDbDictionary
280
     1
281
     1
  3
ACAD_XREC_ROUNDTRIP
360
A9F0
  0
DICTIONARY
  5
AA07
330
5F8F
100
AcDbDictionary
280
     1
281
     1
  3
ACAD_XREC_ROUNDTRIP
360
AA08
  0
XRECORD
  5
656F
102
{ACAD_REACTORS
330
656E
102
}
330
656E
100
AcDbXrecord
280
     1
310
280000000001000065000000010008000000000000650000000000000000000000010000000000003028210000000000FFFFFF000000000000000000000000000000000000000000000000000000000000000000330000006600000099000000CC000000FF00000000330000333300006633000099330000CC330000FF3300
310
0000660000336600006666000099660000CC660000FF66000000990000339900006699000099990000CC990000FF99000000CC000033CC000066CC000099CC0000CCCC0000FFCC000000FF000033FF000066FF000099FF0000CCFF0000FFFF000000003300330033006600330099003300CC003300FF003300003333003333
310
33006633330099333300CC333300FF33330000663300336633006666330099663300CC663300FF66330000993300339933006699330099993300CC993300FF99330000CC330033CC330066CC330099CC3300CCCC3300FFCC330000FF330033FF330066FF330099FF3300CCFF3300FFFF330000006600330066006600660099
310
006600CC006600FF00660000336600333366006633660099336600CC336600FF33660000666600336666006666660099666600CC666600FF66660000996600339966006699660099996600CC996600FF99660000CC660033CC660066CC660099CC6600CCCC6600FFCC660000FF660033FF660066FF660099FF6600CCFF6600
310
FFFF660000009900330099006600990099009900CC009900FF00990000339900333399006633990099339900CC339900FF33990000669900336699006666990099669900CC669900FF66990000999900339999006699990099999900CC999900FF99990000CC990033CC990066CC990099CC9900CCCC9900FFCC990000FF99
310
0033FF990066FF990099FF9900CCFF9900FFFF99000000CC003300CC006600CC009900CC00CC00CC00FF00CC000033CC003333CC006633CC009933CC00CC33CC00FF33CC000066CC003366CC006666CC009966CC00CC66CC00FF66CC000099CC003399CC006699CC009999CC00CC99CC00FF99CC0000CCCC0033CCCC0066CC
310
CC0099CCCC00CCCCCC00FFCCCC0000FFCC0033FFCC0066FFCC0099FFCC00CCFFCC00FFFFCC000000FF003300FF006600FF009900FF00CC00FF00FF00FF000033FF003333FF006633FF009933FF00CC33FF00FF33FF000066FF003366FF006666FF009966FF00CC66FF00FF66FF000099FF003399FF006699FF009999FF00CC
310
99FF00FF99FF0000CCFF0033CCFF0066CCFF0099CCFF00CCCCFF00FFCCFF0000FFFF0033FFFF0066FFFF0099FFFF00CCFFFF00FFFFFF00000000000D0D0D001A1A1A00282828003535350043434300505050005D5D5D006B6B6B00787878008686860093939300A1A1A100AEAEAE00BBBBBB00C9C9C900D6D6D600E4E4E400
310
F1F1F100FFFFFF000000000000000000000000000000000000000000000000000000000000000000000000000000000000000000000000000000000000000000000000000000000000000000000000000000000000000000000000000000000000000000000000000000000000000000F50000000000000000000000000000
310
000000000000000000000000000000000000000000000000000000000000000000000000000000000000000000000000000000000000000000000000000000000000000000000000000000000000000000000000000000000000000000000000000000000000000000F5000000000000000000000000000000000000000000
310
000000000000000000000000000000000000000000000000000000000000000000000000000000000000000000000000000000000000000000000000000000000000000000000000000000000000000000000000000000000000000000000000000000000000000000000000000000000000F5000000000000000000000000
310
0000000000000000000000000000000000000000000000000000000000000000000000000000000000000000000000000000000000000000000000000000000000000000000000000000000000000000000000000000000000000000000000000000000000000000000000F500000000000000000000000000000000000000
310
0000000000000000000000000000000000000000000000000000000000000000000000000000000000000000000000000000000000000000000000000000000000000000000000000000000000000000000000000000000000000000000000000000000000000000000000000000000000000000F500000000000000000000
310
00000000000000000000000000000000000000000000000000000000000000000000000000000000000000000000000000000000000000000000000000000000000000000000000000000000000000000000000000000000000000000000000000000000000000000000000000F50000000000000000000000000000000000
310
000000000000000000000000000000000000000000000000000000000000000000000000000000000000000000000000000000000000000000000000000000000000000000000000000000000000000000000000000000000000000000000000000000000000000000000000000000000000002D2D2D2D2D2D2D0000000000
310
0000000000000000000000000000000000000000000000000000000000000000000000000000000000000000000000000000000000000000000000000000000000000000000000000000000000000000000000000000000000000000000000000000000000000000000000002D2D2D2D2D2D2D2D0000000000000000000000
310
0000000000000000000000000000000000000000000000000000000000000000000000000000000000000000000000000000000000000000000000000000000000000000000000000000000000000000000000000000000000000000000000000000000000000000000000000000000000000000002DC3C3C3C3C32D000000
310
00000000000000000000000000000000000000000000000000000000000000000000000000000000000000000000000000000000000000000000000000000000000000000000000000000000000000000000000000000000000000000000000000000000000000000000000000002DC3C3C3C3C3C32D000000000000000000
310
00000000000000000000000000000000000000000000000000000000000000000000000000000000000000000000000000000000000000000000000000000000000000000000000000000000000000000000000000000000000000000000000000000000000000000000000000000000000000000000002D282D2D2D282D00
310
000000000000000000000000000000000000000000000000000000000000000000000000000000000000000000000000000000000000000000000000000000000000000000000000000000000000000000000000000000000000000000000000000000000000000000000000000000002DC3282D2D28C32D00000000000000
310
000000000000000000000000000000000000000000000000000000000000000000000000000000000000000000000000000000000000000000000000000000000000000000000000000000000000000000280000000028000000280000000000000000000000000000000000000000000000000000000000002D2800F50028
310
2D00000000000000000000000000000000280000000028000000280000000000000000000000000000000000000000000000000000000000000000000000280000000028000000280000000000000000000000000000000000000000000000000000000000000000000000000000000000002DC328F50028C32D0000000000
310
0000000000002800000028000000002800000000000000000000000000000000000000000000000000000000000000000000000000000000000000000000000000000000000000000000000000000000000000002800000000280000002800000000000000000000000000000000000000000000000000000000002D2800F5
310
00282D00000000000000000000000000000000002800000000280000002800000000000000000000000000000000000000000000000000000000000000000000002800000000280000002800000000000000000000000000000000000000000000000000000000000000000000000000000000002DC328F50028C32D000000
310
00000000000000000028000000280000000028000000000000000000000000000000000000000000000000000000000000000000000000000000000000000000000000000000000000000000000000000000000000000028000000002800000028000000000000000000000000000000000000000000000000000000002D28
310
00F500282D00000000000000000000000000000000000028000000002800000028000000000000000000000000000000000000000000000000000000000000000000000028000000002800000028000000000000000000000000000000000000000000000000000000000000000000000000000000002DC328F50028C32D00
310
00000000000000000000000028000000280000000028000000000000000000000000000000000000000000000000000000000000000000000000000000000000000000000000000000000000000000000000000000000000000028000000002800000028000000000000000000000000000000000000000000000000000000
310
2D2800F500282D00000000000000000000000000000000000000280000000028000000280000000000000000000000000000000000000000000000000000000000000000000000280000000028000000280000000000000000000000000000000000000000000000000000000000000000000000000000002D0028F50028C3
310
2D000000000000000000000000000028000000280000000028000000000000000000000000000000000000000000000000000000000000000000000000000000000000000000000000000000000000000000000000000000000000000028000000002800000028000000000000000000000000000000000000000000000000
310
00002D2800F500282D00000000000000000000000000000000000000002800000000280000002800000000000000000000000000000000000000000000000000000000000000000000002800000000280000002800000000000000000000000000000000000000000000000000000000000000000000000000002DC328F500
310
28C32D00000000000000000000000000000028000000280000000028000000000000000000000000000000000000000000000000000000000000000000000000000000000000000000000000000000000000000000000000000000000000000028000000002800000028000000000000000000000000000000000000000000
310
000000002D2800F500282D00000000000000000000000000000000000000000028000000002800000028000000000000000000000000000000000000000000000000000000000000000000000028000000280000000028000000000000000000000000000000000000000000000000000000000000000000000000002DC328
310
F50028C32D0000000000000000000000000000000028000000280000000028000000000000000000000000000000000000000000000000000000000000000000000000000000000000000000000000000000000000000000000000000000000000000028000000002800000028000000000000000000000000000000000000
310
0000000000002D2800F500282D00000000000000000000000000000000000000000000280000000028000000280000000000000000000000000000000000000000000000000000000000000000000000280000002800000000280000000000000000000000000000000000000000000000000000000000000000000000002D
310
C328F50028C32D000000000000000000000000000000000028000000280000000028000000000000000000000000000000000000000000000000000000000000000000000000000000000000000000000000000000000000000000000000000000000000000028000000002800000028000000000000000000000000000000
310
00000000000000002D2800F500282D00000000000000000000000000000000000000000000002800000000280000002800000000000000000000000000000000000000000000000000000000000000000000002800000028000000002800000000000000000000000000000000000000000000000000000000000000000000
310
002DC328F50028C32D00000000000000000000000000000000000028000000280000000028000000000000000000000000000000000000000000000000000000000000000000000000000000000000000000000000000000000000002D2D2D2D2D2D2D2D2D2D2D2D2D282D2D2D2D282D2D2D282D2D2D2D2D2D2D2D2D2D2D2D
310
2D2D2D2D2D2D2D2D2D2D2D2D2D2D2D2D2D2D2D2D2D2D2D2D2D2D2D2D2D2D2D2D2D2D2D2D2D2D2D2D2D282D2D2D2D282D2D2D282D2D2D2D2D2D2D2D2D2D2D0000000000002D2D2D2D2D2D2D2D2D2D2D2D2D2D2D2D2D2D2D2D2D2D2D2D2D2D2D2D2D2D2D2D2D2D2D2D2D2D2D2D2D2D2D2D2D2D2D2D2D2D2D2D2D2D2D2D2D2D2D
310
2D2D2D2D2D2D2D2D2D2D2D2D2D2D2D2D2D2D2D2D2D2D2D2D2D2D2D2D2D2D2D2D2D2D2D2D2D2D2D2D2D2D2D2D2D2D2D2DF52D2D2D2D2D2D2D2D2D2D2D2D2D0000000000000000000000000000000000000000000000000000000000000000000000000000000000000000000000000000000000000000000000000000000000
310
000000000000002D2D2D2D2D2D2D2D2D2D2D2D2D2D2D2D2D00000000000000000000000000000000000000000000000000000000000000000000000000000000000000000000000000000000000000000000000000000000000000000000000000000000000000000000000000000000000000000000000000000000000000
310
2D2D2D2D2D2D2D2D2D2D2D2D2D2D2D2D2D2D00000000000000000000000000000000000000000000000000000000000000000000000000000000000000002D00000000000000000000000000000000000000000000000000000000000000000000000000000000000000000000000000000000000000000000000000000000
310
0000000000000000000000000000002D00F5002D0000000000000000000000000000000000000000000000000000000000000000000000000000000000000000000000000000000000000000000000000000000000000000000000000000000000000000000000000000000000000000000000000000000000000000000000
310
0000000000000000002DF5002D0000000000000000000000000000000000000000000000000000000000000000000000000000000000000000000000000000002D0000000000000000000000000000000000000000000000000000000000000000000000000000000000000000000000000000000000000000000000000000
310
00000000000000000000000000000000002D00F5002D000000000000000000000000000000000000000000000000000000000000000000000000000000000000000000000000000000000000000000000000000000000000000000000000000000000000000000000000000000000000000000000000000000000000000000
310
00000000000000000000002DF5002D0000000000000000000000000000000000000000000000000000000000000000000000000000000000000000000000000000002D000000000000000000000000000000000000000000000000000000000000000000000000000000000000000000000000000000000000000000000000
310
000000000000000000000000000000000000002D00F5002D00000000000000000000000000000000000000000000000000000000000000000000000000000000000000000000000000000000000000000000000000000000000000000000000000000000000000000000000000000000000000000000000000000000000000
310
000000000000000000000000F52DF5002D0000000000000000000000000000000000000000000000000000000000000000000000000000000000000000000000000000002D0000000000000000000000000000000000000000000000000000000000000000000000000000000000000000000000000000F5F5F5F5F5F5F5F5
310
F5F5F5F5F5F5F5F5F5F5F5F5F5F5F5F5F5F5F5F5F52D00F5002D0000000000000000F5F5F5F5F5F5F5F5F5F5F5F5F5F5F5F5F5F5F5F5F5F5F5F5F50000000000000000000000000000000000000000000000000000000000000000000000000000000000000000000000000000000000F5F5F5F5F5F5F5F5F5F5F5F5F5F5F5
310
F5F5F5F5F5F5F5F5F5F5F5F5F5F5002DF5002D0000000000000000000000000000000000000000000000000000000000000000000000000000000000000000000000000000002D0000000000000000000000000000000000000000000000000000000000000000000000000000000000000000000000000000F5F5F5F5F5F5
310
F5F5F5F500F50000F5F5F5F500F5F5000000000000002D2D2D2D2D2D2D000000000000F500F5F500F500F500F5F5F5F5F5F500F5F5F5F500F5F5F5F500000000000000000000000000000000000000000000000000000000000000000000000000000000000000000000000000000000000000F5F5F5F5F5F5F5F5F500F500
310
00F500F5F5F5F5F5F5000000000000002D2D2D2D2D2D00000000000000000000000000000000000000000000000000000000000000000000000000000000000000000000000000002D0000000000000000000000000000000000000000000000000000000000000000000000000000000000000000000000000000F5F5F5F5
310
F5F5F5F5F5F500F5F500F5F500F500F5F5000000000000002D2D00F5002D2D000000000000F500F5F5F5F5F5F5F5F5F5F5F5F5F5F5F5F5F5F5F5F5F5F5F500000000000000000000000000000000000000000000000000000000000000000000000000000000000000000000000000000000000000F5F5F5F5F5F5F5F5F5F5
310
F5F500F5F5F5F500F5F5F5000000000000002D00F500002D00000000000000000000000000000000000000000000000000000000000000000000000000000000000000000000000000002D0000000000000000000000000000000000000000000000000000000000000000000000000000000000000000000000000000F5F5
310
F5F5F5F5F5F5F5F500F50000F5F5F5F500F5F5000000000000002D2D2D2D2D2D2D0000000000F5000000F500F500000000000000F50000000000000000F500F500000000000000000000000000000000000000000000000000000000000000000000000000000000000000000000000000000000000000F5F5F5F5F5F5F500
310
F500F50000F500F5F500F5F5F50000000000002D2D2D2D2D2D2D2D000000000000000000000000000000000000000000000000000000000000000000000000000000000000000000000000002D0000000000000000000000000000000000000000000000000000000000000000000000000000000000000000000000000000
310
000000000000000000000000000000000000000000000000002D2D2D2D2D2D2D2D2D2D2D2D2D00F5000000000000000000000000000000000000000000000000000000000000000000000000000000000000000000000000000000000000000000000000000000000000000000000000000000000000000000000000000000
310
0000000000000000000000000000000000002D2D2D2D2D2D2D2D2D2D2D2D2D2D000000000000000000000000000000000000000000000000000000000000000000000000000000000000000000002D000000000000000000000000000000000000000000000000000000000000000000000000000000000000000000000000
310
00000000000000000000000000000000000000000000002D2D2D2D2D2D2D2D2D2D2D2D2D2D2D2D2D2D2D2D2D0000000000000000000000000000000000000000000000000000000000000000000000000000000000000000000000000000000000000000000000000000000000000000000000000000000000000000000000
310
000000000000000000000000000000000000002D2D2D2D2D2D2D2D2D2D2D2D2D2D2D2D0000000000000000000000000000000000000000000000000000000000000000000000000000000000000000002D00000000000000000000000000000000000000000000000000000000000000000000000000000000000000000000
310
000000000000000000000000000000000000000000000000002D2D2D2D2D2D2D2D2D2D2D2D2D2D2D2D2D2D2D2D2D2D0000000000000000000000000000000000000000000000000000000000000000000000000000000000000000000000000000000000000000000000000000000000000000000000000000000000000000
310
0000000000000000000000000000000000000000002D000000000000F5000000000000002D0000000000000000000000000000000000000000000000000000000000000000000000000000000000000000002D0000000000000000000000000000000000000000000000000000000000000000000000000000000000000000
310
0000000000000000000000000000000000000000000000000000002D2D0000000000000000F50000000000F50000002D2D000000000000000000000000000000000000000000000000000000000000000000000000000000000000000000000000000000000000000000000000000000000000000000000000000000000000
310
00000000000000000000000000000000000000000000002D000000000000F5000000000000002D0000000000000000000000000000000000000000000000000000000000000000000000000000000000000000002D000000000000000000000000000000000000000000000000000000000000000000000000000000000000
310
00000000000000000000000000000000000000000000000000000000002D2D0000000000000000F50000000000F50000002D2D0000000000000000000000000000000000000000000000000000000000000000000000000000000000000000000000000000000000000000F5F5F5F5F5F5F5F5F5F5F5000000000000000000
310
000000000000000000000000000000000000000000000000002D000000000000F5000000000000002D0000000000000000000000000000000000000000000000000000000000000000000000000000000000000000002D00000000000000000000000000000000000000000000000000000000000000000000000000000000
310
000000000000000000000000000000000000000000000000000000000000002D2D0000000000000000F500000000F5000000002D2D00000000000000000000000000000000000000000000000000000000000000000000000000000000000000000000000000000000000000000000F5F5F5F5F5F5F50000F5000000000000
310
0000000000000000000000000000000000000000000000000000002D000000000000F5000000000000002D0000000000000000000000000000000000000000000000000000000000000000000000000000000000000000002D0000000000000000000000000000000000000000000000000000000000000000000000000000
310
0000000000000000000000000000000000000000000000000000000000000000002D2D2D2D0000002D2D00F5002D2D0000002D2D002D2D000000000000000000000000000000000000000000000000000000000000000000000000000000000000000000000000000000000000000000F5F5F5F5F5F5F5F50000F500000000
310
00000000000000000000000000000000000000000000000000000000002D000000000000F5000000000000002D0000000000000000000000000000000000000000000000000000000000000000000000000000000000000000002D000000000000000000000000000000000000000000000000000000000000000000000000
310
00000000000000000000000000000000000000000000000000000000000000000000002D2D2D2D0000002D2D00F5002D2D0000002D2D002D2D0000000000000000000000000000000000000000000000000000000000000000000000000000000000000000000000000000000000000000000000000000000000000000F500
310
000000000000000000000000000000000000000000000000000000000000002D000000000000F5000000000000002D0000000000000000000000000000000000000000000000000000000000000000000000000000000000000000002D00000000000000000000000000000000000000000000000000000000000000000000
310
000000000000000000000000000000000000000000000000000000000000000000000000002D2D2D002D00002D2D00F5002D002D00002D2D002D2D0000000000000000000000000000000000000000000000000000000000000000000000000000000000000000000000000000000000000000000000000000000000000000
310
00F5000000000000000000000000000000000000000000000000000000000000002D000000000000F5000000000000002D0000000000000000000000000000000000000000000000000000000000000000000000000000000000000000002D0000000000000000000000000000000000000000000000000000000000000000
310
0000000000000000000000000000000000000000000000000000000000000000000000000000002D2D2D002D00002D2D00F5002D002D00002D2D002D2D000000000000000000000000000000000000000000000000000000000000000000000000000000000000000000000000000000000000000000000000000000000000
310
000000F5000000000000000000000000000000000000000000000000000000000000002D000000000000F5000000000000002D0000000000000000000000000000000000000000000000000000000000000000000000000000000000000000002D000000000000000000000000000000000000000000000000000000000000
310
00000000000000000000000000000000000000000000000000000000000000000000000000000000002D2D2D2D2D2D2D2D2D2D2D2D2D2D2D2D2D2D2D002D2D00000000000000000000000000000000000000000000000000000000000000000000000000000000000000000000000000000000000000000000000000000000
310
000000000000F50000000000000000000000000000000000000000000000000000000000002D000000000000F5000000000000002D0000000000000000000000000000000000000000000000000000000000000000000000000000000000000000002D00000000000000000000000000000000000000000000000000000000
310
000000000000000000000000000000000000000000000000000000000000F5F5F5F5F5F5F5F5F5F5F5F5002D2D2D2D2D2D2D2D2D2D2D2D2D2D2D2D2D2D2D002D2D0000000000000000000000000000000000000000000000000000000000000000000000000000000000000000000000000000000000000000000000000000
310
0000000000000000F50000000000000000000000000000000000000000000000000000000000002D000000000000F5000000000000002D0000000000000000000000000000000000000000000000000000002D00000000000000000000000000000000002D0000000000000000000000000000000000000000000000000000
310
00000000000000000000000000000000000000000000000000000000000000000000F5F5F5F5F5F5F5000000F52D2D2D2D2D2D2D2D2D2D2D2D2D2D2D2D2D2D2D002D2D000000000000000000000000000000000000000000000000000000000000000000000000000000000000002828282828282828282828282828282828
310
28282828282828282828282828282828282828282828282828282828282828282828282828282828282D00000000000000000000000000002D2828282828282828282828282828282828282828282828282828282828282828280000000000000000000000002D000000000000000000000000000000000000000000000000
310
000000000000000000000000000000000000000000000000000000000000000000000000F5F5F5F5F5F5F5000000F52D2D2D2D00000000282D2D2D28000000002D2D002D2D00000000000000000000000000000000000000000000000000000000000000000000000000000000000000000000000000000000000000000000
310
000000000000000000000000000000000000000000000000000000000000000000000000000000000000002D000000000000F5000000000000002D0000000000000000000000000000000000000000000000000000002D00000000000000000000000000000000002D00000000000000000000000000000000000000000000
310
000000000000000000000000000000000000000000000000000000000000000000000000000000000000000000000000002D2D2D2D000000000000F5000000000000002D002D2D0000000000000000000000000000000000000000000000000000000000000000000000000000000000000000000000000000000000000000
310
0000000000000000000000000000000000000000000000000000000000000000000000000000000000000000002D000000000000F5000000000000002D0000000000000000000000000000000000000000000000000000002D00000000000000000000000000002828282D0000000000000000000000000000000000000000
310
0000000000000000000000000000000000000000000000000000000000000000000000000000000000000000000000000000002D2D2D2D000000000000F5000000000000002D002D2D000000000000000000000000000000000000000000000000000000000000000000000000000000000000000000000000000000000000
310
00000000000000000000000000000000000000000000000000000000000000000000000000000000000000000000002D000000000000F5000000000000002D0000000000000000000000000000000000000000000000000000002D00000000000000000000000000000028282D000000000000000000000000000000000000
310
00000000000000000000000000000000000000000000000000000000000000000000000000000000000000000000000000000000002D2D2D2D000000000000F5000000000000002D002D2D00000000000000000000000000000000000000000000000000000000000000000000000000000000000000000000000000000000
310
000000000000000000000000000000000000000000000000000000000000000000000000000000000000000000000000002D000000000000F5000000000000002D0000000000000000000000000000000000000000000000000000002D00000000000000000000000000000000002D00000000000000000000000000000000
310
000000000000000000000000000000000000000000000000000000000000000000000000000000000000000000000000000000000000002D2D2D2D000000000000F5000000000000002D002D2D0000000000000000000000000000000000000000000000000000000000000000000000000000000000000000000000000000
310
0000000000000000000000000000000000000000000000000000000000000000000000000000000000000000000000000000002D000000000000F5000000000000002D0000000000000000000000000000000000000000000000000000002D00000000000000000000000000000000002D0000000000000000000000000000
310
0000000000000000000000000000000000000000000000000000000000000000000000000000000000000000000000000000000000000000002D2D2D2D000000000000F5000000000000002D002D2D000000000000000000000000000000000000000000000000000000000000000000000000000000000000000000000000
310
00000000000000000000000000000000000000000000000000000000000000000000000000000000000000000000000000000000002D000000000000F5000000000000002D0000000000000000000000000000000000000000000000002828282D00000000000000000000000000000000002D000000000000000000000000
310
00000000000000000000000000000000000000000000000000000000000000000000000000000000000000000000000000000000000000000000002D2D2D2D000000000000F5000000000000002D002D2D00000000000000000000000000000000000000000000000000000000000000000000000000000000000000000000
310
000000000000000000000000000000000000000000000000000000000000000000000000000000000000000000000000000000000000002D000000000000F5000000000000002D0000000000000000000000000000000000000000000000002828282D00000000000000000000000000000000002D00000000000000000000
310
000000000000000000000000000000000000000000000000000000000000000000000000000000000000000000000000000000000000000000000000002D2D2D2D000000000000F5000000000000002D002D2D0000000000000000000000000000000000000000000000000000000000000000000000000000000000000000
310
0000000000000000000000000000000000000000000000000000000000000000000000000000000000000000000000000000000000000000002D000000000000F5000000000000002D0000000000000000000000000000000000000000000000002828282D00000000000000000000000000000000002D0000000000000000
310
0000000000000000000000000000000000000000000000000000000000000000000000000000000000000000000000000000000000000000000000000000002D2D2D2D000000000000F5000000000000002D002D2D000000000000000000000000000000000000000000000000000000000000000000000000000000000000
310
00000000000000000000000000000000000000000000000000000000000000000000000000000000000000000000000000000000000000000000002D000000000000F5000000000000002D0000000000000000000000000000000000000000000000002828282D00000000000000000000000000000000002D000000000000
310
0000000000000000000000000000000000000000000000000000000000000000000000000000F5F5F5F5F5F5F5F5F5F5F5F50000000000000000000000000000002D2D2D2D000000000000F5000000000000002D002D2D00000000000000000000000000000000000000000000000000000000000000000000000000000000
310
000000000000000000000000000000000000000000000000000000000000000000000000000000000000000000000000000000000000000000000000002D000000000000F5000000000000002D0000000000000000000000000000000000000000000000000000002D00000000000000000000000000000000002D00000000
310
000000000000000000000000000000000000000000000000000000000000000000000000000000000000F5F5F5F5F5F5F5000000F500000000000000000000000000002D2D2D2D000000000000F5000000000000002D002D2D0000000000000000000000000000000000000000000000000000000000000000000000000000
310
0000000000000000000000000000000000000000000000000000000000000000000000000000000000000000000000000000000000000000000000000000002D000000000000F5000000000000002D0000000000000000000000000000000000000000000000000000002D00000000000000000000000000000000002D0000
310
0000000000000000000000000000000000000000000000000000000000000000000000000000000000000000F5F5F5F5F5F5F5000000F500000000000000000000000000002D2D2D2D000000000000F5000000000000002D002D2D000000000000000000000000000000000000000000000000000000000000000000000000
310
00000000000000000000000000000000000000000000000000000000000000000000000000000000000000000000000000000000000000000000000000000000002D000000000000F5000000000000002D0000000000000000000000000000000000000000000000000000002D00000000000000000000000000000000002D
310
00000000000000000000000000000000000000000000000000000000000000000000000000000000000000000000F5F5F5F500F5F500000000F5000000000000000000000000002D2D2D2D000000000000F5000000000000002D002D2D00000000000000000000000000000000000000000000000000000000000000000000
310
000000000000000000000000000000000000000000000000000000000000000000000000000000000000000000000000000000000000000000000000000000000000002D000000000000F5000000000000002D0000000000000000000000000000000000000000000000000000002D00000000000000000000000000000000
310
002D000000000000000000000000000000000000000000000000000000000000000000000000000000000000000000000000000000000000000000F5000000000000000000000000002D2D2D2D000000000000F50000000000002D2D002D2D0000000000000000000000000000000000000000000000000000000000000000
310
0000000000000000000000000000000000000000000000000000000000000000000000000000000000000000000000000000000000000000000000000000000000000000002D000000000000F5000000000000002D0000000000000000000000000000000000000000000000000000002D0000000000000000000000000000
310
0000002D00000000000000000000000000000000000000000000000000000000000000000000000000000000000000000000000000000000000000000000F50000000000000000000000002D2D2D2D2D2D2D2D2D2D2D2D2D2D2D2D2D2D2D002D2D000000000000000000000000000000000000000000000000000000000000
310
00000000000000000000000000282828282828282828282828282828282828282828282828282828282828282828282828282828282828282828282828282828282828282828282D000000000000F5000000000000002D28282828282828282828282828282828282828282828282828282828282828282800000000000000
310
00000000002D0000000000000000000000000000000000000000000000000000000000000000002D2D2D2D2D2D2D2D2D2D2D2D2D2D2D2D2D2D2D2D2D2D2D2D2D2D2D2D2D2D2D2D2D2D2D2D2D2D2D2D2D2D2D0000000000F500000000002D2D2D2D2D2D2D2D2D2D2D2D2D2D2D2D2D2D2D2D2D2D2D2D2D2D2D2D2D2D2D2D2D2D
310
2D2D2D2D2D2D2D2D2D000000000000000000000000002D2D2D2D2D2D2D2D2D2D2D2D2D2D2D2D2D2D2D2D2D2D2D000000000000000000000000000000000000000000000000000000002D00000000000028000000000000002D0000000000000000000000000000000000000000000000000000002D00000000000000000000
310
000000000000002D00000000000000000000000000000000000000000000000000000000000000000028282828282828282828282828282828282828282828282828282828282828282828282828282D2D2828280000000000F50000000000282828282D2D2828282828282828282828282828282828282828282828282828
310
2828282828282828282828000000000000000000000000002D2D2D2D2D2D2D0000000000000000002D2D2D2D2D2D2D000000000000000000000000000000000000000000000000000000002D000000000028F5282800000000002D000000000000000000000000000000000000000000000000000000000000000000000000
310
0000000000000000002D00000000000000000000000000000000000000000000000000000000000000000000000000000000000000000000000000000000000000000000000000000000000000000028002D2D00002D2D2D2D2D2D2D2D2D2D2D2D2D0028002D2D002800280000000000000000000000000000000000000000
310
00000000002D00000000000000000000000000000000000000002D2D2D00002D2D0000000000000000002D0000002D2D2D000000000000000000000000000000000000000000000000000000002D000000000028F5282800000000002D00000000000000000000000000000000000000000000000000000000000000000000
310
00000000000000000000002D00000000000000000000000000000000000000000000000000000000000000000000000000000000000000000000000000000000000000000000000000000000000000000028282D2D2828282828282828282828282828282828282D2D28282828000000000000000000000000000000000000
310
000000002800282D00000000000000000000000000000000000000000000000000F52D0000000000000000002D000000000000000000000000000000000000000000000000000000000000000000002D000000000028F5282800000000002D0000000000000000000000000000000000000000000000000000000000000000
310
000000000000000000000000002D00000000000000000000000000000000000000000000000000000000000000000000000000000000000000000000000000000000000000000000000000000000000000000000282D2D0000000000000000F50000000000000000002D2D0000000000000000000000000000000000000000
310
0000000000002828282D00000000000000000000000000000000000000000000000000F52D0000000000000000002D000000000000000000000000000000000000000000000000000000000000000000002D00000000000028280000000000002D000000000000000000000000000000000000000000000000000000000000
310
0000000000000000000000000000002D00000000000000000000000000000000000000000000000000000000000000000000000000000000000000000000000000000000000000000000000000000000000000000000002D2D0000000000000000F50000000000000000002D2D000000000000000000000000000000000000
310
00000000000000002828282D000000000000000000000000000000000000000000000000F52D2D0000000000000000002D000000000000000000000000000000000000000000000000000000000000000000002D2D2D2D2D2D2D2D2D2D2D2D2D2D2D2D00000000000000000000000000000000000000000000000000000000
310
00000000000000000000000000000000002D000000000000000000000000000000000000000000000000000000000000000000000000000000000000000000000000000000000000000000000000000000000000000000000000000000000000000000F5000000000000000000000000000000000000000000000000000000
310
000000000000000000002828282D00000000000000000000000000000000F5F5F5F5F5F5F5F5F52D2D0000000000000000002D0000000000000000000000000000000000000000000000000000000000000000000000000000000000F500000000000000000000000000000000000000000000000000000000000000000000
310
000000000000000000000000000000000000002D000000000000000000000000000000000000000000000000000000000000000000000000000000000000000000000000000000000000000000000000000000000000000000000000000000000000000000F500000000000000000000000000000000000000000000000000
310
0000000000000000000000000000002D00000000000000000000000000000000F5F5F5F5F5F5F5F5002D2D0000000000000000002D0000000000000000000000000000000000000000000000000000000000000000000000000000000000F50000000000000000000000000000000000000000000000000000000000000000
310
0000000000000000000000000000000000000000002D000000000000000000000000000000000000000000000000000000000000000000000000000000000000000000000000000000000000000000000000000000000000000000000000000000000000000000000000000000000000000000000000000000000000000000
310
00000000000000000000000000000000002D00000000000000000000000000000000F5F5F5F5F5F5F5F5002D2D0000000000000000002D000000000000000000000000000000000000000000000000000000000000000000000000000000000000000000000000000000000000000000000000000000000000000000000000
310
00000000000000000000000000000000000000000000002D0000000000000000000000000000000000000000000000000000000000000000002D2D2D2D2D2D2D2D2D2D2D2D2D2D2D2D2D2D2D2D2D2D2D2D2D2D2D2D2D2D2D2D2D2D2D2D2D2D2D2D2D2D2D2D2D2D2D2D2D2D2D2D2D2D2D2D2D2D2D2D2D2D2D2D2D2D2D2D2D2D
310
2D2D2D2D2D2D2D2D2D2D2D2D2D2D2D2D2D2D2D2D2D2D2D2D2D2D2D0000000000002D2D2D2D2D2D2D2D2D2D2D2D2D2D2D2D2D2D2D2D2D2D2D2D2D2D2D2D2D2D2D2D2D2D2D2D2D2D2D2D2D2D2D2D2D2D2D2D2D2D2D2D2D2D2D2D2D2D2D2D2D2D2D2D2D2D2D2D2D2D2D2D2D2D2D2D2D2D2D2D2D2D2D2D2D2D2D2D2D2D2D2D2D2D
310
2D2D2D2D2D2D2D2D2D2D2D2D2DF52D2D2D2D2D2D2D2D2D2D2DF52D00000000000000000000000000000000000000000000000000000000000000000000000000000000000000000000000000000000000000000000000000000000000000000000000000000000000000000000000000000000000000000000000000000000
310
0000000000000000000000000000000000000000002D000000000000000000000000000000000000000000000000000000000000000000000000000000000000000000000000000000000000000000000000000000000000000000000000000000000000000000000000000000000000000000000000000000000000000000
310
0000000000000000000000000000000000000000000000000000002D000000000000000000000000000000000000000000000000000000000000000000282828282828282828282828282828282828282828282828282828282828282828282828282828282828282828282828282828282828282828282828282828282828
310
28282828282828282828282828282828282828282828282828282828282828000000000000282828282828282828282828282828282828282828282828282828282828282828282828282828282828282828282828282828282828282828282828282828282828282828282828282828282828282828282828282828282828
310
28282828282828282828282828282828280000000000000000000000000000000000000000000000000000000000000000000000000000000000000000000028282828282828282828282828282828282828282828282828282828282828282828282828282828282828282828282828282828282828282828282828282828
310
28282828282828282828282828282828282828282828282828282828282828282800000000000028282828282828282828282828282828282828282828282828282828282828282828282828282828282828282828282828282828282828282828282828282828282828282828282828282828282828282828282828282828
310
28282828282828282828282828282828282828000000000000000000000000000000000000000000000000000000000000000000000000000000000000000000000000000000000000000000000000000000000000000000000000000000000000000000000000000000000000000000000000F50000000000000000000000
310
00000000000000000000000000000000000000000000000000000000000000000000000000000000000000000000000000000000000000000000000000000000000000000000000000000000000000000000000000000000000000000000000000000000000000000000000000000000000000000000000000000000000000
310
000000000000000000000000000000000000000000000000000000000000000000000000000000000000000000000000000000000000000000000000000000000000002D2D2D2D2D2D2D2D2D2D2D2D2D2D2D2D2D2D2D2D2D2D2D2D2D2D2D2D2D2D2D2D2D2D2D2D2D2D2D2D2D2D2D2D2D2D2D2D2D2D2D2D2D2D2D2D2D2D2D2D
310
2D2D282D2D2D2D2D2D2D2D2D2D2D2D2D2D2D2D2D2D2D2D2D2D2D2D2D2D2D2D2D2D2D2D2D2D0000000000002D2D2D2D2D2D2D2D2D2D2D2D2D2D2D2D2D2D2D2D2D2D2D2D2D2D2D2D2D2D2D2D2D2D2D2D2D2D2D2D2D2D2D2D2D2D2D2D2D2D2D2D2D2D2D2D2D2D2D2D2D2D2D2D2D2D2D2D2D2D2D2D2D2D2D2D2D2D2D2D2D2D2D2D
310
2D2D2D2D2D2D2D2D2D2D2D2D2D2D2D2D2D2D2D2D2D2D2D00000000000000000000000000000000000000000000000000000000000000000000000000000000000000000000000000000028000000000000000000000000000000000000000000000000000000002800000000000000000000000000000000F5000000000000
310
00000000280000000000000000000000000000000000000000000000000000000028000000000000000000000000000000000000000000000000000000000000000000000000000000000000000000000000000000000000000000000000000000000000000000000000000000000000000000000000000000000000000000
310
0000000000000000000000000000000000000000000000000000000000000000000000000000000000000000000000000000000000000000000000000000000000000000000000000028282828000000000000000000000000000000000000000000000000002828282800000000000000000000000000000000F500000000
310
00000028282828000000000000000000000000000000000000000000000000002828282800000000000000000000000000000000000000000000000000000000000000000000000000000000000000000000000000000000000000000000000000000000000000000000000000000000000000000000000000000000000000
310
0000000000000000000000000000000000000000000000000000000000000000000000000000000000000000000000000000000000000000000000000000000000000000000000000000002800000000000000000000000000000000000000000000000000000000280000000000000000000000000000000000000000F500
310
00000000002800000000000000000000000000000000000000000000000000000000280000000000000000000000000000000000000000000000000000000000000000000000000000000000000000000000000000000000000000000000000000000000000000000000000000000000000000000000000000000000000000
310
00000000000000000000000000000000000000000000000000000000000000000000000000000000000000000000000000000000000000000000000000000000000000000000000000000000002828282800000000000000000000000000000000000000000000000000282828280000000000000000000000000000000000
310
00F50000000000282828280000000000000000000000000000000000000000000000000028282828000000000000000000000000000000000000000000000000000000000000000000000000000000000000000000000000000000000000000000000000000000000000000000000000000000000000000000000000000000
310
00000000000000000000000000000000000000000000000000000000000000000000000000000000000000000000000000000000000000000000000000000000000000000000000000000000000000000000280000000000000000000000000000000000000000000000000000000028000000000000000000000000000000
310
000000F5000000000000000028000000000000000000000000000000000000000000000000000000002800000000000000000000000000000000000000000000000000000000000000000000000000000000000000000000000000000000000000000000000000000000000000000000000000000000000000000000000000
310
000000000000000000000000000000000000000000000000000000000000000000000000000000000000000000000000000000000000000000000000000000000000000000000000000000000000002D2D2D2D2D2D2D2D2D2D2D2D2D2D2D2D2D2D2D2D2D2D2D2D2D2D2D2D2D2D2D2D2D2D2D2D2D2D2D2D2D2D2D2D2D2D2D2D
310
2D2D2D2D2D2D2D2D2D2D2D2D2D2D282D2D2D2D2D2D2D2D2D2D2D2D2D2D2D2D2D2D2D2D2D2D2D2D2D2D2D2D2D2D2D2D2D2D0000000000002D2D2D2D2D2D2D2D2D2D2D2D2D2D2D2D2D2D2D2D2D2D2D2D2D2D2D2D2D2D2D2D2D2D2D2D2D2D2D2D2D2D2D2D2D2D2D2D2D2D2D2D2D2D2D2D2D2D2D2D2D2D2D2D2D2D2D2D2D2D2D2D
310
2D2D2D2D2D2D2D2D2D2D2D2D2D2D2D2D2D2D2D2D2D2D2D2D2D2D2D2D2D2D2D2D2D2D2D000000000000000000000000000000000000000000000000000000000000000000000000000000000000000000000000000000000000000000000000000000000000000000000000000000000000000000000000000000000000F500
310
000000000000000000F5000000000000000000000000000000000000000000000000000000000000000000000000000000000000000000000000000000000000000000000000000000000000000000000000000000000000000000000000000000000000000000000000000000000000000000000000000000000000000000
310
00000000000000000000000000000000000000000000000000000000000000000000000000000000000000000000000000000000000000000000000000000000000000000000000000000000000000000000000000000000000000000000000000000000000000000000000000000000000000000000000000000000000000
310
F500000000000000000000F500000000000000000000000000000000000000000000000000000000000000000000000000000000000000000000000000000000000000000000000000000000000000000000000000000000000000000000000000000000000000000000000000000000000000000000000000000000000000
310
00000000000000000000000000000000000000000000000000000000000000000000000000000000000000000000000000000000000000000000000000000000000000000000000000000000000000000000000000000000000000000000000000000000000000000000000000000000000000000000000000000000000000
310
000000F500000000000000000000F500000000000000000000000000000000000000000000000000000000000000000000000000000000000000000000000000000000000000000000000000000000000000000000000000000000000000000000000000000000000000000000000000000000000000000000000000000000
310
00000000000000000000000000000000000000000000000000000000000000000000000000000000000000000000000000000000000000000000000000000000000000000000000000000000000000000000000000000000000000000000000000000000000000000000000000000000000000000000000000000000000000
310
0000000000F500000000000000000000F50000000000000000000000000000000000000000000000000000000000000000000000000000000000000000000000000000000000000000000000000000000000000000000000000000000000000000000000000000000000000000000000000000000000000000000000000000
310
00000000000000000000000000000000000000000000000000000000000000000000000000000000000000000000000000000000000000000000000000000000000000000000000000000000000000000000000000000000000000000000000000000000000000000000000000000000000000000000000000000000000000
310
0000000000000000F500000000000000000000F5F5F5F5F5F5F5F5F5F5F5F5F5F5F5000000000000000000000000000000000000000000000000000000000000000000000000000000000000000000000000000000000000000000000000000000000000000000000000000000000000000000000000000000000000000000
310
00000000000000000000000000000000000000000000000000000000000000000000000000000000000000000000000000000000000000000000000000000000000000000000000000000000000000000000000000000000000000000000000000000000000000000000000000000000000000000000000000000000000000
310
0000000000000000000000F50000000000000000000000F5F5F5F5F5F5F5F5F5F500000000000000000000000000000000000000000000000000000000000000000000000000000000000000000000000000000000000000000000000000000000000000000000000000000000000000000000000000000000000000000000
310
00000000000000000000000000000000000000000000000000000000000000000000000000000000000000000000000000000000000000000000000000000000000000000000000000000000000000000000000000000000000000000000000000000000000000000000000000000000000000000000000000000000000000
310
00000000000000000000000000F50000000000000000000000F5F5F5F5F5F5F5F5F5F50000000000000000000000000000000000000000000000000000000000000000000000000000000000000000000000000000000000000000000000000000000000000000000000000000000000000000000000000000000000000000
310
00000000000000000000000000000000000000000000000000000000000000000000000000000000000000000000000000000000000000000000000000000000000000000000000000000000000000000000000000000000000000000000000000000000000000000000000000000000000000000000000000000000000000
310
00000000000000000000000000000000F50000000000000000000000F500F50000F5000000000000000000000000000000000000000000000000000000000000000000000000000000000000000000000000000000000000000000000000000000000000000000000000000000000000000000000000000000000000000000
310
00000000000000000000000000000000000000000000000000000000000000000000000000000000000000000000000000000000000000000000000000000000000000000000000000000000000000000000000000000000000000000000000000000000000000000000000000000000000000000000000000000000000000
310
000000000000000000000000000000000000F5000000000000000000000000000000000000000000000000000000000000000000000000000000000000000000000000000000000000000000000000000000000000000000000000000000000000000000000000000000000000000000000000000000000000000000000000
310
00000000000000000000000000000000000000000000000000000000000000000000000000000000000000000000000000000000000000000000000000000000000000000000000000000000000000000000000000000000000000000000000000000000000000000000000000000000000000000000000000000000000000
310
000000000000000000000000000000000000000000F5F5F5F5F5F5F5F5F5F5F5F5F5F5F5F5F5F5F5F5F5F5F5F500000000000000000000000000000000000000000000000000000000000000000000000000000000000000000000000000000000000000000000000000000000000000000000000000000000000000000000
310
00000000000000000000000000000000000000000000000000000000000000000000000000000000000000000000000000000000000000000000000000000000000000000000000000000000000000000000000000000000000000000000000000000000000000000000000000000000000000000000000000000000000000
310
0000000000000000000000000000000000000000000000000000F5F5F5F5F5F5F5F500F5F5F5F5F5F5F5F5F50000000000000000000000000000000000000000000000000000000000000000000000000000000000000000000000000000000000000000000000000000000000000000000000000000000000000000000000
310
00000000000000000000000000000000000000000000000000000000000000000000000000000000000000000000000000000000000000000000000000000000000000000000000000000000000000000000000000000000000000000000000000000000000000000000000000000000000000000000000000000000000000
310
000000000000000000000000000000000000000000000000000000F5F5F5F5F50000F5F5F5F5F5F5F5F5F5F5F5F5000000000000000000000000000000000000000000000000000000000000000000000000000000000000000000000000000000000000000000000000000000000000000000000000000000000000000000
310
00000000000000000000000000000000000000000000000000000000000000000000000000000000000000000000000000000000000000000000000000000000000000000000000000000000000000000000000000000000000000000000000000000000000000000000000000000000000000000000000000000000000000
310
00000000000000000000000000000000000000000000000000000000000000000000000000000000000000000000000000000000000000000000000000000000000000000000000000000000000000000000000000000000000000000000000000000000000000000000000000000000000000000000000000000000000000
310
00000000000000000000000000000000000000000000000000000000000000000000000000000000000000000000000000000000000000000000000000000000000000000000000000000000000000000000000000000000000000000000000000000000000000000000000000000000000000000000000000000000000000
310
00000000000000000000000000000000000000000000000000000000000000000000000000000000000000000000000000000000000000000000000000000000000000000000000000000000000000000000000000000000000000000000000000000000000000000000000000000000000000000000000000000000000000
310
00000000000000000000000000000000000000000000000000000000000000000000000000000000000000000000000000000000000000000000000000000000000000000000000000000000000000000000000000000000000000000000000000000000000000000000000000000000000000000000000000000000000000
310
00000000000000000000000000000000000000000000000000000000000000000000000000000000000000000000000000000000000000000000000000000000000000000000000000000000000000000000000000000000000000000000000000000000000000000000000000000000000000000000000000000000000000
310
00000000000000000000000000000000000000000000000000000000000000000000000000000000000000000000000000000000000000000000000000000000000000000000000000000000000000000000000000000000000000000000000000000000000000000000000000000000000000000000000000000000000000
310
00000000000000000000000000000000000000000000000000000000000000000000000000000000000000000000000000000000000000000000000000000000000000000000000000000000000000000000000000000000000000000000000000000000000000000000000000000000000000000000000000000000000000
310
00000000000000000000000000000000000000000000000000000000000000000000000000000000000000000000000000000000000000000000000000000000000000000000000000000000000000000000000000000000000000000000000000000000000000000000000000000000000000000000000000000000000000
310
00000000000000000000000000000000000000000000000000000000000000000000000000000000000000000000000000000000000000000000000000000000000000000000000000000000000000000000000000000000000000000000000000000000000000000000000000000000000000000000000000000000000000
310
00000000000000000000000000000000000000000000000000000000000000000000000000000000000000000000000000000000000000000000000000000000000000000000000000000000000000000000000000000000000000000000000000000000000000000000000000000000000000000000000000000000000000
310
00000000000000000000000000000000000000000000000000000000000000000000000000000000000000000000000000000000000000000000000000000000000000000000000000000000000000000000000000000000000000000000000000000000280000282828000000280028002800280028002800280000000000
310
28282828002828000028280028002800002828002800280000000000000000000000000000000000000000000000000000000000000000000000000000000000000000000000000000000000000000000000000000000000000000000000000000000000000000000000000000000000000000000000000000000000000000
310
00000000000000000000000000000000000000000000000000000000000000000000000000000000000000000000000000000000000000000000000000000000000000000000000000000000000000000000000000000000000000280028000028282828000028000028002800000028002800280028002800280028000028
310
28000028000000280028002800282800280000282800280028000000000000000000000000000000000000000000000000000000000000000000000000000000000000000000000000000000000000000000000000000000000000000000000000000000000000000000000000000000000000000000000000000000000000
310
00000000000000000000000000000000000000000000000000000000000000000000000000000000000000000000000000000000000000000000000000000000000000000000000000000000000000000000000000000000000000000028002800002828282800002800000000280028282828280028002800280028002828
310
28280028000028002828282828282828280028000028280028002800000000000000000000000000000000000000000000000000000000000000000000000000000000000000000000000000000000000000000000000000000000000000000000000000000000000000000000000000000000000000000000000000000000
310
00000000000000000000000000000000000000000000000000000000000000000000000000000000000000000000000000000000000000000000000000000000000000000000000000000000000000000000000000000000000000000000002828000000000000000028280000002828000028280028282828280028282828
310
28002800000028000028002828000028280028282828280028282828280000000000000000000000000000000000000000000000000000000000000000000000000000000000000000000000000000000000000000000000000000000000000000000000000000000000000000000000000000000000000000000000000000
310
00000000000000000000000000000000000000000000000000000000000000000000000000000000000000000000000000000000000000000000000000000000000000000000000000000000000000000000000000000000000000000000000000280000000000000000000028000028282800000028000000000000000000
310
00000000000000000028282800282828002828280000000000000000000000000000000000000000000000000000000000000000000000000000000000000000000000000000000000000000000000000000000000000000000000000000000000000000000000000000000000000000000000000000000000000000000000
310
00000000000000000000000000000000000000000000000000000000000000000000000000000000000000000000000000000000000000000000000000000000000000000000000000000000000000000000000000000000000000000000000000000000000000000000000000000000000000000000000000000000000000
310
00000000000000000000000000000000000000000000000000000000000000000000000000000000000000000000000000000000000000000000000000000000000000000000000000000000000000000000000000000000000000000000000000000000000000000000000000000000000000000000000000000000000000
310
00000000000000000000000000000000000000000000000000000000000000000000000000000000000000000000000000000000000000000000000000000000000000002828282800000000000000280000000000000028000028282800282828000028282828002828280000002828282800280028000028002828000000
310
00000000282828000000000028002828280000000000000000000000000000000000000000000000000000000000000000000000000000000000000000000000000000000000000000000000000000000000000000000000000000000000000000000000000000000000000000000000000000000000000000000000000000
310
00000000000028282800002800280000002800000000000000000000000000000000002828002800282828280000282800000028280000282828280000000000000028280000282828280000000028282828282800000000000028280028002828282828002828280028280028000000282828282828002828002800282800
310
00282800002800280000280028000028280028282800280000282800000000280000002828000028280000000000000000000000000000000000000000000000000000000000000000000000000000000000000000000000000000000000000000000000000000000000000000000000000000000000000000000000000000
310
00000000000000002828280000002828000028282800000000000028280028000000000000002828000000282800002800002800000028000028000000002828282828280000280028282828000000280000282828280000282800002828282800282828280028282828002828282800000028280028002828282800282828
310
28000028000000282828280028280028002828280028282828280028002800002828000000002828000000280000000000000000000000000000000000000000000000000000000000000000000000000000000000000000000000000000000000000000000000000000000000000000000000000000000000000000000000
310
00000000000000000000282828000000280000002800280028282828000028282800282828280000002800002800282800280000280000002800002800000000000000000028000028002828002800000028002828002828000028000000282828282828282828282828282800282828280000002828282828282828280028
310
28282800002828000028282828002828282828280028000000282800000028282800002800000000002800000028000000000000000000000000000000000000000000000000000000000000000000000000000000000000000000000000000000000000000000000000000000000000000000000000000000000000000000
310
00000000000000000000000028282800002828280000280028000000000000000028280000000000000028280000282828280028282828000028280000280000000000000000002800002800282828280000000028282828282800000000002800002828002828282800282828280028282828000000002828000028282828
310
00282828280000000000002828282800280028000028282800002828280000002800000000002800002828282828280000000000000000000000000000000000000000000000000000000000000000000000000000000000000000000000000000000000000000000000000000000000000000000000000000000000000000
310
00000000000000000000000000000000000000000000000000000000000000000000000000000000000000000000000000000000000000000000000000000000000000000000000000000000000000000028000000000000000000000000000000002828002800002828000028282828000000000000000000280028000000
310
280000000000000000000000002800000000000000000028000000000000000000000000000000000000000000000000000000000000000000000000000000000000000000000000000000000000000000000000000000000000000000000000000000000000000000000000000000000000000000000000000000
  0
XRECORD
  5
A9E1
102
{ACAD_REACTORS
330
5F6D
102
}
330
5F6D
100
AcDbXrecord
280
     1
102
MATERIAL
148
0.0
149
0.0
149
0.0
 93
        0
 94
      127
282
     0
 72
     0
 77
     0
171
     0
175
     0
179
     0
273
     0
  0
XRECORD
  5
5F6F
102
{ACAD_REACTORS
330
5F6D
102
}
330
5F6D
100
AcDbXrecord
280
     1
270
     1
271
     1
  0
XRECORD
  5
5F6E
102
{ACAD_REACTORS
330
5F6D
102
}
330
5F6D
100
AcDbXrecord
280
     1
270
     1
271
     1
  0
XRECORD
  5
5F72
102
{ACAD_REACTORS
330
5F6D
102
}
330
5F6D
100
AcDbXrecord
280
     1
270
     1
271
     1
  0
XRECORD
  5
5F71
102
{ACAD_REACTORS
330
5F6D
102
}
330
5F6D
100
AcDbXrecord
280
     1
270
     1
271
     1
  0
XRECORD
  5
5F73
102
{ACAD_REACTORS
330
5F6D
102
}
330
5F6D
100
AcDbXrecord
280
     1
270
     1
271
     1
  0
XRECORD
  5
5F70
102
{ACAD_REACTORS
330
5F6D
102
}
330
5F6D
100
AcDbXrecord
280
     1
270
     1
271
     1
  0
XRECORD
  5
A9E0
102
{ACAD_REACTORS
330
5F65
102
}
330
5F65
100
AcDbXrecord
280
     1
102
MATERIAL
148
0.0
149
0.0
149
0.0
 93
        0
 94
      127
282
     0
 72
     0
 77
     0
171
     0
175
     0
179
     0
273
     0
  0
XRECORD
  5
5F67
102
{ACAD_REACTORS
330
5F65
102
}
330
5F65
100
AcDbXrecord
280
     1
270
     1
271
     1
  0
XRECORD
  5
5F66
102
{ACAD_REACTORS
330
5F65
102
}
330
5F65
100
AcDbXrecord
280
     1
270
     1
271
     1
  0
XRECORD
  5
5F6A
102
{ACAD_REACTORS
330
5F65
102
}
330
5F65
100
AcDbXrecord
280
     1
270
     1
271
     1
  0
XRECORD
  5
5F69
102
{ACAD_REACTORS
330
5F65
102
}
330
5F65
100
AcDbXrecord
280
     1
270
     1
271
     1
  0
XRECORD
  5
5F6B
102
{ACAD_REACTORS
330
5F65
102
}
330
5F65
100
AcDbXrecord
280
     1
270
     1
271
     1
  0
XRECORD
  5
5F68
102
{ACAD_REACTORS
330
5F65
102
}
330
5F65
100
AcDbXrecord
280
     1
270
     1
271
     1
  0
XRECORD
  5
A9E2
102
{ACAD_REACTORS
330
5F75
102
}
330
5F75
100
AcDbXrecord
280
     1
102
MATERIAL
148
0.0
149
0.0
149
0.0
 93
        0
 94
      127
282
     0
 72
     0
 77
     0
171
     0
175
     0
179
     0
273
     0
  0
XRECORD
  5
5F77
102
{ACAD_REACTORS
330
5F75
102
}
330
5F75
100
AcDbXrecord
280
     1
270
     1
271
     1
  0
XRECORD
  5
5F76
102
{ACAD_REACTORS
330
5F75
102
}
330
5F75
100
AcDbXrecord
280
     1
270
     1
271
     1
  0
XRECORD
  5
5F7A
102
{ACAD_REACTORS
330
5F75
102
}
330
5F75
100
AcDbXrecord
280
     1
270
     1
271
     1
  0
XRECORD
  5
5F79
102
{ACAD_REACTORS
330
5F75
102
}
330
5F75
100
AcDbXrecord
280
     1
270
     1
271
     1
  0
XRECORD
  5
5F7B
102
{ACAD_REACTORS
330
5F75
102
}
330
5F75
100
AcDbXrecord
280
     1
270
     1
271
     1
  0
XRECORD
  5
5F78
102
{ACAD_REACTORS
330
5F75
102
}
330
5F75
100
AcDbXrecord
280
     1
270
     1
271
     1
  0
XRECORD
  5
A9DE
102
{ACAD_REACTORS
330
A9DD
102
}
330
A9DD
100
AcDbXrecord
280
     1
102
ACAD_ROUNDTRIP_2012_MLEADER_STYLE
298
     1
  0
CELLSTYLEMAP
  5
A9DC
102
{ACAD_REACTORS
330
A2CE
102
}
330
A2CE
100
AcDbCellStyleMap
 90
        3
300
CELLSTYLE
  1
TABLEFORMAT_BEGIN
 90
        5
170
     1
 91
        0
 92
    32768
 62
   257
 93
        1
300
CONTENTFORMAT
  1
CONTENTFORMAT_BEGIN
 90
        0
 91
        0
 92
      512
 93
        0
300

 40
0.0
140
1.0
 94
        5
 62
     0
340
11
144
0.25
309
CONTENTFORMAT_END
171
     0
 94
        0
309
TABLEFORMAT_END
  1
CELLSTYLE_BEGIN
 90
        1
 91
        1
300
_TITLE
309
CELLSTYLE_END
300
CELLSTYLE
  1
TABLEFORMAT_BEGIN
 90
        5
170
     1
 91
        0
 92
        0
 62
   257
 93
        1
300
CONTENTFORMAT
  1
CONTENTFORMAT_BEGIN
 90
        0
 91
        0
 92
      512
 93
        0
300

 40
0.0
140
1.0
 94
        5
 62
     0
340
11
144
0.18
309
CONTENTFORMAT_END
171
     0
 94
        0
309
TABLEFORMAT_END
  1
CELLSTYLE_BEGIN
 90
        2
 91
        1
300
_HEADER
309
CELLSTYLE_END
300
CELLSTYLE
  1
TABLEFORMAT_BEGIN
 90
        5
170
     1
 91
        0
 92
        0
 62
   257
 93
        1
300
CONTENTFORMAT
  1
CONTENTFORMAT_BEGIN
 90
        0
 91
        0
 92
      512
 93
        0
300

 40
0.0
140
1.0
 94
        2
 62
     0
340
11
144
0.18
309
CONTENTFORMAT_END
171
     0
 94
        0
309
TABLEFORMAT_END
  1
CELLSTYLE_BEGIN
 90
        3
 91
        2
300
_DATA
309
CELLSTYLE_END
  0
XRECORD
  5
AA13
102
{ACAD_REACTORS
330
A2CE
102
}
330
A2CE
100
AcDbXrecord
280
     1
102
ACAD_ROUNDTRIP_PRE2007_TABLESTYLE
 90
      512
 91
        0
  1

 92
      512
 93
        0
  2

 94
      512
 95
        0
  3

  0
XRECORD
  5
A9EE
102
{ACAD_REACTORS
330
A9ED
102
}
330
A9ED
100
AcDbXrecord
280
     1
102
RTVSPropertyOp0
 70
     1
102
RTVSPropertyOp1
 70
     1
102
RTVSPropertyOp2
 70
     1
102
RTVSPropertyOp3
 70
     1
102
RTVSPropertyOp4
 70
     1
102
RTVSPropertyOp5
 70
     1
102
RTVSPropertyOp6
 70
     1
102
RTVSPropertyOp7
 70
     1
102
RTVSPropertyOp8
 70
     1
102
RTVSPropertyOp9
 70
     1
102
RTVSPropertyOp10
 70
     1
102
RTVSPropertyOp11
 70
     1
102
RTVSPropertyOp12
 70
     1
102
RTVSPropertyOp13
 70
     1
102
RTVSPropertyOp14
 70
     1
102
RTVSPropertyOp15
 70
     1
102
RTVSPropertyOp16
 70
     1
102
RTVSPropertyOp17
 70
     1
102
RTVSPropertyOp18
 70
     1
102
RTVSPropertyOp19
 70
     1
102
RTVSPropertyOp20
 70
     1
102
RTVSPropertyOp21
 70
     1
102
RTVSPropertyOp22
 70
     1
102
RTVSPropertyOp23
 70
     1
102
RTVSPropertyOp24
 70
     1
102
RTVSPropertyOp25
 70
     1
102
RTVSPropertyOp26
 70
     1
102
RTVSPropertyOp27
 70
     1
102
RTVSPropertyOp28
 70
     1
102
RTVSPropertyOp29
 70
     1
102
RTVSPropertyOp30
 70
     1
102
RTVSPropertyOp31
 70
     1
102
RTVSPropertyOp32
 70
     1
  0
XRECORD
  5
A9EC
102
{ACAD_REACTORS
330
A9EB
102
}
330
A9EB
100
AcDbXrecord
280
     1
102
RTVSPropertyOp0
 70
     1
102
RTVSPropertyOp1
 70
     1
102
RTVSPropertyOp2
 70
     1
102
RTVSPropertyOp3
 70
     1
102
RTVSPropertyOp4
 70
     1
102
RTVSPropertyOp5
 70
     1
102
RTVSPropertyOp6
 70
     1
102
RTVSPropertyOp7
 70
     1
102
RTVSPropertyOp8
 70
     1
102
RTVSPropertyOp9
 70
     1
102
RTVSPropertyOp10
 70
     1
102
RTVSPropertyOp11
 70
     1
102
RTVSPropertyOp12
 70
     1
102
RTVSPropertyOp13
 70
     1
102
RTVSPropertyOp14
 70
     1
102
RTVSPropertyOp15
 70
     1
102
RTVSPropertyOp16
 70
     1
102
RTVSPropertyOp17
 70
     1
102
RTVSPropertyOp18
 70
     1
102
RTVSPropertyOp19
 70
     1
102
RTVSPropertyOp20
 70
     1
102
RTVSPropertyOp21
 70
     1
102
RTVSPropertyOp22
 70
     1
102
RTVSPropertyOp23
 70
     1
102
RTVSPropertyOp24
 70
     1
102
RTVSPropertyOp25
 70
     1
102
RTVSPropertyOp26
 70
     1
102
RTVSPropertyOp27
 70
     1
102
RTVSPropertyOp28
 70
     1
102
RTVSPropertyOp29
 70
     1
102
RTVSPropertyOp30
 70
     1
102
RTVSPropertyOp31
 70
     1
102
RTVSPropertyOp32
 70
     1
  0
XRECORD
  5
A9FA
102
{ACAD_REACTORS
330
A9F9
102
}
330
A9F9
100
AcDbXrecord
280
     1
102
RTVSPropertyOp0
 70
     1
102
RTVSPropertyOp1
 70
     1
102
RTVSPropertyOp2
 70
     1
102
RTVSPropertyOp3
 70
     1
102
RTVSPropertyOp4
 70
     1
102
RTVSPropertyOp5
 70
     1
102
RTVSPropertyOp6
 70
     1
102
RTVSPropertyOp7
 70
     1
102
RTVSPropertyOp8
 70
     1
102
RTVSPropertyOp9
 70
     1
102
RTVSPropertyOp10
 70
     1
102
RTVSPropertyOp11
 70
     1
102
RTVSPropertyOp12
 70
     1
102
RTVSPropertyOp13
 70
     1
102
RTVSPropertyOp14
 70
     1
102
RTVSPropertyOp15
 70
     1
102
RTVSPropertyOp16
 70
     1
102
RTVSPropertyOp17
 70
     1
102
RTVSPropertyOp18
 70
     1
102
RTVSPropertyOp19
 70
     1
102
RTVSPropertyOp20
 70
     1
102
RTVSPropertyOp21
 70
     1
102
RTVSPropertyOp22
 70
     1
102
RTVSPropertyOp23
 70
     1
102
RTVSPropertyOp24
 70
     1
102
RTVSPropertyOp25
 70
     1
102
RTVSPropertyOp26
 70
     1
102
RTVSPropertyOp27
 70
     1
102
RTVSPropertyOp28
 70
     1
102
RTVSPropertyOp29
 70
     1
102
RTVSPropertyOp30
 70
     1
102
RTVSPropertyOp31
 70
     1
102
RTVSPropertyOp32
 70
     1
  0
XRECORD
  5
AA02
102
{ACAD_REACTORS
330
AA01
102
}
330
AA01
100
AcDbXrecord
280
     1
102
RTVSPropertyOp0
 70
     1
102
RTVSPropertyOp1
 70
     1
102
RTVSPropertyOp2
 70
     1
102
RTVSPropertyOp3
 70
     1
102
RTVSPropertyOp4
 70
     1
102
RTVSPropertyOp5
 70
     1
102
RTVSPropertyOp6
 70
     1
102
RTVSPropertyOp7
 70
     1
102
RTVSPropertyOp8
 70
     1
102
RTVSPropertyOp9
 70
     1
102
RTVSPropertyOp10
 70
     1
102
RTVSPropertyOp11
 70
     1
102
RTVSPropertyOp12
 70
     1
102
RTVSPropertyOp13
 70
     1
102
RTVSPropertyOp14
 70
     1
102
RTVSPropertyOp15
 70
     1
102
RTVSPropertyOp16
 70
     1
102
RTVSPropertyOp17
 70
     1
102
RTVSPropertyOp18
 70
     1
102
RTVSPropertyOp19
 70
     1
102
RTVSPropertyOp20
 70
     1
102
RTVSPropertyOp21
 70
     1
102
RTVSPropertyOp22
 70
     1
102
RTVSPropertyOp23
 70
     1
102
RTVSPropertyOp24
 70
     1
102
RTVSPropertyOp25
 70
     1
102
RTVSPropertyOp26
 70
     1
102
RTVSPropertyOp27
 70
     1
102
RTVSPropertyOp28
 70
     1
102
RTVSPropertyOp29
 70
     1
102
RTVSPropertyOp30
 70
     1
102
RTVSPropertyOp31
 70
     1
102
RTVSPropertyOp32
 70
     1
  0
XRECORD
  5
A9F4
102
{ACAD_REACTORS
330
A9F3
102
}
330
A9F3
100
AcDbXrecord
280
     1
102
RTVSPropertyOp0
 70
     1
102
RTVSPropertyOp1
 70
     1
102
RTVSPropertyOp2
 70
     1
102
RTVSPropertyOp3
 70
     1
102
RTVSPropertyOp4
 70
     1
102
RTVSPropertyOp5
 70
     1
102
RTVSPropertyOp6
 70
     1
102
RTVSPropertyOp7
 70
     1
102
RTVSPropertyOp8
 70
     1
102
RTVSPropertyOp9
 70
     1
102
RTVSPropertyOp10
 70
     1
102
RTVSPropertyOp11
 70
     1
102
RTVSPropertyOp12
 70
     1
102
RTVSPropertyOp13
 70
     1
102
RTVSPropertyOp14
 70
     1
102
RTVSPropertyOp15
 70
     1
102
RTVSPropertyOp16
 70
     1
102
RTVSPropertyOp17
 70
     1
102
RTVSPropertyOp18
 70
     1
102
RTVSPropertyOp19
 70
     1
102
RTVSPropertyOp20
 70
     1
102
RTVSPropertyOp21
 70
     1
102
RTVSPropertyOp22
 70
     1
102
RTVSPropertyOp23
 70
     1
102
RTVSPropertyOp24
 70
     1
102
RTVSPropertyOp25
 70
     1
102
RTVSPropertyOp26
 70
     1
102
RTVSPropertyOp27
 70
     1
102
RTVSPropertyOp28
 70
     1
102
RTVSPropertyOp29
 70
     1
102
RTVSPropertyOp30
 70
     1
102
RTVSPropertyOp31
 70
     1
102
RTVSPropertyOp32
 70
     1
  0
XRECORD
  5
A9F8
102
{ACAD_REACTORS
330
A9F7
102
}
330
A9F7
100
AcDbXrecord
280
     1
102
RTVSPropertyOp0
 70
     1
102
RTVSPropertyOp1
 70
     1
102
RTVSPropertyOp2
 70
     1
102
RTVSPropertyOp3
 70
     1
102
RTVSPropertyOp4
 70
     1
102
RTVSPropertyOp5
 70
     1
102
RTVSPropertyOp6
 70
     1
102
RTVSPropertyOp7
 70
     1
102
RTVSPropertyOp8
 70
     1
102
RTVSPropertyOp9
 70
     1
102
RTVSPropertyOp10
 70
     1
102
RTVSPropertyOp11
 70
     1
102
RTVSPropertyOp12
 70
     1
102
RTVSPropertyOp13
 70
     1
102
RTVSPropertyOp14
 70
     1
102
RTVSPropertyOp15
 70
     1
102
RTVSPropertyOp16
 70
     1
102
RTVSPropertyOp17
 70
     1
102
RTVSPropertyOp18
 70
     1
102
RTVSPropertyOp19
 70
     1
102
RTVSPropertyOp20
 70
     1
102
RTVSPropertyOp21
 70
     1
102
RTVSPropertyOp22
 70
     1
102
RTVSPropertyOp23
 70
     1
102
RTVSPropertyOp24
 70
     1
102
RTVSPropertyOp25
 70
     1
102
RTVSPropertyOp26
 70
     1
102
RTVSPropertyOp27
 70
     1
102
RTVSPropertyOp28
 70
     1
102
RTVSPropertyOp29
 70
     1
102
RTVSPropertyOp30
 70
     1
102
RTVSPropertyOp31
 70
     1
102
RTVSPropertyOp32
 70
     1
  0
XRECORD
  5
AA12
102
{ACAD_REACTORS
330
AA11
102
}
330
AA11
100
AcDbXrecord
280
     1
102
RTVSPropertyOp0
 70
     0
102
RTVSPropertyOp1
 70
     0
102
RTVSPropertyOp2
 70
     0
102
RTVSPropertyOp3
 70
     0
102
RTVSPropertyOp4
 70
     0
102
RTVSPropertyOp5
 70
     0
102
RTVSPropertyOp6
 70
     0
102
RTVSPropertyOp7
 70
     0
102
RTVSPropertyOp8
 70
     0
102
RTVSPropertyOp9
 70
     0
102
RTVSPropertyOp10
 70
     0
102
RTVSPropertyOp11
 70
     0
102
RTVSPropertyOp12
 70
     0
102
RTVSPropertyOp13
 70
     0
102
RTVSPropertyOp14
 70
     2
102
RTVSPropertyOp15
 70
     0
102
RTVSPropertyOp16
 70
     0
102
RTVSPropertyOp17
 70
     0
102
RTVSPropertyOp18
 70
     0
102
RTVSPropertyOp19
 70
     0
102
RTVSPropertyOp20
 70
     0
102
RTVSPropertyOp21
 70
     0
102
RTVSPropertyOp22
 70
     0
102
RTVSPropertyOp23
 70
     0
102
RTVSPropertyOp24
 70
     0
102
RTVSPropertyOp25
 70
     0
102
RTVSPropertyOp26
 70
     0
102
RTVSPropertyOp27
 70
     0
102
RTVSPropertyOp28
 70
     1
102
RTVSPropertyOp29
 70
     1
102
RTVSPropertyOp30
 70
     1
102
RTVSPropertyOp31
 70
     1
102
RTVSPropertyOp32
 70
     1
  0
XRECORD
  5
AA00
102
{ACAD_REACTORS
330
A9FF
102
}
330
A9FF
100
AcDbXrecord
280
     1
102
RTVSPropertyOp0
 70
     1
102
RTVSPropertyOp1
 70
     1
102
RTVSPropertyOp2
 70
     1
102
RTVSPropertyOp3
 70
     1
102
RTVSPropertyOp4
 70
     1
102
RTVSPropertyOp5
 70
     1
102
RTVSPropertyOp6
 70
     1
102
RTVSPropertyOp7
 70
     1
102
RTVSPropertyOp8
 70
     1
102
RTVSPropertyOp9
 70
     1
102
RTVSPropertyOp10
 70
     1
102
RTVSPropertyOp11
 70
     1
102
RTVSPropertyOp12
 70
     1
102
RTVSPropertyOp13
 70
     1
102
RTVSPropertyOp14
 70
     1
102
RTVSPropertyOp15
 70
     1
102
RTVSPropertyOp16
 70
     1
102
RTVSPropertyOp17
 70
     1
102
RTVSPropertyOp18
 70
     1
102
RTVSPropertyOp19
 70
     1
102
RTVSPropertyOp20
 70
     1
102
RTVSPropertyOp21
 70
     1
102
RTVSPropertyOp22
 70
     1
102
RTVSPropertyOp23
 70
     1
102
RTVSPropertyOp24
 70
     1
102
RTVSPropertyOp25
 70
     1
102
RTVSPropertyOp26
 70
     1
102
RTVSPropertyOp27
 70
     1
102
RTVSPropertyOp28
 70
     1
102
RTVSPropertyOp29
 70
     1
102
RTVSPropertyOp30
 70
     1
102
RTVSPropertyOp31
 70
     1
102
RTVSPropertyOp32
 70
     1
  0
XRECORD
  5
A9E4
102
{ACAD_REACTORS
330
A9E3
102
}
330
A9E3
100
AcDbXrecord
280
     1
102
RTVSPropertyOp0
 70
     1
102
RTVSPropertyOp1
 70
     1
102
RTVSPropertyOp2
 70
     1
102
RTVSPropertyOp3
 70
     1
102
RTVSPropertyOp4
 70
     1
102
RTVSPropertyOp5
 70
     1
102
RTVSPropertyOp6
 70
     1
102
RTVSPropertyOp7
 70
     1
102
RTVSPropertyOp8
 70
     1
102
RTVSPropertyOp9
 70
     1
102
RTVSPropertyOp10
 70
     1
102
RTVSPropertyOp11
 70
     1
102
RTVSPropertyOp12
 70
     1
102
RTVSPropertyOp13
 70
     1
102
RTVSPropertyOp14
 70
     1
102
RTVSPropertyOp15
 70
     1
102
RTVSPropertyOp16
 70
     1
102
RTVSPropertyOp17
 70
     1
102
RTVSPropertyOp18
 70
     1
102
RTVSPropertyOp19
 70
     1
102
RTVSPropertyOp20
 70
     1
102
RTVSPropertyOp21
 70
     1
102
RTVSPropertyOp22
 70
     1
102
RTVSPropertyOp23
 70
     1
102
RTVSPropertyOp24
 70
     1
102
RTVSPropertyOp25
 70
     1
102
RTVSPropertyOp26
 70
     1
102
RTVSPropertyOp27
 70
     1
102
RTVSPropertyOp28
 70
     1
102
RTVSPropertyOp29
 70
     1
102
RTVSPropertyOp30
 70
     1
102
RTVSPropertyOp31
 70
     1
102
RTVSPropertyOp32
 70
     1
  0
XRECORD
  5
A9E6
102
{ACAD_REACTORS
330
A9E5
102
}
330
A9E5
100
AcDbXrecord
280
     1
102
RTVSPropertyOp0
 70
     1
102
RTVSPropertyOp1
 70
     1
102
RTVSPropertyOp2
 70
     1
102
RTVSPropertyOp3
 70
     1
102
RTVSPropertyOp4
 70
     1
102
RTVSPropertyOp5
 70
     1
102
RTVSPropertyOp6
 70
     1
102
RTVSPropertyOp7
 70
     1
102
RTVSPropertyOp8
 70
     1
102
RTVSPropertyOp9
 70
     1
102
RTVSPropertyOp10
 70
     1
102
RTVSPropertyOp11
 70
     1
102
RTVSPropertyOp12
 70
     1
102
RTVSPropertyOp13
 70
     1
102
RTVSPropertyOp14
 70
     1
102
RTVSPropertyOp15
 70
     1
102
RTVSPropertyOp16
 70
     1
102
RTVSPropertyOp17
 70
     1
102
RTVSPropertyOp18
 70
     1
102
RTVSPropertyOp19
 70
     1
102
RTVSPropertyOp20
 70
     1
102
RTVSPropertyOp21
 70
     1
102
RTVSPropertyOp22
 70
     1
102
RTVSPropertyOp23
 70
     1
102
RTVSPropertyOp24
 70
     1
102
RTVSPropertyOp25
 70
     1
102
RTVSPropertyOp26
 70
     1
102
RTVSPropertyOp27
 70
     1
102
RTVSPropertyOp28
 70
     1
102
RTVSPropertyOp29
 70
     1
102
RTVSPropertyOp30
 70
     1
102
RTVSPropertyOp31
 70
     1
102
RTVSPropertyOp32
 70
     1
  0
XRECORD
  5
A9E8
102
{ACAD_REACTORS
330
A9E7
102
}
330
A9E7
100
AcDbXrecord
280
     1
102
RTVSPropertyOp0
 70
     1
102
RTVSPropertyOp1
 70
     1
102
RTVSPropertyOp2
 70
     1
102
RTVSPropertyOp3
 70
     1
102
RTVSPropertyOp4
 70
     1
102
RTVSPropertyOp5
 70
     1
102
RTVSPropertyOp6
 70
     1
102
RTVSPropertyOp7
 70
     1
102
RTVSPropertyOp8
 70
     1
102
RTVSPropertyOp9
 70
     1
102
RTVSPropertyOp10
 70
     1
102
RTVSPropertyOp11
 70
     1
102
RTVSPropertyOp12
 70
     1
102
RTVSPropertyOp13
 70
     1
102
RTVSPropertyOp14
 70
     1
102
RTVSPropertyOp15
 70
     1
102
RTVSPropertyOp16
 70
     1
102
RTVSPropertyOp17
 70
     1
102
RTVSPropertyOp18
 70
     1
102
RTVSPropertyOp19
 70
     1
102
RTVSPropertyOp20
 70
     1
102
RTVSPropertyOp21
 70
     1
102
RTVSPropertyOp22
 70
     1
102
RTVSPropertyOp23
 70
     1
102
RTVSPropertyOp24
 70
     1
102
RTVSPropertyOp25
 70
     1
102
RTVSPropertyOp26
 70
     1
102
RTVSPropertyOp27
 70
     1
102
RTVSPropertyOp28
 70
     1
102
RTVSPropertyOp29
 70
     1
102
RTVSPropertyOp30
 70
     1
102
RTVSPropertyOp31
 70
     1
102
RTVSPropertyOp32
 70
     1
  0
XRECORD
  5
A9EA
102
{ACAD_REACTORS
330
A9E9
102
}
330
A9E9
100
AcDbXrecord
280
     1
102
RTVSPropertyOp0
 70
     1
102
RTVSPropertyOp1
 70
     1
102
RTVSPropertyOp2
 70
     1
102
RTVSPropertyOp3
 70
     1
102
RTVSPropertyOp4
 70
     1
102
RTVSPropertyOp5
 70
     1
102
RTVSPropertyOp6
 70
     1
102
RTVSPropertyOp7
 70
     1
102
RTVSPropertyOp8
 70
     1
102
RTVSPropertyOp9
 70
     1
102
RTVSPropertyOp10
 70
     1
102
RTVSPropertyOp11
 70
     1
102
RTVSPropertyOp12
 70
     1
102
RTVSPropertyOp13
 70
     1
102
RTVSPropertyOp14
 70
     1
102
RTVSPropertyOp15
 70
     1
102
RTVSPropertyOp16
 70
     1
102
RTVSPropertyOp17
 70
     1
102
RTVSPropertyOp18
 70
     1
102
RTVSPropertyOp19
 70
     1
102
RTVSPropertyOp20
 70
     1
102
RTVSPropertyOp21
 70
     1
102
RTVSPropertyOp22
 70
     1
102
RTVSPropertyOp23
 70
     1
102
RTVSPropertyOp24
 70
     1
102
RTVSPropertyOp25
 70
     1
102
RTVSPropertyOp26
 70
     1
102
RTVSPropertyOp27
 70
     1
102
RTVSPropertyOp28
 70
     1
102
RTVSPropertyOp29
 70
     1
102
RTVSPropertyOp30
 70
     1
102
RTVSPropertyOp31
 70
     1
102
RTVSPropertyOp32
 70
     1
  0
XRECORD
  5
A9F2
102
{ACAD_REACTORS
330
A9F1
102
}
330
A9F1
100
AcDbXrecord
280
     1
102
RTVSPropertyOp0
 70
     1
102
RTVSPropertyOp1
 70
     1
102
RTVSPropertyOp2
 70
     1
102
RTVSPropertyOp3
 70
     1
102
RTVSPropertyOp4
 70
     1
102
RTVSPropertyOp5
 70
     1
102
RTVSPropertyOp6
 70
     1
102
RTVSPropertyOp7
 70
     1
102
RTVSPropertyOp8
 70
     1
102
RTVSPropertyOp9
 70
     1
102
RTVSPropertyOp10
 70
     1
102
RTVSPropertyOp11
 70
     1
102
RTVSPropertyOp12
 70
     1
102
RTVSPropertyOp13
 70
     1
102
RTVSPropertyOp14
 70
     1
102
RTVSPropertyOp15
 70
     1
102
RTVSPropertyOp16
 70
     1
102
RTVSPropertyOp17
 70
     1
102
RTVSPropertyOp18
 70
     1
102
RTVSPropertyOp19
 70
     1
102
RTVSPropertyOp20
 70
     1
102
RTVSPropertyOp21
 70
     1
102
RTVSPropertyOp22
 70
     1
102
RTVSPropertyOp23
 70
     1
102
RTVSPropertyOp24
 70
     1
102
RTVSPropertyOp25
 70
     1
102
RTVSPropertyOp26
 70
     1
102
RTVSPropertyOp27
 70
     1
102
RTVSPropertyOp28
 70
     1
102
RTVSPropertyOp29
 70
     1
102
RTVSPropertyOp30
 70
     1
102
RTVSPropertyOp31
 70
     1
102
RTVSPropertyOp32
 70
     1
  0
XRECORD
  5
AA0E
102
{ACAD_REACTORS
330
AA0D
102
}
330
AA0D
100
AcDbXrecord
280
     1
102
RTVSPropertyOp0
 70
     0
102
RTVSPropertyOp1
 70
     0
102
RTVSPropertyOp2
 70
     0
102
RTVSPropertyOp3
 70
     0
102
RTVSPropertyOp4
 70
     0
102
RTVSPropertyOp5
 70
     0
102
RTVSPropertyOp6
 70
     0
102
RTVSPropertyOp7
 70
     0
102
RTVSPropertyOp8
 70
     0
102
RTVSPropertyOp9
 70
     0
102
RTVSPropertyOp10
 70
     0
102
RTVSPropertyOp11
 70
     0
102
RTVSPropertyOp12
 70
     0
102
RTVSPropertyOp13
 70
     0
102
RTVSPropertyOp14
 70
     2
102
RTVSPropertyOp15
 70
     0
102
RTVSPropertyOp16
 70
     0
102
RTVSPropertyOp17
 70
     0
102
RTVSPropertyOp18
 70
     0
102
RTVSPropertyOp19
 70
     0
102
RTVSPropertyOp20
 70
     0
102
RTVSPropertyOp21
 70
     0
102
RTVSPropertyOp22
 70
     0
102
RTVSPropertyOp23
 70
     0
102
RTVSPropertyOp24
 70
     0
102
RTVSPropertyOp25
 70
     0
102
RTVSPropertyOp26
 70
     0
102
RTVSPropertyOp27
 70
     0
102
RTVSPropertyOp28
 70
     1
102
RTVSPropertyOp29
 70
     1
102
RTVSPropertyOp30
 70
     1
102
RTVSPropertyOp31
 70
     1
102
RTVSPropertyOp32
 70
     1
  0
XRECORD
  5
A9FE
102
{ACAD_REACTORS
330
A9FD
102
}
330
A9FD
100
AcDbXrecord
280
     1
102
RTVSPropertyOp0
 70
     1
102
RTVSPropertyOp1
 70
     1
102
RTVSPropertyOp2
 70
     1
102
RTVSPropertyOp3
 70
     1
102
RTVSPropertyOp4
 70
     1
102
RTVSPropertyOp5
 70
     1
102
RTVSPropertyOp6
 70
     1
102
RTVSPropertyOp7
 70
     1
102
RTVSPropertyOp8
 70
     1
102
RTVSPropertyOp9
 70
     1
102
RTVSPropertyOp10
 70
     1
102
RTVSPropertyOp11
 70
     1
102
RTVSPropertyOp12
 70
     1
102
RTVSPropertyOp13
 70
     1
102
RTVSPropertyOp14
 70
     1
102
RTVSPropertyOp15
 70
     1
102
RTVSPropertyOp16
 70
     1
102
RTVSPropertyOp17
 70
     1
102
RTVSPropertyOp18
 70
     1
102
RTVSPropertyOp19
 70
     1
102
RTVSPropertyOp20
 70
     1
102
RTVSPropertyOp21
 70
     1
102
RTVSPropertyOp22
 70
     1
102
RTVSPropertyOp23
 70
     1
102
RTVSPropertyOp24
 70
     1
102
RTVSPropertyOp25
 70
     1
102
RTVSPropertyOp26
 70
     1
102
RTVSPropertyOp27
 70
     1
102
RTVSPropertyOp28
 70
     1
102
RTVSPropertyOp29
 70
     1
102
RTVSPropertyOp30
 70
     1
102
RTVSPropertyOp31
 70
     1
102
RTVSPropertyOp32
 70
     1
  0
XRECORD
  5
AA10
102
{ACAD_REACTORS
330
AA0F
102
}
330
AA0F
100
AcDbXrecord
280
     1
102
RTVSPropertyOp0
 70
     0
102
RTVSPropertyOp1
 70
     0
102
RTVSPropertyOp2
 70
     0
102
RTVSPropertyOp3
 70
     0
102
RTVSPropertyOp4
 70
     0
102
RTVSPropertyOp5
 70
     0
102
RTVSPropertyOp6
 70
     0
102
RTVSPropertyOp7
 70
     0
102
RTVSPropertyOp8
 70
     0
102
RTVSPropertyOp9
 70
     0
102
RTVSPropertyOp10
 70
     0
102
RTVSPropertyOp11
 70
     0
102
RTVSPropertyOp12
 70
     0
102
RTVSPropertyOp13
 70
     0
102
RTVSPropertyOp14
 70
     2
102
RTVSPropertyOp15
 70
     0
102
RTVSPropertyOp16
 70
     0
102
RTVSPropertyOp17
 70
     0
102
RTVSPropertyOp18
 70
     0
102
RTVSPropertyOp19
 70
     0
102
RTVSPropertyOp20
 70
     0
102
RTVSPropertyOp21
 70
     0
102
RTVSPropertyOp22
 70
     0
102
RTVSPropertyOp23
 70
     0
102
RTVSPropertyOp24
 70
     0
102
RTVSPropertyOp25
 70
     0
102
RTVSPropertyOp26
 70
     0
102
RTVSPropertyOp27
 70
     0
102
RTVSPropertyOp28
 70
     1
102
RTVSPropertyOp29
 70
     1
102
RTVSPropertyOp30
 70
     1
102
RTVSPropertyOp31
 70
     1
102
RTVSPropertyOp32
 70
     1
  0
XRECORD
  5
A9F6
102
{ACAD_REACTORS
330
A9F5
102
}
330
A9F5
100
AcDbXrecord
280
     1
102
RTVSPropertyOp0
 70
     1
102
RTVSPropertyOp1
 70
     1
102
RTVSPropertyOp2
 70
     1
102
RTVSPropertyOp3
 70
     1
102
RTVSPropertyOp4
 70
     1
102
RTVSPropertyOp5
 70
     1
102
RTVSPropertyOp6
 70
     1
102
RTVSPropertyOp7
 70
     1
102
RTVSPropertyOp8
 70
     1
102
RTVSPropertyOp9
 70
     1
102
RTVSPropertyOp10
 70
     1
102
RTVSPropertyOp11
 70
     1
102
RTVSPropertyOp12
 70
     1
102
RTVSPropertyOp13
 70
     1
102
RTVSPropertyOp14
 70
     1
102
RTVSPropertyOp15
 70
     1
102
RTVSPropertyOp16
 70
     1
102
RTVSPropertyOp17
 70
     1
102
RTVSPropertyOp18
 70
     1
102
RTVSPropertyOp19
 70
     1
102
RTVSPropertyOp20
 70
     1
102
RTVSPropertyOp21
 70
     1
102
RTVSPropertyOp22
 70
     1
102
RTVSPropertyOp23
 70
     1
102
RTVSPropertyOp24
 70
     1
102
RTVSPropertyOp25
 70
     1
102
RTVSPropertyOp26
 70
     1
102
RTVSPropertyOp27
 70
     1
102
RTVSPropertyOp28
 70
     1
102
RTVSPropertyOp29
 70
     1
102
RTVSPropertyOp30
 70
     1
102
RTVSPropertyOp31
 70
     1
102
RTVSPropertyOp32
 70
     1
  0
XRECORD
  5
AA0C
102
{ACAD_REACTORS
330
AA0B
102
}
330
AA0B
100
AcDbXrecord
280
     1
102
RTVSPropertyOp0
 70
     1
102
RTVSPropertyOp1
 70
     1
102
RTVSPropertyOp2
 70
     1
102
RTVSPropertyOp3
 70
     1
102
RTVSPropertyOp4
 70
     1
102
RTVSPropertyOp5
 70
     1
102
RTVSPropertyOp6
 70
     1
102
RTVSPropertyOp7
 70
     1
102
RTVSPropertyOp8
 70
     1
102
RTVSPropertyOp9
 70
     1
102
RTVSPropertyOp10
 70
     1
102
RTVSPropertyOp11
 70
     1
102
RTVSPropertyOp12
 70
     1
102
RTVSPropertyOp13
 70
     1
102
RTVSPropertyOp14
 70
     1
102
RTVSPropertyOp15
 70
     1
102
RTVSPropertyOp16
 70
     1
102
RTVSPropertyOp17
 70
     1
102
RTVSPropertyOp18
 70
     1
102
RTVSPropertyOp19
 70
     1
102
RTVSPropertyOp20
 70
     1
102
RTVSPropertyOp21
 70
     1
102
RTVSPropertyOp22
 70
     1
102
RTVSPropertyOp23
 70
     1
102
RTVSPropertyOp24
 70
     1
102
RTVSPropertyOp25
 70
     1
102
RTVSPropertyOp26
 70
     1
102
RTVSPropertyOp27
 70
     1
102
RTVSPropertyOp28
 70
     1
102
RTVSPropertyOp29
 70
     1
102
RTVSPropertyOp30
 70
     1
102
RTVSPropertyOp31
 70
     1
102
RTVSPropertyOp32
 70
     1
  0
XRECORD
  5
AA0A
102
{ACAD_REACTORS
330
AA09
102
}
330
AA09
100
AcDbXrecord
280
     1
102
RTVSPropertyOp0
 70
     1
102
RTVSPropertyOp1
 70
     1
102
RTVSPropertyOp2
 70
     1
102
RTVSPropertyOp3
 70
     1
102
RTVSPropertyOp4
 70
     1
102
RTVSPropertyOp5
 70
     1
102
RTVSPropertyOp6
 70
     1
102
RTVSPropertyOp7
 70
     1
102
RTVSPropertyOp8
 70
     1
102
RTVSPropertyOp9
 70
     1
102
RTVSPropertyOp10
 70
     1
102
RTVSPropertyOp11
 70
     1
102
RTVSPropertyOp12
 70
     1
102
RTVSPropertyOp13
 70
     1
102
RTVSPropertyOp14
 70
     1
102
RTVSPropertyOp15
 70
     1
102
RTVSPropertyOp16
 70
     1
102
RTVSPropertyOp17
 70
     1
102
RTVSPropertyOp18
 70
     1
102
RTVSPropertyOp19
 70
     1
102
RTVSPropertyOp20
 70
     1
102
RTVSPropertyOp21
 70
     1
102
RTVSPropertyOp22
 70
     1
102
RTVSPropertyOp23
 70
     1
102
RTVSPropertyOp24
 70
     1
102
RTVSPropertyOp25
 70
     1
102
RTVSPropertyOp26
 70
     1
102
RTVSPropertyOp27
 70
     1
102
RTVSPropertyOp28
 70
     1
102
RTVSPropertyOp29
 70
     1
102
RTVSPropertyOp30
 70
     1
102
RTVSPropertyOp31
 70
     1
102
RTVSPropertyOp32
 70
     1
  0
XRECORD
  5
AA04
102
{ACAD_REACTORS
330
AA03
102
}
330
AA03
100
AcDbXrecord
280
     1
102
RTVSPropertyOp0
 70
     1
102
RTVSPropertyOp1
 70
     1
102
RTVSPropertyOp2
 70
     1
102
RTVSPropertyOp3
 70
     1
102
RTVSPropertyOp4
 70
     1
102
RTVSPropertyOp5
 70
     1
102
RTVSPropertyOp6
 70
     1
102
RTVSPropertyOp7
 70
     1
102
RTVSPropertyOp8
 70
     1
102
RTVSPropertyOp9
 70
     1
102
RTVSPropertyOp10
 70
     1
102
RTVSPropertyOp11
 70
     1
102
RTVSPropertyOp12
 70
     1
102
RTVSPropertyOp13
 70
     1
102
RTVSPropertyOp14
 70
     1
102
RTVSPropertyOp15
 70
     1
102
RTVSPropertyOp16
 70
     1
102
RTVSPropertyOp17
 70
     1
102
RTVSPropertyOp18
 70
     1
102
RTVSPropertyOp19
 70
     1
102
RTVSPropertyOp20
 70
     1
102
RTVSPropertyOp21
 70
     1
102
RTVSPropertyOp22
 70
     1
102
RTVSPropertyOp23
 70
     1
102
RTVSPropertyOp24
 70
     1
102
RTVSPropertyOp25
 70
     1
102
RTVSPropertyOp26
 70
     1
102
RTVSPropertyOp27
 70
     1
102
RTVSPropertyOp28
 70
     1
102
RTVSPropertyOp29
 70
     1
102
RTVSPropertyOp30
 70
     1
102
RTVSPropertyOp31
 70
     1
102
RTVSPropertyOp32
 70
     1
  0
XRECORD
  5
AA06
102
{ACAD_REACTORS
330
AA05
102
}
330
AA05
100
AcDbXrecord
280
     1
102
RTVSPropertyOp0
 70
     1
102
RTVSPropertyOp1
 70
     1
102
RTVSPropertyOp2
 70
     1
102
RTVSPropertyOp3
 70
     1
102
RTVSPropertyOp4
 70
     1
102
RTVSPropertyOp5
 70
     1
102
RTVSPropertyOp6
 70
     1
102
RTVSPropertyOp7
 70
     1
102
RTVSPropertyOp8
 70
     1
102
RTVSPropertyOp9
 70
     1
102
RTVSPropertyOp10
 70
     1
102
RTVSPropertyOp11
 70
     1
102
RTVSPropertyOp12
 70
     1
102
RTVSPropertyOp13
 70
     1
102
RTVSPropertyOp14
 70
     1
102
RTVSPropertyOp15
 70
     1
102
RTVSPropertyOp16
 70
     1
102
RTVSPropertyOp17
 70
     1
102
RTVSPropertyOp18
 70
     1
102
RTVSPropertyOp19
 70
     1
102
RTVSPropertyOp20
 70
     1
102
RTVSPropertyOp21
 70
     1
102
RTVSPropertyOp22
 70
     1
102
RTVSPropertyOp23
 70
     1
102
RTVSPropertyOp24
 70
     1
102
RTVSPropertyOp25
 70
     1
102
RTVSPropertyOp26
 70
     1
102
RTVSPropertyOp27
 70
     1
102
RTVSPropertyOp28
 70
     1
102
RTVSPropertyOp29
 70
     1
102
RTVSPropertyOp30
 70
     1
102
RTVSPropertyOp31
 70
     1
102
RTVSPropertyOp32
 70
     1
  0
XRECORD
  5
A9FC
102
{ACAD_REACTORS
330
A9FB
102
}
330
A9FB
100
AcDbXrecord
280
     1
102
RTVSPropertyOp0
 70
     1
102
RTVSPropertyOp1
 70
     1
102
RTVSPropertyOp2
 70
     1
102
RTVSPropertyOp3
 70
     1
102
RTVSPropertyOp4
 70
     1
102
RTVSPropertyOp5
 70
     1
102
RTVSPropertyOp6
 70
     1
102
RTVSPropertyOp7
 70
     1
102
RTVSPropertyOp8
 70
     1
102
RTVSPropertyOp9
 70
     1
102
RTVSPropertyOp10
 70
     1
102
RTVSPropertyOp11
 70
     1
102
RTVSPropertyOp12
 70
     1
102
RTVSPropertyOp13
 70
     1
102
RTVSPropertyOp14
 70
     1
102
RTVSPropertyOp15
 70
     1
102
RTVSPropertyOp16
 70
     1
102
RTVSPropertyOp17
 70
     1
102
RTVSPropertyOp18
 70
     1
102
RTVSPropertyOp19
 70
     1
102
RTVSPropertyOp20
 70
     1
102
RTVSPropertyOp21
 70
     1
102
RTVSPropertyOp22
 70
     1
102
RTVSPropertyOp23
 70
     1
102
RTVSPropertyOp24
 70
     1
102
RTVSPropertyOp25
 70
     1
102
RTVSPropertyOp26
 70
     1
102
RTVSPropertyOp27
 70
     1
102
RTVSPropertyOp28
 70
     1
102
RTVSPropertyOp29
 70
     1
102
RTVSPropertyOp30
 70
     1
102
RTVSPropertyOp31
 70
     1
102
RTVSPropertyOp32
 70
     1
  0
XRECORD
  5
A9F0
102
{ACAD_REACTORS
330
A9EF
102
}
330
A9EF
100
AcDbXrecord
280
     1
102
RTVSPropertyOp0
 70
     1
102
RTVSPropertyOp1
 70
     1
102
RTVSPropertyOp2
 70
     1
102
RTVSPropertyOp3
 70
     1
102
RTVSPropertyOp4
 70
     1
102
RTVSPropertyOp5
 70
     1
102
RTVSPropertyOp6
 70
     1
102
RTVSPropertyOp7
 70
     1
102
RTVSPropertyOp8
 70
     1
102
RTVSPropertyOp9
 70
     1
102
RTVSPropertyOp10
 70
     1
102
RTVSPropertyOp11
 70
     1
102
RTVSPropertyOp12
 70
     1
102
RTVSPropertyOp13
 70
     1
102
RTVSPropertyOp14
 70
     1
102
RTVSPropertyOp15
 70
     1
102
RTVSPropertyOp16
 70
     1
102
RTVSPropertyOp17
 70
     1
102
RTVSPropertyOp18
 70
     1
102
RTVSPropertyOp19
 70
     1
102
RTVSPropertyOp20
 70
     1
102
RTVSPropertyOp21
 70
     1
102
RTVSPropertyOp22
 70
     1
102
RTVSPropertyOp23
 70
     1
102
RTVSPropertyOp24
 70
     1
102
RTVSPropertyOp25
 70
     1
102
RTVSPropertyOp26
 70
     1
102
RTVSPropertyOp27
 70
     1
102
RTVSPropertyOp28
 70
     1
102
RTVSPropertyOp29
 70
     1
102
RTVSPropertyOp30
 70
     1
102
RTVSPropertyOp31
 70
     1
102
RTVSPropertyOp32
 70
     1
  0
XRECORD
  5
AA08
102
{ACAD_REACTORS
330
AA07
102
}
330
AA07
100
AcDbXrecord
280
     1
102
RTVSPropertyOp0
 70
     1
102
RTVSPropertyOp1
 70
     1
102
RTVSPropertyOp2
 70
     1
102
RTVSPropertyOp3
 70
     1
102
RTVSPropertyOp4
 70
     1
102
RTVSPropertyOp5
 70
     1
102
RTVSPropertyOp6
 70
     1
102
RTVSPropertyOp7
 70
     1
102
RTVSPropertyOp8
 70
     1
102
RTVSPropertyOp9
 70
     1
102
RTVSPropertyOp10
 70
     1
102
RTVSPropertyOp11
 70
     1
102
RTVSPropertyOp12
 70
     1
102
RTVSPropertyOp13
 70
     1
102
RTVSPropertyOp14
 70
     1
102
RTVSPropertyOp15
 70
     1
102
RTVSPropertyOp16
 70
     1
102
RTVSPropertyOp17
 70
     1
102
RTVSPropertyOp18
 70
     1
102
RTVSPropertyOp19
 70
     1
102
RTVSPropertyOp20
 70
     1
102
RTVSPropertyOp21
 70
     1
102
RTVSPropertyOp22
 70
     1
102
RTVSPropertyOp23
 70
     1
102
RTVSPropertyOp24
 70
     1
102
RTVSPropertyOp25
 70
     1
102
RTVSPropertyOp26
 70
     1
102
RTVSPropertyOp27
 70
     1
102
RTVSPropertyOp28
 70
     1
102
RTVSPropertyOp29
 70
     1
102
RTVSPropertyOp30
 70
     1
102
RTVSPropertyOp31
 70
     1
102
RTVSPropertyOp32
 70
     1
  0
ENDSEC
  0
EOF
