  0
SECTION
  2
HEADER
  9
$ACADVER
  1
AC1018
  9
$ACADMAINTVER
 70
   104
  9
$DWGCODEPAGE
  3
ANSI_932
  9
$LASTSAVEDBY
  1
HON1000CV
  9
$INSBASE
 10
0.0
 20
0.0
 30
0.0
  9
$EXTMIN
 10
1940.716530058805
 20
-524.579541144586
 30
0.0
  9
$EXTMAX
 10
2640.200923058808
 20
-209.4987213372257
 30
0.0
  9
$LIMMIN
 10
0.0
 20
0.0
  9
$LIMMAX
 10
420.0
 20
297.0
  9
$ORTHOMODE
 70
     0
  9
$REGENMODE
 70
     1
  9
$FILLMODE
 70
     1
  9
$QTEXTMODE
 70
     0
  9
$MIRRTEXT
 70
     1
  9
$LTSCALE
 40
3.0
  9
$ATTMODE
 70
     1
  9
$TEXTSIZE
 40
5.0
  9
$TRACEWID
 40
0.05
  9
$TEXTSTYLE
  7
ACAD
  9
$CLAYER
  8
0
  9
$CELTYPE
  6
CONTINUOUS
  9
$CECOLOR
 62
   256
  9
$CELTSCALE
 40
1.0
  9
$DISPSILH
 70
     0
  9
$DIMSCALE
 40
1.0
  9
$DIMASZ
 40
5.0
  9
$DIMEXO
 40
0.0
  9
$DIMDLI
 40
0.38
  9
$DIMRND
 40
0.0
  9
$DIMDLE
 40
0.0
  9
$DIMEXE
 40
0.0
  9
$DIMTP
 40
0.0
  9
$DIMTM
 40
0.0
  9
$DIMTXT
 40
6.5
  9
$DIMCEN
 40
0.09
  9
$DIMTSZ
 40
0.0
  9
$DIMTOL
 70
     0
  9
$DIMLIM
 70
     0
  9
$DIMTIH
 70
     0
  9
$DIMTOH
 70
     1
  9
$DIMSE1
 70
     0
  9
$DIMSE2
 70
     0
  9
$DIMTAD
 70
     1
  9
$DIMZIN
 70
     0
  9
$DIMBLK
  1
Small
  9
$DIMASO
 70
     1
  9
$DIMSHO
 70
     1
  9
$DIMPOST
  1

  9
$DIMAPOST
  1

  9
$DIMALT
 70
     0
  9
$DIMALTD
 70
     2
  9
$DIMALTF
 40
25.4
  9
$DIMLFAC
 40
1.0
  9
$DIMTOFL
 70
     0
  9
$DIMTVP
 40
0.0
  9
$DIMTIX
 70
     1
  9
$DIMSOXD
 70
     0
  9
$DIMSAH
 70
     0
  9
$DIMBLK1
  1

  9
$DIMBLK2
  1

  9
$DIMSTYLE
  2
AutoCAD
  9
$DIMCLRD
 70
     4
  9
$DIMCLRE
 70
     4
  9
$DIMCLRT
 70
     3
  9
$DIMTFAC
 40
1.0
  9
$DIMGAP
 40
3.0
  9
$DIMJUST
 70
     0
  9
$DIMSD1
 70
     0
  9
$DIMSD2
 70
     0
  9
$DIMTOLJ
 70
     1
  9
$DIMTZIN
 70
     0
  9
$DIMALTZ
 70
     0
  9
$DIMALTTZ
 70
     0
  9
$DIMUPT
 70
     0
  9
$DIMDEC
 70
     0
  9
$DIMTDEC
 70
     0
  9
$DIMALTU
 70
     2
  9
$DIMALTTD
 70
     2
  9
$DIMTXSTY
  7
ACAD
  9
$DIMAUNIT
 70
     0
  9
$DIMADEC
 70
     0
  9
$DIMALTRND
 40
0.0
  9
$DIMAZIN
 70
     0
  9
$DIMDSEP
 70
    46
  9
$DIMATFIT
 70
     0
  9
$DIMFRAC
 70
     0
  9
$DIMLDRBLK
  1
None
  9
$DIMLUNIT
 70
     2
  9
$DIMLWD
 70
    -2
  9
$DIMLWE
 70
    -2
  9
$DIMTMOVE
 70
     0
  9
$LUNITS
 70
     2
  9
$LUPREC
 70
     4
  9
$SKETCHINC
 40
0.1
  9
$FILLETRAD
 40
0.0
  9
$AUNITS
 70
     0
  9
$AUPREC
 70
     0
  9
$MENU
  1
.
  9
$ELEVATION
 40
0.0
  9
$PELEVATION
 40
0.0
  9
$THICKNESS
 40
0.0
  9
$LIMCHECK
 70
     0
  9
$CHAMFERA
 40
0.0
  9
$CHAMFERB
 40
0.0
  9
$CHAMFERC
 40
0.0
  9
$CHAMFERD
 40
0.0
  9
$SKPOLY
 70
     0
  9
$TDCREATE
 40
2454316.693457674
  9
$TDUCREATE
 40
2454316.318457674
  9
$TDUPDATE
 40
2455961.433894144
  9
$TDUUPDATE
 40
2455961.058894144
  9
$TDINDWG
 40
0.8017210880
  9
$TDUSRTIMER
 40
0.8017210880
  9
$USRTIMER
 70
     1
  9
$ANGBASE
 50
0.0
  9
$ANGDIR
 70
     0
  9
$PDMODE
 70
     0
  9
$PDSIZE
 40
0.0
  9
$PLINEWID
 40
0.0
  9
$SPLFRAME
 70
     0
  9
$SPLINETYPE
 70
     6
  9
$SPLINESEGS
 70
     8
  9
$HANDSEED
  5
A941
  9
$SURFTAB1
 70
     6
  9
$SURFTAB2
 70
     6
  9
$SURFTYPE
 70
     6
  9
$SURFU
 70
     6
  9
$SURFV
 70
     6
  9
$UCSBASE
  2

  9
$UCSNAME
  2

  9
$UCSORG
 10
0.0
 20
0.0
 30
0.0
  9
$UCSXDIR
 10
1.0
 20
0.0
 30
0.0
  9
$UCSYDIR
 10
0.0
 20
1.0
 30
0.0
  9
$UCSORTHOREF
  2

  9
$UCSORTHOVIEW
 70
     0
  9
$UCSORGTOP
 10
0.0
 20
0.0
 30
0.0
  9
$UCSORGBOTTOM
 10
0.0
 20
0.0
 30
0.0
  9
$UCSORGLEFT
 10
0.0
 20
0.0
 30
0.0
  9
$UCSORGRIGHT
 10
0.0
 20
0.0
 30
0.0
  9
$UCSORGFRONT
 10
0.0
 20
0.0
 30
0.0
  9
$UCSORGBACK
 10
0.0
 20
0.0
 30
0.0
  9
$PUCSBASE
  2

  9
$PUCSNAME
  2

  9
$PUCSORG
 10
0.0
 20
0.0
 30
0.0
  9
$PUCSXDIR
 10
1.0
 20
0.0
 30
0.0
  9
$PUCSYDIR
 10
0.0
 20
1.0
 30
0.0
  9
$PUCSORTHOREF
  2

  9
$PUCSORTHOVIEW
 70
     0
  9
$PUCSORGTOP
 10
0.0
 20
0.0
 30
0.0
  9
$PUCSORGBOTTOM
 10
0.0
 20
0.0
 30
0.0
  9
$PUCSORGLEFT
 10
0.0
 20
0.0
 30
0.0
  9
$PUCSORGRIGHT
 10
0.0
 20
0.0
 30
0.0
  9
$PUCSORGFRONT
 10
0.0
 20
0.0
 30
0.0
  9
$PUCSORGBACK
 10
0.0
 20
0.0
 30
0.0
  9
$USERI1
 70
     0
  9
$USERI2
 70
     0
  9
$USERI3
 70
     0
  9
$USERI4
 70
     0
  9
$USERI5
 70
     0
  9
$USERR1
 40
0.0
  9
$USERR2
 40
0.0
  9
$USERR3
 40
0.0
  9
$USERR4
 40
0.0
  9
$USERR5
 40
0.0
  9
$WORLDVIEW
 70
     1
  9
$SHADEDGE
 70
     3
  9
$SHADEDIF
 70
    70
  9
$TILEMODE
 70
     1
  9
$MAXACTVP
 70
    48
  9
$PINSBASE
 10
0.0
 20
0.0
 30
0.0
  9
$PLIMCHECK
 70
     0
  9
$PEXTMIN
 10
1.000000000000000E+20
 20
1.000000000000000E+20
 30
1.000000000000000E+20
  9
$PEXTMAX
 10
-1.000000000000000E+20
 20
-1.000000000000000E+20
 30
-1.000000000000000E+20
  9
$PLIMMIN
 10
0.0
 20
0.0
  9
$PLIMMAX
 10
12.0
 20
9.0
  9
$UNITMODE
 70
     0
  9
$VISRETAIN
 70
     0
  9
$PLINEGEN
 70
     0
  9
$PSLTSCALE
 70
     1
  9
$TREEDEPTH
 70
  3020
  9
$CMLSTYLE
  2
Standard
  9
$CMLJUST
 70
     0
  9
$CMLSCALE
 40
1.0
  9
$PROXYGRAPHICS
 70
     1
  9
$MEASUREMENT
 70
     0
  9
$CELWEIGHT
370
    -1
  9
$ENDCAPS
280
     0
  9
$JOINSTYLE
280
     0
  9
$LWDISPLAY
290
     0
  9
$INSUNITS
 70
     0
  9
$HYPERLINKBASE
  1

  9
$STYLESHEET
  1
monochrome.ctb
  9
$XEDIT
290
     1
  9
$CEPSNTYPE
380
     0
  9
$PSTYLEMODE
290
     1
  9
$FINGERPRINTGUID
  2
{CC7D6DEE-A9F1-4F3E-AC95-C84B62CCA3FD}
  9
$VERSIONGUID
  2
{E4618FBE-A461-46D5-A294-D57D7008798A}
  9
$EXTNAMES
290
     1
  9
$PSVPSCALE
 40
0.0
  9
$OLESTARTUP
290
     0
  9
$SORTENTS
280
   127
  9
$INDEXCTL
280
     0
  9
$HIDETEXT
280
     0
  9
$XCLIPFRAME
290
     0
  9
$HALOGAP
280
     0
  9
$OBSCOLOR
 70
   257
  9
$OBSLTYPE
280
     0
  9
$INTERSECTIONDISPLAY
280
     0
  9
$INTERSECTIONCOLOR
 70
   257
  9
$DIMASSOC
280
     1
  9
$PROJECTNAME
  1

  0
ENDSEC
  0
SECTION
  2
CLASSES
  0
CLASS
  1
ACDBDICTIONARYWDFLT
  2
AcDbDictionaryWithDefault
  3
ObjectDBX Classes
 90
        0
 91
        1
280
     0
281
     0
  0
CLASS
  1
DICTIONARYVAR
  2
AcDbDictionaryVar
  3
ObjectDBX Classes
 90
        0
 91
       10
280
     0
281
     0
  0
CLASS
  1
MATERIAL
  2
AcDbMaterial
  3
ObjectDBX Classes
 90
     1153
 91
        3
280
     0
281
     0
  0
CLASS
  1
VISUALSTYLE
  2
AcDbVisualStyle
  3
ObjectDBX Classes
 90
     4095
 91
       24
280
     0
281
     0
  0
CLASS
  1
TABLESTYLE
  2
AcDbTableStyle
  3
ObjectDBX Classes
 90
     4095
 91
        1
280
     0
281
     0
  0
CLASS
  1
SCALE
  2
AcDbScale
  3
ObjectDBX Classes
 90
     1153
 91
       17
280
     0
281
     0
  0
CLASS
  1
MLEADERSTYLE
  2
AcDbMLeaderStyle
  3
ACDB_MLEADERSTYLE_CLASS
 90
     4095
 91
        1
280
     0
281
     0
  0
CLASS
  1
SORTENTSTABLE
  2
AcDbSortentsTable
  3
ObjectDBX Classes
 90
        0
 91
        1
280
     0
281
     0
  0
CLASS
  1
CELLSTYLEMAP
  2
AcDbCellStyleMap
  3
ObjectDBX Classes
 90
     1152
 91
        2
280
     0
281
     0
  0
ENDSEC
  0
SECTION
  2
TABLES
  0
TABLE
  2
VPORT
  5
8
102
{ACAD_XDICTIONARY
360
A2D3
102
}
330
0
100
AcDbSymbolTable
 70
     1
  0
VPORT
  5
5F61
330
8
100
AcDbSymbolTableRecord
100
AcDbViewportTableRecord
  2
*Active
 70
     0
 10
0.0
 20
0.0
 11
1.0
 21
1.0
 12
2290.495972562685
 22
-367.0232090653004
 13
0.0
 23
0.0
 14
1.0
 24
1.0
 15
0.0
 25
0.0
 16
0.0
 26
0.0
 36
1.0
 17
0.0
 27
0.0
 37
0.0
 40
317.8279014556821
 41
2.519736842105263
 42
50.0
 43
0.0
 44
0.0
 50
0.0
 51
0.0
 71
     0
 72
   100
 73
     1
 74
     1
 75
     0
 76
     0
 77
     0
 78
     0
281
     0
 65
     1
110
0.0
120
0.0
130
0.0
111
1.0
121
0.0
131
0.0
112
0.0
122
1.0
132
0.0
 79
     0
146
0.0
1001
ACAD_NAV_VCDISPLAY
1070
     3
  0
ENDTAB
  0
TABLE
  2
LTYPE
  5
5
330
0
100
AcDbSymbolTable
 70
     3
  0
LTYPE
  5
13
330
5
100
AcDbSymbolTableRecord
100
AcDbLinetypeTableRecord
  2
ByBlock
 70
     0
  3

 72
    65
 73
     0
 40
0.0
  0
LTYPE
  5
14
330
5
100
AcDbSymbolTableRecord
100
AcDbLinetypeTableRecord
  2
ByLayer
 70
     0
  3

 72
    65
 73
     0
 40
0.0
  0
LTYPE
  5
15
330
5
100
AcDbSymbolTableRecord
100
AcDbLinetypeTableRecord
  2
CONTINUOUS
 70
     0
  3
実線
 72
    65
 73
     0
 40
0.0
  0
LTYPE
  5
25
330
5
100
AcDbSymbolTableRecord
100
AcDbLinetypeTableRecord
  2
CENTER1
 70
     0
  3
----- - ----- - ----- - ----- - 
 72
    65
 73
     4
 40
10.0
 49
6.25
 74
     0
 49
-1.25
 74
     0
 49
1.25
 74
     0
 49
-1.25
 74
     0
  0
LTYPE
  5
44
330
5
100
AcDbSymbolTableRecord
100
AcDbLinetypeTableRecord
  2
PLINE2
 70
     0
  3
------     -----------     -----
 72
    65
 73
     2
 40
3.0
 49
2.1
 74
     0
 49
-0.9
 74
     0
  0
ENDTAB
  0
TABLE
  2
LAYER
  5
2
102
{ACAD_XDICTIONARY
360
175
102
}
330
0
100
AcDbSymbolTable
 70
     6
  0
LAYER
  5
10
102
{ACAD_XDICTIONARY
360
655F
102
}
330
2
100
AcDbSymbolTableRecord
100
AcDbLayerTableRecord
  2
0
 70
     0
 62
     7
  6
CONTINUOUS
370
    -3
390
F
  0
LAYER
  5
128
330
2
100
AcDbSymbolTableRecord
100
AcDbLayerTableRecord
  2
Defpoints
 70
     0
 62
     7
  6
CONTINUOUS
290
     0
370
    -3
390
F
  0
LAYER
  5
178
102
{ACAD_XDICTIONARY
360
6561
102
}
330
2
100
AcDbSymbolTableRecord
100
AcDbLayerTableRecord
  2
寸法
 70
     0
 62
     7
  6
CONTINUOUS
370
    -3
390
F
  0
LAYER
  5
179
102
{ACAD_XDICTIONARY
360
6563
102
}
330
2
100
AcDbSymbolTableRecord
100
AcDbLayerTableRecord
  2
躯体と製品
 70
     0
 62
     7
  6
CONTINUOUS
370
    -3
390
F
  0
LAYER
  5
4F62
102
{ACAD_XDICTIONARY
360
6565
102
}
330
2
100
AcDbSymbolTableRecord
100
AcDbLayerTableRecord
  2
文字-記号
 70
     0
 62
     7
  6
CONTINUOUS
370
    -3
390
F
  0
LAYER
  5
69B5
330
2
100
AcDbSymbolTableRecord
100
AcDbLayerTableRecord
  2
中心線
 70
     0
 62
     7
  6
CONTINUOUS
370
    -3
390
F
1001
AcAecLayerStandard
1000

1000

1001
AcCmTransparency
1071
        0
  0
ENDTAB
  0
TABLE
  2
STYLE
  5
3
330
0
100
AcDbSymbolTable
 70
     2
  0
STYLE
  5
11
330
3
100
AcDbSymbolTableRecord
100
AcDbTextStyleTableRecord
  2
STANDARD
 70
     0
 40
0.0
 41
1.0
 50
0.0
 71
     0
 42
0.2
  3
txt
  4
bigfont.shx
  0
STYLE
  5
123
330
3
100
AcDbSymbolTableRecord
100
AcDbTextStyleTableRecord
  2
ACAD
 70
     0
 40
0.0
 41
1.0
 50
0.0
 71
     0
 42
5.0
  3
romans.shx
  4
extfont.shx
  0
ENDTAB
  0
TABLE
  2
VIEW
  5
6
330
0
100
AcDbSymbolTable
 70
     0
  0
ENDTAB
  0
TABLE
  2
UCS
  5
7
330
0
100
AcDbSymbolTable
 70
     0
  0
ENDTAB
  0
TABLE
  2
APPID
  5
9
330
0
100
AcDbSymbolTable
 70
    10
  0
APPID
  5
12
330
9
100
AcDbSymbolTableRecord
100
AcDbRegAppTableRecord
  2
ACAD
 70
     0
  0
APPID
  5
5FB2
330
9
100
AcDbSymbolTableRecord
100
AcDbRegAppTableRecord
  2
ACAD_NAV_VCDISPLAY
 70
     0
  0
APPID
  5
629D
330
9
100
AcDbSymbolTableRecord
100
AcDbRegAppTableRecord
  2
ACAD_EXEMPT_FROM_CAD_STANDARDS
 70
     0
  0
APPID
  5
69B6
330
9
100
AcDbSymbolTableRecord
100
AcDbRegAppTableRecord
  2
AcAecLayerStandard
 70
     0
  0
APPID
  5
69B7
330
9
100
AcDbSymbolTableRecord
100
AcDbRegAppTableRecord
  2
AcCmTransparency
 70
     0
  0
APPID
  5
9926
330
9
100
AcDbSymbolTableRecord
100
AcDbRegAppTableRecord
  2
ACAD_PSEXT
 70
     0
  0
APPID
  5
A309
330
9
100
AcDbSymbolTableRecord
100
AcDbRegAppTableRecord
  2
ACAD_MLEADERVER
 70
     0
  0
APPID
  5
A312
330
9
100
AcDbSymbolTableRecord
100
AcDbRegAppTableRecord
  2
AcadAnnoPO
 70
     0
  0
APPID
  5
A313
330
9
100
AcDbSymbolTableRecord
100
AcDbRegAppTableRecord
  2
ACAD_DSTYLE_DIMJAG
 70
     0
  0
APPID
  5
A314
330
9
100
AcDbSymbolTableRecord
100
AcDbRegAppTableRecord
  2
ACAD_DSTYLE_DIMTALN
 70
     0
  0
ENDTAB
  0
TABLE
  2
DIMSTYLE
  5
A
330
0
100
AcDbSymbolTable
 70
     2
100
AcDbDimStyleTable
 71
     1
340
126
  0
DIMSTYLE
105
11C
330
A
100
AcDbSymbolTableRecord
100
AcDbDimStyleTableRecord
  2
Standard
 70
     0
340
11
  0
DIMSTYLE
105
126
102
{ACAD_REACTORS
330
8EC7
330
8EC8
330
8EF5
102
}
330
A
100
AcDbSymbolTableRecord
100
AcDbDimStyleTableRecord
  2
AutoCAD
 70
     0
 41
5.0
 42
0.0
 44
0.0
 73
     0
 77
     1
140
6.5
147
3.0
174
     1
176
     4
177
     4
178
     3
271
     0
272
     0
289
     0
340
123
341
15B0
342
A77A
1001
ACAD_DSTYLE_DIMJAG
1070
   388
1040
1.5
1001
ACAD_DSTYLE_DIMTALN
1070
   392
1070
     0
  0
ENDTAB
  0
TABLE
  2
BLOCK_RECORD
  5
1
330
0
100
AcDbSymbolTable
 70
     5
  0
BLOCK_RECORD
  5
1E
102
{ACAD_XDICTIONARY
360
28B
102
}
330
1
100
AcDbSymbolTableRecord
100
AcDbBlockTableRecord
  2
*Model_Space
340
21
  0
BLOCK_RECORD
  5
1A
102
{ACAD_XDICTIONARY
360
28D
102
}
330
1
100
AcDbSymbolTableRecord
100
AcDbBlockTableRecord
  2
*Paper_Space
340
1D
  0
BLOCK_RECORD
  5
15B0
330
1
100
AcDbSymbolTableRecord
100
AcDbBlockTableRecord
  2
_None
340
0
  0
BLOCK_RECORD
  5
9009
330
1
100
AcDbSymbolTableRecord
100
AcDbBlockTableRecord
  2
*D1
340
0
  0
BLOCK_RECORD
  5
9013
330
1
100
AcDbSymbolTableRecord
100
AcDbBlockTableRecord
  2
*D2
340
0
  0
BLOCK_RECORD
  5
901D
330
1
100
AcDbSymbolTableRecord
100
AcDbBlockTableRecord
  2
*D3
340
0
  0
BLOCK_RECORD
  5
A77A
330
1
100
AcDbSymbolTableRecord
100
AcDbBlockTableRecord
  2
_Small
340
0
102
{BLKREFS
331
A77F
331
A780
331
A786
331
A787
331
A78F
331
A790
102
}
  0
ENDTAB
  0
ENDSEC
  0
SECTION
  2
BLOCKS
  0
BLOCK
  5
1F
330
1E
100
AcDbEntity
  8
0
100
AcDbBlockBegin
  2
*Model_Space
 70
     0
 10
0.0
 20
0.0
 30
0.0
  3
*Model_Space
  1

  0
ENDBLK
  5
20
330
1E
100
AcDbEntity
  8
0
100
AcDbBlockEnd
  0
BLOCK
  5
1B
330
1A
100
AcDbEntity
 67
     1
  8
0
100
AcDbBlockBegin
  2
*Paper_Space
 70
     0
 10
0.0
 20
0.0
 30
0.0
  3
*Paper_Space
  1

  0
ENDBLK
  5
1C
330
1A
100
AcDbEntity
 67
     1
  8
0
100
AcDbBlockEnd
  0
BLOCK
  5
15B1
330
15B0
100
AcDbEntity
  8
0
100
AcDbBlockBegin
  2
_None
 70
     0
 10
0.0
 20
0.0
 30
0.0
  3
_None
  1

  0
ENDBLK
  5
15B2
330
15B0
100
AcDbEntity
  8
0
100
AcDbBlockEnd
  0
BLOCK
  5
900A
330
9009
100
AcDbEntity
  8
0
100
AcDbBlockBegin
  2
*D1
 70
     1
 10
0.0
 20
0.0
 30
0.0
  3
*D1
  1

  0
LINE
  5
A77E
330
9009
100
AcDbEntity
  8
寸法
  6
Continuous
 62
     4
440
 16777216
370
    -2
100
AcDbLine
 10
2219.420370058806
 20
-363.1390847432755
 30
0.0
 11
2219.420370058806
 21
-334.1390847432754
 31
0.0
  0
INSERT
  5
A77F
330
9009
100
AcDbEntity
  8
寸法
  6
Continuous
 62
     4
440
 16777216
370
    -2
100
AcDbBlockReference
  2
_Small
 10
2219.420370058806
 20
-363.1390847432755
 30
0.0
 41
5.0
 42
5.0
 43
5.0
 50
270.0
  0
INSERT
  5
A780
330
9009
100
AcDbEntity
  8
寸法
  6
Continuous
 62
     4
440
 16777216
370
    -2
100
AcDbBlockReference
  2
_Small
 10
2219.420370058806
 20
-334.1390847432754
 30
0.0
 41
5.0
 42
5.0
 43
5.0
 50
90.0
  0
MTEXT
  5
A781
330
9009
100
AcDbEntity
  8
寸法
  6
Continuous
 62
     3
440
 16777216
100
AcDbMText
 10
2213.170370058806
 20
-348.6390847432751
 30
0.0
 40
6.5
 41
0.0
 71
     5
 72
     1
  1
\A1;29
  7
ACAD
 11
0.0000000000000001
 21
1.0
 31
0.0
 73
     1
 44
1.0
  0
POINT
  5
A782
330
9009
100
AcDbEntity
  8
Defpoints
  6
Continuous
 62
     0
440
 16777216
100
AcDbPoint
 10
2219.420370058806
 20
-363.1390847432755
 30
0.0
  0
POINT
  5
A783
330
9009
100
AcDbEntity
  8
Defpoints
  6
Continuous
 62
     0
440
 16777216
100
AcDbPoint
 10
2219.420370058806
 20
-334.1390847432754
 30
0.0
  0
POINT
  5
A784
330
9009
100
AcDbEntity
  8
Defpoints
  6
Continuous
 62
     0
440
 16777216
100
AcDbPoint
 10
2219.420370058806
 20
-334.1390847432754
 30
0.0
  0
ENDBLK
  5
900B
330
9009
100
AcDbEntity
  8
0
100
AcDbBlockEnd
  0
BLOCK
  5
9014
330
9013
100
AcDbEntity
  8
0
100
AcDbBlockBegin
  2
*D2
 70
     1
 10
0.0
 20
0.0
 30
0.0
  3
*D2
  1

  0
LINE
  5
A785
330
9013
100
AcDbEntity
  8
寸法
  6
Continuous
 62
     4
440
 16777216
370
    -2
100
AcDbLine
 10
2582.170364058806
 20
-415.1379767432755
 30
0.0
 11
2582.170364058806
 21
-365.1382307432754
 31
0.0
  0
INSERT
  5
A786
330
9013
100
AcDbEntity
  8
寸法
  6
Continuous
 62
     4
440
 16777216
370
    -2
100
AcDbBlockReference
  2
_Small
 10
2582.170364058806
 20
-415.1379767432755
 30
0.0
 41
5.0
 42
5.0
 43
5.0
 50
270.0
  0
INSERT
  5
A787
330
9013
100
AcDbEntity
  8
寸法
  6
Continuous
 62
     4
440
 16777216
370
    -2
100
AcDbBlockReference
  2
_Small
 10
2582.170364058806
 20
-365.1382307432754
 30
0.0
 41
5.0
 42
5.0
 43
5.0
 50
90.0
  0
MTEXT
  5
A788
330
9013
100
AcDbEntity
  8
寸法
  6
Continuous
 62
     3
440
 16777216
100
AcDbMText
 10
2575.920364058806
 20
-390.1381037432751
 30
0.0
 40
6.5
 41
0.0
 71
     5
 72
     1
  1
\A1;50
  7
ACAD
 11
0.0000000000000001
 21
1.0
 31
0.0
 73
     1
 44
1.0
  0
POINT
  5
A789
330
9013
100
AcDbEntity
  8
Defpoints
  6
Continuous
 62
     0
440
 16777216
100
AcDbPoint
 10
2582.170364058806
 20
-415.1379767432755
 30
0.0
  0
POINT
  5
A78A
330
9013
100
AcDbEntity
  8
Defpoints
  6
Continuous
 62
     0
440
 16777216
100
AcDbPoint
 10
2582.170364058806
 20
-365.1382307432754
 30
0.0
  0
POINT
  5
A78B
330
9013
100
AcDbEntity
  8
Defpoints
  6
Continuous
 62
     0
440
 16777216
100
AcDbPoint
 10
2582.170364058806
 20
-365.1382307432754
 30
0.0
  0
ENDBLK
  5
9015
330
9013
100
AcDbEntity
  8
0
100
AcDbBlockEnd
  0
BLOCK
  5
901E
330
901D
100
AcDbEntity
  8
0
100
AcDbBlockBegin
  2
*D3
 70
     1
 10
0.0
 20
0.0
 30
0.0
  3
*D3
  1

  0
LINE
  5
A78C
330
901D
100
AcDbEntity
  8
寸法
  6
Continuous
 62
     4
440
 16777216
370
    -2
100
AcDbLine
 10
2599.719042058806
 20
-481.1390847432753
 30
0.0
 11
2638.950923058807
 21
-481.1390847432753
 31
0.0
  0
LINE
  5
A78D
330
901D
100
AcDbEntity
  8
寸法
  6
Continuous
 62
     4
440
 16777216
370
    -2
100
AcDbLine
 10
2599.719042058807
 20
-334.1390847432754
 30
0.0
 11
2638.950923058807
 21
-334.1390847432754
 31
0.0
  0
LINE
  5
A78E
330
901D
100
AcDbEntity
  8
寸法
  6
Continuous
 62
     4
440
 16777216
370
    -2
100
AcDbLine
 10
2638.950923058807
 20
-481.1390847432753
 30
0.0
 11
2638.950923058807
 21
-334.1390847432754
 31
0.0
  0
INSERT
  5
A78F
330
901D
100
AcDbEntity
  8
寸法
  6
Continuous
 62
     4
440
 16777216
370
    -2
100
AcDbBlockReference
  2
_Small
 10
2638.950923058807
 20
-481.1390847432753
 30
0.0
 41
5.0
 42
5.0
 43
5.0
 50
270.0
  0
INSERT
  5
A790
330
901D
100
AcDbEntity
  8
寸法
  6
Continuous
 62
     4
440
 16777216
370
    -2
100
AcDbBlockReference
  2
_Small
 10
2638.950923058807
 20
-334.1390847432754
 30
0.0
 41
5.0
 42
5.0
 43
5.0
 50
90.0
  0
MTEXT
  5
A791
330
901D
100
AcDbEntity
  8
寸法
  6
Continuous
 62
     3
440
 16777216
100
AcDbMText
 10
2632.700923058808
 20
-407.6390847432749
 30
0.0
 40
6.5
 41
0.0
 71
     5
 72
     1
  1
\A1;h
  7
ACAD
 11
0.0000000000000001
 21
1.0
 31
0.0
 73
     1
 44
1.0
  0
POINT
  5
A792
330
901D
100
AcDbEntity
  8
Defpoints
  6
Continuous
 62
     0
440
 16777216
100
AcDbPoint
 10
2599.719042058806
 20
-481.1390847432753
 30
0.0
  0
POINT
  5
A793
330
901D
100
AcDbEntity
  8
Defpoints
  6
Continuous
 62
     0
440
 16777216
100
AcDbPoint
 10
2599.719042058807
 20
-334.1390847432754
 30
0.0
  0
POINT
  5
A794
330
901D
100
AcDbEntity
  8
Defpoints
  6
Continuous
 62
     0
440
 16777216
100
AcDbPoint
 10
2638.950923058807
 20
-334.1390847432754
 30
0.0
  0
ENDBLK
  5
901F
330
901D
100
AcDbEntity
  8
0
100
AcDbBlockEnd
  0
BLOCK
  5
A77C
330
A77A
100
AcDbEntity
  8
0
100
AcDbBlockBegin
  2
_Small
 70
     0
 10
0.0
 20
0.0
 30
0.0
  3
_Small
  1

  0
CIRCLE
  5
A77B
330
A77A
100
AcDbEntity
  8
0
  6
ByBlock
 62
     0
370
    -2
100
AcDbCircle
 10
0.0
 20
0.0
 30
0.0
 40
0.25
  0
ENDBLK
  5
A77D
330
A77A
100
AcDbEntity
  8
0
100
AcDbBlockEnd
  0
ENDSEC
  0
SECTION
  2
ENTITIES
  0
CIRCLE
  5
8E7A
330
1E
100
AcDbEntity
  8
躯体と製品
  6
Continuous
 62
     3
100
AcDbCircle
 10
2469.818804058806
 20
-354.1390694844868
 30
0.0
 40
2.499988
  0
CIRCLE
  5
8E7B
330
1E
100
AcDbEntity
  8
躯体と製品
  6
Continuous
 62
     3
100
AcDbCircle
 10
2469.818804058806
 20
-354.1390694844868
 30
0.0
 40
2.999983999999999
  0
CIRCLE
  5
8E7C
330
1E
100
AcDbEntity
  8
躯体と製品
  6
Continuous
 62
     3
100
AcDbCircle
 10
2469.818804058806
 20
-354.1390694844868
 30
0.0
 40
4.999973999999999
  0
DIMENSION
  5
8EC7
330
1E
100
AcDbEntity
  8
寸法
  6
Continuous
100
AcDbDimension
  2
*D1
 10
2219.420370058806
 20
-334.1390847432754
 30
0.0
 11
2213.170370058806
 21
-348.6390847432751
 31
0.0
 70
    32
 71
     5
 42
29.00000000000011
  3
AutoCAD
100
AcDbAlignedDimension
 13
2219.420370058806
 23
-363.1390847432755
 33
0.0
 14
2219.420370058806
 24
-334.1390847432754
 34
0.0
 50
90.0
100
AcDbRotatedDimension
  0
DIMENSION
  5
8EC8
330
1E
100
AcDbEntity
  8
寸法
  6
Continuous
100
AcDbDimension
  2
*D2
 10
2582.170364058806
 20
-365.1382307432754
 30
0.0
 11
2575.920364058806
 21
-390.1381037432751
 31
0.0
 70
    32
 71
     5
 42
49.99974600000019
  3
AutoCAD
100
AcDbAlignedDimension
 13
2582.170364058806
 23
-415.1379767432755
 33
0.0
 14
2582.170364058806
 24
-365.1382307432754
 34
0.0
 50
90.0
100
AcDbRotatedDimension
  0
LWPOLYLINE
  5
8EC9
330
1E
100
AcDbEntity
  8
躯体と製品
  6
Continuous
 62
     4
100
AcDbPolyline
 90
        2
 70
     0
 43
0.0
 10
2469.818804058806
 20
-452.639112743415
 10
2469.818804058806
 20
-458.1391127434134
  0
LWPOLYLINE
  5
8ECA
330
1E
100
AcDbEntity
  8
躯体と製品
  6
Continuous
 62
     4
100
AcDbPolyline
 90
        2
 70
     0
 43
0.0
 10
2478.814983461736
 20
-458.1391127434137
 10
2478.814983461736
 20
-452.639112743415
  0
LWPOLYLINE
  5
8ECB
330
1E
100
AcDbEntity
  8
躯体と製品
  6
Continuous
 62
     4
100
AcDbPolyline
 90
        2
 70
     0
 43
0.0
 10
2460.822624655874
 20
-458.1391127434131
 10
2460.822624655874
 20
-452.639112743415
  0
LWPOLYLINE
  5
8ECC
330
1E
100
AcDbEntity
  8
躯体と製品
  6
Continuous
 62
     4
100
AcDbPolyline
 90
        2
 70
     0
 43
0.0
 10
2465.32071435734
 20
-459.1391127434151
 10
2474.316893760271
 20
-459.1391127434151
  0
LWPOLYLINE
  5
8EEB
330
1E
100
AcDbEntity
  8
中心線
  6
CENTER1
100
AcDbPolyline
 90
        2
 70
     0
 43
0.0
 10
2090.722442058805
 20
-524.579541144586
 10
2090.722442058805
 20
-341.2751990232803
  0
LWPOLYLINE
  5
8EEC
330
1E
100
AcDbEntity
  8
中心線
  6
CENTER1
100
AcDbPolyline
 90
        2
 70
     0
 43
0.0
 10
2469.818804058806
 20
-524.579541144586
 10
2469.818804058806
 20
-341.2751990232803
  0
LWPOLYLINE
  5
8EED
330
1E
100
AcDbEntity
  8
文字-記号
  6
Continuous
 62
     7
100
AcDbPolyline
 90
        3
 70
     0
 43
0.0
 10
2110.097530399477
 20
-431.0585268426613
 10
2127.599301141756
 20
-461.3724829907109
 10
2205.693198524164
 20
-461.3724829907109
  0
TEXT
  5
8EEE
330
1E
100
AcDbEntity
  8
文字-記号
  6
Continuous
 62
     7
100
AcDbText
 10
2130.060238765477
 20
-458.8054526907519
 30
0.0
 40
6.205583999999999
  1
メインクッションゴム
100
AcDbText
  0
LWPOLYLINE
  5
8EEF
330
1E
100
AcDbEntity
  8
文字-記号
  6
Continuous
 62
     7
100
AcDbPolyline
 90
        3
 70
     0
 43
0.0
 10
2066.259631191406
 20
-392.4006121168036
 10
2051.166962007021
 20
-418.5418819659873
 10
2019.0885905352
 20
-418.5418819659873
  0
TEXT
  5
8EF0
330
1E
100
AcDbEntity
  8
文字-記号
  6
Continuous
 62
     7
100
AcDbText
 10
2023.268992973665
 20
-416.1524479659873
 30
0.0
 40
6.205583999999999
  1
大引鋼
100
AcDbText
  0
LWPOLYLINE
  5
8EF1
330
1E
100
AcDbEntity
  8
文字-記号
  6
Continuous
 62
     7
100
AcDbPolyline
 90
        3
 70
     0
 43
0.0
 10
2018.454850207622
 20
-363.1390847432754
 10
2007.611501049988
 20
-381.9203164085067
 10
1975.533129578167
 20
-381.9203164085067
  0
TEXT
  5
8EF2
330
1E
100
AcDbEntity
  8
文字-記号
  6
Continuous
 62
     7
100
AcDbText
 10
1979.713532016632
 20
-379.5308824085068
 30
0.0
 40
6.205583999999999
  1
根太鋼
100
AcDbText
  0
LWPOLYLINE
  5
8EF3
330
1E
100
AcDbEntity
  8
文字-記号
  6
Continuous
 62
     7
100
AcDbPolyline
 90
        3
 70
     0
 43
0.0
 10
2352.256718058806
 20
-415.1390847432755
 10
2337.16404887442
 20
-441.2803545924592
 10
2305.0856774026
 20
-441.2803545924592
  0
TEXT
  5
8EF4
330
1E
100
AcDbEntity
  8
文字-記号
  6
Continuous
 62
     7
100
AcDbText
 10
2309.266079841064
 20
-438.8909205924592
 30
0.0
 40
6.205583999999999
  1
大引鋼
100
AcDbText
  0
DIMENSION
  5
8EF5
330
1E
100
AcDbEntity
  8
寸法
  6
Continuous
100
AcDbDimension
  2
*D3
 10
2638.950923058807
 20
-334.1390847432754
 30
0.0
 11
2632.700923058808
 21
-407.6390847432749
 31
0.0
 70
    32
  1
h
 71
     5
 42
146.9999999999999
  3
AutoCAD
100
AcDbAlignedDimension
 13
2599.719042058806
 23
-481.1390847432753
 33
0.0
 14
2599.719042058807
 24
-334.1390847432754
 34
0.0
 50
90.0
100
AcDbRotatedDimension
  0
LWPOLYLINE
  5
8EF6
330
1E
100
AcDbEntity
  8
躯体と製品
  6
Continuous
 62
     4
100
AcDbPolyline
 90
       13
 70
     0
 43
0.0
 10
2285.818804058806
 20
-365.1390847432754
 10
2353.818804058806
 20
-365.1390847432754
 10
2353.818804058806
 20
-358.1390847432754
 10
2348.818804058806
 20
-358.1390847432754
 10
2348.818804058806
 20
-360.1390847432754
 10
2351.818804058806
 20
-360.1390847432754
 10
2351.818804058806
 20
-363.1390847432754
 10
2287.818804058806
 20
-363.1390847432754
 10
2287.818804058806
 20
-360.1390847432754
 10
2290.818804058806
 20
-360.1390847432754
 10
2290.818804058806
 20
-358.1390847432754
 10
2285.818804058806
 20
-358.1390847432754
 10
2285.818804058806
 20
-365.1390847432754
  0
LWPOLYLINE
  5
8EF7
330
1E
100
AcDbEntity
  8
躯体と製品
  6
Continuous
 62
     4
100
AcDbPolyline
 90
       28
 70
     1
 43
0.0
 10
2335.618804058806
 20
-334.1390847432756
 42
-0.4142135623730951
 10
2337.318804058806
 20
-335.8390847432757
 10
2337.318804058806
 20
-361.4390847432756
 42
0.4142135623730951
 10
2337.818804058806
 20
-361.9390847432756
 10
2350.118804058806
 20
-361.9390847432756
 42
0.4142135623730951
 10
2350.618804058806
 20
-361.4390847432756
 10
2350.618804058806
 20
-360.1390847432754
 10
2351.818804058806
 20
-360.1390847432754
 10
2351.818804058806
 20
-361.4390847432756
 42
-0.4142135623730951
 10
2350.118804058806
 20
-363.1390847432754
 10
2337.818804058806
 20
-363.1390847432754
 42
-0.4142135623730951
 10
2336.118804058806
 20
-361.4390847432756
 10
2336.118804058806
 20
-335.8390847432757
 42
0.4142135623730951
 10
2335.618804058806
 20
-335.3390847432757
 10
2304.018804058806
 20
-335.3390847432757
 42
0.4142135623730951
 10
2303.518804058807
 20
-335.8390847432757
 10
2303.518804058807
 20
-361.4390847432756
 42
-0.4142135623730951
 10
2301.818804058806
 20
-363.1390847432754
 10
2289.518804058806
 20
-363.1390847432754
 42
-0.4142135623730951
 10
2287.818804058806
 20
-361.4390847432756
 10
2287.818804058806
 20
-360.1390847432754
 10
2289.018804058807
 20
-360.1390847432754
 10
2289.018804058807
 20
-361.4390847432756
 42
0.4142135623730951
 10
2289.518804058806
 20
-361.9390847432756
 10
2301.818804058806
 20
-361.9390847432756
 42
0.4142135623730951
 10
2302.318804058806
 20
-361.4390847432756
 10
2302.318804058806
 20
-335.8390847432757
 42
-0.4142135623730951
 10
2304.018804058806
 20
-334.1390847432756
  0
TEXT
  5
8EF8
330
1E
100
AcDbEntity
  8
文字-記号
  6
Continuous
 62
     7
100
AcDbText
 10
2274.679547058806
 20
-343.2859967432756
 30
0.0
 40
6.205583999999999
  1
根太鋼
100
AcDbText
  0
LWPOLYLINE
  5
8EF9
330
1E
100
AcDbEntity
  8
躯体と製品
  6
Continuous
 62
     4
100
AcDbPolyline
 90
        2
 70
     0
 43
0.0
 10
2299.019804058788
 20
-361.2900847432707
 10
2299.019804058788
 20
-361.7390847432639
  0
LWPOLYLINE
  5
8EFA
330
1E
100
AcDbEntity
  8
躯体と製品
  6
Continuous
 62
     4
100
AcDbPolyline
 90
        2
 70
     0
 43
0.0
 10
2291.019804058788
 20
-361.2900847432707
 10
2291.019804058788
 20
-361.7390847432639
  0
LWPOLYLINE
  5
8EFB
330
1E
100
AcDbEntity
  8
躯体と製品
  6
Continuous
 62
     4
100
AcDbPolyline
 90
        2
 70
     0
 43
0.0
 10
2298.819804058806
 20
-361.9390847432756
 10
2295.019804058789
 20
-361.9390847432756
  0
LWPOLYLINE
  5
8EFC
330
1E
100
AcDbEntity
  8
躯体と製品
  6
Continuous
 62
     4
100
AcDbPolyline
 90
        2
 70
     0
 43
0.0
 10
2291.019804058788
 20
-361.7390847642187
 42
0.41421351636737
 10
2291.219804048322
 20
-361.9390847432756
  0
LWPOLYLINE
  5
8EFD
330
1E
100
AcDbEntity
  8
躯体と製品
  6
Continuous
 62
     4
100
AcDbPolyline
 90
        2
 70
     0
 43
0.0
 10
2291.2198040588
 20
-361.9390847432756
 10
2295.019804058789
 20
-361.9390847432756
  0
LWPOLYLINE
  5
8EFE
330
1E
100
AcDbEntity
  8
躯体と製品
  6
Continuous
 62
     4
100
AcDbPolyline
 90
        2
 70
     0
 43
0.0
 10
2298.819804048329
 20
-361.9390847432756
 42
0.4142135777083371
 10
2299.019804058818
 20
-361.7390847432639
  0
LWPOLYLINE
  5
8EFF
330
1E
100
AcDbEntity
  8
躯体と製品
  6
Continuous
 62
     4
100
AcDbPolyline
 90
        2
 70
     0
 43
0.0
 10
2298.784804058803
 20
-360.1390847432581
 10
2295.019804058789
 20
-360.1390847432581
  0
LWPOLYLINE
  5
8F00
330
1E
100
AcDbEntity
  8
躯体と製品
  6
Continuous
 62
     4
100
AcDbPolyline
 90
        2
 70
     0
 43
0.0
 10
2298.784353187965
 20
-360.1395872030503
 42
0.2144073790574085
 10
2295.019820225443
 20
-358.9392282619179
  0
LWPOLYLINE
  5
8F01
330
1E
100
AcDbEntity
  8
躯体と製品
  6
Continuous
 62
     4
100
AcDbPolyline
 90
        2
 70
     0
 43
0.0
 10
2291.254804058803
 20
-360.1390847432581
 10
2291.019804058788
 20
-361.2900847432707
  0
LWPOLYLINE
  5
8F02
330
1E
100
AcDbEntity
  8
躯体と製品
  6
Continuous
 62
     4
100
AcDbPolyline
 90
        2
 70
     0
 43
0.0
 10
2295.019787474203
 20
-358.9392282141585
 42
0.2144073836089342
 10
2291.255254553997
 20
-360.139587539898
  0
LWPOLYLINE
  5
8F03
330
1E
100
AcDbEntity
  8
躯体と製品
  6
Continuous
 62
     4
100
AcDbPolyline
 90
        2
 70
     0
 43
0.0
 10
2291.254804058803
 20
-360.1390847432581
 10
2295.019804058789
 20
-360.1390847432581
  0
LWPOLYLINE
  5
8F04
330
1E
100
AcDbEntity
  8
躯体と製品
  6
Continuous
 62
     4
100
AcDbPolyline
 90
        2
 70
     0
 43
0.0
 10
2298.784804058803
 20
-360.1390847432581
 10
2299.019804058788
 20
-361.2900847432707
  0
LWPOLYLINE
  5
8F05
330
1E
100
AcDbEntity
  8
躯体と製品
  6
Continuous
 62
     4
100
AcDbPolyline
 90
        2
 70
     0
 43
0.0
 10
2348.619804058794
 20
-361.2900847432707
 10
2348.619804058794
 20
-361.7390847432639
  0
LWPOLYLINE
  5
8F06
330
1E
100
AcDbEntity
  8
躯体と製品
  6
Continuous
 62
     4
100
AcDbPolyline
 90
        2
 70
     0
 43
0.0
 10
2340.619804058794
 20
-361.2900847432707
 10
2340.619804058794
 20
-361.7390847432639
  0
LWPOLYLINE
  5
8F07
330
1E
100
AcDbEntity
  8
躯体と製品
  6
Continuous
 62
     4
100
AcDbPolyline
 90
        2
 70
     0
 43
0.0
 10
2348.419804058783
 20
-361.9390847432756
 10
2344.619804058794
 20
-361.9390847432756
  0
LWPOLYLINE
  5
8F08
330
1E
100
AcDbEntity
  8
躯体と製品
  6
Continuous
 62
     4
100
AcDbPolyline
 90
        2
 70
     0
 43
0.0
 10
2340.619804058794
 20
-361.7390847642187
 42
0.41421351636737
 10
2340.819804048329
 20
-361.9390847432756
  0
LWPOLYLINE
  5
8F09
330
1E
100
AcDbEntity
  8
躯体と製品
  6
Continuous
 62
     4
100
AcDbPolyline
 90
        2
 70
     0
 43
0.0
 10
2340.819804058806
 20
-361.9390847432756
 10
2344.619804058794
 20
-361.9390847432756
  0
LWPOLYLINE
  5
8F0A
330
1E
100
AcDbEntity
  8
躯体と製品
  6
Continuous
 62
     4
100
AcDbPolyline
 90
        2
 70
     0
 43
0.0
 10
2348.419804048305
 20
-361.9390847432756
 42
0.4142135777083371
 10
2348.619804058794
 20
-361.7390847432639
  0
LWPOLYLINE
  5
8F0B
330
1E
100
AcDbEntity
  8
躯体と製品
  6
Continuous
 62
     4
100
AcDbPolyline
 90
        2
 70
     0
 43
0.0
 10
2348.384804058808
 20
-360.1390847432581
 10
2344.619804058794
 20
-360.1390847432581
  0
LWPOLYLINE
  5
8F0C
330
1E
100
AcDbEntity
  8
躯体と製品
  6
Continuous
 62
     4
100
AcDbPolyline
 90
        2
 70
     0
 43
0.0
 10
2348.384353187971
 20
-360.1395872030503
 42
0.2144073790574085
 10
2344.619820225448
 20
-358.9392282619179
  0
LWPOLYLINE
  5
8F0D
330
1E
100
AcDbEntity
  8
躯体と製品
  6
Continuous
 62
     4
100
AcDbPolyline
 90
        2
 70
     0
 43
0.0
 10
2340.85480405878
 20
-360.1390847432581
 10
2340.619804058794
 20
-361.2900847432707
  0
LWPOLYLINE
  5
8F0E
330
1E
100
AcDbEntity
  8
躯体と製品
  6
Continuous
 62
     4
100
AcDbPolyline
 90
        2
 70
     0
 43
0.0
 10
2344.61978747418
 20
-358.9392282141585
 42
0.2144073836089342
 10
2340.855254553974
 20
-360.139587539898
  0
LWPOLYLINE
  5
8F0F
330
1E
100
AcDbEntity
  8
躯体と製品
  6
Continuous
 62
     4
100
AcDbPolyline
 90
        2
 70
     0
 43
0.0
 10
2340.85480405878
 20
-360.1390847432581
 10
2344.619804058794
 20
-360.1390847432581
  0
LWPOLYLINE
  5
8F10
330
1E
100
AcDbEntity
  8
躯体と製品
  6
Continuous
 62
     4
100
AcDbPolyline
 90
        2
 70
     0
 43
0.0
 10
2348.384804058808
 20
-360.1390847432581
 10
2348.619804058794
 20
-361.2900847432707
  0
LWPOLYLINE
  5
8F11
330
1E
100
AcDbEntity
  8
文字-記号
  6
Continuous
 62
     7
100
AcDbPolyline
 90
        3
 70
     0
 43
0.0
 10
2271.865480058806
 20
-345.6754307432758
 10
2297.098495058806
 20
-345.6754307432758
 10
2302.318804058806
 20
-353.4503590198795
  0
CIRCLE
  5
8F9D
330
1E
100
AcDbEntity
  8
躯体と製品
  6
Continuous
 62
     6
100
AcDbCircle
 10
2083.377092058805
 20
-484.5100727432755
 30
0.0
 40
0.062502
  0
CIRCLE
  5
8F9E
330
1E
100
AcDbEntity
  8
躯体と製品
  6
Continuous
 62
     6
100
AcDbCircle
 10
2083.489662058805
 20
-488.9003147432754
 30
0.0
 40
0.062502
  0
CIRCLE
  5
8F9F
330
1E
100
AcDbEntity
  8
躯体と製品
  6
Continuous
 62
     6
100
AcDbCircle
 10
2083.452138058805
 20
-494.7539707432754
 30
0.0
 40
0.062502
  0
CIRCLE
  5
8FA0
330
1E
100
AcDbEntity
  8
躯体と製品
  6
Continuous
 62
     6
100
AcDbCircle
 10
2083.058142058805
 20
-499.1442127432754
 30
0.0
 40
0.062502
  0
CIRCLE
  5
8FA1
330
1E
100
AcDbEntity
  8
躯体と製品
  6
Continuous
 62
     6
100
AcDbCircle
 10
2083.452138058805
 20
-503.5719787432753
 30
0.0
 40
0.062502
  0
CIRCLE
  5
8FA2
330
1E
100
AcDbEntity
  8
躯体と製品
  6
Continuous
 62
     6
100
AcDbCircle
 10
2083.452138058805
 20
-507.2305147432753
 30
0.0
 40
0.062502
  0
CIRCLE
  5
8FA3
330
1E
100
AcDbEntity
  8
躯体と製品
  6
Continuous
 62
     6
100
AcDbCircle
 10
2083.377092058805
 20
-510.5876827432752
 30
0.0
 40
0.062502
  0
CIRCLE
  5
8FA4
330
1E
100
AcDbEntity
  8
躯体と製品
  6
Continuous
 62
     6
100
AcDbCircle
 10
2083.508424058805
 20
-513.3831787432752
 30
0.0
 40
0.062502
  0
CIRCLE
  5
8FA5
330
1E
100
AcDbEntity
  8
躯体と製品
  6
Continuous
 62
     6
100
AcDbCircle
 10
2085.215740058805
 20
-512.6327087432753
 30
0.0
 40
0.062502
  0
CIRCLE
  5
8FA6
330
1E
100
AcDbEntity
  8
躯体と製品
  6
Continuous
 62
     6
100
AcDbCircle
 10
2085.872400058805
 20
-514.6402127432752
 30
0.0
 40
0.062502
  0
CIRCLE
  5
8FA7
330
1E
100
AcDbEntity
  8
躯体と製品
  6
Continuous
 62
     6
100
AcDbCircle
 10
2087.371254058805
 20
-512.6327087432753
 30
0.0
 40
0.062502
  0
CIRCLE
  5
8FA8
330
1E
100
AcDbEntity
  8
躯体と製品
  6
Continuous
 62
     6
100
AcDbCircle
 10
2089.359996058806
 20
-514.5276427432752
 30
0.0
 40
0.062502
  0
CIRCLE
  5
8FA9
330
1E
100
AcDbEntity
  8
躯体と製品
  6
Continuous
 62
     6
100
AcDbCircle
 10
2091.217406058805
 20
-512.7452787432753
 30
0.0
 40
0.062502
  0
CIRCLE
  5
8FAA
330
1E
100
AcDbEntity
  8
躯体と製品
  6
Continuous
 62
     6
100
AcDbCircle
 10
2092.981008058805
 20
-514.6214507432753
 30
0.0
 40
0.062502
  0
CIRCLE
  5
8FAB
330
1E
100
AcDbEntity
  8
躯体と製品
  6
Continuous
 62
     6
100
AcDbCircle
 10
2093.297656058805
 20
-512.6139467432754
 30
0.0
 40
0.062502
  0
CIRCLE
  5
8FAC
330
1E
100
AcDbEntity
  8
躯体と製品
  6
Continuous
 62
     6
100
AcDbCircle
 10
2095.417732058805
 20
-513.6833647432754
 30
0.0
 40
0.062502
  0
CIRCLE
  5
8FAD
330
1E
100
AcDbEntity
  8
躯体と製品
  6
Continuous
 62
     6
100
AcDbCircle
 10
2097.988086058805
 20
-514.8653547432752
 30
0.0
 40
0.062502
  0
CIRCLE
  5
8FAE
330
1E
100
AcDbEntity
  8
躯体と製品
  6
Continuous
 62
     6
100
AcDbCircle
 10
2097.500282058805
 20
-512.5576627432754
 30
0.0
 40
0.062502
  0
CIRCLE
  5
8FAF
330
1E
100
AcDbEntity
  8
躯体と製品
  6
Continuous
 62
     6
100
AcDbCircle
 10
2098.400844058805
 20
-509.6308347432752
 30
0.0
 40
0.062502
  0
CIRCLE
  5
8FB0
330
1E
100
AcDbEntity
  8
躯体と製品
  6
Continuous
 62
     6
100
AcDbCircle
 10
2097.500282058805
 20
-507.2867987432752
 30
0.0
 40
0.062502
  0
CIRCLE
  5
8FB1
330
1E
100
AcDbEntity
  8
躯体と製品
  6
Continuous
 62
     6
100
AcDbCircle
 10
2098.213228058805
 20
-503.9847367432753
 30
0.0
 40
0.062502
  0
CIRCLE
  5
8FB2
330
1E
100
AcDbEntity
  8
躯体と製品
  6
Continuous
 62
     6
100
AcDbCircle
 10
2097.350188058805
 20
-500.9453387432754
 30
0.0
 40
0.062502
  0
CIRCLE
  5
8FB3
330
1E
100
AcDbEntity
  8
躯体と製品
  6
Continuous
 62
     6
100
AcDbCircle
 10
2098.307036058805
 20
-497.8684167432755
 30
0.0
 40
0.062502
  0
CIRCLE
  5
8FB4
330
1E
100
AcDbEntity
  8
躯体と製品
  6
Continuous
 62
     6
100
AcDbCircle
 10
2098.044372058806
 20
-494.6038767432753
 30
0.0
 40
0.062502
  0
CIRCLE
  5
8FB5
330
1E
100
AcDbEntity
  8
躯体と製品
  6
Continuous
 62
     6
100
AcDbCircle
 10
2098.063134058805
 20
-490.7577247432755
 30
0.0
 40
0.062502
  0
CIRCLE
  5
8FB6
330
1E
100
AcDbEntity
  8
躯体と製品
  6
Continuous
 62
     6
100
AcDbCircle
 10
2098.457130058805
 20
-487.1742367432752
 30
0.0
 40
0.062502
  0
CIRCLE
  5
8FB7
330
1E
100
AcDbEntity
  8
躯体と製品
  6
Continuous
 62
     6
100
AcDbCircle
 10
2097.519044058805
 20
-484.6601667432753
 30
0.0
 40
0.062502
  0
CIRCLE
  5
8FB8
330
1E
100
AcDbEntity
  8
躯体と製品
  6
Continuous
 62
     6
100
AcDbCircle
 10
2098.438368058805
 20
-482.3712367432754
 30
0.0
 40
0.062502
  0
CIRCLE
  5
8FB9
330
1E
100
AcDbEntity
  8
躯体と製品
  6
Continuous
 62
     6
100
AcDbCircle
 10
2084.014990058805
 20
-482.3149507432754
 30
0.0
 40
0.062502
  0
CIRCLE
  5
8FC2
330
1E
100
AcDbEntity
  8
躯体と製品
  6
Continuous
 62
     6
100
AcDbCircle
 10
2081.911100058805
 20
-491.9651167432752
 30
0.0
 40
0.062502
  0
CIRCLE
  5
8FC3
330
1E
100
AcDbEntity
  8
躯体と製品
  6
Continuous
 62
     6
100
AcDbCircle
 10
2081.871008058806
 20
-502.1081507432755
 30
0.0
 40
0.062502
  0
CIRCLE
  5
8FC4
330
1E
100
AcDbEntity
  8
躯体と製品
  6
Continuous
 62
     6
100
AcDbCircle
 10
2081.670554058806
 20
-508.3222627432753
 30
0.0
 40
0.062502
  0
CIRCLE
  5
8FC5
330
1E
100
AcDbEntity
  8
躯体と製品
  6
Continuous
 62
     6
100
AcDbCircle
 10
2081.610416058806
 20
-513.2121887432754
 30
0.0
 40
0.062502
  0
CIRCLE
  5
8FC6
330
1E
100
AcDbEntity
  8
躯体と製品
  6
Continuous
 62
     6
100
AcDbCircle
 10
2099.118632058805
 20
-500.8252367432753
 30
0.0
 40
0.062502
  0
CIRCLE
  5
8FC7
330
1E
100
AcDbEntity
  8
躯体と製品
  6
Continuous
 62
     6
100
AcDbCircle
 10
2099.098586058806
 20
-507.1195307432754
 30
0.0
 40
0.062502
  0
CIRCLE
  5
8FC8
330
1E
100
AcDbEntity
  8
躯体と製品
  6
Continuous
 62
     6
100
AcDbCircle
 10
2099.539588058805
 20
-512.5707327432754
 30
0.0
 40
0.062502
  0
CIRCLE
  5
8FC9
330
1E
100
AcDbEntity
  8
躯体と製品
  6
Continuous
 62
     6
100
AcDbCircle
 10
2099.519542058805
 20
-487.9159207432754
 30
0.0
 40
0.062502
  0
CIRCLE
  5
8FCA
330
1E
100
AcDbEntity
  8
躯体と製品
  6
Continuous
 62
     6
100
AcDbCircle
 10
2099.760088058805
 20
-493.5487127432755
 30
0.0
 40
0.062502
  0
TEXT
  5
8FD1
330
1E
100
AcDbEntity
  8
文字-記号
  6
Continuous
 62
     7
100
AcDbText
 10
1993.808278802701
 20
-461.7448462547921
 30
0.0
 40
6.383249
  1
調整ボルト Ｍ１２
100
AcDbText
  0
LWPOLYLINE
  5
8FD2
330
1E
100
AcDbEntity
  8
文字-記号
  6
Continuous
 62
     7
100
AcDbPolyline
 90
        3
 70
     0
 43
0.0
 10
1992.663565802701
 20
-464.2989162547922
 10
2079.777462803373
 20
-464.2989162547922
 10
2084.722442058806
 20
-472.8638715675754
  0
CIRCLE
  5
8FD3
330
1E
100
AcDbEntity
  8
躯体と製品
  6
Continuous
 62
     6
100
AcDbCircle
 10
2462.473454058805
 20
-484.5100727432755
 30
0.0
 40
0.062502
  0
CIRCLE
  5
8FD4
330
1E
100
AcDbEntity
  8
躯体と製品
  6
Continuous
 62
     6
100
AcDbCircle
 10
2462.586024058806
 20
-488.9003147432754
 30
0.0
 40
0.062502
  0
CIRCLE
  5
8FD5
330
1E
100
AcDbEntity
  8
躯体と製品
  6
Continuous
 62
     6
100
AcDbCircle
 10
2462.548500058805
 20
-494.7539707432754
 30
0.0
 40
0.062502
  0
CIRCLE
  5
8FD6
330
1E
100
AcDbEntity
  8
躯体と製品
  6
Continuous
 62
     6
100
AcDbCircle
 10
2462.154504058805
 20
-499.1442127432754
 30
0.0
 40
0.062502
  0
CIRCLE
  5
8FD7
330
1E
100
AcDbEntity
  8
躯体と製品
  6
Continuous
 62
     6
100
AcDbCircle
 10
2462.548500058805
 20
-503.5719787432753
 30
0.0
 40
0.062502
  0
CIRCLE
  5
8FD8
330
1E
100
AcDbEntity
  8
躯体と製品
  6
Continuous
 62
     6
100
AcDbCircle
 10
2462.548500058805
 20
-507.2305147432753
 30
0.0
 40
0.062502
  0
CIRCLE
  5
8FD9
330
1E
100
AcDbEntity
  8
躯体と製品
  6
Continuous
 62
     6
100
AcDbCircle
 10
2462.473454058805
 20
-510.5876827432752
 30
0.0
 40
0.062502
  0
CIRCLE
  5
8FDA
330
1E
100
AcDbEntity
  8
躯体と製品
  6
Continuous
 62
     6
100
AcDbCircle
 10
2462.604786058805
 20
-513.3831787432752
 30
0.0
 40
0.062502
  0
CIRCLE
  5
8FDB
330
1E
100
AcDbEntity
  8
躯体と製品
  6
Continuous
 62
     6
100
AcDbCircle
 10
2464.312102058805
 20
-512.6327087432753
 30
0.0
 40
0.062502
  0
CIRCLE
  5
8FDC
330
1E
100
AcDbEntity
  8
躯体と製品
  6
Continuous
 62
     6
100
AcDbCircle
 10
2464.968762058806
 20
-514.6402127432752
 30
0.0
 40
0.062502
  0
CIRCLE
  5
8FDD
330
1E
100
AcDbEntity
  8
躯体と製品
  6
Continuous
 62
     6
100
AcDbCircle
 10
2466.467616058805
 20
-512.6327087432753
 30
0.0
 40
0.062502
  0
CIRCLE
  5
8FDE
330
1E
100
AcDbEntity
  8
躯体と製品
  6
Continuous
 62
     6
100
AcDbCircle
 10
2468.456358058805
 20
-514.5276427432752
 30
0.0
 40
0.062502
  0
CIRCLE
  5
8FDF
330
1E
100
AcDbEntity
  8
躯体と製品
  6
Continuous
 62
     6
100
AcDbCircle
 10
2470.313768058805
 20
-512.7452787432753
 30
0.0
 40
0.062502
  0
CIRCLE
  5
8FE0
330
1E
100
AcDbEntity
  8
躯体と製品
  6
Continuous
 62
     6
100
AcDbCircle
 10
2472.077370058805
 20
-514.6214507432753
 30
0.0
 40
0.062502
  0
CIRCLE
  5
8FE1
330
1E
100
AcDbEntity
  8
躯体と製品
  6
Continuous
 62
     6
100
AcDbCircle
 10
2472.394018058805
 20
-512.6139467432754
 30
0.0
 40
0.062502
  0
CIRCLE
  5
8FE2
330
1E
100
AcDbEntity
  8
躯体と製品
  6
Continuous
 62
     6
100
AcDbCircle
 10
2474.514094058806
 20
-513.6833647432754
 30
0.0
 40
0.062502
  0
CIRCLE
  5
8FE3
330
1E
100
AcDbEntity
  8
躯体と製品
  6
Continuous
 62
     6
100
AcDbCircle
 10
2477.084448058806
 20
-514.8653547432752
 30
0.0
 40
0.062502
  0
CIRCLE
  5
8FE4
330
1E
100
AcDbEntity
  8
躯体と製品
  6
Continuous
 62
     6
100
AcDbCircle
 10
2476.596644058806
 20
-512.5576627432754
 30
0.0
 40
0.062502
  0
CIRCLE
  5
8FE5
330
1E
100
AcDbEntity
  8
躯体と製品
  6
Continuous
 62
     6
100
AcDbCircle
 10
2477.497206058805
 20
-509.6308347432752
 30
0.0
 40
0.062502
  0
CIRCLE
  5
8FE6
330
1E
100
AcDbEntity
  8
躯体と製品
  6
Continuous
 62
     6
100
AcDbCircle
 10
2476.596644058806
 20
-507.2867987432752
 30
0.0
 40
0.062502
  0
CIRCLE
  5
8FE7
330
1E
100
AcDbEntity
  8
躯体と製品
  6
Continuous
 62
     6
100
AcDbCircle
 10
2477.309590058805
 20
-503.9847367432753
 30
0.0
 40
0.062502
  0
CIRCLE
  5
8FE8
330
1E
100
AcDbEntity
  8
躯体と製品
  6
Continuous
 62
     6
100
AcDbCircle
 10
2476.446550058805
 20
-500.9453387432754
 30
0.0
 40
0.062502
  0
CIRCLE
  5
8FE9
330
1E
100
AcDbEntity
  8
躯体と製品
  6
Continuous
 62
     6
100
AcDbCircle
 10
2477.403398058806
 20
-497.8684167432755
 30
0.0
 40
0.062502
  0
CIRCLE
  5
8FEA
330
1E
100
AcDbEntity
  8
躯体と製品
  6
Continuous
 62
     6
100
AcDbCircle
 10
2477.140734058806
 20
-494.6038767432753
 30
0.0
 40
0.062502
  0
CIRCLE
  5
8FEB
330
1E
100
AcDbEntity
  8
躯体と製品
  6
Continuous
 62
     6
100
AcDbCircle
 10
2477.159496058805
 20
-490.7577247432755
 30
0.0
 40
0.062502
  0
CIRCLE
  5
8FEC
330
1E
100
AcDbEntity
  8
躯体と製品
  6
Continuous
 62
     6
100
AcDbCircle
 10
2477.553492058806
 20
-487.1742367432752
 30
0.0
 40
0.062502
  0
CIRCLE
  5
8FED
330
1E
100
AcDbEntity
  8
躯体と製品
  6
Continuous
 62
     6
100
AcDbCircle
 10
2476.615406058805
 20
-484.6601667432753
 30
0.0
 40
0.062502
  0
CIRCLE
  5
8FEE
330
1E
100
AcDbEntity
  8
躯体と製品
  6
Continuous
 62
     6
100
AcDbCircle
 10
2477.534730058806
 20
-482.3712367432754
 30
0.0
 40
0.062502
  0
CIRCLE
  5
8FEF
330
1E
100
AcDbEntity
  8
躯体と製品
  6
Continuous
 62
     6
100
AcDbCircle
 10
2463.111352058805
 20
-482.3149507432754
 30
0.0
 40
0.062502
  0
CIRCLE
  5
8FF8
330
1E
100
AcDbEntity
  8
躯体と製品
  6
Continuous
 62
     6
100
AcDbCircle
 10
2461.007462058806
 20
-491.9651167432752
 30
0.0
 40
0.062502
  0
CIRCLE
  5
8FF9
330
1E
100
AcDbEntity
  8
躯体と製品
  6
Continuous
 62
     6
100
AcDbCircle
 10
2460.967370058805
 20
-502.1081507432755
 30
0.0
 40
0.062502
  0
CIRCLE
  5
8FFA
330
1E
100
AcDbEntity
  8
躯体と製品
  6
Continuous
 62
     6
100
AcDbCircle
 10
2460.766916058806
 20
-508.3222627432753
 30
0.0
 40
0.062502
  0
CIRCLE
  5
8FFB
330
1E
100
AcDbEntity
  8
躯体と製品
  6
Continuous
 62
     6
100
AcDbCircle
 10
2460.706778058806
 20
-513.2121887432754
 30
0.0
 40
0.062502
  0
CIRCLE
  5
8FFC
330
1E
100
AcDbEntity
  8
躯体と製品
  6
Continuous
 62
     6
100
AcDbCircle
 10
2478.214994058805
 20
-500.8252367432753
 30
0.0
 40
0.062502
  0
CIRCLE
  5
8FFD
330
1E
100
AcDbEntity
  8
躯体と製品
  6
Continuous
 62
     6
100
AcDbCircle
 10
2478.194948058805
 20
-507.1195307432754
 30
0.0
 40
0.062502
  0
CIRCLE
  5
8FFE
330
1E
100
AcDbEntity
  8
躯体と製品
  6
Continuous
 62
     6
100
AcDbCircle
 10
2478.635950058805
 20
-512.5707327432754
 30
0.0
 40
0.062502
  0
CIRCLE
  5
8FFF
330
1E
100
AcDbEntity
  8
躯体と製品
  6
Continuous
 62
     6
100
AcDbCircle
 10
2478.615904058806
 20
-487.9159207432754
 30
0.0
 40
0.062502
  0
CIRCLE
  5
9000
330
1E
100
AcDbEntity
  8
躯体と製品
  6
Continuous
 62
     6
100
AcDbCircle
 10
2478.856450058806
 20
-493.5487127432755
 30
0.0
 40
0.062502
  0
TEXT
  5
9007
330
1E
100
AcDbEntity
  8
文字-記号
  6
Continuous
 62
     7
100
AcDbText
 10
2372.904640802702
 20
-461.7448462547921
 30
0.0
 40
6.383249
  1
調整ボルト Ｍ１２
100
AcDbText
  0
LWPOLYLINE
  5
9008
330
1E
100
AcDbEntity
  8
文字-記号
  6
Continuous
 62
     7
100
AcDbPolyline
 90
        3
 70
     0
 43
0.0
 10
2371.759927802702
 20
-464.2989162547922
 10
2458.873824803374
 20
-464.2989162547922
 10
2463.818804058806
 20
-472.8638715675754
  0
LWPOLYLINE
  5
9145
330
1E
100
AcDbEntity
  8
躯体と製品
  6
Continuous
 62
     4
100
AcDbPolyline
 90
        2
 70
     0
 43
0.0
 10
2085.578502935682
 20
-459.139084743415
 10
2082.981529635702
 20
-459.139084743415
  0
LWPOLYLINE
  5
9148
330
1E
100
AcDbEntity
  8
躯体と製品
  6
Continuous
 62
     4
100
AcDbPolyline
 90
        2
 70
     0
 43
0.0
 10
2080.384556335722
 20
-458.1390847434151
 10
2080.384556335722
 20
-452.639084743415
  0
LWPOLYLINE
  5
9149
330
1E
100
AcDbEntity
  8
躯体と製品
  6
Continuous
 62
     4
100
AcDbPolyline
 90
        2
 70
     0
 43
0.0
 10
2101.160342735564
 20
-458.1390847434147
 10
2101.160342735565
 20
-452.639084743415
  0
LWPOLYLINE
  5
914A
330
1E
100
AcDbEntity
  8
躯体と製品
  6
Continuous
 62
     4
100
AcDbPolyline
 90
        2
 70
     0
 43
0.0
 10
2095.966396135601
 20
-452.639084743415
 10
2095.966396135606
 20
-458.1390847434176
  0
LWPOLYLINE
  5
914B
330
1E
100
AcDbEntity
  8
躯体と製品
  6
Continuous
 62
     4
100
AcDbPolyline
 90
        2
 70
     0
 43
0.0
 10
2085.578502935677
 20
-452.639084743415
 10
2085.578502935682
 20
-458.1390847434132
  0
LWPOLYLINE
  5
9970
330
1E
100
AcDbEntity
  8
文字-記号
  6
Continuous
 62
     7
100
AcDbPolyline
 90
        3
 70
     0
 43
0.0
 10
2073.537839374416
 20
-301.1390847432754
 10
2092.306921648289
 20
-268.6300806334871
 10
2166.371197204307
 20
-268.6300806334871
  0
TEXT
  5
9971
330
1E
100
AcDbEntity
  8
文字-記号
  6
Continuous
 62
     7
100
AcDbText
 10
2099.02724108668
 20
-266.7997993557983
 30
0.0
 40
6.205583999999999
  1
フローリング貼り
100
AcDbText
  0
LWPOLYLINE
  5
9972
330
1E
100
AcDbEntity
  8
文字-記号
  6
Continuous
 62
     7
100
AcDbPolyline
 90
        3
 70
     0
 43
0.0
 10
2094.223319066643
 20
-324.1390847432754
 10
2117.622888893483
 20
-283.6098409279314
 10
2162.665840819517
 20
-283.6098409279314
  0
TEXT
  5
9973
330
1E
100
AcDbEntity
  8
文字-記号
  6
Continuous
 62
     7
100
AcDbText
 10
2126.009313416243
 20
-281.7795596502426
 30
0.0
 40
6.205583999999999
  1
捨板貼り
100
AcDbText
  0
LWPOLYLINE
  5
9C0B
330
1E
100
AcDbEntity
  8
躯体と製品
  6
Continuous
 62
     4
100
AcDbPolyline
 90
        2
 70
     0
 43
0.0
 10
2095.966396135603
 20
-458.1390847434145
 42
0.3850636431294645
 10
2101.160342735564
 20
-458.1390847434146
  0
LWPOLYLINE
  5
9C0C
330
1E
100
AcDbEntity
  8
躯体と製品
  6
Continuous
 62
     4
100
AcDbPolyline
 90
        2
 70
     0
 43
0.0
 10
2080.384556335721
 20
-458.1390847434148
 42
0.3850636431294159
 10
2085.578502935683
 20
-458.1390847434148
  0
LWPOLYLINE
  5
9C0D
330
1E
100
AcDbEntity
  8
躯体と製品
  6
Continuous
 62
     4
100
AcDbPolyline
 90
        2
 70
     0
 43
0.0
 10
2085.578502935683
 20
-458.1390847434152
 42
0.1925318215646519
 10
2095.966396135603
 20
-458.1390847434152
  0
LWPOLYLINE
  5
9C0E
330
1E
100
AcDbEntity
  8
躯体と製品
  6
Continuous
 62
     4
100
AcDbPolyline
 90
        2
 70
     0
 43
0.0
 10
2082.981529635702
 20
-459.139084743415
 10
2098.563369435583
 20
-459.139084743415
  0
LWPOLYLINE
  5
9C0F
330
1E
100
AcDbEntity
  8
躯体と製品
  6
Continuous
 62
     4
100
AcDbPolyline
 90
        2
 70
     0
 43
0.0
 10
2070.722442535643
 20
-447.3390816916572
 10
2070.722442535643
 20
-449.6390847434151
  0
LWPOLYLINE
  5
9C10
330
1E
100
AcDbEntity
  8
躯体と製品
  6
Continuous
 62
     4
100
AcDbPolyline
 90
        2
 70
     0
 43
0.0
 10
2110.722441581968
 20
-447.3390816916572
 10
2110.722441581968
 20
-449.6390847434151
  0
LWPOLYLINE
  5
9C11
330
1E
100
AcDbEntity
  8
躯体と製品
  6
Continuous
 62
     4
100
AcDbPolyline
 90
        2
 70
     0
 43
0.0
 10
2070.722442535643
 20
-449.6390847434151
 10
2110.722441581968
 20
-449.6390847434151
  0
LWPOLYLINE
  5
9C12
330
1E
100
AcDbEntity
  8
躯体と製品
  6
Continuous
 62
     4
100
AcDbPolyline
 90
        2
 70
     0
 43
0.0
 10
2080.27207235745
 20
-449.6390847434151
 10
2080.27207235745
 20
-452.639084743415
  0
LWPOLYLINE
  5
9C13
330
1E
100
AcDbEntity
  8
躯体と製品
  6
Continuous
 62
     4
100
AcDbPolyline
 90
        2
 70
     0
 43
0.0
 10
2101.272826713834
 20
-449.6390847434151
 10
2101.272826713834
 20
-452.639084743415
  0
LWPOLYLINE
  5
9C14
330
1E
100
AcDbEntity
  8
躯体と製品
  6
Continuous
 62
     4
100
AcDbPolyline
 90
        2
 70
     0
 43
0.0
 10
2080.27207235745
 20
-452.639084743415
 10
2101.272826713834
 20
-452.639084743415
  0
LWPOLYLINE
  5
9C15
330
1E
100
AcDbEntity
  8
躯体と製品
  6
Continuous
 62
     4
100
AcDbPolyline
 90
        2
 70
     0
 43
0.0
 10
2091.756738704954
 20
-449.6390923728094
 10
2090.952888531004
 20
-452.6391076315983
  0
LWPOLYLINE
  5
9C16
330
1E
100
AcDbEntity
  8
躯体と製品
  6
Continuous
 62
     4
100
AcDbPolyline
 90
        2
 70
     0
 43
0.0
 10
2090.592010540281
 20
-449.6390771140206
 10
2089.788160366331
 20
-452.6390923728095
  0
LWPOLYLINE
  5
9C17
330
1E
100
AcDbEntity
  8
躯体と製品
  6
Continuous
 62
     4
100
AcDbPolyline
 90
        2
 70
     0
 43
0.0
 10
2096.722442058805
 20
-412.1391127432753
 10
2095.722442058805
 20
-411.1391127432752
  0
LWPOLYLINE
  5
9C18
330
1E
100
AcDbEntity
  8
躯体と製品
  6
Continuous
 62
     4
100
AcDbPolyline
 90
        2
 70
     0
 43
0.0
 10
2084.722442058806
 20
-412.1391127432753
 10
2085.722442058806
 20
-411.1391127432752
  0
LWPOLYLINE
  5
9C19
330
1E
100
AcDbEntity
  8
躯体と製品
  6
Continuous
 62
     3
100
AcDbPolyline
 90
        2
 70
     0
 43
0.0
 10
2084.722442058806
 20
-412.1391127432753
 10
2096.722442058805
 20
-412.1391127432753
  0
LWPOLYLINE
  5
9C1A
330
1E
100
AcDbEntity
  8
躯体と製品
  6
Continuous
 62
     4
100
AcDbPolyline
 90
        2
 70
     0
 43
0.0
 10
2085.722442058806
 20
-411.1391127432752
 10
2095.722442058805
 20
-411.1391127432752
  0
LWPOLYLINE
  5
9C1B
330
1E
100
AcDbEntity
  8
躯体と製品
  6
Continuous
 62
     4
100
AcDbPolyline
 90
        2
 70
     0
 43
0.0
 10
2096.722442058807
 20
-415.140146743276
 10
2096.722442058805
 20
-412.1391127432753
  0
LWPOLYLINE
  5
9C1C
330
1E
100
AcDbEntity
  8
躯体と製品
  6
Continuous
 62
     4
100
AcDbPolyline
 90
        2
 70
     0
 43
0.0
 10
2084.722442058806
 20
-415.140146743276
 10
2084.722442058806
 20
-412.1391127432748
  0
LWPOLYLINE
  5
9C1D
330
1E
100
AcDbEntity
  8
躯体と製品
  6
Continuous
 62
     3
100
AcDbPolyline
 90
        2
 70
     0
 43
0.0
 10
2095.722442058805
 20
-415.1401467432759
 10
2095.722442058805
 20
-411.1391127432752
  0
LWPOLYLINE
  5
9C1E
330
1E
100
AcDbEntity
  8
躯体と製品
  6
Continuous
 62
     3
100
AcDbPolyline
 90
        2
 70
     0
 43
0.0
 10
2085.722442058806
 20
-415.1401467432759
 10
2085.722442058806
 20
-411.1391127432752
  0
LWPOLYLINE
  5
9C1F
330
1E
100
AcDbEntity
  8
躯体と製品
  6
Continuous
 62
     4
100
AcDbPolyline
 90
        2
 70
     0
 43
0.0
 10
2070.722442058805
 20
-365.1390847432758
 10
2110.722442058805
 20
-365.1390847432758
  0
LWPOLYLINE
  5
9C20
330
1E
100
AcDbEntity
  8
躯体と製品
  6
Continuous
 62
     4
100
AcDbPolyline
 90
        2
 70
     0
 43
0.0
 10
2065.722442058806
 20
-363.1390847432758
 10
2070.722442058805
 20
-363.1390847432758
  0
LWPOLYLINE
  5
9C21
330
1E
100
AcDbEntity
  8
躯体と製品
  6
Continuous
 62
     4
100
AcDbPolyline
 90
        2
 70
     0
 43
0.0
 10
2070.722442058805
 20
-358.1390847432758
 10
2070.722442058805
 20
-365.1390847432758
  0
LWPOLYLINE
  5
9C22
330
1E
100
AcDbEntity
  8
躯体と製品
  6
Continuous
 62
     4
100
AcDbPolyline
 90
        2
 70
     0
 43
0.0
 10
2110.722442058805
 20
-363.1390847432758
 10
2115.722442058805
 20
-363.1390847432756
  0
LWPOLYLINE
  5
9C23
330
1E
100
AcDbEntity
  8
躯体と製品
  6
Continuous
 62
     4
100
AcDbPolyline
 90
        2
 70
     0
 43
0.0
 10
2110.722442058805
 20
-358.1390847432758
 10
2110.722442058805
 20
-365.1390847432758
  0
LWPOLYLINE
  5
9C24
330
1E
100
AcDbEntity
  8
躯体と製品
  6
Continuous
 62
     4
100
AcDbPolyline
 90
        2
 70
     0
 43
0.0
 10
2070.722442058805
 20
-358.1390847432758
 10
2110.722442058805
 20
-358.1390847432758
  0
LWPOLYLINE
  5
9C25
330
1E
100
AcDbEntity
  8
躯体と製品
  6
Continuous
 62
     3
100
AcDbPolyline
 90
        2
 70
     0
 43
0.0
 10
2065.722442416433
 20
-360.1380227432753
 10
2070.722442058805
 20
-360.1380227432758
  0
LWPOLYLINE
  5
9C26
330
1E
100
AcDbEntity
  8
躯体と製品
  6
Continuous
 62
     3
100
AcDbPolyline
 90
        2
 70
     0
 43
0.0
 10
2110.722442058805
 20
-360.1380227432755
 10
2115.722441701178
 20
-360.138022743276
  0
LWPOLYLINE
  5
9C27
330
1E
100
AcDbEntity
  8
躯体と製品
  6
Continuous
 62
     4
100
AcDbPolyline
 90
        2
 70
     0
 43
0.0
 10
2114.122442058805
 20
-370.6390847432758
 10
2114.122442058806
 20
-409.6390847432758
  0
LWPOLYLINE
  5
9C28
330
1E
100
AcDbEntity
  8
躯体と製品
  6
Continuous
 62
     4
100
AcDbPolyline
 90
        2
 70
     0
 43
0.0
 10
2110.222442058805
 20
-413.5390847432758
 10
2100.722442058806
 20
-413.5390847432758
  0
LWPOLYLINE
  5
9C29
330
1E
100
AcDbEntity
  8
躯体と製品
  6
Continuous
 62
     4
100
AcDbPolyline
 90
        2
 70
     0
 43
0.0
 10
2071.222442058806
 20
-366.7390847432758
 42
0.4142135623730951
 10
2067.322442058805
 20
-370.6390847432758
  0
LWPOLYLINE
  5
9C2A
330
1E
100
AcDbEntity
  8
躯体と製品
  6
Continuous
 62
     4
100
AcDbPolyline
 90
        2
 70
     0
 43
0.0
 10
2110.222442058805
 20
-366.7390847432762
 10
2071.222442058806
 20
-366.7390847432762
  0
LWPOLYLINE
  5
9C2B
330
1E
100
AcDbEntity
  8
躯体と製品
  6
Continuous
 62
     4
100
AcDbPolyline
 90
        2
 70
     0
 43
0.0
 10
2080.722442058805
 20
-413.5390847432758
 10
2080.722442058805
 20
-415.1390847432757
  0
LWPOLYLINE
  5
9C2C
330
1E
100
AcDbEntity
  8
躯体と製品
  6
Continuous
 62
     4
100
AcDbPolyline
 90
        2
 70
     0
 43
0.0
 10
2100.722442058806
 20
-415.1390847432757
 10
2100.722442058806
 20
-413.5390847432758
  0
LWPOLYLINE
  5
9C2D
330
1E
100
AcDbEntity
  8
躯体と製品
  6
Continuous
 62
     4
100
AcDbPolyline
 90
        2
 70
     0
 43
0.0
 10
2071.222442058806
 20
-365.1390847432758
 42
0.4142135623730951
 10
2065.722442058806
 20
-370.6390847432758
  0
LWPOLYLINE
  5
9C2E
330
1E
100
AcDbEntity
  8
躯体と製品
  6
Continuous
 62
     4
100
AcDbPolyline
 90
        2
 70
     0
 43
0.0
 10
2110.222442058805
 20
-365.1390847432758
 10
2071.222442058806
 20
-365.1390847432758
  0
LWPOLYLINE
  5
9C2F
330
1E
100
AcDbEntity
  8
躯体と製品
  6
Continuous
 62
     4
100
AcDbPolyline
 90
        2
 70
     0
 43
0.0
 10
2067.322442058806
 20
-409.6390847432758
 10
2067.322442058806
 20
-370.6390847432758
  0
LWPOLYLINE
  5
9C30
330
1E
100
AcDbEntity
  8
躯体と製品
  6
Continuous
 62
     4
100
AcDbPolyline
 90
        2
 70
     0
 43
0.0
 10
2071.222442058806
 20
-413.5390847432758
 10
2080.722442058805
 20
-413.5390847432758
  0
LWPOLYLINE
  5
9C31
330
1E
100
AcDbEntity
  8
躯体と製品
  6
Continuous
 62
     4
100
AcDbPolyline
 90
        2
 70
     0
 43
0.0
 10
2114.122442058806
 20
-370.6390847432758
 42
0.4142135623730951
 10
2110.222442058805
 20
-366.7390847432758
  0
LWPOLYLINE
  5
9C32
330
1E
100
AcDbEntity
  8
躯体と製品
  6
Continuous
 62
     4
100
AcDbPolyline
 90
        2
 70
     0
 43
0.0
 10
2115.722442058805
 20
-370.6390847432758
 42
0.4142135623730951
 10
2110.222442058805
 20
-365.1390847432758
  0
LWPOLYLINE
  5
9C33
330
1E
100
AcDbEntity
  8
躯体と製品
  6
Continuous
 62
     4
100
AcDbPolyline
 90
        2
 70
     0
 43
0.0
 10
2067.322442058805
 20
-409.6390847432758
 42
0.4142135623730951
 10
2071.222442058806
 20
-413.5390847432757
  0
LWPOLYLINE
  5
9C34
330
1E
100
AcDbEntity
  8
躯体と製品
  6
Continuous
 62
     4
100
AcDbPolyline
 90
        2
 70
     0
 43
0.0
 10
2065.722442058806
 20
-409.6390847432758
 42
0.4142135623730951
 10
2071.222442058806
 20
-415.1390847432757
  0
LWPOLYLINE
  5
9C35
330
1E
100
AcDbEntity
  8
躯体と製品
  6
Continuous
 62
     4
100
AcDbPolyline
 90
        2
 70
     0
 43
0.0
 10
2110.222442058805
 20
-413.5390847432757
 42
0.4142135623730951
 10
2114.122442058806
 20
-409.6390847432758
  0
LWPOLYLINE
  5
9C36
330
1E
100
AcDbEntity
  8
躯体と製品
  6
Continuous
 62
     4
100
AcDbPolyline
 90
        2
 70
     0
 43
0.0
 10
2110.222442058805
 20
-415.1390847432757
 42
0.4142135623730951
 10
2115.722442058805
 20
-409.6390847432758
  0
LWPOLYLINE
  5
9C37
330
1E
100
AcDbEntity
  8
躯体と製品
  6
Continuous
 62
     3
100
AcDbPolyline
 90
        2
 70
     0
 43
0.0
 10
2125.422641653494
 20
-360.2398764844868
 10
2125.422641653494
 20
-348.0382624844867
  0
LWPOLYLINE
  5
9C38
330
1E
100
AcDbEntity
  8
躯体と製品
  6
Continuous
 62
     3
100
AcDbPolyline
 90
        2
 70
     0
 43
0.0
 10
2125.422641653494
 20
-348.0382624844867
 10
2123.922441653494
 20
-348.0382624844867
  0
LWPOLYLINE
  5
9C39
330
1E
100
AcDbEntity
  8
躯体と製品
  6
Continuous
 62
     3
100
AcDbPolyline
 90
        2
 70
     0
 43
0.0
 10
2129.823223999532
 20
-351.6387384204123
 42
0.2275707722563266
 10
2130.423303653493
 20
-350.3885724844868
  0
LWPOLYLINE
  5
9C3A
330
1E
100
AcDbEntity
  8
躯体と製品
  6
Continuous
 62
     3
100
AcDbPolyline
 90
        2
 70
     0
 43
0.0
 10
2129.823222263711
 20
-356.6393992330923
 42
0.2400000040461867
 10
2129.823222263711
 20
-351.638737735881
  0
LWPOLYLINE
  5
9C3B
330
1E
100
AcDbEntity
  8
躯体と製品
  6
Continuous
 62
     3
100
AcDbPolyline
 90
        2
 70
     0
 43
0.0
 10
2130.423303653493
 20
-357.8895664844868
 42
0.2275707722563267
 10
2129.823223999532
 20
-356.6394005485613
  0
LWPOLYLINE
  5
9C3C
330
1E
100
AcDbEntity
  8
躯体と製品
  6
Continuous
 62
     3
100
AcDbPolyline
 90
        2
 70
     0
 43
0.0
 10
2130.423303653493
 20
-349.7634904844868
 10
2129.823223653494
 20
-349.1384064844867
  0
LWPOLYLINE
  5
9C3D
330
1E
100
AcDbEntity
  8
躯体と製品
  6
Continuous
 62
     3
100
AcDbPolyline
 90
        2
 70
     0
 43
0.0
 10
2130.423303653493
 20
-358.5146484844868
 10
2129.823223653494
 20
-359.1397324844868
  0
LWPOLYLINE
  5
9C3E
330
1E
100
AcDbEntity
  8
躯体と製品
  6
Continuous
 62
     3
100
AcDbPolyline
 90
        2
 70
     0
 43
0.0
 10
2129.823223653494
 20
-349.1384064844867
 10
2126.022721653494
 20
-349.1384064844867
  0
LWPOLYLINE
  5
9C3F
330
1E
100
AcDbEntity
  8
躯体と製品
  6
Continuous
 62
     3
100
AcDbPolyline
 90
        2
 70
     0
 43
0.0
 10
2129.823223653494
 20
-351.6387384844868
 10
2126.022721653494
 20
-351.6387384844868
  0
LWPOLYLINE
  5
9C40
330
1E
100
AcDbEntity
  8
躯体と製品
  6
Continuous
 62
     3
100
AcDbPolyline
 90
        2
 70
     0
 43
0.0
 10
2129.823223653494
 20
-356.6394004844867
 10
2126.022721653494
 20
-356.6394004844867
  0
LWPOLYLINE
  5
9C41
330
1E
100
AcDbEntity
  8
躯体と製品
  6
Continuous
 62
     3
100
AcDbPolyline
 90
        2
 70
     0
 43
0.0
 10
2129.823223653494
 20
-359.1397324844868
 10
2126.022721653494
 20
-359.1397324844868
  0
LWPOLYLINE
  5
9C42
330
1E
100
AcDbEntity
  8
躯体と製品
  6
Continuous
 62
     3
100
AcDbPolyline
 90
        2
 70
     0
 43
0.0
 10
2130.423303653493
 20
-358.5146484844868
 10
2130.423303653493
 20
-349.7634904844868
  0
LWPOLYLINE
  5
9C43
330
1E
100
AcDbEntity
  8
躯体と製品
  6
Continuous
 62
     3
100
AcDbPolyline
 90
        2
 70
     0
 43
0.0
 10
2130.423303653493
 20
-349.7634904844868
 10
2130.423303653493
 20
-358.5146484844868
  0
LWPOLYLINE
  5
9C44
330
1E
100
AcDbEntity
  8
躯体と製品
  6
Continuous
 62
     3
100
AcDbPolyline
 90
        2
 70
     0
 43
0.0
 10
2125.422641653493
 20
-350.3885724844868
 42
0.2275707722563266
 10
2126.022721307454
 20
-351.6387384204123
  0
LWPOLYLINE
  5
9C45
330
1E
100
AcDbEntity
  8
躯体と製品
  6
Continuous
 62
     3
100
AcDbPolyline
 90
        2
 70
     0
 43
0.0
 10
2126.022721043276
 20
-351.638737735881
 42
0.2400000040461864
 10
2126.022721043276
 20
-356.6393992330923
  0
LWPOLYLINE
  5
9C46
330
1E
100
AcDbEntity
  8
躯体と製品
  6
Continuous
 62
     3
100
AcDbPolyline
 90
        2
 70
     0
 43
0.0
 10
2126.022721307454
 20
-356.6394005485613
 42
0.2275707722563266
 10
2125.422641653493
 20
-357.8895664844868
  0
LWPOLYLINE
  5
9C47
330
1E
100
AcDbEntity
  8
躯体と製品
  6
Continuous
 62
     3
100
AcDbPolyline
 90
        2
 70
     0
 43
0.0
 10
2125.422641653494
 20
-349.7634904844868
 10
2126.022721653494
 20
-349.1384064844867
  0
LWPOLYLINE
  5
9C48
330
1E
100
AcDbEntity
  8
躯体と製品
  6
Continuous
 62
     3
100
AcDbPolyline
 90
        2
 70
     0
 43
0.0
 10
2125.422641653494
 20
-358.5146484844868
 10
2126.022721653494
 20
-359.1397324844868
  0
LWPOLYLINE
  5
9C49
330
1E
100
AcDbEntity
  8
躯体と製品
  6
Continuous
 62
     3
100
AcDbPolyline
 90
        2
 70
     0
 43
0.0
 10
2125.422641653494
 20
-358.5146484844868
 10
2125.422641653494
 20
-349.7634904844868
  0
LWPOLYLINE
  5
9C4A
330
1E
100
AcDbEntity
  8
躯体と製品
  6
Continuous
 62
     3
100
AcDbPolyline
 90
        2
 70
     0
 43
0.0
 10
2125.422641653494
 20
-349.7634904844868
 10
2125.422641653494
 20
-358.5146484844868
  0
LWPOLYLINE
  5
9C4B
330
1E
100
AcDbEntity
  8
躯体と製品
  6
Continuous
 62
     3
100
AcDbPolyline
 90
        2
 70
     0
 43
0.0
 10
2137.522442058806
 20
-351.1386724844868
 10
2137.522442058806
 20
-357.1394664844868
  0
LWPOLYLINE
  5
9C4C
330
1E
100
AcDbEntity
  8
躯体と製品
  6
Continuous
 62
     3
100
AcDbPolyline
 90
        2
 70
     0
 43
0.0
 10
2137.522442058806
 20
-357.1394664844868
 10
2130.423303653493
 20
-357.1394664844868
  0
LWPOLYLINE
  5
9C4D
330
1E
100
AcDbEntity
  8
躯体と製品
  6
Continuous
 62
     3
100
AcDbPolyline
 90
        2
 70
     0
 43
0.0
 10
2120.722441653494
 20
-357.1394664844868
 10
2114.522442058806
 20
-357.1394664844868
  0
LWPOLYLINE
  5
9C4E
330
1E
100
AcDbEntity
  8
躯体と製品
  6
Continuous
 62
     3
100
AcDbPolyline
 90
        2
 70
     0
 43
0.0
 10
2130.423303653493
 20
-351.1386724844868
 10
2137.522442058806
 20
-351.1386724844868
  0
LWPOLYLINE
  5
9C4F
330
1E
100
AcDbEntity
  8
躯体と製品
  6
Continuous
 62
     3
100
AcDbPolyline
 90
        2
 70
     0
 43
0.0
 10
2120.722441653494
 20
-351.1386724844868
 10
2114.522442058806
 20
-351.1386724844868
  0
LWPOLYLINE
  5
9C50
330
1E
100
AcDbEntity
  8
躯体と製品
  6
Continuous
 62
     3
100
AcDbPolyline
 90
        2
 70
     0
 43
0.0
 10
2130.423303653493
 20
-356.6394004844867
 10
2137.522442058806
 20
-356.6394004844867
  0
LWPOLYLINE
  5
9C51
330
1E
100
AcDbEntity
  8
躯体と製品
  6
Continuous
 62
     3
100
AcDbPolyline
 90
        2
 70
     0
 43
0.0
 10
2060.722442416433
 20
-356.6394004844867
 10
2120.722441653494
 20
-356.6394004844867
  0
LWPOLYLINE
  5
9C52
330
1E
100
AcDbEntity
  8
躯体と製品
  6
Continuous
 62
     3
100
AcDbPolyline
 90
        2
 70
     0
 43
0.0
 10
2130.423303653493
 20
-351.6387384844868
 10
2137.522442058806
 20
-351.6387384844868
  0
LWPOLYLINE
  5
9C53
330
1E
100
AcDbEntity
  8
躯体と製品
  6
Continuous
 62
     3
100
AcDbPolyline
 90
        2
 70
     0
 43
0.0
 10
2060.722442416433
 20
-351.6387384844868
 10
2120.722441653494
 20
-351.6387384844868
  0
LWPOLYLINE
  5
9C54
330
1E
100
AcDbEntity
  8
躯体と製品
  6
Continuous
 62
     3
100
AcDbPolyline
 90
        2
 70
     0
 43
0.0
 10
2057.522441653494
 20
-348.8883744844868
 10
2056.522309653494
 20
-348.8883744844868
  0
LWPOLYLINE
  5
9C55
330
1E
100
AcDbEntity
  8
躯体と製品
  6
Continuous
 62
     3
100
AcDbPolyline
 90
        2
 70
     0
 43
0.0
 10
2056.522309653494
 20
-348.8883744844867
 42
0.4142135623730951
 10
2053.521911653493
 20
-351.8887724844867
  0
LWPOLYLINE
  5
9C56
330
1E
100
AcDbEntity
  8
躯体と製品
  6
Continuous
 62
     3
100
AcDbPolyline
 90
        2
 70
     0
 43
0.0
 10
2053.521913653494
 20
-351.8887724844867
 10
2053.521913653494
 20
-356.3893664844868
  0
LWPOLYLINE
  5
9C57
330
1E
100
AcDbEntity
  8
躯体と製品
  6
Continuous
 62
     3
100
AcDbPolyline
 90
        2
 70
     0
 43
0.0
 10
2053.521911653493
 20
-356.3893664844868
 42
0.4244472754995579
 10
2056.626742131264
 20
-359.3879464844186
  0
LWPOLYLINE
  5
9C58
330
1E
100
AcDbEntity
  8
躯体と製品
  6
Continuous
 62
     3
100
AcDbPolyline
 90
        2
 70
     0
 43
0.0
 10
2114.522442058806
 20
-351.1386724844868
 10
2114.022376058806
 20
-351.6387384844868
  0
LWPOLYLINE
  5
9C59
330
1E
100
AcDbEntity
  8
躯体と製品
  6
Continuous
 62
     3
100
AcDbPolyline
 90
        2
 70
     0
 43
0.0
 10
2114.522442058806
 20
-357.1394664844868
 10
2114.022376058806
 20
-356.6394004844867
  0
LWPOLYLINE
  5
9C5A
330
1E
100
AcDbEntity
  8
躯体と製品
  6
Continuous
 62
     3
100
AcDbPolyline
 90
        2
 70
     0
 43
0.0
 10
2114.522442058806
 20
-357.1394664844868
 10
2114.522442058806
 20
-351.1386724844868
  0
LWPOLYLINE
  5
9C5B
330
1E
100
AcDbEntity
  8
躯体と製品
  6
Continuous
 62
     3
100
AcDbPolyline
 90
        2
 70
     0
 43
0.0
 10
2125.422641653494
 20
-348.0382624844867
 10
2123.922441653494
 20
-348.0382624844867
  0
LWPOLYLINE
  5
9C5C
330
1E
100
AcDbEntity
  8
躯体と製品
  6
Continuous
 62
     3
100
AcDbPolyline
 90
        2
 70
     0
 43
0.0
 10
2125.422641653494
 20
-360.2398764844868
 10
2123.922441653494
 20
-360.2398764844868
  0
LWPOLYLINE
  5
9C5D
330
1E
100
AcDbEntity
  8
躯体と製品
  6
Continuous
 62
     3
100
AcDbPolyline
 90
        2
 70
     0
 43
0.0
 10
2057.522441653494
 20
-359.3879464844868
 10
2056.626742131266
 20
-359.3879464844868
  0
LWPOLYLINE
  5
9C5E
330
1E
100
AcDbEntity
  8
0
  6
Continuous
 62
     4
100
AcDbPolyline
 90
        2
 70
     0
 43
0.0
 10
2118.722441613755
 20
-444.1390847432757
 42
0.4142135751758164
 10
2120.722441701178
 20
-442.1390847432758
  0
LWPOLYLINE
  5
9C5F
330
1E
100
AcDbEntity
  8
0
  6
Continuous
 62
     4
100
AcDbPolyline
 90
        2
 70
     0
 43
0.0
 10
2057.522442607168
 20
-442.1390842886773
 42
0.4142135751759163
 10
2062.722442189135
 20
-447.3390845525409
  0
LWPOLYLINE
  5
9C60
330
1E
100
AcDbEntity
  8
0
  6
Continuous
 62
     4
100
AcDbPolyline
 90
        2
 70
     0
 43
0.0
 10
2060.722442416433
 20
-442.1390845684302
 42
0.4142135751759163
 10
2062.722442329011
 20
-444.1390847432757
  0
LWPOLYLINE
  5
9C61
330
1E
100
AcDbEntity
  8
0
  6
Continuous
 62
     4
100
AcDbPolyline
 90
        2
 70
     0
 43
0.0
 10
2118.722441473879
 20
-447.3390845525409
 42
0.4142135751758164
 10
2123.922441510443
 20
-442.1390847432758
  0
LWPOLYLINE
  5
9C62
330
1E
100
AcDbEntity
  8
0
  6
Continuous
 62
     4
100
AcDbPolyline
 90
        2
 70
     0
 43
0.0
 10
2120.722441462759
 20
-345.1390694844868
 10
2120.722441462759
 20
-442.1390847432758
  0
LWPOLYLINE
  5
9C63
330
1E
100
AcDbEntity
  8
0
  6
Continuous
 62
     4
100
AcDbPolyline
 90
        2
 70
     0
 43
0.0
 10
2123.922441272024
 20
-345.1390694844868
 10
2123.922441272024
 20
-442.1390847432758
  0
LWPOLYLINE
  5
9C64
330
1E
100
AcDbEntity
  8
0
  6
Continuous
 62
     4
100
AcDbPolyline
 90
        2
 70
     0
 43
0.0
 10
2065.722442416433
 20
-415.1390847432757
 10
2115.722441701178
 20
-415.1390847432757
  0
LWPOLYLINE
  5
9C65
330
1E
100
AcDbEntity
  8
0
  6
Continuous
 62
     4
100
AcDbPolyline
 90
        2
 70
     0
 43
0.0
 10
2060.722442416433
 20
-345.1390694844868
 10
2057.522441653494
 20
-345.1390694844868
  0
LWPOLYLINE
  5
9C66
330
1E
100
AcDbEntity
  8
0
  6
Continuous
 62
     4
100
AcDbPolyline
 90
        2
 70
     0
 43
0.0
 10
2062.722442416433
 20
-444.1390847432757
 10
2118.722441701178
 20
-444.1390847432757
  0
LWPOLYLINE
  5
9C67
330
1E
100
AcDbEntity
  8
0
  6
Continuous
 62
     4
100
AcDbPolyline
 90
        2
 70
     0
 43
0.0
 10
2065.722442416433
 20
-358.6390694844868
 10
2060.722442416433
 20
-358.6390694844868
  0
LWPOLYLINE
  5
9C68
330
1E
100
AcDbEntity
  8
0
  6
Continuous
 62
     4
100
AcDbPolyline
 90
        2
 70
     0
 43
0.0
 10
2120.722441462759
 20
-345.1390694844868
 10
2123.922441272024
 20
-345.1390694844868
  0
LWPOLYLINE
  5
9C69
330
1E
100
AcDbEntity
  8
0
  6
Continuous
 62
     4
100
AcDbPolyline
 90
        2
 70
     0
 43
0.0
 10
2115.722441701178
 20
-358.6390694844868
 10
2120.722441462759
 20
-358.6390694844868
  0
LWPOLYLINE
  5
9C6A
330
1E
100
AcDbEntity
  8
0
  6
Continuous
 62
     4
100
AcDbPolyline
 90
        2
 70
     0
 43
0.0
 10
2057.522441653494
 20
-345.1390694844868
 10
2057.522441653494
 20
-442.1390847432758
  0
LWPOLYLINE
  5
9C6B
330
1E
100
AcDbEntity
  8
0
  6
Continuous
 62
     4
100
AcDbPolyline
 90
        2
 70
     0
 43
0.0
 10
2115.722441701178
 20
-358.6390694844868
 10
2115.722441701178
 20
-415.1390847432757
  0
LWPOLYLINE
  5
9C6C
330
1E
100
AcDbEntity
  8
0
  6
Continuous
 62
     4
100
AcDbPolyline
 90
        2
 70
     0
 43
0.0
 10
2060.722442416433
 20
-345.1390694844868
 10
2060.722442416433
 20
-442.1390847432758
  0
LWPOLYLINE
  5
9C6D
330
1E
100
AcDbEntity
  8
0
  6
Continuous
 62
     4
100
AcDbPolyline
 90
        2
 70
     0
 43
0.0
 10
2065.722442416433
 20
-358.6390694844868
 10
2065.722442416433
 20
-415.1390847432757
  0
LWPOLYLINE
  5
9C6E
330
1E
100
AcDbEntity
  8
0
  6
Continuous
 62
     4
100
AcDbPolyline
 90
        2
 70
     0
 43
0.0
 10
2062.716987636017
 20
-447.339081691518
 10
2118.722441701178
 20
-447.339081691518
  0
LWPOLYLINE
  5
9CD3
330
1E
100
AcDbEntity
  8
躯体と製品
  6
Continuous
 62
     4
100
AcDbPolyline
 90
        2
 70
     0
 43
0.0
 10
2475.818804058806
 20
-510.1391127432755
 10
2474.818804058806
 20
-511.1391127432752
  0
LWPOLYLINE
  5
9CD4
330
1E
100
AcDbEntity
  8
躯体と製品
  6
Continuous
 62
     4
100
AcDbPolyline
 90
        2
 70
     0
 43
0.0
 10
2463.818804058806
 20
-510.1391127432755
 10
2464.818804058806
 20
-511.1391127432752
  0
LWPOLYLINE
  5
9CD5
330
1E
100
AcDbEntity
  8
躯体と製品
  6
Continuous
 62
     3
100
AcDbPolyline
 90
        2
 70
     0
 43
0.0
 10
2463.818804058806
 20
-510.1391127432755
 10
2475.818804058806
 20
-510.1391127432752
  0
LWPOLYLINE
  5
9CD6
330
1E
100
AcDbEntity
  8
躯体と製品
  6
Continuous
 62
     4
100
AcDbPolyline
 90
        2
 70
     0
 43
0.0
 10
2443.818804058806
 20
-478.8391096915175
 10
2443.818804058806
 20
-481.1391127432752
  0
LWPOLYLINE
  5
9CD7
330
1E
100
AcDbEntity
  8
躯体と製品
  6
Continuous
 62
     4
100
AcDbPolyline
 90
        2
 70
     0
 43
0.0
 10
2495.81880334355
 20
-478.8391096915175
 10
2495.81880334355
 20
-481.1391127432752
  0
LWPOLYLINE
  5
9CD8
330
1E
100
AcDbEntity
  8
躯体と製品
  6
Continuous
 62
     4
100
AcDbPolyline
 90
        2
 70
     0
 43
0.0
 10
2443.818804058806
 20
-478.8391096915175
 10
2495.81880334355
 20
-478.8391096915175
  0
LWPOLYLINE
  5
9CD9
330
1E
100
AcDbEntity
  8
躯体と製品
  6
Continuous
 62
     4
100
AcDbPolyline
 90
        2
 70
     0
 43
0.0
 10
2464.818804058806
 20
-511.1391127432752
 10
2474.818804058806
 20
-511.1391127432752
  0
LWPOLYLINE
  5
9CDA
330
1E
100
AcDbEntity
  8
躯体と製品
  6
Continuous
 62
     4
100
AcDbPolyline
 90
        2
 70
     0
 43
0.0
 10
2475.818804058806
 20
-481.1391127432752
 10
2475.818804058806
 20
-510.1391127432752
  0
LWPOLYLINE
  5
9CDB
330
1E
100
AcDbEntity
  8
躯体と製品
  6
Continuous
 62
     4
100
AcDbPolyline
 90
        2
 70
     0
 43
0.0
 10
2463.818804058806
 20
-481.1391127432752
 10
2463.818804058806
 20
-510.1391127432757
  0
LWPOLYLINE
  5
9CDC
330
1E
100
AcDbEntity
  8
躯体と製品
  6
Continuous
 62
     3
100
AcDbPolyline
 90
        2
 70
     0
 43
0.0
 10
2474.818804058806
 20
-481.1391127432752
 10
2474.818804058806
 20
-511.1391127432752
  0
LWPOLYLINE
  5
9CDD
330
1E
100
AcDbEntity
  8
躯体と製品
  6
Continuous
 62
     3
100
AcDbPolyline
 90
        2
 70
     0
 43
0.0
 10
2464.818804058806
 20
-481.1391127432752
 10
2464.818804058806
 20
-511.1391127432752
  0
LWPOLYLINE
  5
9CDE
330
1E
100
AcDbEntity
  8
躯体と製品
  6
Continuous
 62
     4
100
AcDbPolyline
 90
        2
 70
     0
 43
0.0
 10
2479.568952058806
 20
-516.1393107432752
 10
2460.068656058806
 20
-516.1393107432752
  0
LWPOLYLINE
  5
9CDF
330
1E
100
AcDbEntity
  8
躯体と製品
  6
Continuous
 62
     4
100
AcDbPolyline
 90
        2
 70
     0
 43
0.0
 10
2479.568952058806
 20
-481.1391127432752
 10
2479.568952058806
 20
-516.1393107432752
  0
LWPOLYLINE
  5
9CE0
330
1E
100
AcDbEntity
  8
躯体と製品
  6
Continuous
 62
     4
100
AcDbPolyline
 90
        2
 70
     0
 43
0.0
 10
2460.068656058806
 20
-481.1391127432752
 10
2460.068656058806
 20
-516.1393107432752
  0
LWPOLYLINE
  5
9CE1
330
1E
100
AcDbEntity
  8
躯体と製品
  6
Continuous
 62
     4
100
AcDbPolyline
 90
        2
 70
     0
 43
0.0
 10
2096.722442058805
 20
-510.1391127432755
 10
2095.722442058805
 20
-511.1391127432752
  0
LWPOLYLINE
  5
9CE2
330
1E
100
AcDbEntity
  8
躯体と製品
  6
Continuous
 62
     4
100
AcDbPolyline
 90
        2
 70
     0
 43
0.0
 10
2084.722442058806
 20
-510.1391127432755
 10
2085.722442058806
 20
-511.1391127432752
  0
LWPOLYLINE
  5
9CE3
330
1E
100
AcDbEntity
  8
躯体と製品
  6
Continuous
 62
     3
100
AcDbPolyline
 90
        2
 70
     0
 43
0.0
 10
2084.722442058806
 20
-510.1391127432755
 10
2096.722442058805
 20
-510.1391127432752
  0
LWPOLYLINE
  5
9CE4
330
1E
100
AcDbEntity
  8
躯体と製品
  6
Continuous
 62
     4
100
AcDbPolyline
 90
        2
 70
     0
 43
0.0
 10
2064.722442058806
 20
-478.8391096915175
 10
2064.722442058806
 20
-481.1391127432752
  0
LWPOLYLINE
  5
9CE5
330
1E
100
AcDbEntity
  8
躯体と製品
  6
Continuous
 62
     4
100
AcDbPolyline
 90
        2
 70
     0
 43
0.0
 10
2116.72244134355
 20
-478.8391096915175
 10
2116.72244134355
 20
-481.1391127432752
  0
LWPOLYLINE
  5
9CE6
330
1E
100
AcDbEntity
  8
躯体と製品
  6
Continuous
 62
     4
100
AcDbPolyline
 90
        2
 70
     0
 43
0.0
 10
2064.722442058806
 20
-478.8391096915175
 10
2116.72244134355
 20
-478.8391096915175
  0
LWPOLYLINE
  5
9CE7
330
1E
100
AcDbEntity
  8
躯体と製品
  6
Continuous
 62
     4
100
AcDbPolyline
 90
        2
 70
     0
 43
0.0
 10
2085.722442058806
 20
-511.1391127432752
 10
2095.722442058805
 20
-511.1391127432752
  0
LWPOLYLINE
  5
9CE8
330
1E
100
AcDbEntity
  8
躯体と製品
  6
Continuous
 62
     4
100
AcDbPolyline
 90
        2
 70
     0
 43
0.0
 10
2096.722442058805
 20
-481.1391127432752
 10
2096.722442058805
 20
-510.1391127432752
  0
LWPOLYLINE
  5
9CE9
330
1E
100
AcDbEntity
  8
躯体と製品
  6
Continuous
 62
     4
100
AcDbPolyline
 90
        2
 70
     0
 43
0.0
 10
2084.722442058806
 20
-481.1391127432752
 10
2084.722442058806
 20
-510.1391127432757
  0
LWPOLYLINE
  5
9CEA
330
1E
100
AcDbEntity
  8
躯体と製品
  6
Continuous
 62
     3
100
AcDbPolyline
 90
        2
 70
     0
 43
0.0
 10
2095.722442058805
 20
-481.1391127432752
 10
2095.722442058805
 20
-511.1391127432752
  0
LWPOLYLINE
  5
9CEB
330
1E
100
AcDbEntity
  8
躯体と製品
  6
Continuous
 62
     3
100
AcDbPolyline
 90
        2
 70
     0
 43
0.0
 10
2085.722442058806
 20
-481.1391127432752
 10
2085.722442058806
 20
-511.1391127432752
  0
LWPOLYLINE
  5
9CEC
330
1E
100
AcDbEntity
  8
躯体と製品
  6
Continuous
 62
     4
100
AcDbPolyline
 90
        2
 70
     0
 43
0.0
 10
2100.472590058806
 20
-516.1393107432752
 10
2080.972294058805
 20
-516.1393107432752
  0
LWPOLYLINE
  5
9CED
330
1E
100
AcDbEntity
  8
躯体と製品
  6
Continuous
 62
     4
100
AcDbPolyline
 90
        2
 70
     0
 43
0.0
 10
2100.472590058806
 20
-481.1391127432752
 10
2100.472590058806
 20
-516.1393107432752
  0
LWPOLYLINE
  5
9CEE
330
1E
100
AcDbEntity
  8
躯体と製品
  6
Continuous
 62
     4
100
AcDbPolyline
 90
        2
 70
     0
 43
0.0
 10
2080.972294058805
 20
-481.1391127432752
 10
2080.972294058805
 20
-516.1393107432752
  0
LWPOLYLINE
  5
9CEF
330
1E
100
AcDbEntity
  8
躯体と製品
  6
Continuous
 62
     3
100
AcDbPolyline
 90
        2
 70
     0
 43
0.0
 10
2225.722442058806
 20
-314.1391247432756
 10
2225.722442058806
 20
-319.1390847432754
  0
LWPOLYLINE
  5
9CF0
330
1E
100
AcDbEntity
  8
躯体と製品
  6
Continuous
 62
     3
100
AcDbPolyline
 90
        2
 70
     0
 43
0.0
 10
2225.722444058805
 20
-314.1391247432756
 42
0.4142135623730951
 10
2224.722404058805
 20
-313.1390847432755
  0
LWPOLYLINE
  5
9CF1
330
1E
100
AcDbEntity
  8
躯体と製品
  6
Continuous
 62
     3
100
AcDbPolyline
 90
        2
 70
     0
 43
0.0
 10
2224.722404058805
 20
-313.1390847432754
 10
2216.722088058806
 20
-313.1390847432754
  0
LWPOLYLINE
  5
9CF2
330
1E
100
AcDbEntity
  8
躯体と製品
  6
Continuous
 62
     3
100
AcDbPolyline
 90
        2
 70
     0
 43
0.0
 10
2225.722442058806
 20
-306.1390467432756
 10
2225.722442058806
 20
-301.1390847432755
  0
LWPOLYLINE
  5
9CF3
330
1E
100
AcDbEntity
  8
躯体と製品
  6
Continuous
 62
     3
100
AcDbPolyline
 90
        2
 70
     0
 43
0.0
 10
2224.722404058805
 20
-307.1390867432756
 42
0.4142135623730951
 10
2225.722444058805
 20
-306.1390467432756
  0
LWPOLYLINE
  5
9CF4
330
1E
100
AcDbEntity
  8
躯体と製品
  6
Continuous
 62
     3
100
AcDbPolyline
 90
        2
 70
     0
 43
0.0
 10
2224.722404058805
 20
-307.1390847432756
 10
2216.722088058806
 20
-307.1390847432756
  0
LWPOLYLINE
  5
9CF5
330
1E
100
AcDbEntity
  8
躯体と製品
  6
Continuous
 62
     3
100
AcDbPolyline
 90
        2
 70
     0
 43
0.0
 10
2216.722088058806
 20
-307.1390847432754
 42
0.4142135623730951
 10
2215.722048058806
 20
-308.1391247432754
  0
LWPOLYLINE
  5
9CF6
330
1E
100
AcDbEntity
  8
躯体と製品
  6
Continuous
 62
     3
100
AcDbPolyline
 90
        2
 70
     0
 43
0.0
 10
2215.722050058806
 20
-308.1391247432754
 10
2215.722050058806
 20
-312.1390447432755
  0
LWPOLYLINE
  5
9CF7
330
1E
100
AcDbEntity
  8
躯体と製品
  6
Continuous
 62
     3
100
AcDbPolyline
 90
        2
 70
     0
 43
0.0
 10
2215.722048058806
 20
-312.1390447432755
 42
0.4142135623730951
 10
2216.722088058806
 20
-313.1390847432755
  0
LWPOLYLINE
  5
9CF8
330
1E
100
AcDbEntity
  8
躯体と製品
  6
Continuous
 62
     3
100
AcDbPolyline
 90
        2
 70
     0
 43
0.0
 10
1955.722437058806
 20
-314.1391247432756
 10
1955.722437058806
 20
-319.1390847432754
  0
LWPOLYLINE
  5
9CF9
330
1E
100
AcDbEntity
  8
躯体と製品
  6
Continuous
 62
     3
100
AcDbPolyline
 90
        2
 70
     0
 43
0.0
 10
1955.722439058806
 20
-314.1391247432756
 42
0.4142135623730951
 10
1954.722399058806
 20
-313.1390847432755
  0
LWPOLYLINE
  5
9CFA
330
1E
100
AcDbEntity
  8
躯体と製品
  6
Continuous
 62
     3
100
AcDbPolyline
 90
        2
 70
     0
 43
0.0
 10
1954.722399058806
 20
-313.1390847432754
 10
1946.722083058806
 20
-313.1390847432754
  0
LWPOLYLINE
  5
9CFB
330
1E
100
AcDbEntity
  8
躯体と製品
  6
Continuous
 62
     3
100
AcDbPolyline
 90
        2
 70
     0
 43
0.0
 10
1955.722437058806
 20
-306.1390467432756
 10
1955.722437058806
 20
-301.1390847432755
  0
LWPOLYLINE
  5
9CFC
330
1E
100
AcDbEntity
  8
躯体と製品
  6
Continuous
 62
     3
100
AcDbPolyline
 90
        2
 70
     0
 43
0.0
 10
1954.722399058806
 20
-307.1390867432756
 42
0.4142135623730951
 10
1955.722439058806
 20
-306.1390467432756
  0
LWPOLYLINE
  5
9CFD
330
1E
100
AcDbEntity
  8
躯体と製品
  6
Continuous
 62
     3
100
AcDbPolyline
 90
        2
 70
     0
 43
0.0
 10
1954.722399058806
 20
-307.1390847432756
 10
1946.722083058806
 20
-307.1390847432756
  0
LWPOLYLINE
  5
9CFE
330
1E
100
AcDbEntity
  8
躯体と製品
  6
Continuous
 62
     3
100
AcDbPolyline
 90
        2
 70
     0
 43
0.0
 10
1946.722083058806
 20
-307.1390847432754
 42
0.4142135623730951
 10
1945.722043058806
 20
-308.1391247432754
  0
LWPOLYLINE
  5
9CFF
330
1E
100
AcDbEntity
  8
躯体と製品
  6
Continuous
 62
     3
100
AcDbPolyline
 90
        2
 70
     0
 43
0.0
 10
1945.722045058806
 20
-308.1391247432754
 10
1945.722045058806
 20
-312.1390447432755
  0
LWPOLYLINE
  5
9D00
330
1E
100
AcDbEntity
  8
躯体と製品
  6
Continuous
 62
     3
100
AcDbPolyline
 90
        2
 70
     0
 43
0.0
 10
1945.722043058806
 20
-312.1390447432755
 42
0.4142135623730951
 10
1946.722083058806
 20
-313.1390847432755
  0
LWPOLYLINE
  5
9D01
330
1E
100
AcDbEntity
  8
躯体と製品
  6
Continuous
 62
     3
100
AcDbPolyline
 90
        2
 70
     0
 43
0.0
 10
2085.722442058806
 20
-459.139084743415
 10
2085.722442058806
 20
-478.8391096915175
  0
LWPOLYLINE
  5
9D02
330
1E
100
AcDbEntity
  8
躯体と製品
  6
Continuous
 62
     3
100
AcDbPolyline
 90
        2
 70
     0
 43
0.0
 10
2095.722442058806
 20
-459.139084743415
 10
2095.722442058804
 20
-478.8391096915175
  0
LWPOLYLINE
  5
9D03
330
1E
100
AcDbEntity
  8
躯体と製品
  6
Continuous
 62
     4
100
AcDbPolyline
 90
        2
 70
     0
 43
0.0
 10
2084.722442058806
 20
-459.139084743415
 10
2084.722442058806
 20
-478.8391096915175
  0
LWPOLYLINE
  5
9D04
330
1E
100
AcDbEntity
  8
躯体と製品
  6
Continuous
 62
     4
100
AcDbPolyline
 90
        2
 70
     0
 43
0.0
 10
2096.722442058807
 20
-459.139084743415
 10
2096.722442058805
 20
-478.8391096915175
  0
LWPOLYLINE
  5
9D05
330
1E
100
AcDbEntity
  8
躯体と製品
  6
Continuous
 62
     4
100
AcDbPolyline
 90
        2
 70
     0
 43
0.0
 10
2449.818804058806
 20
-447.3391096916571
 10
2449.818804058806
 20
-449.639112743415
  0
LWPOLYLINE
  5
9D06
330
1E
100
AcDbEntity
  8
躯体と製品
  6
Continuous
 62
     4
100
AcDbPolyline
 90
        2
 70
     0
 43
0.0
 10
2489.818803105132
 20
-447.3391096916571
 10
2489.818803105132
 20
-449.639112743415
  0
LWPOLYLINE
  5
9D07
330
1E
100
AcDbEntity
  8
躯体と製品
  6
Continuous
 62
     4
100
AcDbPolyline
 90
        2
 70
     0
 43
0.0
 10
2449.818804058806
 20
-449.639112743415
 10
2489.818803105132
 20
-449.639112743415
  0
LWPOLYLINE
  5
9D08
330
1E
100
AcDbEntity
  8
躯体と製品
  6
Continuous
 62
     4
100
AcDbPolyline
 90
        2
 70
     0
 43
0.0
 10
2459.368433880614
 20
-449.639112743415
 10
2459.368433880614
 20
-452.639112743415
  0
LWPOLYLINE
  5
9D09
330
1E
100
AcDbEntity
  8
躯体と製品
  6
Continuous
 62
     4
100
AcDbPolyline
 90
        2
 70
     0
 43
0.0
 10
2480.369188236998
 20
-449.639112743415
 10
2480.369188236998
 20
-452.639112743415
  0
LWPOLYLINE
  5
9D0A
330
1E
100
AcDbEntity
  8
躯体と製品
  6
Continuous
 62
     4
100
AcDbPolyline
 90
        2
 70
     0
 43
0.0
 10
2459.368433880614
 20
-452.639112743415
 10
2480.369188236998
 20
-452.639112743415
  0
LWPOLYLINE
  5
9D0B
330
1E
100
AcDbEntity
  8
躯体と製品
  6
Continuous
 62
     4
100
AcDbPolyline
 90
        2
 70
     0
 43
0.0
 10
2469.818804058805
 20
-458.1391127434129
 42
0.2223165980163059
 10
2478.814983461738
 20
-458.1391127434129
  0
LWPOLYLINE
  5
9D0C
330
1E
100
AcDbEntity
  8
躯体と製品
  6
Continuous
 62
     4
100
AcDbPolyline
 90
        2
 70
     0
 43
0.0
 10
2460.822624655874
 20
-458.1391127434129
 42
0.2223165980162653
 10
2469.818804058805
 20
-458.1391127434137
  0
LWPOLYLINE
  5
9D0D
330
1E
100
AcDbEntity
  8
躯体と製品
  6
Continuous
 62
     3
100
AcDbPolyline
 90
        2
 70
     0
 43
0.0
 10
2571.224650058806
 20
-481.1390847432753
 10
2546.432860058806
 20
-505.9308747432753
  0
LWPOLYLINE
  5
9D0E
330
1E
100
AcDbEntity
  8
躯体と製品
  6
Continuous
 62
     3
100
AcDbPolyline
 90
        2
 70
     0
 43
0.0
 10
2542.936516058806
 20
-481.1390847432753
 10
2518.144726058806
 20
-505.9308747432753
  0
LWPOLYLINE
  5
9D0F
330
1E
100
AcDbEntity
  8
躯体と製品
  6
Continuous
 62
     3
100
AcDbPolyline
 90
        2
 70
     0
 43
0.0
 10
2557.080582058806
 20
-481.1390847432753
 10
2532.288792058805
 20
-505.9308747432753
  0
LWPOLYLINE
  5
9D10
330
1E
100
AcDbEntity
  8
躯体と製品
  6
Continuous
 62
     3
100
AcDbPolyline
 90
        2
 70
     0
 43
0.0
 10
2597.719042058806
 20
-329.1390847432755
 10
2263.721232058806
 20
-329.1390847432755
  0
LWPOLYLINE
  5
9D11
330
1E
100
AcDbEntity
  8
躯体と製品
  6
Continuous
 62
     3
100
AcDbPolyline
 90
        2
 70
     0
 43
0.0
 10
2597.719042058806
 20
-324.1390847432755
 10
2263.721232058806
 20
-324.1390847432755
  0
LWPOLYLINE
  5
9D12
330
1E
100
AcDbEntity
  8
躯体と製品
  6
Continuous
 62
     4
100
AcDbPolyline
 90
        2
 70
     0
 43
0.0
 10
2597.719042058806
 20
-319.1390847432755
 10
2263.721232058806
 20
-319.1390847432755
  0
LWPOLYLINE
  5
9D13
330
1E
100
AcDbEntity
  8
躯体と製品
  6
Continuous
 62
     4
100
AcDbPolyline
 90
        2
 70
     0
 43
0.0
 10
2597.719042058806
 20
-301.1390847432755
 10
2263.721232058806
 20
-301.1390847432755
  0
LWPOLYLINE
  5
9D14
330
1E
100
AcDbEntity
  8
躯体と製品
  6
Continuous
 62
     4
100
AcDbPolyline
 90
        2
 70
     0
 43
0.0
 10
2597.719042058806
 20
-334.1390847432756
 10
2263.721232058806
 20
-334.1390847432756
  0
LWPOLYLINE
  5
9D15
330
1E
100
AcDbEntity
  8
躯体と製品
  6
Continuous
 62
     4
100
AcDbPolyline
 90
        2
 70
     0
 43
0.0
 10
2597.719039222328
 20
-365.1390847432755
 10
2494.818804058806
 20
-365.1390847432755
  0
LWPOLYLINE
  5
9D16
330
1E
100
AcDbEntity
  8
躯体と製品
  6
PLINE2
 62
     3
100
AcDbPolyline
 90
        2
 70
     0
 43
0.0
 10
2597.719042058806
 20
-366.7390847432756
 10
2494.818908058807
 20
-366.7390847432756
  0
LWPOLYLINE
  5
9D17
330
1E
100
AcDbEntity
  8
躯体と製品
  6
Continuous
 62
     4
100
AcDbPolyline
 90
        2
 70
     0
 43
0.0
 10
2597.719042058806
 20
-415.1390847432755
 10
2494.818804058806
 20
-415.1390847432755
  0
LWPOLYLINE
  5
9D18
330
1E
100
AcDbEntity
  8
躯体と製品
  6
PLINE2
 62
     3
100
AcDbPolyline
 90
        2
 70
     0
 43
0.0
 10
2597.719042058806
 20
-413.5390847432755
 10
2494.818908058807
 20
-413.5390847432755
  0
LWPOLYLINE
  5
9D19
330
1E
100
AcDbEntity
  8
躯体と製品
  6
Continuous
 62
     3
100
AcDbPolyline
 90
        2
 70
     0
 43
0.0
 10
2464.818804058806
 20
-459.1272417354241
 10
2464.818804058806
 20
-478.8391096915175
  0
LWPOLYLINE
  5
9D1A
330
1E
100
AcDbEntity
  8
躯体と製品
  6
Continuous
 62
     3
100
AcDbPolyline
 90
        2
 70
     0
 43
0.0
 10
2474.818804058806
 20
-459.1272417354241
 10
2474.818804058806
 20
-478.8391096915175
  0
LWPOLYLINE
  5
9D1B
330
1E
100
AcDbEntity
  8
躯体と製品
  6
Continuous
 62
     4
100
AcDbPolyline
 90
        2
 70
     0
 43
0.0
 10
2463.818804058806
 20
-459.0323376456495
 10
2463.818804058806
 20
-478.8391096915175
  0
LWPOLYLINE
  5
9D1C
330
1E
100
AcDbEntity
  8
躯体と製品
  6
Continuous
 62
     4
100
AcDbPolyline
 90
        2
 70
     0
 43
0.0
 10
2475.818804058806
 20
-459.0323376456495
 10
2475.818804058806
 20
-478.8391096915175
  0
LWPOLYLINE
  5
9D1D
330
1E
100
AcDbEntity
  8
躯体と製品
  6
Continuous
 62
     4
100
AcDbPolyline
 90
        2
 70
     0
 43
0.0
 10
2263.721201503839
 20
-365.1390847432755
 10
2444.818804058806
 20
-365.1390847432755
  0
LWPOLYLINE
  5
9D1E
330
1E
100
AcDbEntity
  8
躯体と製品
  6
PLINE2
 62
     3
100
AcDbPolyline
 90
        2
 70
     0
 43
0.0
 10
2263.721336058805
 20
-366.7390847432756
 10
2444.818804058806
 20
-366.7390847432756
  0
LWPOLYLINE
  5
9D1F
330
1E
100
AcDbEntity
  8
躯体と製品
  6
Continuous
 62
     4
100
AcDbPolyline
 90
        2
 70
     0
 43
0.0
 10
2263.721232058806
 20
-415.1390847432755
 10
2444.818700058806
 20
-415.1390847432755
  0
LWPOLYLINE
  5
9D20
330
1E
100
AcDbEntity
  8
躯体と製品
  6
PLINE2
 62
     3
100
AcDbPolyline
 90
        2
 70
     0
 43
0.0
 10
2263.721232058806
 20
-413.5390847432755
 10
2444.818700058806
 20
-413.5390847432755
  0
LWPOLYLINE
  5
9D21
330
1E
100
AcDbEntity
  8
躯体と製品
  6
Continuous
 62
     3
100
AcDbPolyline
 90
        2
 70
     0
 43
0.0
 10
2045.722437058806
 20
-314.1391247432756
 10
2045.722437058806
 20
-319.1390847432754
  0
LWPOLYLINE
  5
9D22
330
1E
100
AcDbEntity
  8
躯体と製品
  6
Continuous
 62
     3
100
AcDbPolyline
 90
        2
 70
     0
 43
0.0
 10
2045.722439058806
 20
-314.1391247432756
 42
0.4142135623730951
 10
2044.722399058806
 20
-313.1390847432755
  0
LWPOLYLINE
  5
9D23
330
1E
100
AcDbEntity
  8
躯体と製品
  6
Continuous
 62
     3
100
AcDbPolyline
 90
        2
 70
     0
 43
0.0
 10
2044.722399058806
 20
-313.1390847432754
 10
2036.722083058806
 20
-313.1390847432754
  0
LWPOLYLINE
  5
9D24
330
1E
100
AcDbEntity
  8
躯体と製品
  6
Continuous
 62
     3
100
AcDbPolyline
 90
        2
 70
     0
 43
0.0
 10
2045.722437058806
 20
-306.1390467432756
 10
2045.722437058806
 20
-301.1390847432755
  0
LWPOLYLINE
  5
9D25
330
1E
100
AcDbEntity
  8
躯体と製品
  6
Continuous
 62
     3
100
AcDbPolyline
 90
        2
 70
     0
 43
0.0
 10
2044.722399058806
 20
-307.1390867432756
 42
0.4142135623730951
 10
2045.722439058806
 20
-306.1390467432756
  0
LWPOLYLINE
  5
9D26
330
1E
100
AcDbEntity
  8
躯体と製品
  6
Continuous
 62
     3
100
AcDbPolyline
 90
        2
 70
     0
 43
0.0
 10
2044.722399058806
 20
-307.1390847432756
 10
2036.722083058806
 20
-307.1390847432756
  0
LWPOLYLINE
  5
9D27
330
1E
100
AcDbEntity
  8
躯体と製品
  6
Continuous
 62
     3
100
AcDbPolyline
 90
        2
 70
     0
 43
0.0
 10
2036.722083058806
 20
-307.1390847432754
 42
0.4142135623730951
 10
2035.722043058806
 20
-308.1391247432754
  0
LWPOLYLINE
  5
9D28
330
1E
100
AcDbEntity
  8
躯体と製品
  6
Continuous
 62
     3
100
AcDbPolyline
 90
        2
 70
     0
 43
0.0
 10
2035.722045058806
 20
-308.1391247432754
 10
2035.722045058806
 20
-312.1390447432755
  0
LWPOLYLINE
  5
9D29
330
1E
100
AcDbEntity
  8
躯体と製品
  6
Continuous
 62
     3
100
AcDbPolyline
 90
        2
 70
     0
 43
0.0
 10
2035.722043058806
 20
-312.1390447432755
 42
0.4142135623730951
 10
2036.722083058806
 20
-313.1390847432755
  0
LWPOLYLINE
  5
9D2A
330
1E
100
AcDbEntity
  8
躯体と製品
  6
Continuous
 62
     3
100
AcDbPolyline
 90
        2
 70
     0
 43
0.0
 10
2057.522441653494
 20
-360.1390847432754
 10
1940.716530058805
 20
-360.1390847432754
  0
LWPOLYLINE
  5
9D2B
330
1E
100
AcDbEntity
  8
躯体と製品
  6
Continuous
 62
     4
100
AcDbPolyline
 90
        2
 70
     0
 43
0.0
 10
2057.472434058805
 20
-363.1390847432755
 10
1940.716530058805
 20
-363.1390847432755
  0
LWPOLYLINE
  5
9D2C
330
1E
100
AcDbEntity
  8
躯体と製品
  6
Continuous
 62
     4
100
AcDbPolyline
 90
        2
 70
     0
 43
0.0
 10
1940.716530058805
 20
-334.1390847432754
 10
2240.728344058807
 20
-334.1390847432754
  0
LWPOLYLINE
  5
9D2D
330
1E
100
AcDbEntity
  8
躯体と製品
  6
Continuous
 62
     4
100
AcDbPolyline
 90
        2
 70
     0
 43
0.0
 10
1940.716530058805
 20
-301.1390847432755
 10
2240.728344058807
 20
-301.1390847432755
  0
LWPOLYLINE
  5
9D2E
330
1E
100
AcDbEntity
  8
躯体と製品
  6
Continuous
 62
     3
100
AcDbPolyline
 90
        2
 70
     0
 43
0.0
 10
1940.716530058805
 20
-324.1390847432755
 10
2240.728344058807
 20
-324.1390847432755
  0
LWPOLYLINE
  5
9D2F
330
1E
100
AcDbEntity
  8
躯体と製品
  6
Continuous
 62
     3
100
AcDbPolyline
 90
        2
 70
     0
 43
0.0
 10
1940.716530058805
 20
-329.1390847432755
 10
2240.728344058807
 20
-329.1390847432755
  0
LWPOLYLINE
  5
9D30
330
1E
100
AcDbEntity
  8
躯体と製品
  6
Continuous
 62
     4
100
AcDbPolyline
 90
        2
 70
     0
 43
0.0
 10
1940.716530058805
 20
-319.1390847432754
 10
2240.728344058807
 20
-319.1390847432754
  0
LWPOLYLINE
  5
9D31
330
1E
100
AcDbEntity
  8
躯体と製品
  6
Continuous
 62
     3
100
AcDbPolyline
 90
        2
 70
     0
 43
0.0
 10
2135.722442058805
 20
-314.1391247432756
 10
2135.722442058805
 20
-319.1390847432754
  0
LWPOLYLINE
  5
9D32
330
1E
100
AcDbEntity
  8
躯体と製品
  6
Continuous
 62
     3
100
AcDbPolyline
 90
        2
 70
     0
 43
0.0
 10
2135.722444058805
 20
-314.1391247432756
 42
0.4142135623730951
 10
2134.722404058805
 20
-313.1390847432755
  0
LWPOLYLINE
  5
9D33
330
1E
100
AcDbEntity
  8
躯体と製品
  6
Continuous
 62
     3
100
AcDbPolyline
 90
        2
 70
     0
 43
0.0
 10
2134.722404058805
 20
-313.1390847432754
 10
2126.722088058806
 20
-313.1390847432754
  0
LWPOLYLINE
  5
9D34
330
1E
100
AcDbEntity
  8
躯体と製品
  6
Continuous
 62
     3
100
AcDbPolyline
 90
        2
 70
     0
 43
0.0
 10
2135.722442058805
 20
-306.1390467432756
 10
2135.722442058805
 20
-301.1390847432755
  0
LWPOLYLINE
  5
9D35
330
1E
100
AcDbEntity
  8
躯体と製品
  6
Continuous
 62
     3
100
AcDbPolyline
 90
        2
 70
     0
 43
0.0
 10
2134.722404058805
 20
-307.1390867432756
 42
0.4142135623730951
 10
2135.722444058805
 20
-306.1390467432756
  0
LWPOLYLINE
  5
9D36
330
1E
100
AcDbEntity
  8
躯体と製品
  6
Continuous
 62
     3
100
AcDbPolyline
 90
        2
 70
     0
 43
0.0
 10
2134.722404058805
 20
-307.1390847432756
 10
2126.722088058806
 20
-307.1390847432756
  0
LWPOLYLINE
  5
9D37
330
1E
100
AcDbEntity
  8
躯体と製品
  6
Continuous
 62
     3
100
AcDbPolyline
 90
        2
 70
     0
 43
0.0
 10
2126.722088058806
 20
-307.1390847432754
 42
0.4142135623730951
 10
2125.722048058806
 20
-308.1391247432754
  0
LWPOLYLINE
  5
9D38
330
1E
100
AcDbEntity
  8
躯体と製品
  6
Continuous
 62
     3
100
AcDbPolyline
 90
        2
 70
     0
 43
0.0
 10
2125.722050058806
 20
-308.1391247432754
 10
2125.722050058806
 20
-312.1390447432755
  0
LWPOLYLINE
  5
9D39
330
1E
100
AcDbEntity
  8
躯体と製品
  6
Continuous
 62
     3
100
AcDbPolyline
 90
        2
 70
     0
 43
0.0
 10
2125.722048058806
 20
-312.1390447432755
 42
0.4142135623730951
 10
2126.722088058806
 20
-313.1390847432755
  0
LWPOLYLINE
  5
9D3A
330
1E
100
AcDbEntity
  8
躯体と製品
  6
Continuous
 62
     3
100
AcDbPolyline
 90
        2
 70
     0
 43
0.0
 10
2125.422641653494
 20
-360.1389527432754
 10
2240.728344058807
 20
-360.1389527432754
  0
LWPOLYLINE
  5
9D3B
330
1E
100
AcDbEntity
  8
躯体と製品
  6
Continuous
 62
     4
100
AcDbPolyline
 90
        2
 70
     0
 43
0.0
 10
2123.872434058806
 20
-363.1390847432755
 10
2240.728344058807
 20
-363.1390847432755
  0
LWPOLYLINE
  5
9D3C
330
1E
100
AcDbEntity
  8
躯体と製品
  6
Continuous
 62
     3
100
AcDbPolyline
 90
        2
 70
     0
 43
0.0
 10
2320.068986058805
 20
-481.1390847432753
 10
2295.277196058806
 20
-505.9308747432753
  0
LWPOLYLINE
  5
9D3D
330
1E
100
AcDbEntity
  8
躯体と製品
  6
Continuous
 62
     3
100
AcDbPolyline
 90
        2
 70
     0
 43
0.0
 10
2348.357120058806
 20
-481.1390847432753
 10
2323.565330058805
 20
-505.9308747432753
  0
LWPOLYLINE
  5
9D3E
330
1E
100
AcDbEntity
  8
躯体と製品
  6
Continuous
 62
     3
100
AcDbPolyline
 90
        2
 70
     0
 43
0.0
 10
2334.213054058806
 20
-481.1390847432753
 10
2309.421262058806
 20
-505.9308747432753
  0
LWPOLYLINE
  5
9D3F
330
1E
100
AcDbEntity
  8
躯体と製品
  6
Continuous
 62
     4
100
AcDbPolyline
 90
        2
 70
     0
 43
0.0
 10
1940.716530058805
 20
-481.1390847432753
 10
2240.728344058806
 20
-481.1390847432753
  0
LWPOLYLINE
  5
9D40
330
1E
100
AcDbEntity
  8
躯体と製品
  6
Continuous
 62
     4
100
AcDbPolyline
 90
        2
 70
     0
 43
0.0
 10
2597.719042058806
 20
-481.1390847432753
 10
2263.721232058806
 20
-481.1390847432753
  0
LWPOLYLINE
  5
9D41
330
1E
100
AcDbEntity
  8
躯体と製品
  6
Continuous
 62
     3
100
AcDbPolyline
 90
        2
 70
     0
 43
0.0
 10
2179.227906058806
 20
-481.1390847432753
 10
2154.436116058806
 20
-505.9308747432753
  0
LWPOLYLINE
  5
9D42
330
1E
100
AcDbEntity
  8
躯体と製品
  6
Continuous
 62
     3
100
AcDbPolyline
 90
        2
 70
     0
 43
0.0
 10
2207.516040058806
 20
-481.1390847432753
 10
2182.724250058805
 20
-505.9308747432753
  0
LWPOLYLINE
  5
9D43
330
1E
100
AcDbEntity
  8
躯体と製品
  6
Continuous
 62
     3
100
AcDbPolyline
 90
        2
 70
     0
 43
0.0
 10
2193.371972058806
 20
-481.1390847432753
 10
2168.580182058806
 20
-505.9308747432753
  0
LWPOLYLINE
  5
9D44
330
1E
100
AcDbEntity
  8
躯体と製品
  6
Continuous
 62
     3
100
AcDbPolyline
 90
        2
 70
     0
 43
0.0
 10
1980.605030058805
 20
-481.1390847432753
 10
1955.813240058805
 20
-505.9308747432753
  0
LWPOLYLINE
  5
9D45
330
1E
100
AcDbEntity
  8
躯体と製品
  6
Continuous
 62
     3
100
AcDbPolyline
 90
        2
 70
     0
 43
0.0
 10
2008.893164058806
 20
-481.1390847432753
 10
1984.101374058806
 20
-505.9308747432753
  0
LWPOLYLINE
  5
9D46
330
1E
100
AcDbEntity
  8
躯体と製品
  6
Continuous
 62
     3
100
AcDbPolyline
 90
        2
 70
     0
 43
0.0
 10
1994.749098058805
 20
-481.1390847432753
 10
1969.957308058806
 20
-505.9308747432753
  0
LWPOLYLINE
  5
9D47
330
1E
100
AcDbEntity
  8
躯体と製品
  6
Continuous
 62
     4
100
AcDbPolyline
 90
        2
 70
     0
 43
0.0
 10
2444.818804058806
 20
-447.3390816916572
 10
2494.818804058806
 20
-447.3390816916572
  0
LWPOLYLINE
  5
9D48
330
1E
100
AcDbEntity
  8
躯体と製品
  6
Continuous
 62
     4
100
AcDbPolyline
 90
        2
 70
     0
 43
0.0
 10
2444.818804058806
 20
-447.3390816916572
 10
2444.818804058806
 20
-347.6390694844868
  0
LWPOLYLINE
  5
9D49
330
1E
100
AcDbEntity
  8
躯体と製品
  6
Continuous
 62
     4
100
AcDbPolyline
 90
        2
 70
     0
 43
0.0
 10
2494.818804058806
 20
-347.6390694844868
 10
2494.818804058806
 20
-447.3390816916572
  0
LWPOLYLINE
  5
9D4A
330
1E
100
AcDbEntity
  8
躯体と製品
  6
Continuous
 62
     4
100
AcDbPolyline
 90
        2
 70
     0
 43
0.0
 10
2447.318804058806
 20
-345.1390694844868
 42
0.4142135623730951
 10
2444.818804058806
 20
-347.6390694844868
  0
LWPOLYLINE
  5
9D4B
330
1E
100
AcDbEntity
  8
躯体と製品
  6
Continuous
 62
     4
100
AcDbPolyline
 90
        2
 70
     0
 43
0.0
 10
2492.318804058806
 20
-345.1390694844868
 10
2447.318804058806
 20
-345.1390694844868
  0
LWPOLYLINE
  5
9D4C
330
1E
100
AcDbEntity
  8
躯体と製品
  6
Continuous
 62
     4
100
AcDbPolyline
 90
        2
 70
     0
 43
0.0
 10
2474.917798058806
 20
-352.889077484487
 10
2475.318776058805
 20
-352.889077484487
  0
LWPOLYLINE
  5
9D4D
330
1E
100
AcDbEntity
  8
躯体と製品
  6
Continuous
 62
     4
100
AcDbPolyline
 90
        2
 70
     0
 43
0.0
 10
2475.818774058805
 20
-353.3890734844868
 42
0.4142135623730951
 10
2475.318776058805
 20
-352.8890754844868
  0
LWPOLYLINE
  5
9D4E
330
1E
100
AcDbEntity
  8
躯体と製品
  6
Continuous
 62
     4
100
AcDbPolyline
 90
        2
 70
     0
 43
0.0
 10
2475.818774058806
 20
-353.3890734844868
 10
2475.818774058806
 20
-354.889067484487
  0
LWPOLYLINE
  5
9D4F
330
1E
100
AcDbEntity
  8
躯体と製品
  6
Continuous
 62
     4
100
AcDbPolyline
 90
        2
 70
     0
 43
0.0
 10
2475.318776058805
 20
-355.389065484487
 42
0.4142135623730951
 10
2475.818774058805
 20
-354.889067484487
  0
LWPOLYLINE
  5
9D50
330
1E
100
AcDbEntity
  8
躯体と製品
  6
Continuous
 62
     4
100
AcDbPolyline
 90
        2
 70
     0
 43
0.0
 10
2475.318776058805
 20
-355.389063484487
 10
2474.917798058806
 20
-355.389063484487
  0
LWPOLYLINE
  5
9D51
330
1E
100
AcDbEntity
  8
躯体と製品
  6
Continuous
 62
     4
100
AcDbPolyline
 90
        2
 70
     0
 43
0.0
 10
2464.719810058806
 20
-352.889077484487
 10
2464.318832058806
 20
-352.889077484487
  0
LWPOLYLINE
  5
9D52
330
1E
100
AcDbEntity
  8
躯体と製品
  6
Continuous
 62
     4
100
AcDbPolyline
 90
        2
 70
     0
 43
0.0
 10
2464.318832058806
 20
-352.8890754844868
 42
0.4142135623730951
 10
2463.818834058806
 20
-353.3890734844868
  0
LWPOLYLINE
  5
9D53
330
1E
100
AcDbEntity
  8
躯体と製品
  6
Continuous
 62
     4
100
AcDbPolyline
 90
        2
 70
     0
 43
0.0
 10
2463.818834058806
 20
-353.3890734844868
 10
2463.818834058806
 20
-354.889067484487
  0
LWPOLYLINE
  5
9D54
330
1E
100
AcDbEntity
  8
躯体と製品
  6
Continuous
 62
     4
100
AcDbPolyline
 90
        2
 70
     0
 43
0.0
 10
2463.818834058806
 20
-354.889067484487
 42
0.4142135623730951
 10
2464.318832058806
 20
-355.389065484487
  0
LWPOLYLINE
  5
9D55
330
1E
100
AcDbEntity
  8
躯体と製品
  6
Continuous
 62
     4
100
AcDbPolyline
 90
        2
 70
     0
 43
0.0
 10
2464.318832058806
 20
-355.389063484487
 10
2464.719810058806
 20
-355.389063484487
  0
LWPOLYLINE
  5
9D56
330
1E
100
AcDbEntity
  8
躯体と製品
  6
Continuous
 62
     3
100
AcDbPolyline
 90
        2
 70
     0
 43
0.0
 10
2469.818804058806
 20
-359.9125434844868
 10
2464.818830058805
 20
-357.0258074844869
  0
LWPOLYLINE
  5
9D57
330
1E
100
AcDbEntity
  8
躯体と製品
  6
Continuous
 62
     3
100
AcDbPolyline
 90
        2
 70
     0
 43
0.0
 10
2464.818830058805
 20
-357.0258074844869
 10
2464.818830058805
 20
-351.2523334844868
  0
LWPOLYLINE
  5
9D58
330
1E
100
AcDbEntity
  8
躯体と製品
  6
Continuous
 62
     3
100
AcDbPolyline
 90
        2
 70
     0
 43
0.0
 10
2464.818830058805
 20
-351.2523334844868
 10
2469.818804058806
 20
-348.3655974844869
  0
LWPOLYLINE
  5
9D59
330
1E
100
AcDbEntity
  8
躯体と製品
  6
Continuous
 62
     3
100
AcDbPolyline
 90
        2
 70
     0
 43
0.0
 10
2469.818804058806
 20
-348.3655974844869
 10
2474.818778058806
 20
-351.2523334844868
  0
LWPOLYLINE
  5
9D5A
330
1E
100
AcDbEntity
  8
躯体と製品
  6
Continuous
 62
     3
100
AcDbPolyline
 90
        2
 70
     0
 43
0.0
 10
2474.818778058806
 20
-351.2523334844868
 10
2474.818778058806
 20
-357.0258074844869
  0
LWPOLYLINE
  5
9D5B
330
1E
100
AcDbEntity
  8
躯体と製品
  6
Continuous
 62
     3
100
AcDbPolyline
 90
        2
 70
     0
 43
0.0
 10
2474.818778058806
 20
-357.0258074844869
 10
2469.818804058806
 20
-359.9125434844868
  0
LWPOLYLINE
  5
9D5C
330
1E
100
AcDbEntity
  8
躯体と製品
  6
Continuous
 62
     4
100
AcDbPolyline
 90
        2
 70
     0
 43
0.0
 10
2494.818804058806
 20
-347.6390694844868
 42
0.4142135623730951
 10
2492.318804058806
 20
-345.1390694844868
  0
TEXT
  5
A5C3
330
1E
100
AcDbEntity
  8
文字-記号
  6
Continuous
 62
     3
100
AcDbText
 10
2220.495825345512
 20
-241.8545762191252
 30
0.0
 40
13.0
  1
 ｈ=132mm～265mm
  7
ACAD
100
AcDbText
  0
TEXT
  5
A81E
330
1E
100
AcDbEntity
  8
文字-記号
  6
Continuous
 62
     3
100
AcDbText
 10
1948.850534345847
 20
-222.4987213372259
 30
0.0
 40
13.0
  1
■スリーベース２０３Ｌ-Ｕ型（剣道場用 低床用：埋め込みタイプ）
  7
ACAD
100
AcDbText
  0
ENDSEC
  0
SECTION
  2
OBJECTS
  0
DICTIONARY
  5
C
330
0
100
AcDbDictionary
281
     1
  3
ACAD_CIP_PREVIOUS_PRODUCT_INFO
350
5FB1
  3
ACAD_COLOR
350
5F95
  3
ACAD_GROUP
350
D
  3
ACAD_LAYOUT
350
19
  3
ACAD_MATERIAL
350
5F63
  3
ACAD_MLEADERSTYLE
350
5FAA
  3
ACAD_MLINESTYLE
350
16
  3
ACAD_PLOTSETTINGS
350
18
  3
ACAD_PLOTSTYLENAME
350
E
  3
ACAD_SCALELIST
350
5F98
  3
ACAD_TABLESTYLE
350
5F96
  3
ACAD_VISUALSTYLE
350
5F7C
  3
ACDB_RECOMPOSE_DATA
350
A90C
  3
AcDbVariableDictionary
350
169
  3
AEC_PROPERTY_SET_DEFS
350
6B75
  0
DICTIONARY
  5
A2D3
330
8
100
AcDbDictionary
280
     1
281
     1
  0
DICTIONARY
  5
175
330
2
100
AcDbDictionary
280
     1
281
     1
  3
ACAD_LAYERFILTERS
360
185
  3
ACAD_LAYERSTATES
360
176
  0
DICTIONARY
  5
655F
330
10
100
AcDbDictionary
280
     1
281
     1
  3
ADSK_XREC_LAYER_RECONCILED
360
6560
  0
DICTIONARY
  5
6561
330
178
100
AcDbDictionary
280
     1
281
     1
  3
ADSK_XREC_LAYER_RECONCILED
360
6562
  0
DICTIONARY
  5
6563
330
179
100
AcDbDictionary
280
     1
281
     1
  3
ADSK_XREC_LAYER_RECONCILED
360
6564
  0
DICTIONARY
  5
6565
330
4F62
100
AcDbDictionary
280
     1
281
     1
  3
ADSK_XREC_LAYER_RECONCILED
360
6566
  0
DICTIONARY
  5
28B
330
1E
100
AcDbDictionary
280
     1
281
     1
  3
ACAD_LAYOUTSELFREF
360
5C3B
  3
ACAD_SORTENTS
360
8525
  0
DICTIONARY
  5
28D
330
1A
100
AcDbDictionary
280
     1
281
     1
  3
ACAD_LAYOUTSELFREF
360
5C3A
  0
XRECORD
  5
5FB1
102
{ACAD_REACTORS
330
C
102
}
330
C
100
AcDbXrecord
280
     1
300
ACD
300
2012
300
ACD_F_S
  0
DICTIONARY
  5
5F95
102
{ACAD_REACTORS
330
C
102
}
330
C
100
AcDbDictionary
281
     1
  0
DICTIONARY
  5
D
102
{ACAD_REACTORS
330
C
102
}
330
C
100
AcDbDictionary
281
     1
  0
DICTIONARY
  5
19
102
{ACAD_REACTORS
330
C
102
}
330
C
100
AcDbDictionary
281
     1
  3
Model
350
21
  3
ﾚｲｱｳﾄ1
350
1D
  0
DICTIONARY
  5
5F63
102
{ACAD_REACTORS
330
C
102
}
330
C
100
AcDbDictionary
281
     1
  3
ByBlock
350
5F6C
  3
ByLayer
350
5F64
  3
Global
350
5F74
  0
DICTIONARY
  5
5FAA
102
{ACAD_REACTORS
330
C
102
}
330
C
100
AcDbDictionary
281
     1
  3
Standard
350
5FAB
  0
DICTIONARY
  5
16
102
{ACAD_REACTORS
330
C
102
}
330
C
100
AcDbDictionary
281
     1
  3
Standard
350
17
  0
DICTIONARY
  5
18
102
{ACAD_REACTORS
330
C
102
}
330
C
100
AcDbDictionary
281
     1
  0
ACDBDICTIONARYWDFLT
  5
E
102
{ACAD_REACTORS
330
C
102
}
330
C
100
AcDbDictionary
281
     1
  3
Normal
350
F
100
AcDbDictionaryWithDefault
340
F
  0
DICTIONARY
  5
5F98
102
{ACAD_REACTORS
330
C
102
}
330
C
100
AcDbDictionary
281
     1
  3
A0
350
5F99
  3
A1
350
5F9A
  3
A2
350
5F9B
  3
A3
350
5F9C
  3
A4
350
5F9D
  3
A5
350
5F9E
  3
A6
350
5F9F
  3
A7
350
5FA0
  3
A8
350
5FA1
  3
A9
350
5FA2
  3
B0
350
5FA3
  3
B1
350
5FA4
  3
B2
350
5FA5
  3
B3
350
5FA6
  3
B4
350
5FA7
  3
B5
350
5FA8
  3
B6
350
5FA9
  0
DICTIONARY
  5
5F96
102
{ACAD_REACTORS
330
C
102
}
330
C
100
AcDbDictionary
281
     1
  3
Standard
350
5F97
  0
DICTIONARY
  5
5F7C
102
{ACAD_REACTORS
330
C
102
}
330
C
100
AcDbDictionary
281
     1
  3
2dWireframe
350
5F82
  3
Basic
350
5F81
  3
Brighten
350
5F88
  3
ColorChange
350
5F8C
  3
Conceptual
350
5F85
  3
Dim
350
5F87
  3
EdgeColorOff
350
5F94
  3
Facepattern
350
5F8B
  3
Flat
350
5F7D
  3
FlatWithEdges
350
5F7E
  3
Gouraud
350
5F7F
  3
GouraudWithEdges
350
5F80
  3
Hidden
350
5F84
  3
JitterOff
350
5F92
  3
Linepattern
350
5F8A
  3
OverhangOff
350
5F93
  3
Realistic
350
5F86
  3
Shaded
350
5F91
  3
Shaded with edges
350
5F90
  3
Shades of Gray
350
5F8D
  3
Sketchy
350
5F8E
  3
Thicken
350
5F89
  3
Wireframe
350
5F83
  3
X-Ray
350
5F8F
  0
XRECORD
  5
A90C
102
{ACAD_REACTORS
330
C
102
}
330
C
100
AcDbXrecord
280
     1
 90
        1
330
5F97
  0
DICTIONARY
  5
169
102
{ACAD_REACTORS
330
C
102
}
330
C
100
AcDbDictionary
281
     1
  3
CANNOSCALE
350
69AA
  3
CMLEADERSTYLE
350
69A8
  3
CTABLESTYLE
350
69A7
  3
DIMASSOC
350
16A
  3
LAYEREVAL
350
69AC
  3
LAYERNOTIFY
350
69AD
  3
LIGHTINGUNITS
350
69AB
  3
MSLTSCALE
350
69A9
  3
XCLIPFRAME
350
A908
  0
DICTIONARY
  5
6B75
102
{ACAD_REACTORS
330
C
102
}
330
C
100
AcDbDictionary
281
     1
  0
DICTIONARY
  5
185
102
{ACAD_REACTORS
330
175
102
}
330
175
100
AcDbDictionary
280
     1
281
     1
  0
DICTIONARY
  5
176
102
{ACAD_REACTORS
330
175
102
}
330
175
100
AcDbDictionary
281
     1
  3
ACAD
350
177
  0
XRECORD
  5
6560
102
{ACAD_REACTORS
330
655F
102
}
330
655F
100
AcDbXrecord
280
     1
290
     1
  0
XRECORD
  5
6562
102
{ACAD_REACTORS
330
6561
102
}
330
6561
100
AcDbXrecord
280
     1
290
     1
  0
XRECORD
  5
6564
102
{ACAD_REACTORS
330
6563
102
}
330
6563
100
AcDbXrecord
280
     1
290
     1
  0
XRECORD
  5
6566
102
{ACAD_REACTORS
330
6565
102
}
330
6565
100
AcDbXrecord
280
     1
290
     1
  0
XRECORD
  5
5C3B
102
{ACAD_REACTORS
330
28B
102
}
330
28B
100
AcDbXrecord
280
     1
340
1E
  0
SORTENTSTABLE
  5
8525
102
{ACAD_REACTORS
330
28B
102
}
330
28B
100
AcDbSortentsTable
330
1E
  0
XRECORD
  5
5C3A
102
{ACAD_REACTORS
330
28D
102
}
330
28D
100
AcDbXrecord
280
     1
340
1A
  0
LAYOUT
  5
21
102
{ACAD_XDICTIONARY
360
656E
102
}
102
{ACAD_REACTORS
330
19
102
}
330
19
100
AcDbPlotSettings
  1

  2
none_device
  4
Letter_(8.50_x_11.00_Inches)
  6

 40
6.349999904632568
 41
6.349999904632568
 42
6.350006103515625
 43
6.350006103515625
 44
215.8999938964844
 45
279.3999938964844
 46
0.0
 47
0.0
 48
0.0
 49
0.0
140
0.0
141
0.0
142
1.0
143
319.7862139123437
 70
 11952
 72
     0
 73
     1
 74
     0
  7
monochrome.ctb
 75
     0
147
0.0031270891504851
 76
     0
 77
     2
 78
   300
148
-4592.16848121651
149
12923.7211331627
100
AcDbLayout
  1
Model
 70
     1
 71
     0
 10
0.0
 20
0.0
 11
12.0
 21
9.0
 12
0.0
 22
0.0
 32
0.0
 14
0.0
 24
0.0
 34
0.0
 15
0.0
 25
0.0
 35
0.0
146
0.0
 13
0.0
 23
0.0
 33
0.0
 16
1.0
 26
0.0
 36
0.0
 17
0.0
 27
1.0
 37
0.0
 76
     0
330
1E
331
5F61
1001
ACAD_PSEXT
1000
なし
1000
なし
1000
適切ではありません
1000
新しいプロッタ環境設定名を選択しない限り、レイアウトは印刷されません。
1070
     0
  0
LAYOUT
  5
1D
102
{ACAD_REACTORS
330
19
102
}
330
19
100
AcDbPlotSettings
  1

  2
\\MEISEI-1\EPSON Stylus Photo EX3
  4

  6

 40
0.0
 41
0.0
 42
0.0
 43
0.0
 44
0.0
 45
0.0
 46
0.0
 47
0.0
 48
0.0
 49
0.0
140
0.0
141
0.0
142
1.0
143
1.0
 70
   688
 72
     0
 73
     0
 74
     5
  7
monochrome.ctb
 75
    16
147
1.0
 76
     0
 77
     2
 78
   300
148
0.0
149
0.0
100
AcDbLayout
  1
ﾚｲｱｳﾄ1
 70
     1
 71
     1
 10
0.0
 20
0.0
 11
12.0
 21
9.0
 12
0.0
 22
0.0
 32
0.0
 14
1.000000000000000E+20
 24
1.000000000000000E+20
 34
1.000000000000000E+20
 15
-1.000000000000000E+20
 25
-1.000000000000000E+20
 35
-1.000000000000000E+20
146
0.0
 13
0.0
 23
0.0
 33
0.0
 16
1.0
 26
0.0
 36
0.0
 17
0.0
 27
1.0
 37
0.0
 76
     0
330
1A
  0
MATERIAL
  5
5F6C
102
{ACAD_XDICTIONARY
360
5F6D
102
}
102
{ACAD_REACTORS
330
5F63
102
}
330
5F63
100
AcDbMaterial
  1
ByBlock
 72
     0
 43
0.0208333333333333
 43
0.0
 43
0.0
 43
0.0
 43
0.0
 43
0.0208333333333333
 43
0.0
 43
0.0
 43
0.0
 43
0.0
 43
1.0
 43
0.0
 43
0.0
 43
0.0
 43
0.0
 43
1.0
 77
     0
 47
0.0208333333333333
 47
0.0
 47
0.0
 47
0.0
 47
0.0
 47
0.0208333333333333
 47
0.0
 47
0.0
 47
0.0
 47
0.0
 47
1.0
 47
0.0
 47
0.0
 47
0.0
 47
0.0
 47
1.0
171
     0
 49
0.0208333333333333
 49
0.0
 49
0.0
 49
0.0
 49
0.0
 49
0.0208333333333333
 49
0.0
 49
0.0
 49
0.0
 49
0.0
 49
1.0
 49
0.0
 49
0.0
 49
0.0
 49
0.0
 49
1.0
175
     0
142
0.0208333333333333
142
0.0
142
0.0
142
0.0
142
0.0
142
0.0208333333333333
142
0.0
142
0.0
142
0.0
142
0.0
142
1.0
142
0.0
142
0.0
142
0.0
142
0.0
142
1.0
179
     0
144
0.0208333333333333
144
0.0
144
0.0
144
0.0
144
0.0
144
0.0208333333333333
144
0.0
144
0.0
144
0.0
144
0.0
144
1.0
144
0.0
144
0.0
144
0.0
144
0.0
144
1.0
147
0.0208333333333333
147
0.0
147
0.0
147
0.0
147
0.0
147
0.0208333333333333
147
0.0
147
0.0
147
0.0
147
0.0
147
1.0
147
0.0
147
0.0
147
0.0
147
0.0
147
1.0
  0
MATERIAL
  5
5F64
102
{ACAD_XDICTIONARY
360
5F65
102
}
102
{ACAD_REACTORS
330
5F63
102
}
330
5F63
100
AcDbMaterial
  1
ByLayer
 72
     0
 43
0.0208333333333333
 43
0.0
 43
0.0
 43
0.0
 43
0.0
 43
0.0208333333333333
 43
0.0
 43
0.0
 43
0.0
 43
0.0
 43
1.0
 43
0.0
 43
0.0
 43
0.0
 43
0.0
 43
1.0
 77
     0
 47
0.0208333333333333
 47
0.0
 47
0.0
 47
0.0
 47
0.0
 47
0.0208333333333333
 47
0.0
 47
0.0
 47
0.0
 47
0.0
 47
1.0
 47
0.0
 47
0.0
 47
0.0
 47
0.0
 47
1.0
171
     0
 49
0.0208333333333333
 49
0.0
 49
0.0
 49
0.0
 49
0.0
 49
0.0208333333333333
 49
0.0
 49
0.0
 49
0.0
 49
0.0
 49
1.0
 49
0.0
 49
0.0
 49
0.0
 49
0.0
 49
1.0
175
     0
142
0.0208333333333333
142
0.0
142
0.0
142
0.0
142
0.0
142
0.0208333333333333
142
0.0
142
0.0
142
0.0
142
0.0
142
1.0
142
0.0
142
0.0
142
0.0
142
0.0
142
1.0
179
     0
144
0.0208333333333333
144
0.0
144
0.0
144
0.0
144
0.0
144
0.0208333333333333
144
0.0
144
0.0
144
0.0
144
0.0
144
1.0
144
0.0
144
0.0
144
0.0
144
0.0
144
1.0
147
0.0208333333333333
147
0.0
147
0.0
147
0.0
147
0.0
147
0.0208333333333333
147
0.0
147
0.0
147
0.0
147
0.0
147
1.0
147
0.0
147
0.0
147
0.0
147
0.0
147
1.0
  0
MATERIAL
  5
5F74
102
{ACAD_XDICTIONARY
360
5F75
102
}
102
{ACAD_REACTORS
330
5F63
102
}
330
5F63
100
AcDbMaterial
  1
Global
 72
     0
 43
0.0208333333333333
 43
0.0
 43
0.0
 43
0.0
 43
0.0
 43
0.0208333333333333
 43
0.0
 43
0.0
 43
0.0
 43
0.0
 43
1.0
 43
0.0
 43
0.0
 43
0.0
 43
0.0
 43
1.0
 77
     0
 47
0.0208333333333333
 47
0.0
 47
0.0
 47
0.0
 47
0.0
 47
0.0208333333333333
 47
0.0
 47
0.0
 47
0.0
 47
0.0
 47
1.0
 47
0.0
 47
0.0
 47
0.0
 47
0.0
 47
1.0
171
     0
 49
0.0208333333333333
 49
0.0
 49
0.0
 49
0.0
 49
0.0
 49
0.0208333333333333
 49
0.0
 49
0.0
 49
0.0
 49
0.0
 49
1.0
 49
0.0
 49
0.0
 49
0.0
 49
0.0
 49
1.0
175
     0
142
0.0208333333333333
142
0.0
142
0.0
142
0.0
142
0.0
142
0.0208333333333333
142
0.0
142
0.0
142
0.0
142
0.0
142
1.0
142
0.0
142
0.0
142
0.0
142
0.0
142
1.0
179
     0
144
0.0208333333333333
144
0.0
144
0.0
144
0.0
144
0.0
144
0.0208333333333333
144
0.0
144
0.0
144
0.0
144
0.0
144
1.0
144
0.0
144
0.0
144
0.0
144
0.0
144
1.0
147
0.0208333333333333
147
0.0
147
0.0
147
0.0
147
0.0
147
0.0208333333333333
147
0.0
147
0.0
147
0.0
147
0.0
147
1.0
147
0.0
147
0.0
147
0.0
147
0.0
147
1.0
  0
MLEADERSTYLE
  5
5FAB
102
{ACAD_XDICTIONARY
360
A90A
102
}
102
{ACAD_REACTORS
330
5FAA
102
}
330
5FAA
100
AcDbMLeaderStyle
170
     2
171
     1
172
     0
 90
        2
 40
0.0
 41
0.0
173
     1
 91
-1056964608
340
13
 92
       -2
290
     1
 42
0.09
291
     1
 43
0.36
  3
Standard
 44
0.18
300

342
11
174
     1
178
     6
175
     1
176
     0
 93
-1056964608
 45
0.18
292
     0
297
     0
 46
0.18
 94
-1056964608
 47
1.0
 49
1.0
140
1.0
293
     1
141
0.0
294
     1
177
     0
142
1.0
295
     0
296
     0
143
0.125
1001
ACAD_MLEADERVER
1070
     2
  0
MLINESTYLE
  5
17
102
{ACAD_REACTORS
330
16
102
}
330
16
100
AcDbMlineStyle
  2
STANDARD
 70
     0
  3

 62
   256
 51
90.0
 52
90.0
 71
     2
 49
0.5
 62
   256
  6
BYLAYER
 49
-0.5
 62
   256
  6
BYLAYER
  0
ACDBPLACEHOLDER
  5
F
102
{ACAD_REACTORS
330
E
102
}
330
E
  0
SCALE
  5
5F99
102
{ACAD_REACTORS
330
5F98
102
}
330
5F98
100
AcDbScale
 70
     0
300
1:1
140
1.0
141
1.0
290
     1
  0
SCALE
  5
5F9A
102
{ACAD_REACTORS
330
5F98
102
}
330
5F98
100
AcDbScale
 70
     0
300
1/128" = 1'-0"
140
0.0078125
141
12.0
290
     0
  0
SCALE
  5
5F9B
102
{ACAD_REACTORS
330
5F98
102
}
330
5F98
100
AcDbScale
 70
     0
300
1/64" = 1'-0"
140
0.015625
141
12.0
290
     0
  0
SCALE
  5
5F9C
102
{ACAD_REACTORS
330
5F98
102
}
330
5F98
100
AcDbScale
 70
     0
300
1/32" = 1'-0"
140
0.03125
141
12.0
290
     0
  0
SCALE
  5
5F9D
102
{ACAD_REACTORS
330
5F98
102
}
330
5F98
100
AcDbScale
 70
     0
300
1/16" = 1'-0"
140
0.0625
141
12.0
290
     0
  0
SCALE
  5
5F9E
102
{ACAD_REACTORS
330
5F98
102
}
330
5F98
100
AcDbScale
 70
     0
300
3/32" = 1'-0"
140
0.09375
141
12.0
290
     0
  0
SCALE
  5
5F9F
102
{ACAD_REACTORS
330
5F98
102
}
330
5F98
100
AcDbScale
 70
     0
300
1/8" = 1'-0"
140
0.125
141
12.0
290
     0
  0
SCALE
  5
5FA0
102
{ACAD_REACTORS
330
5F98
102
}
330
5F98
100
AcDbScale
 70
     0
300
3/16" = 1'-0"
140
0.1875
141
12.0
290
     0
  0
SCALE
  5
5FA1
102
{ACAD_REACTORS
330
5F98
102
}
330
5F98
100
AcDbScale
 70
     0
300
1/4" = 1'-0"
140
0.25
141
12.0
290
     0
  0
SCALE
  5
5FA2
102
{ACAD_REACTORS
330
5F98
102
}
330
5F98
100
AcDbScale
 70
     0
300
3/8" = 1'-0"
140
0.375
141
12.0
290
     0
  0
SCALE
  5
5FA3
102
{ACAD_REACTORS
330
5F98
102
}
330
5F98
100
AcDbScale
 70
     0
300
1/2" = 1'-0"
140
0.5
141
12.0
290
     0
  0
SCALE
  5
5FA4
102
{ACAD_REACTORS
330
5F98
102
}
330
5F98
100
AcDbScale
 70
     0
300
3/4" = 1'-0"
140
0.75
141
12.0
290
     0
  0
SCALE
  5
5FA5
102
{ACAD_REACTORS
330
5F98
102
}
330
5F98
100
AcDbScale
 70
     0
300
1" = 1'-0"
140
1.0
141
12.0
290
     0
  0
SCALE
  5
5FA6
102
{ACAD_REACTORS
330
5F98
102
}
330
5F98
100
AcDbScale
 70
     0
300
1-1/2" = 1'-0"
140
1.5
141
12.0
290
     0
  0
SCALE
  5
5FA7
102
{ACAD_REACTORS
330
5F98
102
}
330
5F98
100
AcDbScale
 70
     0
300
3" = 1'-0"
140
3.0
141
12.0
290
     0
  0
SCALE
  5
5FA8
102
{ACAD_REACTORS
330
5F98
102
}
330
5F98
100
AcDbScale
 70
     0
300
6" = 1'-0"
140
6.0
141
12.0
290
     0
  0
SCALE
  5
5FA9
102
{ACAD_REACTORS
330
5F98
102
}
330
5F98
100
AcDbScale
 70
     0
300
1'-0" = 1'-0"
140
12.0
141
12.0
290
     0
  0
TABLESTYLE
  5
5F97
102
{ACAD_XDICTIONARY
360
A2CE
102
}
102
{ACAD_REACTORS
330
5F96
102
}
330
5F96
100
AcDbTableStyle
  3
Standard
 70
     0
 71
     0
 40
0.06
 41
0.06
280
     0
281
     0
  7
STANDARD
140
0.18
170
     2
 62
     0
 63
     7
283
     0
274
    -2
284
     1
 64
     0
275
    -2
285
     1
 65
     0
276
    -2
286
     1
 66
     0
277
    -2
287
     1
 67
     0
278
    -2
288
     1
 68
     0
279
    -2
289
     1
 69
     0
  7
STANDARD
140
0.25
170
     5
 62
     0
 63
     7
283
     0
274
    -2
284
     1
 64
     0
275
    -2
285
     1
 65
     0
276
    -2
286
     1
 66
     0
277
    -2
287
     1
 67
     0
278
    -2
288
     1
 68
     0
279
    -2
289
     1
 69
     0
  7
STANDARD
140
0.18
170
     5
 62
     0
 63
     7
283
     0
274
    -2
284
     1
 64
     0
275
    -2
285
     1
 65
     0
276
    -2
286
     1
 66
     0
277
    -2
287
     1
 67
     0
278
    -2
288
     1
 68
     0
279
    -2
289
     1
 69
     0
  0
VISUALSTYLE
  5
5F82
102
{ACAD_XDICTIONARY
360
A91A
102
}
102
{ACAD_REACTORS
330
5F7C
102
}
330
5F7C
100
AcDbVisualStyle
  2
2dWireframe
 70
     4
 71
     0
 72
     2
 73
     0
 90
        0
 40
-0.6
 41
-30.0
 62
     5
 63
     7
421
 16777215
 74
     1
 91
        4
 64
     7
 65
   257
 75
     1
175
     1
 42
1.0
 92
        0
 66
   257
 43
1.0
 76
     1
 77
     6
 78
     2
 67
     7
 79
     5
170
     0
171
     0
290
     0
174
     0
 93
        1
 44
0.0
173
     0
291
     0
 45
0.0
1001
ACAD
1000
AcDbSavedByObjectVersion
1070
     0
  0
VISUALSTYLE
  5
5F81
102
{ACAD_XDICTIONARY
360
A918
102
}
102
{ACAD_REACTORS
330
5F7C
102
}
330
5F7C
100
AcDbVisualStyle
  2
Basic
 70
     7
 71
     1
 72
     0
 73
     1
 90
        0
 40
-0.6
 41
-30.0
 62
     5
 63
     7
421
 16777215
 74
     0
 91
        4
 64
     7
 65
   257
 75
     1
175
     1
 42
1.0
 92
        8
 66
     7
 43
1.0
 76
     1
 77
     6
 78
     2
 67
     7
 79
     5
170
     0
171
     0
290
     0
174
     0
 93
        1
 44
0.0
173
     0
291
     1
 45
0.0
1001
ACAD
1000
AcDbSavedByObjectVersion
1070
     0
  0
VISUALSTYLE
  5
5F88
102
{ACAD_XDICTIONARY
360
A926
102
}
102
{ACAD_REACTORS
330
5F7C
102
}
330
5F7C
100
AcDbVisualStyle
  2
Brighten
 70
    12
 71
     2
 72
     2
 73
     0
 90
        0
 40
-0.6
 41
-30.0
 62
     5
 63
     7
421
 16777215
 74
     1
 91
        4
 64
     7
 65
   257
 75
     1
175
     1
 42
1.0
 92
        8
 66
     7
 43
1.0
 76
     1
 77
     6
 78
     2
 67
     7
 79
     5
170
     0
171
     0
290
     0
174
     0
 93
        1
 44
50.0
173
     0
291
     1
 45
0.0
1001
ACAD
1000
AcDbSavedByObjectVersion
1070
     0
  0
VISUALSTYLE
  5
5F8C
102
{ACAD_XDICTIONARY
360
A92E
102
}
102
{ACAD_REACTORS
330
5F7C
102
}
330
5F7C
100
AcDbVisualStyle
  2
ColorChange
 70
    16
 71
     2
 72
     2
 73
     3
 90
        0
 40
-0.6
 41
-30.0
 62
     5
 63
     8
421
  8421504
 74
     1
 91
        4
 64
     7
 65
   257
 75
     1
175
     1
 42
1.0
 92
        8
 66
     8
424
  8421504
 43
1.0
 76
     1
 77
     6
 78
     2
 67
     7
 79
     5
170
     0
171
     0
290
     0
174
     0
 93
        1
 44
0.0
173
     0
291
     1
 45
0.0
1001
ACAD
1000
AcDbSavedByObjectVersion
1070
     0
  0
VISUALSTYLE
  5
5F85
102
{ACAD_XDICTIONARY
360
A920
102
}
102
{ACAD_REACTORS
330
5F7C
102
}
330
5F7C
100
AcDbVisualStyle
  2
Conceptual
 70
     9
 71
     3
 72
     2
 73
     0
 90
        0
 40
-0.6
 41
-30.0
 62
     5
 63
     7
421
 16777215
 74
     2
 91
        2
 64
     7
 65
   257
 75
     1
175
     1
 42
179.0
 92
        8
 66
     7
 43
1.0
 76
     1
 77
     6
 78
     2
 67
     7
 79
     3
170
     0
171
     0
290
     0
174
     0
 93
        1
 44
0.0
173
     0
291
     0
 45
0.0
1001
ACAD
1000
AcDbSavedByObjectVersion
1070
     0
  0
VISUALSTYLE
  5
5F87
102
{ACAD_XDICTIONARY
360
A924
102
}
102
{ACAD_REACTORS
330
5F7C
102
}
330
5F7C
100
AcDbVisualStyle
  2
Dim
 70
    11
 71
     2
 72
     2
 73
     0
 90
        0
 40
-0.6
 41
-30.0
 62
     5
 63
     7
421
 16777215
 74
     1
 91
        4
 64
     7
 65
   257
 75
     1
175
     1
 42
1.0
 92
        8
 66
     7
 43
1.0
 76
     1
 77
     6
 78
     2
 67
     7
 79
     5
170
     0
171
     0
290
     0
174
     0
 93
        1
 44
-50.0
173
     0
291
     1
 45
0.0
1001
ACAD
1000
AcDbSavedByObjectVersion
1070
     0
  0
VISUALSTYLE
  5
5F94
102
{ACAD_XDICTIONARY
360
A93E
102
}
102
{ACAD_REACTORS
330
5F7C
102
}
330
5F7C
100
AcDbVisualStyle
  2
EdgeColorOff
 70
    22
 71
     2
 72
     2
 73
     0
 90
        0
 40
-0.6
 41
-30.0
 62
     5
 63
     7
421
 16777215
 74
     1
 91
        4
 64
     7
 65
   257
 75
     1
175
     1
 42
1.0
 92
        8
 66
     7
 43
1.0
 76
     1
 77
     6
 78
     2
 67
     7
 79
     5
170
     0
171
     0
290
     0
174
     0
 93
        1
 44
0.0
173
     0
291
     1
 45
0.0
1001
ACAD
1000
AcDbSavedByObjectVersion
1070
     0
  0
VISUALSTYLE
  5
5F8B
102
{ACAD_XDICTIONARY
360
A92C
102
}
102
{ACAD_REACTORS
330
5F7C
102
}
330
5F7C
100
AcDbVisualStyle
  2
Facepattern
 70
    15
 71
     2
 72
     2
 73
     0
 90
        0
 40
-0.6
 41
-30.0
 62
     5
 63
     7
421
 16777215
 74
     1
 91
        4
 64
     7
 65
   257
 75
     1
175
     1
 42
1.0
 92
        8
 66
     7
 43
1.0
 76
     1
 77
     6
 78
     2
 67
     7
 79
     5
170
     0
171
     0
290
     0
174
     0
 93
        1
 44
0.0
173
     0
291
     1
 45
0.0
1001
ACAD
1000
AcDbSavedByObjectVersion
1070
     0
  0
VISUALSTYLE
  5
5F7D
102
{ACAD_XDICTIONARY
360
A910
102
}
102
{ACAD_REACTORS
330
5F7C
102
}
330
5F7C
100
AcDbVisualStyle
  2
Flat
 70
     0
 71
     2
 72
     1
 73
     1
 90
        2
 40
-0.6
 41
30.0
 62
     5
 63
     7
421
 16777215
 74
     0
 91
        0
 64
     7
 65
   257
 75
     1
175
     1
 42
1.0
 92
        8
 66
     7
 43
1.0
 76
     1
 77
     6
 78
     2
 67
     7
 79
     5
170
     0
171
     0
290
     0
174
     0
 93
       13
 44
0.0
173
     0
291
     1
 45
0.0
1001
ACAD
1000
AcDbSavedByObjectVersion
1070
     0
  0
VISUALSTYLE
  5
5F7E
102
{ACAD_XDICTIONARY
360
A912
102
}
102
{ACAD_REACTORS
330
5F7C
102
}
330
5F7C
100
AcDbVisualStyle
  2
FlatWithEdges
 70
     1
 71
     2
 72
     1
 73
     1
 90
        2
 40
-0.6
 41
30.0
 62
     5
 63
     7
421
 16777215
 74
     1
 91
        0
 64
     7
 65
   257
 75
     1
175
     1
 42
1.0
 92
        0
 66
   257
 43
1.0
 76
     1
 77
     6
 78
     2
 67
     7
 79
     5
170
     0
171
     0
290
     0
174
     0
 93
       13
 44
0.0
173
     0
291
     1
 45
0.0
1001
ACAD
1000
AcDbSavedByObjectVersion
1070
     0
  0
VISUALSTYLE
  5
5F7F
102
{ACAD_XDICTIONARY
360
A914
102
}
102
{ACAD_REACTORS
330
5F7C
102
}
330
5F7C
100
AcDbVisualStyle
  2
Gouraud
 70
     2
 71
     2
 72
     2
 73
     1
 90
        2
 40
-0.6
 41
30.0
 62
     5
 63
     7
421
 16777215
 74
     0
 91
        0
 64
     7
 65
   257
 75
     1
175
     1
 42
1.0
 92
        0
 66
     7
 43
1.0
 76
     1
 77
     6
 78
     2
 67
     7
 79
     5
170
     0
171
     0
290
     0
174
     0
 93
       13
 44
0.0
173
     0
291
     1
 45
0.0
1001
ACAD
1000
AcDbSavedByObjectVersion
1070
     0
  0
VISUALSTYLE
  5
5F80
102
{ACAD_XDICTIONARY
360
A916
102
}
102
{ACAD_REACTORS
330
5F7C
102
}
330
5F7C
100
AcDbVisualStyle
  2
GouraudWithEdges
 70
     3
 71
     2
 72
     2
 73
     1
 90
        2
 40
-0.6
 41
30.0
 62
     5
 63
     7
421
 16777215
 74
     1
 91
        0
 64
     7
 65
   257
 75
     1
175
     1
 42
1.0
 92
        0
 66
   257
 43
1.0
 76
     1
 77
     6
 78
     2
 67
     7
 79
     5
170
     0
171
     0
290
     0
174
     0
 93
       13
 44
0.0
173
     0
291
     1
 45
0.0
1001
ACAD
1000
AcDbSavedByObjectVersion
1070
     0
  0
VISUALSTYLE
  5
5F84
102
{ACAD_XDICTIONARY
360
A91E
102
}
102
{ACAD_REACTORS
330
5F7C
102
}
330
5F7C
100
AcDbVisualStyle
  2
Hidden
 70
     6
 71
     1
 72
     2
 73
     2
 90
        0
 40
-0.6
 41
-30.0
 62
     5
 63
     7
421
 16777215
 74
     2
 91
        2
 64
     7
 65
   257
 75
     2
175
     1
 42
40.0
 92
        0
 66
   257
 43
1.0
 76
     1
 77
     6
 78
     2
 67
     7
 79
     3
170
     0
171
     0
290
     0
174
     0
 93
        1
 44
0.0
173
     0
291
     0
 45
0.0
1001
ACAD
1000
AcDbSavedByObjectVersion
1070
     0
  0
VISUALSTYLE
  5
5F92
102
{ACAD_XDICTIONARY
360
A93A
102
}
102
{ACAD_REACTORS
330
5F7C
102
}
330
5F7C
100
AcDbVisualStyle
  2
JitterOff
 70
    20
 71
     2
 72
     2
 73
     0
 90
        0
 40
-0.6
 41
-30.0
 62
     5
 63
     7
421
 16777215
 74
     1
 91
        4
 64
     7
 65
   257
 75
     1
175
     1
 42
1.0
 92
       10
 66
     7
 43
1.0
 76
     1
 77
     6
 78
     2
 67
     7
 79
     5
170
     0
171
     0
290
     0
174
     0
 93
        1
 44
0.0
173
     0
291
     1
 45
0.0
1001
ACAD
1000
AcDbSavedByObjectVersion
1070
     0
  0
VISUALSTYLE
  5
5F8A
102
{ACAD_XDICTIONARY
360
A92A
102
}
102
{ACAD_REACTORS
330
5F7C
102
}
330
5F7C
100
AcDbVisualStyle
  2
Linepattern
 70
    14
 71
     2
 72
     2
 73
     0
 90
        0
 40
-0.6
 41
-30.0
 62
     5
 63
     7
421
 16777215
 74
     1
 91
        4
 64
     7
 65
   257
 75
     7
175
     7
 42
1.0
 92
        8
 66
     7
 43
1.0
 76
     1
 77
     6
 78
     2
 67
     7
 79
     5
170
     0
171
     0
290
     0
174
     0
 93
        1
 44
0.0
173
     0
291
     1
 45
0.0
1001
ACAD
1000
AcDbSavedByObjectVersion
1070
     0
  0
VISUALSTYLE
  5
5F93
102
{ACAD_XDICTIONARY
360
A93C
102
}
102
{ACAD_REACTORS
330
5F7C
102
}
330
5F7C
100
AcDbVisualStyle
  2
OverhangOff
 70
    21
 71
     2
 72
     2
 73
     0
 90
        0
 40
-0.6
 41
-30.0
 62
     5
 63
     7
421
 16777215
 74
     1
 91
        4
 64
     7
 65
   257
 75
     1
175
     1
 42
1.0
 92
        9
 66
     7
 43
1.0
 76
     1
 77
     6
 78
     2
 67
     7
 79
     5
170
     0
171
     0
290
     0
174
     0
 93
        1
 44
0.0
173
     0
291
     1
 45
0.0
1001
ACAD
1000
AcDbSavedByObjectVersion
1070
     0
  0
VISUALSTYLE
  5
5F86
102
{ACAD_XDICTIONARY
360
A922
102
}
102
{ACAD_REACTORS
330
5F7C
102
}
330
5F7C
100
AcDbVisualStyle
  2
Realistic
 70
     8
 71
     2
 72
     2
 73
     0
 90
        2
 40
-0.6
 41
30.0
 62
     5
 63
     7
421
 16777215
 74
     0
 91
        0
 64
     7
 65
   257
 75
     1
175
     1
 42
1.0
 92
        8
 66
   257
 43
1.0
 76
     1
 77
     6
 78
     2
 67
     7
 79
     3
170
     0
171
     0
290
     0
174
     0
 93
       13
 44
0.0
173
     0
291
     0
 45
0.0
1001
ACAD
1000
AcDbSavedByObjectVersion
1070
     0
  0
VISUALSTYLE
  5
5F91
102
{ACAD_XDICTIONARY
360
A938
102
}
102
{ACAD_REACTORS
330
5F7C
102
}
330
5F7C
100
AcDbVisualStyle
  2
Shaded
 70
    27
 71
     2
 72
     2
 73
     1
 90
        2
 40
-0.6
 41
30.0
 62
     5
 63
     7
421
 16777215
 74
     0
 91
        4
 64
     7
 65
   257
 75
     1
175
     1
 42
1.0
 92
        8
 66
   257
 43
1.0
 76
     1
 77
     6
 78
     2
 67
     8
425
  7895160
 79
     3
170
     0
171
     0
290
     0
174
     0
 93
        5
 44
0.0
173
     0
291
     0
 45
0.0
1001
ACAD
1000
AcDbSavedByObjectVersion
1070
     0
  0
VISUALSTYLE
  5
5F90
102
{ACAD_XDICTIONARY
360
A936
102
}
102
{ACAD_REACTORS
330
5F7C
102
}
330
5F7C
100
AcDbVisualStyle
  2
Shaded with edges
 70
    26
 71
     2
 72
     2
 73
     1
 90
        2
 40
-0.6
 41
30.0
 62
     5
 63
     7
421
 16777215
 74
     1
 91
       10
 64
     7
 65
   257
 75
     2
175
     1
 42
1.0
 92
        8
 66
   257
 43
1.0
 76
     1
 77
     6
 78
     2
 67
     7
 79
     3
170
     0
171
     0
290
     0
174
     0
 93
        5
 44
0.0
173
     0
291
     0
 45
0.0
1001
ACAD
1000
AcDbSavedByObjectVersion
1070
     0
  0
VISUALSTYLE
  5
5F8D
102
{ACAD_XDICTIONARY
360
A930
102
}
102
{ACAD_REACTORS
330
5F7C
102
}
330
5F7C
100
AcDbVisualStyle
  2
Shades of Gray
 70
    23
 71
     2
 72
     2
 73
     3
 90
        0
 40
-0.6
 41
-30.0
 62
     5
 63
     7
421
 16777215
 74
     2
 91
        2
 64
     7
 65
     7
 75
     1
175
     1
 42
40.0
 92
        8
 66
     7
 43
1.0
 76
     1
 77
     6
 78
     2
 67
     7
 79
     3
170
     0
171
     0
290
     0
174
     0
 93
        1
 44
0.0
173
     0
291
     0
 45
0.0
1001
ACAD
1000
AcDbSavedByObjectVersion
1070
     0
  0
VISUALSTYLE
  5
5F8E
102
{ACAD_XDICTIONARY
360
A932
102
}
102
{ACAD_REACTORS
330
5F7C
102
}
330
5F7C
100
AcDbVisualStyle
  2
Sketchy
 70
    24
 71
     1
 72
     2
 73
     2
 90
        0
 40
-0.6
 41
-30.0
 62
     5
 63
     7
421
 16777215
 74
     2
 91
        2
 64
     7
 65
     7
 75
     1
175
     1
 42
40.0
 92
       11
 66
     7
 43
1.0
 76
     1
 77
     6
 78
     2
 67
     7
 79
     6
170
     0
171
     0
290
     0
174
     0
 93
        1
 44
0.0
173
     0
291
     0
 45
0.0
1001
ACAD
1000
AcDbSavedByObjectVersion
1070
     0
  0
VISUALSTYLE
  5
5F89
102
{ACAD_XDICTIONARY
360
A928
102
}
102
{ACAD_REACTORS
330
5F7C
102
}
330
5F7C
100
AcDbVisualStyle
  2
Thicken
 70
    13
 71
     2
 72
     2
 73
     0
 90
        0
 40
-0.6
 41
-30.0
 62
     5
 63
     7
421
 16777215
 74
     1
 91
        4
 64
     7
 65
   257
 75
     1
175
     1
 42
1.0
 92
       12
 66
     7
 43
1.0
 76
     1
 77
     6
 78
     2
 67
     7
 79
     5
170
     0
171
     0
290
     0
174
     0
 93
        1
 44
0.0
173
     0
291
     1
 45
0.0
1001
ACAD
1000
AcDbSavedByObjectVersion
1070
     0
  0
VISUALSTYLE
  5
5F83
102
{ACAD_XDICTIONARY
360
A91C
102
}
102
{ACAD_REACTORS
330
5F7C
102
}
330
5F7C
100
AcDbVisualStyle
  2
Wireframe
 70
     5
 71
     0
 72
     2
 73
     0
 90
        0
 40
-0.6
 41
-30.0
 62
     5
 63
     7
421
 16777215
 74
     1
 91
        4
 64
     7
 65
   257
 75
     1
175
     1
 42
1.0
 92
        0
 66
   257
 43
1.0
 76
     1
 77
     6
 78
     2
 67
     7
 79
     3
170
     0
171
     0
290
     0
174
     0
 93
        1
 44
0.0
173
     0
291
     0
 45
0.0
1001
ACAD
1000
AcDbSavedByObjectVersion
1070
     0
  0
VISUALSTYLE
  5
5F8F
102
{ACAD_XDICTIONARY
360
A934
102
}
102
{ACAD_REACTORS
330
5F7C
102
}
330
5F7C
100
AcDbVisualStyle
  2
X-Ray
 70
    25
 71
     2
 72
     2
 73
     1
 90
        1
 40
0.5
 41
-30.0
 62
     5
 63
     7
421
 16777215
 74
     1
 91
        0
 64
     7
 65
   257
 75
     1
175
     1
 42
1.0
 92
        8
 66
     7
 43
1.0
 76
     1
 77
     6
 78
     2
 67
     7
 79
     3
170
     0
171
     0
290
     0
174
     0
 93
       13
 44
0.0
173
     0
291
     0
 45
0.0
1001
ACAD
1000
AcDbSavedByObjectVersion
1070
     0
  0
DICTIONARYVAR
  5
69AA
102
{ACAD_REACTORS
330
169
102
}
330
169
100
DictionaryVariables
280
     0
  1
1:1
  0
DICTIONARYVAR
  5
69A8
102
{ACAD_REACTORS
330
169
102
}
330
169
100
DictionaryVariables
280
     0
  1
STANDARD
  0
DICTIONARYVAR
  5
69A7
102
{ACAD_REACTORS
330
169
102
}
330
169
100
DictionaryVariables
280
     0
  1
STANDARD
  0
DICTIONARYVAR
  5
16A
102
{ACAD_REACTORS
330
169
102
}
330
169
100
DictionaryVariables
280
     0
  1
1
  0
DICTIONARYVAR
  5
69AC
102
{ACAD_REACTORS
330
169
102
}
330
169
100
DictionaryVariables
280
     0
  1
1
  0
DICTIONARYVAR
  5
69AD
102
{ACAD_REACTORS
330
169
102
}
330
169
100
DictionaryVariables
280
     0
  1
15
  0
DICTIONARYVAR
  5
69AB
102
{ACAD_REACTORS
330
169
102
}
330
169
100
DictionaryVariables
280
     0
  1
0
  0
DICTIONARYVAR
  5
69A9
102
{ACAD_REACTORS
330
169
102
}
330
169
100
DictionaryVariables
280
     0
  1
0
  0
DICTIONARYVAR
  5
A908
102
{ACAD_REACTORS
330
169
102
}
330
169
100
DictionaryVariables
280
     0
  1
2
  0
XRECORD
  5
177
102
{ACAD_REACTORS
330
176
102
}
330
176
100
AcDbXrecord
280
     1
 91
      476
330
179
 90
        8
 62
     7
370
    -3
331
15
  1
Color_7
330
178
 90
        8
 62
     7
370
    -3
331
15
  1
Color_7
330
128
 90
        0
 62
     7
370
    -3
331
15
  1
Color_7
330
10
 90
        8
 62
     7
370
    -3
331
15
  1
Color_7
  0
DICTIONARY
  5
656E
330
21
100
AcDbDictionary
280
     1
281
     1
  3
ADSK_XREC_LAYOUTTHUMBNAIL
360
656F
  0
DICTIONARY
  5
5F6D
330
5F6C
100
AcDbDictionary
280
     1
281
     1
  3
ACAD_XREC_ROUNDTRIP
360
A90E
  3
BUMPTILE
360
5F6F
  3
DIFFUSETILE
360
5F6E
  3
OPACITYTILE
360
5F72
  3
REFLECTIONTILE
360
5F71
  3
REFRACTIONTILE
360
5F73
  3
SPECULARTILE
360
5F70
  0
DICTIONARY
  5
5F65
330
5F64
100
AcDbDictionary
280
     1
281
     1
  3
ACAD_XREC_ROUNDTRIP
360
A90D
  3
BUMPTILE
360
5F67
  3
DIFFUSETILE
360
5F66
  3
OPACITYTILE
360
5F6A
  3
REFLECTIONTILE
360
5F69
  3
REFRACTIONTILE
360
5F6B
  3
SPECULARTILE
360
5F68
  0
DICTIONARY
  5
5F75
330
5F74
100
AcDbDictionary
280
     1
281
     1
  3
ACAD_XREC_ROUNDTRIP
360
A90F
  3
BUMPTILE
360
5F77
  3
DIFFUSETILE
360
5F76
  3
OPACITYTILE
360
5F7A
  3
REFLECTIONTILE
360
5F79
  3
REFRACTIONTILE
360
5F7B
  3
SPECULARTILE
360
5F78
  0
DICTIONARY
  5
A90A
330
5FAB
100
AcDbDictionary
280
     1
281
     1
  3
ACAD_XREC_ROUNDTRIP
360
A90B
  0
DICTIONARY
  5
A2CE
330
5F97
100
AcDbDictionary
280
     1
281
     1
  3
ACAD_ROUNDTRIP_2008_TABLESTYLE_CELLSTYLEMAP
360
A909
  3
ACAD_XREC_ROUNDTRIP
360
A940
  0
DICTIONARY
  5
A91A
330
5F82
100
AcDbDictionary
280
     1
281
     1
  3
ACAD_XREC_ROUNDTRIP
360
A91B
  0
DICTIONARY
  5
A918
330
5F81
100
AcDbDictionary
280
     1
281
     1
  3
ACAD_XREC_ROUNDTRIP
360
A919
  0
DICTIONARY
  5
A926
330
5F88
100
AcDbDictionary
280
     1
281
     1
  3
ACAD_XREC_ROUNDTRIP
360
A927
  0
DICTIONARY
  5
A92E
330
5F8C
100
AcDbDictionary
280
     1
281
     1
  3
ACAD_XREC_ROUNDTRIP
360
A92F
  0
DICTIONARY
  5
A920
330
5F85
100
AcDbDictionary
280
     1
281
     1
  3
ACAD_XREC_ROUNDTRIP
360
A921
  0
DICTIONARY
  5
A924
330
5F87
100
AcDbDictionary
280
     1
281
     1
  3
ACAD_XREC_ROUNDTRIP
360
A925
  0
DICTIONARY
  5
A93E
330
5F94
100
AcDbDictionary
280
     1
281
     1
  3
ACAD_XREC_ROUNDTRIP
360
A93F
  0
DICTIONARY
  5
A92C
330
5F8B
100
AcDbDictionary
280
     1
281
     1
  3
ACAD_XREC_ROUNDTRIP
360
A92D
  0
DICTIONARY
  5
A910
330
5F7D
100
AcDbDictionary
280
     1
281
     1
  3
ACAD_XREC_ROUNDTRIP
360
A911
  0
DICTIONARY
  5
A912
330
5F7E
100
AcDbDictionary
280
     1
281
     1
  3
ACAD_XREC_ROUNDTRIP
360
A913
  0
DICTIONARY
  5
A914
330
5F7F
100
AcDbDictionary
280
     1
281
     1
  3
ACAD_XREC_ROUNDTRIP
360
A915
  0
DICTIONARY
  5
A916
330
5F80
100
AcDbDictionary
280
     1
281
     1
  3
ACAD_XREC_ROUNDTRIP
360
A917
  0
DICTIONARY
  5
A91E
330
5F84
100
AcDbDictionary
280
     1
281
     1
  3
ACAD_XREC_ROUNDTRIP
360
A91F
  0
DICTIONARY
  5
A93A
330
5F92
100
AcDbDictionary
280
     1
281
     1
  3
ACAD_XREC_ROUNDTRIP
360
A93B
  0
DICTIONARY
  5
A92A
330
5F8A
100
AcDbDictionary
280
     1
281
     1
  3
ACAD_XREC_ROUNDTRIP
360
A92B
  0
DICTIONARY
  5
A93C
330
5F93
100
AcDbDictionary
280
     1
281
     1
  3
ACAD_XREC_ROUNDTRIP
360
A93D
  0
DICTIONARY
  5
A922
330
5F86
100
AcDbDictionary
280
     1
281
     1
  3
ACAD_XREC_ROUNDTRIP
360
A923
  0
DICTIONARY
  5
A938
330
5F91
100
AcDbDictionary
280
     1
281
     1
  3
ACAD_XREC_ROUNDTRIP
360
A939
  0
DICTIONARY
  5
A936
330
5F90
100
AcDbDictionary
280
     1
281
     1
  3
ACAD_XREC_ROUNDTRIP
360
A937
  0
DICTIONARY
  5
A930
330
5F8D
100
AcDbDictionary
280
     1
281
     1
  3
ACAD_XREC_ROUNDTRIP
360
A931
  0
DICTIONARY
  5
A932
330
5F8E
100
AcDbDictionary
280
     1
281
     1
  3
ACAD_XREC_ROUNDTRIP
360
A933
  0
DICTIONARY
  5
A928
330
5F89
100
AcDbDictionary
280
     1
281
     1
  3
ACAD_XREC_ROUNDTRIP
360
A929
  0
DICTIONARY
  5
A91C
330
5F83
100
AcDbDictionary
280
     1
281
     1
  3
ACAD_XREC_ROUNDTRIP
360
A91D
  0
DICTIONARY
  5
A934
330
5F8F
100
AcDbDictionary
280
     1
281
     1
  3
ACAD_XREC_ROUNDTRIP
360
A935
  0
XRECORD
  5
656F
102
{ACAD_REACTORS
330
656E
102
}
330
656E
100
AcDbXrecord
280
     1
310
280000000001000065000000010008000000000000650000000000000000000000010000000000003028210000000000FFFFFF000000000000000000000000000000000000000000000000000000000000000000330000006600000099000000CC000000FF00000000330000333300006633000099330000CC330000FF3300
310
0000660000336600006666000099660000CC660000FF66000000990000339900006699000099990000CC990000FF99000000CC000033CC000066CC000099CC0000CCCC0000FFCC000000FF000033FF000066FF000099FF0000CCFF0000FFFF000000003300330033006600330099003300CC003300FF003300003333003333
310
33006633330099333300CC333300FF33330000663300336633006666330099663300CC663300FF66330000993300339933006699330099993300CC993300FF99330000CC330033CC330066CC330099CC3300CCCC3300FFCC330000FF330033FF330066FF330099FF3300CCFF3300FFFF330000006600330066006600660099
310
006600CC006600FF00660000336600333366006633660099336600CC336600FF33660000666600336666006666660099666600CC666600FF66660000996600339966006699660099996600CC996600FF99660000CC660033CC660066CC660099CC6600CCCC6600FFCC660000FF660033FF660066FF660099FF6600CCFF6600
310
FFFF660000009900330099006600990099009900CC009900FF00990000339900333399006633990099339900CC339900FF33990000669900336699006666990099669900CC669900FF66990000999900339999006699990099999900CC999900FF99990000CC990033CC990066CC990099CC9900CCCC9900FFCC990000FF99
310
0033FF990066FF990099FF9900CCFF9900FFFF99000000CC003300CC006600CC009900CC00CC00CC00FF00CC000033CC003333CC006633CC009933CC00CC33CC00FF33CC000066CC003366CC006666CC009966CC00CC66CC00FF66CC000099CC003399CC006699CC009999CC00CC99CC00FF99CC0000CCCC0033CCCC0066CC
310
CC0099CCCC00CCCCCC00FFCCCC0000FFCC0033FFCC0066FFCC0099FFCC00CCFFCC00FFFFCC000000FF003300FF006600FF009900FF00CC00FF00FF00FF000033FF003333FF006633FF009933FF00CC33FF00FF33FF000066FF003366FF006666FF009966FF00CC66FF00FF66FF000099FF003399FF006699FF009999FF00CC
310
99FF00FF99FF0000CCFF0033CCFF0066CCFF0099CCFF00CCCCFF00FFCCFF0000FFFF0033FFFF0066FFFF0099FFFF00CCFFFF00FFFFFF00000000000D0D0D001A1A1A00282828003535350043434300505050005D5D5D006B6B6B00787878008686860093939300A1A1A100AEAEAE00BBBBBB00C9C9C900D6D6D600E4E4E400
310
F1F1F100FFFFFF000000000000000000000000000000000000000000000000000000000000000000000000000000000000000000000000000000000000000000000000000000000000000000000000000000000000000000000000000000000000000000000000000000000000000000F50000000000000000000000000000
310
00000000000000000000000000000000000000000000000000000000000000000000000000000000000000000000000000000000000000000000000000000000000000000000000000000000000000000000000000000000000000000000000000000000000000000000F50000000000000000000000000000000000000000
310
000000000000000000000000000000000000000000000000000000000000000000000000000000000000000000000000000000000000000000000000000000000000000000000000000000000000000000000000000000000000000000000000000000000000000000000000000000000000F5000000000000000000000000
310
000000000000000000000000000000000000000000000000000000000000000000000000000000000000000000000000000000000000000000000000000000000000000000000000000000000000000000000000000000000000000000000000000000000000000000000000F5000000000000000000000000000000000000
310
0000000000000000000000000000000000000000000000000000000000000000000000000000000000000000000000000000000000000000000000000000000000000000000000000000000000000000000000000000000000000000000000000000000000000000000000000000000000000000F500000000000000000000
310
0000000000000000000000000000000000000000000000000000000000000000000000000000000000000000000000000000000000000000000000000000000000000000000000000000000000000000000000000000000000000000000000000000000000000000000000000000F500000000000000000000000000000000
310
000000000000000000000000000000000000000000000000000000000000000000000000000000000000000000000000000000000000000000000000000000000000000000000000000000000000000000000000000000000000000000000000000000000000000000000000000000000000002D2D2D2D2D2D2D0000000000
310
000000000000000000000000000000000000000000000000000000000000000000000000000000000000000000000000000000000000000000000000000000000000000000000000000000000000000000000000000000000000000000000000000000000000000000000000002D2D2D2D2D2D2D0000000000000000000000
310
0000000000000000000000000000000000000000000000000000000000000000000000000000000000000000000000000000000000000000000000000000000000000000000000000000000000000000000000000000000000000000000000000000000000000000000000000000000000000000002DC3C3C3C3C32D000000
310
0000000000000000000000000000000000000000000000000000000000000000000000000000000000000000000000000000000000000000000000000000000000000000000000000000000000000000000000000000000000000000000000000000000000000000000000000000002DC3C3C3C3C32D000000000000000000
310
00000000000000000000000000000000000000000000000000000000000000000000000000000000000000000000000000000000000000000000000000000000000000000000000000000000000000000000000000000000000000000000000000000000000000000000000000000000000000000000002D282D2D282D2D00
310
00000000000000000000000000000000000000000000000000000000000000000000000000000000000000000000000000000000000000000000000000000000000000000000000000000000000000000000000000000000000000000000000000000000000000000000000000000000002D282D2D282D2D00000000000000
310
000000000000000000000000000000000000000000000000000000000000000000000000000000000000000000000000000000000000000000000000000000000000000000000000000000000000000000280000002800000000280000000000000000000000000000000000000000000000000000000000002D2800F5282D
310
2D0000000000000000000000000000000028000000002800000028000000000000000000000000000000000000000000000000000000000000000000000028000000002800000028000000000000000000000000000000000000000000000000000000000000000000000000000000000000002D2800F5282D2D0000000000
310
0000000000002800000000280000002800000000000000000000000000000000000000000000000000000000000000000000000000000000000000000000000000000000000000000000000000000000000000002800000028000000002800000000000000000000000000000000000000000000000000000000002D2800F5
310
282D2D0000000000000000000000000000000000280000000028000000280000000000000000000000000000000000000000000000000000000000000000000000280000000028000000280000000000000000000000000000000000000000000000000000000000000000000000000000000000002D2800F5282D2D000000
310
00000000000000000028000000002800000028000000000000000000000000000000000000000000000000000000000000000000000000000000000000000000000000000000000000000000000000000000000000000028000000280000000028000000000000000000000000000000000000000000000000000000002D28
310
00F5282D2D0000000000000000000000000000000000002800000000280000002800000000000000000000000000000000000000000000000000000000000000000000002800000000280000002800000000000000000000000000000000000000000000000000000000000000000000000000000000002D2800F5282D2D00
310
00000000000000000000000028000000002800000028000000000000000000000000000000000000000000000000000000000000000000000000000000000000000000000000000000000000000000000000000000000000000028000000280000000028000000000000000000000000000000000000000000000000000000
310
2D2800F5282D2D0000000000000000000000000000000000000028000000002800000028000000000000000000000000000000000000000000000000000000000000000000000028000000002800000028000000000000000000000000000000000000000000000000000000000000000000000000000000002D2800F5282D
310
2D000000000000000000000000000028000000002800000028000000000000000000000000000000000000000000000000000000000000000000000000000000000000000000000000000000000000000000000000000000000000000028000000280000000028000000000000000000000000000000000000000000000000
310
00002D2800F5282D2D0000000000000000000000000000000000000000280000000028000000280000000000000000000000000000000000000000000000000000000000000000000000280000000028000000280000000000000000000000000000000000000000000000000000000000000000000000000000002D2800F5
310
282D2D00000000000000000000000000000028000000002800000028000000000000000000000000000000000000000000000000000000000000000000000000000000000000000000000000000000000000000000000000000000000000000028000000280000000028000000000000000000000000000000000000000000
310
000000002D2800F5282D2D0000000000000000000000000000000000000000002800000000280000002800000000000000000000000000000000000000000000000000000000000000000000002800000028000000002800000000000000000000000000000000000000000000000000000000000000000000000000002D28
310
00F5282D2D0000000000000000000000000000000028000000280000000028000000000000000000000000000000000000000000000000000000000000000000000000000000000000000000000000000000000000000000000000000000000000000028000000280000000028000000000000000000000000000000000000
310
0000000000002D2800F5282D2D000000000000000000000000000000000000000000002800000000280000002800000000000000000000000000000000000000000000000000000000000000000000002800000028000000002800000000000000000000000000000000000000000000000000000000000000000000000000
310
2D2800F5282D2D000000000000000000000000000000000028000000280000000028000000000000000000000000000000000000000000000000000000000000000000000000000000000000000000000000000000000000000000000000000000000000000028000000280000000028000000000000000000000000000000
310
00000000000000002D2800F5282D2D00000000000000000000000000000000000000000000002800000000280000002800000000000000000000000000000000000000000000000000000000000000000000002800000028000000002800000000000000000000000000000000000000000000000000000000000000000000
310
00002D2800F5282D2D00000000000000000000000000000000000028000000280000000028000000000000000000000000000000000000000000000000000000000000000000000000000000000000000000000000000000000000002D2D2D2D2D2D2D2D2D2D2D2D2D282D2D2D282D2D2D2D282D2D2D2D2D2D2D2D2D2D2D2D
310
2D2D2D2D2D2D2D2D2D2D2D2D2D2D2D2D2D2D2D2D2D2D2D2D2D2D2D2D2D2D2D2D2D2D2D2D2D2D2D2D2D282D2D2D2D282D2D2D282D2D2D2D2D2D2D2D2D2D2D0000000000002D2D2D2D2D2D2D2D2D2D2D2D2D2D2D2D2D2D2D2D2D2D2D2D2D2D2D2D2D2D2D2D2D2D2D2D2D2D2D2D2D2D2D2D2D2D2D2D2D2D2D2D2D2D2D2D2D2D2D
310
2D2D2D2D2D2D2D2D2D2D2D2D2D2D2D2D2D2D2D2D2D2D2D2D2D2D2D2D2D2D2D2D2D2D2D2D2D2D2D2D2D2D2D2D2D2D2D2DF52D2D2D2D2D2D2D2D2D2D2D2D2D0000000000000000000000000000000000000000000000000000000000000000000000000000000000000000000000000000000000000000000000000000000000
310
000000000000002D2D2D2D2D2D2D2D2D282D2D2D2D2D2D2D00000000000000000000000000000000000000000000000000000000000000000000000000000000000000000000000000000000000000000000000000000000000000000000000000000000000000000000000000000000000000000000000000000000000000
310
2D2D2D2D2D2D2D2D2D2D282D2D2D2D2D2D2D0000000000000000000000000000000000000000000000000000000000000000000000000000000000000000002D000000000000000000000000000000000000000000000000000000000000000000000000000000000000000000000000000000000000000000000000000000
310
0000000000000000000000000000002D00F5282D0000000000000000000000000000000000000000000000000000000000000000000000000000000000000000000000000000000000000000000000000000000000000000000000000000000000000000000000000000000000000000000000000000000000000000000000
310
0000000000000000002D00F5282D0000000000000000000000000000000000000000000000000000000000000000000000000000000000000000000000000000002D00000000000000000000000000000000000000000000000000000000000000000000000000000000000000000000000000000000000000000000000000
310
00000000000000000000000000000000002D00F5282D000000000000000000000000000000000000000000000000000000000000000000000000000000000000000000000000000000000000000000000000000000000000000000000000000000000000000000000000000000000000000000000000000000000000000000
310
00000000000000000000002D00F5282D0000000000000000000000000000000000000000000000000000000000000000000000000000000000000000000000000000002D0000000000000000000000000000000000000000000000000000000000000000000000000000000000000000000000000000000000000000000000
310
000000000000000000000000000000000000F52D00F5282D00000000000000000000000000000000000000000000000000000000000000000000000000000000000000000000000000000000000000000000000000000000000000000000000000000000000000000000000000000000000000000000000000000000000000
310
000000000000000000000000F52D00F5282D0000000000000000000000000000000000000000000000000000000000000000000000000000000000000000000000000000002D00000000000000000000000000000000000000000000000000000000000000000000000000000000000000000000000000F5F5F5F5F5F5F5F5
310
F5F5F5F5F5F5F5F5F5F5F5F5F5F5F5F5F5F5F5F5002D00F5282D0000000000000000000000000000000000000000000000000000000000000000000000000000000000000000000000000000000000000000000000000000000000000000000000000000000000000000000000000000F5F5F5F5F5F5F5F5F5F5F5F5F5F5F5
310
F5F5F5F5F5F5F5F5F5F5F5F5F5F5002D00F5282D0000000000000000000000000000000000000000000000000000000000000000000000000000000000000000000000000000002D00000000000000000000000000000000000000000000000000000000000000000000000000000000000000000000000000F5F5F5F5F5F5
310
F5F500F5F50000F5F5F500F500F5F500000000000000002D00F5282D000000000000000000F5F5F5F5F5F5F5F5F5F5F5F5F5F5F5F5F5F5F5F5F5F5F5F5F50000000000000000000000000000000000000000000000000000000000000000000000000000000000000000000000000000000000F5F5F5F5F5F5F5F5F500F500
310
00F500F5F5F5F5F5F500000000000000002D00F5282D0000000000000000000000000000000000000000000000000000000000000000000000000000000000000000000000000000002D00000000000000000000000000000000000000000000000000000000000000000000000000000000000000000000000000F5F5F5F5
310
F5F5F500F5F5F5F50000F5F500F500F5F5000000000000002D2D2D2D282D2D00000000000000F500F50000F500F500F500F5F500F500F5F5F5F500F5F5F5F5000000000000000000000000000000000000000000000000000000000000000000000000000000000000000000000000000000000000F5F5F5F5F5F5F5F5F5F5
310
F5F500F5F5F500F5F5F5F5000000000000002D2D2D2D282D0000000000000000000000000000000000000000000000000000000000000000000000000000000000000000000000000000002D00000000000000000000000000000000000000000000000000000000000000000000000000000000000000000000000000F5F5
310
F5F5F5F5F5F5F5F5F50000F5F5F500F500F5F5000000000000002D2D00F5002D2D00000000000000F500F5F5F5F50000F5F5F5F5F500F5F5F5F50000F500F5F5F5000000000000000000000000000000000000000000000000000000000000000000000000000000000000000000000000000000000000F5F5F5F5F5F5F5F5
310
F500F50000F500F5F5F5F5F5F5000000000000002D0000F5002D0000000000000000000000000000000000000000000000000000000000000000000000000000000000000000000000000000002D00000000000000000000000000000000000000000000000000000000000000000000000000000000000000000000000000
310
000000000000000000000000000000000000000000000000000000002D2D2D2D2D2D2D000000000000F5000000F500F5F5F500F5F5000000F5000000F5F500F5F500F5000000000000000000000000000000000000000000000000000000000000000000000000000000000000000000000000000000000000000000000000
310
0000000000000000000000000000000000000000002D2D2D2D2D2D2D2D00000000000000000000000000000000000000000000000000000000000000000000000000000000000000000000000000002D0000000000000000000000000000000000000000000000000000000000000000000000000000000000000000000000
310
00000000000000000000000000000000000000000000000000002D2D2D2D2D2D2D2D2D2D2D2D2D2D000000F50000000000000000000000000000000000000000000000000000000000000000000000000000000000000000000000000000000000000000000000000000000000000000000000000000000000000000000000
310
00000000000000000000000000000000000000002D2D2D2D2D2D2D2D2D2D2D2D2D2D00000000000000000000000000000000000000000000000000000000000000000000000000000000000000000000002D000000000000000000000000000000000000000000000000000000000000000000000000000000000000000000
310
000000000000000000000000000000000000000000000000002D2D2D2D2D2D2D2D2D2D2D2D2D2D2D2D2D2D2D2D2D000000000000000000000000000000000000000000000000000000000000000000000000000000000000000000000000000000000000000000000000000000000000000000000000000000000000000000
310
0000000000000000000000000000000000000000002D2D2D2D2D2D2D2D2D2D2D2D2D2D2D2D2D0000000000000000000000000000000000000000000000000000000000000000000000000000000000000000002D00000000000000000000000000000000000000000000000000000000000000000000000000000000000000
310
00000000000000000000000000000000000000000000000000002D2D2D2D2D2D2D2D2D2D2D2D2D2D2D2D2D2D2D2D2D2D00000000000000000000000000000000000000000000000000000000000000000000000000000000000000000000000000000000000000000000000000000000000000000000000000000000000000
310
00000000000000000000000000000000000000000000002D00000000000000F5000000000000002D0000000000000000000000000000000000000000000000000000000000000000000000000000000000000000002D0000000000000000000000000000000000000000000000000000000000000000000000000000000000
310
000000000000000000000000000000000000000000000000000000002D2D000000000000000000F500000000000000F52D2D000000000000000000000000000000000000000000000000000000000000000000000000000000000000000000000000000000000000000000F5F5F5F5F5F5F5F5F5F5F5000000000000000000
310
000000000000000000000000000000000000000000000000002D00000000000000F5000000000000002D0000000000000000000000000000000000000000000000000000000000000000000000000000000000000000002D000000000000000000000000000000000000000000000000000000000000000000000000000000
310
0000000000000000000000000000000000000000000000000000000000002D2D000000000000000000F5000000000000F5002D2D0000000000000000000000000000000000000000000000000000000000000000000000000000000000000000000000000000000000000000000000F5F5F5F5F5F5F50000F5000000000000
310
0000000000000000000000000000000000000000000000000000002D00000000000000F5000000000000002D0000000000000000000000000000000000000000000000000000000000000000000000000000000000000000002D00000000000000000000000000000000000000000000000000000000000000000000000000
310
00000000000000000000000000000000000000000000000000000000000000002D2D000000000000000000F5000000000000F5002D2D00000000000000000000000000000000000000000000000000000000000000000000000000000000000000000000000000000000000000000000F5F5F5F5F5F5F5F50000F500000000
310
00000000000000000000000000000000000000000000000000000000002D00000000000000F5000000000000002D0000000000000000000000000000000000000000000000000000000000000000000000000000000000000000002D0000000000000000000000000000000000000000000000000000000000000000000000
310
000000000000000000000000000000000000000000000000000000000000000000002D2D000000000000000000F50000000000F500002D2D000000000000000000000000000000000000000000000000000000000000000000000000000000000000000000000000000000000000000000000000000000000000000000F500
310
000000000000000000000000000000000000000000000000000000000000002D00000000000000F5000000000000002D0000000000000000000000000000000000000000000000000000000000000000000000000000000000000000002D000000000000000000000000000000000000000000000000000000000000000000
310
0000000000000000000000000000000000000000000000000000000000000000000000002D2D000000000000000000F500000000000000002D2D000000000000000000000000000000000000000000000000000000000000000000000000000000000000000000000000000000000000000000000000000000000000000000
310
00F5000000000000000000000000000000000000000000000000000000000000002D00000000000000F5000000000000002D0000000000000000000000000000000000000000000000000000000000000000000000000000000000000000002D00000000000000000000000000000000000000000000000000000000000000
310
00000000000000000000000000000000000000000000000000000000000000000000000000002D2D000000000000000000F500000000000000002D2D00000000000000000000000000000000000000000000000000000000000000000000000000000000000000000000000000000000000000000000000000000000000000
310
000000F5000000000000000000000000000000000000000000000000000000000000002D00000000000000F5000000000000002D0000000000000000000000000000000000000000000000000000000000000000000000000000000000000000002D0000000000000000000000000000000000000000000000000000000000
310
000000000000000000000000000000000000000000000000000000000000000000000000000000002D2D000000000000000000F500000000000000002D2D0000000000000000000000000000000000000000000000000000000000000000000000000000000000000000000000000000000000000000000000000000000000
310
000000000000F50000000000000000000000000000000000000000000000000000000000002D00000000000000F5000000000000002D0000000000000000000000000000000000000000000000000000000000000000000000000000000000000000002D000000000000000000000000000000000000000000000000000000
310
000000000000000000000000000000000000000000000000000000000000F5F5F5F5F5F5F5F5F5F5F5002D2D000000000000000000F500000000000000002D2D000000000000000000000000000000000000000000000000000000000000000000000000000000000000000000000000000000000000000000000000000000
310
0000000000000000F50000000000000000000000000000000000000000000000000000000000002D00000000000000F5000000000000002D00000000000000000000000000000000000000000000000000002D0000000000000000000000000000000000002D00000000000000000000000000000000000000000000000000
310
000000000000000000000000000000000000000000000000000000000000000000F5F5F5F5F5F5F5F50000F52D2D002D2D2D2D2D2D2D2D2D2D2D2D2D2D2D2D2D2D2D00000000000000000000000000000000000000000000000000000000000000000000000000000000000000002828282828282828282828282828282828
310
28282828282828282828282828282828282828282828282828282828282828282828282828282828282D00000000000000F5000000000000002D2828282828282828282828282828282828282828282828282828282828282828000000000000000000000000002D0000000000000000000000000000000000000000000000
310
0000000000000000000000000000000000000000000000000000000000000000000000F5F5F5F5F5F5F5F50000F52D2D002D2D00000000282D2D282D000000002D2D2D2D0000000000000000000000000000000000000000000000000000000000000000000000000000000000000000000000000000000000000000000000
310
000000000000000000000000000000000000000000000000000000000000000000000000000000000000002D00000000000000F5000000000000002D00000000000000000000000000000000000000000000000000002D0000000000000000000000000000000000002D000000000000000000000000000000000000000000
310
0000000000000000000000000000000000000000000000000000000000000000000000000000000000000000000000002D2D002D00000000000000F50000000000002D2D2D2D000000000000000000000000000000000000000000000000000000000000000000000000000000000000000000000000000000000000000000
310
0000000000000000000000000000000000000000000000000000000000000000000000000000000000000000002D00000000000000F5000000000000002D00000000000000000000000000000000000000000000000000002D0000000000000000000000000000282828282D00000000000000000000000000000000000000
310
00000000000000000000000000000000000000000000000000000000000000000000000000000000000000000000000000002D2D002D00000000000000F50000000000002D2D2D2D00000000000000000000000000000000000000000000000000000000000000000000000000000000000000000000000000000000000000
310
00000000000000000000000000000000000000000000000000000000000000000000000000000000000000000000002D00000000000000F5000000000000002D00000000000000000000000000000000000000000000000000002D0000000000000000000000000000002828282D0000000000000000000000000000000000
310
000000000000000000000000000000000000000000000000000000000000000000000000000000000000000000000000000000002D2D002D00000000000000F50000000000002D2D2D2D0000000000000000000000000000000000000000000000000000000000000000000000000000000000000000000000000000000000
310
000000000000000000000000000000000000000000000000000000000000000000000000000000000000000000000000002D00000000000000F5000000000000002D00000000000000000000000000000000000000000000000000002D0000000000000000000000000000000000002D000000000000000000000000000000
310
0000000000000000000000000000000000000000000000000000000000000000000000000000000000000000000000000000000000002D2DF52D00000000000000F50000000000002D2D2D2D000000000000000000000000000000000000000000000000000000000000000000000000000000000000000000000000000000
310
0000000000000000000000000000000000000000000000000000000000000000000000000000000000000000000000000000002D00000000000000F5000000000000002D00000000000000000000000000000000000000000000000000002D0000000000000000000000000000000000002D00000000000000000000000000
310
00000000000000000000000000000000000000000000000000000000000000000000000000000000000000000000000000000000000000002D2DF52D00000000000000F50000000000002D2D2D2D00000000000000000000000000000000000000000000000000000000000000000000000000000000000000000000000000
310
00000000000000000000000000000000000000000000000000000000000000000000000000000000000000000000000000000000002D00000000000000F5000000000000002D00000000000000000000000000000000000000000000002828282D0000000000000000000000000000000000002D0000000000000000000000
310
000000000000000000000000000000000000000000000000000000000000000000000000000000000000000000000000000000000000000000002D2D002D00000000000000F50000000000002D2D2D2D0000000000000000000000000000000000000000000000000000000000000000000000000000000000000000000000
310
000000000000000000000000000000000000000000000000000000000000000000000000000000000000000000000000000000000000002D00000000000000F5000000000000002D00000000000000000000000000000000000000000000002828282D0000000000000000000000000000000000002D000000000000000000
310
0000000000000000000000000000000000000000000000000000000000000000000000000000000000000000000000000000000000000000000000002D2D002D00000000000000F50000000000002D2D2D2D000000000000000000000000000000000000000000000000000000000000000000000000000000000000000000
310
0000000000000000000000000000000000000000000000000000000000000000000000000000000000000000000000000000000000000000002D00000000000000F5000000000000002D00000000000000000000000000000000000000000000002828282D0000000000000000000000000000000000002D00000000000000
310
00000000000000000000000000000000000000000000000000000000000000000000000000000000000000000000000000000000000000000000000000002D2D002D00000000000000F50000000000002D2D2D2D00000000000000000000000000000000000000000000000000000000000000000000000000000000000000
310
00000000000000000000000000000000000000000000000000000000000000000000000000000000000000000000000000000000000000000000002D00000000000000F5000000000000002D00000000000000000000000000000000000000000000002828282D0000000000000000000000000000000000002D0000000000
310
0000000000000000000000000000000000000000000000000000000000000000000000000000F5F5F5F5F5F5F5F5F5F5F50000000000000000000000000000002D2D002D00000000000000F50000000000002D2D2D2D0000000000000000000000000000000000000000000000000000000000000000000000000000000000
310
000000000000000000000000000000000000000000000000000000000000000000000000000000000000000000000000000000000000000000000000002D00000000000000F5000000000000002D00000000000000000000000000000000000000000000000000002D0000000000000000000000000000000000002D000000
310
000000000000000000000000000000000000000000000000000000000000000000000000000000000000F5F5F5F5F5F5F50000F500000000000000000000000000002D2D002D00000000000000F50000000000002D2D2D2D000000000000000000000000000000000000000000000000000000000000000000000000000000
310
0000000000000000000000000000000000000000000000000000000000000000000000000000000000000000000000000000000000000000000000000000002D00000000000000F5000000000000002D00000000000000000000000000000000000000000000000000002D0000000000000000000000000000000000002D00
310
00000000000000000000000000000000000000000000000000000000000000000000000000000000000000F5F5F5F5F5F5F5F50000F500000000000000000000000000002D2D002D00000000000000F50000000000002D2D2D2D00000000000000000000000000000000000000000000000000000000000000000000000000
310
00000000000000000000000000000000000000000000000000000000000000000000000000000000000000000000000000000000000000000000000000000000002D00000000000000F5000000000000002D00000000000000000000000000000000000000000000000000002D000000000000000000000000000000000000
310
2D0000000000000000000000000000000000000000000000000000000000000000000000000000000000000000F5F5F500F5F5F5F5000000F5000000000000000000000000002D2D002D00000000000000F50000000000002D2D2D2D0000000000000000000000000000000000000000000000000000000000000000000000
310
000000000000000000000000000000000000000000000000000000000000000000000000000000000000000000000000000000000000000000000000000000000000002D00000000000000F5000000000000002D00000000000000000000000000000000000000000000000000002D00000000000000000000000000000000
310
00002D0000000000000000000000000000000000000000000000000000000000000000000000000000000000000000000000000000000000000000F50000000000000000000000002D2D002D2D000000000000F50000000000002D2D2D2D000000000000000000000000000000000000000000000000000000000000000000
310
0000000000000000000000000000000000000000000000000000000000000000000000000000000000000000000000000000000000000000000000000000000000000000002D00000000000000F5000000000000002D00000000000000000000000000000000000000000000000000002D0000000000000000000000000000
310
000000002D0000000000000000000000000000000000000000000000000000000000000000000000000000000000000000000000000000000000000000F50000000000000000000000002D2D002D2D2D2D2D2D2D2D2D2D2D2D2D2D2D2D2D2D2D00000000000000000000000000000000000000000000000000000000000000
310
00000000000000000000000000282828282828282828282828282828282828282828282828282828282828282828282828282828282828282828282828282828282828282828282D00000000000000F5000000000000002D282828282828282828282828282828282828282828282828282828282828282800000000000000
310
0000000000002D00000000000000000000000000000000000000000000000000000000000000002D2D2D2D2D2D2D2D2D2D2D2D2D2D2D2D2D2D2D2D2D2D2D2D2D2D2D2D2D2D2D2D2D2D2D2D2D2D2D002D2D2D2D2D2D2D2D2D2D2D2D2D2D2D2D2D2D2D2D2D2D2D2D2D2D2D2D2D2D2D2D2D2D2D2D2D2D2D2D2D2D2D2D2D2D2D2D
310
2D2D2D2D2D2D2D2D2D0000000000002D2D2D2D2D2D2D2D2D2D2D2D2D2D2D2D2D2D2D2D2D2D2D2D2D2D2D2D2D2D2D2D2D2D2D2D2D2D2D2D2D2D2D2D2D2D2D2D2D2D2D2D2D2D2D2D2D2D2D00000000000000F5000000000000002D2D2D2D2D2D2D2D2D2D2D2D2D2D2D2D2D2D2D2D2D2D2D2D2D2D2D2D2D2D2D2D2D0000000000
310
00000000000000002D000000000000000000000000000000000000000000000000000000000000000028282828282828282828282828282828282828282828282828282828282828282828282828282D002D28000000000000F5000000000028282D2D2D282828282828282828282828282828282828282828282828282828
310
2828282828282828282828000000000000000000000000002D2D2D2D2D2D2D0000000000000000002D2D2D2D2D2D2D000000000000000000000000000000000000000000000000000000002D0000000000000028000000000000002D0000000000000000000000000000000000000000000000000000000000000000000000
310
000000000000000000002D0000000000000000000000000000000000000000000000000000000000000000000000000000000000000000000000000000000000000000000000000000000000000000282D2D2D2D2828282828282828282828282828282D2D2D28282828280000000000000000000000000000000000000000
310
00000000002D00000000000000000000000000000000000000002D2D2D2D002D2D0000000000000000002D00002D2D2D2D000000000000000000000000000000000000000000000000000000002D00000000002828F5280000000000002D000000000000000000000000000000000000000000000000000000000000000000
310
0000000000000000000000002D0000000000000000000000000000000000000000000000000000000000000000000000000000000000000000000000000000000000000000000000000000000000000000282D2D0000000000000000000000000000000028002D2D2800280028000000000000000000000000000000000000
310
000000002800282D00000000000000000000000000000000000000000000000000F52D0000000000000000002D000000000000000000000000000000000000000000000000000000000000000000002D0000000000282828282D00000000002D00000000000000000000000000000000000000000000000000000000000000
310
00000000000000000000000000002D0000000000000000000000000000000000000000000000000000000000000000000000000000000000000000000000000000000000000000000000000000000000000000282D2D2828282828282828282828282828282828282D2D282828282800000000000000000000000000000000
310
0000000000002828282D00000000000000000000000000000000000000000000000000F52D0000000000000000002D000000000000000000000000000000000000000000000000000000000000000000002D00000000002828F5280000000000002D0000000000000000000000000000000000000000000000000000000000
310
000000000000000000000000000000002D0000000000000000000000000000000000000000000000000000000000000000000000000000000000000000000000000000000000000000000000000000000000000000002D2D000000000000000000F500000000000000002D2D28280000000000000000000000000000000000
310
00000000000000002828282D000000000000000000000000000000000000000000000000F52D2D0000000000000000002D000000000000000000000000000000000000000000000000000000000000000000002D0000000000002828000000000000002D000000000000000000000000000000000000000000000000000000
310
0000000000000000000000000000000000002D0000000000000000000000000000000000000000000000000000000000000000000000000000000000000000000000000000000000000000000000000000000000000000002D2D000000000000000000F500000000000000002D2D0000000000000000000000000000000000
310
000000000000000000002828282D00000000000000000000000000000000F5F5F5F5F5F5F5F5F52D2D0000000000000000002D000000000000000000000000000000000000000000000000000000000000000000002D2D2D2D2D2D2D2D2D2D2D2D2D2D2D2D0000000000000000000000000000000000000000000000000000
310
00000000000000000000000000000000000000002D0000000000000000000000000000000000000000000000000000000000000000000000000000000000000000000000000000000000000000000000000000000000000000000000000000000000000000F500000000000000000000000000000000000000000000000000
310
0000000000000000000000000000002D00000000000000000000000000000000F5F5F5F5F5F5F5F5002D2D0000000000000000002D000000000000000000000000000000000000000000000000000000000000000000000000000000000000F500000000000000000000000000000000000000000000000000000000000000
310
000000000000000000000000000000000000000000002D0000000000000000000000000000000000000000000000000000000000000000000000000000000000000000000000000000000000000000000000000000000000000000000000000000000000000000000000000000000000000000000000000000000000000000
310
00000000000000000000000000000000002D00000000000000000000000000000000F5F5F5F5F5F5F5F5002D2D0000000000000000002D000000000000000000000000000000000000000000000000000000000000000000000000000000000000000000000000000000000000000000000000000000000000000000000000
310
0000000000000000000000000000000000000000000000002D00000000000000000000000000000000000000000000000000000000000000002D2D2D2D2D2D2D2D2D2D2D2D2D2D2D2D2D2D2D2D2D2D2D2D2D2D2D2D2D2D2D2D2D2D2D2D2D2D2D2D2D2D2D2D2D2D2D2D2D2D2D2D2D2D2D2D2D2D2D2D2D2D2D2D2D2D2D2D2D2D
310
2D2D2D2D2D2D2D2D2D2D2D2D2D2D2D2D2D2D2D2D2D2D2D2D2D2D2D0000000000002D2D2D2D2D2D2D2D2D2D2D2D2D2D2D2D2D2D2D2D2D2D2D2D2D2D2D2D2D2D2D2D2D2D2D2D2D2D2D2D2D2D2D2D2D2D2D2D2D2D2D2D2D2D2D2D2D2D2D2D2D2D2D2D2D2D2D2D2D2D2D2D2D2D2D2D2D2D2D2D2D2D2D2D2D2D2D2D2D2D2D2D2D2D
310
2D2D2D2D2D2D2D2D2D2D2D2D2DF52D2D2D2D2D2D2D2D2D2D2D2DF500000000000000000000000000000000000000000000000000000000000000000000000000000000000000000000000000000000000000000000000000000000000000000000000000000000000000000000000000000000000000000000000000000000
310
0000000000000000000000000000000000000000002D000000000000000000000000000000000000000000000000000000000000000000000000000000000000000000000000000000000000000000000000000000000000000000000000000000000000000000000000000000000000000000000000000000000000000000
310
0000000000000000000000000000000000000000000000000000002D2D0000000000000000000000000000000000000000000000000000000000000000282828282828282828282828282828282828282828282828282828282828282828282828282828282828282828282828282828282828282828282828282828282828
310
28282828282828282828282828282828282828282828282828282828282828000000000000282828282828282828282828282828282828282828282828282828282828282828282828282828282828282828282828282828282828282828282828282828282828282828282828282828282828282828282828282828282828
310
28282828282828282828282828282828280000000000000000000000000000000000000000000000000000000000000000000000000000000000000000000000000000000000000000000000000000000000000000000000000000000000000000000000000000000000000000000000000000000000000000000000000000
310
00000000000000000000000000000000000000000000000000000000000000000000000000000000000000000000000000000000000000000000000000000000000000000000000000000000000000000000000000000000000000000000000000000000000000000000000000000000000000000000000000000000000000
310
00000000000000000000000000000000000000000000000000000000000000000000000000000000000000000000000000000000000000000000000000000000002828282828282828282828282828282828282828282828282828282828282828282828282828282828282828282828282828282828282828282828282828
310
28282828282828282828282828282828282828282828282828282828282828282828280000000000002828282828282828282828282828282828282828282828282828282828282828282828282828282828282828282828282828282828282828282828282828282828282828282828282828282828282828282828282828
310
282828282828282828282828282828282828282828000000000000000000000000000000000000000000000000000000000000000000000000000000000000000000002D2D2D2D2D2D2D2D2D2D2D2D2D2D2D2D2D2D2D2D2D2D2D2D2D2D2D2D2D2D2D2D2D2D2D2D2D2D2D2D2D2D2D2D2D2D2D2D2D2D2D2D2D2D2D2D2D2D2D2D
310
2D2D282D2D2D2D2D2D2D2D2D2D2D2D2D2D2D2D2D2D2D2D2D2D2D2D2D2D2D2D2D2D2D2D2D2D0000000000002D2D2D2D2D2D2D2D2D2D2D2D2D2D2D2D2D2D2D2D2D2D2D2D2D2D2D2D2D2D2D2D2D2D2D2D2D2D2D2D2D2D2D2D2D2D2D2D2D2D2D2D2D2D2D2D2D2D2D2D2D2D2D2D2D2D2D2D2D2D2D2D2D2D2D2D2D2D2D2D2D2D2D2D
310
2D2D2D2D2D2D2D2D2D2D2D2D2D2D2D2D2D2D2D2D2D2D2D000000000000000000000000000000000000000000000000000000000000000000000000000000000000000000000000000000280000000000000000000000000000000000000000000000000000000028000000000000000000000000000000F500000000000000
310
00000000280000000000000000000000000000000000000000000000000000000028000000000000000000000000000000000000000000000000000000000000000000000000000000000000000000000000000000000000000000000000000000000000000000000000000000000000000000000000000000000000000000
310
0000000000000000000000000000000000000000000000000000000000000000000000000000000000000000000000000000000000000000000000000000000000000000000000000028282828000000000000000000000000000000000000000000000000282828282800000000000000000000000000000000F500000000
310
00000028282828000000000000000000000000000000000000000000000000002828282800000000000000000000000000000000000000000000000000000000000000000000000000000000000000000000000000000000000000000000000000000000000000000000000000000000000000000000000000000000000000
310
00000000000000000000000000000000000000000000000000000000000000000000000000000000000000000000000000000000000000000000000000000000000000000000000000000028000000000000000000000000000000000000000000000000000000280000000000000000000000000000000000000000F50000
310
00000000002800000000000000000000000000000000000000000000000000000000280000000000000000000000000000000000000000000000000000000000000000000000000000000000000000000000000000000000000000000000000000000000000000000000000000000000000000000000000000000000000000
310
00000000000000000000000000000000000000000000000000000000000000000000000000000000000000000000000000000000000000000000000000000000000000000000000000000000002828282800000000000000000000000000000000000000000000000028282828280000000000000000000000000000000000
310
F5000000000000282828280000000000000000000000000000000000000000000000000028282828000000000000000000000000000000000000000000000000000000000000000000000000000000000000000000000000000000000000000000000000000000000000000000000000000000000000000000000000000000
310
00000000000000000000000000000000000000000000000000000000000000000000000000000000000000000000000000000000000000000000000000000000000000000000000000000000000000000000280000000000000000000000000000000000000000000000000000000028000000000000000000000000000000
310
0000F500000000000000000028000000000000000000000000000000000000000000000000000000002800000000000000000000000000000000000000000000000000000000000000000000000000000000000000000000000000000000000000000000000000000000000000000000000000000000000000000000000000
310
000000000000000000000000000000000000000000000000000000000000000000000000000000000000000000000000000000000000000000000000000000000000000000000000000000000000002D2D2D2D2D2D2D2D2D2D2D2D2D2D2D2D2D2D2D2D2D2D2D2D2D2D2D2D2D2D2D2D2D2D2D2D2D2D2D2D2D2D2D2D2D2D2D2D
310
2D2D2D2D2D2D2D2D2D2D2D2D2D2D282D2D2D2D2D2D2D2D2D2D2D2D2D2D2D2D2D2D2D2D2D2D2D2D2D2D2D2D2D2D2D2D2D2D0000000000002D2D2D2D2D2D2D2D2D2D2D2D2D2D2D2D2D2D2D2D2D2D2D2D2D2D2D2D2D2D2D2D2D2D2D2D2D2D2D2D2D2D2D2D2D2D2D2D2D2D2D2D2D2D2D2D2D2D2D2D2D2D2D2D2D2D2D2D2D2D2D2D
310
2D2D2D2D2D2D2D2D2D2D2D2D2D2D2D2D2D2D2D2D2D2D2D2D2D2D2D2D2D2D2D2D2D2D2D0000000000000000000000000000000000000000000000000000000000000000000000000000000000000000000000000000000000000000000000000000000000000000000000000000000000000000000000000000000000F50000
310
0000000000000000F500000000000000000000000000000000000000000000000000000000000000000000000000000000000000000000000000000000000000000000000000000000000000000000000000000000000000000000000000000000000000000000000000000000000000000000000000000000000000000000
310
000000000000000000000000000000000000000000000000000000000000000000000000000000000000000000000000000000000000000000000000000000000000000000000000000000000000000000000000000000000000000000000000000000000000000000000000000000000000000000000000000000000000F5
310
00000000000000000000F50000000000000000000000000000000000000000000000000000000000000000000000000000000000000000000000000000000000000000000000000000000000000000000000000000000000000000000000000000000000000000000000000000000000000000000000000000000000000000
310
00000000000000000000000000000000000000000000000000000000000000000000000000000000000000000000000000000000000000000000000000000000000000000000000000000000000000000000000000000000000000000000000000000000000000000000000000000000000000000000000000000000000000
310
0000F500000000000000000000F50000000000000000000000000000000000000000000000000000000000000000000000000000000000000000000000000000000000000000000000000000000000000000000000000000000000000000000000000000000000000000000000000000000000000000000000000000000000
310
00000000000000000000000000000000000000000000000000000000000000000000000000000000000000000000000000000000000000000000000000000000000000000000000000000000000000000000000000000000000000000000000000000000000000000000000000000000000000000000000000000000000000
310
00000000F500000000000000000000F5000000000000000000000000000000000000000000000000000000000000000000000000000000000000000000000000000000000000000000000000000000000000000000000000000000000000000000000000000000000000000000000000000000000000000000000000000000
310
00000000000000000000000000000000000000000000000000000000000000000000000000000000000000000000000000000000000000000000000000000000000000000000000000000000000000000000000000000000000000000000000000000000000000000000000000000000000000000000000000000000000000
310
00000000000000F500000000000000000000F5F5F5F5F5F5F5F5F5F5F5F5F5F5F5F5000000000000000000000000000000000000000000000000000000000000000000000000000000000000000000000000000000000000000000000000000000000000000000000000000000000000000000000000000000000000000000
310
00000000000000000000000000000000000000000000000000000000000000000000000000000000000000000000000000000000000000000000000000000000000000000000000000000000000000000000000000000000000000000000000000000000000000000000000000000000000000000000000000000000000000
310
00000000000000000000F5000000000000000000000000F5F5F5F5F5F5F5F5F5F500000000000000000000000000000000000000000000000000000000000000000000000000000000000000000000000000000000000000000000000000000000000000000000000000000000000000000000000000000000000000000000
310
00000000000000000000000000000000000000000000000000000000000000000000000000000000000000000000000000000000000000000000000000000000000000000000000000000000000000000000000000000000000000000000000000000000000000000000000000000000000000000000000000000000000000
310
000000000000000000000000F5000000000000000000000000F5F5F5F5F5F5F5F5F5F50000000000000000000000000000000000000000000000000000000000000000000000000000000000000000000000000000000000000000000000000000000000000000000000000000000000000000000000000000000000000000
310
00000000000000000000000000000000000000000000000000000000000000000000000000000000000000000000000000000000000000000000000000000000000000000000000000000000000000000000000000000000000000000000000000000000000000000000000000000000000000000000000000000000000000
310
000000000000000000000000000000F50000000000000000000000F5F500F5F5F5F500F500000000000000000000000000000000000000000000000000000000000000000000000000000000000000000000000000000000000000000000000000000000000000000000000000000000000000000000000000000000000000
310
00000000000000000000000000000000000000000000000000000000000000000000000000000000000000000000000000000000000000000000000000000000000000000000000000000000000000000000000000000000000000000000000000000000000000000000000000000000000000000000000000000000000000
310
0000000000000000000000000000000000F500000000000000000000000000000000000000000000000000000000000000000000000000000000000000000000000000000000000000000000000000000000000000000000000000000000000000000000000000000000000000000000000000000000000000000000000000
310
00000000000000000000000000000000000000000000000000000000000000000000000000000000000000000000000000000000000000000000000000000000000000000000000000000000000000000000000000000000000000000000000000000000000000000000000000000000000000000000000000000000000000
310
0000000000000000000000000000000000000000F5F5F5F5F5F5F5F5F5F5F5F5F5F5F5F5F5F5F5F5F5F5F5F5F500000000000000000000000000000000000000000000000000000000000000000000000000000000000000000000000000000000000000000000000000000000000000000000000000000000000000000000
310
00000000000000000000000000000000000000000000000000000000000000000000000000000000000000000000000000000000000000000000000000000000000000000000000000000000000000000000000000000000000000000000000000000000000000000000000000000000000000000000000000000000000000
310
00000000000000000000000000000000000000000000000000F5F5F5F5000000F5F5F5F5F5F5F5F5F500F5F50000000000000000000000000000000000000000000000000000000000000000000000000000000000000000000000000000000000000000000000000000000000000000000000000000000000000000000000
310
00000000000000000000000000000000000000000000000000000000000000000000000000000000000000000000000000000000000000000000000000000000000000000000000000000000000000000000000000000000000000000000000000000000000000000000000000000000000000000000000000000000000000
310
000000000000000000000000000000000000000000000000000000F5F5F5F5F5F5F5F5F5F5F5F5F5F5F5F5F5F5F5000000000000000000000000000000000000000000000000000000000000000000000000000000000000000000000000000000000000000000000000000000000000000000000000000000000000000000
310
00000000000000000000000000000000000000000000000000000000000000000000000000000000000000000000000000000000000000000000000000000000000000000000000000000000000000000000000000000000000000000000000000000000000000000000000000000000000000000000000000000000000000
310
000000000000000000000000000000000000000000000000000000000000000000000000000000000000F500F500000000000000000000000000000000000000000000000000000000000000000000000000000000000000000000000000000000000000000000000000000000000000000000000000000000000000000000
310
00000000000000000000000000000000000000000000000000000000000000000000000000000000000000000000000000000000000000000000000000000000000000000000000000000000000000000000000000000000000000000000000000000000000000000000000000000000000000000000000000000000000000
310
00000000000000000000000000000000000000000000000000000000000000000000000000000000000000000000000000000000000000000000000000000000000000000000000000000000000000000000000000000000000000000000000000000000000000000000000000000000000000000000000000000000000000
310
00000000000000000000000000000000000000000000000000000000000000000000000000000000000000000000000000000000000000000000000000000000000000000000000000000000000000000000000000000000000000000000000000000000000000000000000000000000000000000000000000000000000000
310
00000000000000000000000000000000000000000000000000000000000000000000000000000000000000000000000000000000000000000000000000000000000000000000000000000000000000000000000000000000000000000000000000000000000000000000000000000000000000000000000000000000000000
310
00000000000000000000000000000000000000000000000000000000000000000000000000000000000000000000000000000000000000000000000000000000000000000000000000000000000000000000000000000000000000000000000000000000000000000000000000000000000000000000000000000000000000
310
00000000000000000000000000000000000000000000000000000000000000000000000000000000000000000000000000000000000000000000000000000000000000000000000000000000000000000000000000000000000000000000000000000000000000000000000000000000000000000000000000000000000000
310
00000000000000000000000000000000000000000000000000000000000000000000000000000000000000000000000000000000000000000000000000000000000000000000000000000000000000000000000000000000000000000000000000000000000000000000000000000000000000000000000000000000000000
310
00000000000000000000000000000000000000000000000000000000000000000000000000000000000000000000000000000000000000000000000000000000000000000000000000000000000000000000000000000000000000000000000000000000000000000000000000000000000000000000000000000000000000
310
00000000000000000000000000000000000000000000000000000000000000000000000000000000000000000000000000000000000000000000000000000000000000000000000000000000000000000000000000000000000000000000000000000000000000000000000000000000000000000000000000000000000000
310
00000000000000000000000000000000000000000000000000000000000000000000000000000000000000000000000000000000000000000000000000000000000000000000000000000000000000000000000000000000000000002800002828002828282828000028002828002800002800000000002828282800282800
310
00280000280028002800280028002800000000000000000000000000000000000000000000000000000000000000000000000000000000000000000000000000000000000000000000000000000000000000000000000000000000000000000000000000000000000000000000000000000000000000000000000000000000
310
00000000000000000000000000000000000000000000000000000000000000000000000000000000000000000000000000000000000000000000000000000000000000000000000000000000000000000000002828000000000000000000280028282828002800002800002800282800280000280000280000002800002828
310
28282800280028002800280028002800280000000000000000000000000000000000000000000000000000000000000000000000000000000000000000000000000000000000000000000000000000000000000000000000000000000000000000000000000000000000000000000000000000000000000000000000000000
310
00000000000000000000000000000000000000000000000000000000000000000000000000000000000000000000000000000000000000000000000000000000000000000000000000000000000000000000000000282800002828282828000028000000002800002800280000280028280028000028280028280000002800
310
28000028000000282800280028002800280028000000000000000000000000000000000000000000000000000000000000000000000000000000000000000000000000000000000000000000000000000000000000000000000000000000000000000000000000000000000000000000000000000000000000000000000000
310
00000000000000000000000000000000000000000000000000000000000000000000000000000000000000000000000000000000000000000000000000000000000000000000000000000000000000000000000000000028280000282828282800002800000028280000002828282828282828282828280000280000000000
310
28282828280028282800282828282800282828282800000000000000000000000000000000000000000000000000000000000000000000000000000000000000000000000000000000000000000000000000000000000000000000000000000000000000000000000000000000000000000000000000000000000000000000
310
00000000000000000000000000000000000000000000000000000000000000000000000000000000000000000000000000000000000000000000000000000000000000000000000000000000000000000000000000000000002800000000000000000028280000282828282828280000000000000000000000000000000000
310
28282828282828282828280000000000000000000000000000000000000000000000000000000000000000000000000000000000000000000000000000000000000000000000000000000000000000000000000000000000000000000000000000000000000000000000000000000000000000000000000000000000000000
310
00000000000000000000000000000000000000000000000000000000000000000000000000000000000000000000000000000000000000000000000000000000000000000000000000000000000000000000000000000000000000000000000000000000000000000000000000000000000000000000000000000000000000
310
00000000000000000000000000000000000000000000000000000000000000000000000000000000000000000000000000000000000000000000000000000000000000000000000000000000000000000000000000000000000000000000000000000000000000000000000000000000000000000000000000000000000000
310
00000000000000000000000000000000000000000000000000000000000000000000000000000000000000000000000000000000000000000000000000000000000000282828282800000000002800002828280028282800002828282800282828000000282828280028002800002800282800000000000000282828000000
310
00000028282828000000000000000000000000000000000000000000000000000000000000000000000000000000000000000000000000000000000000000000000000000000000000000000000000000000000000000000000000000000000000000000000000000000000000000000000000000000000000000000000000
310
00000000002828282800282800280000282800000000000000000000000000000000002828002800282828000000282800002828280000282828280000000000000028280000282828280000002828002828002800282828282800282828002828002800000028282828282828280028280028280000282800002800280000
310
28002828002828002800280028000000280000000028000000002800000028000000000000000000000000000000000000000000000000000000000000000000000000000000000000000000000000000000000000000000000000000000000000000000000000000000000000000000000000000000000000000000000000
310
00000000000000282828280000282800000028280000000000000028002828000000000000002828000028282800002800280000280028000028000000002828282828280028282800280028000000280000282828280028282828002828282800282828280000002828002800282828280028282828000000280000282828
310
28002828002800282828280028282828002800280000282800000000002800000028000000000000000000000000000000000000000000000000000000000000000000000000000000000000000000000000000000000000000000000000000000000000000000000000000000000000000000000000000000000000000000
310
00000000000000000028282828000000280000002828000028282828000028280000282828280000002800002800280000280028000028282800002800000000000000000028000028002828282800000028000028282828282828282828282828280028282828000000282828282828282828002828282800002828000028
310
28282800282828280028002800000028002800002828280000280000000000280000002800000000000000000000000000000000000000000000000000000000000000000000000000000000000000000000000000000000000000000000000000000000000000000000000000000000000000000000000000000000000000
310
00000000000000000000002828282800282828000000282800000000000000000028280000000000002828280000282828000028282800002828280000280000000000000000002800002828282828280000002828280000282800282828280028282828002828282800000000282800002828282828282828280000000000
310
00282828280028002800002828280000282828000000280000000000280000282828280028000000000000000000000000000000000000000000000000000000000000000000000000000000000000000000000000000000000000000000000000000000000000000000000000000000000000000000000000000000000000
310
00000000000000000000000000000000000000000000000000000000000000000000000000000000000000000000000000000000000000000000000000000000000000000000000000000000000000000028000000000000282800280000282800002828282800000000000000000028002800000028000000000000000000
310
000000280000000000000000002800000000000000000000000000000000000000000000000000000000000000000000000000000000000000000000000000000000000000000000000000000000000000000000000000000000000000000000000000000000000000000000000000000000000000000000000000
  0
XRECORD
  5
A90E
102
{ACAD_REACTORS
330
5F6D
102
}
330
5F6D
100
AcDbXrecord
280
     1
102
MATERIAL
148
0.0
149
0.0
149
0.0
 93
        0
 94
      127
282
     0
 72
     0
 77
     0
171
     0
175
     0
179
     0
273
     0
  0
XRECORD
  5
5F6F
102
{ACAD_REACTORS
330
5F6D
102
}
330
5F6D
100
AcDbXrecord
280
     1
270
     1
271
     1
  0
XRECORD
  5
5F6E
102
{ACAD_REACTORS
330
5F6D
102
}
330
5F6D
100
AcDbXrecord
280
     1
270
     1
271
     1
  0
XRECORD
  5
5F72
102
{ACAD_REACTORS
330
5F6D
102
}
330
5F6D
100
AcDbXrecord
280
     1
270
     1
271
     1
  0
XRECORD
  5
5F71
102
{ACAD_REACTORS
330
5F6D
102
}
330
5F6D
100
AcDbXrecord
280
     1
270
     1
271
     1
  0
XRECORD
  5
5F73
102
{ACAD_REACTORS
330
5F6D
102
}
330
5F6D
100
AcDbXrecord
280
     1
270
     1
271
     1
  0
XRECORD
  5
5F70
102
{ACAD_REACTORS
330
5F6D
102
}
330
5F6D
100
AcDbXrecord
280
     1
270
     1
271
     1
  0
XRECORD
  5
A90D
102
{ACAD_REACTORS
330
5F65
102
}
330
5F65
100
AcDbXrecord
280
     1
102
MATERIAL
148
0.0
149
0.0
149
0.0
 93
        0
 94
      127
282
     0
 72
     0
 77
     0
171
     0
175
     0
179
     0
273
     0
  0
XRECORD
  5
5F67
102
{ACAD_REACTORS
330
5F65
102
}
330
5F65
100
AcDbXrecord
280
     1
270
     1
271
     1
  0
XRECORD
  5
5F66
102
{ACAD_REACTORS
330
5F65
102
}
330
5F65
100
AcDbXrecord
280
     1
270
     1
271
     1
  0
XRECORD
  5
5F6A
102
{ACAD_REACTORS
330
5F65
102
}
330
5F65
100
AcDbXrecord
280
     1
270
     1
271
     1
  0
XRECORD
  5
5F69
102
{ACAD_REACTORS
330
5F65
102
}
330
5F65
100
AcDbXrecord
280
     1
270
     1
271
     1
  0
XRECORD
  5
5F6B
102
{ACAD_REACTORS
330
5F65
102
}
330
5F65
100
AcDbXrecord
280
     1
270
     1
271
     1
  0
XRECORD
  5
5F68
102
{ACAD_REACTORS
330
5F65
102
}
330
5F65
100
AcDbXrecord
280
     1
270
     1
271
     1
  0
XRECORD
  5
A90F
102
{ACAD_REACTORS
330
5F75
102
}
330
5F75
100
AcDbXrecord
280
     1
102
MATERIAL
148
0.0
149
0.0
149
0.0
 93
        0
 94
      127
282
     0
 72
     0
 77
     0
171
     0
175
     0
179
     0
273
     0
  0
XRECORD
  5
5F77
102
{ACAD_REACTORS
330
5F75
102
}
330
5F75
100
AcDbXrecord
280
     1
270
     1
271
     1
  0
XRECORD
  5
5F76
102
{ACAD_REACTORS
330
5F75
102
}
330
5F75
100
AcDbXrecord
280
     1
270
     1
271
     1
  0
XRECORD
  5
5F7A
102
{ACAD_REACTORS
330
5F75
102
}
330
5F75
100
AcDbXrecord
280
     1
270
     1
271
     1
  0
XRECORD
  5
5F79
102
{ACAD_REACTORS
330
5F75
102
}
330
5F75
100
AcDbXrecord
280
     1
270
     1
271
     1
  0
XRECORD
  5
5F7B
102
{ACAD_REACTORS
330
5F75
102
}
330
5F75
100
AcDbXrecord
280
     1
270
     1
271
     1
  0
XRECORD
  5
5F78
102
{ACAD_REACTORS
330
5F75
102
}
330
5F75
100
AcDbXrecord
280
     1
270
     1
271
     1
  0
XRECORD
  5
A90B
102
{ACAD_REACTORS
330
A90A
102
}
330
A90A
100
AcDbXrecord
280
     1
102
ACAD_ROUNDTRIP_2012_MLEADER_STYLE
298
     1
  0
CELLSTYLEMAP
  5
A909
102
{ACAD_REACTORS
330
A2CE
102
}
330
A2CE
100
AcDbCellStyleMap
 90
        3
300
CELLSTYLE
  1
TABLEFORMAT_BEGIN
 90
        5
170
     1
 91
        0
 92
    32768
 62
   257
 93
        1
300
CONTENTFORMAT
  1
CONTENTFORMAT_BEGIN
 90
        0
 91
        0
 92
      512
 93
        0
300

 40
0.0
140
1.0
 94
        5
 62
     0
340
11
144
0.25
309
CONTENTFORMAT_END
171
     0
 94
        0
309
TABLEFORMAT_END
  1
CELLSTYLE_BEGIN
 90
        1
 91
        1
300
_TITLE
309
CELLSTYLE_END
300
CELLSTYLE
  1
TABLEFORMAT_BEGIN
 90
        5
170
     1
 91
        0
 92
        0
 62
   257
 93
        1
300
CONTENTFORMAT
  1
CONTENTFORMAT_BEGIN
 90
        0
 91
        0
 92
      512
 93
        0
300

 40
0.0
140
1.0
 94
        5
 62
     0
340
11
144
0.18
309
CONTENTFORMAT_END
171
     0
 94
        0
309
TABLEFORMAT_END
  1
CELLSTYLE_BEGIN
 90
        2
 91
        1
300
_HEADER
309
CELLSTYLE_END
300
CELLSTYLE
  1
TABLEFORMAT_BEGIN
 90
        5
170
     1
 91
        0
 92
        0
 62
   257
 93
        1
300
CONTENTFORMAT
  1
CONTENTFORMAT_BEGIN
 90
        0
 91
        0
 92
      512
 93
        0
300

 40
0.0
140
1.0
 94
        2
 62
     0
340
11
144
0.18
309
CONTENTFORMAT_END
171
     0
 94
        0
309
TABLEFORMAT_END
  1
CELLSTYLE_BEGIN
 90
        3
 91
        2
300
_DATA
309
CELLSTYLE_END
  0
XRECORD
  5
A940
102
{ACAD_REACTORS
330
A2CE
102
}
330
A2CE
100
AcDbXrecord
280
     1
102
ACAD_ROUNDTRIP_PRE2007_TABLESTYLE
 90
      512
 91
        0
  1

 92
      512
 93
        0
  2

 94
      512
 95
        0
  3

  0
XRECORD
  5
A91B
102
{ACAD_REACTORS
330
A91A
102
}
330
A91A
100
AcDbXrecord
280
     1
102
RTVSPropertyOp0
 70
     1
102
RTVSPropertyOp1
 70
     1
102
RTVSPropertyOp2
 70
     1
102
RTVSPropertyOp3
 70
     1
102
RTVSPropertyOp4
 70
     1
102
RTVSPropertyOp5
 70
     1
102
RTVSPropertyOp6
 70
     1
102
RTVSPropertyOp7
 70
     1
102
RTVSPropertyOp8
 70
     1
102
RTVSPropertyOp9
 70
     1
102
RTVSPropertyOp10
 70
     1
102
RTVSPropertyOp11
 70
     1
102
RTVSPropertyOp12
 70
     1
102
RTVSPropertyOp13
 70
     1
102
RTVSPropertyOp14
 70
     1
102
RTVSPropertyOp15
 70
     1
102
RTVSPropertyOp16
 70
     1
102
RTVSPropertyOp17
 70
     1
102
RTVSPropertyOp18
 70
     1
102
RTVSPropertyOp19
 70
     1
102
RTVSPropertyOp20
 70
     1
102
RTVSPropertyOp21
 70
     1
102
RTVSPropertyOp22
 70
     1
102
RTVSPropertyOp23
 70
     1
102
RTVSPropertyOp24
 70
     1
102
RTVSPropertyOp25
 70
     1
102
RTVSPropertyOp26
 70
     1
102
RTVSPropertyOp27
 70
     1
102
RTVSPropertyOp28
 70
     1
102
RTVSPropertyOp29
 70
     1
102
RTVSPropertyOp30
 70
     1
102
RTVSPropertyOp31
 70
     1
102
RTVSPropertyOp32
 70
     1
  0
XRECORD
  5
A919
102
{ACAD_REACTORS
330
A918
102
}
330
A918
100
AcDbXrecord
280
     1
102
RTVSPropertyOp0
 70
     1
102
RTVSPropertyOp1
 70
     1
102
RTVSPropertyOp2
 70
     1
102
RTVSPropertyOp3
 70
     1
102
RTVSPropertyOp4
 70
     1
102
RTVSPropertyOp5
 70
     1
102
RTVSPropertyOp6
 70
     1
102
RTVSPropertyOp7
 70
     1
102
RTVSPropertyOp8
 70
     1
102
RTVSPropertyOp9
 70
     1
102
RTVSPropertyOp10
 70
     1
102
RTVSPropertyOp11
 70
     1
102
RTVSPropertyOp12
 70
     1
102
RTVSPropertyOp13
 70
     1
102
RTVSPropertyOp14
 70
     1
102
RTVSPropertyOp15
 70
     1
102
RTVSPropertyOp16
 70
     1
102
RTVSPropertyOp17
 70
     1
102
RTVSPropertyOp18
 70
     1
102
RTVSPropertyOp19
 70
     1
102
RTVSPropertyOp20
 70
     1
102
RTVSPropertyOp21
 70
     1
102
RTVSPropertyOp22
 70
     1
102
RTVSPropertyOp23
 70
     1
102
RTVSPropertyOp24
 70
     1
102
RTVSPropertyOp25
 70
     1
102
RTVSPropertyOp26
 70
     1
102
RTVSPropertyOp27
 70
     1
102
RTVSPropertyOp28
 70
     1
102
RTVSPropertyOp29
 70
     1
102
RTVSPropertyOp30
 70
     1
102
RTVSPropertyOp31
 70
     1
102
RTVSPropertyOp32
 70
     1
  0
XRECORD
  5
A927
102
{ACAD_REACTORS
330
A926
102
}
330
A926
100
AcDbXrecord
280
     1
102
RTVSPropertyOp0
 70
     1
102
RTVSPropertyOp1
 70
     1
102
RTVSPropertyOp2
 70
     1
102
RTVSPropertyOp3
 70
     1
102
RTVSPropertyOp4
 70
     1
102
RTVSPropertyOp5
 70
     1
102
RTVSPropertyOp6
 70
     1
102
RTVSPropertyOp7
 70
     1
102
RTVSPropertyOp8
 70
     1
102
RTVSPropertyOp9
 70
     1
102
RTVSPropertyOp10
 70
     1
102
RTVSPropertyOp11
 70
     1
102
RTVSPropertyOp12
 70
     1
102
RTVSPropertyOp13
 70
     1
102
RTVSPropertyOp14
 70
     1
102
RTVSPropertyOp15
 70
     1
102
RTVSPropertyOp16
 70
     1
102
RTVSPropertyOp17
 70
     1
102
RTVSPropertyOp18
 70
     1
102
RTVSPropertyOp19
 70
     1
102
RTVSPropertyOp20
 70
     1
102
RTVSPropertyOp21
 70
     1
102
RTVSPropertyOp22
 70
     1
102
RTVSPropertyOp23
 70
     1
102
RTVSPropertyOp24
 70
     1
102
RTVSPropertyOp25
 70
     1
102
RTVSPropertyOp26
 70
     1
102
RTVSPropertyOp27
 70
     1
102
RTVSPropertyOp28
 70
     1
102
RTVSPropertyOp29
 70
     1
102
RTVSPropertyOp30
 70
     1
102
RTVSPropertyOp31
 70
     1
102
RTVSPropertyOp32
 70
     1
  0
XRECORD
  5
A92F
102
{ACAD_REACTORS
330
A92E
102
}
330
A92E
100
AcDbXrecord
280
     1
102
RTVSPropertyOp0
 70
     1
102
RTVSPropertyOp1
 70
     1
102
RTVSPropertyOp2
 70
     1
102
RTVSPropertyOp3
 70
     1
102
RTVSPropertyOp4
 70
     1
102
RTVSPropertyOp5
 70
     1
102
RTVSPropertyOp6
 70
     1
102
RTVSPropertyOp7
 70
     1
102
RTVSPropertyOp8
 70
     1
102
RTVSPropertyOp9
 70
     1
102
RTVSPropertyOp10
 70
     1
102
RTVSPropertyOp11
 70
     1
102
RTVSPropertyOp12
 70
     1
102
RTVSPropertyOp13
 70
     1
102
RTVSPropertyOp14
 70
     1
102
RTVSPropertyOp15
 70
     1
102
RTVSPropertyOp16
 70
     1
102
RTVSPropertyOp17
 70
     1
102
RTVSPropertyOp18
 70
     1
102
RTVSPropertyOp19
 70
     1
102
RTVSPropertyOp20
 70
     1
102
RTVSPropertyOp21
 70
     1
102
RTVSPropertyOp22
 70
     1
102
RTVSPropertyOp23
 70
     1
102
RTVSPropertyOp24
 70
     1
102
RTVSPropertyOp25
 70
     1
102
RTVSPropertyOp26
 70
     1
102
RTVSPropertyOp27
 70
     1
102
RTVSPropertyOp28
 70
     1
102
RTVSPropertyOp29
 70
     1
102
RTVSPropertyOp30
 70
     1
102
RTVSPropertyOp31
 70
     1
102
RTVSPropertyOp32
 70
     1
  0
XRECORD
  5
A921
102
{ACAD_REACTORS
330
A920
102
}
330
A920
100
AcDbXrecord
280
     1
102
RTVSPropertyOp0
 70
     1
102
RTVSPropertyOp1
 70
     1
102
RTVSPropertyOp2
 70
     1
102
RTVSPropertyOp3
 70
     1
102
RTVSPropertyOp4
 70
     1
102
RTVSPropertyOp5
 70
     1
102
RTVSPropertyOp6
 70
     1
102
RTVSPropertyOp7
 70
     1
102
RTVSPropertyOp8
 70
     1
102
RTVSPropertyOp9
 70
     1
102
RTVSPropertyOp10
 70
     1
102
RTVSPropertyOp11
 70
     1
102
RTVSPropertyOp12
 70
     1
102
RTVSPropertyOp13
 70
     1
102
RTVSPropertyOp14
 70
     1
102
RTVSPropertyOp15
 70
     1
102
RTVSPropertyOp16
 70
     1
102
RTVSPropertyOp17
 70
     1
102
RTVSPropertyOp18
 70
     1
102
RTVSPropertyOp19
 70
     1
102
RTVSPropertyOp20
 70
     1
102
RTVSPropertyOp21
 70
     1
102
RTVSPropertyOp22
 70
     1
102
RTVSPropertyOp23
 70
     1
102
RTVSPropertyOp24
 70
     1
102
RTVSPropertyOp25
 70
     1
102
RTVSPropertyOp26
 70
     1
102
RTVSPropertyOp27
 70
     1
102
RTVSPropertyOp28
 70
     1
102
RTVSPropertyOp29
 70
     1
102
RTVSPropertyOp30
 70
     1
102
RTVSPropertyOp31
 70
     1
102
RTVSPropertyOp32
 70
     1
  0
XRECORD
  5
A925
102
{ACAD_REACTORS
330
A924
102
}
330
A924
100
AcDbXrecord
280
     1
102
RTVSPropertyOp0
 70
     1
102
RTVSPropertyOp1
 70
     1
102
RTVSPropertyOp2
 70
     1
102
RTVSPropertyOp3
 70
     1
102
RTVSPropertyOp4
 70
     1
102
RTVSPropertyOp5
 70
     1
102
RTVSPropertyOp6
 70
     1
102
RTVSPropertyOp7
 70
     1
102
RTVSPropertyOp8
 70
     1
102
RTVSPropertyOp9
 70
     1
102
RTVSPropertyOp10
 70
     1
102
RTVSPropertyOp11
 70
     1
102
RTVSPropertyOp12
 70
     1
102
RTVSPropertyOp13
 70
     1
102
RTVSPropertyOp14
 70
     1
102
RTVSPropertyOp15
 70
     1
102
RTVSPropertyOp16
 70
     1
102
RTVSPropertyOp17
 70
     1
102
RTVSPropertyOp18
 70
     1
102
RTVSPropertyOp19
 70
     1
102
RTVSPropertyOp20
 70
     1
102
RTVSPropertyOp21
 70
     1
102
RTVSPropertyOp22
 70
     1
102
RTVSPropertyOp23
 70
     1
102
RTVSPropertyOp24
 70
     1
102
RTVSPropertyOp25
 70
     1
102
RTVSPropertyOp26
 70
     1
102
RTVSPropertyOp27
 70
     1
102
RTVSPropertyOp28
 70
     1
102
RTVSPropertyOp29
 70
     1
102
RTVSPropertyOp30
 70
     1
102
RTVSPropertyOp31
 70
     1
102
RTVSPropertyOp32
 70
     1
  0
XRECORD
  5
A93F
102
{ACAD_REACTORS
330
A93E
102
}
330
A93E
100
AcDbXrecord
280
     1
102
RTVSPropertyOp0
 70
     0
102
RTVSPropertyOp1
 70
     0
102
RTVSPropertyOp2
 70
     0
102
RTVSPropertyOp3
 70
     0
102
RTVSPropertyOp4
 70
     0
102
RTVSPropertyOp5
 70
     0
102
RTVSPropertyOp6
 70
     0
102
RTVSPropertyOp7
 70
     0
102
RTVSPropertyOp8
 70
     0
102
RTVSPropertyOp9
 70
     0
102
RTVSPropertyOp10
 70
     0
102
RTVSPropertyOp11
 70
     0
102
RTVSPropertyOp12
 70
     0
102
RTVSPropertyOp13
 70
     0
102
RTVSPropertyOp14
 70
     2
102
RTVSPropertyOp15
 70
     0
102
RTVSPropertyOp16
 70
     0
102
RTVSPropertyOp17
 70
     0
102
RTVSPropertyOp18
 70
     0
102
RTVSPropertyOp19
 70
     0
102
RTVSPropertyOp20
 70
     0
102
RTVSPropertyOp21
 70
     0
102
RTVSPropertyOp22
 70
     0
102
RTVSPropertyOp23
 70
     0
102
RTVSPropertyOp24
 70
     0
102
RTVSPropertyOp25
 70
     0
102
RTVSPropertyOp26
 70
     0
102
RTVSPropertyOp27
 70
     0
102
RTVSPropertyOp28
 70
     1
102
RTVSPropertyOp29
 70
     1
102
RTVSPropertyOp30
 70
     1
102
RTVSPropertyOp31
 70
     1
102
RTVSPropertyOp32
 70
     1
  0
XRECORD
  5
A92D
102
{ACAD_REACTORS
330
A92C
102
}
330
A92C
100
AcDbXrecord
280
     1
102
RTVSPropertyOp0
 70
     1
102
RTVSPropertyOp1
 70
     1
102
RTVSPropertyOp2
 70
     1
102
RTVSPropertyOp3
 70
     1
102
RTVSPropertyOp4
 70
     1
102
RTVSPropertyOp5
 70
     1
102
RTVSPropertyOp6
 70
     1
102
RTVSPropertyOp7
 70
     1
102
RTVSPropertyOp8
 70
     1
102
RTVSPropertyOp9
 70
     1
102
RTVSPropertyOp10
 70
     1
102
RTVSPropertyOp11
 70
     1
102
RTVSPropertyOp12
 70
     1
102
RTVSPropertyOp13
 70
     1
102
RTVSPropertyOp14
 70
     1
102
RTVSPropertyOp15
 70
     1
102
RTVSPropertyOp16
 70
     1
102
RTVSPropertyOp17
 70
     1
102
RTVSPropertyOp18
 70
     1
102
RTVSPropertyOp19
 70
     1
102
RTVSPropertyOp20
 70
     1
102
RTVSPropertyOp21
 70
     1
102
RTVSPropertyOp22
 70
     1
102
RTVSPropertyOp23
 70
     1
102
RTVSPropertyOp24
 70
     1
102
RTVSPropertyOp25
 70
     1
102
RTVSPropertyOp26
 70
     1
102
RTVSPropertyOp27
 70
     1
102
RTVSPropertyOp28
 70
     1
102
RTVSPropertyOp29
 70
     1
102
RTVSPropertyOp30
 70
     1
102
RTVSPropertyOp31
 70
     1
102
RTVSPropertyOp32
 70
     1
  0
XRECORD
  5
A911
102
{ACAD_REACTORS
330
A910
102
}
330
A910
100
AcDbXrecord
280
     1
102
RTVSPropertyOp0
 70
     1
102
RTVSPropertyOp1
 70
     1
102
RTVSPropertyOp2
 70
     1
102
RTVSPropertyOp3
 70
     1
102
RTVSPropertyOp4
 70
     1
102
RTVSPropertyOp5
 70
     1
102
RTVSPropertyOp6
 70
     1
102
RTVSPropertyOp7
 70
     1
102
RTVSPropertyOp8
 70
     1
102
RTVSPropertyOp9
 70
     1
102
RTVSPropertyOp10
 70
     1
102
RTVSPropertyOp11
 70
     1
102
RTVSPropertyOp12
 70
     1
102
RTVSPropertyOp13
 70
     1
102
RTVSPropertyOp14
 70
     1
102
RTVSPropertyOp15
 70
     1
102
RTVSPropertyOp16
 70
     1
102
RTVSPropertyOp17
 70
     1
102
RTVSPropertyOp18
 70
     1
102
RTVSPropertyOp19
 70
     1
102
RTVSPropertyOp20
 70
     1
102
RTVSPropertyOp21
 70
     1
102
RTVSPropertyOp22
 70
     1
102
RTVSPropertyOp23
 70
     1
102
RTVSPropertyOp24
 70
     1
102
RTVSPropertyOp25
 70
     1
102
RTVSPropertyOp26
 70
     1
102
RTVSPropertyOp27
 70
     1
102
RTVSPropertyOp28
 70
     1
102
RTVSPropertyOp29
 70
     1
102
RTVSPropertyOp30
 70
     1
102
RTVSPropertyOp31
 70
     1
102
RTVSPropertyOp32
 70
     1
  0
XRECORD
  5
A913
102
{ACAD_REACTORS
330
A912
102
}
330
A912
100
AcDbXrecord
280
     1
102
RTVSPropertyOp0
 70
     1
102
RTVSPropertyOp1
 70
     1
102
RTVSPropertyOp2
 70
     1
102
RTVSPropertyOp3
 70
     1
102
RTVSPropertyOp4
 70
     1
102
RTVSPropertyOp5
 70
     1
102
RTVSPropertyOp6
 70
     1
102
RTVSPropertyOp7
 70
     1
102
RTVSPropertyOp8
 70
     1
102
RTVSPropertyOp9
 70
     1
102
RTVSPropertyOp10
 70
     1
102
RTVSPropertyOp11
 70
     1
102
RTVSPropertyOp12
 70
     1
102
RTVSPropertyOp13
 70
     1
102
RTVSPropertyOp14
 70
     1
102
RTVSPropertyOp15
 70
     1
102
RTVSPropertyOp16
 70
     1
102
RTVSPropertyOp17
 70
     1
102
RTVSPropertyOp18
 70
     1
102
RTVSPropertyOp19
 70
     1
102
RTVSPropertyOp20
 70
     1
102
RTVSPropertyOp21
 70
     1
102
RTVSPropertyOp22
 70
     1
102
RTVSPropertyOp23
 70
     1
102
RTVSPropertyOp24
 70
     1
102
RTVSPropertyOp25
 70
     1
102
RTVSPropertyOp26
 70
     1
102
RTVSPropertyOp27
 70
     1
102
RTVSPropertyOp28
 70
     1
102
RTVSPropertyOp29
 70
     1
102
RTVSPropertyOp30
 70
     1
102
RTVSPropertyOp31
 70
     1
102
RTVSPropertyOp32
 70
     1
  0
XRECORD
  5
A915
102
{ACAD_REACTORS
330
A914
102
}
330
A914
100
AcDbXrecord
280
     1
102
RTVSPropertyOp0
 70
     1
102
RTVSPropertyOp1
 70
     1
102
RTVSPropertyOp2
 70
     1
102
RTVSPropertyOp3
 70
     1
102
RTVSPropertyOp4
 70
     1
102
RTVSPropertyOp5
 70
     1
102
RTVSPropertyOp6
 70
     1
102
RTVSPropertyOp7
 70
     1
102
RTVSPropertyOp8
 70
     1
102
RTVSPropertyOp9
 70
     1
102
RTVSPropertyOp10
 70
     1
102
RTVSPropertyOp11
 70
     1
102
RTVSPropertyOp12
 70
     1
102
RTVSPropertyOp13
 70
     1
102
RTVSPropertyOp14
 70
     1
102
RTVSPropertyOp15
 70
     1
102
RTVSPropertyOp16
 70
     1
102
RTVSPropertyOp17
 70
     1
102
RTVSPropertyOp18
 70
     1
102
RTVSPropertyOp19
 70
     1
102
RTVSPropertyOp20
 70
     1
102
RTVSPropertyOp21
 70
     1
102
RTVSPropertyOp22
 70
     1
102
RTVSPropertyOp23
 70
     1
102
RTVSPropertyOp24
 70
     1
102
RTVSPropertyOp25
 70
     1
102
RTVSPropertyOp26
 70
     1
102
RTVSPropertyOp27
 70
     1
102
RTVSPropertyOp28
 70
     1
102
RTVSPropertyOp29
 70
     1
102
RTVSPropertyOp30
 70
     1
102
RTVSPropertyOp31
 70
     1
102
RTVSPropertyOp32
 70
     1
  0
XRECORD
  5
A917
102
{ACAD_REACTORS
330
A916
102
}
330
A916
100
AcDbXrecord
280
     1
102
RTVSPropertyOp0
 70
     1
102
RTVSPropertyOp1
 70
     1
102
RTVSPropertyOp2
 70
     1
102
RTVSPropertyOp3
 70
     1
102
RTVSPropertyOp4
 70
     1
102
RTVSPropertyOp5
 70
     1
102
RTVSPropertyOp6
 70
     1
102
RTVSPropertyOp7
 70
     1
102
RTVSPropertyOp8
 70
     1
102
RTVSPropertyOp9
 70
     1
102
RTVSPropertyOp10
 70
     1
102
RTVSPropertyOp11
 70
     1
102
RTVSPropertyOp12
 70
     1
102
RTVSPropertyOp13
 70
     1
102
RTVSPropertyOp14
 70
     1
102
RTVSPropertyOp15
 70
     1
102
RTVSPropertyOp16
 70
     1
102
RTVSPropertyOp17
 70
     1
102
RTVSPropertyOp18
 70
     1
102
RTVSPropertyOp19
 70
     1
102
RTVSPropertyOp20
 70
     1
102
RTVSPropertyOp21
 70
     1
102
RTVSPropertyOp22
 70
     1
102
RTVSPropertyOp23
 70
     1
102
RTVSPropertyOp24
 70
     1
102
RTVSPropertyOp25
 70
     1
102
RTVSPropertyOp26
 70
     1
102
RTVSPropertyOp27
 70
     1
102
RTVSPropertyOp28
 70
     1
102
RTVSPropertyOp29
 70
     1
102
RTVSPropertyOp30
 70
     1
102
RTVSPropertyOp31
 70
     1
102
RTVSPropertyOp32
 70
     1
  0
XRECORD
  5
A91F
102
{ACAD_REACTORS
330
A91E
102
}
330
A91E
100
AcDbXrecord
280
     1
102
RTVSPropertyOp0
 70
     1
102
RTVSPropertyOp1
 70
     1
102
RTVSPropertyOp2
 70
     1
102
RTVSPropertyOp3
 70
     1
102
RTVSPropertyOp4
 70
     1
102
RTVSPropertyOp5
 70
     1
102
RTVSPropertyOp6
 70
     1
102
RTVSPropertyOp7
 70
     1
102
RTVSPropertyOp8
 70
     1
102
RTVSPropertyOp9
 70
     1
102
RTVSPropertyOp10
 70
     1
102
RTVSPropertyOp11
 70
     1
102
RTVSPropertyOp12
 70
     1
102
RTVSPropertyOp13
 70
     1
102
RTVSPropertyOp14
 70
     1
102
RTVSPropertyOp15
 70
     1
102
RTVSPropertyOp16
 70
     1
102
RTVSPropertyOp17
 70
     1
102
RTVSPropertyOp18
 70
     1
102
RTVSPropertyOp19
 70
     1
102
RTVSPropertyOp20
 70
     1
102
RTVSPropertyOp21
 70
     1
102
RTVSPropertyOp22
 70
     1
102
RTVSPropertyOp23
 70
     1
102
RTVSPropertyOp24
 70
     1
102
RTVSPropertyOp25
 70
     1
102
RTVSPropertyOp26
 70
     1
102
RTVSPropertyOp27
 70
     1
102
RTVSPropertyOp28
 70
     1
102
RTVSPropertyOp29
 70
     1
102
RTVSPropertyOp30
 70
     1
102
RTVSPropertyOp31
 70
     1
102
RTVSPropertyOp32
 70
     1
  0
XRECORD
  5
A93B
102
{ACAD_REACTORS
330
A93A
102
}
330
A93A
100
AcDbXrecord
280
     1
102
RTVSPropertyOp0
 70
     0
102
RTVSPropertyOp1
 70
     0
102
RTVSPropertyOp2
 70
     0
102
RTVSPropertyOp3
 70
     0
102
RTVSPropertyOp4
 70
     0
102
RTVSPropertyOp5
 70
     0
102
RTVSPropertyOp6
 70
     0
102
RTVSPropertyOp7
 70
     0
102
RTVSPropertyOp8
 70
     0
102
RTVSPropertyOp9
 70
     0
102
RTVSPropertyOp10
 70
     0
102
RTVSPropertyOp11
 70
     0
102
RTVSPropertyOp12
 70
     0
102
RTVSPropertyOp13
 70
     0
102
RTVSPropertyOp14
 70
     2
102
RTVSPropertyOp15
 70
     0
102
RTVSPropertyOp16
 70
     0
102
RTVSPropertyOp17
 70
     0
102
RTVSPropertyOp18
 70
     0
102
RTVSPropertyOp19
 70
     0
102
RTVSPropertyOp20
 70
     0
102
RTVSPropertyOp21
 70
     0
102
RTVSPropertyOp22
 70
     0
102
RTVSPropertyOp23
 70
     0
102
RTVSPropertyOp24
 70
     0
102
RTVSPropertyOp25
 70
     0
102
RTVSPropertyOp26
 70
     0
102
RTVSPropertyOp27
 70
     0
102
RTVSPropertyOp28
 70
     1
102
RTVSPropertyOp29
 70
     1
102
RTVSPropertyOp30
 70
     1
102
RTVSPropertyOp31
 70
     1
102
RTVSPropertyOp32
 70
     1
  0
XRECORD
  5
A92B
102
{ACAD_REACTORS
330
A92A
102
}
330
A92A
100
AcDbXrecord
280
     1
102
RTVSPropertyOp0
 70
     1
102
RTVSPropertyOp1
 70
     1
102
RTVSPropertyOp2
 70
     1
102
RTVSPropertyOp3
 70
     1
102
RTVSPropertyOp4
 70
     1
102
RTVSPropertyOp5
 70
     1
102
RTVSPropertyOp6
 70
     1
102
RTVSPropertyOp7
 70
     1
102
RTVSPropertyOp8
 70
     1
102
RTVSPropertyOp9
 70
     1
102
RTVSPropertyOp10
 70
     1
102
RTVSPropertyOp11
 70
     1
102
RTVSPropertyOp12
 70
     1
102
RTVSPropertyOp13
 70
     1
102
RTVSPropertyOp14
 70
     1
102
RTVSPropertyOp15
 70
     1
102
RTVSPropertyOp16
 70
     1
102
RTVSPropertyOp17
 70
     1
102
RTVSPropertyOp18
 70
     1
102
RTVSPropertyOp19
 70
     1
102
RTVSPropertyOp20
 70
     1
102
RTVSPropertyOp21
 70
     1
102
RTVSPropertyOp22
 70
     1
102
RTVSPropertyOp23
 70
     1
102
RTVSPropertyOp24
 70
     1
102
RTVSPropertyOp25
 70
     1
102
RTVSPropertyOp26
 70
     1
102
RTVSPropertyOp27
 70
     1
102
RTVSPropertyOp28
 70
     1
102
RTVSPropertyOp29
 70
     1
102
RTVSPropertyOp30
 70
     1
102
RTVSPropertyOp31
 70
     1
102
RTVSPropertyOp32
 70
     1
  0
XRECORD
  5
A93D
102
{ACAD_REACTORS
330
A93C
102
}
330
A93C
100
AcDbXrecord
280
     1
102
RTVSPropertyOp0
 70
     0
102
RTVSPropertyOp1
 70
     0
102
RTVSPropertyOp2
 70
     0
102
RTVSPropertyOp3
 70
     0
102
RTVSPropertyOp4
 70
     0
102
RTVSPropertyOp5
 70
     0
102
RTVSPropertyOp6
 70
     0
102
RTVSPropertyOp7
 70
     0
102
RTVSPropertyOp8
 70
     0
102
RTVSPropertyOp9
 70
     0
102
RTVSPropertyOp10
 70
     0
102
RTVSPropertyOp11
 70
     0
102
RTVSPropertyOp12
 70
     0
102
RTVSPropertyOp13
 70
     0
102
RTVSPropertyOp14
 70
     2
102
RTVSPropertyOp15
 70
     0
102
RTVSPropertyOp16
 70
     0
102
RTVSPropertyOp17
 70
     0
102
RTVSPropertyOp18
 70
     0
102
RTVSPropertyOp19
 70
     0
102
RTVSPropertyOp20
 70
     0
102
RTVSPropertyOp21
 70
     0
102
RTVSPropertyOp22
 70
     0
102
RTVSPropertyOp23
 70
     0
102
RTVSPropertyOp24
 70
     0
102
RTVSPropertyOp25
 70
     0
102
RTVSPropertyOp26
 70
     0
102
RTVSPropertyOp27
 70
     0
102
RTVSPropertyOp28
 70
     1
102
RTVSPropertyOp29
 70
     1
102
RTVSPropertyOp30
 70
     1
102
RTVSPropertyOp31
 70
     1
102
RTVSPropertyOp32
 70
     1
  0
XRECORD
  5
A923
102
{ACAD_REACTORS
330
A922
102
}
330
A922
100
AcDbXrecord
280
     1
102
RTVSPropertyOp0
 70
     1
102
RTVSPropertyOp1
 70
     1
102
RTVSPropertyOp2
 70
     1
102
RTVSPropertyOp3
 70
     1
102
RTVSPropertyOp4
 70
     1
102
RTVSPropertyOp5
 70
     1
102
RTVSPropertyOp6
 70
     1
102
RTVSPropertyOp7
 70
     1
102
RTVSPropertyOp8
 70
     1
102
RTVSPropertyOp9
 70
     1
102
RTVSPropertyOp10
 70
     1
102
RTVSPropertyOp11
 70
     1
102
RTVSPropertyOp12
 70
     1
102
RTVSPropertyOp13
 70
     1
102
RTVSPropertyOp14
 70
     1
102
RTVSPropertyOp15
 70
     1
102
RTVSPropertyOp16
 70
     1
102
RTVSPropertyOp17
 70
     1
102
RTVSPropertyOp18
 70
     1
102
RTVSPropertyOp19
 70
     1
102
RTVSPropertyOp20
 70
     1
102
RTVSPropertyOp21
 70
     1
102
RTVSPropertyOp22
 70
     1
102
RTVSPropertyOp23
 70
     1
102
RTVSPropertyOp24
 70
     1
102
RTVSPropertyOp25
 70
     1
102
RTVSPropertyOp26
 70
     1
102
RTVSPropertyOp27
 70
     1
102
RTVSPropertyOp28
 70
     1
102
RTVSPropertyOp29
 70
     1
102
RTVSPropertyOp30
 70
     1
102
RTVSPropertyOp31
 70
     1
102
RTVSPropertyOp32
 70
     1
  0
XRECORD
  5
A939
102
{ACAD_REACTORS
330
A938
102
}
330
A938
100
AcDbXrecord
280
     1
102
RTVSPropertyOp0
 70
     1
102
RTVSPropertyOp1
 70
     1
102
RTVSPropertyOp2
 70
     1
102
RTVSPropertyOp3
 70
     1
102
RTVSPropertyOp4
 70
     1
102
RTVSPropertyOp5
 70
     1
102
RTVSPropertyOp6
 70
     1
102
RTVSPropertyOp7
 70
     1
102
RTVSPropertyOp8
 70
     1
102
RTVSPropertyOp9
 70
     1
102
RTVSPropertyOp10
 70
     1
102
RTVSPropertyOp11
 70
     1
102
RTVSPropertyOp12
 70
     1
102
RTVSPropertyOp13
 70
     1
102
RTVSPropertyOp14
 70
     1
102
RTVSPropertyOp15
 70
     1
102
RTVSPropertyOp16
 70
     1
102
RTVSPropertyOp17
 70
     1
102
RTVSPropertyOp18
 70
     1
102
RTVSPropertyOp19
 70
     1
102
RTVSPropertyOp20
 70
     1
102
RTVSPropertyOp21
 70
     1
102
RTVSPropertyOp22
 70
     1
102
RTVSPropertyOp23
 70
     1
102
RTVSPropertyOp24
 70
     1
102
RTVSPropertyOp25
 70
     1
102
RTVSPropertyOp26
 70
     1
102
RTVSPropertyOp27
 70
     1
102
RTVSPropertyOp28
 70
     1
102
RTVSPropertyOp29
 70
     1
102
RTVSPropertyOp30
 70
     1
102
RTVSPropertyOp31
 70
     1
102
RTVSPropertyOp32
 70
     1
  0
XRECORD
  5
A937
102
{ACAD_REACTORS
330
A936
102
}
330
A936
100
AcDbXrecord
280
     1
102
RTVSPropertyOp0
 70
     1
102
RTVSPropertyOp1
 70
     1
102
RTVSPropertyOp2
 70
     1
102
RTVSPropertyOp3
 70
     1
102
RTVSPropertyOp4
 70
     1
102
RTVSPropertyOp5
 70
     1
102
RTVSPropertyOp6
 70
     1
102
RTVSPropertyOp7
 70
     1
102
RTVSPropertyOp8
 70
     1
102
RTVSPropertyOp9
 70
     1
102
RTVSPropertyOp10
 70
     1
102
RTVSPropertyOp11
 70
     1
102
RTVSPropertyOp12
 70
     1
102
RTVSPropertyOp13
 70
     1
102
RTVSPropertyOp14
 70
     1
102
RTVSPropertyOp15
 70
     1
102
RTVSPropertyOp16
 70
     1
102
RTVSPropertyOp17
 70
     1
102
RTVSPropertyOp18
 70
     1
102
RTVSPropertyOp19
 70
     1
102
RTVSPropertyOp20
 70
     1
102
RTVSPropertyOp21
 70
     1
102
RTVSPropertyOp22
 70
     1
102
RTVSPropertyOp23
 70
     1
102
RTVSPropertyOp24
 70
     1
102
RTVSPropertyOp25
 70
     1
102
RTVSPropertyOp26
 70
     1
102
RTVSPropertyOp27
 70
     1
102
RTVSPropertyOp28
 70
     1
102
RTVSPropertyOp29
 70
     1
102
RTVSPropertyOp30
 70
     1
102
RTVSPropertyOp31
 70
     1
102
RTVSPropertyOp32
 70
     1
  0
XRECORD
  5
A931
102
{ACAD_REACTORS
330
A930
102
}
330
A930
100
AcDbXrecord
280
     1
102
RTVSPropertyOp0
 70
     1
102
RTVSPropertyOp1
 70
     1
102
RTVSPropertyOp2
 70
     1
102
RTVSPropertyOp3
 70
     1
102
RTVSPropertyOp4
 70
     1
102
RTVSPropertyOp5
 70
     1
102
RTVSPropertyOp6
 70
     1
102
RTVSPropertyOp7
 70
     1
102
RTVSPropertyOp8
 70
     1
102
RTVSPropertyOp9
 70
     1
102
RTVSPropertyOp10
 70
     1
102
RTVSPropertyOp11
 70
     1
102
RTVSPropertyOp12
 70
     1
102
RTVSPropertyOp13
 70
     1
102
RTVSPropertyOp14
 70
     1
102
RTVSPropertyOp15
 70
     1
102
RTVSPropertyOp16
 70
     1
102
RTVSPropertyOp17
 70
     1
102
RTVSPropertyOp18
 70
     1
102
RTVSPropertyOp19
 70
     1
102
RTVSPropertyOp20
 70
     1
102
RTVSPropertyOp21
 70
     1
102
RTVSPropertyOp22
 70
     1
102
RTVSPropertyOp23
 70
     1
102
RTVSPropertyOp24
 70
     1
102
RTVSPropertyOp25
 70
     1
102
RTVSPropertyOp26
 70
     1
102
RTVSPropertyOp27
 70
     1
102
RTVSPropertyOp28
 70
     1
102
RTVSPropertyOp29
 70
     1
102
RTVSPropertyOp30
 70
     1
102
RTVSPropertyOp31
 70
     1
102
RTVSPropertyOp32
 70
     1
  0
XRECORD
  5
A933
102
{ACAD_REACTORS
330
A932
102
}
330
A932
100
AcDbXrecord
280
     1
102
RTVSPropertyOp0
 70
     1
102
RTVSPropertyOp1
 70
     1
102
RTVSPropertyOp2
 70
     1
102
RTVSPropertyOp3
 70
     1
102
RTVSPropertyOp4
 70
     1
102
RTVSPropertyOp5
 70
     1
102
RTVSPropertyOp6
 70
     1
102
RTVSPropertyOp7
 70
     1
102
RTVSPropertyOp8
 70
     1
102
RTVSPropertyOp9
 70
     1
102
RTVSPropertyOp10
 70
     1
102
RTVSPropertyOp11
 70
     1
102
RTVSPropertyOp12
 70
     1
102
RTVSPropertyOp13
 70
     1
102
RTVSPropertyOp14
 70
     1
102
RTVSPropertyOp15
 70
     1
102
RTVSPropertyOp16
 70
     1
102
RTVSPropertyOp17
 70
     1
102
RTVSPropertyOp18
 70
     1
102
RTVSPropertyOp19
 70
     1
102
RTVSPropertyOp20
 70
     1
102
RTVSPropertyOp21
 70
     1
102
RTVSPropertyOp22
 70
     1
102
RTVSPropertyOp23
 70
     1
102
RTVSPropertyOp24
 70
     1
102
RTVSPropertyOp25
 70
     1
102
RTVSPropertyOp26
 70
     1
102
RTVSPropertyOp27
 70
     1
102
RTVSPropertyOp28
 70
     1
102
RTVSPropertyOp29
 70
     1
102
RTVSPropertyOp30
 70
     1
102
RTVSPropertyOp31
 70
     1
102
RTVSPropertyOp32
 70
     1
  0
XRECORD
  5
A929
102
{ACAD_REACTORS
330
A928
102
}
330
A928
100
AcDbXrecord
280
     1
102
RTVSPropertyOp0
 70
     1
102
RTVSPropertyOp1
 70
     1
102
RTVSPropertyOp2
 70
     1
102
RTVSPropertyOp3
 70
     1
102
RTVSPropertyOp4
 70
     1
102
RTVSPropertyOp5
 70
     1
102
RTVSPropertyOp6
 70
     1
102
RTVSPropertyOp7
 70
     1
102
RTVSPropertyOp8
 70
     1
102
RTVSPropertyOp9
 70
     1
102
RTVSPropertyOp10
 70
     1
102
RTVSPropertyOp11
 70
     1
102
RTVSPropertyOp12
 70
     1
102
RTVSPropertyOp13
 70
     1
102
RTVSPropertyOp14
 70
     1
102
RTVSPropertyOp15
 70
     1
102
RTVSPropertyOp16
 70
     1
102
RTVSPropertyOp17
 70
     1
102
RTVSPropertyOp18
 70
     1
102
RTVSPropertyOp19
 70
     1
102
RTVSPropertyOp20
 70
     1
102
RTVSPropertyOp21
 70
     1
102
RTVSPropertyOp22
 70
     1
102
RTVSPropertyOp23
 70
     1
102
RTVSPropertyOp24
 70
     1
102
RTVSPropertyOp25
 70
     1
102
RTVSPropertyOp26
 70
     1
102
RTVSPropertyOp27
 70
     1
102
RTVSPropertyOp28
 70
     1
102
RTVSPropertyOp29
 70
     1
102
RTVSPropertyOp30
 70
     1
102
RTVSPropertyOp31
 70
     1
102
RTVSPropertyOp32
 70
     1
  0
XRECORD
  5
A91D
102
{ACAD_REACTORS
330
A91C
102
}
330
A91C
100
AcDbXrecord
280
     1
102
RTVSPropertyOp0
 70
     1
102
RTVSPropertyOp1
 70
     1
102
RTVSPropertyOp2
 70
     1
102
RTVSPropertyOp3
 70
     1
102
RTVSPropertyOp4
 70
     1
102
RTVSPropertyOp5
 70
     1
102
RTVSPropertyOp6
 70
     1
102
RTVSPropertyOp7
 70
     1
102
RTVSPropertyOp8
 70
     1
102
RTVSPropertyOp9
 70
     1
102
RTVSPropertyOp10
 70
     1
102
RTVSPropertyOp11
 70
     1
102
RTVSPropertyOp12
 70
     1
102
RTVSPropertyOp13
 70
     1
102
RTVSPropertyOp14
 70
     1
102
RTVSPropertyOp15
 70
     1
102
RTVSPropertyOp16
 70
     1
102
RTVSPropertyOp17
 70
     1
102
RTVSPropertyOp18
 70
     1
102
RTVSPropertyOp19
 70
     1
102
RTVSPropertyOp20
 70
     1
102
RTVSPropertyOp21
 70
     1
102
RTVSPropertyOp22
 70
     1
102
RTVSPropertyOp23
 70
     1
102
RTVSPropertyOp24
 70
     1
102
RTVSPropertyOp25
 70
     1
102
RTVSPropertyOp26
 70
     1
102
RTVSPropertyOp27
 70
     1
102
RTVSPropertyOp28
 70
     1
102
RTVSPropertyOp29
 70
     1
102
RTVSPropertyOp30
 70
     1
102
RTVSPropertyOp31
 70
     1
102
RTVSPropertyOp32
 70
     1
  0
XRECORD
  5
A935
102
{ACAD_REACTORS
330
A934
102
}
330
A934
100
AcDbXrecord
280
     1
102
RTVSPropertyOp0
 70
     1
102
RTVSPropertyOp1
 70
     1
102
RTVSPropertyOp2
 70
     1
102
RTVSPropertyOp3
 70
     1
102
RTVSPropertyOp4
 70
     1
102
RTVSPropertyOp5
 70
     1
102
RTVSPropertyOp6
 70
     1
102
RTVSPropertyOp7
 70
     1
102
RTVSPropertyOp8
 70
     1
102
RTVSPropertyOp9
 70
     1
102
RTVSPropertyOp10
 70
     1
102
RTVSPropertyOp11
 70
     1
102
RTVSPropertyOp12
 70
     1
102
RTVSPropertyOp13
 70
     1
102
RTVSPropertyOp14
 70
     1
102
RTVSPropertyOp15
 70
     1
102
RTVSPropertyOp16
 70
     1
102
RTVSPropertyOp17
 70
     1
102
RTVSPropertyOp18
 70
     1
102
RTVSPropertyOp19
 70
     1
102
RTVSPropertyOp20
 70
     1
102
RTVSPropertyOp21
 70
     1
102
RTVSPropertyOp22
 70
     1
102
RTVSPropertyOp23
 70
     1
102
RTVSPropertyOp24
 70
     1
102
RTVSPropertyOp25
 70
     1
102
RTVSPropertyOp26
 70
     1
102
RTVSPropertyOp27
 70
     1
102
RTVSPropertyOp28
 70
     1
102
RTVSPropertyOp29
 70
     1
102
RTVSPropertyOp30
 70
     1
102
RTVSPropertyOp31
 70
     1
102
RTVSPropertyOp32
 70
     1
  0
ENDSEC
  0
EOF
