  0
SECTION
  2
HEADER
  9
$ACADVER
  1
AC1018
  9
$ACADMAINTVER
 70
   104
  9
$DWGCODEPAGE
  3
ANSI_932
  9
$LASTSAVEDBY
  1
HON1000CV
  9
$INSBASE
 10
0.0
 20
0.0
 30
0.0
  9
$EXTMIN
 10
1070.247793154361
 20
191.1307358240241
 30
0.0
  9
$EXTMAX
 10
1774.007811787509
 20
491.1204243580047
 30
0.0
  9
$LIMMIN
 10
0.0
 20
0.0
  9
$LIMMAX
 10
420.0
 20
297.0
  9
$ORTHOMODE
 70
     0
  9
$REGENMODE
 70
     1
  9
$FILLMODE
 70
     1
  9
$QTEXTMODE
 70
     0
  9
$MIRRTEXT
 70
     1
  9
$LTSCALE
 40
3.0
  9
$ATTMODE
 70
     1
  9
$TEXTSIZE
 40
5.0
  9
$TRACEWID
 40
0.05
  9
$TEXTSTYLE
  7
ACAD
  9
$CLAYER
  8
0
  9
$CELTYPE
  6
CONTINUOUS
  9
$CECOLOR
 62
   256
  9
$CELTSCALE
 40
1.0
  9
$DISPSILH
 70
     0
  9
$DIMSCALE
 40
1.0
  9
$DIMASZ
 40
5.0
  9
$DIMEXO
 40
0.0
  9
$DIMDLI
 40
0.38
  9
$DIMRND
 40
0.0
  9
$DIMDLE
 40
0.0
  9
$DIMEXE
 40
0.0
  9
$DIMTP
 40
0.0
  9
$DIMTM
 40
0.0
  9
$DIMTXT
 40
6.5
  9
$DIMCEN
 40
0.09
  9
$DIMTSZ
 40
0.0
  9
$DIMTOL
 70
     0
  9
$DIMLIM
 70
     0
  9
$DIMTIH
 70
     0
  9
$DIMTOH
 70
     1
  9
$DIMSE1
 70
     0
  9
$DIMSE2
 70
     0
  9
$DIMTAD
 70
     1
  9
$DIMZIN
 70
     0
  9
$DIMBLK
  1
Small
  9
$DIMASO
 70
     1
  9
$DIMSHO
 70
     1
  9
$DIMPOST
  1

  9
$DIMAPOST
  1

  9
$DIMALT
 70
     0
  9
$DIMALTD
 70
     2
  9
$DIMALTF
 40
25.4
  9
$DIMLFAC
 40
1.0
  9
$DIMTOFL
 70
     0
  9
$DIMTVP
 40
0.0
  9
$DIMTIX
 70
     1
  9
$DIMSOXD
 70
     0
  9
$DIMSAH
 70
     0
  9
$DIMBLK1
  1

  9
$DIMBLK2
  1

  9
$DIMSTYLE
  2
AutoCAD
  9
$DIMCLRD
 70
     4
  9
$DIMCLRE
 70
     4
  9
$DIMCLRT
 70
     3
  9
$DIMTFAC
 40
1.0
  9
$DIMGAP
 40
3.0
  9
$DIMJUST
 70
     0
  9
$DIMSD1
 70
     0
  9
$DIMSD2
 70
     0
  9
$DIMTOLJ
 70
     1
  9
$DIMTZIN
 70
     0
  9
$DIMALTZ
 70
     0
  9
$DIMALTTZ
 70
     0
  9
$DIMUPT
 70
     0
  9
$DIMDEC
 70
     0
  9
$DIMTDEC
 70
     0
  9
$DIMALTU
 70
     2
  9
$DIMALTTD
 70
     2
  9
$DIMTXSTY
  7
ACAD
  9
$DIMAUNIT
 70
     0
  9
$DIMADEC
 70
     0
  9
$DIMALTRND
 40
0.0
  9
$DIMAZIN
 70
     0
  9
$DIMDSEP
 70
    46
  9
$DIMATFIT
 70
     0
  9
$DIMFRAC
 70
     0
  9
$DIMLDRBLK
  1
None
  9
$DIMLUNIT
 70
     2
  9
$DIMLWD
 70
    -2
  9
$DIMLWE
 70
    -2
  9
$DIMTMOVE
 70
     0
  9
$LUNITS
 70
     2
  9
$LUPREC
 70
     4
  9
$SKETCHINC
 40
0.1
  9
$FILLETRAD
 40
0.0
  9
$AUNITS
 70
     0
  9
$AUPREC
 70
     0
  9
$MENU
  1
.
  9
$ELEVATION
 40
0.0
  9
$PELEVATION
 40
0.0
  9
$THICKNESS
 40
0.0
  9
$LIMCHECK
 70
     0
  9
$CHAMFERA
 40
0.0
  9
$CHAMFERB
 40
0.0
  9
$CHAMFERC
 40
0.0
  9
$CHAMFERD
 40
0.0
  9
$SKPOLY
 70
     0
  9
$TDCREATE
 40
2454316.693457674
  9
$TDUCREATE
 40
2454316.318457674
  9
$TDUPDATE
 40
2455961.434297523
  9
$TDUUPDATE
 40
2455961.059297523
  9
$TDINDWG
 40
0.8967520486
  9
$TDUSRTIMER
 40
0.8967520486
  9
$USRTIMER
 70
     1
  9
$ANGBASE
 50
0.0
  9
$ANGDIR
 70
     0
  9
$PDMODE
 70
     0
  9
$PDSIZE
 40
0.0
  9
$PLINEWID
 40
0.0
  9
$SPLFRAME
 70
     0
  9
$SPLINETYPE
 70
     6
  9
$SPLINESEGS
 70
     8
  9
$HANDSEED
  5
AA87
  9
$SURFTAB1
 70
     6
  9
$SURFTAB2
 70
     6
  9
$SURFTYPE
 70
     6
  9
$SURFU
 70
     6
  9
$SURFV
 70
     6
  9
$UCSBASE
  2

  9
$UCSNAME
  2

  9
$UCSORG
 10
0.0
 20
0.0
 30
0.0
  9
$UCSXDIR
 10
1.0
 20
0.0
 30
0.0
  9
$UCSYDIR
 10
0.0
 20
1.0
 30
0.0
  9
$UCSORTHOREF
  2

  9
$UCSORTHOVIEW
 70
     0
  9
$UCSORGTOP
 10
0.0
 20
0.0
 30
0.0
  9
$UCSORGBOTTOM
 10
0.0
 20
0.0
 30
0.0
  9
$UCSORGLEFT
 10
0.0
 20
0.0
 30
0.0
  9
$UCSORGRIGHT
 10
0.0
 20
0.0
 30
0.0
  9
$UCSORGFRONT
 10
0.0
 20
0.0
 30
0.0
  9
$UCSORGBACK
 10
0.0
 20
0.0
 30
0.0
  9
$PUCSBASE
  2

  9
$PUCSNAME
  2

  9
$PUCSORG
 10
0.0
 20
0.0
 30
0.0
  9
$PUCSXDIR
 10
1.0
 20
0.0
 30
0.0
  9
$PUCSYDIR
 10
0.0
 20
1.0
 30
0.0
  9
$PUCSORTHOREF
  2

  9
$PUCSORTHOVIEW
 70
     0
  9
$PUCSORGTOP
 10
0.0
 20
0.0
 30
0.0
  9
$PUCSORGBOTTOM
 10
0.0
 20
0.0
 30
0.0
  9
$PUCSORGLEFT
 10
0.0
 20
0.0
 30
0.0
  9
$PUCSORGRIGHT
 10
0.0
 20
0.0
 30
0.0
  9
$PUCSORGFRONT
 10
0.0
 20
0.0
 30
0.0
  9
$PUCSORGBACK
 10
0.0
 20
0.0
 30
0.0
  9
$USERI1
 70
     0
  9
$USERI2
 70
     0
  9
$USERI3
 70
     0
  9
$USERI4
 70
     0
  9
$USERI5
 70
     0
  9
$USERR1
 40
0.0
  9
$USERR2
 40
0.0
  9
$USERR3
 40
0.0
  9
$USERR4
 40
0.0
  9
$USERR5
 40
0.0
  9
$WORLDVIEW
 70
     1
  9
$SHADEDGE
 70
     3
  9
$SHADEDIF
 70
    70
  9
$TILEMODE
 70
     1
  9
$MAXACTVP
 70
    48
  9
$PINSBASE
 10
0.0
 20
0.0
 30
0.0
  9
$PLIMCHECK
 70
     0
  9
$PEXTMIN
 10
1.000000000000000E+20
 20
1.000000000000000E+20
 30
1.000000000000000E+20
  9
$PEXTMAX
 10
-1.000000000000000E+20
 20
-1.000000000000000E+20
 30
-1.000000000000000E+20
  9
$PLIMMIN
 10
0.0
 20
0.0
  9
$PLIMMAX
 10
12.0
 20
9.0
  9
$UNITMODE
 70
     0
  9
$VISRETAIN
 70
     0
  9
$PLINEGEN
 70
     0
  9
$PSLTSCALE
 70
     1
  9
$TREEDEPTH
 70
  3020
  9
$CMLSTYLE
  2
Standard
  9
$CMLJUST
 70
     0
  9
$CMLSCALE
 40
1.0
  9
$PROXYGRAPHICS
 70
     1
  9
$MEASUREMENT
 70
     0
  9
$CELWEIGHT
370
    -1
  9
$ENDCAPS
280
     0
  9
$JOINSTYLE
280
     0
  9
$LWDISPLAY
290
     0
  9
$INSUNITS
 70
     0
  9
$HYPERLINKBASE
  1

  9
$STYLESHEET
  1
monochrome.ctb
  9
$XEDIT
290
     1
  9
$CEPSNTYPE
380
     0
  9
$PSTYLEMODE
290
     1
  9
$FINGERPRINTGUID
  2
{CC7D6DEE-A9F1-4F3E-AC95-C84B62CCA3FD}
  9
$VERSIONGUID
  2
{33660CEB-0076-43F4-B461-722F6D9BAAE9}
  9
$EXTNAMES
290
     1
  9
$PSVPSCALE
 40
0.0
  9
$OLESTARTUP
290
     0
  9
$SORTENTS
280
   127
  9
$INDEXCTL
280
     0
  9
$HIDETEXT
280
     0
  9
$XCLIPFRAME
290
     0
  9
$HALOGAP
280
     0
  9
$OBSCOLOR
 70
   257
  9
$OBSLTYPE
280
     0
  9
$INTERSECTIONDISPLAY
280
     0
  9
$INTERSECTIONCOLOR
 70
   257
  9
$DIMASSOC
280
     1
  9
$PROJECTNAME
  1

  0
ENDSEC
  0
SECTION
  2
CLASSES
  0
CLASS
  1
ACDBDICTIONARYWDFLT
  2
AcDbDictionaryWithDefault
  3
ObjectDBX Classes
 90
        0
 91
        1
280
     0
281
     0
  0
CLASS
  1
DICTIONARYVAR
  2
AcDbDictionaryVar
  3
ObjectDBX Classes
 90
        0
 91
       10
280
     0
281
     0
  0
CLASS
  1
MATERIAL
  2
AcDbMaterial
  3
ObjectDBX Classes
 90
     1153
 91
        3
280
     0
281
     0
  0
CLASS
  1
VISUALSTYLE
  2
AcDbVisualStyle
  3
ObjectDBX Classes
 90
     4095
 91
       24
280
     0
281
     0
  0
CLASS
  1
TABLESTYLE
  2
AcDbTableStyle
  3
ObjectDBX Classes
 90
     4095
 91
        1
280
     0
281
     0
  0
CLASS
  1
SCALE
  2
AcDbScale
  3
ObjectDBX Classes
 90
     1153
 91
       17
280
     0
281
     0
  0
CLASS
  1
MLEADERSTYLE
  2
AcDbMLeaderStyle
  3
ACDB_MLEADERSTYLE_CLASS
 90
     4095
 91
        1
280
     0
281
     0
  0
CLASS
  1
SORTENTSTABLE
  2
AcDbSortentsTable
  3
ObjectDBX Classes
 90
        0
 91
        1
280
     0
281
     0
  0
CLASS
  1
CELLSTYLEMAP
  2
AcDbCellStyleMap
  3
ObjectDBX Classes
 90
     1152
 91
        2
280
     0
281
     0
  0
ENDSEC
  0
SECTION
  2
TABLES
  0
TABLE
  2
VPORT
  5
8
102
{ACAD_XDICTIONARY
360
A2D3
102
}
330
0
100
AcDbSymbolTable
 70
     1
  0
VPORT
  5
5F61
330
8
100
AcDbSymbolTableRecord
100
AcDbViewportTableRecord
  2
*Active
 70
     0
 10
0.0
 20
0.0
 11
1.0
 21
1.0
 12
1422.094538996565
 22
341.1262109255781
 13
0.0
 23
0.0
 14
1.0
 24
1.0
 15
0.0
 25
0.0
 16
0.0
 26
0.0
 36
1.0
 17
0.0
 27
0.0
 37
0.0
 40
302.4776038900126
 41
2.519736842105263
 42
50.0
 43
0.0
 44
0.0
 50
0.0
 51
0.0
 71
     0
 72
   100
 73
     1
 74
     1
 75
     0
 76
     0
 77
     0
 78
     0
281
     0
 65
     1
110
0.0
120
0.0
130
0.0
111
1.0
121
0.0
131
0.0
112
0.0
122
1.0
132
0.0
 79
     0
146
0.0
1001
ACAD_NAV_VCDISPLAY
1070
     3
  0
ENDTAB
  0
TABLE
  2
LTYPE
  5
5
330
0
100
AcDbSymbolTable
 70
     3
  0
LTYPE
  5
13
330
5
100
AcDbSymbolTableRecord
100
AcDbLinetypeTableRecord
  2
ByBlock
 70
     0
  3

 72
    65
 73
     0
 40
0.0
  0
LTYPE
  5
14
330
5
100
AcDbSymbolTableRecord
100
AcDbLinetypeTableRecord
  2
ByLayer
 70
     0
  3

 72
    65
 73
     0
 40
0.0
  0
LTYPE
  5
15
330
5
100
AcDbSymbolTableRecord
100
AcDbLinetypeTableRecord
  2
CONTINUOUS
 70
     0
  3
実線
 72
    65
 73
     0
 40
0.0
  0
LTYPE
  5
25
330
5
100
AcDbSymbolTableRecord
100
AcDbLinetypeTableRecord
  2
CENTER1
 70
     0
  3
----- - ----- - ----- - ----- - 
 72
    65
 73
     4
 40
10.0
 49
6.25
 74
     0
 49
-1.25
 74
     0
 49
1.25
 74
     0
 49
-1.25
 74
     0
  0
LTYPE
  5
44
330
5
100
AcDbSymbolTableRecord
100
AcDbLinetypeTableRecord
  2
PLINE2
 70
     0
  3
------     -----------     -----
 72
    65
 73
     2
 40
3.0
 49
2.1
 74
     0
 49
-0.9
 74
     0
  0
ENDTAB
  0
TABLE
  2
LAYER
  5
2
102
{ACAD_XDICTIONARY
360
175
102
}
330
0
100
AcDbSymbolTable
 70
     6
  0
LAYER
  5
10
102
{ACAD_XDICTIONARY
360
655F
102
}
330
2
100
AcDbSymbolTableRecord
100
AcDbLayerTableRecord
  2
0
 70
     0
 62
     7
  6
CONTINUOUS
370
    -3
390
F
  0
LAYER
  5
128
330
2
100
AcDbSymbolTableRecord
100
AcDbLayerTableRecord
  2
Defpoints
 70
     0
 62
     7
  6
CONTINUOUS
290
     0
370
    -3
390
F
  0
LAYER
  5
178
102
{ACAD_XDICTIONARY
360
6561
102
}
330
2
100
AcDbSymbolTableRecord
100
AcDbLayerTableRecord
  2
寸法
 70
     0
 62
     7
  6
CONTINUOUS
370
    -3
390
F
  0
LAYER
  5
179
102
{ACAD_XDICTIONARY
360
6563
102
}
330
2
100
AcDbSymbolTableRecord
100
AcDbLayerTableRecord
  2
躯体と製品
 70
     0
 62
     7
  6
CONTINUOUS
370
    -3
390
F
  0
LAYER
  5
4F62
102
{ACAD_XDICTIONARY
360
6565
102
}
330
2
100
AcDbSymbolTableRecord
100
AcDbLayerTableRecord
  2
文字-記号
 70
     0
 62
     7
  6
CONTINUOUS
370
    -3
390
F
  0
LAYER
  5
69B5
330
2
100
AcDbSymbolTableRecord
100
AcDbLayerTableRecord
  2
中心線
 70
     0
 62
     7
  6
CONTINUOUS
370
    -3
390
F
1001
AcAecLayerStandard
1000

1000

1001
AcCmTransparency
1071
        0
  0
ENDTAB
  0
TABLE
  2
STYLE
  5
3
330
0
100
AcDbSymbolTable
 70
     3
  0
STYLE
  5
11
330
3
100
AcDbSymbolTableRecord
100
AcDbTextStyleTableRecord
  2
STANDARD
 70
     0
 40
0.0
 41
1.0
 50
0.0
 71
     0
 42
0.2
  3
txt
  4
bigfont.shx
  0
STYLE
  5
123
330
3
100
AcDbSymbolTableRecord
100
AcDbTextStyleTableRecord
  2
ACAD
 70
     0
 40
0.0
 41
1.0
 50
0.0
 71
     0
 42
5.0
  3
romans.shx
  4
extfont.shx
  0
STYLE
  5
A962
330
3
100
AcDbSymbolTableRecord
100
AcDbTextStyleTableRecord
  2

 70
     1
 40
0.0
 41
1.0
 50
0.0
 71
     0
 42
5.0
  3
ltypeshp.shx
  4

  0
ENDTAB
  0
TABLE
  2
VIEW
  5
6
330
0
100
AcDbSymbolTable
 70
     0
  0
ENDTAB
  0
TABLE
  2
UCS
  5
7
330
0
100
AcDbSymbolTable
 70
     0
  0
ENDTAB
  0
TABLE
  2
APPID
  5
9
330
0
100
AcDbSymbolTable
 70
    10
  0
APPID
  5
12
330
9
100
AcDbSymbolTableRecord
100
AcDbRegAppTableRecord
  2
ACAD
 70
     0
  0
APPID
  5
5FB2
330
9
100
AcDbSymbolTableRecord
100
AcDbRegAppTableRecord
  2
ACAD_NAV_VCDISPLAY
 70
     0
  0
APPID
  5
629D
330
9
100
AcDbSymbolTableRecord
100
AcDbRegAppTableRecord
  2
ACAD_EXEMPT_FROM_CAD_STANDARDS
 70
     0
  0
APPID
  5
69B6
330
9
100
AcDbSymbolTableRecord
100
AcDbRegAppTableRecord
  2
AcAecLayerStandard
 70
     0
  0
APPID
  5
69B7
330
9
100
AcDbSymbolTableRecord
100
AcDbRegAppTableRecord
  2
AcCmTransparency
 70
     0
  0
APPID
  5
9926
330
9
100
AcDbSymbolTableRecord
100
AcDbRegAppTableRecord
  2
ACAD_PSEXT
 70
     0
  0
APPID
  5
A309
330
9
100
AcDbSymbolTableRecord
100
AcDbRegAppTableRecord
  2
ACAD_MLEADERVER
 70
     0
  0
APPID
  5
A312
330
9
100
AcDbSymbolTableRecord
100
AcDbRegAppTableRecord
  2
AcadAnnoPO
 70
     0
  0
APPID
  5
A313
330
9
100
AcDbSymbolTableRecord
100
AcDbRegAppTableRecord
  2
ACAD_DSTYLE_DIMJAG
 70
     0
  0
APPID
  5
A314
330
9
100
AcDbSymbolTableRecord
100
AcDbRegAppTableRecord
  2
ACAD_DSTYLE_DIMTALN
 70
     0
  0
ENDTAB
  0
TABLE
  2
DIMSTYLE
  5
A
330
0
100
AcDbSymbolTable
 70
     2
100
AcDbDimStyleTable
 71
     1
340
126
  0
DIMSTYLE
105
11C
330
A
100
AcDbSymbolTableRecord
100
AcDbDimStyleTableRecord
  2
Standard
 70
     0
340
11
  0
DIMSTYLE
105
126
102
{ACAD_REACTORS
330
6488
330
6489
330
6E16
102
}
330
A
100
AcDbSymbolTableRecord
100
AcDbDimStyleTableRecord
  2
AutoCAD
 70
     0
 41
5.0
 42
0.0
 44
0.0
 73
     0
 77
     1
140
6.5
147
3.0
174
     1
176
     4
177
     4
178
     3
271
     0
272
     0
289
     0
340
123
341
15B0
342
A8BB
1001
ACAD_DSTYLE_DIMJAG
1070
   388
1040
1.5
1001
ACAD_DSTYLE_DIMTALN
1070
   392
1070
     0
  0
ENDTAB
  0
TABLE
  2
BLOCK_RECORD
  5
1
330
0
100
AcDbSymbolTable
 70
     5
  0
BLOCK_RECORD
  5
1E
102
{ACAD_XDICTIONARY
360
28B
102
}
330
1
100
AcDbSymbolTableRecord
100
AcDbBlockTableRecord
  2
*Model_Space
340
21
  0
BLOCK_RECORD
  5
1A
102
{ACAD_XDICTIONARY
360
28D
102
}
330
1
100
AcDbSymbolTableRecord
100
AcDbBlockTableRecord
  2
*Paper_Space
340
1D
  0
BLOCK_RECORD
  5
15B0
330
1
100
AcDbSymbolTableRecord
100
AcDbBlockTableRecord
  2
_None
340
0
  0
BLOCK_RECORD
  5
64ED
330
1
100
AcDbSymbolTableRecord
100
AcDbBlockTableRecord
  2
*D1
340
0
  0
BLOCK_RECORD
  5
64F7
330
1
100
AcDbSymbolTableRecord
100
AcDbBlockTableRecord
  2
*D2
340
0
  0
BLOCK_RECORD
  5
6E17
330
1
100
AcDbSymbolTableRecord
100
AcDbBlockTableRecord
  2
*D3
340
0
  0
BLOCK_RECORD
  5
A8BB
330
1
100
AcDbSymbolTableRecord
100
AcDbBlockTableRecord
  2
_Small
340
0
102
{BLKREFS
331
A8C0
331
A8C1
331
A8C7
331
A8C8
331
A8D0
331
A8D1
102
}
  0
ENDTAB
  0
ENDSEC
  0
SECTION
  2
BLOCKS
  0
BLOCK
  5
1F
330
1E
100
AcDbEntity
  8
0
100
AcDbBlockBegin
  2
*Model_Space
 70
     0
 10
0.0
 20
0.0
 30
0.0
  3
*Model_Space
  1

  0
ENDBLK
  5
20
330
1E
100
AcDbEntity
  8
0
100
AcDbBlockEnd
  0
BLOCK
  5
1B
330
1A
100
AcDbEntity
 67
     1
  8
0
100
AcDbBlockBegin
  2
*Paper_Space
 70
     0
 10
0.0
 20
0.0
 30
0.0
  3
*Paper_Space
  1

  0
ENDBLK
  5
1C
330
1A
100
AcDbEntity
 67
     1
  8
0
100
AcDbBlockEnd
  0
BLOCK
  5
15B1
330
15B0
100
AcDbEntity
  8
0
100
AcDbBlockBegin
  2
_None
 70
     0
 10
0.0
 20
0.0
 30
0.0
  3
_None
  1

  0
ENDBLK
  5
15B2
330
15B0
100
AcDbEntity
  8
0
100
AcDbBlockEnd
  0
BLOCK
  5
64EE
330
64ED
100
AcDbEntity
  8
0
100
AcDbBlockBegin
  2
*D1
 70
     1
 10
0.0
 20
0.0
 30
0.0
  3
*D1
  1

  0
LINE
  5
A8BF
330
64ED
100
AcDbEntity
  8
寸法
  6
Continuous
 62
     4
440
 16777216
370
    -2
100
AcDbLine
 10
1353.227258787507
 20
336.8609152567247
 30
0.0
 11
1353.227258787507
 21
365.8609152567247
 31
0.0
  0
INSERT
  5
A8C0
330
64ED
100
AcDbEntity
  8
寸法
  6
Continuous
 62
     4
440
 16777216
370
    -2
100
AcDbBlockReference
  2
_Small
 10
1353.227258787507
 20
336.8609152567247
 30
0.0
 41
5.0
 42
5.0
 43
5.0
 50
270.0
  0
INSERT
  5
A8C1
330
64ED
100
AcDbEntity
  8
寸法
  6
Continuous
 62
     4
440
 16777216
370
    -2
100
AcDbBlockReference
  2
_Small
 10
1353.227258787507
 20
365.8609152567247
 30
0.0
 41
5.0
 42
5.0
 43
5.0
 50
90.0
  0
MTEXT
  5
A8C2
330
64ED
100
AcDbEntity
  8
寸法
  6
Continuous
 62
     3
440
 16777216
100
AcDbMText
 10
1346.977258787507
 20
351.3609152567249
 30
0.0
 40
6.5
 41
0.0
 71
     5
 72
     1
  1
\A1;29
  7
ACAD
 11
0.0000000000000001
 21
1.0
 31
0.0
 73
     1
 44
1.0
  0
POINT
  5
A8C3
330
64ED
100
AcDbEntity
  8
Defpoints
  6
Continuous
 62
     0
440
 16777216
100
AcDbPoint
 10
1353.227258787507
 20
336.8609152567247
 30
0.0
  0
POINT
  5
A8C4
330
64ED
100
AcDbEntity
  8
Defpoints
  6
Continuous
 62
     0
440
 16777216
100
AcDbPoint
 10
1353.227258787507
 20
365.8609152567247
 30
0.0
  0
POINT
  5
A8C5
330
64ED
100
AcDbEntity
  8
Defpoints
  6
Continuous
 62
     0
440
 16777216
100
AcDbPoint
 10
1353.227258787507
 20
365.8609152567247
 30
0.0
  0
ENDBLK
  5
64EF
330
64ED
100
AcDbEntity
  8
0
100
AcDbBlockEnd
  0
BLOCK
  5
64F8
330
64F7
100
AcDbEntity
  8
0
100
AcDbBlockBegin
  2
*D2
 70
     1
 10
0.0
 20
0.0
 30
0.0
  3
*D2
  1

  0
LINE
  5
A8C6
330
64F7
100
AcDbEntity
  8
寸法
  6
Continuous
 62
     4
440
 16777216
370
    -2
100
AcDbLine
 10
1715.977252787507
 20
284.8620232567246
 30
0.0
 11
1715.977252787507
 21
334.8617692567247
 31
0.0
  0
INSERT
  5
A8C7
330
64F7
100
AcDbEntity
  8
寸法
  6
Continuous
 62
     4
440
 16777216
370
    -2
100
AcDbBlockReference
  2
_Small
 10
1715.977252787507
 20
284.8620232567246
 30
0.0
 41
5.0
 42
5.0
 43
5.0
 50
270.0
  0
INSERT
  5
A8C8
330
64F7
100
AcDbEntity
  8
寸法
  6
Continuous
 62
     4
440
 16777216
370
    -2
100
AcDbBlockReference
  2
_Small
 10
1715.977252787507
 20
334.8617692567247
 30
0.0
 41
5.0
 42
5.0
 43
5.0
 50
90.0
  0
MTEXT
  5
A8C9
330
64F7
100
AcDbEntity
  8
寸法
  6
Continuous
 62
     3
440
 16777216
100
AcDbMText
 10
1709.727252787507
 20
309.861896256725
 30
0.0
 40
6.5
 41
0.0
 71
     5
 72
     1
  1
\A1;50
  7
ACAD
 11
0.0000000000000001
 21
1.0
 31
0.0
 73
     1
 44
1.0
  0
POINT
  5
A8CA
330
64F7
100
AcDbEntity
  8
Defpoints
  6
Continuous
 62
     0
440
 16777216
100
AcDbPoint
 10
1715.977252787507
 20
284.8620232567246
 30
0.0
  0
POINT
  5
A8CB
330
64F7
100
AcDbEntity
  8
Defpoints
  6
Continuous
 62
     0
440
 16777216
100
AcDbPoint
 10
1715.977252787507
 20
334.8617692567247
 30
0.0
  0
POINT
  5
A8CC
330
64F7
100
AcDbEntity
  8
Defpoints
  6
Continuous
 62
     0
440
 16777216
100
AcDbPoint
 10
1715.977252787507
 20
334.8617692567247
 30
0.0
  0
ENDBLK
  5
64F9
330
64F7
100
AcDbEntity
  8
0
100
AcDbBlockEnd
  0
BLOCK
  5
6E18
330
6E17
100
AcDbEntity
  8
0
100
AcDbBlockBegin
  2
*D3
 70
     1
 10
0.0
 20
0.0
 30
0.0
  3
*D3
  1

  0
LINE
  5
A8CD
330
6E17
100
AcDbEntity
  8
寸法
  6
Continuous
 62
     4
440
 16777216
370
    -2
100
AcDbLine
 10
1733.525930787507
 20
233.8609152567248
 30
0.0
 11
1772.757811787509
 21
233.8609152567248
 31
0.0
  0
LINE
  5
A8CE
330
6E17
100
AcDbEntity
  8
寸法
  6
Continuous
 62
     4
440
 16777216
370
    -2
100
AcDbLine
 10
1733.525930787508
 20
365.8609152567247
 30
0.0
 11
1772.757811787509
 21
365.8609152567247
 31
0.0
  0
LINE
  5
A8CF
330
6E17
100
AcDbEntity
  8
寸法
  6
Continuous
 62
     4
440
 16777216
370
    -2
100
AcDbLine
 10
1772.757811787509
 20
233.8609152567248
 30
0.0
 11
1772.757811787509
 21
365.8609152567247
 31
0.0
  0
INSERT
  5
A8D0
330
6E17
100
AcDbEntity
  8
寸法
  6
Continuous
 62
     4
440
 16777216
370
    -2
100
AcDbBlockReference
  2
_Small
 10
1772.757811787509
 20
233.8609152567248
 30
0.0
 41
5.0
 42
5.0
 43
5.0
 50
270.0
  0
INSERT
  5
A8D1
330
6E17
100
AcDbEntity
  8
寸法
  6
Continuous
 62
     4
440
 16777216
370
    -2
100
AcDbBlockReference
  2
_Small
 10
1772.757811787509
 20
365.8609152567247
 30
0.0
 41
5.0
 42
5.0
 43
5.0
 50
90.0
  0
MTEXT
  5
A8D2
330
6E17
100
AcDbEntity
  8
寸法
  6
Continuous
 62
     3
440
 16777216
100
AcDbMText
 10
1766.507811787509
 20
299.8609152567251
 30
0.0
 40
6.5
 41
0.0
 71
     5
 72
     1
  1
\A1;h
  7
ACAD
 11
0.0000000000000001
 21
1.0
 31
0.0
 73
     1
 44
1.0
  0
POINT
  5
A8D3
330
6E17
100
AcDbEntity
  8
Defpoints
  6
Continuous
 62
     0
440
 16777216
100
AcDbPoint
 10
1733.525930787507
 20
233.8609152567248
 30
0.0
  0
POINT
  5
A8D4
330
6E17
100
AcDbEntity
  8
Defpoints
  6
Continuous
 62
     0
440
 16777216
100
AcDbPoint
 10
1733.525930787508
 20
365.8609152567247
 30
0.0
  0
POINT
  5
A8D5
330
6E17
100
AcDbEntity
  8
Defpoints
  6
Continuous
 62
     0
440
 16777216
100
AcDbPoint
 10
1772.757811787509
 20
365.8609152567247
 30
0.0
  0
ENDBLK
  5
6E19
330
6E17
100
AcDbEntity
  8
0
100
AcDbBlockEnd
  0
BLOCK
  5
A8BD
330
A8BB
100
AcDbEntity
  8
0
100
AcDbBlockBegin
  2
_Small
 70
     0
 10
0.0
 20
0.0
 30
0.0
  3
_Small
  1

  0
CIRCLE
  5
A8BC
330
A8BB
100
AcDbEntity
  8
0
  6
ByBlock
 62
     0
370
    -2
100
AcDbCircle
 10
0.0
 20
0.0
 30
0.0
 40
0.25
  0
ENDBLK
  5
A8BE
330
A8BB
100
AcDbEntity
  8
0
100
AcDbBlockEnd
  0
ENDSEC
  0
SECTION
  2
ENTITIES
  0
CIRCLE
  5
638B
330
1E
100
AcDbEntity
  8
躯体と製品
  6
Continuous
 62
     3
100
AcDbCircle
 10
1603.625692787507
 20
345.8623892567248
 30
0.0
 40
2.499988
  0
CIRCLE
  5
638C
330
1E
100
AcDbEntity
  8
躯体と製品
  6
Continuous
 62
     3
100
AcDbCircle
 10
1603.625692787507
 20
345.8623892567248
 30
0.0
 40
2.999983999999999
  0
CIRCLE
  5
638D
330
1E
100
AcDbEntity
  8
躯体と製品
  6
Continuous
 62
     3
100
AcDbCircle
 10
1603.625692787507
 20
345.8623892567248
 30
0.0
 40
4.999973999999999
  0
CIRCLE
  5
6418
330
1E
100
AcDbEntity
  8
躯体と製品
  6
Continuous
 62
     6
100
AcDbCircle
 10
1596.280342787507
 20
230.4899552567247
 30
0.0
 40
0.062502
  0
CIRCLE
  5
6419
330
1E
100
AcDbEntity
  8
躯体と製品
  6
Continuous
 62
     6
100
AcDbCircle
 10
1596.392912787507
 20
226.0997132567247
 30
0.0
 40
0.062502
  0
CIRCLE
  5
641A
330
1E
100
AcDbEntity
  8
躯体と製品
  6
Continuous
 62
     6
100
AcDbCircle
 10
1596.355388787507
 20
220.2460572567247
 30
0.0
 40
0.062502
  0
CIRCLE
  5
641B
330
1E
100
AcDbEntity
  8
躯体と製品
  6
Continuous
 62
     6
100
AcDbCircle
 10
1595.961392787507
 20
215.8558152567247
 30
0.0
 40
0.062502
  0
CIRCLE
  5
641C
330
1E
100
AcDbEntity
  8
躯体と製品
  6
Continuous
 62
     6
100
AcDbCircle
 10
1596.355388787507
 20
211.4280492567246
 30
0.0
 40
0.062502
  0
CIRCLE
  5
641D
330
1E
100
AcDbEntity
  8
躯体と製品
  6
Continuous
 62
     6
100
AcDbCircle
 10
1596.355388787507
 20
207.7695132567247
 30
0.0
 40
0.062502
  0
CIRCLE
  5
641E
330
1E
100
AcDbEntity
  8
躯体と製品
  6
Continuous
 62
     6
100
AcDbCircle
 10
1596.280342787507
 20
204.4123452567248
 30
0.0
 40
0.062502
  0
CIRCLE
  5
641F
330
1E
100
AcDbEntity
  8
躯体と製品
  6
Continuous
 62
     6
100
AcDbCircle
 10
1596.411674787507
 20
201.6168492567248
 30
0.0
 40
0.062502
  0
CIRCLE
  5
6420
330
1E
100
AcDbEntity
  8
躯体と製品
  6
Continuous
 62
     6
100
AcDbCircle
 10
1598.118990787507
 20
202.3673192567248
 30
0.0
 40
0.062502
  0
CIRCLE
  5
6421
330
1E
100
AcDbEntity
  8
躯体と製品
  6
Continuous
 62
     6
100
AcDbCircle
 10
1598.775650787507
 20
200.3598152567248
 30
0.0
 40
0.062502
  0
CIRCLE
  5
6422
330
1E
100
AcDbEntity
  8
躯体と製品
  6
Continuous
 62
     6
100
AcDbCircle
 10
1600.274504787507
 20
202.3673192567248
 30
0.0
 40
0.062502
  0
CIRCLE
  5
6423
330
1E
100
AcDbEntity
  8
躯体と製品
  6
Continuous
 62
     6
100
AcDbCircle
 10
1602.263246787507
 20
200.4723852567248
 30
0.0
 40
0.062502
  0
CIRCLE
  5
6424
330
1E
100
AcDbEntity
  8
躯体と製品
  6
Continuous
 62
     6
100
AcDbCircle
 10
1604.120656787507
 20
202.2547492567248
 30
0.0
 40
0.062502
  0
CIRCLE
  5
6425
330
1E
100
AcDbEntity
  8
躯体と製品
  6
Continuous
 62
     6
100
AcDbCircle
 10
1605.884258787507
 20
200.3785772567248
 30
0.0
 40
0.062502
  0
CIRCLE
  5
6426
330
1E
100
AcDbEntity
  8
躯体と製品
  6
Continuous
 62
     6
100
AcDbCircle
 10
1606.200906787507
 20
202.3860812567248
 30
0.0
 40
0.062502
  0
CIRCLE
  5
6427
330
1E
100
AcDbEntity
  8
躯体と製品
  6
Continuous
 62
     6
100
AcDbCircle
 10
1608.320982787508
 20
201.3166632567247
 30
0.0
 40
0.062502
  0
CIRCLE
  5
6428
330
1E
100
AcDbEntity
  8
躯体と製品
  6
Continuous
 62
     6
100
AcDbCircle
 10
1610.891336787507
 20
200.1346732567248
 30
0.0
 40
0.062502
  0
CIRCLE
  5
6429
330
1E
100
AcDbEntity
  8
躯体と製品
  6
Continuous
 62
     6
100
AcDbCircle
 10
1610.403532787508
 20
202.4423652567248
 30
0.0
 40
0.062502
  0
CIRCLE
  5
642A
330
1E
100
AcDbEntity
  8
躯体と製品
  6
Continuous
 62
     6
100
AcDbCircle
 10
1611.304094787507
 20
205.3691932567248
 30
0.0
 40
0.062502
  0
CIRCLE
  5
642B
330
1E
100
AcDbEntity
  8
躯体と製品
  6
Continuous
 62
     6
100
AcDbCircle
 10
1610.403532787508
 20
207.7132292567247
 30
0.0
 40
0.062502
  0
CIRCLE
  5
642C
330
1E
100
AcDbEntity
  8
躯体と製品
  6
Continuous
 62
     6
100
AcDbCircle
 10
1611.116478787507
 20
211.0152912567247
 30
0.0
 40
0.062502
  0
CIRCLE
  5
642D
330
1E
100
AcDbEntity
  8
躯体と製品
  6
Continuous
 62
     6
100
AcDbCircle
 10
1610.253438787507
 20
214.0546892567247
 30
0.0
 40
0.062502
  0
CIRCLE
  5
642E
330
1E
100
AcDbEntity
  8
躯体と製品
  6
Continuous
 62
     6
100
AcDbCircle
 10
1611.210286787507
 20
217.1316112567247
 30
0.0
 40
0.062502
  0
CIRCLE
  5
642F
330
1E
100
AcDbEntity
  8
躯体と製品
  6
Continuous
 62
     6
100
AcDbCircle
 10
1610.947622787507
 20
220.3961512567247
 30
0.0
 40
0.062502
  0
CIRCLE
  5
6430
330
1E
100
AcDbEntity
  8
躯体と製品
  6
Continuous
 62
     6
100
AcDbCircle
 10
1610.966384787507
 20
224.2423032567247
 30
0.0
 40
0.062502
  0
CIRCLE
  5
6431
330
1E
100
AcDbEntity
  8
躯体と製品
  6
Continuous
 62
     6
100
AcDbCircle
 10
1611.360380787507
 20
227.8257912567247
 30
0.0
 40
0.062502
  0
CIRCLE
  5
6432
330
1E
100
AcDbEntity
  8
躯体と製品
  6
Continuous
 62
     6
100
AcDbCircle
 10
1610.422294787507
 20
230.3398612567247
 30
0.0
 40
0.062502
  0
CIRCLE
  5
6433
330
1E
100
AcDbEntity
  8
躯体と製品
  6
Continuous
 62
     6
100
AcDbCircle
 10
1611.341618787507
 20
232.6287912567246
 30
0.0
 40
0.062502
  0
CIRCLE
  5
6434
330
1E
100
AcDbEntity
  8
躯体と製品
  6
Continuous
 62
     6
100
AcDbCircle
 10
1596.918240787507
 20
232.6850772567246
 30
0.0
 40
0.062502
  0
CIRCLE
  5
643D
330
1E
100
AcDbEntity
  8
躯体と製品
  6
Continuous
 62
     6
100
AcDbCircle
 10
1594.814350787507
 20
223.0349112567247
 30
0.0
 40
0.062502
  0
CIRCLE
  5
643E
330
1E
100
AcDbEntity
  8
躯体と製品
  6
Continuous
 62
     6
100
AcDbCircle
 10
1594.774258787507
 20
212.8918772567247
 30
0.0
 40
0.062502
  0
CIRCLE
  5
643F
330
1E
100
AcDbEntity
  8
躯体と製品
  6
Continuous
 62
     6
100
AcDbCircle
 10
1594.573804787507
 20
206.6777652567247
 30
0.0
 40
0.062502
  0
CIRCLE
  5
6440
330
1E
100
AcDbEntity
  8
躯体と製品
  6
Continuous
 62
     6
100
AcDbCircle
 10
1594.513666787508
 20
201.7878392567247
 30
0.0
 40
0.062502
  0
CIRCLE
  5
6441
330
1E
100
AcDbEntity
  8
躯体と製品
  6
Continuous
 62
     6
100
AcDbCircle
 10
1612.021882787507
 20
214.1747912567247
 30
0.0
 40
0.062502
  0
CIRCLE
  5
6442
330
1E
100
AcDbEntity
  8
躯体と製品
  6
Continuous
 62
     6
100
AcDbCircle
 10
1612.001836787507
 20
207.8804972567247
 30
0.0
 40
0.062502
  0
CIRCLE
  5
6443
330
1E
100
AcDbEntity
  8
躯体と製品
  6
Continuous
 62
     6
100
AcDbCircle
 10
1612.442838787507
 20
202.4292952567248
 30
0.0
 40
0.062502
  0
CIRCLE
  5
6444
330
1E
100
AcDbEntity
  8
躯体と製品
  6
Continuous
 62
     6
100
AcDbCircle
 10
1612.422792787507
 20
227.0841072567247
 30
0.0
 40
0.062502
  0
CIRCLE
  5
6445
330
1E
100
AcDbEntity
  8
躯体と製品
  6
Continuous
 62
     6
100
AcDbCircle
 10
1612.663338787507
 20
221.4513152567247
 30
0.0
 40
0.062502
  0
DIMENSION
  5
6488
330
1E
100
AcDbEntity
  8
寸法
  6
Continuous
100
AcDbDimension
  2
*D1
 10
1353.227258787507
 20
365.8609152567247
 30
0.0
 11
1346.977258787507
 21
351.3609152567249
 31
0.0
 70
    32
 71
     5
 42
29.00000000000011
  3
AutoCAD
100
AcDbAlignedDimension
 13
1353.227258787507
 23
336.8609152567247
 33
0.0
 14
1353.227258787507
 24
365.8609152567247
 34
0.0
 50
90.0
100
AcDbRotatedDimension
  0
DIMENSION
  5
6489
330
1E
100
AcDbEntity
  8
寸法
  6
Continuous
100
AcDbDimension
  2
*D2
 10
1715.977252787507
 20
334.8617692567247
 30
0.0
 11
1709.727252787507
 21
309.861896256725
 31
0.0
 70
    32
 71
     5
 42
49.99974600000019
  3
AutoCAD
100
AcDbAlignedDimension
 13
1715.977252787507
 23
284.8620232567246
 33
0.0
 14
1715.977252787507
 24
334.8617692567247
 34
0.0
 50
90.0
100
AcDbRotatedDimension
  0
LWPOLYLINE
  5
6494
330
1E
100
AcDbEntity
  8
躯体と製品
  6
Continuous
 62
     4
100
AcDbPolyline
 90
        2
 70
     0
 43
0.0
 10
1219.335384187547
 20
254.8609122049669
 10
1216.738410887567
 20
254.8609122049669
  0
LWPOLYLINE
  5
6497
330
1E
100
AcDbEntity
  8
躯体と製品
  6
Continuous
 62
     4
100
AcDbPolyline
 90
        2
 70
     0
 43
0.0
 10
1214.141437587586
 20
255.8609122049669
 10
1214.141437587586
 20
261.3609122049669
  0
LWPOLYLINE
  5
6498
330
1E
100
AcDbEntity
  8
躯体と製品
  6
Continuous
 62
     4
100
AcDbPolyline
 90
        2
 70
     0
 43
0.0
 10
1234.917223987428
 20
255.8609122049672
 10
1234.917223987428
 20
261.3609122049669
  0
LWPOLYLINE
  5
6499
330
1E
100
AcDbEntity
  8
躯体と製品
  6
Continuous
 62
     4
100
AcDbPolyline
 90
        2
 70
     0
 43
0.0
 10
1229.723277387466
 20
261.3609122049669
 10
1229.72327738747
 20
255.8609122049643
  0
LWPOLYLINE
  5
649A
330
1E
100
AcDbEntity
  8
躯体と製品
  6
Continuous
 62
     4
100
AcDbPolyline
 90
        2
 70
     0
 43
0.0
 10
1219.335384187542
 20
261.3609122049669
 10
1219.335384187546
 20
255.8609122049687
  0
LWPOLYLINE
  5
649B
330
1E
100
AcDbEntity
  8
躯体と製品
  6
Continuous
 62
     4
100
AcDbPolyline
 90
        2
 70
     0
 43
0.0
 10
1603.625692787507
 20
261.360884204967
 10
1603.625692787507
 20
255.8608842049685
  0
LWPOLYLINE
  5
649C
330
1E
100
AcDbEntity
  8
躯体と製品
  6
Continuous
 62
     4
100
AcDbPolyline
 90
        2
 70
     0
 43
0.0
 10
1612.621872190438
 20
255.8608842049683
 10
1612.621872190438
 20
261.360884204967
  0
LWPOLYLINE
  5
649D
330
1E
100
AcDbEntity
  8
躯体と製品
  6
Continuous
 62
     4
100
AcDbPolyline
 90
        2
 70
     0
 43
0.0
 10
1594.629513384576
 20
255.8608842049688
 10
1594.629513384576
 20
261.360884204967
  0
LWPOLYLINE
  5
649E
330
1E
100
AcDbEntity
  8
躯体と製品
  6
Continuous
 62
     4
100
AcDbPolyline
 90
        2
 70
     0
 43
0.0
 10
1599.127603086041
 20
254.8608842049668
 10
1608.123782488973
 20
254.8608842049668
  0
CIRCLE
  5
64AD
330
1E
100
AcDbEntity
  8
躯体と製品
  6
Continuous
 62
     6
100
AcDbCircle
 10
1217.183980787507
 20
230.4899272567247
 30
0.0
 40
0.062502
  0
CIRCLE
  5
64AE
330
1E
100
AcDbEntity
  8
躯体と製品
  6
Continuous
 62
     6
100
AcDbCircle
 10
1217.296550787507
 20
226.0996852567248
 30
0.0
 40
0.062502
  0
CIRCLE
  5
64AF
330
1E
100
AcDbEntity
  8
躯体と製品
  6
Continuous
 62
     6
100
AcDbCircle
 10
1217.259026787507
 20
220.2460292567248
 30
0.0
 40
0.062502
  0
CIRCLE
  5
64B0
330
1E
100
AcDbEntity
  8
躯体と製品
  6
Continuous
 62
     6
100
AcDbCircle
 10
1216.865030787507
 20
215.8557872567247
 30
0.0
 40
0.062502
  0
CIRCLE
  5
64B1
330
1E
100
AcDbEntity
  8
躯体と製品
  6
Continuous
 62
     6
100
AcDbCircle
 10
1217.259026787507
 20
211.4280212567247
 30
0.0
 40
0.062502
  0
CIRCLE
  5
64B2
330
1E
100
AcDbEntity
  8
躯体と製品
  6
Continuous
 62
     6
100
AcDbCircle
 10
1217.259026787507
 20
207.7694852567248
 30
0.0
 40
0.062502
  0
CIRCLE
  5
64B3
330
1E
100
AcDbEntity
  8
躯体と製品
  6
Continuous
 62
     6
100
AcDbCircle
 10
1217.183980787507
 20
204.4123172567248
 30
0.0
 40
0.062502
  0
CIRCLE
  5
64B4
330
1E
100
AcDbEntity
  8
躯体と製品
  6
Continuous
 62
     6
100
AcDbCircle
 10
1217.315312787507
 20
201.6168212567249
 30
0.0
 40
0.062502
  0
CIRCLE
  5
64B5
330
1E
100
AcDbEntity
  8
躯体と製品
  6
Continuous
 62
     6
100
AcDbCircle
 10
1219.022628787507
 20
202.3672912567249
 30
0.0
 40
0.062502
  0
CIRCLE
  5
64B6
330
1E
100
AcDbEntity
  8
躯体と製品
  6
Continuous
 62
     6
100
AcDbCircle
 10
1219.679288787507
 20
200.3597872567249
 30
0.0
 40
0.062502
  0
CIRCLE
  5
64B7
330
1E
100
AcDbEntity
  8
躯体と製品
  6
Continuous
 62
     6
100
AcDbCircle
 10
1221.178142787507
 20
202.3672912567249
 30
0.0
 40
0.062502
  0
CIRCLE
  5
64B8
330
1E
100
AcDbEntity
  8
躯体と製品
  6
Continuous
 62
     6
100
AcDbCircle
 10
1223.166884787507
 20
200.4723572567249
 30
0.0
 40
0.062502
  0
CIRCLE
  5
64B9
330
1E
100
AcDbEntity
  8
躯体と製品
  6
Continuous
 62
     6
100
AcDbCircle
 10
1225.024294787507
 20
202.2547212567249
 30
0.0
 40
0.062502
  0
CIRCLE
  5
64BA
330
1E
100
AcDbEntity
  8
躯体と製品
  6
Continuous
 62
     6
100
AcDbCircle
 10
1226.787896787507
 20
200.3785492567249
 30
0.0
 40
0.062502
  0
CIRCLE
  5
64BB
330
1E
100
AcDbEntity
  8
躯体と製品
  6
Continuous
 62
     6
100
AcDbCircle
 10
1227.104544787507
 20
202.3860532567248
 30
0.0
 40
0.062502
  0
CIRCLE
  5
64BC
330
1E
100
AcDbEntity
  8
躯体と製品
  6
Continuous
 62
     6
100
AcDbCircle
 10
1229.224620787507
 20
201.3166352567248
 30
0.0
 40
0.062502
  0
CIRCLE
  5
64BD
330
1E
100
AcDbEntity
  8
躯体と製品
  6
Continuous
 62
     6
100
AcDbCircle
 10
1231.794974787507
 20
200.1346452567249
 30
0.0
 40
0.062502
  0
CIRCLE
  5
64BE
330
1E
100
AcDbEntity
  8
躯体と製品
  6
Continuous
 62
     6
100
AcDbCircle
 10
1231.307170787507
 20
202.4423372567248
 30
0.0
 40
0.062502
  0
CIRCLE
  5
64BF
330
1E
100
AcDbEntity
  8
躯体と製品
  6
Continuous
 62
     6
100
AcDbCircle
 10
1232.207732787507
 20
205.3691652567248
 30
0.0
 40
0.062502
  0
CIRCLE
  5
64C0
330
1E
100
AcDbEntity
  8
躯体と製品
  6
Continuous
 62
     6
100
AcDbCircle
 10
1231.307170787507
 20
207.7132012567248
 30
0.0
 40
0.062502
  0
CIRCLE
  5
64C1
330
1E
100
AcDbEntity
  8
躯体と製品
  6
Continuous
 62
     6
100
AcDbCircle
 10
1232.020116787507
 20
211.0152632567248
 30
0.0
 40
0.062502
  0
CIRCLE
  5
64C2
330
1E
100
AcDbEntity
  8
躯体と製品
  6
Continuous
 62
     6
100
AcDbCircle
 10
1231.157076787507
 20
214.0546612567248
 30
0.0
 40
0.062502
  0
CIRCLE
  5
64C3
330
1E
100
AcDbEntity
  8
躯体と製品
  6
Continuous
 62
     6
100
AcDbCircle
 10
1232.113924787507
 20
217.1315832567247
 30
0.0
 40
0.062502
  0
CIRCLE
  5
64C4
330
1E
100
AcDbEntity
  8
躯体と製品
  6
Continuous
 62
     6
100
AcDbCircle
 10
1231.851260787507
 20
220.3961232567248
 30
0.0
 40
0.062502
  0
CIRCLE
  5
64C5
330
1E
100
AcDbEntity
  8
躯体と製品
  6
Continuous
 62
     6
100
AcDbCircle
 10
1231.870022787507
 20
224.2422752567247
 30
0.0
 40
0.062502
  0
CIRCLE
  5
64C6
330
1E
100
AcDbEntity
  8
躯体と製品
  6
Continuous
 62
     6
100
AcDbCircle
 10
1232.264018787507
 20
227.8257632567248
 30
0.0
 40
0.062502
  0
CIRCLE
  5
64C7
330
1E
100
AcDbEntity
  8
躯体と製品
  6
Continuous
 62
     6
100
AcDbCircle
 10
1231.325932787507
 20
230.3398332567248
 30
0.0
 40
0.062502
  0
CIRCLE
  5
64C8
330
1E
100
AcDbEntity
  8
躯体と製品
  6
Continuous
 62
     6
100
AcDbCircle
 10
1232.245256787507
 20
232.6287632567247
 30
0.0
 40
0.062502
  0
CIRCLE
  5
64C9
330
1E
100
AcDbEntity
  8
躯体と製品
  6
Continuous
 62
     6
100
AcDbCircle
 10
1217.821878787507
 20
232.6850492567247
 30
0.0
 40
0.062502
  0
CIRCLE
  5
64D2
330
1E
100
AcDbEntity
  8
躯体と製品
  6
Continuous
 62
     6
100
AcDbCircle
 10
1215.717988787507
 20
223.0348832567248
 30
0.0
 40
0.062502
  0
CIRCLE
  5
64D3
330
1E
100
AcDbEntity
  8
躯体と製品
  6
Continuous
 62
     6
100
AcDbCircle
 10
1215.677896787507
 20
212.8918492567247
 30
0.0
 40
0.062502
  0
CIRCLE
  5
64D4
330
1E
100
AcDbEntity
  8
躯体と製品
  6
Continuous
 62
     6
100
AcDbCircle
 10
1215.477442787507
 20
206.6777372567247
 30
0.0
 40
0.062502
  0
CIRCLE
  5
64D5
330
1E
100
AcDbEntity
  8
躯体と製品
  6
Continuous
 62
     6
100
AcDbCircle
 10
1215.417304787507
 20
201.7878112567248
 30
0.0
 40
0.062502
  0
CIRCLE
  5
64D6
330
1E
100
AcDbEntity
  8
躯体と製品
  6
Continuous
 62
     6
100
AcDbCircle
 10
1232.925520787507
 20
214.1747632567247
 30
0.0
 40
0.062502
  0
CIRCLE
  5
64D7
330
1E
100
AcDbEntity
  8
躯体と製品
  6
Continuous
 62
     6
100
AcDbCircle
 10
1232.905474787507
 20
207.8804692567247
 30
0.0
 40
0.062502
  0
CIRCLE
  5
64D8
330
1E
100
AcDbEntity
  8
躯体と製品
  6
Continuous
 62
     6
100
AcDbCircle
 10
1233.346476787507
 20
202.4292672567248
 30
0.0
 40
0.062502
  0
CIRCLE
  5
64D9
330
1E
100
AcDbEntity
  8
躯体と製品
  6
Continuous
 62
     6
100
AcDbCircle
 10
1233.326430787507
 20
227.0840792567248
 30
0.0
 40
0.062502
  0
CIRCLE
  5
64DA
330
1E
100
AcDbEntity
  8
躯体と製品
  6
Continuous
 62
     6
100
AcDbCircle
 10
1233.566976787507
 20
221.4512872567247
 30
0.0
 40
0.062502
  0
LWPOLYLINE
  5
697B
330
1E
100
AcDbEntity
  8
中心線
  6
CENTER1
100
AcDbPolyline
 90
        2
 70
     0
 43
0.0
 10
1224.529330787507
 20
191.1307358240241
 10
1224.529330787507
 20
358.7248009767198
  0
LWPOLYLINE
  5
697C
330
1E
100
AcDbEntity
  8
中心線
  6
CENTER1
100
AcDbPolyline
 90
        2
 70
     0
 43
0.0
 10
1603.625692787507
 20
191.1307358240241
 10
1603.625692787507
 20
358.7248009767198
  0
TEXT
  5
6DC7
330
1E
100
AcDbEntity
  8
文字-記号
  6
Continuous
 62
     7
100
AcDbText
 10
1127.615167531403
 20
255.503550327452
 30
0.0
 40
6.383249
  1
調整ボルト Ｍ１２
100
AcDbText
  0
LWPOLYLINE
  5
6DC8
330
1E
100
AcDbEntity
  8
文字-記号
  6
Continuous
 62
     7
100
AcDbPolyline
 90
        3
 70
     0
 43
0.0
 10
1126.470454531403
 20
252.9494803274518
 10
1213.584351532075
 20
252.9494803274518
 10
1218.529330787507
 20
244.3845250146687
  0
LWPOLYLINE
  5
6DCE
330
1E
100
AcDbEntity
  8
文字-記号
  6
Continuous
 62
     7
100
AcDbPolyline
 90
        3
 70
     0
 43
0.0
 10
1243.904419128179
 20
278.5641897833921
 10
1261.406189870458
 20
248.2502336353425
 10
1339.500087252865
 20
248.2502336353425
  0
TEXT
  5
6DCF
330
1E
100
AcDbEntity
  8
文字-記号
  6
Continuous
 62
     7
100
AcDbText
 10
1263.867127494177
 20
250.8172639353015
 30
0.0
 40
6.205583999999999
  1
メインクッションゴム
100
AcDbText
  0
LWPOLYLINE
  5
6DD4
330
1E
100
AcDbEntity
  8
文字-記号
  6
Continuous
 62
     7
100
AcDbPolyline
 90
        3
 70
     0
 43
0.0
 10
1200.066519920108
 20
307.5993878831965
 10
1184.973850735723
 20
281.4581180340129
 10
1152.895479263902
 20
281.4581180340129
  0
TEXT
  5
6DD5
330
1E
100
AcDbEntity
  8
文字-記号
  6
Continuous
 62
     7
100
AcDbText
 10
1157.075881702366
 20
283.8475520340128
 30
0.0
 40
6.205583999999999
  1
大引鋼
100
AcDbText
  0
LWPOLYLINE
  5
6DD6
330
1E
100
AcDbEntity
  8
文字-記号
  6
Continuous
 62
     7
100
AcDbPolyline
 90
        3
 70
     0
 43
0.0
 10
1152.261738936324
 20
336.8609152567247
 10
1141.41838977869
 20
318.0796835914935
 10
1109.340018306869
 20
318.0796835914935
  0
TEXT
  5
6DD7
330
1E
100
AcDbEntity
  8
文字-記号
  6
Continuous
 62
     7
100
AcDbText
 10
1113.520420745333
 20
320.4691175914934
 30
0.0
 40
6.205583999999999
  1
根太鋼
100
AcDbText
  0
LWPOLYLINE
  5
6DDA
330
1E
100
AcDbEntity
  8
文字-記号
  6
Continuous
 62
     7
100
AcDbPolyline
 90
        3
 70
     0
 43
0.0
 10
1486.063710787507
 20
284.8609152567247
 10
1470.971041603122
 20
258.719645407541
 10
1438.892670131301
 20
258.719645407541
  0
TEXT
  5
6DDB
330
1E
100
AcDbEntity
  8
文字-記号
  6
Continuous
 62
     7
100
AcDbText
 10
1443.073072569766
 20
261.1090794075409
 30
0.0
 40
6.205583999999999
  1
大引鋼
100
AcDbText
  0
TEXT
  5
6DDC
330
1E
100
AcDbEntity
  8
文字-記号
  6
Continuous
 62
     7
100
AcDbText
 10
1506.711529531403
 20
255.503550327452
 30
0.0
 40
6.383249
  1
調整ボルト Ｍ１２
100
AcDbText
  0
LWPOLYLINE
  5
6DDD
330
1E
100
AcDbEntity
  8
文字-記号
  6
Continuous
 62
     7
100
AcDbPolyline
 90
        3
 70
     0
 43
0.0
 10
1505.566816531404
 20
252.9494803274518
 10
1592.680713532075
 20
252.9494803274518
 10
1597.625692787507
 20
244.3845250146687
  0
DIMENSION
  5
6E16
330
1E
100
AcDbEntity
  8
寸法
  6
Continuous
100
AcDbDimension
  2
*D3
 10
1772.757811787509
 20
365.8609152567247
 30
0.0
 11
1766.507811787509
 21
299.8609152567251
 31
0.0
 70
    32
  1
h
 71
     5
 42
132.0
  3
AutoCAD
100
AcDbAlignedDimension
 13
1733.525930787507
 23
233.8609152567248
 33
0.0
 14
1733.525930787508
 24
365.8609152567247
 34
0.0
 50
90.0
100
AcDbRotatedDimension
  0
LWPOLYLINE
  5
8875
330
1E
100
AcDbEntity
  8
躯体と製品
  6
Continuous
 62
     4
100
AcDbPolyline
 90
       13
 70
     0
 43
0.0
 10
1419.625692787508
 20
334.8609152567247
 10
1487.625692787508
 20
334.8609152567247
 10
1487.625692787508
 20
341.8609152567246
 10
1482.625692787508
 20
341.8609152567246
 10
1482.625692787508
 20
339.8609152567246
 10
1485.625692787508
 20
339.8609152567246
 10
1485.625692787508
 20
336.8609152567247
 10
1421.625692787508
 20
336.8609152567247
 10
1421.625692787508
 20
339.8609152567246
 10
1424.625692787508
 20
339.8609152567246
 10
1424.625692787508
 20
341.8609152567246
 10
1419.625692787508
 20
341.8609152567246
 10
1419.625692787508
 20
334.8609152567247
  0
LWPOLYLINE
  5
8876
330
1E
100
AcDbEntity
  8
躯体と製品
  6
Continuous
 62
     4
100
AcDbPolyline
 90
       28
 70
     1
 43
0.0
 10
1469.425692787508
 20
365.8609152567244
 42
-0.4142135623730951
 10
1471.125692787508
 20
364.1609152567244
 10
1471.125692787508
 20
338.5609152567245
 42
0.4142135623730951
 10
1471.625692787508
 20
338.0609152567245
 10
1483.925692787508
 20
338.0609152567245
 42
0.4142135623730951
 10
1484.425692787508
 20
338.5609152567245
 10
1484.425692787508
 20
339.8609152567246
 10
1485.625692787508
 20
339.8609152567246
 10
1485.625692787508
 20
338.5609152567245
 42
-0.4142135623730951
 10
1483.925692787508
 20
336.8609152567247
 10
1471.625692787508
 20
336.8609152567247
 42
-0.4142135623730951
 10
1469.925692787508
 20
338.5609152567245
 10
1469.925692787508
 20
364.1609152567244
 42
0.4142135623730951
 10
1469.425692787508
 20
364.6609152567244
 10
1437.825692787508
 20
364.6609152567244
 42
0.4142135623730951
 10
1437.325692787508
 20
364.1609152567244
 10
1437.325692787508
 20
338.5609152567245
 42
-0.4142135623730951
 10
1435.625692787508
 20
336.8609152567247
 10
1423.325692787508
 20
336.8609152567247
 42
-0.4142135623730951
 10
1421.625692787508
 20
338.5609152567245
 10
1421.625692787508
 20
339.8609152567246
 10
1422.825692787508
 20
339.8609152567246
 10
1422.825692787508
 20
338.5609152567245
 42
0.4142135623730951
 10
1423.325692787508
 20
338.0609152567245
 10
1435.625692787508
 20
338.0609152567245
 42
0.4142135623730951
 10
1436.125692787508
 20
338.5609152567245
 10
1436.125692787508
 20
364.1609152567244
 42
-0.4142135623730951
 10
1437.825692787508
 20
365.8609152567244
  0
TEXT
  5
8877
330
1E
100
AcDbEntity
  8
文字-記号
  6
Continuous
 62
     7
100
AcDbText
 10
1408.486435787508
 20
356.7140032567245
 30
0.0
 40
6.205583999999999
  1
根太鋼
100
AcDbText
  0
LWPOLYLINE
  5
8878
330
1E
100
AcDbEntity
  8
躯体と製品
  6
Continuous
 62
     4
100
AcDbPolyline
 90
        2
 70
     0
 43
0.0
 10
1432.82669278749
 20
338.7099152567293
 10
1432.82669278749
 20
338.2609152567361
  0
LWPOLYLINE
  5
8879
330
1E
100
AcDbEntity
  8
躯体と製品
  6
Continuous
 62
     4
100
AcDbPolyline
 90
        2
 70
     0
 43
0.0
 10
1424.82669278749
 20
338.7099152567293
 10
1424.82669278749
 20
338.2609152567361
  0
LWPOLYLINE
  5
887A
330
1E
100
AcDbEntity
  8
躯体と製品
  6
Continuous
 62
     4
100
AcDbPolyline
 90
        2
 70
     0
 43
0.0
 10
1432.626692787508
 20
338.0609152567245
 10
1428.82669278749
 20
338.0609152567245
  0
LWPOLYLINE
  5
887B
330
1E
100
AcDbEntity
  8
躯体と製品
  6
Continuous
 62
     4
100
AcDbPolyline
 90
        2
 70
     0
 43
0.0
 10
1424.82669278749
 20
338.2609152357813
 42
0.41421351636737
 10
1425.026692777024
 20
338.0609152567245
  0
LWPOLYLINE
  5
887C
330
1E
100
AcDbEntity
  8
躯体と製品
  6
Continuous
 62
     4
100
AcDbPolyline
 90
        2
 70
     0
 43
0.0
 10
1425.026692787502
 20
338.0609152567245
 10
1428.82669278749
 20
338.0609152567245
  0
LWPOLYLINE
  5
887D
330
1E
100
AcDbEntity
  8
躯体と製品
  6
Continuous
 62
     4
100
AcDbPolyline
 90
        2
 70
     0
 43
0.0
 10
1432.62669277703
 20
338.0609152567245
 42
0.4142135777083371
 10
1432.826692787519
 20
338.2609152567361
  0
LWPOLYLINE
  5
887E
330
1E
100
AcDbEntity
  8
躯体と製品
  6
Continuous
 62
     4
100
AcDbPolyline
 90
        2
 70
     0
 43
0.0
 10
1432.591692787504
 20
339.8609152567419
 10
1428.82669278749
 20
339.8609152567419
  0
LWPOLYLINE
  5
887F
330
1E
100
AcDbEntity
  8
躯体と製品
  6
Continuous
 62
     4
100
AcDbPolyline
 90
        2
 70
     0
 43
0.0
 10
1432.591241916667
 20
339.8604127969497
 42
0.2144073790574085
 10
1428.826708954144
 20
341.0607717380822
  0
LWPOLYLINE
  5
8880
330
1E
100
AcDbEntity
  8
躯体と製品
  6
Continuous
 62
     4
100
AcDbPolyline
 90
        2
 70
     0
 43
0.0
 10
1425.061692787505
 20
339.8609152567419
 10
1424.82669278749
 20
338.7099152567293
  0
LWPOLYLINE
  5
8881
330
1E
100
AcDbEntity
  8
躯体と製品
  6
Continuous
 62
     4
100
AcDbPolyline
 90
        2
 70
     0
 43
0.0
 10
1428.826676202905
 20
341.0607717858415
 42
0.2144073836089342
 10
1425.062143282699
 20
339.860412460102
  0
LWPOLYLINE
  5
8882
330
1E
100
AcDbEntity
  8
躯体と製品
  6
Continuous
 62
     4
100
AcDbPolyline
 90
        2
 70
     0
 43
0.0
 10
1425.061692787505
 20
339.8609152567419
 10
1428.82669278749
 20
339.8609152567419
  0
LWPOLYLINE
  5
8883
330
1E
100
AcDbEntity
  8
躯体と製品
  6
Continuous
 62
     4
100
AcDbPolyline
 90
        2
 70
     0
 43
0.0
 10
1432.591692787504
 20
339.8609152567419
 10
1432.82669278749
 20
338.7099152567293
  0
LWPOLYLINE
  5
8884
330
1E
100
AcDbEntity
  8
躯体と製品
  6
Continuous
 62
     4
100
AcDbPolyline
 90
        2
 70
     0
 43
0.0
 10
1482.426692787496
 20
338.7099152567293
 10
1482.426692787496
 20
338.2609152567361
  0
LWPOLYLINE
  5
8885
330
1E
100
AcDbEntity
  8
躯体と製品
  6
Continuous
 62
     4
100
AcDbPolyline
 90
        2
 70
     0
 43
0.0
 10
1474.426692787496
 20
338.7099152567293
 10
1474.426692787496
 20
338.2609152567361
  0
LWPOLYLINE
  5
8886
330
1E
100
AcDbEntity
  8
躯体と製品
  6
Continuous
 62
     4
100
AcDbPolyline
 90
        2
 70
     0
 43
0.0
 10
1482.226692787484
 20
338.0609152567245
 10
1478.426692787496
 20
338.0609152567245
  0
LWPOLYLINE
  5
8887
330
1E
100
AcDbEntity
  8
躯体と製品
  6
Continuous
 62
     4
100
AcDbPolyline
 90
        2
 70
     0
 43
0.0
 10
1474.426692787496
 20
338.2609152357813
 42
0.41421351636737
 10
1474.62669277703
 20
338.0609152567245
  0
LWPOLYLINE
  5
8888
330
1E
100
AcDbEntity
  8
躯体と製品
  6
Continuous
 62
     4
100
AcDbPolyline
 90
        2
 70
     0
 43
0.0
 10
1474.626692787508
 20
338.0609152567245
 10
1478.426692787496
 20
338.0609152567245
  0
LWPOLYLINE
  5
8889
330
1E
100
AcDbEntity
  8
躯体と製品
  6
Continuous
 62
     4
100
AcDbPolyline
 90
        2
 70
     0
 43
0.0
 10
1482.226692777007
 20
338.0609152567245
 42
0.4142135777083371
 10
1482.426692787496
 20
338.2609152567361
  0
LWPOLYLINE
  5
888A
330
1E
100
AcDbEntity
  8
躯体と製品
  6
Continuous
 62
     4
100
AcDbPolyline
 90
        2
 70
     0
 43
0.0
 10
1482.19169278751
 20
339.8609152567419
 10
1478.426692787496
 20
339.8609152567419
  0
LWPOLYLINE
  5
888B
330
1E
100
AcDbEntity
  8
躯体と製品
  6
Continuous
 62
     4
100
AcDbPolyline
 90
        2
 70
     0
 43
0.0
 10
1482.191241916673
 20
339.8604127969497
 42
0.2144073790574085
 10
1478.42670895415
 20
341.0607717380822
  0
LWPOLYLINE
  5
888C
330
1E
100
AcDbEntity
  8
躯体と製品
  6
Continuous
 62
     4
100
AcDbPolyline
 90
        2
 70
     0
 43
0.0
 10
1474.661692787482
 20
339.8609152567419
 10
1474.426692787496
 20
338.7099152567293
  0
LWPOLYLINE
  5
888D
330
1E
100
AcDbEntity
  8
躯体と製品
  6
Continuous
 62
     4
100
AcDbPolyline
 90
        2
 70
     0
 43
0.0
 10
1478.426676202882
 20
341.0607717858415
 42
0.2144073836089342
 10
1474.662143282676
 20
339.860412460102
  0
LWPOLYLINE
  5
888E
330
1E
100
AcDbEntity
  8
躯体と製品
  6
Continuous
 62
     4
100
AcDbPolyline
 90
        2
 70
     0
 43
0.0
 10
1474.661692787482
 20
339.8609152567419
 10
1478.426692787496
 20
339.8609152567419
  0
LWPOLYLINE
  5
888F
330
1E
100
AcDbEntity
  8
躯体と製品
  6
Continuous
 62
     4
100
AcDbPolyline
 90
        2
 70
     0
 43
0.0
 10
1482.19169278751
 20
339.8609152567419
 10
1482.426692787496
 20
338.7099152567293
  0
LWPOLYLINE
  5
8890
330
1E
100
AcDbEntity
  8
文字-記号
  6
Continuous
 62
     7
100
AcDbPolyline
 90
        3
 70
     0
 43
0.0
 10
1405.672368787508
 20
354.3245692567243
 10
1430.905383787508
 20
354.3245692567243
 10
1436.125692787508
 20
346.5496409801206
  0
LWPOLYLINE
  5
9964
330
1E
100
AcDbEntity
  8
文字-記号
  6
Continuous
 62
     7
100
AcDbPolyline
 90
        3
 70
     0
 43
0.0
 10
1207.344728103117
 20
398.8609152567248
 10
1226.11381037699
 20
431.369919366513
 10
1300.178085933008
 20
431.369919366513
  0
TEXT
  5
9965
330
1E
100
AcDbEntity
  8
文字-記号
  6
Continuous
 62
     7
100
AcDbText
 10
1232.834129815382
 20
433.2002006442017
 30
0.0
 40
6.205583999999999
  1
フローリング貼り
100
AcDbText
  0
LWPOLYLINE
  5
9966
330
1E
100
AcDbEntity
  8
文字-記号
  6
Continuous
 62
     7
100
AcDbPolyline
 90
        3
 70
     0
 43
0.0
 10
1228.030207795345
 20
375.8609152567248
 10
1251.429777622185
 20
416.3901590720687
 10
1296.472729548219
 20
416.3901590720687
  0
TEXT
  5
9967
330
1E
100
AcDbEntity
  8
文字-記号
  6
Continuous
 62
     7
100
AcDbText
 10
1259.816202144945
 20
418.2204403497575
 30
0.0
 40
6.205583999999999
  1
捨板貼り
100
AcDbText
  0
LWPOLYLINE
  5
A03C
330
1E
100
AcDbEntity
  8
躯体と製品
  6
Continuous
 62
     3
100
AcDbPolyline
 90
        2
 70
     0
 43
0.0
 10
1359.529330787507
 20
385.8608752567247
 10
1359.529330787507
 20
380.8609152567247
  0
LWPOLYLINE
  5
A03D
330
1E
100
AcDbEntity
  8
躯体と製品
  6
Continuous
 62
     3
100
AcDbPolyline
 90
        2
 70
     0
 43
0.0
 10
1359.529332787507
 20
385.8608752567247
 42
0.4142135623730951
 10
1358.529292787507
 20
386.8609152567247
  0
LWPOLYLINE
  5
A03E
330
1E
100
AcDbEntity
  8
躯体と製品
  6
Continuous
 62
     3
100
AcDbPolyline
 90
        2
 70
     0
 43
0.0
 10
1358.529292787507
 20
386.8609152567247
 10
1350.528976787507
 20
386.8609152567247
  0
LWPOLYLINE
  5
A03F
330
1E
100
AcDbEntity
  8
躯体と製品
  6
Continuous
 62
     3
100
AcDbPolyline
 90
        2
 70
     0
 43
0.0
 10
1359.529330787507
 20
393.8609532567245
 10
1359.529330787507
 20
398.8609152567247
  0
LWPOLYLINE
  5
A040
330
1E
100
AcDbEntity
  8
躯体と製品
  6
Continuous
 62
     3
100
AcDbPolyline
 90
        2
 70
     0
 43
0.0
 10
1358.529292787507
 20
392.8609132567245
 42
0.4142135623730951
 10
1359.529332787507
 20
393.8609532567245
  0
LWPOLYLINE
  5
A041
330
1E
100
AcDbEntity
  8
躯体と製品
  6
Continuous
 62
     3
100
AcDbPolyline
 90
        2
 70
     0
 43
0.0
 10
1358.529292787507
 20
392.8609152567247
 10
1350.528976787507
 20
392.8609152567247
  0
LWPOLYLINE
  5
A042
330
1E
100
AcDbEntity
  8
躯体と製品
  6
Continuous
 62
     3
100
AcDbPolyline
 90
        2
 70
     0
 43
0.0
 10
1350.528976787507
 20
392.8609152567247
 42
0.4142135623730951
 10
1349.528936787508
 20
391.8608752567248
  0
LWPOLYLINE
  5
A043
330
1E
100
AcDbEntity
  8
躯体と製品
  6
Continuous
 62
     3
100
AcDbPolyline
 90
        2
 70
     0
 43
0.0
 10
1349.528938787507
 20
391.8608752567248
 10
1349.528938787507
 20
387.8609552567247
  0
LWPOLYLINE
  5
A044
330
1E
100
AcDbEntity
  8
躯体と製品
  6
Continuous
 62
     3
100
AcDbPolyline
 90
        2
 70
     0
 43
0.0
 10
1349.528936787508
 20
387.8609552567247
 42
0.4142135623730951
 10
1350.528976787507
 20
386.8609152567247
  0
LWPOLYLINE
  5
A045
330
1E
100
AcDbEntity
  8
躯体と製品
  6
Continuous
 62
     3
100
AcDbPolyline
 90
        2
 70
     0
 43
0.0
 10
1089.529325787507
 20
385.8608752567247
 10
1089.529325787507
 20
380.8609152567247
  0
LWPOLYLINE
  5
A046
330
1E
100
AcDbEntity
  8
躯体と製品
  6
Continuous
 62
     3
100
AcDbPolyline
 90
        2
 70
     0
 43
0.0
 10
1089.529327787507
 20
385.8608752567247
 42
0.4142135623730951
 10
1088.529287787508
 20
386.8609152567247
  0
LWPOLYLINE
  5
A047
330
1E
100
AcDbEntity
  8
躯体と製品
  6
Continuous
 62
     3
100
AcDbPolyline
 90
        2
 70
     0
 43
0.0
 10
1088.529287787508
 20
386.8609152567247
 10
1080.528971787508
 20
386.8609152567247
  0
LWPOLYLINE
  5
A048
330
1E
100
AcDbEntity
  8
躯体と製品
  6
Continuous
 62
     3
100
AcDbPolyline
 90
        2
 70
     0
 43
0.0
 10
1089.529325787507
 20
393.8609532567245
 10
1089.529325787507
 20
398.8609152567247
  0
LWPOLYLINE
  5
A049
330
1E
100
AcDbEntity
  8
躯体と製品
  6
Continuous
 62
     3
100
AcDbPolyline
 90
        2
 70
     0
 43
0.0
 10
1088.529287787508
 20
392.8609132567245
 42
0.4142135623730951
 10
1089.529327787507
 20
393.8609532567245
  0
LWPOLYLINE
  5
A04A
330
1E
100
AcDbEntity
  8
躯体と製品
  6
Continuous
 62
     3
100
AcDbPolyline
 90
        2
 70
     0
 43
0.0
 10
1088.529287787508
 20
392.8609152567247
 10
1080.528971787508
 20
392.8609152567247
  0
LWPOLYLINE
  5
A04B
330
1E
100
AcDbEntity
  8
躯体と製品
  6
Continuous
 62
     3
100
AcDbPolyline
 90
        2
 70
     0
 43
0.0
 10
1080.528971787508
 20
392.8609152567247
 42
0.4142135623730951
 10
1079.528931787508
 20
391.8608752567248
  0
LWPOLYLINE
  5
A04C
330
1E
100
AcDbEntity
  8
躯体と製品
  6
Continuous
 62
     3
100
AcDbPolyline
 90
        2
 70
     0
 43
0.0
 10
1079.528933787507
 20
391.8608752567248
 10
1079.528933787507
 20
387.8609552567247
  0
LWPOLYLINE
  5
A04D
330
1E
100
AcDbEntity
  8
躯体と製品
  6
Continuous
 62
     3
100
AcDbPolyline
 90
        2
 70
     0
 43
0.0
 10
1079.528931787508
 20
387.8609552567247
 42
0.4142135623730951
 10
1080.528971787508
 20
386.8609152567247
  0
LWPOLYLINE
  5
A04E
330
1E
100
AcDbEntity
  8
躯体と製品
  6
Continuous
 62
     3
100
AcDbPolyline
 90
        2
 70
     0
 43
0.0
 10
1179.529325787507
 20
385.8608752567247
 10
1179.529325787507
 20
380.8609152567247
  0
LWPOLYLINE
  5
A04F
330
1E
100
AcDbEntity
  8
躯体と製品
  6
Continuous
 62
     3
100
AcDbPolyline
 90
        2
 70
     0
 43
0.0
 10
1179.529327787508
 20
385.8608752567247
 42
0.4142135623730951
 10
1178.529287787508
 20
386.8609152567247
  0
LWPOLYLINE
  5
A050
330
1E
100
AcDbEntity
  8
躯体と製品
  6
Continuous
 62
     3
100
AcDbPolyline
 90
        2
 70
     0
 43
0.0
 10
1178.529287787508
 20
386.8609152567247
 10
1170.528971787508
 20
386.8609152567247
  0
LWPOLYLINE
  5
A051
330
1E
100
AcDbEntity
  8
躯体と製品
  6
Continuous
 62
     3
100
AcDbPolyline
 90
        2
 70
     0
 43
0.0
 10
1179.529325787507
 20
393.8609532567245
 10
1179.529325787507
 20
398.8609152567247
  0
LWPOLYLINE
  5
A052
330
1E
100
AcDbEntity
  8
躯体と製品
  6
Continuous
 62
     3
100
AcDbPolyline
 90
        2
 70
     0
 43
0.0
 10
1178.529287787508
 20
392.8609132567245
 42
0.4142135623730951
 10
1179.529327787508
 20
393.8609532567245
  0
LWPOLYLINE
  5
A053
330
1E
100
AcDbEntity
  8
躯体と製品
  6
Continuous
 62
     3
100
AcDbPolyline
 90
        2
 70
     0
 43
0.0
 10
1178.529287787508
 20
392.8609152567247
 10
1170.528971787508
 20
392.8609152567247
  0
LWPOLYLINE
  5
A054
330
1E
100
AcDbEntity
  8
躯体と製品
  6
Continuous
 62
     3
100
AcDbPolyline
 90
        2
 70
     0
 43
0.0
 10
1170.528971787508
 20
392.8609152567247
 42
0.4142135623730951
 10
1169.528931787508
 20
391.8608752567248
  0
LWPOLYLINE
  5
A055
330
1E
100
AcDbEntity
  8
躯体と製品
  6
Continuous
 62
     3
100
AcDbPolyline
 90
        2
 70
     0
 43
0.0
 10
1169.528933787507
 20
391.8608752567248
 10
1169.528933787507
 20
387.8609552567247
  0
LWPOLYLINE
  5
A056
330
1E
100
AcDbEntity
  8
躯体と製品
  6
Continuous
 62
     3
100
AcDbPolyline
 90
        2
 70
     0
 43
0.0
 10
1169.528931787508
 20
387.8609552567247
 42
0.4142135623730951
 10
1170.528971787508
 20
386.8609152567247
  0
LWPOLYLINE
  5
A057
330
1E
100
AcDbEntity
  8
躯体と製品
  6
Continuous
 62
     3
100
AcDbPolyline
 90
        2
 70
     0
 43
0.0
 10
1269.529330787507
 20
385.8608752567247
 10
1269.529330787507
 20
380.8609152567247
  0
LWPOLYLINE
  5
A058
330
1E
100
AcDbEntity
  8
躯体と製品
  6
Continuous
 62
     3
100
AcDbPolyline
 90
        2
 70
     0
 43
0.0
 10
1269.529332787507
 20
385.8608752567247
 42
0.4142135623730951
 10
1268.529292787507
 20
386.8609152567247
  0
LWPOLYLINE
  5
A059
330
1E
100
AcDbEntity
  8
躯体と製品
  6
Continuous
 62
     3
100
AcDbPolyline
 90
        2
 70
     0
 43
0.0
 10
1268.529292787507
 20
386.8609152567247
 10
1260.528976787507
 20
386.8609152567247
  0
LWPOLYLINE
  5
A05A
330
1E
100
AcDbEntity
  8
躯体と製品
  6
Continuous
 62
     3
100
AcDbPolyline
 90
        2
 70
     0
 43
0.0
 10
1269.529330787507
 20
393.8609532567245
 10
1269.529330787507
 20
398.8609152567247
  0
LWPOLYLINE
  5
A05B
330
1E
100
AcDbEntity
  8
躯体と製品
  6
Continuous
 62
     3
100
AcDbPolyline
 90
        2
 70
     0
 43
0.0
 10
1268.529292787507
 20
392.8609132567245
 42
0.4142135623730951
 10
1269.529332787507
 20
393.8609532567245
  0
LWPOLYLINE
  5
A05C
330
1E
100
AcDbEntity
  8
躯体と製品
  6
Continuous
 62
     3
100
AcDbPolyline
 90
        2
 70
     0
 43
0.0
 10
1268.529292787507
 20
392.8609152567247
 10
1260.528976787507
 20
392.8609152567247
  0
LWPOLYLINE
  5
A05D
330
1E
100
AcDbEntity
  8
躯体と製品
  6
Continuous
 62
     3
100
AcDbPolyline
 90
        2
 70
     0
 43
0.0
 10
1260.528976787507
 20
392.8609152567247
 42
0.4142135623730951
 10
1259.528936787507
 20
391.8608752567248
  0
LWPOLYLINE
  5
A05E
330
1E
100
AcDbEntity
  8
躯体と製品
  6
Continuous
 62
     3
100
AcDbPolyline
 90
        2
 70
     0
 43
0.0
 10
1259.528938787507
 20
391.8608752567248
 10
1259.528938787507
 20
387.8609552567247
  0
LWPOLYLINE
  5
A05F
330
1E
100
AcDbEntity
  8
躯体と製品
  6
Continuous
 62
     3
100
AcDbPolyline
 90
        2
 70
     0
 43
0.0
 10
1259.528936787507
 20
387.8609552567247
 42
0.4142135623730951
 10
1260.528976787507
 20
386.8609152567247
  0
LWPOLYLINE
  5
A09E
330
1E
100
AcDbEntity
  8
躯体と製品
  6
Continuous
 62
     4
100
AcDbPolyline
 90
        2
 70
     0
 43
0.0
 10
1230.529330787507
 20
302.8608872567251
 10
1229.529330787507
 20
303.8608872567248
  0
LWPOLYLINE
  5
A09F
330
1E
100
AcDbEntity
  8
躯体と製品
  6
Continuous
 62
     4
100
AcDbPolyline
 90
        2
 70
     0
 43
0.0
 10
1218.529330787507
 20
302.8608872567251
 10
1219.529330787507
 20
303.8608872567248
  0
LWPOLYLINE
  5
A0A0
330
1E
100
AcDbEntity
  8
躯体と製品
  6
Continuous
 62
     3
100
AcDbPolyline
 90
        2
 70
     0
 43
0.0
 10
1218.529330787507
 20
302.8608872567251
 10
1230.529330787507
 20
302.8608872567248
  0
LWPOLYLINE
  5
A0A1
330
1E
100
AcDbEntity
  8
躯体と製品
  6
Continuous
 62
     4
100
AcDbPolyline
 90
        2
 70
     0
 43
0.0
 10
1219.529330787507
 20
303.8608872567248
 10
1229.529330787507
 20
303.8608872567248
  0
LWPOLYLINE
  5
A0A2
330
1E
100
AcDbEntity
  8
躯体と製品
  6
Continuous
 62
     4
100
AcDbPolyline
 90
        2
 70
     0
 43
0.0
 10
1230.529330787507
 20
284.8609152567247
 10
1230.529330787507
 20
302.8608872567248
  0
LWPOLYLINE
  5
A0A3
330
1E
100
AcDbEntity
  8
躯体と製品
  6
Continuous
 62
     4
100
AcDbPolyline
 90
        2
 70
     0
 43
0.0
 10
1218.529330787507
 20
284.8609152567247
 10
1218.529330787507
 20
302.8608872567253
  0
LWPOLYLINE
  5
A0A4
330
1E
100
AcDbEntity
  8
躯体と製品
  6
Continuous
 62
     3
100
AcDbPolyline
 90
        2
 70
     0
 43
0.0
 10
1229.529330787507
 20
284.8609152567247
 10
1229.529330787507
 20
303.8608872567248
  0
LWPOLYLINE
  5
A0A5
330
1E
100
AcDbEntity
  8
躯体と製品
  6
Continuous
 62
     3
100
AcDbPolyline
 90
        2
 70
     0
 43
0.0
 10
1219.529330787507
 20
284.8609152567247
 10
1219.529330787507
 20
303.8608872567248
  0
LWPOLYLINE
  5
A0A6
330
1E
100
AcDbEntity
  8
躯体と製品
  6
Continuous
 62
     4
100
AcDbPolyline
 90
        2
 70
     0
 43
0.0
 10
1230.529330787507
 20
204.8608872567246
 10
1229.529330787507
 20
203.8608872567248
  0
LWPOLYLINE
  5
A0A7
330
1E
100
AcDbEntity
  8
躯体と製品
  6
Continuous
 62
     4
100
AcDbPolyline
 90
        2
 70
     0
 43
0.0
 10
1218.529330787507
 20
204.8608872567246
 10
1219.529330787507
 20
203.8608872567248
  0
LWPOLYLINE
  5
A0A8
330
1E
100
AcDbEntity
  8
躯体と製品
  6
Continuous
 62
     3
100
AcDbPolyline
 90
        2
 70
     0
 43
0.0
 10
1218.529330787507
 20
204.8608872567246
 10
1230.529330787507
 20
204.8608872567249
  0
LWPOLYLINE
  5
A0A9
330
1E
100
AcDbEntity
  8
躯体と製品
  6
Continuous
 62
     4
100
AcDbPolyline
 90
        2
 70
     0
 43
0.0
 10
1198.529330787507
 20
236.1608903084826
 10
1198.529330787507
 20
233.8608872567248
  0
LWPOLYLINE
  5
A0AA
330
1E
100
AcDbEntity
  8
躯体と製品
  6
Continuous
 62
     4
100
AcDbPolyline
 90
        2
 70
     0
 43
0.0
 10
1250.529330072251
 20
236.1608903084826
 10
1250.529330072251
 20
233.8608872567248
  0
LWPOLYLINE
  5
A0AB
330
1E
100
AcDbEntity
  8
躯体と製品
  6
Continuous
 62
     4
100
AcDbPolyline
 90
        2
 70
     0
 43
0.0
 10
1198.529330787507
 20
236.1608903084826
 10
1250.529330072251
 20
236.1608903084826
  0
LWPOLYLINE
  5
A0AC
330
1E
100
AcDbEntity
  8
躯体と製品
  6
Continuous
 62
     3
100
AcDbPolyline
 90
        2
 70
     0
 43
0.0
 10
1219.529330787507
 20
254.8609122049669
 10
1219.529330787507
 20
236.1608903084826
  0
LWPOLYLINE
  5
A0AD
330
1E
100
AcDbEntity
  8
躯体と製品
  6
Continuous
 62
     3
100
AcDbPolyline
 90
        2
 70
     0
 43
0.0
 10
1229.529330787507
 20
254.8609122049668
 10
1229.529330787507
 20
236.1608903084826
  0
LWPOLYLINE
  5
A0AE
330
1E
100
AcDbEntity
  8
躯体と製品
  6
Continuous
 62
     4
100
AcDbPolyline
 90
        2
 70
     0
 43
0.0
 10
1218.529330787507
 20
254.8609122049669
 10
1218.529330787507
 20
236.1608903084826
  0
LWPOLYLINE
  5
A0AF
330
1E
100
AcDbEntity
  8
躯体と製品
  6
Continuous
 62
     4
100
AcDbPolyline
 90
        2
 70
     0
 43
0.0
 10
1230.529330787507
 20
254.8609122049668
 10
1230.529330787507
 20
236.1608903084826
  0
LWPOLYLINE
  5
A0B0
330
1E
100
AcDbEntity
  8
躯体と製品
  6
Continuous
 62
     4
100
AcDbPolyline
 90
        2
 70
     0
 43
0.0
 10
1219.529330787507
 20
203.8608872567248
 10
1229.529330787507
 20
203.8608872567248
  0
LWPOLYLINE
  5
A0B1
330
1E
100
AcDbEntity
  8
躯体と製品
  6
Continuous
 62
     4
100
AcDbPolyline
 90
        2
 70
     0
 43
0.0
 10
1230.529330787507
 20
233.8608872567248
 10
1230.529330787507
 20
204.8608872567249
  0
LWPOLYLINE
  5
A0B2
330
1E
100
AcDbEntity
  8
躯体と製品
  6
Continuous
 62
     4
100
AcDbPolyline
 90
        2
 70
     0
 43
0.0
 10
1218.529330787507
 20
233.8608872567248
 10
1218.529330787507
 20
204.8608872567245
  0
LWPOLYLINE
  5
A0B3
330
1E
100
AcDbEntity
  8
躯体と製品
  6
Continuous
 62
     3
100
AcDbPolyline
 90
        2
 70
     0
 43
0.0
 10
1229.529330787507
 20
233.8608872567248
 10
1229.529330787507
 20
203.8608872567248
  0
LWPOLYLINE
  5
A0B4
330
1E
100
AcDbEntity
  8
躯体と製品
  6
Continuous
 62
     3
100
AcDbPolyline
 90
        2
 70
     0
 43
0.0
 10
1219.529330787507
 20
233.8608872567248
 10
1219.529330787507
 20
203.8608872567248
  0
LWPOLYLINE
  5
A0B5
330
1E
100
AcDbEntity
  8
躯体と製品
  6
Continuous
 62
     4
100
AcDbPolyline
 90
        2
 70
     0
 43
0.0
 10
1234.279478787507
 20
198.8606892567248
 10
1214.779182787507
 20
198.8606892567248
  0
LWPOLYLINE
  5
A0B6
330
1E
100
AcDbEntity
  8
躯体と製品
  6
Continuous
 62
     4
100
AcDbPolyline
 90
        2
 70
     0
 43
0.0
 10
1234.279478787507
 20
233.8608872567248
 10
1234.279478787507
 20
198.8606892567248
  0
LWPOLYLINE
  5
A0B7
330
1E
100
AcDbEntity
  8
躯体と製品
  6
Continuous
 62
     4
100
AcDbPolyline
 90
        2
 70
     0
 43
0.0
 10
1214.779182787507
 20
233.8608872567248
 10
1214.779182787507
 20
198.8606892567248
  0
LWPOLYLINE
  5
A0B8
330
1E
100
AcDbEntity
  8
躯体と製品
  6
Continuous
 62
     4
100
AcDbPolyline
 90
        2
 70
     0
 43
0.0
 10
1609.625692787507
 20
204.8609152567245
 10
1608.625692787507
 20
203.8609152567247
  0
LWPOLYLINE
  5
A0B9
330
1E
100
AcDbEntity
  8
躯体と製品
  6
Continuous
 62
     4
100
AcDbPolyline
 90
        2
 70
     0
 43
0.0
 10
1597.625692787507
 20
204.8609152567245
 10
1598.625692787507
 20
203.8609152567247
  0
LWPOLYLINE
  5
A0BA
330
1E
100
AcDbEntity
  8
躯体と製品
  6
Continuous
 62
     3
100
AcDbPolyline
 90
        2
 70
     0
 43
0.0
 10
1597.625692787508
 20
204.8609152567245
 10
1609.625692787507
 20
204.8609152567248
  0
LWPOLYLINE
  5
A0BB
330
1E
100
AcDbEntity
  8
躯体と製品
  6
Continuous
 62
     4
100
AcDbPolyline
 90
        2
 70
     0
 43
0.0
 10
1577.625692787507
 20
236.1609183084826
 10
1577.625692787507
 20
233.8609152567248
  0
LWPOLYLINE
  5
A0BC
330
1E
100
AcDbEntity
  8
躯体と製品
  6
Continuous
 62
     4
100
AcDbPolyline
 90
        2
 70
     0
 43
0.0
 10
1629.625692072252
 20
236.1609183084826
 10
1629.625692072252
 20
233.8609152567248
  0
LWPOLYLINE
  5
A0BD
330
1E
100
AcDbEntity
  8
躯体と製品
  6
Continuous
 62
     4
100
AcDbPolyline
 90
        2
 70
     0
 43
0.0
 10
1577.625692787507
 20
236.1609183084826
 10
1629.625692072252
 20
236.1609183084826
  0
LWPOLYLINE
  5
A0BE
330
1E
100
AcDbEntity
  8
躯体と製品
  6
Continuous
 62
     4
100
AcDbPolyline
 90
        2
 70
     0
 43
0.0
 10
1583.625692787507
 20
266.6608872567248
 10
1583.625692787507
 20
264.3608842049669
  0
LWPOLYLINE
  5
A0BF
330
1E
100
AcDbEntity
  8
躯体と製品
  6
Continuous
 62
     4
100
AcDbPolyline
 90
        2
 70
     0
 43
0.0
 10
1623.625691833833
 20
266.6608872567248
 10
1623.625691833833
 20
264.3608842049669
  0
LWPOLYLINE
  5
A0C0
330
1E
100
AcDbEntity
  8
躯体と製品
  6
Continuous
 62
     4
100
AcDbPolyline
 90
        2
 70
     0
 43
0.0
 10
1583.625692787507
 20
264.3608842049669
 10
1623.625691833833
 20
264.3608842049669
  0
LWPOLYLINE
  5
A0C1
330
1E
100
AcDbEntity
  8
躯体と製品
  6
Continuous
 62
     4
100
AcDbPolyline
 90
        2
 70
     0
 43
0.0
 10
1593.175322609315
 20
264.3608842049669
 10
1593.175322609315
 20
261.360884204967
  0
LWPOLYLINE
  5
A0C2
330
1E
100
AcDbEntity
  8
躯体と製品
  6
Continuous
 62
     4
100
AcDbPolyline
 90
        2
 70
     0
 43
0.0
 10
1614.176076965699
 20
264.3608842049669
 10
1614.176076965699
 20
261.360884204967
  0
LWPOLYLINE
  5
A0C3
330
1E
100
AcDbEntity
  8
躯体と製品
  6
Continuous
 62
     4
100
AcDbPolyline
 90
        2
 70
     0
 43
0.0
 10
1593.175322609315
 20
261.360884204967
 10
1614.176076965699
 20
261.360884204967
  0
LWPOLYLINE
  5
A0C4
330
1E
100
AcDbEntity
  8
躯体と製品
  6
Continuous
 62
     4
100
AcDbPolyline
 90
        2
 70
     0
 43
0.0
 10
1603.625692787507
 20
255.8608842049689
 42
0.2223165980162891
 10
1612.621872190439
 20
255.8608842049689
  0
LWPOLYLINE
  5
A0C5
330
1E
100
AcDbEntity
  8
躯体と製品
  6
Continuous
 62
     4
100
AcDbPolyline
 90
        2
 70
     0
 43
0.0
 10
1594.629513384576
 20
255.8608842049688
 42
0.2223165980162723
 10
1603.625692787507
 20
255.8608842049686
  0
LWPOLYLINE
  5
A0C6
330
1E
100
AcDbEntity
  8
躯体と製品
  6
Continuous
 62
     4
100
AcDbPolyline
 90
        2
 70
     0
 43
0.0
 10
1229.723277387467
 20
255.8609122049672
 42
0.3850636431294285
 10
1234.917223987428
 20
255.8609122049672
  0
LWPOLYLINE
  5
A0C7
330
1E
100
AcDbEntity
  8
躯体と製品
  6
Continuous
 62
     4
100
AcDbPolyline
 90
        2
 70
     0
 43
0.0
 10
1214.141437587586
 20
255.8609122049669
 42
0.3850636431293622
 10
1219.335384187547
 20
255.8609122049669
  0
LWPOLYLINE
  5
A0C8
330
1E
100
AcDbEntity
  8
躯体と製品
  6
Continuous
 62
     4
100
AcDbPolyline
 90
        2
 70
     0
 43
0.0
 10
1219.335384187547
 20
255.8609122049669
 42
0.1925318215646717
 10
1229.723277387467
 20
255.8609122049669
  0
LWPOLYLINE
  5
A0C9
330
1E
100
AcDbEntity
  8
躯体と製品
  6
Continuous
 62
     4
100
AcDbPolyline
 90
        2
 70
     0
 43
0.0
 10
1216.738410887567
 20
254.860912204967
 10
1232.320250687447
 20
254.8609122049669
  0
LWPOLYLINE
  5
A0CA
330
1E
100
AcDbEntity
  8
躯体と製品
  6
Continuous
 62
     4
100
AcDbPolyline
 90
        2
 70
     0
 43
0.0
 10
1204.529331264344
 20
266.6609152567247
 10
1204.529331264344
 20
264.3609122049669
  0
LWPOLYLINE
  5
A0CB
330
1E
100
AcDbEntity
  8
躯体と製品
  6
Continuous
 62
     4
100
AcDbPolyline
 90
        2
 70
     0
 43
0.0
 10
1244.52933031067
 20
266.6609152567247
 10
1244.52933031067
 20
264.3609122049669
  0
LWPOLYLINE
  5
A0CC
330
1E
100
AcDbEntity
  8
躯体と製品
  6
Continuous
 62
     4
100
AcDbPolyline
 90
        2
 70
     0
 43
0.0
 10
1204.529331264344
 20
264.3609122049669
 10
1244.52933031067
 20
264.3609122049669
  0
LWPOLYLINE
  5
A0CD
330
1E
100
AcDbEntity
  8
躯体と製品
  6
Continuous
 62
     4
100
AcDbPolyline
 90
        2
 70
     0
 43
0.0
 10
1214.028953609315
 20
264.3609122049669
 10
1214.028953609315
 20
261.3609122049669
  0
LWPOLYLINE
  5
A0CE
330
1E
100
AcDbEntity
  8
躯体と製品
  6
Continuous
 62
     4
100
AcDbPolyline
 90
        2
 70
     0
 43
0.0
 10
1235.029707965699
 20
264.3609122049669
 10
1235.029707965699
 20
261.3609122049669
  0
LWPOLYLINE
  5
A0CF
330
1E
100
AcDbEntity
  8
躯体と製品
  6
Continuous
 62
     4
100
AcDbPolyline
 90
        2
 70
     0
 43
0.0
 10
1214.028953609315
 20
261.3609122049669
 10
1235.029707965699
 20
261.3609122049669
  0
LWPOLYLINE
  5
A0D0
330
1E
100
AcDbEntity
  8
躯体と製品
  6
Continuous
 62
     4
100
AcDbPolyline
 90
        2
 70
     0
 43
0.0
 10
1225.513619956819
 20
264.3609045755725
 10
1224.709769782868
 20
261.3608893167836
  0
LWPOLYLINE
  5
A0D1
330
1E
100
AcDbEntity
  8
躯体と製品
  6
Continuous
 62
     4
100
AcDbPolyline
 90
        2
 70
     0
 43
0.0
 10
1224.348891792146
 20
264.3609198343613
 10
1223.545041618195
 20
261.3609045755725
  0
LWPOLYLINE
  5
A0D2
330
1E
100
AcDbEntity
  8
躯体と製品
  6
Continuous
 62
     3
100
AcDbPolyline
 90
        2
 70
     0
 43
0.0
 10
1705.031538787507
 20
233.8609152567248
 10
1680.239748787507
 20
209.0691252567248
  0
LWPOLYLINE
  5
A0D3
330
1E
100
AcDbEntity
  8
躯体と製品
  6
Continuous
 62
     3
100
AcDbPolyline
 90
        2
 70
     0
 43
0.0
 10
1676.743404787507
 20
233.8609152567248
 10
1651.951614787507
 20
209.0691252567248
  0
LWPOLYLINE
  5
A0D4
330
1E
100
AcDbEntity
  8
躯体と製品
  6
Continuous
 62
     3
100
AcDbPolyline
 90
        2
 70
     0
 43
0.0
 10
1690.887470787507
 20
233.8609152567248
 10
1666.095680787507
 20
209.0691252567248
  0
LWPOLYLINE
  5
A0D5
330
1E
100
AcDbEntity
  8
躯体と製品
  6
Continuous
 62
     3
100
AcDbPolyline
 90
        2
 70
     0
 43
0.0
 10
1731.525930787508
 20
370.8609152567246
 10
1397.528120787507
 20
370.8609152567246
  0
LWPOLYLINE
  5
A0D6
330
1E
100
AcDbEntity
  8
躯体と製品
  6
Continuous
 62
     3
100
AcDbPolyline
 90
        2
 70
     0
 43
0.0
 10
1731.525930787508
 20
375.8609152567246
 10
1397.528120787507
 20
375.8609152567246
  0
LWPOLYLINE
  5
A0D7
330
1E
100
AcDbEntity
  8
躯体と製品
  6
Continuous
 62
     4
100
AcDbPolyline
 90
        2
 70
     0
 43
0.0
 10
1731.525930787508
 20
380.8609152567246
 10
1397.528120787507
 20
380.8609152567246
  0
LWPOLYLINE
  5
A0D8
330
1E
100
AcDbEntity
  8
躯体と製品
  6
Continuous
 62
     4
100
AcDbPolyline
 90
        2
 70
     0
 43
0.0
 10
1731.525930787508
 20
398.8609152567247
 10
1397.528120787507
 20
398.8609152567247
  0
LWPOLYLINE
  5
A0D9
330
1E
100
AcDbEntity
  8
躯体と製品
  6
Continuous
 62
     4
100
AcDbPolyline
 90
        2
 70
     0
 43
0.0
 10
1731.525930787508
 20
365.8609152567247
 10
1397.528120787507
 20
365.8609152567247
  0
LWPOLYLINE
  5
A0DA
330
1E
100
AcDbEntity
  8
躯体と製品
  6
Continuous
 62
     4
100
AcDbPolyline
 90
        2
 70
     0
 43
0.0
 10
1731.525927951029
 20
334.8609152567247
 10
1628.625692787507
 20
334.8609152567247
  0
LWPOLYLINE
  5
A0DB
330
1E
100
AcDbEntity
  8
躯体と製品
  6
PLINE2
 62
     3
100
AcDbPolyline
 90
        2
 70
     0
 43
0.0
 10
1731.525930787508
 20
333.2609152567246
 10
1628.625796787507
 20
333.2609152567246
  0
LWPOLYLINE
  5
A0DC
330
1E
100
AcDbEntity
  8
躯体と製品
  6
Continuous
 62
     4
100
AcDbPolyline
 90
        2
 70
     0
 43
0.0
 10
1731.525930787508
 20
284.8609152567247
 10
1628.625692787507
 20
284.8609152567247
  0
LWPOLYLINE
  5
A0DD
330
1E
100
AcDbEntity
  8
躯体と製品
  6
PLINE2
 62
     3
100
AcDbPolyline
 90
        2
 70
     0
 43
0.0
 10
1731.525930787508
 20
286.4609152567247
 10
1628.625796787507
 20
286.4609152567247
  0
LWPOLYLINE
  5
A0DE
330
1E
100
AcDbEntity
  8
躯体と製品
  6
Continuous
 62
     3
100
AcDbPolyline
 90
        2
 70
     0
 43
0.0
 10
1598.625692787507
 20
254.8727552129578
 10
1598.625692787507
 20
236.1609183084826
  0
LWPOLYLINE
  5
A0DF
330
1E
100
AcDbEntity
  8
躯体と製品
  6
Continuous
 62
     3
100
AcDbPolyline
 90
        2
 70
     0
 43
0.0
 10
1608.625692787507
 20
254.8727552129578
 10
1608.625692787507
 20
236.1609183084826
  0
LWPOLYLINE
  5
A0E0
330
1E
100
AcDbEntity
  8
躯体と製品
  6
Continuous
 62
     4
100
AcDbPolyline
 90
        2
 70
     0
 43
0.0
 10
1597.625692787507
 20
254.9676593027324
 10
1597.625692787507
 20
236.1609183084826
  0
LWPOLYLINE
  5
A0E1
330
1E
100
AcDbEntity
  8
躯体と製品
  6
Continuous
 62
     4
100
AcDbPolyline
 90
        2
 70
     0
 43
0.0
 10
1609.625692787507
 20
254.9676593027324
 10
1609.625692787507
 20
236.1609183084826
  0
LWPOLYLINE
  5
A0E2
330
1E
100
AcDbEntity
  8
躯体と製品
  6
Continuous
 62
     4
100
AcDbPolyline
 90
        2
 70
     0
 43
0.0
 10
1397.528141943536
 20
334.8609152567247
 10
1578.625692787507
 20
334.8609152567247
  0
LWPOLYLINE
  5
A0E3
330
1E
100
AcDbEntity
  8
躯体と製品
  6
PLINE2
 62
     3
100
AcDbPolyline
 90
        2
 70
     0
 43
0.0
 10
1397.528224787507
 20
333.2609152567246
 10
1578.625692787507
 20
333.2609152567246
  0
LWPOLYLINE
  5
A0E4
330
1E
100
AcDbEntity
  8
躯体と製品
  6
Continuous
 62
     4
100
AcDbPolyline
 90
        2
 70
     0
 43
0.0
 10
1397.528120787507
 20
284.8609152567247
 10
1578.625588787508
 20
284.8609152567247
  0
LWPOLYLINE
  5
A0E5
330
1E
100
AcDbEntity
  8
躯体と製品
  6
PLINE2
 62
     3
100
AcDbPolyline
 90
        2
 70
     0
 43
0.0
 10
1397.528120787507
 20
286.4609152567247
 10
1578.625588787508
 20
286.4609152567247
  0
LWPOLYLINE
  5
A0E6
330
1E
100
AcDbEntity
  8
躯体と製品
  6
Continuous
 62
     3
100
AcDbPolyline
 90
        2
 70
     0
 43
0.0
 10
1191.329330787507
 20
339.8609152567248
 10
1074.523418787507
 20
339.8609152567248
  0
LWPOLYLINE
  5
A0E7
330
1E
100
AcDbEntity
  8
躯体と製品
  6
Continuous
 62
     4
100
AcDbPolyline
 90
        2
 70
     0
 43
0.0
 10
1191.329330787507
 20
336.8609152567247
 10
1074.523418787507
 20
336.8609152567247
  0
LWPOLYLINE
  5
A0E8
330
1E
100
AcDbEntity
  8
躯体と製品
  6
Continuous
 62
     4
100
AcDbPolyline
 90
        2
 70
     0
 43
0.0
 10
1074.523418787507
 20
365.8609152567247
 10
1374.535232787507
 20
365.8609152567247
  0
LWPOLYLINE
  5
A0E9
330
1E
100
AcDbEntity
  8
躯体と製品
  6
Continuous
 62
     4
100
AcDbPolyline
 90
        2
 70
     0
 43
0.0
 10
1074.523418787507
 20
398.8609152567247
 10
1374.535232787507
 20
398.8609152567247
  0
LWPOLYLINE
  5
A0EA
330
1E
100
AcDbEntity
  8
躯体と製品
  6
Continuous
 62
     3
100
AcDbPolyline
 90
        2
 70
     0
 43
0.0
 10
1074.523418787507
 20
375.8609152567246
 10
1374.535232787507
 20
375.8609152567246
  0
LWPOLYLINE
  5
A0EB
330
1E
100
AcDbEntity
  8
躯体と製品
  6
Continuous
 62
     3
100
AcDbPolyline
 90
        2
 70
     0
 43
0.0
 10
1074.523418787507
 20
370.8609152567246
 10
1374.535232787507
 20
370.8609152567246
  0
LWPOLYLINE
  5
A0EC
330
1E
100
AcDbEntity
  8
躯体と製品
  6
Continuous
 62
     4
100
AcDbPolyline
 90
        2
 70
     0
 43
0.0
 10
1074.523418787507
 20
380.8609152567247
 10
1374.535232787507
 20
380.8609152567247
  0
LWPOLYLINE
  5
A0ED
330
1E
100
AcDbEntity
  8
躯体と製品
  6
Continuous
 62
     3
100
AcDbPolyline
 90
        2
 70
     0
 43
0.0
 10
1259.229530787506
 20
339.8610472567248
 10
1374.535232787507
 20
339.8610472567248
  0
LWPOLYLINE
  5
A0EE
330
1E
100
AcDbEntity
  8
躯体と製品
  6
Continuous
 62
     4
100
AcDbPolyline
 90
        2
 70
     0
 43
0.0
 10
1257.729330787507
 20
336.8609152567247
 10
1374.535232787507
 20
336.8609152567247
  0
LWPOLYLINE
  5
A0EF
330
1E
100
AcDbEntity
  8
躯体と製品
  6
Continuous
 62
     4
100
AcDbPolyline
 90
        2
 70
     0
 43
0.0
 10
1598.625692787507
 20
203.8609152567247
 10
1608.625692787508
 20
203.8609152567247
  0
LWPOLYLINE
  5
A0F0
330
1E
100
AcDbEntity
  8
躯体と製品
  6
Continuous
 62
     4
100
AcDbPolyline
 90
        2
 70
     0
 43
0.0
 10
1609.625692787507
 20
233.8609152567248
 10
1609.625692787507
 20
204.8609152567248
  0
LWPOLYLINE
  5
A0F1
330
1E
100
AcDbEntity
  8
躯体と製品
  6
Continuous
 62
     4
100
AcDbPolyline
 90
        2
 70
     0
 43
0.0
 10
1597.625692787507
 20
233.8609152567248
 10
1597.625692787508
 20
204.8609152567244
  0
LWPOLYLINE
  5
A0F2
330
1E
100
AcDbEntity
  8
躯体と製品
  6
Continuous
 62
     3
100
AcDbPolyline
 90
        2
 70
     0
 43
0.0
 10
1608.625692787507
 20
233.8609152567248
 10
1608.625692787507
 20
203.8609152567247
  0
LWPOLYLINE
  5
A0F3
330
1E
100
AcDbEntity
  8
躯体と製品
  6
Continuous
 62
     3
100
AcDbPolyline
 90
        2
 70
     0
 43
0.0
 10
1598.625692787507
 20
233.8609152567248
 10
1598.625692787507
 20
203.8609152567247
  0
LWPOLYLINE
  5
A0F4
330
1E
100
AcDbEntity
  8
躯体と製品
  6
Continuous
 62
     4
100
AcDbPolyline
 90
        2
 70
     0
 43
0.0
 10
1613.375840787507
 20
198.8607172567248
 10
1593.875544787507
 20
198.8607172567248
  0
LWPOLYLINE
  5
A0F5
330
1E
100
AcDbEntity
  8
躯体と製品
  6
Continuous
 62
     4
100
AcDbPolyline
 90
        2
 70
     0
 43
0.0
 10
1613.375840787507
 20
233.8609152567248
 10
1613.375840787507
 20
198.8607172567248
  0
LWPOLYLINE
  5
A0F6
330
1E
100
AcDbEntity
  8
躯体と製品
  6
Continuous
 62
     4
100
AcDbPolyline
 90
        2
 70
     0
 43
0.0
 10
1593.875544787507
 20
233.8609152567248
 10
1593.875544787507
 20
198.8607172567248
  0
LWPOLYLINE
  5
A0F7
330
1E
100
AcDbEntity
  8
躯体と製品
  6
Continuous
 62
     3
100
AcDbPolyline
 90
        2
 70
     0
 43
0.0
 10
1453.875874787507
 20
233.8609152567248
 10
1429.084084787507
 20
209.0691252567248
  0
LWPOLYLINE
  5
A0F8
330
1E
100
AcDbEntity
  8
躯体と製品
  6
Continuous
 62
     3
100
AcDbPolyline
 90
        2
 70
     0
 43
0.0
 10
1482.164008787507
 20
233.8609152567248
 10
1457.372218787507
 20
209.0691252567248
  0
LWPOLYLINE
  5
A0F9
330
1E
100
AcDbEntity
  8
躯体と製品
  6
Continuous
 62
     3
100
AcDbPolyline
 90
        2
 70
     0
 43
0.0
 10
1468.019942787507
 20
233.8609152567248
 10
1443.228150787507
 20
209.0691252567248
  0
LWPOLYLINE
  5
A0FA
330
1E
100
AcDbEntity
  8
躯体と製品
  6
Continuous
 62
     4
100
AcDbPolyline
 90
        2
 70
     0
 43
0.0
 10
1074.523418787507
 20
233.8609152567248
 10
1374.535232787507
 20
233.8609152567248
  0
LWPOLYLINE
  5
A0FB
330
1E
100
AcDbEntity
  8
躯体と製品
  6
Continuous
 62
     4
100
AcDbPolyline
 90
        2
 70
     0
 43
0.0
 10
1731.525930787508
 20
233.8609152567248
 10
1397.528120787507
 20
233.8609152567248
  0
LWPOLYLINE
  5
A0FC
330
1E
100
AcDbEntity
  8
躯体と製品
  6
Continuous
 62
     3
100
AcDbPolyline
 90
        2
 70
     0
 43
0.0
 10
1313.034794787507
 20
233.8609152567248
 10
1288.243004787507
 20
209.0691252567248
  0
LWPOLYLINE
  5
A0FD
330
1E
100
AcDbEntity
  8
躯体と製品
  6
Continuous
 62
     3
100
AcDbPolyline
 90
        2
 70
     0
 43
0.0
 10
1341.322928787507
 20
233.8609152567248
 10
1316.531138787507
 20
209.0691252567248
  0
LWPOLYLINE
  5
A0FE
330
1E
100
AcDbEntity
  8
躯体と製品
  6
Continuous
 62
     3
100
AcDbPolyline
 90
        2
 70
     0
 43
0.0
 10
1327.178860787507
 20
233.8609152567248
 10
1302.387070787508
 20
209.0691252567248
  0
LWPOLYLINE
  5
A0FF
330
1E
100
AcDbEntity
  8
躯体と製品
  6
Continuous
 62
     3
100
AcDbPolyline
 90
        2
 70
     0
 43
0.0
 10
1114.411918787507
 20
233.8609152567248
 10
1089.620128787507
 20
209.0691252567248
  0
LWPOLYLINE
  5
A100
330
1E
100
AcDbEntity
  8
躯体と製品
  6
Continuous
 62
     3
100
AcDbPolyline
 90
        2
 70
     0
 43
0.0
 10
1142.700052787507
 20
233.8609152567248
 10
1117.908262787507
 20
209.0691252567248
  0
LWPOLYLINE
  5
A101
330
1E
100
AcDbEntity
  8
躯体と製品
  6
Continuous
 62
     3
100
AcDbPolyline
 90
        2
 70
     0
 43
0.0
 10
1128.555986787507
 20
233.8609152567248
 10
1103.764196787507
 20
209.0691252567248
  0
LWPOLYLINE
  5
A102
330
1E
100
AcDbEntity
  8
躯体と製品
  6
Continuous
 62
     4
100
AcDbPolyline
 90
        2
 70
     0
 43
0.0
 10
1578.625692787507
 20
266.6609152567247
 10
1628.625692787507
 20
266.6609152567247
  0
LWPOLYLINE
  5
A103
330
1E
100
AcDbEntity
  8
躯体と製品
  6
Continuous
 62
     4
100
AcDbPolyline
 90
        2
 70
     0
 43
0.0
 10
1578.625692787507
 20
266.6609152567247
 10
1578.625692787507
 20
352.3609152567246
  0
LWPOLYLINE
  5
A104
330
1E
100
AcDbEntity
  8
躯体と製品
  6
Continuous
 62
     4
100
AcDbPolyline
 90
        2
 70
     0
 43
0.0
 10
1628.625692787507
 20
352.3609152567246
 10
1628.625692787507
 20
266.6609152567247
  0
LWPOLYLINE
  5
A105
330
1E
100
AcDbEntity
  8
躯体と製品
  6
Continuous
 62
     4
100
AcDbPolyline
 90
        2
 70
     0
 43
0.0
 10
1254.529330787507
 20
354.8609152567246
 10
1257.729330787507
 20
354.8609152567246
  0
LWPOLYLINE
  5
A106
330
1E
100
AcDbEntity
  8
躯体と製品
  6
Continuous
 62
     3
100
AcDbPolyline
 90
        2
 70
     0
 43
0.0
 10
1259.229530787506
 20
339.7615532567247
 10
1259.229530787506
 20
351.9631672567248
  0
LWPOLYLINE
  5
A107
330
1E
100
AcDbEntity
  8
躯体と製品
  6
Continuous
 62
     3
100
AcDbPolyline
 90
        2
 70
     0
 43
0.0
 10
1259.229530787506
 20
351.9631672567248
 10
1257.729330787507
 20
351.9631672567248
  0
LWPOLYLINE
  5
A108
330
1E
100
AcDbEntity
  8
躯体と製品
  6
Continuous
 62
     3
100
AcDbPolyline
 90
        2
 70
     0
 43
0.0
 10
1263.630113133545
 20
348.3626913207992
 42
0.2275707722563208
 10
1264.230192787507
 20
349.6128572567247
  0
LWPOLYLINE
  5
A109
330
1E
100
AcDbEntity
  8
躯体と製品
  6
Continuous
 62
     3
100
AcDbPolyline
 90
        2
 70
     0
 43
0.0
 10
1263.630111397725
 20
343.3620305081192
 42
0.2400000040461907
 10
1263.630111397725
 20
348.3626920053305
  0
LWPOLYLINE
  5
A10A
330
1E
100
AcDbEntity
  8
躯体と製品
  6
Continuous
 62
     3
100
AcDbPolyline
 90
        2
 70
     0
 43
0.0
 10
1264.230192787507
 20
342.1118632567247
 42
0.2275707722563208
 10
1263.630113133545
 20
343.3620291926502
  0
LWPOLYLINE
  5
A10B
330
1E
100
AcDbEntity
  8
躯体と製品
  6
Continuous
 62
     3
100
AcDbPolyline
 90
        2
 70
     0
 43
0.0
 10
1264.230192787507
 20
350.2379392567247
 10
1263.630112787507
 20
350.8630232567248
  0
LWPOLYLINE
  5
A10C
330
1E
100
AcDbEntity
  8
躯体と製品
  6
Continuous
 62
     3
100
AcDbPolyline
 90
        2
 70
     0
 43
0.0
 10
1264.230192787507
 20
341.4867812567247
 10
1263.630112787507
 20
340.8616972567247
  0
LWPOLYLINE
  5
A10D
330
1E
100
AcDbEntity
  8
躯体と製品
  6
Continuous
 62
     3
100
AcDbPolyline
 90
        2
 70
     0
 43
0.0
 10
1263.630112787507
 20
350.8630232567248
 10
1259.829610787507
 20
350.8630232567248
  0
LWPOLYLINE
  5
A10E
330
1E
100
AcDbEntity
  8
躯体と製品
  6
Continuous
 62
     3
100
AcDbPolyline
 90
        2
 70
     0
 43
0.0
 10
1263.630112787507
 20
348.3626912567247
 10
1259.829610787507
 20
348.3626912567247
  0
LWPOLYLINE
  5
A10F
330
1E
100
AcDbEntity
  8
躯体と製品
  6
Continuous
 62
     3
100
AcDbPolyline
 90
        2
 70
     0
 43
0.0
 10
1263.630112787507
 20
343.3620292567248
 10
1259.829610787507
 20
343.3620292567248
  0
LWPOLYLINE
  5
A110
330
1E
100
AcDbEntity
  8
躯体と製品
  6
Continuous
 62
     3
100
AcDbPolyline
 90
        2
 70
     0
 43
0.0
 10
1263.630112787507
 20
340.8616972567247
 10
1259.829610787507
 20
340.8616972567247
  0
LWPOLYLINE
  5
A111
330
1E
100
AcDbEntity
  8
躯体と製品
  6
Continuous
 62
     3
100
AcDbPolyline
 90
        2
 70
     0
 43
0.0
 10
1264.230192787507
 20
341.4867812567247
 10
1264.230192787507
 20
350.2379392567247
  0
LWPOLYLINE
  5
A112
330
1E
100
AcDbEntity
  8
躯体と製品
  6
Continuous
 62
     3
100
AcDbPolyline
 90
        2
 70
     0
 43
0.0
 10
1264.230192787507
 20
350.2379392567247
 10
1264.230192787507
 20
341.4867812567247
  0
LWPOLYLINE
  5
A113
330
1E
100
AcDbEntity
  8
躯体と製品
  6
Continuous
 62
     3
100
AcDbPolyline
 90
        2
 70
     0
 43
0.0
 10
1259.229530787506
 20
349.6128572567247
 42
0.2275707722563208
 10
1259.829610441468
 20
348.3626913207992
  0
LWPOLYLINE
  5
A114
330
1E
100
AcDbEntity
  8
躯体と製品
  6
Continuous
 62
     3
100
AcDbPolyline
 90
        2
 70
     0
 43
0.0
 10
1259.829610177289
 20
348.3626920053305
 42
0.2400000040461907
 10
1259.829610177289
 20
343.3620305081192
  0
LWPOLYLINE
  5
A115
330
1E
100
AcDbEntity
  8
躯体と製品
  6
Continuous
 62
     3
100
AcDbPolyline
 90
        2
 70
     0
 43
0.0
 10
1259.829610441468
 20
343.3620291926502
 42
0.2275707722563208
 10
1259.229530787506
 20
342.1118632567247
  0
LWPOLYLINE
  5
A116
330
1E
100
AcDbEntity
  8
躯体と製品
  6
Continuous
 62
     3
100
AcDbPolyline
 90
        2
 70
     0
 43
0.0
 10
1259.229530787506
 20
350.2379392567247
 10
1259.829610787507
 20
350.8630232567248
  0
LWPOLYLINE
  5
A117
330
1E
100
AcDbEntity
  8
躯体と製品
  6
Continuous
 62
     3
100
AcDbPolyline
 90
        2
 70
     0
 43
0.0
 10
1259.229530787506
 20
341.4867812567247
 10
1259.829610787507
 20
340.8616972567247
  0
LWPOLYLINE
  5
A118
330
1E
100
AcDbEntity
  8
躯体と製品
  6
Continuous
 62
     3
100
AcDbPolyline
 90
        2
 70
     0
 43
0.0
 10
1259.229530787506
 20
341.4867812567247
 10
1259.229530787506
 20
350.2379392567247
  0
LWPOLYLINE
  5
A119
330
1E
100
AcDbEntity
  8
躯体と製品
  6
Continuous
 62
     3
100
AcDbPolyline
 90
        2
 70
     0
 43
0.0
 10
1259.229530787506
 20
350.2379392567247
 10
1259.229530787506
 20
341.4867812567247
  0
LWPOLYLINE
  5
A11A
330
1E
100
AcDbEntity
  8
躯体と製品
  6
Continuous
 62
     3
100
AcDbPolyline
 90
        2
 70
     0
 43
0.0
 10
1271.329330787507
 20
348.8609152567246
 10
1271.329330787507
 20
342.8609152567247
  0
LWPOLYLINE
  5
A11B
330
1E
100
AcDbEntity
  8
躯体と製品
  6
Continuous
 62
     4
100
AcDbPolyline
 90
        2
 70
     0
 43
0.0
 10
1254.529330787507
 20
341.3223552567247
 10
1249.529330787507
 20
341.3223552567247
  0
LWPOLYLINE
  5
A11C
330
1E
100
AcDbEntity
  8
躯体と製品
  6
Continuous
 62
     3
100
AcDbPolyline
 90
        2
 70
     0
 43
0.0
 10
1271.329330787507
 20
342.8609152567247
 10
1264.230192787507
 20
342.8609152567247
  0
LWPOLYLINE
  5
A11D
330
1E
100
AcDbEntity
  8
躯体と製品
  6
Continuous
 62
     3
100
AcDbPolyline
 90
        2
 70
     0
 43
0.0
 10
1254.529330787507
 20
342.8609152567247
 10
1248.329330787506
 20
342.8594702567246
  0
LWPOLYLINE
  5
A11E
330
1E
100
AcDbEntity
  8
躯体と製品
  6
Continuous
 62
     3
100
AcDbPolyline
 90
        2
 70
     0
 43
0.0
 10
1264.230192787507
 20
348.8609152567246
 10
1271.329330787507
 20
348.8609152567246
  0
LWPOLYLINE
  5
A11F
330
1E
100
AcDbEntity
  8
躯体と製品
  6
Continuous
 62
     3
100
AcDbPolyline
 90
        2
 70
     0
 43
0.0
 10
1254.529330787507
 20
348.8609152567246
 10
1248.329330787506
 20
348.8594702567245
  0
LWPOLYLINE
  5
A120
330
1E
100
AcDbEntity
  8
躯体と製品
  6
Continuous
 62
     4
100
AcDbPolyline
 90
        2
 70
     0
 43
0.0
 10
1196.979324787507
 20
266.6609152567247
 10
1252.079338787506
 20
266.6609152567247
  0
LWPOLYLINE
  5
A121
330
1E
100
AcDbEntity
  8
躯体と製品
  6
Continuous
 62
     3
100
AcDbPolyline
 90
        2
 70
     0
 43
0.0
 10
1264.230192787507
 20
343.3609812567247
 10
1271.329330787507
 20
343.3609812567247
  0
LWPOLYLINE
  5
A122
330
1E
100
AcDbEntity
  8
躯体と製品
  6
Continuous
 62
     3
100
AcDbPolyline
 90
        2
 70
     0
 43
0.0
 10
1194.529330787507
 20
343.3609812567247
 10
1254.529330787507
 20
343.3609812567247
  0
LWPOLYLINE
  5
A123
330
1E
100
AcDbEntity
  8
躯体と製品
  6
Continuous
 62
     3
100
AcDbPolyline
 90
        2
 70
     0
 43
0.0
 10
1264.230192787507
 20
348.3608492567246
 10
1271.329330787507
 20
348.3608492567246
  0
LWPOLYLINE
  5
A124
330
1E
100
AcDbEntity
  8
躯体と製品
  6
Continuous
 62
     3
100
AcDbPolyline
 90
        2
 70
     0
 43
0.0
 10
1194.529330787507
 20
348.3608492567246
 10
1254.529330787507
 20
348.3608492567246
  0
LWPOLYLINE
  5
A125
330
1E
100
AcDbEntity
  8
躯体と製品
  6
Continuous
 62
     4
100
AcDbPolyline
 90
        2
 70
     0
 43
0.0
 10
1199.529330787507
 20
336.8609152567247
 10
1204.529330787507
 20
336.8609152567247
  0
LWPOLYLINE
  5
A126
330
1E
100
AcDbEntity
  8
躯体と製品
  6
Continuous
 62
     4
100
AcDbPolyline
 90
        2
 70
     0
 43
0.0
 10
1191.329330787507
 20
354.8609152567246
 10
1191.329330787507
 20
272.3609152567247
  0
LWPOLYLINE
  5
A127
330
1E
100
AcDbEntity
  8
躯体と製品
  6
Continuous
 62
     4
100
AcDbPolyline
 90
        2
 70
     0
 43
0.0
 10
1194.529330787507
 20
341.3623612567249
 10
1199.529330787507
 20
341.3623612567249
  0
LWPOLYLINE
  5
A128
330
1E
100
AcDbEntity
  8
躯体と製品
  6
Continuous
 62
     4
100
AcDbPolyline
 90
        2
 70
     0
 43
0.0
 10
1204.529330787507
 20
341.8609152567247
 10
1204.529330787507
 20
334.8609152567247
  0
LWPOLYLINE
  5
A129
330
1E
100
AcDbEntity
  8
躯体と製品
  6
Continuous
 62
     4
100
AcDbPolyline
 90
        2
 70
     0
 43
0.0
 10
1191.329330787507
 20
354.8609152567246
 10
1194.529330787507
 20
354.8609152567246
  0
LWPOLYLINE
  5
A12A
330
1E
100
AcDbEntity
  8
躯体と製品
  6
Continuous
 62
     3
100
AcDbPolyline
 90
        2
 70
     0
 43
0.0
 10
1191.329330787507
 20
351.1109152567247
 10
1190.329726787507
 20
351.1109152567247
  0
LWPOLYLINE
  5
A12B
330
1E
100
AcDbEntity
  8
躯体と製品
  6
Continuous
 62
     3
100
AcDbPolyline
 90
        2
 70
     0
 43
0.0
 10
1190.329726787507
 20
351.1109152567247
 42
0.4142135623730951
 10
1187.329328787507
 20
348.1105172567247
  0
LWPOLYLINE
  5
A12C
330
1E
100
AcDbEntity
  8
躯体と製品
  6
Continuous
 62
     3
100
AcDbPolyline
 90
        2
 70
     0
 43
0.0
 10
1187.329330787507
 20
348.1105172567247
 10
1187.329330787507
 20
343.6099232567246
  0
LWPOLYLINE
  5
A12D
330
1E
100
AcDbEntity
  8
躯体と製品
  6
Continuous
 62
     3
100
AcDbPolyline
 90
        2
 70
     0
 43
0.0
 10
1187.329328787507
 20
343.6099232567246
 42
0.4053256333932766
 10
1190.238407707687
 20
340.6109152567247
 42
0.4053256333932766
  0
LWPOLYLINE
  5
A12E
330
1E
100
AcDbEntity
  8
躯体と製品
  6
Continuous
 62
     4
100
AcDbPolyline
 90
        2
 70
     0
 43
0.0
 10
1244.529330787507
 20
336.8609152567247
 10
1249.529330787507
 20
336.8609152567247
  0
LWPOLYLINE
  5
A12F
330
1E
100
AcDbEntity
  8
躯体と製品
  6
Continuous
 62
     4
100
AcDbPolyline
 90
        2
 70
     0
 43
0.0
 10
1244.529330787507
 20
341.8609152567247
 10
1244.529330787507
 20
334.8609152567247
  0
LWPOLYLINE
  5
A130
330
1E
100
AcDbEntity
  8
躯体と製品
  6
Continuous
 62
     3
100
AcDbPolyline
 90
        2
 70
     0
 43
0.0
 10
1248.329330787506
 20
348.8594702567245
 10
1247.829264787507
 20
348.3594042567245
  0
LWPOLYLINE
  5
A131
330
1E
100
AcDbEntity
  8
躯体と製品
  6
Continuous
 62
     3
100
AcDbPolyline
 90
        2
 70
     0
 43
0.0
 10
1248.329330787506
 20
342.8594702567246
 10
1247.829264787507
 20
343.3595362567246
  0
LWPOLYLINE
  5
A132
330
1E
100
AcDbEntity
  8
躯体と製品
  6
Continuous
 62
     3
100
AcDbPolyline
 90
        2
 70
     0
 43
0.0
 10
1248.329330787506
 20
342.8605182567246
 10
1248.329330787506
 20
348.8613122567246
  0
LWPOLYLINE
  5
A133
330
1E
100
AcDbEntity
  8
躯体と製品
  6
Continuous
 62
     4
100
AcDbPolyline
 90
        2
 70
     0
 43
0.0
 10
1204.529330787507
 20
341.8609152567247
 10
1244.529330787507
 20
341.8609152567247
  0
LWPOLYLINE
  5
A134
330
1E
100
AcDbEntity
  8
躯体と製品
  6
Continuous
 62
     3
100
AcDbPolyline
 90
        2
 70
     0
 43
0.0
 10
1199.529330787507
 20
339.8609152567248
 10
1204.529330787507
 20
339.8609152567248
  0
LWPOLYLINE
  5
A135
330
1E
100
AcDbEntity
  8
躯体と製品
  6
Continuous
 62
     3
100
AcDbPolyline
 90
        2
 70
     0
 43
0.0
 10
1244.529330787507
 20
339.8609152567248
 10
1249.482634787507
 20
339.8609152567248
  0
LWPOLYLINE
  5
A136
330
1E
100
AcDbEntity
  8
躯体と製品
  6
Continuous
 62
     4
100
AcDbPolyline
 90
        2
 70
     0
 43
0.0
 10
1194.529330787507
 20
354.8609152567246
 10
1194.529330787507
 20
272.3609152567247
  0
LWPOLYLINE
  5
A137
330
1E
100
AcDbEntity
  8
躯体と製品
  6
Continuous
 62
     4
100
AcDbPolyline
 90
        2
 70
     0
 43
0.0
 10
1194.529330787507
 20
272.3609152567247
 42
0.4142135623730951
 10
1197.029330787507
 20
269.8609152567247
  0
LWPOLYLINE
  5
A138
330
1E
100
AcDbEntity
  8
躯体と製品
  6
Continuous
 62
     4
100
AcDbPolyline
 90
        2
 70
     0
 43
0.0
 10
1252.079338787506
 20
269.8609152567247
 10
1197.029330787507
 20
269.8609152567247
  0
LWPOLYLINE
  5
A139
330
1E
100
AcDbEntity
  8
躯体と製品
  6
Continuous
 62
     4
100
AcDbPolyline
 90
        2
 70
     0
 43
0.0
 10
1257.729330787507
 20
354.8609152567246
 10
1257.729330787507
 20
272.3609152567247
  0
LWPOLYLINE
  5
A13A
330
1E
100
AcDbEntity
  8
躯体と製品
  6
Continuous
 62
     4
100
AcDbPolyline
 90
        2
 70
     0
 43
0.0
 10
1254.529331699241
 20
339.8139631444
 42
0.4214036953089031
 10
1254.529331699241
 20
333.0147113690496
  0
LWPOLYLINE
  5
A13B
330
1E
100
AcDbEntity
  8
躯体と製品
  6
Continuous
 62
     4
100
AcDbPolyline
 90
        2
 70
     0
 43
0.0
 10
1252.029330787507
 20
269.8609152567247
 42
0.4142135623730951
 10
1254.529330787507
 20
272.3609152567247
  0
LWPOLYLINE
  5
A13C
330
1E
100
AcDbEntity
  8
躯体と製品
  6
Continuous
 62
     4
100
AcDbPolyline
 90
        2
 70
     0
 43
0.0
 10
1254.529330787507
 20
354.8609152567246
 10
1254.529330787507
 20
272.3609152567247
  0
LWPOLYLINE
  5
A13D
330
1E
100
AcDbEntity
  8
躯体と製品
  6
Continuous
 62
     4
100
AcDbPolyline
 90
        2
 70
     0
 43
0.0
 10
1247.929330787507
 20
329.3609152567248
 10
1247.929330787507
 20
290.3609152567248
  0
LWPOLYLINE
  5
A13E
330
1E
100
AcDbEntity
  8
躯体と製品
  6
Continuous
 62
     4
100
AcDbPolyline
 90
        2
 70
     0
 43
0.0
 10
1244.029330787507
 20
286.4609152567247
 10
1234.529330787507
 20
286.4609152567247
  0
LWPOLYLINE
  5
A13F
330
1E
100
AcDbEntity
  8
躯体と製品
  6
Continuous
 62
     4
100
AcDbPolyline
 90
        2
 70
     0
 43
0.0
 10
1205.029330787507
 20
333.2609152567247
 42
0.4142135623730951
 10
1201.129330787507
 20
329.3609152567248
  0
LWPOLYLINE
  5
A140
330
1E
100
AcDbEntity
  8
躯体と製品
  6
Continuous
 62
     4
100
AcDbPolyline
 90
        2
 70
     0
 43
0.0
 10
1244.029330787507
 20
333.2609152567246
 10
1205.029330787507
 20
333.2609152567246
  0
LWPOLYLINE
  5
A141
330
1E
100
AcDbEntity
  8
躯体と製品
  6
Continuous
 62
     4
100
AcDbPolyline
 90
        2
 70
     0
 43
0.0
 10
1214.529330787507
 20
286.4609152567247
 10
1214.529330787507
 20
284.8609152567247
  0
LWPOLYLINE
  5
A142
330
1E
100
AcDbEntity
  8
躯体と製品
  6
Continuous
 62
     4
100
AcDbPolyline
 90
        2
 70
     0
 43
0.0
 10
1234.529330787507
 20
284.8609152567247
 10
1234.529330787507
 20
286.4609152567247
  0
LWPOLYLINE
  5
A143
330
1E
100
AcDbEntity
  8
躯体と製品
  6
Continuous
 62
     4
100
AcDbPolyline
 90
        2
 70
     0
 43
0.0
 10
1244.029330787507
 20
284.8609152567247
 10
1205.029330787507
 20
284.8609152567247
  0
LWPOLYLINE
  5
A144
330
1E
100
AcDbEntity
  8
躯体と製品
  6
Continuous
 62
     4
100
AcDbPolyline
 90
        2
 70
     0
 43
0.0
 10
1199.529330787507
 20
341.3623612567249
 10
1199.529330787507
 20
290.3609152567248
  0
LWPOLYLINE
  5
A145
330
1E
100
AcDbEntity
  8
躯体と製品
  6
Continuous
 62
     4
100
AcDbPolyline
 90
        2
 70
     0
 43
0.0
 10
1205.029330787507
 20
334.8609152567247
 42
0.4142135623730951
 10
1199.529330787507
 20
329.3609152567248
  0
LWPOLYLINE
  5
A146
330
1E
100
AcDbEntity
  8
躯体と製品
  6
Continuous
 62
     4
100
AcDbPolyline
 90
        2
 70
     0
 43
0.0
 10
1244.029330787507
 20
334.8609152567247
 10
1205.029330787507
 20
334.8609152567247
  0
LWPOLYLINE
  5
A147
330
1E
100
AcDbEntity
  8
躯体と製品
  6
Continuous
 62
     4
100
AcDbPolyline
 90
        2
 70
     0
 43
0.0
 10
1249.529330787507
 20
341.3223552567247
 10
1249.529330787507
 20
290.3609152567248
  0
LWPOLYLINE
  5
A148
330
1E
100
AcDbEntity
  8
躯体と製品
  6
Continuous
 62
     4
100
AcDbPolyline
 90
        2
 70
     0
 43
0.0
 10
1201.129330787507
 20
290.3609152567248
 10
1201.129330787507
 20
329.3609152567248
  0
LWPOLYLINE
  5
A149
330
1E
100
AcDbEntity
  8
躯体と製品
  6
Continuous
 62
     4
100
AcDbPolyline
 90
        2
 70
     0
 43
0.0
 10
1205.029330787507
 20
286.4609152567247
 10
1214.529330787507
 20
286.4609152567247
  0
LWPOLYLINE
  5
A14A
330
1E
100
AcDbEntity
  8
躯体と製品
  6
Continuous
 62
     4
100
AcDbPolyline
 90
        2
 70
     0
 43
0.0
 10
1247.929330787507
 20
329.3609152567248
 42
0.4142135623730951
 10
1244.029330787507
 20
333.2609152567247
  0
LWPOLYLINE
  5
A14B
330
1E
100
AcDbEntity
  8
躯体と製品
  6
Continuous
 62
     4
100
AcDbPolyline
 90
        2
 70
     0
 43
0.0
 10
1249.529330787507
 20
329.3609152567248
 42
0.4142135623730951
 10
1244.029330787507
 20
334.8609152567247
  0
LWPOLYLINE
  5
A14C
330
1E
100
AcDbEntity
  8
躯体と製品
  6
Continuous
 62
     4
100
AcDbPolyline
 90
        2
 70
     0
 43
0.0
 10
1201.129330787507
 20
290.3609152567248
 42
0.4142135623730951
 10
1205.029330787507
 20
286.4609152567248
  0
LWPOLYLINE
  5
A14D
330
1E
100
AcDbEntity
  8
躯体と製品
  6
Continuous
 62
     4
100
AcDbPolyline
 90
        2
 70
     0
 43
0.0
 10
1199.529330787507
 20
290.3609152567248
 42
0.4142135623730951
 10
1205.029330787507
 20
284.8609152567247
  0
LWPOLYLINE
  5
A14E
330
1E
100
AcDbEntity
  8
躯体と製品
  6
Continuous
 62
     4
100
AcDbPolyline
 90
        2
 70
     0
 43
0.0
 10
1244.029330787507
 20
286.4609152567248
 42
0.4142135623730951
 10
1247.929330787507
 20
290.3609152567248
  0
LWPOLYLINE
  5
A14F
330
1E
100
AcDbEntity
  8
躯体と製品
  6
Continuous
 62
     4
100
AcDbPolyline
 90
        2
 70
     0
 43
0.0
 10
1244.029330787507
 20
284.8609152567247
 42
0.4142135623730951
 10
1249.529330787507
 20
290.3609152567248
  0
LWPOLYLINE
  5
A150
330
1E
100
AcDbEntity
  8
躯体と製品
  6
Continuous
 62
     4
100
AcDbPolyline
 90
        2
 70
     0
 43
0.0
 10
1581.125692787507
 20
354.8609152567246
 42
0.4142135623730951
 10
1578.625692787507
 20
352.3609152567246
  0
LWPOLYLINE
  5
A151
330
1E
100
AcDbEntity
  8
躯体と製品
  6
Continuous
 62
     4
100
AcDbPolyline
 90
        2
 70
     0
 43
0.0
 10
1626.125692787507
 20
354.8609152567246
 10
1581.125692787507
 20
354.8609152567246
  0
LWPOLYLINE
  5
A152
330
1E
100
AcDbEntity
  8
躯体と製品
  6
Continuous
 62
     4
100
AcDbPolyline
 90
        2
 70
     0
 43
0.0
 10
1608.724686787507
 20
347.1123812567246
 10
1609.125664787507
 20
347.1123812567246
  0
LWPOLYLINE
  5
A153
330
1E
100
AcDbEntity
  8
躯体と製品
  6
Continuous
 62
     4
100
AcDbPolyline
 90
        2
 70
     0
 43
0.0
 10
1609.625662787507
 20
346.6123852567248
 42
0.4142135623730951
 10
1609.125664787507
 20
347.1123832567248
  0
LWPOLYLINE
  5
A154
330
1E
100
AcDbEntity
  8
躯体と製品
  6
Continuous
 62
     4
100
AcDbPolyline
 90
        2
 70
     0
 43
0.0
 10
1609.625662787507
 20
346.6123852567248
 10
1609.625662787507
 20
345.1123912567246
  0
LWPOLYLINE
  5
A155
330
1E
100
AcDbEntity
  8
躯体と製品
  6
Continuous
 62
     4
100
AcDbPolyline
 90
        2
 70
     0
 43
0.0
 10
1609.125664787507
 20
344.6123932567246
 42
0.4142135623730951
 10
1609.625662787507
 20
345.1123912567246
  0
LWPOLYLINE
  5
A156
330
1E
100
AcDbEntity
  8
躯体と製品
  6
Continuous
 62
     4
100
AcDbPolyline
 90
        2
 70
     0
 43
0.0
 10
1609.125664787507
 20
344.6123952567246
 10
1608.724686787507
 20
344.6123952567246
  0
LWPOLYLINE
  5
A157
330
1E
100
AcDbEntity
  8
躯体と製品
  6
Continuous
 62
     4
100
AcDbPolyline
 90
        2
 70
     0
 43
0.0
 10
1598.526698787507
 20
347.1123812567246
 10
1598.125720787507
 20
347.1123812567246
  0
LWPOLYLINE
  5
A158
330
1E
100
AcDbEntity
  8
躯体と製品
  6
Continuous
 62
     4
100
AcDbPolyline
 90
        2
 70
     0
 43
0.0
 10
1598.125720787507
 20
347.1123832567248
 42
0.4142135623730951
 10
1597.625722787507
 20
346.6123852567248
  0
LWPOLYLINE
  5
A159
330
1E
100
AcDbEntity
  8
躯体と製品
  6
Continuous
 62
     4
100
AcDbPolyline
 90
        2
 70
     0
 43
0.0
 10
1597.625722787507
 20
346.6123852567248
 10
1597.625722787507
 20
345.1123912567246
  0
LWPOLYLINE
  5
A15A
330
1E
100
AcDbEntity
  8
躯体と製品
  6
Continuous
 62
     4
100
AcDbPolyline
 90
        2
 70
     0
 43
0.0
 10
1597.625722787507
 20
345.1123912567246
 42
0.4142135623730951
 10
1598.125720787507
 20
344.6123932567246
  0
LWPOLYLINE
  5
A15B
330
1E
100
AcDbEntity
  8
躯体と製品
  6
Continuous
 62
     4
100
AcDbPolyline
 90
        2
 70
     0
 43
0.0
 10
1598.125720787507
 20
344.6123952567246
 10
1598.526698787507
 20
344.6123952567246
  0
LWPOLYLINE
  5
A15C
330
1E
100
AcDbEntity
  8
躯体と製品
  6
Continuous
 62
     3
100
AcDbPolyline
 90
        2
 70
     0
 43
0.0
 10
1603.625692787507
 20
340.0889152567247
 10
1598.625718787507
 20
342.9756512567246
  0
LWPOLYLINE
  5
A15D
330
1E
100
AcDbEntity
  8
躯体と製品
  6
Continuous
 62
     3
100
AcDbPolyline
 90
        2
 70
     0
 43
0.0
 10
1598.625718787507
 20
342.9756512567246
 10
1598.625718787507
 20
348.7491252567247
  0
LWPOLYLINE
  5
A15E
330
1E
100
AcDbEntity
  8
躯体と製品
  6
Continuous
 62
     3
100
AcDbPolyline
 90
        2
 70
     0
 43
0.0
 10
1598.625718787507
 20
348.7491252567247
 10
1603.625692787507
 20
351.6358612567247
  0
LWPOLYLINE
  5
A15F
330
1E
100
AcDbEntity
  8
躯体と製品
  6
Continuous
 62
     3
100
AcDbPolyline
 90
        2
 70
     0
 43
0.0
 10
1603.625692787507
 20
351.6358612567247
 10
1608.625666787507
 20
348.7491252567247
  0
LWPOLYLINE
  5
A160
330
1E
100
AcDbEntity
  8
躯体と製品
  6
Continuous
 62
     3
100
AcDbPolyline
 90
        2
 70
     0
 43
0.0
 10
1608.625666787507
 20
348.7491252567247
 10
1608.625666787507
 20
342.9756512567246
  0
LWPOLYLINE
  5
A161
330
1E
100
AcDbEntity
  8
躯体と製品
  6
Continuous
 62
     3
100
AcDbPolyline
 90
        2
 70
     0
 43
0.0
 10
1608.625666787507
 20
342.9756512567246
 10
1603.625692787507
 20
340.0889152567247
  0
LWPOLYLINE
  5
A162
330
1E
100
AcDbEntity
  8
躯体と製品
  6
Continuous
 62
     4
100
AcDbPolyline
 90
        2
 70
     0
 43
0.0
 10
1252.029330787507
 20
266.6609152567247
 42
0.4142135623730951
 10
1257.729330787507
 20
272.3609152567247
  0
LWPOLYLINE
  5
A163
330
1E
100
AcDbEntity
  8
躯体と製品
  6
Continuous
 62
     4
100
AcDbPolyline
 90
        2
 70
     0
 43
0.0
 10
1191.329330787507
 20
272.3609152567247
 42
0.4142135623730951
 10
1197.029330787507
 20
266.6609152567247
  0
LWPOLYLINE
  5
A164
330
1E
100
AcDbEntity
  8
躯体と製品
  6
Continuous
 62
     3
100
AcDbPolyline
 90
        2
 70
     0
 43
0.0
 10
1259.229530787506
 20
351.9631672567248
 10
1257.729330787507
 20
351.9631672567248
  0
LWPOLYLINE
  5
A165
330
1E
100
AcDbEntity
  8
躯体と製品
  6
Continuous
 62
     3
100
AcDbPolyline
 90
        2
 70
     0
 43
0.0
 10
1259.229530787506
 20
339.7615532567247
 10
1257.729330787507
 20
339.7615532567247
  0
LWPOLYLINE
  5
A167
330
1E
100
AcDbEntity
  8
躯体と製品
  6
Continuous
 62
     4
100
AcDbPolyline
 90
        2
 70
     0
 43
0.0
 10
1194.529331875773
 20
333.0147113690496
 42
0.4214036953089031
 10
1194.529331875773
 20
339.8139631444
  0
LWPOLYLINE
  5
A168
330
1E
100
AcDbEntity
  8
躯体と製品
  6
Continuous
 62
     4
100
AcDbPolyline
 90
        2
 70
     0
 43
0.0
 10
1628.625692787507
 20
352.3609152567246
 42
0.4142135623730951
 10
1626.125692787507
 20
354.8609152567246
  0
TEXT
  5
A64F
330
1E
100
AcDbEntity
  8
文字-記号
  6
Continuous
 62
     3
100
AcDbText
 10
1363.728092094826
 20
458.145423780875
 30
0.0
 40
13.0
  1
ｈ=117mm～250mm
  7
ACAD
100
AcDbText
  0
LWPOLYLINE
  5
A71E
330
1E
100
AcDbEntity
  8
躯体と製品
  6
Continuous
 62
     4
100
AcDbPolyline
 90
        2
 70
     0
 43
0.0
 10
1204.529330787507
 20
334.8609152567247
 10
1244.529330787507
 20
334.8609152567247
  0
LWPOLYLINE
  5
A7AA
330
1E
100
AcDbEntity
  8
躯体と製品
  6
Continuous
 62
     3
100
AcDbPolyline
 90
        2
 70
     0
 43
0.0
 10
1191.329330787507
 20
340.6109152567247
 10
1190.238407707687
 20
340.6109152567247
  0
TEXT
  5
A91E
330
1E
100
AcDbEntity
  8
文字-記号
  6
Continuous
 62
     3
100
AcDbText
 10
1068.514459821027
 20
478.1204243580043
 30
0.0
 40
13.0
  1
■スリーベース１０１Ｌ-Ｕ型（一般体育館 低床用：埋め込みタイプ）
  7
ACAD
100
AcDbText
  0
ENDSEC
  0
SECTION
  2
OBJECTS
  0
DICTIONARY
  5
C
330
0
100
AcDbDictionary
281
     1
  3
ACAD_CIP_PREVIOUS_PRODUCT_INFO
350
5FB1
  3
ACAD_COLOR
350
5F95
  3
ACAD_GROUP
350
D
  3
ACAD_LAYOUT
350
19
  3
ACAD_MATERIAL
350
5F63
  3
ACAD_MLEADERSTYLE
350
5FAA
  3
ACAD_MLINESTYLE
350
16
  3
ACAD_PLOTSETTINGS
350
18
  3
ACAD_PLOTSTYLENAME
350
E
  3
ACAD_SCALELIST
350
5F98
  3
ACAD_TABLESTYLE
350
5F96
  3
ACAD_VISUALSTYLE
350
5F7C
  3
ACDB_RECOMPOSE_DATA
350
AA52
  3
AcDbVariableDictionary
350
169
  3
AEC_PROPERTY_SET_DEFS
350
6B75
  0
DICTIONARY
  5
A2D3
330
8
100
AcDbDictionary
280
     1
281
     1
  0
DICTIONARY
  5
175
330
2
100
AcDbDictionary
280
     1
281
     1
  3
ACAD_LAYERFILTERS
360
185
  3
ACAD_LAYERSTATES
360
176
  0
DICTIONARY
  5
655F
330
10
100
AcDbDictionary
280
     1
281
     1
  3
ADSK_XREC_LAYER_RECONCILED
360
6560
  0
DICTIONARY
  5
6561
330
178
100
AcDbDictionary
280
     1
281
     1
  3
ADSK_XREC_LAYER_RECONCILED
360
6562
  0
DICTIONARY
  5
6563
330
179
100
AcDbDictionary
280
     1
281
     1
  3
ADSK_XREC_LAYER_RECONCILED
360
6564
  0
DICTIONARY
  5
6565
330
4F62
100
AcDbDictionary
280
     1
281
     1
  3
ADSK_XREC_LAYER_RECONCILED
360
6566
  0
DICTIONARY
  5
28B
330
1E
100
AcDbDictionary
280
     1
281
     1
  3
ACAD_LAYOUTSELFREF
360
5C3B
  3
ACAD_SORTENTS
360
8525
  0
DICTIONARY
  5
28D
330
1A
100
AcDbDictionary
280
     1
281
     1
  3
ACAD_LAYOUTSELFREF
360
5C3A
  0
XRECORD
  5
5FB1
102
{ACAD_REACTORS
330
C
102
}
330
C
100
AcDbXrecord
280
     1
300
ACD
300
2012
300
ACD_F_S
  0
DICTIONARY
  5
5F95
102
{ACAD_REACTORS
330
C
102
}
330
C
100
AcDbDictionary
281
     1
  0
DICTIONARY
  5
D
102
{ACAD_REACTORS
330
C
102
}
330
C
100
AcDbDictionary
281
     1
  0
DICTIONARY
  5
19
102
{ACAD_REACTORS
330
C
102
}
330
C
100
AcDbDictionary
281
     1
  3
Model
350
21
  3
ﾚｲｱｳﾄ1
350
1D
  0
DICTIONARY
  5
5F63
102
{ACAD_REACTORS
330
C
102
}
330
C
100
AcDbDictionary
281
     1
  3
ByBlock
350
5F6C
  3
ByLayer
350
5F64
  3
Global
350
5F74
  0
DICTIONARY
  5
5FAA
102
{ACAD_REACTORS
330
C
102
}
330
C
100
AcDbDictionary
281
     1
  3
Standard
350
5FAB
  0
DICTIONARY
  5
16
102
{ACAD_REACTORS
330
C
102
}
330
C
100
AcDbDictionary
281
     1
  3
Standard
350
17
  0
DICTIONARY
  5
18
102
{ACAD_REACTORS
330
C
102
}
330
C
100
AcDbDictionary
281
     1
  0
ACDBDICTIONARYWDFLT
  5
E
102
{ACAD_REACTORS
330
C
102
}
330
C
100
AcDbDictionary
281
     1
  3
Normal
350
F
100
AcDbDictionaryWithDefault
340
F
  0
DICTIONARY
  5
5F98
102
{ACAD_REACTORS
330
C
102
}
330
C
100
AcDbDictionary
281
     1
  3
A0
350
5F99
  3
A1
350
5F9A
  3
A2
350
5F9B
  3
A3
350
5F9C
  3
A4
350
5F9D
  3
A5
350
5F9E
  3
A6
350
5F9F
  3
A7
350
5FA0
  3
A8
350
5FA1
  3
A9
350
5FA2
  3
B0
350
5FA3
  3
B1
350
5FA4
  3
B2
350
5FA5
  3
B3
350
5FA6
  3
B4
350
5FA7
  3
B5
350
5FA8
  3
B6
350
5FA9
  0
DICTIONARY
  5
5F96
102
{ACAD_REACTORS
330
C
102
}
330
C
100
AcDbDictionary
281
     1
  3
Standard
350
5F97
  0
DICTIONARY
  5
5F7C
102
{ACAD_REACTORS
330
C
102
}
330
C
100
AcDbDictionary
281
     1
  3
2dWireframe
350
5F82
  3
Basic
350
5F81
  3
Brighten
350
5F88
  3
ColorChange
350
5F8C
  3
Conceptual
350
5F85
  3
Dim
350
5F87
  3
EdgeColorOff
350
5F94
  3
Facepattern
350
5F8B
  3
Flat
350
5F7D
  3
FlatWithEdges
350
5F7E
  3
Gouraud
350
5F7F
  3
GouraudWithEdges
350
5F80
  3
Hidden
350
5F84
  3
JitterOff
350
5F92
  3
Linepattern
350
5F8A
  3
OverhangOff
350
5F93
  3
Realistic
350
5F86
  3
Shaded
350
5F91
  3
Shaded with edges
350
5F90
  3
Shades of Gray
350
5F8D
  3
Sketchy
350
5F8E
  3
Thicken
350
5F89
  3
Wireframe
350
5F83
  3
X-Ray
350
5F8F
  0
XRECORD
  5
AA52
102
{ACAD_REACTORS
330
C
102
}
330
C
100
AcDbXrecord
280
     1
 90
        1
330
5F97
  0
DICTIONARY
  5
169
102
{ACAD_REACTORS
330
C
102
}
330
C
100
AcDbDictionary
281
     1
  3
CANNOSCALE
350
69AA
  3
CMLEADERSTYLE
350
69A8
  3
CTABLESTYLE
350
69A7
  3
DIMASSOC
350
16A
  3
LAYEREVAL
350
69AC
  3
LAYERNOTIFY
350
69AD
  3
LIGHTINGUNITS
350
69AB
  3
MSLTSCALE
350
69A9
  3
XCLIPFRAME
350
AA4E
  0
DICTIONARY
  5
6B75
102
{ACAD_REACTORS
330
C
102
}
330
C
100
AcDbDictionary
281
     1
  0
DICTIONARY
  5
185
102
{ACAD_REACTORS
330
175
102
}
330
175
100
AcDbDictionary
280
     1
281
     1
  0
DICTIONARY
  5
176
102
{ACAD_REACTORS
330
175
102
}
330
175
100
AcDbDictionary
281
     1
  3
ACAD
350
177
  0
XRECORD
  5
6560
102
{ACAD_REACTORS
330
655F
102
}
330
655F
100
AcDbXrecord
280
     1
290
     1
  0
XRECORD
  5
6562
102
{ACAD_REACTORS
330
6561
102
}
330
6561
100
AcDbXrecord
280
     1
290
     1
  0
XRECORD
  5
6564
102
{ACAD_REACTORS
330
6563
102
}
330
6563
100
AcDbXrecord
280
     1
290
     1
  0
XRECORD
  5
6566
102
{ACAD_REACTORS
330
6565
102
}
330
6565
100
AcDbXrecord
280
     1
290
     1
  0
XRECORD
  5
5C3B
102
{ACAD_REACTORS
330
28B
102
}
330
28B
100
AcDbXrecord
280
     1
340
1E
  0
SORTENTSTABLE
  5
8525
102
{ACAD_REACTORS
330
28B
102
}
330
28B
100
AcDbSortentsTable
330
1E
331
887A
  5
887A
331
A049
  5
A049
331
8882
  5
8882
331
64D5
  5
64D5
331
A051
  5
A051
331
697C
  5
697C
331
888A
  5
888A
331
A12C
  5
A12C
331
A0B6
  5
A0B6
331
A0F5
  5
A0F5
331
A7AA
  5
A7AB
331
A134
  5
A135
331
A0BE
  5
A0BE
331
A0FD
  5
A0FD
331
A13C
  5
A13D
331
A0C6
  5
A0C6
331
A105
  5
A105
331
A144
  5
A145
331
A0CE
  5
A0CE
331
6DDB
  5
6DDB
331
641F
  5
641F
331
649E
  5
649E
331
6427
  5
6427
331
64AE
  5
64AE
331
642F
  5
642F
331
64B6
  5
64B6
331
64BE
  5
64BE
331
A10D
  5
A10D
331
A05F
  5
A05F
331
A0D6
  5
A0D6
331
A14C
  5
A14D
331
A115
  5
A115
331
A09F
  5
A09F
331
A0DE
  5
A0DE
331
A154
  5
A155
331
A11D
  5
A11D
331
A0A7
  5
A0A7
331
A0E6
  5
A0E6
331
A15C
  5
A15D
331
A125
  5
A125
331
A0AF
  5
A0AF
331
A0EE
  5
A0EE
331
A164
  5
A165
331
A042
  5
A042
331
643F
  5
643F
331
64C6
  5
64C6
331
887B
  5
887B
331
A04A
  5
A04A
331
64D6
  5
64D6
331
6DD4
  5
6DD4
331
8883
  5
8883
331
A052
  5
A052
331
6497
  5
6497
331
888B
  5
888B
331
A12D
  5
A12D
331
A0B7
  5
A0B7
331
A0F6
  5
A0F6
331
A135
  5
A136
331
A0BF
  5
A0BF
331
A0FE
  5
A0FE
331
A13D
  5
A13E
331
A0C7
  5
A0C7
331
A106
  5
A106
331
A145
  5
A146
331
A0CF
  5
A0CF
331
6418
  5
6418
331
6420
  5
6420
331
6DDC
  5
6DDC
331
6428
  5
6428
331
64AF
  5
64AF
331
6430
  5
6430
331
64B7
  5
64B7
331
64BF
  5
64BF
331
A058
  5
A058
331
A10E
  5
A10E
331
A0D7
  5
A0D7
331
A14D
  5
A14E
331
A116
  5
A116
331
A0A0
  5
A0A0
331
A0DF
  5
A0DF
331
A155
  5
A156
331
A11E
  5
A11E
331
A0A8
  5
A0A8
331
A0E7
  5
A0E7
331
A15D
  5
A15E
331
A126
  5
A126
331
A0EF
  5
A0EF
331
A165
  5
A167
331
64C7
  5
64C7
331
6440
  5
6440
331
A043
  5
A043
331
6488
  5
6488
331
887C
  5
887C
331
A04B
  5
A04B
331
64D7
  5
64D7
331
6DD5
  5
6DD5
331
8884
  5
8884
331
A053
  5
A053
331
888C
  5
888C
331
A0B0
  5
A0B0
331
A12E
  5
A12F
331
A0B8
  5
A0B8
331
A0F7
  5
A0F7
331
A136
  5
A137
331
A0C0
  5
A0C0
331
A0FF
  5
A0FF
331
A13E
  5
A13F
331
A107
  5
A107
331
A0C8
  5
A0C8
331
A146
  5
A147
331
6419
  5
6419
331
6498
  5
6498
331
6421
  5
6421
331
6DDD
  5
6DDD
331
6429
  5
6429
331
64B0
  5
64B0
331
6431
  5
6431
331
64B8
  5
64B8
331
9964
  5
9964
331
A059
  5
A059
331
A0D0
  5
A0D0
331
A03C
  5
A03C
331
A10F
  5
A10F
331
A0D8
  5
A0D8
331
A14E
  5
A14F
331
A117
  5
A117
331
A0A1
  5
A0A1
331
A0E0
  5
A0E0
331
A156
  5
A157
331
A11F
  5
A11F
331
A0A9
  5
A0A9
331
A0E8
  5
A0E8
331
A15E
  5
A15F
331
A127
  5
A127
331
64C0
  5
64C0
331
64C8
  5
64C8
331
6441
  5
6441
331
8875
  5
8875
331
A044
  5
A044
331
6489
  5
6489
331
6DCE
  5
6DCE
331
887D
  5
887D
331
A04C
  5
A04C
331
6DD6
  5
6DD6
331
8885
  5
8885
331
A054
  5
A054
331
A0B1
  5
A0B1
331
A0F0
  5
A0F0
331
888D
  5
888D
331
A12F
  5
A130
331
A0B9
  5
A0B9
331
A0F8
  5
A0F8
331
A137
  5
A138
331
A0C1
  5
A0C1
331
A100
  5
A100
331
A13F
  5
A140
331
A0C9
  5
A0C9
331
A147
  5
A148
331
64D8
  5
64D8
331
641A
  5
641A
331
6499
  5
6499
331
6422
  5
6422
331
642A
  5
642A
331
64B1
  5
64B1
331
6E16
  5
6E16
331
6432
  5
6432
331
64B9
  5
64B9
331
9965
  5
9965
331
A108
  5
A108
331
A05A
  5
A05A
331
A0D1
  5
A0D1
331
A03D
  5
A03D
331
A110
  5
A110
331
A0D9
  5
A0D9
331
A14F
  5
A150
331
A118
  5
A118
331
A0A2
  5
A0A2
331
A0E1
  5
A0E1
331
A157
  5
A158
331
A120
  5
A120
331
A0AA
  5
A0AA
331
A0E9
  5
A0E9
331
A15F
  5
A160
331
A71E
  5
A7AA
331
A167
  5
A168
331
64C1
  5
64C1
331
64C9
  5
64C9
331
6442
  5
6442
331
6DC7
  5
6DC7
331
8876
  5
8876
331
A045
  5
A045
331
638B
  5
638B
331
6DCF
  5
6DCF
331
887E
  5
887E
331
A04D
  5
A04D
331
A055
  5
A055
331
6DD7
  5
6DD7
331
8886
  5
8886
331
A128
  5
A128
331
A0B2
  5
A0B2
331
A0F1
  5
A0F1
331
888E
  5
888E
331
A130
  5
A131
331
A0BA
  5
A0BA
331
A0F9
  5
A0F9
331
A138
  5
A139
331
A0C2
  5
A0C2
331
A101
  5
A101
331
A140
  5
A141
331
A0CA
  5
A0CA
331
64D9
  5
64D9
331
641B
  5
641B
331
649A
  5
649A
331
6423
  5
6423
331
642B
  5
642B
331
64B2
  5
64B2
331
9966
  5
9966
331
6433
  5
6433
331
64BA
  5
64BA
331
A109
  5
A109
331
A05B
  5
A05B
331
A0D2
  5
A0D2
331
A148
  5
A149
331
A03E
  5
A03E
331
A111
  5
A111
331
A0DA
  5
A0DA
331
A150
  5
A151
331
A119
  5
A119
331
A0A3
  5
A0A3
331
A0E2
  5
A0E2
331
A158
  5
A159
331
A64F
  5
A71E
331
A121
  5
A121
331
A0AB
  5
A0AB
331
A0EA
  5
A0EA
331
A160
  5
A161
331
64C2
  5
64C2
331
A046
  5
A046
331
6443
  5
6443
331
6DC8
  5
6DC8
331
8877
  5
8877
331
A04E
  5
A04E
331
64D2
  5
64D2
331
638C
  5
638C
331
887F
  5
887F
331
A056
  5
A056
331
8887
  5
8887
331
A129
  5
A129
331
A0B3
  5
A0B3
331
A0F2
  5
A0F2
331
A168
  5
A64F
331
888F
  5
888F
331
A0FA
  5
A0FA
331
A0BB
  5
A0BB
331
A131
  5
A132
331
A139
  5
A13A
331
A102
  5
A102
331
A0C3
  5
A0C3
331
A141
  5
A142
331
A0CB
  5
A0CB
331
64DA
  5
64DA
331
641C
  5
641C
331
649B
  5
649B
331
6424
  5
6424
331
642C
  5
642C
331
64B3
  5
64B3
331
9967
  5
9967
331
6434
  5
6434
331
64BB
  5
64BB
331
A10A
  5
A10A
331
A0D3
  5
A0D3
331
A05C
  5
A05C
331
A149
  5
A14A
331
A03F
  5
A03F
331
A112
  5
A112
331
A0DB
  5
A0DB
331
A151
  5
A152
331
A11A
  5
A11A
331
A0A4
  5
A0A4
331
A0E3
  5
A0E3
331
A159
  5
A15A
331
A122
  5
A122
331
A0AC
  5
A0AC
331
A0EB
  5
A0EB
331
A161
  5
A162
331
64C3
  5
64C3
331
A047
  5
A047
331
6444
  5
6444
331
8878
  5
8878
331
A04F
  5
A04F
331
64D3
  5
64D3
331
638D
  5
638D
331
8880
  5
8880
331
A057
  5
A057
331
6494
  5
6494
331
8888
  5
8888
331
A12A
  5
A12A
331
A0B4
  5
A0B4
331
A0F3
  5
A0F3
331
A132
  5
A133
331
A0BC
  5
A0BC
331
A0FB
  5
A0FB
331
A13A
  5
A13B
331
A0C4
  5
A0C4
331
A103
  5
A103
331
A142
  5
A143
331
A0CC
  5
A0CC
331
641D
  5
641D
331
649C
  5
649C
331
8890
  5
8890
331
6425
  5
6425
331
642D
  5
642D
331
64B4
  5
64B4
331
64BC
  5
64BC
331
A10B
  5
A10B
331
A05D
  5
A05D
331
A0D4
  5
A0D4
331
A14A
  5
A14B
331
A113
  5
A113
331
A0DC
  5
A0DC
331
A152
  5
A153
331
A11B
  5
A11B
331
A0A5
  5
A0A5
331
A0E4
  5
A0E4
331
A15A
  5
A15B
331
A123
  5
A123
331
A0AD
  5
A0AD
331
A0EC
  5
A0EC
331
A162
  5
A163
331
A040
  5
A040
331
643D
  5
643D
331
64C4
  5
64C4
331
8879
  5
8879
331
6445
  5
6445
331
A048
  5
A048
331
8881
  5
8881
331
64D4
  5
64D4
331
A050
  5
A050
331
8889
  5
8889
331
697B
  5
697B
331
A12B
  5
A12B
331
A0B5
  5
A0B5
331
A0F4
  5
A0F4
331
A133
  5
A134
331
A0BD
  5
A0BD
331
A0FC
  5
A0FC
331
A13B
  5
A13C
331
A0C5
  5
A0C5
331
A104
  5
A104
331
A143
  5
A144
331
A0CD
  5
A0CD
331
641E
  5
641E
331
649D
  5
649D
331
6DDA
  5
6DDA
331
6426
  5
6426
331
64AD
  5
64AD
331
642E
  5
642E
331
64B5
  5
64B5
331
64BD
  5
64BD
331
A10C
  5
A10C
331
A05E
  5
A05E
331
A0D5
  5
A0D5
331
A14B
  5
A14C
331
A114
  5
A114
331
A09E
  5
A09E
331
A0DD
  5
A0DD
331
A153
  5
A154
331
A11C
  5
A11C
331
A0A6
  5
A0A6
331
A0E5
  5
A0E5
331
A15B
  5
A15C
331
A124
  5
A124
331
A0AE
  5
A0AE
331
A0ED
  5
A0ED
331
A163
  5
A164
331
A041
  5
A041
331
643E
  5
643E
331
64C5
  5
64C5
  0
XRECORD
  5
5C3A
102
{ACAD_REACTORS
330
28D
102
}
330
28D
100
AcDbXrecord
280
     1
340
1A
  0
LAYOUT
  5
21
102
{ACAD_XDICTIONARY
360
656E
102
}
102
{ACAD_REACTORS
330
19
102
}
330
19
100
AcDbPlotSettings
  1

  2
none_device
  4
Letter_(8.50_x_11.00_Inches)
  6

 40
6.349999904632568
 41
6.349999904632568
 42
6.350006103515625
 43
6.350006103515625
 44
215.8999938964844
 45
279.3999938964844
 46
0.0
 47
0.0
 48
0.0
 49
0.0
140
0.0
141
0.0
142
1.0
143
319.7862139123437
 70
 11952
 72
     0
 73
     1
 74
     0
  7
monochrome.ctb
 75
     0
147
0.0031270891504851
 76
     0
 77
     2
 78
   300
148
-4592.16848121651
149
12923.7211331627
100
AcDbLayout
  1
Model
 70
     1
 71
     0
 10
0.0
 20
0.0
 11
12.0
 21
9.0
 12
0.0
 22
0.0
 32
0.0
 14
0.0
 24
0.0
 34
0.0
 15
0.0
 25
0.0
 35
0.0
146
0.0
 13
0.0
 23
0.0
 33
0.0
 16
1.0
 26
0.0
 36
0.0
 17
0.0
 27
1.0
 37
0.0
 76
     0
330
1E
331
5F61
1001
ACAD_PSEXT
1000
なし
1000
なし
1000
適切ではありません
1000
新しいプロッタ環境設定名を選択しない限り、レイアウトは印刷されません。
1070
     0
  0
LAYOUT
  5
1D
102
{ACAD_REACTORS
330
19
102
}
330
19
100
AcDbPlotSettings
  1

  2
\\MEISEI-1\EPSON Stylus Photo EX3
  4

  6

 40
0.0
 41
0.0
 42
0.0
 43
0.0
 44
0.0
 45
0.0
 46
0.0
 47
0.0
 48
0.0
 49
0.0
140
0.0
141
0.0
142
1.0
143
1.0
 70
   688
 72
     0
 73
     0
 74
     5
  7
monochrome.ctb
 75
    16
147
1.0
 76
     0
 77
     2
 78
   300
148
0.0
149
0.0
100
AcDbLayout
  1
ﾚｲｱｳﾄ1
 70
     1
 71
     1
 10
0.0
 20
0.0
 11
12.0
 21
9.0
 12
0.0
 22
0.0
 32
0.0
 14
1.000000000000000E+20
 24
1.000000000000000E+20
 34
1.000000000000000E+20
 15
-1.000000000000000E+20
 25
-1.000000000000000E+20
 35
-1.000000000000000E+20
146
0.0
 13
0.0
 23
0.0
 33
0.0
 16
1.0
 26
0.0
 36
0.0
 17
0.0
 27
1.0
 37
0.0
 76
     0
330
1A
  0
MATERIAL
  5
5F6C
102
{ACAD_XDICTIONARY
360
5F6D
102
}
102
{ACAD_REACTORS
330
5F63
102
}
330
5F63
100
AcDbMaterial
  1
ByBlock
 72
     0
 43
0.0208333333333333
 43
0.0
 43
0.0
 43
0.0
 43
0.0
 43
0.0208333333333333
 43
0.0
 43
0.0
 43
0.0
 43
0.0
 43
1.0
 43
0.0
 43
0.0
 43
0.0
 43
0.0
 43
1.0
 77
     0
 47
0.0208333333333333
 47
0.0
 47
0.0
 47
0.0
 47
0.0
 47
0.0208333333333333
 47
0.0
 47
0.0
 47
0.0
 47
0.0
 47
1.0
 47
0.0
 47
0.0
 47
0.0
 47
0.0
 47
1.0
171
     0
 49
0.0208333333333333
 49
0.0
 49
0.0
 49
0.0
 49
0.0
 49
0.0208333333333333
 49
0.0
 49
0.0
 49
0.0
 49
0.0
 49
1.0
 49
0.0
 49
0.0
 49
0.0
 49
0.0
 49
1.0
175
     0
142
0.0208333333333333
142
0.0
142
0.0
142
0.0
142
0.0
142
0.0208333333333333
142
0.0
142
0.0
142
0.0
142
0.0
142
1.0
142
0.0
142
0.0
142
0.0
142
0.0
142
1.0
179
     0
144
0.0208333333333333
144
0.0
144
0.0
144
0.0
144
0.0
144
0.0208333333333333
144
0.0
144
0.0
144
0.0
144
0.0
144
1.0
144
0.0
144
0.0
144
0.0
144
0.0
144
1.0
147
0.0208333333333333
147
0.0
147
0.0
147
0.0
147
0.0
147
0.0208333333333333
147
0.0
147
0.0
147
0.0
147
0.0
147
1.0
147
0.0
147
0.0
147
0.0
147
0.0
147
1.0
  0
MATERIAL
  5
5F64
102
{ACAD_XDICTIONARY
360
5F65
102
}
102
{ACAD_REACTORS
330
5F63
102
}
330
5F63
100
AcDbMaterial
  1
ByLayer
 72
     0
 43
0.0208333333333333
 43
0.0
 43
0.0
 43
0.0
 43
0.0
 43
0.0208333333333333
 43
0.0
 43
0.0
 43
0.0
 43
0.0
 43
1.0
 43
0.0
 43
0.0
 43
0.0
 43
0.0
 43
1.0
 77
     0
 47
0.0208333333333333
 47
0.0
 47
0.0
 47
0.0
 47
0.0
 47
0.0208333333333333
 47
0.0
 47
0.0
 47
0.0
 47
0.0
 47
1.0
 47
0.0
 47
0.0
 47
0.0
 47
0.0
 47
1.0
171
     0
 49
0.0208333333333333
 49
0.0
 49
0.0
 49
0.0
 49
0.0
 49
0.0208333333333333
 49
0.0
 49
0.0
 49
0.0
 49
0.0
 49
1.0
 49
0.0
 49
0.0
 49
0.0
 49
0.0
 49
1.0
175
     0
142
0.0208333333333333
142
0.0
142
0.0
142
0.0
142
0.0
142
0.0208333333333333
142
0.0
142
0.0
142
0.0
142
0.0
142
1.0
142
0.0
142
0.0
142
0.0
142
0.0
142
1.0
179
     0
144
0.0208333333333333
144
0.0
144
0.0
144
0.0
144
0.0
144
0.0208333333333333
144
0.0
144
0.0
144
0.0
144
0.0
144
1.0
144
0.0
144
0.0
144
0.0
144
0.0
144
1.0
147
0.0208333333333333
147
0.0
147
0.0
147
0.0
147
0.0
147
0.0208333333333333
147
0.0
147
0.0
147
0.0
147
0.0
147
1.0
147
0.0
147
0.0
147
0.0
147
0.0
147
1.0
  0
MATERIAL
  5
5F74
102
{ACAD_XDICTIONARY
360
5F75
102
}
102
{ACAD_REACTORS
330
5F63
102
}
330
5F63
100
AcDbMaterial
  1
Global
 72
     0
 43
0.0208333333333333
 43
0.0
 43
0.0
 43
0.0
 43
0.0
 43
0.0208333333333333
 43
0.0
 43
0.0
 43
0.0
 43
0.0
 43
1.0
 43
0.0
 43
0.0
 43
0.0
 43
0.0
 43
1.0
 77
     0
 47
0.0208333333333333
 47
0.0
 47
0.0
 47
0.0
 47
0.0
 47
0.0208333333333333
 47
0.0
 47
0.0
 47
0.0
 47
0.0
 47
1.0
 47
0.0
 47
0.0
 47
0.0
 47
0.0
 47
1.0
171
     0
 49
0.0208333333333333
 49
0.0
 49
0.0
 49
0.0
 49
0.0
 49
0.0208333333333333
 49
0.0
 49
0.0
 49
0.0
 49
0.0
 49
1.0
 49
0.0
 49
0.0
 49
0.0
 49
0.0
 49
1.0
175
     0
142
0.0208333333333333
142
0.0
142
0.0
142
0.0
142
0.0
142
0.0208333333333333
142
0.0
142
0.0
142
0.0
142
0.0
142
1.0
142
0.0
142
0.0
142
0.0
142
0.0
142
1.0
179
     0
144
0.0208333333333333
144
0.0
144
0.0
144
0.0
144
0.0
144
0.0208333333333333
144
0.0
144
0.0
144
0.0
144
0.0
144
1.0
144
0.0
144
0.0
144
0.0
144
0.0
144
1.0
147
0.0208333333333333
147
0.0
147
0.0
147
0.0
147
0.0
147
0.0208333333333333
147
0.0
147
0.0
147
0.0
147
0.0
147
1.0
147
0.0
147
0.0
147
0.0
147
0.0
147
1.0
  0
MLEADERSTYLE
  5
5FAB
102
{ACAD_XDICTIONARY
360
AA50
102
}
102
{ACAD_REACTORS
330
5FAA
102
}
330
5FAA
100
AcDbMLeaderStyle
170
     2
171
     1
172
     0
 90
        2
 40
0.0
 41
0.0
173
     1
 91
-1056964608
340
13
 92
       -2
290
     1
 42
0.09
291
     1
 43
0.36
  3
Standard
 44
0.18
300

342
11
174
     1
178
     6
175
     1
176
     0
 93
-1056964608
 45
0.18
292
     0
297
     0
 46
0.18
 94
-1056964608
 47
1.0
 49
1.0
140
1.0
293
     1
141
0.0
294
     1
177
     0
142
1.0
295
     0
296
     0
143
0.125
1001
ACAD_MLEADERVER
1070
     2
  0
MLINESTYLE
  5
17
102
{ACAD_REACTORS
330
16
102
}
330
16
100
AcDbMlineStyle
  2
STANDARD
 70
     0
  3

 62
   256
 51
90.0
 52
90.0
 71
     2
 49
0.5
 62
   256
  6
BYLAYER
 49
-0.5
 62
   256
  6
BYLAYER
  0
ACDBPLACEHOLDER
  5
F
102
{ACAD_REACTORS
330
E
102
}
330
E
  0
SCALE
  5
5F99
102
{ACAD_REACTORS
330
5F98
102
}
330
5F98
100
AcDbScale
 70
     0
300
1:1
140
1.0
141
1.0
290
     1
  0
SCALE
  5
5F9A
102
{ACAD_REACTORS
330
5F98
102
}
330
5F98
100
AcDbScale
 70
     0
300
1/128" = 1'-0"
140
0.0078125
141
12.0
290
     0
  0
SCALE
  5
5F9B
102
{ACAD_REACTORS
330
5F98
102
}
330
5F98
100
AcDbScale
 70
     0
300
1/64" = 1'-0"
140
0.015625
141
12.0
290
     0
  0
SCALE
  5
5F9C
102
{ACAD_REACTORS
330
5F98
102
}
330
5F98
100
AcDbScale
 70
     0
300
1/32" = 1'-0"
140
0.03125
141
12.0
290
     0
  0
SCALE
  5
5F9D
102
{ACAD_REACTORS
330
5F98
102
}
330
5F98
100
AcDbScale
 70
     0
300
1/16" = 1'-0"
140
0.0625
141
12.0
290
     0
  0
SCALE
  5
5F9E
102
{ACAD_REACTORS
330
5F98
102
}
330
5F98
100
AcDbScale
 70
     0
300
3/32" = 1'-0"
140
0.09375
141
12.0
290
     0
  0
SCALE
  5
5F9F
102
{ACAD_REACTORS
330
5F98
102
}
330
5F98
100
AcDbScale
 70
     0
300
1/8" = 1'-0"
140
0.125
141
12.0
290
     0
  0
SCALE
  5
5FA0
102
{ACAD_REACTORS
330
5F98
102
}
330
5F98
100
AcDbScale
 70
     0
300
3/16" = 1'-0"
140
0.1875
141
12.0
290
     0
  0
SCALE
  5
5FA1
102
{ACAD_REACTORS
330
5F98
102
}
330
5F98
100
AcDbScale
 70
     0
300
1/4" = 1'-0"
140
0.25
141
12.0
290
     0
  0
SCALE
  5
5FA2
102
{ACAD_REACTORS
330
5F98
102
}
330
5F98
100
AcDbScale
 70
     0
300
3/8" = 1'-0"
140
0.375
141
12.0
290
     0
  0
SCALE
  5
5FA3
102
{ACAD_REACTORS
330
5F98
102
}
330
5F98
100
AcDbScale
 70
     0
300
1/2" = 1'-0"
140
0.5
141
12.0
290
     0
  0
SCALE
  5
5FA4
102
{ACAD_REACTORS
330
5F98
102
}
330
5F98
100
AcDbScale
 70
     0
300
3/4" = 1'-0"
140
0.75
141
12.0
290
     0
  0
SCALE
  5
5FA5
102
{ACAD_REACTORS
330
5F98
102
}
330
5F98
100
AcDbScale
 70
     0
300
1" = 1'-0"
140
1.0
141
12.0
290
     0
  0
SCALE
  5
5FA6
102
{ACAD_REACTORS
330
5F98
102
}
330
5F98
100
AcDbScale
 70
     0
300
1-1/2" = 1'-0"
140
1.5
141
12.0
290
     0
  0
SCALE
  5
5FA7
102
{ACAD_REACTORS
330
5F98
102
}
330
5F98
100
AcDbScale
 70
     0
300
3" = 1'-0"
140
3.0
141
12.0
290
     0
  0
SCALE
  5
5FA8
102
{ACAD_REACTORS
330
5F98
102
}
330
5F98
100
AcDbScale
 70
     0
300
6" = 1'-0"
140
6.0
141
12.0
290
     0
  0
SCALE
  5
5FA9
102
{ACAD_REACTORS
330
5F98
102
}
330
5F98
100
AcDbScale
 70
     0
300
1'-0" = 1'-0"
140
12.0
141
12.0
290
     0
  0
TABLESTYLE
  5
5F97
102
{ACAD_XDICTIONARY
360
A2CE
102
}
102
{ACAD_REACTORS
330
5F96
102
}
330
5F96
100
AcDbTableStyle
  3
Standard
 70
     0
 71
     0
 40
0.06
 41
0.06
280
     0
281
     0
  7
STANDARD
140
0.18
170
     2
 62
     0
 63
     7
283
     0
274
    -2
284
     1
 64
     0
275
    -2
285
     1
 65
     0
276
    -2
286
     1
 66
     0
277
    -2
287
     1
 67
     0
278
    -2
288
     1
 68
     0
279
    -2
289
     1
 69
     0
  7
STANDARD
140
0.25
170
     5
 62
     0
 63
     7
283
     0
274
    -2
284
     1
 64
     0
275
    -2
285
     1
 65
     0
276
    -2
286
     1
 66
     0
277
    -2
287
     1
 67
     0
278
    -2
288
     1
 68
     0
279
    -2
289
     1
 69
     0
  7
STANDARD
140
0.18
170
     5
 62
     0
 63
     7
283
     0
274
    -2
284
     1
 64
     0
275
    -2
285
     1
 65
     0
276
    -2
286
     1
 66
     0
277
    -2
287
     1
 67
     0
278
    -2
288
     1
 68
     0
279
    -2
289
     1
 69
     0
  0
VISUALSTYLE
  5
5F82
102
{ACAD_XDICTIONARY
360
AA60
102
}
102
{ACAD_REACTORS
330
5F7C
102
}
330
5F7C
100
AcDbVisualStyle
  2
2dWireframe
 70
     4
 71
     0
 72
     2
 73
     0
 90
        0
 40
-0.6
 41
-30.0
 62
     5
 63
     7
421
 16777215
 74
     1
 91
        4
 64
     7
 65
   257
 75
     1
175
     1
 42
1.0
 92
        0
 66
   257
 43
1.0
 76
     1
 77
     6
 78
     2
 67
     7
 79
     5
170
     0
171
     0
290
     0
174
     0
 93
        1
 44
0.0
173
     0
291
     0
 45
0.0
1001
ACAD
1000
AcDbSavedByObjectVersion
1070
     0
  0
VISUALSTYLE
  5
5F81
102
{ACAD_XDICTIONARY
360
AA5E
102
}
102
{ACAD_REACTORS
330
5F7C
102
}
330
5F7C
100
AcDbVisualStyle
  2
Basic
 70
     7
 71
     1
 72
     0
 73
     1
 90
        0
 40
-0.6
 41
-30.0
 62
     5
 63
     7
421
 16777215
 74
     0
 91
        4
 64
     7
 65
   257
 75
     1
175
     1
 42
1.0
 92
        8
 66
     7
 43
1.0
 76
     1
 77
     6
 78
     2
 67
     7
 79
     5
170
     0
171
     0
290
     0
174
     0
 93
        1
 44
0.0
173
     0
291
     1
 45
0.0
1001
ACAD
1000
AcDbSavedByObjectVersion
1070
     0
  0
VISUALSTYLE
  5
5F88
102
{ACAD_XDICTIONARY
360
AA6C
102
}
102
{ACAD_REACTORS
330
5F7C
102
}
330
5F7C
100
AcDbVisualStyle
  2
Brighten
 70
    12
 71
     2
 72
     2
 73
     0
 90
        0
 40
-0.6
 41
-30.0
 62
     5
 63
     7
421
 16777215
 74
     1
 91
        4
 64
     7
 65
   257
 75
     1
175
     1
 42
1.0
 92
        8
 66
     7
 43
1.0
 76
     1
 77
     6
 78
     2
 67
     7
 79
     5
170
     0
171
     0
290
     0
174
     0
 93
        1
 44
50.0
173
     0
291
     1
 45
0.0
1001
ACAD
1000
AcDbSavedByObjectVersion
1070
     0
  0
VISUALSTYLE
  5
5F8C
102
{ACAD_XDICTIONARY
360
AA74
102
}
102
{ACAD_REACTORS
330
5F7C
102
}
330
5F7C
100
AcDbVisualStyle
  2
ColorChange
 70
    16
 71
     2
 72
     2
 73
     3
 90
        0
 40
-0.6
 41
-30.0
 62
     5
 63
     8
421
  8421504
 74
     1
 91
        4
 64
     7
 65
   257
 75
     1
175
     1
 42
1.0
 92
        8
 66
     8
424
  8421504
 43
1.0
 76
     1
 77
     6
 78
     2
 67
     7
 79
     5
170
     0
171
     0
290
     0
174
     0
 93
        1
 44
0.0
173
     0
291
     1
 45
0.0
1001
ACAD
1000
AcDbSavedByObjectVersion
1070
     0
  0
VISUALSTYLE
  5
5F85
102
{ACAD_XDICTIONARY
360
AA66
102
}
102
{ACAD_REACTORS
330
5F7C
102
}
330
5F7C
100
AcDbVisualStyle
  2
Conceptual
 70
     9
 71
     3
 72
     2
 73
     0
 90
        0
 40
-0.6
 41
-30.0
 62
     5
 63
     7
421
 16777215
 74
     2
 91
        2
 64
     7
 65
   257
 75
     1
175
     1
 42
179.0
 92
        8
 66
     7
 43
1.0
 76
     1
 77
     6
 78
     2
 67
     7
 79
     3
170
     0
171
     0
290
     0
174
     0
 93
        1
 44
0.0
173
     0
291
     0
 45
0.0
1001
ACAD
1000
AcDbSavedByObjectVersion
1070
     0
  0
VISUALSTYLE
  5
5F87
102
{ACAD_XDICTIONARY
360
AA6A
102
}
102
{ACAD_REACTORS
330
5F7C
102
}
330
5F7C
100
AcDbVisualStyle
  2
Dim
 70
    11
 71
     2
 72
     2
 73
     0
 90
        0
 40
-0.6
 41
-30.0
 62
     5
 63
     7
421
 16777215
 74
     1
 91
        4
 64
     7
 65
   257
 75
     1
175
     1
 42
1.0
 92
        8
 66
     7
 43
1.0
 76
     1
 77
     6
 78
     2
 67
     7
 79
     5
170
     0
171
     0
290
     0
174
     0
 93
        1
 44
-50.0
173
     0
291
     1
 45
0.0
1001
ACAD
1000
AcDbSavedByObjectVersion
1070
     0
  0
VISUALSTYLE
  5
5F94
102
{ACAD_XDICTIONARY
360
AA84
102
}
102
{ACAD_REACTORS
330
5F7C
102
}
330
5F7C
100
AcDbVisualStyle
  2
EdgeColorOff
 70
    22
 71
     2
 72
     2
 73
     0
 90
        0
 40
-0.6
 41
-30.0
 62
     5
 63
     7
421
 16777215
 74
     1
 91
        4
 64
     7
 65
   257
 75
     1
175
     1
 42
1.0
 92
        8
 66
     7
 43
1.0
 76
     1
 77
     6
 78
     2
 67
     7
 79
     5
170
     0
171
     0
290
     0
174
     0
 93
        1
 44
0.0
173
     0
291
     1
 45
0.0
1001
ACAD
1000
AcDbSavedByObjectVersion
1070
     0
  0
VISUALSTYLE
  5
5F8B
102
{ACAD_XDICTIONARY
360
AA72
102
}
102
{ACAD_REACTORS
330
5F7C
102
}
330
5F7C
100
AcDbVisualStyle
  2
Facepattern
 70
    15
 71
     2
 72
     2
 73
     0
 90
        0
 40
-0.6
 41
-30.0
 62
     5
 63
     7
421
 16777215
 74
     1
 91
        4
 64
     7
 65
   257
 75
     1
175
     1
 42
1.0
 92
        8
 66
     7
 43
1.0
 76
     1
 77
     6
 78
     2
 67
     7
 79
     5
170
     0
171
     0
290
     0
174
     0
 93
        1
 44
0.0
173
     0
291
     1
 45
0.0
1001
ACAD
1000
AcDbSavedByObjectVersion
1070
     0
  0
VISUALSTYLE
  5
5F7D
102
{ACAD_XDICTIONARY
360
AA56
102
}
102
{ACAD_REACTORS
330
5F7C
102
}
330
5F7C
100
AcDbVisualStyle
  2
Flat
 70
     0
 71
     2
 72
     1
 73
     1
 90
        2
 40
-0.6
 41
30.0
 62
     5
 63
     7
421
 16777215
 74
     0
 91
        0
 64
     7
 65
   257
 75
     1
175
     1
 42
1.0
 92
        8
 66
     7
 43
1.0
 76
     1
 77
     6
 78
     2
 67
     7
 79
     5
170
     0
171
     0
290
     0
174
     0
 93
       13
 44
0.0
173
     0
291
     1
 45
0.0
1001
ACAD
1000
AcDbSavedByObjectVersion
1070
     0
  0
VISUALSTYLE
  5
5F7E
102
{ACAD_XDICTIONARY
360
AA58
102
}
102
{ACAD_REACTORS
330
5F7C
102
}
330
5F7C
100
AcDbVisualStyle
  2
FlatWithEdges
 70
     1
 71
     2
 72
     1
 73
     1
 90
        2
 40
-0.6
 41
30.0
 62
     5
 63
     7
421
 16777215
 74
     1
 91
        0
 64
     7
 65
   257
 75
     1
175
     1
 42
1.0
 92
        0
 66
   257
 43
1.0
 76
     1
 77
     6
 78
     2
 67
     7
 79
     5
170
     0
171
     0
290
     0
174
     0
 93
       13
 44
0.0
173
     0
291
     1
 45
0.0
1001
ACAD
1000
AcDbSavedByObjectVersion
1070
     0
  0
VISUALSTYLE
  5
5F7F
102
{ACAD_XDICTIONARY
360
AA5A
102
}
102
{ACAD_REACTORS
330
5F7C
102
}
330
5F7C
100
AcDbVisualStyle
  2
Gouraud
 70
     2
 71
     2
 72
     2
 73
     1
 90
        2
 40
-0.6
 41
30.0
 62
     5
 63
     7
421
 16777215
 74
     0
 91
        0
 64
     7
 65
   257
 75
     1
175
     1
 42
1.0
 92
        0
 66
     7
 43
1.0
 76
     1
 77
     6
 78
     2
 67
     7
 79
     5
170
     0
171
     0
290
     0
174
     0
 93
       13
 44
0.0
173
     0
291
     1
 45
0.0
1001
ACAD
1000
AcDbSavedByObjectVersion
1070
     0
  0
VISUALSTYLE
  5
5F80
102
{ACAD_XDICTIONARY
360
AA5C
102
}
102
{ACAD_REACTORS
330
5F7C
102
}
330
5F7C
100
AcDbVisualStyle
  2
GouraudWithEdges
 70
     3
 71
     2
 72
     2
 73
     1
 90
        2
 40
-0.6
 41
30.0
 62
     5
 63
     7
421
 16777215
 74
     1
 91
        0
 64
     7
 65
   257
 75
     1
175
     1
 42
1.0
 92
        0
 66
   257
 43
1.0
 76
     1
 77
     6
 78
     2
 67
     7
 79
     5
170
     0
171
     0
290
     0
174
     0
 93
       13
 44
0.0
173
     0
291
     1
 45
0.0
1001
ACAD
1000
AcDbSavedByObjectVersion
1070
     0
  0
VISUALSTYLE
  5
5F84
102
{ACAD_XDICTIONARY
360
AA64
102
}
102
{ACAD_REACTORS
330
5F7C
102
}
330
5F7C
100
AcDbVisualStyle
  2
Hidden
 70
     6
 71
     1
 72
     2
 73
     2
 90
        0
 40
-0.6
 41
-30.0
 62
     5
 63
     7
421
 16777215
 74
     2
 91
        2
 64
     7
 65
   257
 75
     2
175
     1
 42
40.0
 92
        0
 66
   257
 43
1.0
 76
     1
 77
     6
 78
     2
 67
     7
 79
     3
170
     0
171
     0
290
     0
174
     0
 93
        1
 44
0.0
173
     0
291
     0
 45
0.0
1001
ACAD
1000
AcDbSavedByObjectVersion
1070
     0
  0
VISUALSTYLE
  5
5F92
102
{ACAD_XDICTIONARY
360
AA80
102
}
102
{ACAD_REACTORS
330
5F7C
102
}
330
5F7C
100
AcDbVisualStyle
  2
JitterOff
 70
    20
 71
     2
 72
     2
 73
     0
 90
        0
 40
-0.6
 41
-30.0
 62
     5
 63
     7
421
 16777215
 74
     1
 91
        4
 64
     7
 65
   257
 75
     1
175
     1
 42
1.0
 92
       10
 66
     7
 43
1.0
 76
     1
 77
     6
 78
     2
 67
     7
 79
     5
170
     0
171
     0
290
     0
174
     0
 93
        1
 44
0.0
173
     0
291
     1
 45
0.0
1001
ACAD
1000
AcDbSavedByObjectVersion
1070
     0
  0
VISUALSTYLE
  5
5F8A
102
{ACAD_XDICTIONARY
360
AA70
102
}
102
{ACAD_REACTORS
330
5F7C
102
}
330
5F7C
100
AcDbVisualStyle
  2
Linepattern
 70
    14
 71
     2
 72
     2
 73
     0
 90
        0
 40
-0.6
 41
-30.0
 62
     5
 63
     7
421
 16777215
 74
     1
 91
        4
 64
     7
 65
   257
 75
     7
175
     7
 42
1.0
 92
        8
 66
     7
 43
1.0
 76
     1
 77
     6
 78
     2
 67
     7
 79
     5
170
     0
171
     0
290
     0
174
     0
 93
        1
 44
0.0
173
     0
291
     1
 45
0.0
1001
ACAD
1000
AcDbSavedByObjectVersion
1070
     0
  0
VISUALSTYLE
  5
5F93
102
{ACAD_XDICTIONARY
360
AA82
102
}
102
{ACAD_REACTORS
330
5F7C
102
}
330
5F7C
100
AcDbVisualStyle
  2
OverhangOff
 70
    21
 71
     2
 72
     2
 73
     0
 90
        0
 40
-0.6
 41
-30.0
 62
     5
 63
     7
421
 16777215
 74
     1
 91
        4
 64
     7
 65
   257
 75
     1
175
     1
 42
1.0
 92
        9
 66
     7
 43
1.0
 76
     1
 77
     6
 78
     2
 67
     7
 79
     5
170
     0
171
     0
290
     0
174
     0
 93
        1
 44
0.0
173
     0
291
     1
 45
0.0
1001
ACAD
1000
AcDbSavedByObjectVersion
1070
     0
  0
VISUALSTYLE
  5
5F86
102
{ACAD_XDICTIONARY
360
AA68
102
}
102
{ACAD_REACTORS
330
5F7C
102
}
330
5F7C
100
AcDbVisualStyle
  2
Realistic
 70
     8
 71
     2
 72
     2
 73
     0
 90
        2
 40
-0.6
 41
30.0
 62
     5
 63
     7
421
 16777215
 74
     0
 91
        0
 64
     7
 65
   257
 75
     1
175
     1
 42
1.0
 92
        8
 66
   257
 43
1.0
 76
     1
 77
     6
 78
     2
 67
     7
 79
     3
170
     0
171
     0
290
     0
174
     0
 93
       13
 44
0.0
173
     0
291
     0
 45
0.0
1001
ACAD
1000
AcDbSavedByObjectVersion
1070
     0
  0
VISUALSTYLE
  5
5F91
102
{ACAD_XDICTIONARY
360
AA7E
102
}
102
{ACAD_REACTORS
330
5F7C
102
}
330
5F7C
100
AcDbVisualStyle
  2
Shaded
 70
    27
 71
     2
 72
     2
 73
     1
 90
        2
 40
-0.6
 41
30.0
 62
     5
 63
     7
421
 16777215
 74
     0
 91
        4
 64
     7
 65
   257
 75
     1
175
     1
 42
1.0
 92
        8
 66
   257
 43
1.0
 76
     1
 77
     6
 78
     2
 67
     8
425
  7895160
 79
     3
170
     0
171
     0
290
     0
174
     0
 93
        5
 44
0.0
173
     0
291
     0
 45
0.0
1001
ACAD
1000
AcDbSavedByObjectVersion
1070
     0
  0
VISUALSTYLE
  5
5F90
102
{ACAD_XDICTIONARY
360
AA7C
102
}
102
{ACAD_REACTORS
330
5F7C
102
}
330
5F7C
100
AcDbVisualStyle
  2
Shaded with edges
 70
    26
 71
     2
 72
     2
 73
     1
 90
        2
 40
-0.6
 41
30.0
 62
     5
 63
     7
421
 16777215
 74
     1
 91
       10
 64
     7
 65
   257
 75
     2
175
     1
 42
1.0
 92
        8
 66
   257
 43
1.0
 76
     1
 77
     6
 78
     2
 67
     7
 79
     3
170
     0
171
     0
290
     0
174
     0
 93
        5
 44
0.0
173
     0
291
     0
 45
0.0
1001
ACAD
1000
AcDbSavedByObjectVersion
1070
     0
  0
VISUALSTYLE
  5
5F8D
102
{ACAD_XDICTIONARY
360
AA76
102
}
102
{ACAD_REACTORS
330
5F7C
102
}
330
5F7C
100
AcDbVisualStyle
  2
Shades of Gray
 70
    23
 71
     2
 72
     2
 73
     3
 90
        0
 40
-0.6
 41
-30.0
 62
     5
 63
     7
421
 16777215
 74
     2
 91
        2
 64
     7
 65
     7
 75
     1
175
     1
 42
40.0
 92
        8
 66
     7
 43
1.0
 76
     1
 77
     6
 78
     2
 67
     7
 79
     3
170
     0
171
     0
290
     0
174
     0
 93
        1
 44
0.0
173
     0
291
     0
 45
0.0
1001
ACAD
1000
AcDbSavedByObjectVersion
1070
     0
  0
VISUALSTYLE
  5
5F8E
102
{ACAD_XDICTIONARY
360
AA78
102
}
102
{ACAD_REACTORS
330
5F7C
102
}
330
5F7C
100
AcDbVisualStyle
  2
Sketchy
 70
    24
 71
     1
 72
     2
 73
     2
 90
        0
 40
-0.6
 41
-30.0
 62
     5
 63
     7
421
 16777215
 74
     2
 91
        2
 64
     7
 65
     7
 75
     1
175
     1
 42
40.0
 92
       11
 66
     7
 43
1.0
 76
     1
 77
     6
 78
     2
 67
     7
 79
     6
170
     0
171
     0
290
     0
174
     0
 93
        1
 44
0.0
173
     0
291
     0
 45
0.0
1001
ACAD
1000
AcDbSavedByObjectVersion
1070
     0
  0
VISUALSTYLE
  5
5F89
102
{ACAD_XDICTIONARY
360
AA6E
102
}
102
{ACAD_REACTORS
330
5F7C
102
}
330
5F7C
100
AcDbVisualStyle
  2
Thicken
 70
    13
 71
     2
 72
     2
 73
     0
 90
        0
 40
-0.6
 41
-30.0
 62
     5
 63
     7
421
 16777215
 74
     1
 91
        4
 64
     7
 65
   257
 75
     1
175
     1
 42
1.0
 92
       12
 66
     7
 43
1.0
 76
     1
 77
     6
 78
     2
 67
     7
 79
     5
170
     0
171
     0
290
     0
174
     0
 93
        1
 44
0.0
173
     0
291
     1
 45
0.0
1001
ACAD
1000
AcDbSavedByObjectVersion
1070
     0
  0
VISUALSTYLE
  5
5F83
102
{ACAD_XDICTIONARY
360
AA62
102
}
102
{ACAD_REACTORS
330
5F7C
102
}
330
5F7C
100
AcDbVisualStyle
  2
Wireframe
 70
     5
 71
     0
 72
     2
 73
     0
 90
        0
 40
-0.6
 41
-30.0
 62
     5
 63
     7
421
 16777215
 74
     1
 91
        4
 64
     7
 65
   257
 75
     1
175
     1
 42
1.0
 92
        0
 66
   257
 43
1.0
 76
     1
 77
     6
 78
     2
 67
     7
 79
     3
170
     0
171
     0
290
     0
174
     0
 93
        1
 44
0.0
173
     0
291
     0
 45
0.0
1001
ACAD
1000
AcDbSavedByObjectVersion
1070
     0
  0
VISUALSTYLE
  5
5F8F
102
{ACAD_XDICTIONARY
360
AA7A
102
}
102
{ACAD_REACTORS
330
5F7C
102
}
330
5F7C
100
AcDbVisualStyle
  2
X-Ray
 70
    25
 71
     2
 72
     2
 73
     1
 90
        1
 40
0.5
 41
-30.0
 62
     5
 63
     7
421
 16777215
 74
     1
 91
        0
 64
     7
 65
   257
 75
     1
175
     1
 42
1.0
 92
        8
 66
     7
 43
1.0
 76
     1
 77
     6
 78
     2
 67
     7
 79
     3
170
     0
171
     0
290
     0
174
     0
 93
       13
 44
0.0
173
     0
291
     0
 45
0.0
1001
ACAD
1000
AcDbSavedByObjectVersion
1070
     0
  0
DICTIONARYVAR
  5
69AA
102
{ACAD_REACTORS
330
169
102
}
330
169
100
DictionaryVariables
280
     0
  1
1:1
  0
DICTIONARYVAR
  5
69A8
102
{ACAD_REACTORS
330
169
102
}
330
169
100
DictionaryVariables
280
     0
  1
STANDARD
  0
DICTIONARYVAR
  5
69A7
102
{ACAD_REACTORS
330
169
102
}
330
169
100
DictionaryVariables
280
     0
  1
STANDARD
  0
DICTIONARYVAR
  5
16A
102
{ACAD_REACTORS
330
169
102
}
330
169
100
DictionaryVariables
280
     0
  1
1
  0
DICTIONARYVAR
  5
69AC
102
{ACAD_REACTORS
330
169
102
}
330
169
100
DictionaryVariables
280
     0
  1
1
  0
DICTIONARYVAR
  5
69AD
102
{ACAD_REACTORS
330
169
102
}
330
169
100
DictionaryVariables
280
     0
  1
15
  0
DICTIONARYVAR
  5
69AB
102
{ACAD_REACTORS
330
169
102
}
330
169
100
DictionaryVariables
280
     0
  1
0
  0
DICTIONARYVAR
  5
69A9
102
{ACAD_REACTORS
330
169
102
}
330
169
100
DictionaryVariables
280
     0
  1
0
  0
DICTIONARYVAR
  5
AA4E
102
{ACAD_REACTORS
330
169
102
}
330
169
100
DictionaryVariables
280
     0
  1
2
  0
XRECORD
  5
177
102
{ACAD_REACTORS
330
176
102
}
330
176
100
AcDbXrecord
280
     1
 91
      476
330
179
 90
        8
 62
     7
370
    -3
331
15
  1
Color_7
330
178
 90
        8
 62
     7
370
    -3
331
15
  1
Color_7
330
128
 90
        0
 62
     7
370
    -3
331
15
  1
Color_7
330
10
 90
        8
 62
     7
370
    -3
331
15
  1
Color_7
  0
DICTIONARY
  5
656E
330
21
100
AcDbDictionary
280
     1
281
     1
  3
ADSK_XREC_LAYOUTTHUMBNAIL
360
656F
  0
DICTIONARY
  5
5F6D
330
5F6C
100
AcDbDictionary
280
     1
281
     1
  3
ACAD_XREC_ROUNDTRIP
360
AA54
  3
BUMPTILE
360
5F6F
  3
DIFFUSETILE
360
5F6E
  3
OPACITYTILE
360
5F72
  3
REFLECTIONTILE
360
5F71
  3
REFRACTIONTILE
360
5F73
  3
SPECULARTILE
360
5F70
  0
DICTIONARY
  5
5F65
330
5F64
100
AcDbDictionary
280
     1
281
     1
  3
ACAD_XREC_ROUNDTRIP
360
AA53
  3
BUMPTILE
360
5F67
  3
DIFFUSETILE
360
5F66
  3
OPACITYTILE
360
5F6A
  3
REFLECTIONTILE
360
5F69
  3
REFRACTIONTILE
360
5F6B
  3
SPECULARTILE
360
5F68
  0
DICTIONARY
  5
5F75
330
5F74
100
AcDbDictionary
280
     1
281
     1
  3
ACAD_XREC_ROUNDTRIP
360
AA55
  3
BUMPTILE
360
5F77
  3
DIFFUSETILE
360
5F76
  3
OPACITYTILE
360
5F7A
  3
REFLECTIONTILE
360
5F79
  3
REFRACTIONTILE
360
5F7B
  3
SPECULARTILE
360
5F78
  0
DICTIONARY
  5
AA50
330
5FAB
100
AcDbDictionary
280
     1
281
     1
  3
ACAD_XREC_ROUNDTRIP
360
AA51
  0
DICTIONARY
  5
A2CE
330
5F97
100
AcDbDictionary
280
     1
281
     1
  3
ACAD_ROUNDTRIP_2008_TABLESTYLE_CELLSTYLEMAP
360
AA4F
  3
ACAD_XREC_ROUNDTRIP
360
AA86
  0
DICTIONARY
  5
AA60
330
5F82
100
AcDbDictionary
280
     1
281
     1
  3
ACAD_XREC_ROUNDTRIP
360
AA61
  0
DICTIONARY
  5
AA5E
330
5F81
100
AcDbDictionary
280
     1
281
     1
  3
ACAD_XREC_ROUNDTRIP
360
AA5F
  0
DICTIONARY
  5
AA6C
330
5F88
100
AcDbDictionary
280
     1
281
     1
  3
ACAD_XREC_ROUNDTRIP
360
AA6D
  0
DICTIONARY
  5
AA74
330
5F8C
100
AcDbDictionary
280
     1
281
     1
  3
ACAD_XREC_ROUNDTRIP
360
AA75
  0
DICTIONARY
  5
AA66
330
5F85
100
AcDbDictionary
280
     1
281
     1
  3
ACAD_XREC_ROUNDTRIP
360
AA67
  0
DICTIONARY
  5
AA6A
330
5F87
100
AcDbDictionary
280
     1
281
     1
  3
ACAD_XREC_ROUNDTRIP
360
AA6B
  0
DICTIONARY
  5
AA84
330
5F94
100
AcDbDictionary
280
     1
281
     1
  3
ACAD_XREC_ROUNDTRIP
360
AA85
  0
DICTIONARY
  5
AA72
330
5F8B
100
AcDbDictionary
280
     1
281
     1
  3
ACAD_XREC_ROUNDTRIP
360
AA73
  0
DICTIONARY
  5
AA56
330
5F7D
100
AcDbDictionary
280
     1
281
     1
  3
ACAD_XREC_ROUNDTRIP
360
AA57
  0
DICTIONARY
  5
AA58
330
5F7E
100
AcDbDictionary
280
     1
281
     1
  3
ACAD_XREC_ROUNDTRIP
360
AA59
  0
DICTIONARY
  5
AA5A
330
5F7F
100
AcDbDictionary
280
     1
281
     1
  3
ACAD_XREC_ROUNDTRIP
360
AA5B
  0
DICTIONARY
  5
AA5C
330
5F80
100
AcDbDictionary
280
     1
281
     1
  3
ACAD_XREC_ROUNDTRIP
360
AA5D
  0
DICTIONARY
  5
AA64
330
5F84
100
AcDbDictionary
280
     1
281
     1
  3
ACAD_XREC_ROUNDTRIP
360
AA65
  0
DICTIONARY
  5
AA80
330
5F92
100
AcDbDictionary
280
     1
281
     1
  3
ACAD_XREC_ROUNDTRIP
360
AA81
  0
DICTIONARY
  5
AA70
330
5F8A
100
AcDbDictionary
280
     1
281
     1
  3
ACAD_XREC_ROUNDTRIP
360
AA71
  0
DICTIONARY
  5
AA82
330
5F93
100
AcDbDictionary
280
     1
281
     1
  3
ACAD_XREC_ROUNDTRIP
360
AA83
  0
DICTIONARY
  5
AA68
330
5F86
100
AcDbDictionary
280
     1
281
     1
  3
ACAD_XREC_ROUNDTRIP
360
AA69
  0
DICTIONARY
  5
AA7E
330
5F91
100
AcDbDictionary
280
     1
281
     1
  3
ACAD_XREC_ROUNDTRIP
360
AA7F
  0
DICTIONARY
  5
AA7C
330
5F90
100
AcDbDictionary
280
     1
281
     1
  3
ACAD_XREC_ROUNDTRIP
360
AA7D
  0
DICTIONARY
  5
AA76
330
5F8D
100
AcDbDictionary
280
     1
281
     1
  3
ACAD_XREC_ROUNDTRIP
360
AA77
  0
DICTIONARY
  5
AA78
330
5F8E
100
AcDbDictionary
280
     1
281
     1
  3
ACAD_XREC_ROUNDTRIP
360
AA79
  0
DICTIONARY
  5
AA6E
330
5F89
100
AcDbDictionary
280
     1
281
     1
  3
ACAD_XREC_ROUNDTRIP
360
AA6F
  0
DICTIONARY
  5
AA62
330
5F83
100
AcDbDictionary
280
     1
281
     1
  3
ACAD_XREC_ROUNDTRIP
360
AA63
  0
DICTIONARY
  5
AA7A
330
5F8F
100
AcDbDictionary
280
     1
281
     1
  3
ACAD_XREC_ROUNDTRIP
360
AA7B
  0
XRECORD
  5
656F
102
{ACAD_REACTORS
330
656E
102
}
330
656E
100
AcDbXrecord
280
     1
310
280000000001000065000000010008000000000000650000000000000000000000010000000000003028210000000000FFFFFF000000000000000000000000000000000000000000000000000000000000000000330000006600000099000000CC000000FF00000000330000333300006633000099330000CC330000FF3300
310
0000660000336600006666000099660000CC660000FF66000000990000339900006699000099990000CC990000FF99000000CC000033CC000066CC000099CC0000CCCC0000FFCC000000FF000033FF000066FF000099FF0000CCFF0000FFFF000000003300330033006600330099003300CC003300FF003300003333003333
310
33006633330099333300CC333300FF33330000663300336633006666330099663300CC663300FF66330000993300339933006699330099993300CC993300FF99330000CC330033CC330066CC330099CC3300CCCC3300FFCC330000FF330033FF330066FF330099FF3300CCFF3300FFFF330000006600330066006600660099
310
006600CC006600FF00660000336600333366006633660099336600CC336600FF33660000666600336666006666660099666600CC666600FF66660000996600339966006699660099996600CC996600FF99660000CC660033CC660066CC660099CC6600CCCC6600FFCC660000FF660033FF660066FF660099FF6600CCFF6600
310
FFFF660000009900330099006600990099009900CC009900FF00990000339900333399006633990099339900CC339900FF33990000669900336699006666990099669900CC669900FF66990000999900339999006699990099999900CC999900FF99990000CC990033CC990066CC990099CC9900CCCC9900FFCC990000FF99
310
0033FF990066FF990099FF9900CCFF9900FFFF99000000CC003300CC006600CC009900CC00CC00CC00FF00CC000033CC003333CC006633CC009933CC00CC33CC00FF33CC000066CC003366CC006666CC009966CC00CC66CC00FF66CC000099CC003399CC006699CC009999CC00CC99CC00FF99CC0000CCCC0033CCCC0066CC
310
CC0099CCCC00CCCCCC00FFCCCC0000FFCC0033FFCC0066FFCC0099FFCC00CCFFCC00FFFFCC000000FF003300FF006600FF009900FF00CC00FF00FF00FF000033FF003333FF006633FF009933FF00CC33FF00FF33FF000066FF003366FF006666FF009966FF00CC66FF00FF66FF000099FF003399FF006699FF009999FF00CC
310
99FF00FF99FF0000CCFF0033CCFF0066CCFF0099CCFF00CCCCFF00FFCCFF0000FFFF0033FFFF0066FFFF0099FFFF00CCFFFF00FFFFFF00000000000D0D0D001A1A1A00282828003535350043434300505050005D5D5D006B6B6B00787878008686860093939300A1A1A100AEAEAE00BBBBBB00C9C9C900D6D6D600E4E4E400
310
F1F1F100FFFFFF000000000000000000000000000000000000000000000000000000000000000000000000000000000000000000000000000000000000000000000000000000000000000000000000000000000000000000000000000000000000000000000000000000000000F50000000000000000000000000000000000
310
00000000000000000000000000000000000000000000000000000000000000000000000000000000000000000000000000000000000000000000000000000000000000000000000000000000000000000000000000000000000000000000000000000000000000000000000000F50000000000000000000000000000000000
310
000000000000000000000000000000000000000000000000000000000000000000000000000000000000000000000000000000000000000000000000000000000000000000000000000000000000000000000000000000000000000000000000000000000000000000000000000000F5000000000000000000000000000000
310
000000000000000000000000000000000000000000000000000000000000000000000000000000000000000000000000000000000000000000000000000000000000000000000000000000000000000000000000000000000000000000000000000000000000000000000000000000F5000000000000000000000000000000
310
0000000000000000000000000000000000000000000000000000000000000000000000000000000000000000000000000000000000000000000000000000000000000000000000000000000000000000000000000000000000000000000000000000000000000000000000000000000000F500000000000000000000000000
310
0000000000000000000000000000000000000000000000000000000000000000000000000000000000000000000000000000000000000000000000000000000000000000000000000000000000000000000000000000000000000000000000000000000000000000000000000000000000F500000000000000000000000000
310
000000000000000000000000000000000000000000000000000000000000000000000000000000000000000000000000000000000000000000000000000000000000000000000000000000000000000000000000000000000000000000000000000000000000000000000000000000002D2D2D2D2D2D2D2D00000000000000
310
000000000000000000000000000000000000000000000000000000000000000000000000000000000000000000000000000000000000000000000000000000000000000000000000000000000000000000000000000000000000000000000000000000000000000000000000000000002D2D2D2D2D2D2D2D00000000000000
310
0000000000000000000000000000000000000000000000000000000000000000000000000000000000000000000000000000000000000000000000000000000000000000000000000000000000000000000000000000000000000000000000000000000000000000000000000000000000002DC3C3F5C3C3C32D0000000000
310
0000000000000000000000000000000000000000000000000000000000000000000000000000000000000000000000000000000000000000000000000000000000000000000000000000000000000000000000000000000000000000000000000000000000000000000000000000000000002DC3C3F5C3C3C32D0000000000
310
00000000000000000000000000000000000000000000000000000000000000000000000000000000000000000000000000000000000000000000000000000000000000000000000000000000000000000000000000000000000000000000000000000000000000000000000000000000000000002D2D282D2D28C32D000000
310
00000000000000000000000000000000000000000000000000000000000000000000000000000000000000000000000000000000000000000000000000000000000000000000000000000000000000000000000000000000000000000000000000000000000000000000000000000000000000002D2D282D2D28C32D000000
310
000000000000000000000000000000000000000000000000000000000000000000000000000000000000000000000000000000000000000000000000000000000000000000000000000000002800000000280000000028000000000000000000000000000000000000000000000000000000000000002D2D28F50028C32D00
310
000000000000000000000000000000002800000028000000002800000000000000000000000000000000000000000000000000000000000000000000000000280000000028000000280000000000000000000000000000000000000000000000000000000000000000000000000000000000000000002D2D28F50028C32D00
310
0000000000000000000028000000002800000000280000000000000000000000000000000000000000000000000000000000000000000000000000000000000000000000000000000000000000000028000000002800000000280000000000000000000000000000000000000000000000000000000000002D2D28000028C3
310
2D00000000000000000000000000000000000028000000280000000028000000000000000000000000000000000000000000000000000000000000000000000000002800000000280000002800000000000000000000000000000000000000000000000000000000000000000000000000000000000000002D2D28000028C3
310
2D000000000000000000000000280000000028000000002800000000000000000000000000000000000000000000000000000000000000000000000000000000000000000000000000000000000000000000280000000028000000002800000000000000000000000000000000000000000000000000000000002D2D28F500
310
28C32D00000000000000000000000000000000000000280000002800000000280000000000000000000000000000000000000000000000000000000000000000000000000028000000002800000028000000000000000000000000000000000000000000000000000000000000000000000000000000000000002D2D28F500
310
28C32D000000000000000000000000002800000000280000000028000000000000000000000000000000000000000000000000000000000000000000000000000000000000000000000000000000000000000000002800000000280000000028000000000000000000000000000000000000000000000000000000002D2D28
310
F50028C32D00000000000000000000000000000000000000002800000028000000002800000000000000000000000000000000000000000000000000000000000000000000000000280000000028000000280000000000000000000000000000000000000000000000000000000000000000000000000000000000002D2D28
310
F50028C32D000000000000000000000000000028000000002800000000280000000000000000000000000000000000000000000000000000000000000000000000000000000000000000000000000000000000000000000028000000002800000000280000000000000000000000000000000000000000000000000000002D
310
2D28F50028C32D00000000000000000000000000000000000000000028000000280000000028000000000000000000000000000000000000000000000000000000000000000000000000002800000000280000002800000000000000000000000000000000000000000000000000000000000000000000000000000000002D
310
2D28F50028C32D000000000000000000000000000000280000000028000000002800000000000000000000000000000000000000000000000000000000000000000000000000000000000000000000000000000000000000000000280000002800000000280000000000000000000000000000000000000000000000000000
310
002D2D28F50028C32D00000000000000000000000000000000000000000028000000002800000028000000000000000000000000000000000000000000000000000000000000000000000000002800000000280000000028000000000000000000000000000000000000000000000000000000000000000000000000000000
310
002D2D28F50028C32D00000000000000000000000000000000280000002800000000280000000000000000000000000000000000000000000000000000000000000000000000000000000000000000000000000000000000000000000000280000002800000000280000000000000000000000000000000000000000000000
310
0000002D2D28F50028C32D0000000000000000000000000000000000000000000028000000002800000028000000000000000000000000000000000000000000000000000000000000000000000000002800000000280000000028000000000000000000000000000000000000000000000000000000000000000000000000
310
0000002D2D28F50028C32D0000000000000000000000000000000000280000002800000000280000000000000000000000000000000000000000000000000000000000000000000000000000000000000000000000000000000000000000000000280000002800000000280000000000000000000000000000000000000000
310
00000000002D2D28F50028C32D000000000000000000000000000000000000000000000028000000002800000028000000000000000000000000000000000000000000000000000000000000000000000000002800000000280000000028000000000000000000000000000000000000000000000000000000000000000000
310
00000000002D2D28F50028C32D000000000000000000000000000000000000280000002800000000280000000000000000000000000000000000000000000000000000000000000000000000000000000000000000000000000000000000000000000000280000002800000000280000000000000000000000000000000000
310
000000000000002D2D28F50028C32D00000000000000000000000000000000000000000000000028000000002800000028000000000000000000000000000000000000000000000000000000000000000000000000002800000000280000000028000000000000000000000000000000000000000000000000000000000000
310
000000000000002D2D28F50028C32D000000000000000000000000000000000000002800000028000000002800000000000000000000000000000000000000000000002D0000000000000000000000000000000000000000002D2D2D2D2D2D2D2D2D2D2D2D2D2D282D2D2D282D2D2D2D282D2D2D2D2D2D2D2D2D2D2D2D2D2D
310
2D2D2D2D2D2D2D2D2D2D2D2D2D2D2D2D2D2D2D2D2D2D2D2D2D2D2D2D2D2D2D2D2D2D2D2D2D2D2D2D2D2D282D2D2D2D282D2D2D282D2D2D2D2D2D2D2D2D2D2D2D0000000000002D2D2D2D2D2D2D2D2D2D2D2D2D2D2D2D2D2D2D2D2D2D2D2D2D2D2D2D2D2D2D2D2D2D2D2D2D2D2D2D2D2D2D2D2D2D2D2D2D2D2D2D2D2D2D2D2D
310
2D2D2D2D2D2D2D2D2D2D2D2D2D2D2D2D2D2D2D2D2D2D2D2D2D2D2D2D2D2D2D2D2D2D2D2D2D2D2D2D2D2D2D2D2D2D2D2D2D2D2D2D2D2D2D2DF52D2D2D2D2D2D2D2D2D2D2D2D2D000000000000000000000000000000000000000000000000000000000000000000000000000000000000000000000000000000000000000000
310
0000000000000000000000002D28F5002D0000000000000000000000000000000000000000000000000000000000000000000000000000000000000000000000000000000000000000000000000000000000000000000000000000000000000000000000000000000000000000000000000000000000000000000000000000
310
0000000000000000000000002D28F5002D0000000000000000000000000000000000000000000000000000000000000000000000000000000000000000000000000000000000002D00000000000000000000000000000000000000000000000000000000000000000000000000000000000000000000000000000000000000
310
00000000000000000000000000002D2800002D000000000000000000000000000000000000000000000000000000000000000000000000000000000000000000000000000000000000000000000000000000000000000000000000000000000000000000000000000000000000000000000000000000000000000000000000
310
00000000000000000000000000002D2800002D0000000000000000000000000000000000000000000000000000000000000000000000000000000000000000000000000000000000002D0000000000000000000000000000000000000000000000000000000000000000000000000000000000000000000000000000000000
310
000000000000000000000000000000002D28F5002D00000000000000000000000000000000000000000000000000000000000000000000000000000000000000000000000000000000000000000000000000000000000000000000000000000000000000000000000000000000000000000000000000000000000000000000
310
000000000000000000000000000000002D28F5002D0000000000000000000000000000000000000000000000000000000000000000000000000000000000000000000000000000000000002D000000000000000000000000000000000000000000000000000000000000000000000000000000000000000000000000000000
310
0000000000000000000000000000000000002D28F5002D00000000000000000000F5F5F5F5F5F5F5F5F5F5F5F5F5F5F5F5F5F5F5F5F5F5F5F5F5F5F500000000000000000000000000000000000000000000000000000000000000000000000000000000000000000000000000000000000000000000000000000000000000
310
0000000000000000000000000000000000002D28F5002D0000000000000000000000000000000000000000000000000000000000000000000000000000000000000000000000000000000000002D00000000000000000000000000000000000000000000000000000000000000000000000000000000000000000000000000
310
00000000000000000000000000000000000000F52D28F5002D000000000000000000F500F50000F500F500F5F500F500F5F500F5F5F5F500F5F5F5F5F5000000000000000000000000000000000000000000000000000000000000000000000000000000000000000000000000000000000000000000000000000000000000
310
00000000000000000000000000000000000000F52D28F5002D0000000000000000000000000000000000000000000000000000000000000000000000000000000000000000000000000000000000002D000000000000000000000000000000000000000000000000000000000000000000000000000000F5F5F5F5F5F5F5F5
310
F5F5F5F5F5F5F5F5F5F5F5F5F5F5F5F5F5F5F5F5F5F52D2D2D2D2D2D0000000000000000F50000F5F5F50000F5F5F5F5F5F5F5F5F5F5F500F5F500F5F5F5F500000000000000000000000000000000000000000000000000000000000000000000000000000000000000000000000000000000000000F5F5F5F5F5F5F5F5F5
310
F5F5F5F5F5F5F5F5F5F5F5F5F5F5F5F5F5F5F5F5F5F52D28F52D2D0000000000000000000000000000000000000000000000000000000000000000000000000000000000000000000000000000000000002D000000000000000000000000000000000000000000000000000000000000000000000000000000F5F5F5F5F5F5
310
F5F5F5F500F50000F5F5F5F5F5F5F5F5000000000000002D2D2DF52D2D2D2D000000000000F50000F5F50000F5F5F500F5F5F5F5F5F500F5F5F5F5F5F5F500F5000000000000000000000000000000000000000000000000000000000000000000000000000000000000000000000000000000000000000000F5F5F5F5F5F5
310
F5F5F5F500F50000F5F5F5F5F5F5F5F5000000000000002D2D002D2D2D2D00000000000000000000000000000000000000000000000000000000000000000000000000000000000000000000000000000000002D000000000000000000000000000000000000000000000000000000000000000000000000000000F5F5F5F5
310
F5F5F5F5F5F5F5F5F500F5F5F5F5F5F5F5F5000000000000002D002DF5002D002D000000000000F5000000000000000000000000000000000000000000000000000000000000000000000000000000000000000000000000000000000000000000000000F5F5F5F5F5F5F5F5F5F5F5F50000000000000000000000F5F5F5F5
310
F5F5F5F5F5F5F5F5F500F5F5F5F500F5F5F5000000000000002D0000F500002D00000000000000000000000000000000000000000000000000000000000000000000000000000000000000000000000000000000002D000000000000000000000000000000000000000000000000000000000000000000000000000000F5F5
310
F5F5F5F5F5F500F500F50000F500F5F5F500F5F5000000000000002D2D2D2D2D2D2D2D0000000000F5000000000000000000000000000000000000000000000000000000000000000000000000000000000000000000000000000000000000000000000000000000F5F5F5F5F5F5F5000000F500000000000000000000F5F5
310
F5F5F500F5F500F500F50000F500F5F500F5F5F5000000000000002D2D2D2D2D2D2D2D000000000000000000000000000000000000000000000000000000000000000000000000000000000000000000000000000000002D000000000000000000000000000000000000000000000000000000000000000000000000000000
310
00000000000000000000000000000000000000000000002D2D2D2D2D2D2D2D2D2D2D2D2D2D2D2D2D2D2D2D000000000000000000000000000000000000000000000000000000000000000000000000000000000000000000000000000000000000000000000000000000F5F5F5F5F5F5F5000000F500000000000000000000
310
0000000000000000000000000000000000000000000000002D2D2D2D2D2D2D2D2D2D2D2D2D2D2D2D2D2D00000000000000000000000000000000000000000000000000000000000000000000000000000000000000000000002D00000000000000000000000000000000000000000000000000000000000000000000000000
310
0000000000000000000000000000000000000000000000002D2D2D2D2D2D2D2D2D2D2D2D2D2D2D2D2D2D2D2D2D2D0000000000000000000000000000000000000000000000000000000000000000000000000000000000000000000000000000000000000000000000000000F5000000F5F50000000000F500000000000000
310
00000000000000000000000000000000000000000000000000002D00000000000000F500000000000000002D00000000000000000000000000000000000000000000000000000000000000000000000000000000000000000000002D0000000000000000000000000000000000000000000000000000000000000000000000
310
000000000000000000000000000000000000000000000000002D2D2D0000000000000000F500000000000000F5002D2D0000000000000000000000000000000000000000000000000000000000000000000000000000000000000000000000000000000000000000000000000000000000000000000000000000F500000000
310
000000000000000000000000000000000000000000000000000000002D00000000000000F500000000000000002D00000000000000000000000000000000000000000000000000000000000000000000000000000000000000000000002D000000000000000000000000000000000000000000000000000000000000000000
310
0000000000000000000000000000000000000000000000000000002D2D000000000000000000F500000000000000F5002D2D0000000000000000000000000000000000000000000000000000000000000000000000000000000000000000000000000000000000000000000000000000000000000000000000000000F50000
310
0000000000000000000000000000000000000000000000000000000000002D00000000000000F500000000000000002D00000000000000000000000000000000000000000000000000000000000000000000000000000000000000000000002D00000000000000000000000000000000000000000000000000000000000000
310
00000000000000000000000000000000000000000000000000000000002D2D000000000000000000F5000000000000F500002D2D000000000000000000000000000000000000000000000000000000000000000000000000000000000000000000000000000000000000000000000000000000000000000000000000000000
310
F5000000000000000000000000000000000000000000000000000000000000002D00000000000000F500000000000000002D00000000000000000000000000000000000000000000000000000000000000000000000000000000000000000000002D0000000000000000000000000000000000000000000000000000000000
310
000000000000000000000000000000000000F5F5F5F5F5F5F5F5F5F5F5F5002D2D000000000000000000F50000000000000000002D2D00000000000000000000000000000000000000000000000000000000000000000000000000000000000000000000000000000000000000000000000000000000000000000000000000
310
0000F5000000000000000000000000000000000000000000000000000000000000002D00000000000000F500000000000000002D00000000000000000000000000000000000000000000000000000000000000000000000000000000000000000000002D000000000000000000000000000000000000000000000000000000
310
00000000000000000000000000000000000000000000F5F5F5F5F5F5F5F50000F52D2D0000002D2D2D2D2D2D2D2D2D2D2D2D2D2D00002D2D000000000000000000000000000000000000000000000000000000000000000000000000000000000000000000002D2D2D2D2D2D2D2D2D2D2D2D2D2D2D2D2D2D2D2D2D2D2D2D2D
310
2D2D2D2D2D2D2D2D2D2D2D2D2D2D2D2D2D2D2D2D2D2D2D2D2D2D2D2D2D2D2D2D2D2D2D2D2D00000000000000F500000000000000002D2D2D2D2D2D2D2D2D2D2D2D2D2D2D2D2D2D2D2D2D2D2D2D2D2D2D2D2D2D2D2D2D2D2D000000000000000000000000002D00000000000000000000000000000000000000000000000000
310
000000000000000000000000000000000000000000000000F5F5F5F5F5F5F5F50000F52D2D002D2D2D2D2D2D2D28F50028002D2D2D2D2D002D2D000000000000000000000000000000000000000000000000000000000000000000000000000000000000000000002828282828282828282828282828282828282828282828
310
28282828282828282828282828282828282828282828282828282828282828282828282828282D00000000000000F500000000000000002D28282828282828282828282828282828282828282828282828282828282828282828000000000000000000000000002D0000000000000000000000000000000000000000000000
310
000000000000000000000000000000000000000000000000000000F5F5F5F5F5F5F50000002D2D002D2D000000002D28F5002800000000002D2D2D2D00000000000000000000000000000000000000000000000000000000000000000000000000000000000000000000000000000000000000000000000000000000000000
310
000000000000000000000000000000000000000000000000000000000000000000000000000000002D00000000000000F500000000000000002D000000000000000000000000000000000000000000000000000000002D0000000000000000000000000000000000002D000000000000000000000000000000000000000000
310
0000000000000000000000000000000000000000000000000000000000000000000000000000002D2D002D2D000000002D28F5002800000000002D2D2D2D0000000000000000000000000000000000000000000000000000000000000000000000000000000000000000000000000000000000000000000000000000000000
310
0000000000000000000000000000000000000000000000000000000000000000000000000000000000002D00000000000000F500000000000000002D000000000000000000000000000000000000000000000000000000002D0000000000000000000000000000000000002D00000000000000000000000000000000000000
310
00000000000000000000000000000000000000000000000000000000000000000000000000000000002D2D002D2D000000002D28F5002800000000002D2D2D2D000000000000000000000000000000000000000000000000000000000000000000000000000000000000000000000000000000000000000000000000000000
310
00000000000000000000000000000000000000000000000000000000000000000000000000000000000000002D00000000000000F500000000000000002D000000000000000000000000000000000000000000000000000000002D0000000000000000000000000000000000002D0000000000000000000000000000000000
310
000000000000000000000000000000000000000000000000000000000000000000000000000000000000002D2D002D2D000000002D28F5002800000000002D2D2D2D00000000000000000000000000000000000000000000000000000000000000000000000000000000000000000000000000000000000000000000000000
310
000000000000000000000000000000000000000000000000000000000000000000000000000000000000000000002D00000000000000F500000000000000002D000000000000000000000000000000000000000000000000000000002D0000000000000000000000000000002828282D000000000000000000000000000000
310
0000000000000000000000000000000000000000000000000000000000000000000000000000000000000000002D2DF52D2D000000002D2828282800000000002D2D2D2D0000000000000000000000000000000000000000000000000000000000000000000000000000000000000000000000000000000000000000000000
310
0000000000000000000000000000000000000000000000000000000000000000000000000000000000000000000000002D00000000000000F500000000000000002D000000000000000000000000000000000000000000000000000000002D0000000000000000000000000000002828282D00000000000000000000000000
310
00000000000000000000000000000000000000000000000000000000000000000000000000000000000000000000002D2DF52D2D0000000000282D2D2800000000002D2D2D2D000000000000000000000000000000000000000000000000000000000000000000000000000000000000000000000000000000000000000000
310
00000000000000000000000000000000000000000000000000000000000000000000000000000000000000000000000000002D00000000000000F500000000000000002D000000000000000000000000000000000000000000000000002828282D0000000000000000000000000000000000002D0000000000000000000000
310
000000000000000000000000000000000000000000000000000000000000000000000000000000000000000000000000002D2D002D2D000000000000F5000000000000002D2D2D2D00000000000000000000000000000000000000000000000000000000000000000000000000000000000000000000000000000000000000
310
000000000000000000000000000000000000000000000000000000000000000000000000000000000000000000000000000000002D00000000000000F500000000000000002D000000000000000000000000000000000000000000000000002828282D0000000000000000000000000000000000002D000000000000000000
310
0000000000000000000000000000000000000000000000000000000000000000000000000000000000000000000000000000002D2D002D2D000000000000F5000000000000002D2D2D2D0000000000000000000000000000000000000000000000000000000000000000000000000000000000000000000000000000000000
310
0000000000000000000000000000000000000000000000000000000000000000000000000000000000000000000000000000000000002D00000000000000F500000000000000002D000000000000000000000000000000000000000000000000002828282D0000000000000000000000000000000000002D00000000000000
310
00000000000000000000000000000000000000000000000000000000000000000000000000000000000000000000000000000000002D2D002D2D000000000000F5000000000000002D2D2D2D000000000000000000000000000000000000000000000000000000000000000000000000000000000000000000000000000000
310
00000000000000000000000000000000000000000000000000000000000000000000000000000000000000000000000000000000000000002D00000000000000F500000000000000002D000000000000000000000000000000000000000000000000002828282D0000000000000000000000000000000000002D0000000000
310
00000000000000000000000000000000000000000000000000000000F5F5F5F5F5F5F5F5F5F5F5F50000000000000000000000000000002D2D002D2D000000000000F5000000000000002D2D2D2D00000000000000000000000000000000000000000000000000000000000000000000000000000000000000000000000000
310
000000000000000000000000000000000000000000000000000000000000000000000000000000000000000000000000000000000000000000002D00000000000000F500000000000000002D000000000000000000000000000000000000000000000000000000002D0000000000000000000000000000000000002D000000
310
0000000000000000000000000000000000000000000000000000000000000000F5F5F5F5F5F5F50000F50000000000000000000000000000002D2D002D2D000000000000F5000000000000002D2D2D2D0000000000000000000000000000000000000000000000000000000000000000000000000000000000000000000000
310
0000000000000000000000000000000000000000000000000000000000000000000000000000000000000000000000000000000000000000000000002D00000000000000F500000000000000002D000000000000000000000000000000000000000000000000000000002D0000000000000000000000000000000000002D00
310
000000000000000000000000000000000000000000000000000000000000000000F5F5F5F5F5F5F5F5000000F500000000000000000000000000002D2D002D2D000000000000F5000000000000002D2D2D2D000000000000000000000000000000000000000000000000000000000000000000000000000000000000000000
310
00000000000000000000000000000000000000000000000000000000000000000000000000000000000000000000000000000000000000000000000000002D00000000000000F500000000000000002D000000000000000000000000000000000000000000000000000000002D000000000000000000000000000000000000
310
2D00000000000000000000000000000000000000000000000000000000000000000000F5F5F5F5F5F5F5F5000000F500000000000000000000000000002D2D002D2D000000000000F5000000000000002D2D2D2D00000000000000000000000000000000000000000000000000000000000000000000000000000000000000
310
000000000000000000000000000000000000000000000000000000000000000000000000000000000000000000000000000000000000000000000000000000002D00000000000000F500000000000000002D000000000000000000000000000000000000000000000000000000002D00000000000000000000000000000000
310
00002D00000000000000000000000000000000000000000000000000000000000000000000000000000000000000000000F5000000000000000000000000002D2D002D2D000000000000F5000000000000002D2D2D2D0000000000000000000000000000000000000000000000000000000000000000000000000000000000
310
0000000000000000000000000000000000000000000000000000000000000000000000000000000000000000000000000000000000000000000000000000000000002D00000000000000F500000000000000002D000000000000000000000000000000000000000000000000000000002D0000000000000000000000000000
310
000000002D00000000000000000000000000000000000000000000000000000000000000000000000000000000000000000000F5000000000000000000000000002D2D002D2D2D2D2D2D2D2D2D2D2D2D2D2D2D2D2D2D2D2D000000000000000000000000000000000000000000000000000000000000000000000000000000
310
00000000000000282828282828282828282828282828282828282828282828282828282828282828282828282828282828282828282828282828282828282828282828282D00000000000000F500000000000000002D2828282828282828282828282828282828282828282828282828282828282828282800000000000000
310
0000000000002D0000000000000000000000000000000000000000000000000000000000000000000000000000000000000000000000F50000000000000000000000002D2D2D2D2D2D2D2D2D2D2D2D2D2D2D2D2D2D2D2D2D2D2D000000000000000000000000000000000000000000000000000000000000002D2D00000000
310
0000000000000000002D2D2D2D2D2D2D2D2D2D2D2D2D2D2D2D2D2D2D2D2D2D2D2D2D2D2D2D2D2D2D2D2D2D2D2D2D2D2D2D2D2D2D2D2D2D2D2D2D2D2D2D2D2D2D2D2D2D2D2D2D2D00000000000000F500000000000000002D2D2D2D2D2D2D2D2D2D2D2D2D2D2D2D2D2D2D2D2D2D2D2D2D2D2D2D2D2D2D2D2D2D2D0000000000
310
00000000000000002D0000000000000000000000000000000000000000002D2D2D2D2D2D2D2D2D2D2D2D2D2D2D2D2D2D2D2D2D2D2D2D2D2D2D2D2D2D2D2D2D2D2D2D2D2D2D2D2D2D2D2D2D0000000000F50000000000002D2D2D2D2D2D2D2D2D2D2D2D2D2D2D2D2D2D2D2D2D2D2D2D2D2D2D2D2D2D2D2D2D2D2D2D2D2D2D2D
310
2D2D2D2D2D00000000000000000000000000002D2D2D2D2D2D2D2D2D2D2D2D2D2D2D2D2D2D2D2D2D2D2D0000000000000000000000000000000000000000000000000000000000002D00000000000000F500000000000000002D00000000000000000000000000000000000000000000000000000000000000000000000000
310
000000000000000000002D000000000000000000000000000000000000000000282828282828282828282828282828282828282828282828282828282828282828282828282828282D2D2D28282D2D2D2D2D2D2D2D2D2D2D2D28282D2D28282828282828282828282828282828282828282828282828282828282828282828
310
2828282828282800000000000000000000000000002D2D2D2D2D2D2D000000000000000000002D2D2D2D2D2D0000000000000000000000000000000000000000000000000000000000002D000000000000282828000000000000002D0000000000000000000000000000000000000000000000000000000000000000000000
310
0000000000000000000000002D0000000000000000000000000000000000000000000000000000000000000000000000000000000000000000000000000000000000000000000000282D2D282828282828282828282828282828282828282D2D28282828280000000000000000000000000000000000000000000000000000
310
2D0000000000000000000000000000000000000000000000000000002D2D000000000000000000002D00000000000000000000000000000000000000000000000000000000000000000000002D00000000002D28F528280000000000002D000000000000000000000000000000000000000000000000000000000000000000
310
00000000000000000000000000002D0000000000000000000000000000000000000000000000000000000000000000000000000000000000000000000000000000000000000000000000282D2D282828282828282828282828282828282828282D2D2828282828000000000000000000000000000000000000000000000028
310
28282D000000000000000000000000000000000000000000000000000000F52D000000000000000000002D00000000000000000000000000000000000000000000000000000000000000000000002D00000000002D28F528280000000000002D00000000000000000000000000000000000000000000000000000000000000
310
000000000000000000000000000000002D000000000000000000000000000000000000000000000000000000000000000000000000000000000000000000000000000000000000000000000028282D000000000000000000F50000000000000028282D2D282828282800000000000000000000000000000000000000000000
310
002828282D0000000000000000000000000000000000000000000000000000F52D2D000000000000000000002D00000000000000000000000000000000000000000000000000000000000000000000002D000000000000282828280000000000002D0000000000000000000000000000000000000000000000000000000000
310
0000000000000000000000000000000000002D0000000000000000000000000000000000000000000000000000000000000000000000000000000000000000000000000000000000000000000000002D2D000000000000000000F50000000000000000002D2828000000000000000000000000000000000000000000000000
310
0000002828282D0000000000000000000000000000000000F5F5F5F5F5F5F5F5F5002D2D000000000000000000002D00000000000000000000000000000000000000000000000000000000000000000000002D00000000000000F5000000000000002D2D000000000000000000000000000000000000000000000000000000
310
00000000000000000000000000000000000000002D0000000000000000000000000000000000000000000000000000000000000000000000000000000000000000000000000000000000000000000000002D2D000000000000000000F50000000000000000002D2D0000000000000000000000000000000000000000000000
310
00000000002828282D000000000000000000000000000000000000F5F5F5F5F5F5F5F5002D2D000000000000000000002D0000000000000000000000000000000000000000000000000000000000000000000000002D2D2D2D2D2D2D2D2D2D2D2D2D2D2D2D0000000000000000000000000000000000000000000000000000
310
000000000000000000000000000000000000000000002D0000000000000000000000000000000000000000000000000000000000000000000000000000000000000000000000000000000000000000000000000000000000000000000000F50000000000000000000000000000000000000000000000000000000000000000
310
000000000000000000002D000000000000000000000000000000000000F5F5F5F5F5F5F5F5002D2D000000000000000000002D00000000000000000000000000000000000000000000000000000000000000000000000000000000000000F50000000000000000000000000000000000000000000000000000000000000000
310
0000000000000000000000000000000000000000000000002D000000000000000000000000000000000000000000000000000000000000000000000000000000000000000000000000000000000000000000000000000000000000000000000000000000000000000000000000000000000000000000000000000000000000
310
0000000000000000000000002D000000000000000000000000000000000000F5F5F5F5F5F5F5F5002D2D000000000000000000002D0000000000000000000000000000000000000000000000000000000000000000000000000000000000000000000000000000000000000000000000000000000000000000000000000000
310
00000000000000000000000000000000000000000000000000002D0000000000000000000000000000000000000000002D2D2D2D2D2D2D2D2D2D2D2D2D2D2D2D2D2D2D2D2D2D2D2D2D2D2D2D2D2D2D2D2D2D2D2D2D2D2D2D2D2D2D2D2D2D2D2D2D2D2D2D2D2D2D2D2D2D2D2D2D2D2D2D2D2D2D2D2D2D2D2D2D2D2D2D2D2D2D
310
2D2D2D2D2D2D2D2D2D2D2D2D2D2D2D2D2D2D2D2D2D2D2D0000000000002D2D2D2D2D2D2D2D2D2D2D2D2D2D2D2D2D2D2D2D2D2D2D2D2D2D2D2D2D2D2D2D2D2D2D2D2D2D2D2D2D2D2D2D2D2D2D2D2D2D2D2D2D2D2D2D2D2D2D2D2D2D2D2D2D2D2D2D2D2D2D2D2D2D2D2D2D2D2D2D2D2D2D2D2D2D2D2D2D2D2D2D2D2D2D2D2D2D
310
2D2D2D2D2D2D2D2D2D2D2D2D2D2D2DF52D2D2D2D2D2D2D2D2D2D2D2DF50000000000000000000000000000000000000000000000000000000000000000000000000000000000000000000000000000000000000000000000000000000000000000000000000000000000000000000000000000000000000000000000000000
310
000000000000000000000000000000002D0000000000000000000000000000000000000000000000000000000000000000000000000000000000000000000000000000000000000000000000000000000000000000000000000000000000000000000000000000000000000000000000000000000000000000000000000000
310
0000000000000000000000000000000000000000000000000000000000002D000000000000000000000000000000000000000000282828282828282828282828282828282828282828282828282828282828282828282828282828282828282828282828282828282828282828282828282828282828282828282828282828
310
28282828282828282828282828282828282828282828282828282800000000000028282828282828282828282828282828282828282828282828282828282828282828282828282828282828282828282828282828282828282828282828282828282828282828282828282828282828282828282828282828282828282828
310
28282828282828282828282828282828282828000000000000000000000000000000000000000000000000000000000000000000000028282828282828282828282828282828282828282828282828282828282828282828282828282828282828282828282828282828282828282828282828282828282828282828282828
310
28282828282828282828282828282828282828282828282828282828280000000000002828282828282828282828282828282828282828282828282828282828282828282828282828282828282828282828282828282828282828282828282828282828282828282828282828282828282828282828282828282828282828
310
28282828282828282828282828282828282828282800000000000000000000000000000000000000000000000000000000000000000000000000000000000000000000000000000000000000000000000000000000000000000000000000000000000000000000000000000000F50000000000000000000000000000000000
310
00000000000000000000000000000000000000000000000000000000000000000000000000000000000000000000000000000000000000000000000000000000000000000000000000000000000000000000000000000000000000000000000000000000000000000000000000000000000000000000000000000000000000
310
000000000000000000000000000000000000000000000000000000000000000000000000000000000000000000000000000000000000000000002D2D2D2D2D2D2D2D2D2D2D2D2D2D2D2D2D2D2D2D2D2D2D2D2D2D2D2D2D2D2D2D2D2D2D2D2D2D2D2D2D2D2D2D2D2D2D2D2D2D2D2D2D2D2D2D2D2D2D2D2D2D2D2D2D2D2D2D2D
310
2D2D2D2D2D2D2D2D2D2D2D2D2D2D2D2D2D2D2D2D2D2D2D2D2D2D2D2D2D2D2D2D2D0000000000002D2D2D2D2D2D2D2D2D2D2D2D2D2D2D2D2D2D2D2D2D2D2D2D2D2D2D2D2D2D2D2D2D2D2D2D2D2D2D2D2D2D2D2D2D2D2D2D2D2D2D2D2D2D2D2D2D2D2D2D2D2D2D2D2D2D2D2D2D2D2D2D2D2D2D2D2D2D2D2D2D2D2D2D2D2D2D2D
310
2D2D2D2D2D2D2D2D2D2D2D2D2D2D2D2D2D2D2D2D2D2D2D2D2D0000000000000000000000000000000000000000000000000000000000000000000000000000000028000000000000000000000000000000000000000000000000000000000028000000000000000000000000000000000000F5000000000000000000002800
310
00000000000000000000000000000000000000000000000000000000002800000000000000000000000000000000000000000000000000000000000000000000000000000000000000000000000000000000000000000000000000000000000000000000000000000000000000000000000000000000000000000000000000
310
0000000000000000000000000000000000000000000000000000000000000000000000000000000000000000000000000000000000000000000000000000000028282828000000000000000000000000000000000000000000000000000028282828000000000000000000000000000000000000F500000000000000282828
310
28000000000000000000000000000000000000000000000000000028282828280000000000000000000000000000000000000000000000000000000000000000000000000000000000000000000000000000000000000000000000000000000000000000000000000000000000000000000000000000000000000000000000
310
0000000000000000000000000000000000000000000000000000000000000000000000000000000000000000000000000000000000000000000000000000000000002800000000000000000000000000000000000000000000000000000000002800000000000000000000000000000000000000000000F500000000000028
310
00000000000000000000000000000000000000000000000000000000002800000000000000000000000000000000000000000000000000000000000000000000000000000000000000000000000000000000000000000000000000000000000000000000000000000000000000000000000000000000000000000000000000
310
00000000000000000000000000000000000000000000000000000000000000000000000000000000000000000000000000000000000000000000000000000000000000002828282800000000000000000000000000000000000000000000000000002828282800000000000000000000000000000000000000F50000000000
310
00282828280000000000000000000000000000000000000000000000000000282828282800000000000000000000000000000000000000000000000000000000000000000000000000000000000000000000000000000000000000000000000000000000000000000000000000000000000000000000000000000000000000
310
00000000000000000000000000000000000000000000000000000000000000000000000000000000000000000000000000000000000000000000000000000000000000000000000000280000000000000000000000000000000000000000000000000000000000280000000000000000000000000000000000000000F50000
310
00000000000028000000000000000000000000000000000000000000000000000000000000280000000000000000000000000000000000000000000000000000000000000000000000000000000000000000000000000000000000000000000000000000000000000000000000000000000000000000000000000000000000
310
000000000000000000000000000000000000000000000000000000000000000000000000000000000000000000000000000000000000000000000000000000000000000000002D2D2D2D2D2D2D2D2D2D2D2D2D2D2D2D2D2D2D2D2D2D2D2D2D2D2D2D2D2D2D2D2D2D2D2D2D2D2D2D2D2D2D2D2D2D2D2D2D2D2D2D2D2D2D2D2D
310
2D2D2D2D2D2D2D2D2D2D2D2D2D2D2D2D2D2D2D2D2D2D2D2D2D2D2D2D2D2D2D2D2D2D2D2D2D2D2D2D2D2D2D2D2D0000000000002D2D2D2D2D2D2D2D2D2D2D2D2D2D2D2D2D2D2D2D2D2D2D2D2D2D2D2D2D2D2D2D2D2D2D2D2D2D2D2D2D2D2D2D2D2D2D2D2D2D2D2D2D2D2D2D2D2D2D2D2D2D2D2D2D2D2D2D2D2D2D2D2D2D2D2D
310
2D2D2D2D2D2D2D2D2D2D2D2D2D2D2D2D2D2D2D2D2D2D2D2D2D2D2D2D2D2D2D2D2D2D2D2D2D000000000000000000000000000000000000000000000000000000000000000000000000000000000000000000000000000000000000000000000000000000000000000000000000000000000000000000F50000000000000000
310
0000F500000000000000000000000000000000000000000000000000000000000000000000000000000000000000000000000000000000000000000000000000000000000000000000000000000000000000000000000000000000000000000000000000000000000000000000000000000000000000000000000000000000
310
000000000000000000000000000000000000000000000000000000000000000000000000000000000000000000000000000000000000000000000000000000000000000000000000000000000000000000000000000000000000000000000000000000000000000000000000000000000000000000000000F5000000000000
310
00000000F50000000000000000000000000000000000000000000000000000000000000000000000000000000000000000000000000000000000000000000000000000000000000000000000000000000000000000000000000000000000000000000000000000000000000000000000000000000000000000000000000000
310
000000000000000000000000000000000000000000000000000000000000000000000000000000000000000000000000000000000000000000000000000000000000000000000000000000000000000000000000000000000000000000000000000000000000000000000000000000000000000000000000000000F5000000
310
00000000000000F50000000000000000000000000000000000000000000000000000000000000000000000000000000000000000000000000000000000000000000000000000000000000000000000000000000000000000000000000000000000000000000000000000000000000000000000000000000000000000000000
310
0000000000000000000000000000000000000000000000000000000000000000000000000000000000000000000000000000000000000000000000000000000000000000000000000000000000000000000000000000000000000000000000000000000000000000000000000000000000000000000000000000000000F500
310
000000000000000000F5000000000000000000000000000000000000000000000000000000000000000000000000000000000000000000000000000000000000000000000000000000000000000000000000000000000000000000000000000000000000000000000000000000000000000000000000000000000000000000
310
00000000000000000000000000000000000000000000000000000000000000000000000000000000000000000000000000000000000000000000000000000000000000000000000000000000000000000000000000000000000000000000000000000000000000000000000000000000000000000000000000000000000000
310
00F500000000000000000000F5000000000000000000000000000000000000000000000000000000000000000000000000000000000000000000000000000000000000000000000000000000000000000000000000000000000000000000000000000000000000000000000000000000000000000000000000000000000000
310
00000000000000000000000000000000000000000000000000000000000000000000000000000000000000000000000000000000000000000000000000000000000000000000000000000000000000000000000000000000000000000000000000000000000000000000000000000000000000000000000000000000000000
310
000000F500000000000000000000F5F5F5F5F5F5F5F5F5F5F5F5F5F5F5F500000000000000000000000000000000000000000000000000000000000000000000000000000000000000000000000000000000000000000000000000000000000000000000000000000000000000000000000000000000000000000000000000
310
00000000000000000000000000000000000000000000000000000000000000000000000000000000000000000000000000000000000000000000000000000000000000000000000000000000000000000000000000000000000000000000000000000000000000000000000000000000000000000000000000000000000000
310
000000000000F5000000000000000000000000F5F5F5F5F5F5F5F5F5F50000000000000000000000000000000000000000000000000000000000000000000000000000000000000000000000000000000000000000000000000000000000000000000000000000000000000000000000000000000000000000000000000000
310
00000000000000000000000000000000000000000000000000000000000000000000000000000000000000000000000000000000000000000000000000000000000000000000000000000000000000000000000000000000000000000000000000000000000000000000000000000000000000000000000000000000000000
310
0000000000000000F5000000000000000000000000F5F5F5F5F5F5F5F5F5F5000000000000000000000000000000000000000000000000000000000000000000000000000000000000000000000000000000000000000000000000000000000000000000000000000000000000000000000000000000000000000000000000
310
00000000000000000000000000000000000000000000000000000000000000000000000000000000000000000000000000000000000000000000000000000000000000000000000000000000000000000000000000000000000000000000000000000000000000000000000000000000000000000000000000000000000000
310
0000000000000000000000F50000000000000000000000F5F500F5000000F5000000000000000000000000000000000000000000000000000000000000000000000000000000000000000000000000000000000000000000000000000000000000000000000000000000000000000000000000000000000000000000000000
310
00000000000000000000000000000000000000000000000000000000000000000000000000000000000000000000000000000000000000000000000000000000000000000000000000000000000000000000000000000000000000000000000000000000000000000000000000000000000000000000000000000000000000
310
00000000000000000000000000F50000000000000000000000000000000000000000000000000000000000000000000000000000000000000000000000000000000000000000000000000000000000000000000000000000000000000000000000000000000000000000000000000000000000000000000000000000000000
310
00000000000000000000000000000000000000000000000000000000000000000000000000000000000000000000000000000000000000000000000000000000000000000000000000000000000000000000000000000000000000000000000000000000000000000000000000000000000000000000000000000000000000
310
00000000000000000000000000000000F5F5F5F5F5F5F5F5F5F5F5F5F5F5F5F5F5F5F5F5F5F5F5F5F5F500000000000000000000000000000000000000000000000000000000000000000000000000000000000000000000000000000000000000000000000000000000000000000000000000000000000000000000000000
310
00000000000000000000000000000000000000000000000000000000000000000000000000000000000000000000000000000000000000000000000000000000000000000000000000000000000000000000000000000000000000000000000000000000000000000000000000000000000000000000000000000000000000
310
0000000000000000000000000000000000000000F5F5F5F5F5000000F5F500F5F5F5F5F5F5F5F5F5000000000000000000000000000000000000000000000000000000000000000000000000000000000000000000000000000000000000000000000000000000000000000000000000000000000000000000000000000000
310
00000000000000000000000000000000000000000000000000000000000000000000000000000000000000000000000000000000000000000000000000000000000000000000000000000000000000000000000000000000000000000000000000000000000000000000000000000000000000000000000000000000000000
310
00000000000000000000000000000000000000000000F5F5F5F5F5F5F5F5F5F5F5F5F5F5F5F5F5F5F5F500000000000000000000000000000000000000000000000000000000000000000000000000000000000000000000000000000000000000000000000000000000000000000000000000000000000000000000000000
310
00000000000000000000000000000000000000000000000000000000000000000000000000000000000000000000000000000000000000000000000000000000000000000000000000000000000000000000000000000000000000000000000000000000000000000000000000000000000000000000000000000000000000
310
0000000000000000000000000000000000000000000000000000000000000000000000000000F500F50000000000000000000000000000000000000000000000000000000000000000000000000000000000000000000000000000000000000000000000000000000000000000000000000000000000000000000000000000
310
00000000000000000000000000000000000000000000000000000000000000000000000000000000000000000000000000000000000000000000000000000000000000000000000000000000000000000000000000000000000000000000000000000000000000000000000000000000000000000000000000000000000000
310
00000000000000000000000000000000000000000000000000000000000000000000000000000000000000000000000000000000000000000000000000000000000000000000000000000000000000000000000000000000000000000000000000000000000000000000000000000000000000000000000000000000000000
310
00000000000000000000000000000000000000000000000000000000000000000000000000000000000000000000000000000000000000000000000000000000000000000000000000000000000000000000000000000000000000000000000000000000000000000000000000000000000000000000000000000000000000
310
00000000000000000000000000000000000000000000000000000000000000000000000000000000000000000000000000000000000000000000000000000000000000000000000000000000000000000000000000000000000000000000000000000000000000000000000000000000000000000000000000000000000000
310
00000000000000000000000000000000000000000000000000000000000000000000000000000000000000000000000000000000000000000000000000000000000000000000000000000000000000000000000000000000000000000000000000000000000000000000000000000000000000000000000000000000000000
310
00000000000000000000000000000000000000000000000000000000000000000000000000000000000000000000000000000000000000000000000000000000000000000000000000000000000000000000000000000000000000000000000000000000000000000000000000000000000000000000000000000000000000
310
00000000000000000000000000000000000000000000000000000000000000000000000000000000000000000000000000000000000000000000000000000000000000000000000000000000000000000000000000000000000000000000000000000000000000000000000000000000000000000000000000000000000000
310
00000000000000000000000000000000000000000000000000000000000000000000000000000000000000000000000000000000000000000000000000000000000000000000000000000000000000000000000000000000000000000000000000000000000000000000000000000000000000000000000000000000000000
310
00000000000000000000000000000000000000000000000000000000000000000000000000000000000000000000000000000000000000000000000000000000000000000000000000000000000000000000000000000000000000000000000000000000000000000000000000000000000000000000000000000000000000
310
00000000000000000000000000000000000000000000000000000000000000000000000000000000000000000000000000000000000000000000000000000000000000000000000000000000000000000000000000000000000000000000000000000000000000000000000000000000000000000000000000000000000000
310
00000000000000000000000000000000000000000000000000000000000000000000000000000000000000000000000000000000000000000000000000000000000000000000000000000000000000000000000000000000000000000000000000000000000000000000000000000000000000000000000000000000000000
310
00000000000000000000000000000000000000000000000000000000000000000000000000000000000000000000000000000000000000000000000000000000000000000000000000000000000000000028002800000000000000000028000000280000280000002800280028002800280000280000000000282828280028
310
28280028282800280028002800280028000028000000000000000000000000000000000000000000000000000000000000000000000000000000000000000000000000000000000000000000000000000000000000000000000000000000000000000000000000000000000000000000000000000000000000000000000000
310
00000000000000000000000000000000000000000000000000000000000000000000000000000000000000000000000000000000000000000000000000000000000000000000000000000000000000000000002800280000282828282800002800000028000000280000280028002800280028000028280028280000280000
310
28000028002800280028002800280028002800002800000000000000000000000000000000000000000000000000000000000000000000000000000000000000000000000000000000000000000000000000000000000000000000000000000000000000000000000000000000000000000000000000000000000000000000
310
00000000000000000000000000000000000000000000000000000000000000000000000000000000000000000000000000000000000000000000000000000000000000000000000000000000000000000000000000282828000028282828280000280000002800000028000028002828280028282828282800280028000000
310
28280028002800280028002828282828002828282828280000000000000000000000000000000000000000000000000000000000000000000000000000000000000000000000000000000000000000000000000000000000000000000000000000000000000000000000000000000000000000000000000000000000000000
310
00000000000000000000000000000000000000000000000000000000000000000000000000000000000000000000000000000000000000000000000000000000000000000000000000000000000000000000000000000028000000000000000000002828000028280000000028002828002828002828282828000000000000
310
28000028002828000028002800282828282800282828282800000000000000000000000000000000000000000000000000000000000000000000000000000000000000000000000000000000000000000000000000000000000000000000000000000000000000000000000000000000000000000000000000000000000000
310
00000000000000000000000000000000000000000000000000000000000000000000000000000000000000000000000000000000000000000000000000000000000000000000000000000000000000000000000000000000002800000000000000000000002800000028002828282800000000000000000000000000000000
310
00000028282800282828002828280000000000000000000000000000000000000000000000000000000000000000000000000000000000000000000000000000000000000000000000000000000000000000000000000000000000000000000000000000000000000000000000000000000000000000000000000000000000
310
00000000000000000000000000000000000000000000000000000000000000000000000000000000000000000000000000000000000000000000000000000000000000000000000000000000000000000000000000000000000000000000000000000000000000000000000000000000000000000000000000000000000000
310
00000000000000000000000000000000000000000000000000000000000000000000000000000000000000000000000000000000000000000000000000000000000000000000000000000000000000000000000000000000000000000000000000000000000000000000000000000000000000000000000000000000000000
310
00000000000000000000000000000000000000000000000000000000000000000000000000000000000000000000000000000000000000000000000000282828282800000000000000000000002828280028002800280000280028000028282828280000002828282800280028000028002828280000000000002828282800
310
00000000002828282828000000000000000000000000000000000000000000000000000000000000000000000000000000000000000000000000000000000000000000000000000000000000000000000000000000000000000000000000000000000000000000000000000000000000000000000000000000000028282828
310
00282800280000282800000000000000000000002800000000000028280028000028280000002828280000002828000028282828000000000000002828280028282828280000000028000000000000282828280000282828280028002800002828282828000000282828280028002800282800280028000028000028282828
310
28002800282800282800282828282828280028280000000028000000002828000028280000000000000000000000000000000000000000000000000000000000000000000000000000000000000000000000000000000000000000000000000000000000000000000000000000000000000000000000000000000000002828
310
28280000002800000028002800000000000000280028000000000000000000280000000028000000280028000000280000002800000000282828282800280028002800280028000000280000000000000028282828000028282800002828280000282828280000000028280028002828282800282828282800000000000028
310
28282800282800280028002828002828002800002800280000282800000000002800000028000000000000000000000000000000000000000000000000000000000000000000000000000000000000000000000000000000000000000000000000000000000000000000000000000000000000000000000000000000000000
310
28282828000000280000002800280028282828000028282800002828282800000028000000002800000028002800000028000000280000000000000000000028002800002828282800000028000028282828282828282828282800280000282828280028282828000000282828282800282828280028282828280000280000
310
28282828280028282828002800280000002828280000002828280000280000000000280000002800000000000000000000000000000000000000000000000000000000000000000000000000000000000000000000000000000000000000000000000000000000000000000000000000000000000000000000000000000000
310
00002828282800282828000000280028000000000000000000282800000000000028282800000028280000002828280000002800000028000000000000000000002800280028282828280000000028000000000000282828280000282828280028282828002828282828000000002828000028282828282828282828000000
310
00000028282828002800280000282828000028282800000000280000000000282800282828282828280000000000000000000000000000000000000000000000000000000000000000000000000000000000000000000000000000000000000000000000000000000000000000000000000000000000000000000000000000
310
00000000000000000000000000000000000000000000000000000000000000000000000000000000000000000000000000000000000000000000000000000000000000000000000000000028000000000000000000000000280000000028002800000028000000280000280000000000280028000000280000000000000000
310
000000000028000000000000000000280000000000000000000000000000000000000000000000000000000000000000000000000000000000000000000000000000000000000000000000000000000000000000000000000000000000000000000000000000000000000000000000000000000000000000000000
  0
XRECORD
  5
AA54
102
{ACAD_REACTORS
330
5F6D
102
}
330
5F6D
100
AcDbXrecord
280
     1
102
MATERIAL
148
0.0
149
0.0
149
0.0
 93
        0
 94
      127
282
     0
 72
     0
 77
     0
171
     0
175
     0
179
     0
273
     0
  0
XRECORD
  5
5F6F
102
{ACAD_REACTORS
330
5F6D
102
}
330
5F6D
100
AcDbXrecord
280
     1
270
     1
271
     1
  0
XRECORD
  5
5F6E
102
{ACAD_REACTORS
330
5F6D
102
}
330
5F6D
100
AcDbXrecord
280
     1
270
     1
271
     1
  0
XRECORD
  5
5F72
102
{ACAD_REACTORS
330
5F6D
102
}
330
5F6D
100
AcDbXrecord
280
     1
270
     1
271
     1
  0
XRECORD
  5
5F71
102
{ACAD_REACTORS
330
5F6D
102
}
330
5F6D
100
AcDbXrecord
280
     1
270
     1
271
     1
  0
XRECORD
  5
5F73
102
{ACAD_REACTORS
330
5F6D
102
}
330
5F6D
100
AcDbXrecord
280
     1
270
     1
271
     1
  0
XRECORD
  5
5F70
102
{ACAD_REACTORS
330
5F6D
102
}
330
5F6D
100
AcDbXrecord
280
     1
270
     1
271
     1
  0
XRECORD
  5
AA53
102
{ACAD_REACTORS
330
5F65
102
}
330
5F65
100
AcDbXrecord
280
     1
102
MATERIAL
148
0.0
149
0.0
149
0.0
 93
        0
 94
      127
282
     0
 72
     0
 77
     0
171
     0
175
     0
179
     0
273
     0
  0
XRECORD
  5
5F67
102
{ACAD_REACTORS
330
5F65
102
}
330
5F65
100
AcDbXrecord
280
     1
270
     1
271
     1
  0
XRECORD
  5
5F66
102
{ACAD_REACTORS
330
5F65
102
}
330
5F65
100
AcDbXrecord
280
     1
270
     1
271
     1
  0
XRECORD
  5
5F6A
102
{ACAD_REACTORS
330
5F65
102
}
330
5F65
100
AcDbXrecord
280
     1
270
     1
271
     1
  0
XRECORD
  5
5F69
102
{ACAD_REACTORS
330
5F65
102
}
330
5F65
100
AcDbXrecord
280
     1
270
     1
271
     1
  0
XRECORD
  5
5F6B
102
{ACAD_REACTORS
330
5F65
102
}
330
5F65
100
AcDbXrecord
280
     1
270
     1
271
     1
  0
XRECORD
  5
5F68
102
{ACAD_REACTORS
330
5F65
102
}
330
5F65
100
AcDbXrecord
280
     1
270
     1
271
     1
  0
XRECORD
  5
AA55
102
{ACAD_REACTORS
330
5F75
102
}
330
5F75
100
AcDbXrecord
280
     1
102
MATERIAL
148
0.0
149
0.0
149
0.0
 93
        0
 94
      127
282
     0
 72
     0
 77
     0
171
     0
175
     0
179
     0
273
     0
  0
XRECORD
  5
5F77
102
{ACAD_REACTORS
330
5F75
102
}
330
5F75
100
AcDbXrecord
280
     1
270
     1
271
     1
  0
XRECORD
  5
5F76
102
{ACAD_REACTORS
330
5F75
102
}
330
5F75
100
AcDbXrecord
280
     1
270
     1
271
     1
  0
XRECORD
  5
5F7A
102
{ACAD_REACTORS
330
5F75
102
}
330
5F75
100
AcDbXrecord
280
     1
270
     1
271
     1
  0
XRECORD
  5
5F79
102
{ACAD_REACTORS
330
5F75
102
}
330
5F75
100
AcDbXrecord
280
     1
270
     1
271
     1
  0
XRECORD
  5
5F7B
102
{ACAD_REACTORS
330
5F75
102
}
330
5F75
100
AcDbXrecord
280
     1
270
     1
271
     1
  0
XRECORD
  5
5F78
102
{ACAD_REACTORS
330
5F75
102
}
330
5F75
100
AcDbXrecord
280
     1
270
     1
271
     1
  0
XRECORD
  5
AA51
102
{ACAD_REACTORS
330
AA50
102
}
330
AA50
100
AcDbXrecord
280
     1
102
ACAD_ROUNDTRIP_2012_MLEADER_STYLE
298
     1
  0
CELLSTYLEMAP
  5
AA4F
102
{ACAD_REACTORS
330
A2CE
102
}
330
A2CE
100
AcDbCellStyleMap
 90
        3
300
CELLSTYLE
  1
TABLEFORMAT_BEGIN
 90
        5
170
     1
 91
        0
 92
    32768
 62
   257
 93
        1
300
CONTENTFORMAT
  1
CONTENTFORMAT_BEGIN
 90
        0
 91
        0
 92
      512
 93
        0
300

 40
0.0
140
1.0
 94
        5
 62
     0
340
11
144
0.25
309
CONTENTFORMAT_END
171
     0
 94
        0
309
TABLEFORMAT_END
  1
CELLSTYLE_BEGIN
 90
        1
 91
        1
300
_TITLE
309
CELLSTYLE_END
300
CELLSTYLE
  1
TABLEFORMAT_BEGIN
 90
        5
170
     1
 91
        0
 92
        0
 62
   257
 93
        1
300
CONTENTFORMAT
  1
CONTENTFORMAT_BEGIN
 90
        0
 91
        0
 92
      512
 93
        0
300

 40
0.0
140
1.0
 94
        5
 62
     0
340
11
144
0.18
309
CONTENTFORMAT_END
171
     0
 94
        0
309
TABLEFORMAT_END
  1
CELLSTYLE_BEGIN
 90
        2
 91
        1
300
_HEADER
309
CELLSTYLE_END
300
CELLSTYLE
  1
TABLEFORMAT_BEGIN
 90
        5
170
     1
 91
        0
 92
        0
 62
   257
 93
        1
300
CONTENTFORMAT
  1
CONTENTFORMAT_BEGIN
 90
        0
 91
        0
 92
      512
 93
        0
300

 40
0.0
140
1.0
 94
        2
 62
     0
340
11
144
0.18
309
CONTENTFORMAT_END
171
     0
 94
        0
309
TABLEFORMAT_END
  1
CELLSTYLE_BEGIN
 90
        3
 91
        2
300
_DATA
309
CELLSTYLE_END
  0
XRECORD
  5
AA86
102
{ACAD_REACTORS
330
A2CE
102
}
330
A2CE
100
AcDbXrecord
280
     1
102
ACAD_ROUNDTRIP_PRE2007_TABLESTYLE
 90
      512
 91
        0
  1

 92
      512
 93
        0
  2

 94
      512
 95
        0
  3

  0
XRECORD
  5
AA61
102
{ACAD_REACTORS
330
AA60
102
}
330
AA60
100
AcDbXrecord
280
     1
102
RTVSPropertyOp0
 70
     1
102
RTVSPropertyOp1
 70
     1
102
RTVSPropertyOp2
 70
     1
102
RTVSPropertyOp3
 70
     1
102
RTVSPropertyOp4
 70
     1
102
RTVSPropertyOp5
 70
     1
102
RTVSPropertyOp6
 70
     1
102
RTVSPropertyOp7
 70
     1
102
RTVSPropertyOp8
 70
     1
102
RTVSPropertyOp9
 70
     1
102
RTVSPropertyOp10
 70
     1
102
RTVSPropertyOp11
 70
     1
102
RTVSPropertyOp12
 70
     1
102
RTVSPropertyOp13
 70
     1
102
RTVSPropertyOp14
 70
     1
102
RTVSPropertyOp15
 70
     1
102
RTVSPropertyOp16
 70
     1
102
RTVSPropertyOp17
 70
     1
102
RTVSPropertyOp18
 70
     1
102
RTVSPropertyOp19
 70
     1
102
RTVSPropertyOp20
 70
     1
102
RTVSPropertyOp21
 70
     1
102
RTVSPropertyOp22
 70
     1
102
RTVSPropertyOp23
 70
     1
102
RTVSPropertyOp24
 70
     1
102
RTVSPropertyOp25
 70
     1
102
RTVSPropertyOp26
 70
     1
102
RTVSPropertyOp27
 70
     1
102
RTVSPropertyOp28
 70
     1
102
RTVSPropertyOp29
 70
     1
102
RTVSPropertyOp30
 70
     1
102
RTVSPropertyOp31
 70
     1
102
RTVSPropertyOp32
 70
     1
  0
XRECORD
  5
AA5F
102
{ACAD_REACTORS
330
AA5E
102
}
330
AA5E
100
AcDbXrecord
280
     1
102
RTVSPropertyOp0
 70
     1
102
RTVSPropertyOp1
 70
     1
102
RTVSPropertyOp2
 70
     1
102
RTVSPropertyOp3
 70
     1
102
RTVSPropertyOp4
 70
     1
102
RTVSPropertyOp5
 70
     1
102
RTVSPropertyOp6
 70
     1
102
RTVSPropertyOp7
 70
     1
102
RTVSPropertyOp8
 70
     1
102
RTVSPropertyOp9
 70
     1
102
RTVSPropertyOp10
 70
     1
102
RTVSPropertyOp11
 70
     1
102
RTVSPropertyOp12
 70
     1
102
RTVSPropertyOp13
 70
     1
102
RTVSPropertyOp14
 70
     1
102
RTVSPropertyOp15
 70
     1
102
RTVSPropertyOp16
 70
     1
102
RTVSPropertyOp17
 70
     1
102
RTVSPropertyOp18
 70
     1
102
RTVSPropertyOp19
 70
     1
102
RTVSPropertyOp20
 70
     1
102
RTVSPropertyOp21
 70
     1
102
RTVSPropertyOp22
 70
     1
102
RTVSPropertyOp23
 70
     1
102
RTVSPropertyOp24
 70
     1
102
RTVSPropertyOp25
 70
     1
102
RTVSPropertyOp26
 70
     1
102
RTVSPropertyOp27
 70
     1
102
RTVSPropertyOp28
 70
     1
102
RTVSPropertyOp29
 70
     1
102
RTVSPropertyOp30
 70
     1
102
RTVSPropertyOp31
 70
     1
102
RTVSPropertyOp32
 70
     1
  0
XRECORD
  5
AA6D
102
{ACAD_REACTORS
330
AA6C
102
}
330
AA6C
100
AcDbXrecord
280
     1
102
RTVSPropertyOp0
 70
     1
102
RTVSPropertyOp1
 70
     1
102
RTVSPropertyOp2
 70
     1
102
RTVSPropertyOp3
 70
     1
102
RTVSPropertyOp4
 70
     1
102
RTVSPropertyOp5
 70
     1
102
RTVSPropertyOp6
 70
     1
102
RTVSPropertyOp7
 70
     1
102
RTVSPropertyOp8
 70
     1
102
RTVSPropertyOp9
 70
     1
102
RTVSPropertyOp10
 70
     1
102
RTVSPropertyOp11
 70
     1
102
RTVSPropertyOp12
 70
     1
102
RTVSPropertyOp13
 70
     1
102
RTVSPropertyOp14
 70
     1
102
RTVSPropertyOp15
 70
     1
102
RTVSPropertyOp16
 70
     1
102
RTVSPropertyOp17
 70
     1
102
RTVSPropertyOp18
 70
     1
102
RTVSPropertyOp19
 70
     1
102
RTVSPropertyOp20
 70
     1
102
RTVSPropertyOp21
 70
     1
102
RTVSPropertyOp22
 70
     1
102
RTVSPropertyOp23
 70
     1
102
RTVSPropertyOp24
 70
     1
102
RTVSPropertyOp25
 70
     1
102
RTVSPropertyOp26
 70
     1
102
RTVSPropertyOp27
 70
     1
102
RTVSPropertyOp28
 70
     1
102
RTVSPropertyOp29
 70
     1
102
RTVSPropertyOp30
 70
     1
102
RTVSPropertyOp31
 70
     1
102
RTVSPropertyOp32
 70
     1
  0
XRECORD
  5
AA75
102
{ACAD_REACTORS
330
AA74
102
}
330
AA74
100
AcDbXrecord
280
     1
102
RTVSPropertyOp0
 70
     1
102
RTVSPropertyOp1
 70
     1
102
RTVSPropertyOp2
 70
     1
102
RTVSPropertyOp3
 70
     1
102
RTVSPropertyOp4
 70
     1
102
RTVSPropertyOp5
 70
     1
102
RTVSPropertyOp6
 70
     1
102
RTVSPropertyOp7
 70
     1
102
RTVSPropertyOp8
 70
     1
102
RTVSPropertyOp9
 70
     1
102
RTVSPropertyOp10
 70
     1
102
RTVSPropertyOp11
 70
     1
102
RTVSPropertyOp12
 70
     1
102
RTVSPropertyOp13
 70
     1
102
RTVSPropertyOp14
 70
     1
102
RTVSPropertyOp15
 70
     1
102
RTVSPropertyOp16
 70
     1
102
RTVSPropertyOp17
 70
     1
102
RTVSPropertyOp18
 70
     1
102
RTVSPropertyOp19
 70
     1
102
RTVSPropertyOp20
 70
     1
102
RTVSPropertyOp21
 70
     1
102
RTVSPropertyOp22
 70
     1
102
RTVSPropertyOp23
 70
     1
102
RTVSPropertyOp24
 70
     1
102
RTVSPropertyOp25
 70
     1
102
RTVSPropertyOp26
 70
     1
102
RTVSPropertyOp27
 70
     1
102
RTVSPropertyOp28
 70
     1
102
RTVSPropertyOp29
 70
     1
102
RTVSPropertyOp30
 70
     1
102
RTVSPropertyOp31
 70
     1
102
RTVSPropertyOp32
 70
     1
  0
XRECORD
  5
AA67
102
{ACAD_REACTORS
330
AA66
102
}
330
AA66
100
AcDbXrecord
280
     1
102
RTVSPropertyOp0
 70
     1
102
RTVSPropertyOp1
 70
     1
102
RTVSPropertyOp2
 70
     1
102
RTVSPropertyOp3
 70
     1
102
RTVSPropertyOp4
 70
     1
102
RTVSPropertyOp5
 70
     1
102
RTVSPropertyOp6
 70
     1
102
RTVSPropertyOp7
 70
     1
102
RTVSPropertyOp8
 70
     1
102
RTVSPropertyOp9
 70
     1
102
RTVSPropertyOp10
 70
     1
102
RTVSPropertyOp11
 70
     1
102
RTVSPropertyOp12
 70
     1
102
RTVSPropertyOp13
 70
     1
102
RTVSPropertyOp14
 70
     1
102
RTVSPropertyOp15
 70
     1
102
RTVSPropertyOp16
 70
     1
102
RTVSPropertyOp17
 70
     1
102
RTVSPropertyOp18
 70
     1
102
RTVSPropertyOp19
 70
     1
102
RTVSPropertyOp20
 70
     1
102
RTVSPropertyOp21
 70
     1
102
RTVSPropertyOp22
 70
     1
102
RTVSPropertyOp23
 70
     1
102
RTVSPropertyOp24
 70
     1
102
RTVSPropertyOp25
 70
     1
102
RTVSPropertyOp26
 70
     1
102
RTVSPropertyOp27
 70
     1
102
RTVSPropertyOp28
 70
     1
102
RTVSPropertyOp29
 70
     1
102
RTVSPropertyOp30
 70
     1
102
RTVSPropertyOp31
 70
     1
102
RTVSPropertyOp32
 70
     1
  0
XRECORD
  5
AA6B
102
{ACAD_REACTORS
330
AA6A
102
}
330
AA6A
100
AcDbXrecord
280
     1
102
RTVSPropertyOp0
 70
     1
102
RTVSPropertyOp1
 70
     1
102
RTVSPropertyOp2
 70
     1
102
RTVSPropertyOp3
 70
     1
102
RTVSPropertyOp4
 70
     1
102
RTVSPropertyOp5
 70
     1
102
RTVSPropertyOp6
 70
     1
102
RTVSPropertyOp7
 70
     1
102
RTVSPropertyOp8
 70
     1
102
RTVSPropertyOp9
 70
     1
102
RTVSPropertyOp10
 70
     1
102
RTVSPropertyOp11
 70
     1
102
RTVSPropertyOp12
 70
     1
102
RTVSPropertyOp13
 70
     1
102
RTVSPropertyOp14
 70
     1
102
RTVSPropertyOp15
 70
     1
102
RTVSPropertyOp16
 70
     1
102
RTVSPropertyOp17
 70
     1
102
RTVSPropertyOp18
 70
     1
102
RTVSPropertyOp19
 70
     1
102
RTVSPropertyOp20
 70
     1
102
RTVSPropertyOp21
 70
     1
102
RTVSPropertyOp22
 70
     1
102
RTVSPropertyOp23
 70
     1
102
RTVSPropertyOp24
 70
     1
102
RTVSPropertyOp25
 70
     1
102
RTVSPropertyOp26
 70
     1
102
RTVSPropertyOp27
 70
     1
102
RTVSPropertyOp28
 70
     1
102
RTVSPropertyOp29
 70
     1
102
RTVSPropertyOp30
 70
     1
102
RTVSPropertyOp31
 70
     1
102
RTVSPropertyOp32
 70
     1
  0
XRECORD
  5
AA85
102
{ACAD_REACTORS
330
AA84
102
}
330
AA84
100
AcDbXrecord
280
     1
102
RTVSPropertyOp0
 70
     0
102
RTVSPropertyOp1
 70
     0
102
RTVSPropertyOp2
 70
     0
102
RTVSPropertyOp3
 70
     0
102
RTVSPropertyOp4
 70
     0
102
RTVSPropertyOp5
 70
     0
102
RTVSPropertyOp6
 70
     0
102
RTVSPropertyOp7
 70
     0
102
RTVSPropertyOp8
 70
     0
102
RTVSPropertyOp9
 70
     0
102
RTVSPropertyOp10
 70
     0
102
RTVSPropertyOp11
 70
     0
102
RTVSPropertyOp12
 70
     0
102
RTVSPropertyOp13
 70
     0
102
RTVSPropertyOp14
 70
     2
102
RTVSPropertyOp15
 70
     0
102
RTVSPropertyOp16
 70
     0
102
RTVSPropertyOp17
 70
     0
102
RTVSPropertyOp18
 70
     0
102
RTVSPropertyOp19
 70
     0
102
RTVSPropertyOp20
 70
     0
102
RTVSPropertyOp21
 70
     0
102
RTVSPropertyOp22
 70
     0
102
RTVSPropertyOp23
 70
     0
102
RTVSPropertyOp24
 70
     0
102
RTVSPropertyOp25
 70
     0
102
RTVSPropertyOp26
 70
     0
102
RTVSPropertyOp27
 70
     0
102
RTVSPropertyOp28
 70
     1
102
RTVSPropertyOp29
 70
     1
102
RTVSPropertyOp30
 70
     1
102
RTVSPropertyOp31
 70
     1
102
RTVSPropertyOp32
 70
     1
  0
XRECORD
  5
AA73
102
{ACAD_REACTORS
330
AA72
102
}
330
AA72
100
AcDbXrecord
280
     1
102
RTVSPropertyOp0
 70
     1
102
RTVSPropertyOp1
 70
     1
102
RTVSPropertyOp2
 70
     1
102
RTVSPropertyOp3
 70
     1
102
RTVSPropertyOp4
 70
     1
102
RTVSPropertyOp5
 70
     1
102
RTVSPropertyOp6
 70
     1
102
RTVSPropertyOp7
 70
     1
102
RTVSPropertyOp8
 70
     1
102
RTVSPropertyOp9
 70
     1
102
RTVSPropertyOp10
 70
     1
102
RTVSPropertyOp11
 70
     1
102
RTVSPropertyOp12
 70
     1
102
RTVSPropertyOp13
 70
     1
102
RTVSPropertyOp14
 70
     1
102
RTVSPropertyOp15
 70
     1
102
RTVSPropertyOp16
 70
     1
102
RTVSPropertyOp17
 70
     1
102
RTVSPropertyOp18
 70
     1
102
RTVSPropertyOp19
 70
     1
102
RTVSPropertyOp20
 70
     1
102
RTVSPropertyOp21
 70
     1
102
RTVSPropertyOp22
 70
     1
102
RTVSPropertyOp23
 70
     1
102
RTVSPropertyOp24
 70
     1
102
RTVSPropertyOp25
 70
     1
102
RTVSPropertyOp26
 70
     1
102
RTVSPropertyOp27
 70
     1
102
RTVSPropertyOp28
 70
     1
102
RTVSPropertyOp29
 70
     1
102
RTVSPropertyOp30
 70
     1
102
RTVSPropertyOp31
 70
     1
102
RTVSPropertyOp32
 70
     1
  0
XRECORD
  5
AA57
102
{ACAD_REACTORS
330
AA56
102
}
330
AA56
100
AcDbXrecord
280
     1
102
RTVSPropertyOp0
 70
     1
102
RTVSPropertyOp1
 70
     1
102
RTVSPropertyOp2
 70
     1
102
RTVSPropertyOp3
 70
     1
102
RTVSPropertyOp4
 70
     1
102
RTVSPropertyOp5
 70
     1
102
RTVSPropertyOp6
 70
     1
102
RTVSPropertyOp7
 70
     1
102
RTVSPropertyOp8
 70
     1
102
RTVSPropertyOp9
 70
     1
102
RTVSPropertyOp10
 70
     1
102
RTVSPropertyOp11
 70
     1
102
RTVSPropertyOp12
 70
     1
102
RTVSPropertyOp13
 70
     1
102
RTVSPropertyOp14
 70
     1
102
RTVSPropertyOp15
 70
     1
102
RTVSPropertyOp16
 70
     1
102
RTVSPropertyOp17
 70
     1
102
RTVSPropertyOp18
 70
     1
102
RTVSPropertyOp19
 70
     1
102
RTVSPropertyOp20
 70
     1
102
RTVSPropertyOp21
 70
     1
102
RTVSPropertyOp22
 70
     1
102
RTVSPropertyOp23
 70
     1
102
RTVSPropertyOp24
 70
     1
102
RTVSPropertyOp25
 70
     1
102
RTVSPropertyOp26
 70
     1
102
RTVSPropertyOp27
 70
     1
102
RTVSPropertyOp28
 70
     1
102
RTVSPropertyOp29
 70
     1
102
RTVSPropertyOp30
 70
     1
102
RTVSPropertyOp31
 70
     1
102
RTVSPropertyOp32
 70
     1
  0
XRECORD
  5
AA59
102
{ACAD_REACTORS
330
AA58
102
}
330
AA58
100
AcDbXrecord
280
     1
102
RTVSPropertyOp0
 70
     1
102
RTVSPropertyOp1
 70
     1
102
RTVSPropertyOp2
 70
     1
102
RTVSPropertyOp3
 70
     1
102
RTVSPropertyOp4
 70
     1
102
RTVSPropertyOp5
 70
     1
102
RTVSPropertyOp6
 70
     1
102
RTVSPropertyOp7
 70
     1
102
RTVSPropertyOp8
 70
     1
102
RTVSPropertyOp9
 70
     1
102
RTVSPropertyOp10
 70
     1
102
RTVSPropertyOp11
 70
     1
102
RTVSPropertyOp12
 70
     1
102
RTVSPropertyOp13
 70
     1
102
RTVSPropertyOp14
 70
     1
102
RTVSPropertyOp15
 70
     1
102
RTVSPropertyOp16
 70
     1
102
RTVSPropertyOp17
 70
     1
102
RTVSPropertyOp18
 70
     1
102
RTVSPropertyOp19
 70
     1
102
RTVSPropertyOp20
 70
     1
102
RTVSPropertyOp21
 70
     1
102
RTVSPropertyOp22
 70
     1
102
RTVSPropertyOp23
 70
     1
102
RTVSPropertyOp24
 70
     1
102
RTVSPropertyOp25
 70
     1
102
RTVSPropertyOp26
 70
     1
102
RTVSPropertyOp27
 70
     1
102
RTVSPropertyOp28
 70
     1
102
RTVSPropertyOp29
 70
     1
102
RTVSPropertyOp30
 70
     1
102
RTVSPropertyOp31
 70
     1
102
RTVSPropertyOp32
 70
     1
  0
XRECORD
  5
AA5B
102
{ACAD_REACTORS
330
AA5A
102
}
330
AA5A
100
AcDbXrecord
280
     1
102
RTVSPropertyOp0
 70
     1
102
RTVSPropertyOp1
 70
     1
102
RTVSPropertyOp2
 70
     1
102
RTVSPropertyOp3
 70
     1
102
RTVSPropertyOp4
 70
     1
102
RTVSPropertyOp5
 70
     1
102
RTVSPropertyOp6
 70
     1
102
RTVSPropertyOp7
 70
     1
102
RTVSPropertyOp8
 70
     1
102
RTVSPropertyOp9
 70
     1
102
RTVSPropertyOp10
 70
     1
102
RTVSPropertyOp11
 70
     1
102
RTVSPropertyOp12
 70
     1
102
RTVSPropertyOp13
 70
     1
102
RTVSPropertyOp14
 70
     1
102
RTVSPropertyOp15
 70
     1
102
RTVSPropertyOp16
 70
     1
102
RTVSPropertyOp17
 70
     1
102
RTVSPropertyOp18
 70
     1
102
RTVSPropertyOp19
 70
     1
102
RTVSPropertyOp20
 70
     1
102
RTVSPropertyOp21
 70
     1
102
RTVSPropertyOp22
 70
     1
102
RTVSPropertyOp23
 70
     1
102
RTVSPropertyOp24
 70
     1
102
RTVSPropertyOp25
 70
     1
102
RTVSPropertyOp26
 70
     1
102
RTVSPropertyOp27
 70
     1
102
RTVSPropertyOp28
 70
     1
102
RTVSPropertyOp29
 70
     1
102
RTVSPropertyOp30
 70
     1
102
RTVSPropertyOp31
 70
     1
102
RTVSPropertyOp32
 70
     1
  0
XRECORD
  5
AA5D
102
{ACAD_REACTORS
330
AA5C
102
}
330
AA5C
100
AcDbXrecord
280
     1
102
RTVSPropertyOp0
 70
     1
102
RTVSPropertyOp1
 70
     1
102
RTVSPropertyOp2
 70
     1
102
RTVSPropertyOp3
 70
     1
102
RTVSPropertyOp4
 70
     1
102
RTVSPropertyOp5
 70
     1
102
RTVSPropertyOp6
 70
     1
102
RTVSPropertyOp7
 70
     1
102
RTVSPropertyOp8
 70
     1
102
RTVSPropertyOp9
 70
     1
102
RTVSPropertyOp10
 70
     1
102
RTVSPropertyOp11
 70
     1
102
RTVSPropertyOp12
 70
     1
102
RTVSPropertyOp13
 70
     1
102
RTVSPropertyOp14
 70
     1
102
RTVSPropertyOp15
 70
     1
102
RTVSPropertyOp16
 70
     1
102
RTVSPropertyOp17
 70
     1
102
RTVSPropertyOp18
 70
     1
102
RTVSPropertyOp19
 70
     1
102
RTVSPropertyOp20
 70
     1
102
RTVSPropertyOp21
 70
     1
102
RTVSPropertyOp22
 70
     1
102
RTVSPropertyOp23
 70
     1
102
RTVSPropertyOp24
 70
     1
102
RTVSPropertyOp25
 70
     1
102
RTVSPropertyOp26
 70
     1
102
RTVSPropertyOp27
 70
     1
102
RTVSPropertyOp28
 70
     1
102
RTVSPropertyOp29
 70
     1
102
RTVSPropertyOp30
 70
     1
102
RTVSPropertyOp31
 70
     1
102
RTVSPropertyOp32
 70
     1
  0
XRECORD
  5
AA65
102
{ACAD_REACTORS
330
AA64
102
}
330
AA64
100
AcDbXrecord
280
     1
102
RTVSPropertyOp0
 70
     1
102
RTVSPropertyOp1
 70
     1
102
RTVSPropertyOp2
 70
     1
102
RTVSPropertyOp3
 70
     1
102
RTVSPropertyOp4
 70
     1
102
RTVSPropertyOp5
 70
     1
102
RTVSPropertyOp6
 70
     1
102
RTVSPropertyOp7
 70
     1
102
RTVSPropertyOp8
 70
     1
102
RTVSPropertyOp9
 70
     1
102
RTVSPropertyOp10
 70
     1
102
RTVSPropertyOp11
 70
     1
102
RTVSPropertyOp12
 70
     1
102
RTVSPropertyOp13
 70
     1
102
RTVSPropertyOp14
 70
     1
102
RTVSPropertyOp15
 70
     1
102
RTVSPropertyOp16
 70
     1
102
RTVSPropertyOp17
 70
     1
102
RTVSPropertyOp18
 70
     1
102
RTVSPropertyOp19
 70
     1
102
RTVSPropertyOp20
 70
     1
102
RTVSPropertyOp21
 70
     1
102
RTVSPropertyOp22
 70
     1
102
RTVSPropertyOp23
 70
     1
102
RTVSPropertyOp24
 70
     1
102
RTVSPropertyOp25
 70
     1
102
RTVSPropertyOp26
 70
     1
102
RTVSPropertyOp27
 70
     1
102
RTVSPropertyOp28
 70
     1
102
RTVSPropertyOp29
 70
     1
102
RTVSPropertyOp30
 70
     1
102
RTVSPropertyOp31
 70
     1
102
RTVSPropertyOp32
 70
     1
  0
XRECORD
  5
AA81
102
{ACAD_REACTORS
330
AA80
102
}
330
AA80
100
AcDbXrecord
280
     1
102
RTVSPropertyOp0
 70
     0
102
RTVSPropertyOp1
 70
     0
102
RTVSPropertyOp2
 70
     0
102
RTVSPropertyOp3
 70
     0
102
RTVSPropertyOp4
 70
     0
102
RTVSPropertyOp5
 70
     0
102
RTVSPropertyOp6
 70
     0
102
RTVSPropertyOp7
 70
     0
102
RTVSPropertyOp8
 70
     0
102
RTVSPropertyOp9
 70
     0
102
RTVSPropertyOp10
 70
     0
102
RTVSPropertyOp11
 70
     0
102
RTVSPropertyOp12
 70
     0
102
RTVSPropertyOp13
 70
     0
102
RTVSPropertyOp14
 70
     2
102
RTVSPropertyOp15
 70
     0
102
RTVSPropertyOp16
 70
     0
102
RTVSPropertyOp17
 70
     0
102
RTVSPropertyOp18
 70
     0
102
RTVSPropertyOp19
 70
     0
102
RTVSPropertyOp20
 70
     0
102
RTVSPropertyOp21
 70
     0
102
RTVSPropertyOp22
 70
     0
102
RTVSPropertyOp23
 70
     0
102
RTVSPropertyOp24
 70
     0
102
RTVSPropertyOp25
 70
     0
102
RTVSPropertyOp26
 70
     0
102
RTVSPropertyOp27
 70
     0
102
RTVSPropertyOp28
 70
     1
102
RTVSPropertyOp29
 70
     1
102
RTVSPropertyOp30
 70
     1
102
RTVSPropertyOp31
 70
     1
102
RTVSPropertyOp32
 70
     1
  0
XRECORD
  5
AA71
102
{ACAD_REACTORS
330
AA70
102
}
330
AA70
100
AcDbXrecord
280
     1
102
RTVSPropertyOp0
 70
     1
102
RTVSPropertyOp1
 70
     1
102
RTVSPropertyOp2
 70
     1
102
RTVSPropertyOp3
 70
     1
102
RTVSPropertyOp4
 70
     1
102
RTVSPropertyOp5
 70
     1
102
RTVSPropertyOp6
 70
     1
102
RTVSPropertyOp7
 70
     1
102
RTVSPropertyOp8
 70
     1
102
RTVSPropertyOp9
 70
     1
102
RTVSPropertyOp10
 70
     1
102
RTVSPropertyOp11
 70
     1
102
RTVSPropertyOp12
 70
     1
102
RTVSPropertyOp13
 70
     1
102
RTVSPropertyOp14
 70
     1
102
RTVSPropertyOp15
 70
     1
102
RTVSPropertyOp16
 70
     1
102
RTVSPropertyOp17
 70
     1
102
RTVSPropertyOp18
 70
     1
102
RTVSPropertyOp19
 70
     1
102
RTVSPropertyOp20
 70
     1
102
RTVSPropertyOp21
 70
     1
102
RTVSPropertyOp22
 70
     1
102
RTVSPropertyOp23
 70
     1
102
RTVSPropertyOp24
 70
     1
102
RTVSPropertyOp25
 70
     1
102
RTVSPropertyOp26
 70
     1
102
RTVSPropertyOp27
 70
     1
102
RTVSPropertyOp28
 70
     1
102
RTVSPropertyOp29
 70
     1
102
RTVSPropertyOp30
 70
     1
102
RTVSPropertyOp31
 70
     1
102
RTVSPropertyOp32
 70
     1
  0
XRECORD
  5
AA83
102
{ACAD_REACTORS
330
AA82
102
}
330
AA82
100
AcDbXrecord
280
     1
102
RTVSPropertyOp0
 70
     0
102
RTVSPropertyOp1
 70
     0
102
RTVSPropertyOp2
 70
     0
102
RTVSPropertyOp3
 70
     0
102
RTVSPropertyOp4
 70
     0
102
RTVSPropertyOp5
 70
     0
102
RTVSPropertyOp6
 70
     0
102
RTVSPropertyOp7
 70
     0
102
RTVSPropertyOp8
 70
     0
102
RTVSPropertyOp9
 70
     0
102
RTVSPropertyOp10
 70
     0
102
RTVSPropertyOp11
 70
     0
102
RTVSPropertyOp12
 70
     0
102
RTVSPropertyOp13
 70
     0
102
RTVSPropertyOp14
 70
     2
102
RTVSPropertyOp15
 70
     0
102
RTVSPropertyOp16
 70
     0
102
RTVSPropertyOp17
 70
     0
102
RTVSPropertyOp18
 70
     0
102
RTVSPropertyOp19
 70
     0
102
RTVSPropertyOp20
 70
     0
102
RTVSPropertyOp21
 70
     0
102
RTVSPropertyOp22
 70
     0
102
RTVSPropertyOp23
 70
     0
102
RTVSPropertyOp24
 70
     0
102
RTVSPropertyOp25
 70
     0
102
RTVSPropertyOp26
 70
     0
102
RTVSPropertyOp27
 70
     0
102
RTVSPropertyOp28
 70
     1
102
RTVSPropertyOp29
 70
     1
102
RTVSPropertyOp30
 70
     1
102
RTVSPropertyOp31
 70
     1
102
RTVSPropertyOp32
 70
     1
  0
XRECORD
  5
AA69
102
{ACAD_REACTORS
330
AA68
102
}
330
AA68
100
AcDbXrecord
280
     1
102
RTVSPropertyOp0
 70
     1
102
RTVSPropertyOp1
 70
     1
102
RTVSPropertyOp2
 70
     1
102
RTVSPropertyOp3
 70
     1
102
RTVSPropertyOp4
 70
     1
102
RTVSPropertyOp5
 70
     1
102
RTVSPropertyOp6
 70
     1
102
RTVSPropertyOp7
 70
     1
102
RTVSPropertyOp8
 70
     1
102
RTVSPropertyOp9
 70
     1
102
RTVSPropertyOp10
 70
     1
102
RTVSPropertyOp11
 70
     1
102
RTVSPropertyOp12
 70
     1
102
RTVSPropertyOp13
 70
     1
102
RTVSPropertyOp14
 70
     1
102
RTVSPropertyOp15
 70
     1
102
RTVSPropertyOp16
 70
     1
102
RTVSPropertyOp17
 70
     1
102
RTVSPropertyOp18
 70
     1
102
RTVSPropertyOp19
 70
     1
102
RTVSPropertyOp20
 70
     1
102
RTVSPropertyOp21
 70
     1
102
RTVSPropertyOp22
 70
     1
102
RTVSPropertyOp23
 70
     1
102
RTVSPropertyOp24
 70
     1
102
RTVSPropertyOp25
 70
     1
102
RTVSPropertyOp26
 70
     1
102
RTVSPropertyOp27
 70
     1
102
RTVSPropertyOp28
 70
     1
102
RTVSPropertyOp29
 70
     1
102
RTVSPropertyOp30
 70
     1
102
RTVSPropertyOp31
 70
     1
102
RTVSPropertyOp32
 70
     1
  0
XRECORD
  5
AA7F
102
{ACAD_REACTORS
330
AA7E
102
}
330
AA7E
100
AcDbXrecord
280
     1
102
RTVSPropertyOp0
 70
     1
102
RTVSPropertyOp1
 70
     1
102
RTVSPropertyOp2
 70
     1
102
RTVSPropertyOp3
 70
     1
102
RTVSPropertyOp4
 70
     1
102
RTVSPropertyOp5
 70
     1
102
RTVSPropertyOp6
 70
     1
102
RTVSPropertyOp7
 70
     1
102
RTVSPropertyOp8
 70
     1
102
RTVSPropertyOp9
 70
     1
102
RTVSPropertyOp10
 70
     1
102
RTVSPropertyOp11
 70
     1
102
RTVSPropertyOp12
 70
     1
102
RTVSPropertyOp13
 70
     1
102
RTVSPropertyOp14
 70
     1
102
RTVSPropertyOp15
 70
     1
102
RTVSPropertyOp16
 70
     1
102
RTVSPropertyOp17
 70
     1
102
RTVSPropertyOp18
 70
     1
102
RTVSPropertyOp19
 70
     1
102
RTVSPropertyOp20
 70
     1
102
RTVSPropertyOp21
 70
     1
102
RTVSPropertyOp22
 70
     1
102
RTVSPropertyOp23
 70
     1
102
RTVSPropertyOp24
 70
     1
102
RTVSPropertyOp25
 70
     1
102
RTVSPropertyOp26
 70
     1
102
RTVSPropertyOp27
 70
     1
102
RTVSPropertyOp28
 70
     1
102
RTVSPropertyOp29
 70
     1
102
RTVSPropertyOp30
 70
     1
102
RTVSPropertyOp31
 70
     1
102
RTVSPropertyOp32
 70
     1
  0
XRECORD
  5
AA7D
102
{ACAD_REACTORS
330
AA7C
102
}
330
AA7C
100
AcDbXrecord
280
     1
102
RTVSPropertyOp0
 70
     1
102
RTVSPropertyOp1
 70
     1
102
RTVSPropertyOp2
 70
     1
102
RTVSPropertyOp3
 70
     1
102
RTVSPropertyOp4
 70
     1
102
RTVSPropertyOp5
 70
     1
102
RTVSPropertyOp6
 70
     1
102
RTVSPropertyOp7
 70
     1
102
RTVSPropertyOp8
 70
     1
102
RTVSPropertyOp9
 70
     1
102
RTVSPropertyOp10
 70
     1
102
RTVSPropertyOp11
 70
     1
102
RTVSPropertyOp12
 70
     1
102
RTVSPropertyOp13
 70
     1
102
RTVSPropertyOp14
 70
     1
102
RTVSPropertyOp15
 70
     1
102
RTVSPropertyOp16
 70
     1
102
RTVSPropertyOp17
 70
     1
102
RTVSPropertyOp18
 70
     1
102
RTVSPropertyOp19
 70
     1
102
RTVSPropertyOp20
 70
     1
102
RTVSPropertyOp21
 70
     1
102
RTVSPropertyOp22
 70
     1
102
RTVSPropertyOp23
 70
     1
102
RTVSPropertyOp24
 70
     1
102
RTVSPropertyOp25
 70
     1
102
RTVSPropertyOp26
 70
     1
102
RTVSPropertyOp27
 70
     1
102
RTVSPropertyOp28
 70
     1
102
RTVSPropertyOp29
 70
     1
102
RTVSPropertyOp30
 70
     1
102
RTVSPropertyOp31
 70
     1
102
RTVSPropertyOp32
 70
     1
  0
XRECORD
  5
AA77
102
{ACAD_REACTORS
330
AA76
102
}
330
AA76
100
AcDbXrecord
280
     1
102
RTVSPropertyOp0
 70
     1
102
RTVSPropertyOp1
 70
     1
102
RTVSPropertyOp2
 70
     1
102
RTVSPropertyOp3
 70
     1
102
RTVSPropertyOp4
 70
     1
102
RTVSPropertyOp5
 70
     1
102
RTVSPropertyOp6
 70
     1
102
RTVSPropertyOp7
 70
     1
102
RTVSPropertyOp8
 70
     1
102
RTVSPropertyOp9
 70
     1
102
RTVSPropertyOp10
 70
     1
102
RTVSPropertyOp11
 70
     1
102
RTVSPropertyOp12
 70
     1
102
RTVSPropertyOp13
 70
     1
102
RTVSPropertyOp14
 70
     1
102
RTVSPropertyOp15
 70
     1
102
RTVSPropertyOp16
 70
     1
102
RTVSPropertyOp17
 70
     1
102
RTVSPropertyOp18
 70
     1
102
RTVSPropertyOp19
 70
     1
102
RTVSPropertyOp20
 70
     1
102
RTVSPropertyOp21
 70
     1
102
RTVSPropertyOp22
 70
     1
102
RTVSPropertyOp23
 70
     1
102
RTVSPropertyOp24
 70
     1
102
RTVSPropertyOp25
 70
     1
102
RTVSPropertyOp26
 70
     1
102
RTVSPropertyOp27
 70
     1
102
RTVSPropertyOp28
 70
     1
102
RTVSPropertyOp29
 70
     1
102
RTVSPropertyOp30
 70
     1
102
RTVSPropertyOp31
 70
     1
102
RTVSPropertyOp32
 70
     1
  0
XRECORD
  5
AA79
102
{ACAD_REACTORS
330
AA78
102
}
330
AA78
100
AcDbXrecord
280
     1
102
RTVSPropertyOp0
 70
     1
102
RTVSPropertyOp1
 70
     1
102
RTVSPropertyOp2
 70
     1
102
RTVSPropertyOp3
 70
     1
102
RTVSPropertyOp4
 70
     1
102
RTVSPropertyOp5
 70
     1
102
RTVSPropertyOp6
 70
     1
102
RTVSPropertyOp7
 70
     1
102
RTVSPropertyOp8
 70
     1
102
RTVSPropertyOp9
 70
     1
102
RTVSPropertyOp10
 70
     1
102
RTVSPropertyOp11
 70
     1
102
RTVSPropertyOp12
 70
     1
102
RTVSPropertyOp13
 70
     1
102
RTVSPropertyOp14
 70
     1
102
RTVSPropertyOp15
 70
     1
102
RTVSPropertyOp16
 70
     1
102
RTVSPropertyOp17
 70
     1
102
RTVSPropertyOp18
 70
     1
102
RTVSPropertyOp19
 70
     1
102
RTVSPropertyOp20
 70
     1
102
RTVSPropertyOp21
 70
     1
102
RTVSPropertyOp22
 70
     1
102
RTVSPropertyOp23
 70
     1
102
RTVSPropertyOp24
 70
     1
102
RTVSPropertyOp25
 70
     1
102
RTVSPropertyOp26
 70
     1
102
RTVSPropertyOp27
 70
     1
102
RTVSPropertyOp28
 70
     1
102
RTVSPropertyOp29
 70
     1
102
RTVSPropertyOp30
 70
     1
102
RTVSPropertyOp31
 70
     1
102
RTVSPropertyOp32
 70
     1
  0
XRECORD
  5
AA6F
102
{ACAD_REACTORS
330
AA6E
102
}
330
AA6E
100
AcDbXrecord
280
     1
102
RTVSPropertyOp0
 70
     1
102
RTVSPropertyOp1
 70
     1
102
RTVSPropertyOp2
 70
     1
102
RTVSPropertyOp3
 70
     1
102
RTVSPropertyOp4
 70
     1
102
RTVSPropertyOp5
 70
     1
102
RTVSPropertyOp6
 70
     1
102
RTVSPropertyOp7
 70
     1
102
RTVSPropertyOp8
 70
     1
102
RTVSPropertyOp9
 70
     1
102
RTVSPropertyOp10
 70
     1
102
RTVSPropertyOp11
 70
     1
102
RTVSPropertyOp12
 70
     1
102
RTVSPropertyOp13
 70
     1
102
RTVSPropertyOp14
 70
     1
102
RTVSPropertyOp15
 70
     1
102
RTVSPropertyOp16
 70
     1
102
RTVSPropertyOp17
 70
     1
102
RTVSPropertyOp18
 70
     1
102
RTVSPropertyOp19
 70
     1
102
RTVSPropertyOp20
 70
     1
102
RTVSPropertyOp21
 70
     1
102
RTVSPropertyOp22
 70
     1
102
RTVSPropertyOp23
 70
     1
102
RTVSPropertyOp24
 70
     1
102
RTVSPropertyOp25
 70
     1
102
RTVSPropertyOp26
 70
     1
102
RTVSPropertyOp27
 70
     1
102
RTVSPropertyOp28
 70
     1
102
RTVSPropertyOp29
 70
     1
102
RTVSPropertyOp30
 70
     1
102
RTVSPropertyOp31
 70
     1
102
RTVSPropertyOp32
 70
     1
  0
XRECORD
  5
AA63
102
{ACAD_REACTORS
330
AA62
102
}
330
AA62
100
AcDbXrecord
280
     1
102
RTVSPropertyOp0
 70
     1
102
RTVSPropertyOp1
 70
     1
102
RTVSPropertyOp2
 70
     1
102
RTVSPropertyOp3
 70
     1
102
RTVSPropertyOp4
 70
     1
102
RTVSPropertyOp5
 70
     1
102
RTVSPropertyOp6
 70
     1
102
RTVSPropertyOp7
 70
     1
102
RTVSPropertyOp8
 70
     1
102
RTVSPropertyOp9
 70
     1
102
RTVSPropertyOp10
 70
     1
102
RTVSPropertyOp11
 70
     1
102
RTVSPropertyOp12
 70
     1
102
RTVSPropertyOp13
 70
     1
102
RTVSPropertyOp14
 70
     1
102
RTVSPropertyOp15
 70
     1
102
RTVSPropertyOp16
 70
     1
102
RTVSPropertyOp17
 70
     1
102
RTVSPropertyOp18
 70
     1
102
RTVSPropertyOp19
 70
     1
102
RTVSPropertyOp20
 70
     1
102
RTVSPropertyOp21
 70
     1
102
RTVSPropertyOp22
 70
     1
102
RTVSPropertyOp23
 70
     1
102
RTVSPropertyOp24
 70
     1
102
RTVSPropertyOp25
 70
     1
102
RTVSPropertyOp26
 70
     1
102
RTVSPropertyOp27
 70
     1
102
RTVSPropertyOp28
 70
     1
102
RTVSPropertyOp29
 70
     1
102
RTVSPropertyOp30
 70
     1
102
RTVSPropertyOp31
 70
     1
102
RTVSPropertyOp32
 70
     1
  0
XRECORD
  5
AA7B
102
{ACAD_REACTORS
330
AA7A
102
}
330
AA7A
100
AcDbXrecord
280
     1
102
RTVSPropertyOp0
 70
     1
102
RTVSPropertyOp1
 70
     1
102
RTVSPropertyOp2
 70
     1
102
RTVSPropertyOp3
 70
     1
102
RTVSPropertyOp4
 70
     1
102
RTVSPropertyOp5
 70
     1
102
RTVSPropertyOp6
 70
     1
102
RTVSPropertyOp7
 70
     1
102
RTVSPropertyOp8
 70
     1
102
RTVSPropertyOp9
 70
     1
102
RTVSPropertyOp10
 70
     1
102
RTVSPropertyOp11
 70
     1
102
RTVSPropertyOp12
 70
     1
102
RTVSPropertyOp13
 70
     1
102
RTVSPropertyOp14
 70
     1
102
RTVSPropertyOp15
 70
     1
102
RTVSPropertyOp16
 70
     1
102
RTVSPropertyOp17
 70
     1
102
RTVSPropertyOp18
 70
     1
102
RTVSPropertyOp19
 70
     1
102
RTVSPropertyOp20
 70
     1
102
RTVSPropertyOp21
 70
     1
102
RTVSPropertyOp22
 70
     1
102
RTVSPropertyOp23
 70
     1
102
RTVSPropertyOp24
 70
     1
102
RTVSPropertyOp25
 70
     1
102
RTVSPropertyOp26
 70
     1
102
RTVSPropertyOp27
 70
     1
102
RTVSPropertyOp28
 70
     1
102
RTVSPropertyOp29
 70
     1
102
RTVSPropertyOp30
 70
     1
102
RTVSPropertyOp31
 70
     1
102
RTVSPropertyOp32
 70
     1
  0
ENDSEC
  0
EOF
