  0
SECTION
  2
HEADER
  9
$ACADVER
  1
AC1018
  9
$ACADMAINTVER
 70
   104
  9
$DWGCODEPAGE
  3
ANSI_932
  9
$LASTSAVEDBY
  1
HON1000CV
  9
$INSBASE
 10
0.0
 20
0.0
 30
0.0
  9
$EXTMIN
 10
1214.453782150879
 20
540.1527959545693
 30
0.0
  9
$EXTMAX
 10
1919.49523315088
 20
1022.899860847745
 30
0.0
  9
$LIMMIN
 10
0.0
 20
0.0
  9
$LIMMAX
 10
420.0
 20
297.0
  9
$ORTHOMODE
 70
     0
  9
$REGENMODE
 70
     1
  9
$FILLMODE
 70
     1
  9
$QTEXTMODE
 70
     0
  9
$MIRRTEXT
 70
     1
  9
$LTSCALE
 40
3.0
  9
$ATTMODE
 70
     1
  9
$TEXTSIZE
 40
5.0
  9
$TRACEWID
 40
0.05
  9
$TEXTSTYLE
  7
ACAD
  9
$CLAYER
  8
0
  9
$CELTYPE
  6
CONTINUOUS
  9
$CECOLOR
 62
   256
  9
$CELTSCALE
 40
1.0
  9
$DISPSILH
 70
     0
  9
$DIMSCALE
 40
1.0
  9
$DIMASZ
 40
5.0
  9
$DIMEXO
 40
0.0
  9
$DIMDLI
 40
0.38
  9
$DIMRND
 40
0.0
  9
$DIMDLE
 40
0.0
  9
$DIMEXE
 40
0.0
  9
$DIMTP
 40
0.0
  9
$DIMTM
 40
0.0
  9
$DIMTXT
 40
6.5
  9
$DIMCEN
 40
0.09
  9
$DIMTSZ
 40
0.0
  9
$DIMTOL
 70
     0
  9
$DIMLIM
 70
     0
  9
$DIMTIH
 70
     0
  9
$DIMTOH
 70
     1
  9
$DIMSE1
 70
     0
  9
$DIMSE2
 70
     0
  9
$DIMTAD
 70
     1
  9
$DIMZIN
 70
     0
  9
$DIMBLK
  1
Small
  9
$DIMASO
 70
     1
  9
$DIMSHO
 70
     1
  9
$DIMPOST
  1

  9
$DIMAPOST
  1

  9
$DIMALT
 70
     0
  9
$DIMALTD
 70
     2
  9
$DIMALTF
 40
25.4
  9
$DIMLFAC
 40
1.0
  9
$DIMTOFL
 70
     0
  9
$DIMTVP
 40
0.0
  9
$DIMTIX
 70
     1
  9
$DIMSOXD
 70
     0
  9
$DIMSAH
 70
     0
  9
$DIMBLK1
  1

  9
$DIMBLK2
  1

  9
$DIMSTYLE
  2
AutoCAD
  9
$DIMCLRD
 70
     4
  9
$DIMCLRE
 70
     4
  9
$DIMCLRT
 70
     3
  9
$DIMTFAC
 40
1.0
  9
$DIMGAP
 40
3.0
  9
$DIMJUST
 70
     0
  9
$DIMSD1
 70
     0
  9
$DIMSD2
 70
     0
  9
$DIMTOLJ
 70
     1
  9
$DIMTZIN
 70
     0
  9
$DIMALTZ
 70
     0
  9
$DIMALTTZ
 70
     0
  9
$DIMUPT
 70
     0
  9
$DIMDEC
 70
     0
  9
$DIMTDEC
 70
     0
  9
$DIMALTU
 70
     2
  9
$DIMALTTD
 70
     2
  9
$DIMTXSTY
  7
ACAD
  9
$DIMAUNIT
 70
     0
  9
$DIMADEC
 70
     0
  9
$DIMALTRND
 40
0.0
  9
$DIMAZIN
 70
     0
  9
$DIMDSEP
 70
    46
  9
$DIMATFIT
 70
     0
  9
$DIMFRAC
 70
     0
  9
$DIMLDRBLK
  1
None
  9
$DIMLUNIT
 70
     2
  9
$DIMLWD
 70
    -2
  9
$DIMLWE
 70
    -2
  9
$DIMTMOVE
 70
     0
  9
$LUNITS
 70
     2
  9
$LUPREC
 70
     4
  9
$SKETCHINC
 40
0.1
  9
$FILLETRAD
 40
2.299999999999999
  9
$AUNITS
 70
     0
  9
$AUPREC
 70
     0
  9
$MENU
  1
.
  9
$ELEVATION
 40
0.0
  9
$PELEVATION
 40
0.0
  9
$THICKNESS
 40
0.0
  9
$LIMCHECK
 70
     0
  9
$CHAMFERA
 40
0.0
  9
$CHAMFERB
 40
0.0
  9
$CHAMFERC
 40
0.0
  9
$CHAMFERD
 40
0.0
  9
$SKPOLY
 70
     0
  9
$TDCREATE
 40
2454316.693457674
  9
$TDUCREATE
 40
2454316.318457674
  9
$TDUPDATE
 40
2455961.434494433
  9
$TDUUPDATE
 40
2455961.059494433
  9
$TDINDWG
 40
1.0752227083
  9
$TDUSRTIMER
 40
1.0752227083
  9
$USRTIMER
 70
     1
  9
$ANGBASE
 50
0.0
  9
$ANGDIR
 70
     0
  9
$PDMODE
 70
     0
  9
$PDSIZE
 40
0.0
  9
$PLINEWID
 40
0.0
  9
$SPLFRAME
 70
     0
  9
$SPLINETYPE
 70
     6
  9
$SPLINESEGS
 70
     8
  9
$HANDSEED
  5
7CDD
  9
$SURFTAB1
 70
     6
  9
$SURFTAB2
 70
     6
  9
$SURFTYPE
 70
     6
  9
$SURFU
 70
     6
  9
$SURFV
 70
     6
  9
$UCSBASE
  2

  9
$UCSNAME
  2

  9
$UCSORG
 10
0.0
 20
0.0
 30
0.0
  9
$UCSXDIR
 10
1.0
 20
0.0
 30
0.0
  9
$UCSYDIR
 10
0.0
 20
1.0
 30
0.0
  9
$UCSORTHOREF
  2

  9
$UCSORTHOVIEW
 70
     0
  9
$UCSORGTOP
 10
0.0
 20
0.0
 30
0.0
  9
$UCSORGBOTTOM
 10
0.0
 20
0.0
 30
0.0
  9
$UCSORGLEFT
 10
0.0
 20
0.0
 30
0.0
  9
$UCSORGRIGHT
 10
0.0
 20
0.0
 30
0.0
  9
$UCSORGFRONT
 10
0.0
 20
0.0
 30
0.0
  9
$UCSORGBACK
 10
0.0
 20
0.0
 30
0.0
  9
$PUCSBASE
  2

  9
$PUCSNAME
  2

  9
$PUCSORG
 10
0.0
 20
0.0
 30
0.0
  9
$PUCSXDIR
 10
1.0
 20
0.0
 30
0.0
  9
$PUCSYDIR
 10
0.0
 20
1.0
 30
0.0
  9
$PUCSORTHOREF
  2

  9
$PUCSORTHOVIEW
 70
     0
  9
$PUCSORGTOP
 10
0.0
 20
0.0
 30
0.0
  9
$PUCSORGBOTTOM
 10
0.0
 20
0.0
 30
0.0
  9
$PUCSORGLEFT
 10
0.0
 20
0.0
 30
0.0
  9
$PUCSORGRIGHT
 10
0.0
 20
0.0
 30
0.0
  9
$PUCSORGFRONT
 10
0.0
 20
0.0
 30
0.0
  9
$PUCSORGBACK
 10
0.0
 20
0.0
 30
0.0
  9
$USERI1
 70
     0
  9
$USERI2
 70
     0
  9
$USERI3
 70
     0
  9
$USERI4
 70
     0
  9
$USERI5
 70
     0
  9
$USERR1
 40
0.0
  9
$USERR2
 40
0.0
  9
$USERR3
 40
0.0
  9
$USERR4
 40
0.0
  9
$USERR5
 40
0.0
  9
$WORLDVIEW
 70
     1
  9
$SHADEDGE
 70
     3
  9
$SHADEDIF
 70
    70
  9
$TILEMODE
 70
     1
  9
$MAXACTVP
 70
    48
  9
$PINSBASE
 10
0.0
 20
0.0
 30
0.0
  9
$PLIMCHECK
 70
     0
  9
$PEXTMIN
 10
1.000000000000000E+20
 20
1.000000000000000E+20
 30
1.000000000000000E+20
  9
$PEXTMAX
 10
-1.000000000000000E+20
 20
-1.000000000000000E+20
 30
-1.000000000000000E+20
  9
$PLIMMIN
 10
0.0
 20
0.0
  9
$PLIMMAX
 10
12.0
 20
9.0
  9
$UNITMODE
 70
     0
  9
$VISRETAIN
 70
     0
  9
$PLINEGEN
 70
     0
  9
$PSLTSCALE
 70
     1
  9
$TREEDEPTH
 70
  3020
  9
$CMLSTYLE
  2
Standard
  9
$CMLJUST
 70
     0
  9
$CMLSCALE
 40
1.0
  9
$PROXYGRAPHICS
 70
     1
  9
$MEASUREMENT
 70
     0
  9
$CELWEIGHT
370
    -1
  9
$ENDCAPS
280
     0
  9
$JOINSTYLE
280
     0
  9
$LWDISPLAY
290
     0
  9
$INSUNITS
 70
     0
  9
$HYPERLINKBASE
  1

  9
$STYLESHEET
  1
monochrome.ctb
  9
$XEDIT
290
     1
  9
$CEPSNTYPE
380
     0
  9
$PSTYLEMODE
290
     1
  9
$FINGERPRINTGUID
  2
{CC7D6DEE-A9F1-4F3E-AC95-C84B62CCA3FD}
  9
$VERSIONGUID
  2
{275883C4-EFC0-4FC7-BF65-2E206CC03A99}
  9
$EXTNAMES
290
     1
  9
$PSVPSCALE
 40
0.0
  9
$OLESTARTUP
290
     0
  9
$SORTENTS
280
   127
  9
$INDEXCTL
280
     0
  9
$HIDETEXT
280
     0
  9
$XCLIPFRAME
290
     0
  9
$HALOGAP
280
     0
  9
$OBSCOLOR
 70
   257
  9
$OBSLTYPE
280
     0
  9
$INTERSECTIONDISPLAY
280
     0
  9
$INTERSECTIONCOLOR
 70
   257
  9
$DIMASSOC
280
     1
  9
$PROJECTNAME
  1

  0
ENDSEC
  0
SECTION
  2
CLASSES
  0
CLASS
  1
ACDBDICTIONARYWDFLT
  2
AcDbDictionaryWithDefault
  3
ObjectDBX Classes
 90
        0
 91
        1
280
     0
281
     0
  0
CLASS
  1
DICTIONARYVAR
  2
AcDbDictionaryVar
  3
ObjectDBX Classes
 90
        0
 91
       10
280
     0
281
     0
  0
CLASS
  1
MATERIAL
  2
AcDbMaterial
  3
ObjectDBX Classes
 90
     1153
 91
        3
280
     0
281
     0
  0
CLASS
  1
VISUALSTYLE
  2
AcDbVisualStyle
  3
ObjectDBX Classes
 90
     4095
 91
       25
280
     0
281
     0
  0
CLASS
  1
TABLESTYLE
  2
AcDbTableStyle
  3
ObjectDBX Classes
 90
     4095
 91
        1
280
     0
281
     0
  0
CLASS
  1
SCALE
  2
AcDbScale
  3
ObjectDBX Classes
 90
     1153
 91
       17
280
     0
281
     0
  0
CLASS
  1
MLEADERSTYLE
  2
AcDbMLeaderStyle
  3
ACDB_MLEADERSTYLE_CLASS
 90
     4095
 91
        1
280
     0
281
     0
  0
CLASS
  1
SORTENTSTABLE
  2
AcDbSortentsTable
  3
ObjectDBX Classes
 90
        0
 91
        1
280
     0
281
     0
  0
CLASS
  1
EXACXREFPANELOBJECT
  2
ExAcXREFPanelObject
  3
EXAC_ESW
 90
     1025
 91
        0
280
     0
281
     0
  0
CLASS
  1
NPOCOLLECTION
  2
AcDbImpNonPersistentObjectsCollection
  3
ObjectDBX Classes
 90
     1153
 91
        0
280
     0
281
     0
  0
CLASS
  1
CELLSTYLEMAP
  2
AcDbCellStyleMap
  3
ObjectDBX Classes
 90
     1152
 91
        2
280
     0
281
     0
  0
ENDSEC
  0
SECTION
  2
TABLES
  0
TABLE
  2
VPORT
  5
8
102
{ACAD_XDICTIONARY
360
78B0
102
}
330
0
100
AcDbSymbolTable
 70
     1
  0
VPORT
  5
5FDF
330
8
100
AcDbSymbolTableRecord
100
AcDbViewportTableRecord
  2
*Active
 70
     0
 10
0.0
 20
0.0
 11
1.0
 21
1.0
 12
1566.985398260634
 22
781.5110421640504
 13
0.0
 23
0.0
 14
1.0
 24
1.0
 15
0.0
 25
0.0
 16
0.0
 26
0.0
 36
1.0
 17
0.0
 27
0.0
 37
0.0
 40
486.7336936349052
 41
2.519736842105263
 42
50.0
 43
0.0
 44
0.0
 50
0.0
 51
0.0
 71
     0
 72
   100
 73
     1
 74
     1
 75
     0
 76
     0
 77
     0
 78
     0
281
     0
 65
     1
110
0.0
120
0.0
130
0.0
111
1.0
121
0.0
131
0.0
112
0.0
122
1.0
132
0.0
 79
     0
146
0.0
1001
ACAD_NAV_VCDISPLAY
1070
     3
  0
ENDTAB
  0
TABLE
  2
LTYPE
  5
5
330
0
100
AcDbSymbolTable
 70
     3
  0
LTYPE
  5
13
330
5
100
AcDbSymbolTableRecord
100
AcDbLinetypeTableRecord
  2
ByBlock
 70
     0
  3

 72
    65
 73
     0
 40
0.0
  0
LTYPE
  5
14
330
5
100
AcDbSymbolTableRecord
100
AcDbLinetypeTableRecord
  2
ByLayer
 70
     0
  3

 72
    65
 73
     0
 40
0.0
  0
LTYPE
  5
15
330
5
100
AcDbSymbolTableRecord
100
AcDbLinetypeTableRecord
  2
CONTINUOUS
 70
     0
  3
実線
 72
    65
 73
     0
 40
0.0
  0
LTYPE
  5
25
330
5
100
AcDbSymbolTableRecord
100
AcDbLinetypeTableRecord
  2
CENTER1
 70
     0
  3
----- - ----- - ----- - ----- - 
 72
    65
 73
     4
 40
10.0
 49
6.25
 74
     0
 49
-1.25
 74
     0
 49
1.25
 74
     0
 49
-1.25
 74
     0
  0
LTYPE
  5
44
330
5
100
AcDbSymbolTableRecord
100
AcDbLinetypeTableRecord
  2
PLINE2
 70
     0
  3
------     -----------     -----
 72
    65
 73
     2
 40
3.0
 49
2.1
 74
     0
 49
-0.9
 74
     0
  0
ENDTAB
  0
TABLE
  2
LAYER
  5
2
102
{ACAD_XDICTIONARY
360
175
102
}
330
0
100
AcDbSymbolTable
 70
     6
  0
LAYER
  5
10
102
{ACAD_XDICTIONARY
360
608E
102
}
330
2
100
AcDbSymbolTableRecord
100
AcDbLayerTableRecord
  2
0
 70
     0
 62
     7
  6
CONTINUOUS
370
    -3
390
F
  0
LAYER
  5
128
330
2
100
AcDbSymbolTableRecord
100
AcDbLayerTableRecord
  2
Defpoints
 70
     0
 62
     7
  6
CONTINUOUS
290
     0
370
    -3
390
F
  0
LAYER
  5
178
102
{ACAD_XDICTIONARY
360
6090
102
}
330
2
100
AcDbSymbolTableRecord
100
AcDbLayerTableRecord
  2
寸法
 70
     0
 62
     7
  6
CONTINUOUS
370
    -3
390
F
  0
LAYER
  5
179
102
{ACAD_XDICTIONARY
360
6092
102
}
330
2
100
AcDbSymbolTableRecord
100
AcDbLayerTableRecord
  2
躯体と製品
 70
     0
 62
     7
  6
CONTINUOUS
370
    -3
390
F
  0
LAYER
  5
4F62
102
{ACAD_XDICTIONARY
360
6094
102
}
330
2
100
AcDbSymbolTableRecord
100
AcDbLayerTableRecord
  2
文字-記号
 70
     0
 62
     7
  6
CONTINUOUS
370
    -3
390
F
  0
LAYER
  5
60BE
330
2
100
AcDbSymbolTableRecord
100
AcDbLayerTableRecord
  2
中心線
 70
     0
 62
     7
  6
CONTINUOUS
370
    -3
390
F
1001
AcAecLayerStandard
1000

1000

1001
AcCmTransparency
1071
        0
  0
ENDTAB
  0
TABLE
  2
STYLE
  5
3
330
0
100
AcDbSymbolTable
 70
     2
  0
STYLE
  5
11
330
3
100
AcDbSymbolTableRecord
100
AcDbTextStyleTableRecord
  2
STANDARD
 70
     0
 40
0.0
 41
1.0
 50
0.0
 71
     0
 42
0.2
  3
txt
  4
bigfont.shx
  0
STYLE
  5
123
330
3
100
AcDbSymbolTableRecord
100
AcDbTextStyleTableRecord
  2
ACAD
 70
     0
 40
0.0
 41
1.0
 50
0.0
 71
     0
 42
5.0
  3
romans.shx
  4
extfont.shx
  0
ENDTAB
  0
TABLE
  2
VIEW
  5
6
330
0
100
AcDbSymbolTable
 70
     0
  0
ENDTAB
  0
TABLE
  2
UCS
  5
7
330
0
100
AcDbSymbolTable
 70
     0
  0
ENDTAB
  0
TABLE
  2
APPID
  5
9
330
0
100
AcDbSymbolTable
 70
    10
  0
APPID
  5
12
330
9
100
AcDbSymbolTableRecord
100
AcDbRegAppTableRecord
  2
ACAD
 70
     0
  0
APPID
  5
6030
330
9
100
AcDbSymbolTableRecord
100
AcDbRegAppTableRecord
  2
ACAD_EXEMPT_FROM_CAD_STANDARDS
 70
     0
  0
APPID
  5
609F
330
9
100
AcDbSymbolTableRecord
100
AcDbRegAppTableRecord
  2
ACAD_NAV_VCDISPLAY
 70
     0
  0
APPID
  5
60BF
330
9
100
AcDbSymbolTableRecord
100
AcDbRegAppTableRecord
  2
AcAecLayerStandard
 70
     0
  0
APPID
  5
60C0
330
9
100
AcDbSymbolTableRecord
100
AcDbRegAppTableRecord
  2
AcCmTransparency
 70
     0
  0
APPID
  5
6BCF
330
9
100
AcDbSymbolTableRecord
100
AcDbRegAppTableRecord
  2
ACAD_DSTYLE_DIMJAG
 70
     0
  0
APPID
  5
6BD0
330
9
100
AcDbSymbolTableRecord
100
AcDbRegAppTableRecord
  2
ACAD_DSTYLE_DIMTALN
 70
     0
  0
APPID
  5
6BD1
330
9
100
AcDbSymbolTableRecord
100
AcDbRegAppTableRecord
  2
ACAD_PSEXT
 70
     0
  0
APPID
  5
78E6
330
9
100
AcDbSymbolTableRecord
100
AcDbRegAppTableRecord
  2
ACAD_MLEADERVER
 70
     0
  0
APPID
  5
78FB
330
9
100
AcDbSymbolTableRecord
100
AcDbRegAppTableRecord
  2
AcadAnnoPO
 70
     0
  0
ENDTAB
  0
TABLE
  2
DIMSTYLE
  5
A
330
0
100
AcDbSymbolTable
 70
     2
100
AcDbDimStyleTable
 71
     1
340
126
  0
DIMSTYLE
105
11C
330
A
100
AcDbSymbolTableRecord
100
AcDbDimStyleTableRecord
  2
Standard
 70
     0
340
11
  0
DIMSTYLE
105
126
102
{ACAD_REACTORS
330
5FAF
330
5FBA
330
5FD2
330
63A2
102
}
330
A
100
AcDbSymbolTableRecord
100
AcDbDimStyleTableRecord
  2
AutoCAD
 70
     0
 41
5.0
 42
0.0
 44
0.0
 73
     0
 77
     1
140
6.5
147
3.0
174
     1
176
     4
177
     4
178
     3
271
     0
272
     0
289
     0
340
123
341
15B0
342
7B90
1001
ACAD_DSTYLE_DIMJAG
1070
   388
1040
1.5
1001
ACAD_DSTYLE_DIMTALN
1070
   392
1070
     0
  0
ENDTAB
  0
TABLE
  2
BLOCK_RECORD
  5
1
330
0
100
AcDbSymbolTable
 70
     6
  0
BLOCK_RECORD
  5
1E
102
{ACAD_XDICTIONARY
360
28B
102
}
330
1
100
AcDbSymbolTableRecord
100
AcDbBlockTableRecord
  2
*Model_Space
340
21
  0
BLOCK_RECORD
  5
1A
102
{ACAD_XDICTIONARY
360
28D
102
}
330
1
100
AcDbSymbolTableRecord
100
AcDbBlockTableRecord
  2
*Paper_Space
340
1D
  0
BLOCK_RECORD
  5
15B0
330
1
100
AcDbSymbolTableRecord
100
AcDbBlockTableRecord
  2
_None
340
0
  0
BLOCK_RECORD
  5
5FB0
330
1
100
AcDbSymbolTableRecord
100
AcDbBlockTableRecord
  2
*D1
340
0
  0
BLOCK_RECORD
  5
5FBB
330
1
100
AcDbSymbolTableRecord
100
AcDbBlockTableRecord
  2
*D2
340
0
  0
BLOCK_RECORD
  5
5FD3
330
1
100
AcDbSymbolTableRecord
100
AcDbBlockTableRecord
  2
*D3
340
0
  0
BLOCK_RECORD
  5
63BC
330
1
100
AcDbSymbolTableRecord
100
AcDbBlockTableRecord
  2
*D4
340
0
  0
BLOCK_RECORD
  5
7B90
330
1
100
AcDbSymbolTableRecord
100
AcDbBlockTableRecord
  2
_Small
340
0
102
{BLKREFS
331
7B95
331
7B96
331
7B9C
331
7B9D
331
7BA5
331
7BA6
331
7BAE
331
7BAF
102
}
  0
ENDTAB
  0
ENDSEC
  0
SECTION
  2
BLOCKS
  0
BLOCK
  5
1F
330
1E
100
AcDbEntity
  8
0
100
AcDbBlockBegin
  2
*Model_Space
 70
     0
 10
0.0
 20
0.0
 30
0.0
  3
*Model_Space
  1

  0
ENDBLK
  5
20
330
1E
100
AcDbEntity
  8
0
100
AcDbBlockEnd
  0
BLOCK
  5
1B
330
1A
100
AcDbEntity
 67
     1
  8
0
100
AcDbBlockBegin
  2
*Paper_Space
 70
     0
 10
0.0
 20
0.0
 30
0.0
  3
*Paper_Space
  1

  0
ENDBLK
  5
1C
330
1A
100
AcDbEntity
 67
     1
  8
0
100
AcDbBlockEnd
  0
BLOCK
  5
15B1
330
15B0
100
AcDbEntity
  8
0
100
AcDbBlockBegin
  2
_None
 70
     0
 10
0.0
 20
0.0
 30
0.0
  3
_None
  1

  0
ENDBLK
  5
15B2
330
15B0
100
AcDbEntity
  8
0
100
AcDbBlockEnd
  0
BLOCK
  5
5FB8
330
5FB0
100
AcDbEntity
  8
0
100
AcDbBlockBegin
  2
*D1
 70
     1
 10
0.0
 20
0.0
 30
0.0
  3
*D1
  1

  0
LINE
  5
7B94
330
5FB0
100
AcDbEntity
  8
寸法
  6
Continuous
 62
     4
440
 16777216
370
    -2
100
AcDbLine
 10
1495.802126150879
 20
895.2221511194041
 30
0.0
 11
1495.802126150879
 21
866.2207051194044
 31
0.0
  0
INSERT
  5
7B95
330
5FB0
100
AcDbEntity
  8
寸法
  6
Continuous
 62
     4
440
 16777216
370
    -2
100
AcDbBlockReference
  2
_Small
 10
1495.802126150879
 20
895.2221511194041
 30
0.0
 41
5.0
 42
5.0
 43
5.0
 50
90.0
  0
INSERT
  5
7B96
330
5FB0
100
AcDbEntity
  8
寸法
  6
Continuous
 62
     4
440
 16777216
370
    -2
100
AcDbBlockReference
  2
_Small
 10
1495.802126150879
 20
866.2207051194044
 30
0.0
 41
5.0
 42
5.0
 43
5.0
 50
270.0
  0
MTEXT
  5
7B97
330
5FB0
100
AcDbEntity
  8
寸法
  6
Continuous
 62
     3
440
 16777216
100
AcDbMText
 10
1489.552126150879
 20
880.7214281194045
 30
0.0
 40
6.5
 41
0.0
 71
     5
 72
     1
  1
\A1;29
  7
ACAD
 11
0.0000000000000001
 21
1.0
 31
0.0
 73
     1
 44
1.0
  0
POINT
  5
7B98
330
5FB0
100
AcDbEntity
  8
Defpoints
  6
Continuous
 62
     0
440
 16777216
100
AcDbPoint
 10
1495.802126150879
 20
895.2221511194041
 30
0.0
  0
POINT
  5
7B99
330
5FB0
100
AcDbEntity
  8
Defpoints
  6
Continuous
 62
     0
440
 16777216
100
AcDbPoint
 10
1495.802126150879
 20
866.2207051194044
 30
0.0
  0
POINT
  5
7B9A
330
5FB0
100
AcDbEntity
  8
Defpoints
  6
Continuous
 62
     0
440
 16777216
100
AcDbPoint
 10
1495.802126150879
 20
866.2207051194044
 30
0.0
  0
ENDBLK
  5
5FB9
330
5FB0
100
AcDbEntity
  8
0
100
AcDbBlockEnd
  0
BLOCK
  5
5FC3
330
5FBB
100
AcDbEntity
  8
0
100
AcDbBlockBegin
  2
*D2
 70
     1
 10
0.0
 20
0.0
 30
0.0
  3
*D2
  1

  0
LINE
  5
7B9B
330
5FBB
100
AcDbEntity
  8
寸法
  6
Continuous
 62
     4
440
 16777216
370
    -2
100
AcDbLine
 10
1861.863590150879
 20
814.2221511194042
 30
0.0
 11
1861.863590150879
 21
864.2221511194042
 31
0.0
  0
INSERT
  5
7B9C
330
5FBB
100
AcDbEntity
  8
寸法
  6
Continuous
 62
     4
440
 16777216
370
    -2
100
AcDbBlockReference
  2
_Small
 10
1861.863590150879
 20
814.2221511194042
 30
0.0
 41
5.0
 42
5.0
 43
5.0
 50
270.0
  0
INSERT
  5
7B9D
330
5FBB
100
AcDbEntity
  8
寸法
  6
Continuous
 62
     4
440
 16777216
370
    -2
100
AcDbBlockReference
  2
_Small
 10
1861.863590150879
 20
864.2221511194042
 30
0.0
 41
5.0
 42
5.0
 43
5.0
 50
90.0
  0
MTEXT
  5
7B9E
330
5FBB
100
AcDbEntity
  8
寸法
  6
Continuous
 62
     3
440
 16777216
100
AcDbMText
 10
1855.613590150879
 20
839.2221511194046
 30
0.0
 40
6.5
 41
0.0
 71
     5
 72
     1
  1
\A1;50
  7
ACAD
 11
0.0000000000000001
 21
1.0
 31
0.0
 73
     1
 44
1.0
  0
POINT
  5
7B9F
330
5FBB
100
AcDbEntity
  8
Defpoints
  6
Continuous
 62
     0
440
 16777216
100
AcDbPoint
 10
1861.863590150879
 20
814.2221511194042
 30
0.0
  0
POINT
  5
7BA0
330
5FBB
100
AcDbEntity
  8
Defpoints
  6
Continuous
 62
     0
440
 16777216
100
AcDbPoint
 10
1861.863590150879
 20
864.2221511194042
 30
0.0
  0
POINT
  5
7BA1
330
5FBB
100
AcDbEntity
  8
Defpoints
  6
Continuous
 62
     0
440
 16777216
100
AcDbPoint
 10
1861.863590150879
 20
864.2221511194042
 30
0.0
  0
ENDBLK
  5
5FC4
330
5FBB
100
AcDbEntity
  8
0
100
AcDbBlockEnd
  0
BLOCK
  5
5FDD
330
5FD3
100
AcDbEntity
  8
0
100
AcDbBlockBegin
  2
*D3
 70
     1
 10
0.0
 20
0.0
 30
0.0
  3
*D3
  1

  0
LINE
  5
7BA2
330
5FD3
100
AcDbEntity
  8
寸法
  6
Continuous
 62
     4
440
 16777216
370
    -2
100
AcDbLine
 10
1712.817768150879
 20
563.7221511194042
 30
0.0
 11
1712.817768150879
 21
541.4027959545693
 31
0.0
  0
LINE
  5
7BA3
330
5FD3
100
AcDbEntity
  8
寸法
  6
Continuous
 62
     4
440
 16777216
370
    -2
100
AcDbLine
 10
1772.817462150879
 20
563.7221511194042
 30
0.0
 11
1772.817462150879
 21
541.4027959545693
 31
0.0
  0
LINE
  5
7BA4
330
5FD3
100
AcDbEntity
  8
寸法
  6
Continuous
 62
     4
440
 16777216
370
    -2
100
AcDbLine
 10
1712.817768150879
 20
541.4027959545693
 30
0.0
 11
1772.817462150879
 21
541.4027959545693
 31
0.0
  0
INSERT
  5
7BA5
330
5FD3
100
AcDbEntity
  8
寸法
  6
Continuous
 62
     4
440
 16777216
370
    -2
100
AcDbBlockReference
  2
_Small
 10
1712.817768150879
 20
541.4027959545693
 30
0.0
 41
5.0
 42
5.0
 43
5.0
 50
180.0
  0
INSERT
  5
7BA6
330
5FD3
100
AcDbEntity
  8
寸法
  6
Continuous
 62
     4
440
 16777216
370
    -2
100
AcDbBlockReference
  2
_Small
 10
1772.817462150879
 20
541.4027959545693
 30
0.0
 41
5.0
 42
5.0
 43
5.0
  0
MTEXT
  5
7BA7
330
5FD3
100
AcDbEntity
  8
寸法
  6
Continuous
 62
     3
440
 16777216
100
AcDbMText
 10
1742.817615150879
 20
547.6527959545693
 30
0.0
 40
6.5
 41
0.0
 71
     5
 72
     1
  1
\A1;60
  7
ACAD
 73
     1
 44
1.0
  0
POINT
  5
7BA8
330
5FD3
100
AcDbEntity
  8
Defpoints
  6
Continuous
 62
     0
440
 16777216
100
AcDbPoint
 10
1712.817768150879
 20
563.7221511194042
 30
0.0
  0
POINT
  5
7BA9
330
5FD3
100
AcDbEntity
  8
Defpoints
  6
Continuous
 62
     0
440
 16777216
100
AcDbPoint
 10
1772.817462150879
 20
563.7221511194042
 30
0.0
  0
POINT
  5
7BAA
330
5FD3
100
AcDbEntity
  8
Defpoints
  6
Continuous
 62
     0
440
 16777216
100
AcDbPoint
 10
1772.817462150879
 20
541.4027959545693
 30
0.0
  0
ENDBLK
  5
5FDE
330
5FD3
100
AcDbEntity
  8
0
100
AcDbBlockEnd
  0
BLOCK
  5
63BD
330
63BC
100
AcDbEntity
  8
0
100
AcDbBlockBegin
  2
*D4
 70
     1
 10
0.0
 20
0.0
 30
0.0
  3
*D4
  1

  0
LINE
  5
7BAB
330
63BC
100
AcDbEntity
  8
寸法
  6
Continuous
 62
     4
440
 16777216
370
    -2
100
AcDbLine
 10
1879.013352150879
 20
568.2221511194041
 30
0.0
 11
1918.24523315088
 21
568.2221511194041
 31
0.0
  0
LINE
  5
7BAC
330
63BC
100
AcDbEntity
  8
寸法
  6
Continuous
 62
     4
440
 16777216
370
    -2
100
AcDbLine
 10
1879.013352150879
 20
895.2221511194043
 30
0.0
 11
1918.24523315088
 21
895.2221511194043
 31
0.0
  0
LINE
  5
7BAD
330
63BC
100
AcDbEntity
  8
寸法
  6
Continuous
 62
     4
440
 16777216
370
    -2
100
AcDbLine
 10
1918.24523315088
 20
568.2221511194041
 30
0.0
 11
1918.24523315088
 21
895.2221511194043
 31
0.0
  0
INSERT
  5
7BAE
330
63BC
100
AcDbEntity
  8
寸法
  6
Continuous
 62
     4
440
 16777216
370
    -2
100
AcDbBlockReference
  2
_Small
 10
1918.24523315088
 20
568.2221511194041
 30
0.0
 41
5.0
 42
5.0
 43
5.0
 50
270.0
  0
INSERT
  5
7BAF
330
63BC
100
AcDbEntity
  8
寸法
  6
Continuous
 62
     4
440
 16777216
370
    -2
100
AcDbBlockReference
  2
_Small
 10
1918.24523315088
 20
895.2221511194043
 30
0.0
 41
5.0
 42
5.0
 43
5.0
 50
90.0
  0
MTEXT
  5
7BB0
330
63BC
100
AcDbEntity
  8
寸法
  6
Continuous
 62
     3
440
 16777216
100
AcDbMText
 10
1911.376185531832
 20
731.7221511194047
 30
0.0
 40
6.5
 41
0.0
 71
     5
 72
     1
  1
\A1;h=194～1,073
  7
ACAD
 11
0.0000000000000001
 21
1.0
 31
0.0
 73
     1
 44
1.0
  0
POINT
  5
7BB1
330
63BC
100
AcDbEntity
  8
Defpoints
  6
Continuous
 62
     0
440
 16777216
100
AcDbPoint
 10
1879.013352150879
 20
568.2221511194041
 30
0.0
  0
POINT
  5
7BB2
330
63BC
100
AcDbEntity
  8
Defpoints
  6
Continuous
 62
     0
440
 16777216
100
AcDbPoint
 10
1879.013352150879
 20
895.2221511194043
 30
0.0
  0
POINT
  5
7BB3
330
63BC
100
AcDbEntity
  8
Defpoints
  6
Continuous
 62
     0
440
 16777216
100
AcDbPoint
 10
1918.24523315088
 20
895.2221511194043
 30
0.0
  0
ENDBLK
  5
63BE
330
63BC
100
AcDbEntity
  8
0
100
AcDbBlockEnd
  0
BLOCK
  5
7B92
330
7B90
100
AcDbEntity
  8
0
100
AcDbBlockBegin
  2
_Small
 70
     0
 10
0.0
 20
0.0
 30
0.0
  3
_Small
  1

  0
CIRCLE
  5
7B91
330
7B90
100
AcDbEntity
  8
0
  6
ByBlock
 62
     0
370
    -2
100
AcDbCircle
 10
0.0
 20
0.0
 30
0.0
 40
0.25
  0
ENDBLK
  5
7B93
330
7B90
100
AcDbEntity
  8
0
100
AcDbBlockEnd
  0
ENDSEC
  0
SECTION
  2
ENTITIES
  0
CIRCLE
  5
5F54
330
1E
100
AcDbEntity
  8
躯体と製品
  6
Continuous
 62
     3
100
AcDbCircle
 10
1742.817615150879
 20
875.2221511194042
 30
0.0
 40
2.499988
  0
CIRCLE
  5
5F55
330
1E
100
AcDbEntity
  8
躯体と製品
  6
Continuous
 62
     3
100
AcDbCircle
 10
1742.817615150879
 20
875.2221511194042
 30
0.0
 40
2.999983999999999
  0
CIRCLE
  5
5F56
330
1E
100
AcDbEntity
  8
躯体と製品
  6
Continuous
 62
     3
100
AcDbCircle
 10
1742.817615150879
 20
875.2221511194042
 30
0.0
 40
4.999973999999999
  0
TEXT
  5
5F89
330
1E
100
AcDbEntity
  8
文字-記号
  6
Continuous
 62
     3
100
AcDbText
 10
1215.216187400592
 20
1009.899860847745
 30
0.0
 40
13.0
  1
■スリーベース１０１型（一般体育館用：標準タイプ）
  7
ACAD
100
AcDbText
  0
DIMENSION
  5
5FAF
330
1E
100
AcDbEntity
  8
寸法
  6
Continuous
100
AcDbDimension
  2
*D1
 10
1495.802126150879
 20
866.2207051194044
 30
0.0
 11
1489.552126150879
 21
880.7214281194045
 31
0.0
 70
    32
 71
     5
 42
29.00144599999976
  3
AutoCAD
100
AcDbAlignedDimension
 13
1495.802126150879
 23
895.2221511194041
 33
0.0
 14
1495.802126150879
 24
866.2207051194044
 34
0.0
 50
90.0
100
AcDbRotatedDimension
  0
DIMENSION
  5
5FBA
330
1E
100
AcDbEntity
  8
寸法
  6
Continuous
100
AcDbDimension
  2
*D2
 10
1861.863590150879
 20
864.2221511194042
 30
0.0
 11
1855.613590150879
 21
839.2221511194046
 31
0.0
 70
    32
 71
     5
 42
50.0
  3
AutoCAD
100
AcDbAlignedDimension
 13
1861.863590150879
 23
814.2221511194042
 33
0.0
 14
1861.863590150879
 24
864.2221511194042
 34
0.0
 50
90.0
100
AcDbRotatedDimension
  0
DIMENSION
  5
5FD2
330
1E
100
AcDbEntity
  8
寸法
  6
Continuous
100
AcDbDimension
  2
*D3
 10
1772.817462150879
 20
541.4027959545693
 30
0.0
 11
1742.817615150879
 21
547.6527959545693
 31
0.0
 70
    32
 71
     5
 42
59.99969400000009
  3
AutoCAD
100
AcDbAlignedDimension
 13
1712.817768150879
 23
563.7221511194042
 33
0.0
 14
1772.817462150879
 24
563.7221511194042
 34
0.0
100
AcDbRotatedDimension
  0
LWPOLYLINE
  5
60BD
330
1E
100
AcDbEntity
  8
中心線
  6
CENTER1
100
AcDbPolyline
 90
        2
 70
     0
 43
0.0
 10
1364.851224150879
 20
555.7596991194042
 10
1364.851224150879
 20
889.9280853301789
  0
LWPOLYLINE
  5
60C1
330
1E
100
AcDbEntity
  8
中心線
  6
CENTER1
100
AcDbPolyline
 90
        2
 70
     0
 43
0.0
 10
1742.817615150879
 20
555.7596991194042
 10
1742.817615150879
 20
889.9280853301789
  0
DIMENSION
  5
63A2
330
1E
100
AcDbEntity
  8
寸法
  6
Continuous
100
AcDbDimension
  2
*D4
 10
1918.24523315088
 20
895.2221511194043
 30
0.0
 11
1911.376185531832
 21
731.7221511194047
 31
0.0
 70
    32
  1
h=194～1,073
 71
     5
 42
327.0000000000001
  3
AutoCAD
100
AcDbAlignedDimension
 13
1879.013352150879
 23
568.2221511194041
 33
0.0
 14
1879.013352150879
 24
895.2221511194043
 34
0.0
 50
90.0
100
AcDbRotatedDimension
  0
TEXT
  5
755B
330
1E
100
AcDbEntity
  8
文字-記号
  6
Continuous
 62
     7
100
AcDbText
 10
1547.678358150879
 20
886.0752391194042
 30
0.0
 40
6.5
  1
根太鋼
100
AcDbText
  0
TEXT
  5
7560
330
1E
100
AcDbEntity
  8
文字-記号
  6
Continuous
 62
     7
100
AcDbText
 10
1660.376155483425
 20
743.7569400563339
 30
0.0
 40
6.5
  1
調整ボルト Ｍ１６
100
AcDbText
  0
LWPOLYLINE
  5
7562
330
1E
100
AcDbEntity
  8
躯体と製品
  6
Continuous
 62
     4
100
AcDbPolyline
 90
        2
 70
     0
 43
0.0
 10
1572.018615150861
 20
868.0711511194092
 10
1572.018615150861
 20
867.622151119416
  0
LWPOLYLINE
  5
7563
330
1E
100
AcDbEntity
  8
躯体と製品
  6
Continuous
 62
     4
100
AcDbPolyline
 90
        2
 70
     0
 43
0.0
 10
1564.018615150861
 20
868.0711511194092
 10
1564.018615150861
 20
867.622151119416
  0
LWPOLYLINE
  5
7564
330
1E
100
AcDbEntity
  8
躯体と製品
  6
Continuous
 62
     4
100
AcDbPolyline
 90
        2
 70
     0
 43
0.0
 10
1571.818615150879
 20
867.4221511194044
 10
1568.018615150861
 20
867.4221511194044
  0
LWPOLYLINE
  5
7565
330
1E
100
AcDbEntity
  8
躯体と製品
  6
Continuous
 62
     4
100
AcDbPolyline
 90
        2
 70
     0
 43
0.0
 10
1564.018615150861
 20
867.6221510984612
 42
0.41421351636737
 10
1564.218615140395
 20
867.4221511194044
  0
LWPOLYLINE
  5
7566
330
1E
100
AcDbEntity
  8
躯体と製品
  6
Continuous
 62
     4
100
AcDbPolyline
 90
        2
 70
     0
 43
0.0
 10
1564.218615150873
 20
867.4221511194044
 10
1568.018615150861
 20
867.4221511194044
  0
LWPOLYLINE
  5
7567
330
1E
100
AcDbEntity
  8
躯体と製品
  6
Continuous
 62
     4
100
AcDbPolyline
 90
        2
 70
     0
 43
0.0
 10
1571.818615140401
 20
867.4221511194044
 42
0.4142135777083371
 10
1572.01861515089
 20
867.622151119416
  0
LWPOLYLINE
  5
7568
330
1E
100
AcDbEntity
  8
躯体と製品
  6
Continuous
 62
     4
100
AcDbPolyline
 90
        2
 70
     0
 43
0.0
 10
1571.783615150875
 20
869.2221511194217
 10
1568.018615150861
 20
869.2221511194217
  0
LWPOLYLINE
  5
7569
330
1E
100
AcDbEntity
  8
躯体と製品
  6
Continuous
 62
     4
100
AcDbPolyline
 90
        2
 70
     0
 43
0.0
 10
1571.783164280038
 20
869.2216486596295
 42
0.2144073790574085
 10
1568.018631317515
 20
870.422007600762
  0
LWPOLYLINE
  5
756A
330
1E
100
AcDbEntity
  8
躯体と製品
  6
Continuous
 62
     4
100
AcDbPolyline
 90
        2
 70
     0
 43
0.0
 10
1564.253615150876
 20
869.2221511194217
 10
1564.018615150861
 20
868.0711511194092
  0
LWPOLYLINE
  5
756B
330
1E
100
AcDbEntity
  8
躯体と製品
  6
Continuous
 62
     4
100
AcDbPolyline
 90
        2
 70
     0
 43
0.0
 10
1568.018598566276
 20
870.4220076485214
 42
0.2144073836089342
 10
1564.25406564607
 20
869.2216483227818
  0
LWPOLYLINE
  5
756C
330
1E
100
AcDbEntity
  8
躯体と製品
  6
Continuous
 62
     4
100
AcDbPolyline
 90
        2
 70
     0
 43
0.0
 10
1564.253615150876
 20
869.2221511194217
 10
1568.018615150861
 20
869.2221511194217
  0
LWPOLYLINE
  5
756D
330
1E
100
AcDbEntity
  8
躯体と製品
  6
Continuous
 62
     4
100
AcDbPolyline
 90
        2
 70
     0
 43
0.0
 10
1571.783615150875
 20
869.2221511194217
 10
1572.018615150861
 20
868.0711511194092
  0
LWPOLYLINE
  5
756F
330
1E
100
AcDbEntity
  8
躯体と製品
  6
Continuous
 62
     4
100
AcDbPolyline
 90
        2
 70
     0
 43
0.0
 10
1621.618615150867
 20
868.0711511194092
 10
1621.618615150867
 20
867.622151119416
  0
LWPOLYLINE
  5
7570
330
1E
100
AcDbEntity
  8
躯体と製品
  6
Continuous
 62
     4
100
AcDbPolyline
 90
        2
 70
     0
 43
0.0
 10
1613.618615150867
 20
868.0711511194092
 10
1613.618615150867
 20
867.622151119416
  0
LWPOLYLINE
  5
7571
330
1E
100
AcDbEntity
  8
躯体と製品
  6
Continuous
 62
     4
100
AcDbPolyline
 90
        2
 70
     0
 43
0.0
 10
1621.418615150855
 20
867.4221511194044
 10
1617.618615150867
 20
867.4221511194044
  0
LWPOLYLINE
  5
7572
330
1E
100
AcDbEntity
  8
躯体と製品
  6
Continuous
 62
     4
100
AcDbPolyline
 90
        2
 70
     0
 43
0.0
 10
1613.618615150867
 20
867.6221510984612
 42
0.41421351636737
 10
1613.818615140401
 20
867.4221511194044
  0
LWPOLYLINE
  5
7573
330
1E
100
AcDbEntity
  8
躯体と製品
  6
Continuous
 62
     4
100
AcDbPolyline
 90
        2
 70
     0
 43
0.0
 10
1613.818615150879
 20
867.4221511194044
 10
1617.618615150867
 20
867.4221511194044
  0
LWPOLYLINE
  5
7574
330
1E
100
AcDbEntity
  8
躯体と製品
  6
Continuous
 62
     4
100
AcDbPolyline
 90
        2
 70
     0
 43
0.0
 10
1621.418615140378
 20
867.4221511194044
 42
0.4142135777083371
 10
1621.618615150867
 20
867.622151119416
  0
LWPOLYLINE
  5
7575
330
1E
100
AcDbEntity
  8
躯体と製品
  6
Continuous
 62
     4
100
AcDbPolyline
 90
        2
 70
     0
 43
0.0
 10
1621.383615150881
 20
869.2221511194217
 10
1617.618615150867
 20
869.2221511194217
  0
LWPOLYLINE
  5
7576
330
1E
100
AcDbEntity
  8
躯体と製品
  6
Continuous
 62
     4
100
AcDbPolyline
 90
        2
 70
     0
 43
0.0
 10
1621.383164280044
 20
869.2216486596295
 42
0.2144073790574085
 10
1617.618631317521
 20
870.422007600762
  0
LWPOLYLINE
  5
7577
330
1E
100
AcDbEntity
  8
躯体と製品
  6
Continuous
 62
     4
100
AcDbPolyline
 90
        2
 70
     0
 43
0.0
 10
1613.853615150853
 20
869.2221511194217
 10
1613.618615150867
 20
868.0711511194092
  0
LWPOLYLINE
  5
7578
330
1E
100
AcDbEntity
  8
躯体と製品
  6
Continuous
 62
     4
100
AcDbPolyline
 90
        2
 70
     0
 43
0.0
 10
1617.618598566253
 20
870.4220076485214
 42
0.2144073836089342
 10
1613.854065646047
 20
869.2216483227818
  0
LWPOLYLINE
  5
7579
330
1E
100
AcDbEntity
  8
躯体と製品
  6
Continuous
 62
     4
100
AcDbPolyline
 90
        2
 70
     0
 43
0.0
 10
1613.853615150853
 20
869.2221511194217
 10
1617.618615150867
 20
869.2221511194217
  0
LWPOLYLINE
  5
757A
330
1E
100
AcDbEntity
  8
躯体と製品
  6
Continuous
 62
     4
100
AcDbPolyline
 90
        2
 70
     0
 43
0.0
 10
1621.383615150881
 20
869.2221511194217
 10
1621.618615150867
 20
868.0711511194092
  0
LWPOLYLINE
  5
757B
330
1E
100
AcDbEntity
  8
文字-記号
  6
Continuous
 62
     7
100
AcDbPolyline
 90
        3
 70
     0
 43
0.0
 10
1544.864291150879
 20
883.6858051194042
 10
1570.097306150879
 20
883.6858051194042
 10
1575.317615150879
 20
875.9108768428003
  0
LWPOLYLINE
  5
757D
330
1E
100
AcDbEntity
  8
文字-記号
  6
Continuous
 62
     7
100
AcDbPolyline
 90
        3
 70
     0
 43
0.0
 10
1659.231442483425
 20
741.2028700563338
 10
1725.34952821395
 20
741.2028700563338
 10
1734.817615150879
 20
724.8036624310939
  0
LWPOLYLINE
  5
757F
330
1E
100
AcDbEntity
  8
躯体と製品
  6
Continuous
 62
     4
100
AcDbPolyline
 90
        2
 70
     0
 43
0.0
 10
1354.458919316217
 20
782.4221511194042
 10
1375.243529007049
 20
782.4221511194042
  0
LWPOLYLINE
  5
7580
330
1E
100
AcDbEntity
  8
躯体と製品
  6
Continuous
 62
     4
100
AcDbPolyline
 90
        2
 70
     0
 43
0.0
 10
1357.923020931375
 20
783.9221511194042
 10
1357.923020931375
 20
795.4221511194043
  0
LWPOLYLINE
  5
7581
330
1E
100
AcDbEntity
  8
躯体と製品
  6
Continuous
 62
     4
100
AcDbPolyline
 90
        2
 70
     0
 43
0.0
 10
1371.77942739192
 20
766.9221511194042
 10
1371.77942739192
 20
778.4221511194042
  0
LWPOLYLINE
  5
7582
330
1E
100
AcDbEntity
  8
躯体と製品
  6
Continuous
 62
     4
100
AcDbPolyline
 90
        2
 70
     0
 43
0.0
 10
1371.77942739192
 20
783.9221511194042
 10
1371.77942739192
 20
795.4221511194043
  0
LWPOLYLINE
  5
7583
330
1E
100
AcDbEntity
  8
躯体と製品
  6
Continuous
 62
     4
100
AcDbPolyline
 90
        2
 70
     0
 43
0.0
 10
1357.923020931375
 20
766.9221511194042
 10
1357.923020931375
 20
778.4221511194042
  0
LWPOLYLINE
  5
7584
330
1E
100
AcDbEntity
  8
躯体と製品
  6
Continuous
 62
     4
100
AcDbPolyline
 90
        7
 70
     0
 43
0.0
 10
1350.994817701088
 20
783.9221511194042
 42
0.4330127018921689
 10
1357.923020931375
 20
783.9221511194042
 42
0.2165063550879564
 10
1371.77942739192
 20
783.9221511194042
 42
0.4330127018921274
 10
1378.707630622178
 20
783.9221511194042
 10
1378.707630622178
 20
795.4221511194043
 10
1350.994817701088
 20
795.4221511194043
 10
1350.994817701088
 20
783.9221511194042
  0
LWPOLYLINE
  5
7585
330
1E
100
AcDbEntity
  8
躯体と製品
  6
Continuous
 62
     4
100
AcDbPolyline
 90
        4
 70
     1
 43
0.0
 10
1350.851224157296
 20
778.4221511194042
 10
1378.851224194666
 20
778.4221511194042
 10
1378.851224194666
 20
782.4221511194042
 10
1350.851224157296
 20
782.4221511194042
  0
LWPOLYLINE
  5
7586
330
1E
100
AcDbEntity
  8
躯体と製品
  6
Continuous
 62
     4
100
AcDbPolyline
 90
        2
 70
     0
 43
0.0
 10
1354.458919316217
 20
765.4221511194042
 10
1375.243529007049
 20
765.4221511194042
  0
LWPOLYLINE
  5
7587
330
1E
100
AcDbEntity
  8
躯体と製品
  6
Continuous
 62
     4
100
AcDbPolyline
 90
        2
 70
     0
 43
0.0
 10
1364.851224175981
 20
778.4221511194042
 10
1368.851224175981
 20
782.4221511194042
  0
LWPOLYLINE
  5
7588
330
1E
100
AcDbEntity
  8
躯体と製品
  6
Continuous
 62
     4
100
AcDbPolyline
 90
        7
 70
     0
 43
0.0
 10
1350.994817701088
 20
766.9221511194042
 42
0.4330127018921053
 10
1357.923020931375
 20
766.9221511194042
 42
0.2165063509460898
 10
1371.77942739192
 20
766.9221511194042
 42
0.4330127018922323
 10
1378.707630622178
 20
766.9221511194042
 10
1378.707630622178
 20
778.4221511194042
 10
1350.994817701088
 20
778.4221511194042
 10
1350.994817701088
 20
766.9221511194042
  0
LWPOLYLINE
  5
7589
330
1E
100
AcDbEntity
  8
躯体と製品
  6
Continuous
 62
     4
100
AcDbPolyline
 90
        2
 70
     0
 43
0.0
 10
1360.8512241286
 20
778.4221510907078
 10
1364.8512241286
 20
782.4221510907078
  0
LWPOLYLINE
  5
758A
330
1E
100
AcDbEntity
  8
躯体と製品
  6
Continuous
 62
     4
100
AcDbPolyline
 90
        2
 70
     0
 43
0.0
 10
1736.817049769062
 20
782.4221589217117
 10
1748.817615073192
 20
782.4221589847505
  0
LWPOLYLINE
  5
758B
330
1E
100
AcDbEntity
  8
躯体と製品
  6
Continuous
 62
     4
100
AcDbPolyline
 90
        4
 70
     1
 43
0.0
 10
1728.817615105963
 20
778.4221588986614
 10
1756.817615143361
 20
778.4221588986614
 10
1756.817615143361
 20
782.4221588986614
 10
1728.817615105963
 20
782.4221588986614
  0
LWPOLYLINE
  5
758E
330
1E
100
AcDbEntity
  8
躯体と製品
  6
Continuous
 62
     4
100
AcDbPolyline
 90
        5
 70
     0
 43
0.0
 10
1730.817615110328
 20
795.4221586696072
 10
1730.817615110328
 20
783.9221588986614
 42
0.249999996945716
 10
1742.817615066527
 20
783.9221588986614
 42
0.2499999847397634
 10
1754.817615110329
 20
783.9221588986614
 10
1754.817615110329
 20
795.4221588417855
  0
LWPOLYLINE
  5
758F
330
1E
100
AcDbEntity
  8
躯体と製品
  6
Continuous
 62
     4
100
AcDbPolyline
 90
        2
 70
     0
 43
0.0
 10
1736.81704992049
 20
765.4221591096642
 10
1748.81761522459
 20
765.4221591727031
  0
LWPOLYLINE
  5
7590
330
1E
100
AcDbEntity
  8
躯体と製品
  6
Continuous
 62
     4
100
AcDbPolyline
 90
        5
 70
     0
 43
0.0
 10
1730.817615261727
 20
778.4221588125723
 10
1730.817615261727
 20
766.9221591411837
 42
0.2500000085465462
 10
1742.817615203839
 20
766.9221591411837
 42
0.2499999935419728
 10
1754.817615261727
 20
766.9221591411837
 10
1754.817615261727
 20
778.4221589847505
  0
LWPOLYLINE
  5
7591
330
1E
100
AcDbEntity
  8
躯体と製品
  6
Continuous
 62
     4
100
AcDbPolyline
 90
        2
 70
     0
 43
0.0
 10
1742.817615066527
 20
783.9221588986614
 10
1742.817614973249
 20
795.4221587556964
  0
LWPOLYLINE
  5
7592
330
1E
100
AcDbEntity
  8
躯体と製品
  6
Continuous
 62
     4
100
AcDbPolyline
 90
        2
 70
     0
 43
0.0
 10
1742.817615193071
 20
766.9221591411837
 10
1742.817615113908
 20
778.4221588986614
  0
LWPOLYLINE
  5
7593
330
1E
100
AcDbEntity
  8
躯体と製品
  6
Continuous
 62
     4
100
AcDbPolyline
 90
        8
 70
     0
 43
0.0
 10
1327.542445082804
 20
573.4221511193867
 10
1296.851224184739
 20
573.4221511193867
 10
1296.851224184739
 20
570.2221511194042
 10
1327.542445082804
 20
570.2221511194042
 42
0.3762022828809111
 10
1334.680283498431
 20
576.4780839859416
 10
1346.196172562403
 20
663.5466328602018
 42
-0.3762022828808944
 10
1350.161638348833
 20
667.0221511193926
 10
1364.851224184739
 20
667.0221511193926
  0
LWPOLYLINE
  5
7594
330
1E
100
AcDbEntity
  8
躯体と製品
  6
Continuous
 62
     4
100
AcDbPolyline
 90
        6
 70
     0
 43
0.0
 10
1323.987269544163
 20
573.4221511193867
 10
1335.522680907893
 20
660.6383028665699
 42
-0.3391200618031743
 10
1338.963664953543
 20
664.07928691222
 10
1343.111310768266
 20
664.6278642078653
 42
-0.3463493062730853
 10
1350.161638348862
 20
670.2221511194042
 10
1364.851224184739
 20
670.2221511194042
  0
LWPOLYLINE
  5
7595
330
1E
100
AcDbEntity
  8
躯体と製品
  6
Continuous
 62
     4
100
AcDbPolyline
 90
        2
 70
     0
 43
0.0
 10
1325.351224184739
 20
573.4221511193867
 10
1325.351224184739
 20
570.2221511194042
  0
LWPOLYLINE
  5
7598
330
1E
100
AcDbEntity
  8
躯体と製品
  6
Continuous
 62
     4
100
AcDbPolyline
 90
        4
 70
     1
 43
0.0
 10
1296.851224184739
 20
568.2221511194041
 10
1321.851224184739
 20
568.2221511194041
 10
1321.851224184739
 20
570.2221511194042
 10
1296.851224184739
 20
570.2221511194042
  0
LWPOLYLINE
  5
7599
330
1E
100
AcDbEntity
  8
躯体と製品
  6
Continuous
 62
     4
100
AcDbPolyline
 90
        2
 70
     0
 43
0.0
 10
1348.898523621091
 20
670.1066470288755
 10
1350.161638348833
 20
667.0221511193926
  0
LWPOLYLINE
  5
759A
330
1E
100
AcDbEntity
  8
躯体と製品
  6
Continuous
 62
     4
100
AcDbPolyline
 90
        4
 70
     1
 43
0.0
 10
1350.851223222305
 20
674.2221518030823
 10
1378.851223259674
 20
674.2221518030823
 10
1378.851223259674
 20
670.2221518030823
 10
1350.851223222305
 20
670.2221518030823
  0
LWPOLYLINE
  5
759B
330
1E
100
AcDbEntity
  8
躯体と製品
  6
Continuous
 62
     4
100
AcDbPolyline
 90
        2
 70
     0
 43
0.0
 10
1364.851222390139
 20
674.2221518030823
 10
1360.851222390139
 20
670.2221518030823
  0
LWPOLYLINE
  5
759C
330
1E
100
AcDbEntity
  8
躯体と製品
  6
Continuous
 62
     4
100
AcDbPolyline
 90
        2
 70
     0
 43
0.0
 10
1368.851222437549
 20
674.2221518317786
 10
1364.851222437549
 20
670.2221518317786
  0
LWPOLYLINE
  5
759D
330
1E
100
AcDbEntity
  8
躯体と製品
  6
Continuous
 62
     4
100
AcDbPolyline
 90
        8
 70
     0
 43
0.0
 10
1402.160002714842
 20
573.4221511193867
 10
1432.851223612878
 20
573.4221511193867
 10
1432.851223612878
 20
570.2221511194042
 10
1402.160002714842
 20
570.2221511194042
 42
-0.3762022828809111
 10
1395.022164299215
 20
576.4780839859416
 10
1383.506275235243
 20
663.5466328602018
 42
0.3762022828808944
 10
1379.540809448784
 20
667.0221511193926
 10
1364.851223612878
 20
667.0221511193926
  0
LWPOLYLINE
  5
759E
330
1E
100
AcDbEntity
  8
躯体と製品
  6
Continuous
 62
     4
100
AcDbPolyline
 90
        6
 70
     0
 43
0.0
 10
1405.715178253454
 20
573.4221511193867
 10
1394.179766889753
 20
660.6383028665699
 42
0.3391200618031743
 10
1390.738782844103
 20
664.07928691222
 10
1386.591137029351
 20
664.6278642078653
 42
0.3463493062730853
 10
1379.540809448784
 20
670.2221511194042
 10
1364.851223612878
 20
670.2221511194042
  0
LWPOLYLINE
  5
759F
330
1E
100
AcDbEntity
  8
躯体と製品
  6
Continuous
 62
     4
100
AcDbPolyline
 90
        2
 70
     0
 43
0.0
 10
1404.351223612878
 20
573.4221511193867
 10
1404.351223612878
 20
570.2221511194042
  0
LWPOLYLINE
  5
75A2
330
1E
100
AcDbEntity
  8
躯体と製品
  6
Continuous
 62
     4
100
AcDbPolyline
 90
        4
 70
     1
 43
0.0
 10
1407.851223612878
 20
568.2221511194041
 10
1432.851223612878
 20
568.2221511194041
 10
1432.851223612878
 20
570.2221511194042
 10
1407.851223612878
 20
570.2221511194042
  0
LWPOLYLINE
  5
75A3
330
1E
100
AcDbEntity
  8
躯体と製品
  6
Continuous
 62
     4
100
AcDbPolyline
 90
        2
 70
     0
 43
0.0
 10
1380.803923286618
 20
670.106647257748
 10
1379.540808603114
 20
667.0221513301624
  0
LWPOLYLINE
  5
75A4
330
1E
100
AcDbEntity
  8
躯体と製品
  6
Continuous
 62
     4
100
AcDbPolyline
 90
        2
 70
     0
 43
0.0
 10
1371.779427595441
 20
685.7221511194041
 10
1371.779427595441
 20
674.2221511194042
  0
LWPOLYLINE
  5
75A5
330
1E
100
AcDbEntity
  8
躯体と製品
  6
Continuous
 62
     4
100
AcDbPolyline
 90
        2
 70
     0
 43
0.0
 10
1357.923021134896
 20
685.7221511194041
 10
1357.923021134896
 20
674.2221511194042
  0
LWPOLYLINE
  5
75A6
330
1E
100
AcDbEntity
  8
躯体と製品
  6
Continuous
 62
     4
100
AcDbPolyline
 90
        2
 70
     0
 43
0.0
 10
1354.458919519767
 20
687.2221511194042
 10
1375.243529210599
 20
687.2221511194042
  0
LWPOLYLINE
  5
75A7
330
1E
100
AcDbEntity
  8
躯体と製品
  6
Continuous
 62
     4
100
AcDbPolyline
 90
        7
 70
     0
 43
0.0
 10
1350.994817904638
 20
685.7221511194041
 42
-0.4330127018921053
 10
1357.923021134896
 20
685.7221511194041
 42
-0.2165063509460898
 10
1371.779427595441
 20
685.7221511194041
 42
-0.4330127018922323
 10
1378.707630825728
 20
685.7221511194041
 10
1378.707630825728
 20
674.2221511194042
 10
1350.994817904638
 20
674.2221511194042
 10
1350.994817904638
 20
685.7221511194041
  0
LWPOLYLINE
  5
75A8
330
1E
100
AcDbEntity
  8
躯体と製品
  6
Continuous
 62
     4
100
AcDbPolyline
 90
        2
 70
     0
 43
0.0
 10
1371.779428657178
 20
655.5221504356853
 10
1371.779428657178
 20
667.0221504356853
  0
LWPOLYLINE
  5
75A9
330
1E
100
AcDbEntity
  8
躯体と製品
  6
Continuous
 62
     4
100
AcDbPolyline
 90
        2
 70
     0
 43
0.0
 10
1357.923022196632
 20
655.5221504356853
 10
1357.923022196632
 20
667.0221504356853
  0
LWPOLYLINE
  5
75AA
330
1E
100
AcDbEntity
  8
躯体と製品
  6
Continuous
 62
     4
100
AcDbPolyline
 90
        2
 70
     0
 43
0.0
 10
1354.458920581503
 20
654.0221504356853
 10
1375.243530272307
 20
654.0221504356853
  0
LWPOLYLINE
  5
75AB
330
1E
100
AcDbEntity
  8
躯体と製品
  6
Continuous
 62
     4
100
AcDbPolyline
 90
        7
 70
     0
 43
0.0
 10
1350.994818966345
 20
655.5221504356853
 42
0.4330127018921053
 10
1357.923022196632
 20
655.5221504356853
 42
0.2165063509460898
 10
1371.779428657178
 20
655.5221504356853
 42
0.4330127018922323
 10
1378.707631887465
 20
655.5221504356853
 10
1378.707631887465
 20
667.0221504356853
 10
1350.994818966345
 20
667.0221504356853
 10
1350.994818966345
 20
655.5221504356853
  0
LWPOLYLINE
  5
75AD
330
1E
100
AcDbEntity
  8
躯体と製品
  6
Continuous
 62
     4
100
AcDbPolyline
 90
        2
 70
     0
 43
0.0
 10
1327.542445082804
 20
570.2221511193751
 42
0.9999999999999998
 10
1327.542445082804
 20
573.4221511193867
  0
LWPOLYLINE
  5
75AF
330
1E
100
AcDbEntity
  8
躯体と製品
  6
Continuous
 62
     4
100
AcDbPolyline
 90
        2
 70
     0
 43
0.0
 10
1402.160002714842
 20
573.4221511193867
 42
0.9999999999999998
 10
1402.160002714842
 20
570.2221511193751
  0
LWPOLYLINE
  5
75B0
330
1E
100
AcDbEntity
  8
躯体と製品
  6
Continuous
 62
     4
100
AcDbPolyline
 90
        4
 70
     1
 43
0.0
 10
1728.817614375683
 20
674.2221524041637
 10
1756.817614413082
 20
674.2221524041637
 10
1756.817614413082
 20
670.2221524041637
 10
1728.817614375683
 20
670.2221524041637
  0
LWPOLYLINE
  5
75B1
330
1E
100
AcDbEntity
  8
躯体と製品
  6
Continuous
 62
     4
100
AcDbPolyline
 90
        4
 70
     0
 43
0.0
 10
1767.817615660443
 20
573.4221511193867
 10
1767.817615660443
 20
664.6278642078653
 10
1717.817615660443
 20
664.6278642078653
 10
1717.817615660443
 20
573.4221511193867
  0
LWPOLYLINE
  5
75B2
330
1E
100
AcDbEntity
  8
躯体と製品
  6
Continuous
 62
     4
100
AcDbPolyline
 90
        4
 70
     1
 43
0.0
 10
1712.817615660443
 20
570.2221511194042
 10
1772.817615660443
 20
570.2221511194042
 10
1772.817615660443
 20
573.4221511193867
 10
1712.817615660443
 20
573.4221511193867
  0
LWPOLYLINE
  5
75B3
330
1E
100
AcDbEntity
  8
躯体と製品
  6
Continuous
 62
     4
100
AcDbPolyline
 90
        2
 70
     0
 43
0.0
 10
1721.017615660455
 20
670.2221511194042
 10
1721.017615660455
 20
573.4221511193867
  0
LWPOLYLINE
  5
75B4
330
1E
100
AcDbEntity
  8
躯体と製品
  6
Continuous
 62
     4
100
AcDbPolyline
 90
        2
 70
     0
 43
0.0
 10
1764.61761566046
 20
670.2221511194042
 10
1764.61761566046
 20
573.4221511193867
  0
LWPOLYLINE
  5
75B5
330
1E
100
AcDbEntity
  8
躯体と製品
  6
Continuous
 62
     4
100
AcDbPolyline
 90
        6
 70
     0
 43
0.0
 10
1721.017615660455
 20
667.0221511193926
 10
1712.817615660443
 20
667.0221511193926
 10
1712.817615660443
 20
670.2221511194042
 10
1772.817615660443
 20
670.2221511194042
 10
1772.817615660443
 20
667.0221511193926
 10
1764.61761566046
 20
667.0221511193926
  0
LWPOLYLINE
  5
75B6
330
1E
100
AcDbEntity
  8
躯体と製品
  6
Continuous
 62
     4
100
AcDbPolyline
 90
        4
 70
     1
 43
0.0
 10
1772.817615660443
 20
568.2221511194041
 10
1712.817615660443
 20
568.2221511194041
 10
1712.817615660443
 20
570.2221511194042
 10
1772.817615660443
 20
570.2221511194042
  0
LWPOLYLINE
  5
75B9
330
1E
100
AcDbEntity
  8
躯体と製品
  6
Continuous
 62
     4
100
AcDbPolyline
 90
        2
 70
     0
 43
0.0
 10
1736.817048343609
 20
687.2221518344562
 10
1748.81761364771
 20
687.2221517714173
  0
LWPOLYLINE
  5
75BA
330
1E
100
AcDbEntity
  8
躯体と製品
  6
Continuous
 62
     4
100
AcDbPolyline
 90
        5
 70
     0
 43
0.0
 10
1730.817613684846
 20
674.2221521315481
 10
1730.817613684846
 20
685.7221518029367
 42
-0.2500000085465462
 10
1742.817613626958
 20
685.7221518029367
 42
-0.2499999935419728
 10
1754.817613684846
 20
685.7221518029367
 10
1754.817613684846
 20
674.2221519593698
  0
LWPOLYLINE
  5
75BB
330
1E
100
AcDbEntity
  8
躯体と製品
  6
Continuous
 62
     4
100
AcDbPolyline
 90
        2
 70
     0
 43
0.0
 10
1742.817613616219
 20
685.7221518029367
 10
1742.817613537027
 20
674.222152045459
  0
TEXT
  5
75BE
330
1E
100
AcDbEntity
  8
文字-記号
  6
Continuous
 62
     7
100
AcDbText
 10
1282.409764517285
 20
743.7569400563339
 30
0.0
 40
6.5
  1
調整ボルト Ｍ１６
100
AcDbText
  0
LWPOLYLINE
  5
75BF
330
1E
100
AcDbEntity
  8
文字-記号
  6
Continuous
 62
     7
100
AcDbPolyline
 90
        3
 70
     0
 43
0.0
 10
1281.265051517285
 20
741.2028700563338
 10
1347.38313724781
 20
741.2028700563338
 10
1356.851224150879
 20
724.8036624897411
  0
LWPOLYLINE
  5
75C0
330
1E
100
AcDbEntity
  8
文字-記号
  6
Continuous
 62
     7
100
AcDbPolyline
 90
        3
 70
     0
 43
0.0
 10
1629.282256150879
 20
814.2221511194042
 10
1614.189586966494
 20
788.0808812702205
 10
1582.111215494673
 20
788.0808812702205
  0
TEXT
  5
75C1
330
1E
100
AcDbEntity
  8
文字-記号
  6
Continuous
 62
     7
100
AcDbText
 10
1586.291617933138
 20
790.4703152702205
 30
0.0
 40
6.5
  1
大引鋼
100
AcDbText
  0
LWPOLYLINE
  5
75C3
330
1E
100
AcDbEntity
  8
文字-記号
  6
Continuous
 62
     7
100
AcDbPolyline
 90
        3
 70
     0
 43
0.0
 10
1340.38841328348
 20
836.9606237458759
 10
1325.295744099095
 20
810.8193538966922
 10
1293.217372627274
 20
810.8193538966922
  0
TEXT
  5
75C4
330
1E
100
AcDbEntity
  8
文字-記号
  6
Continuous
 62
     7
100
AcDbText
 10
1297.397775065739
 20
813.2087878966922
 30
0.0
 40
6.5
  1
大引鋼
100
AcDbText
  0
LWPOLYLINE
  5
75C5
330
1E
100
AcDbEntity
  8
文字-記号
  6
Continuous
 62
     7
100
AcDbPolyline
 90
        3
 70
     0
 43
0.0
 10
1292.583632299696
 20
866.2221511194042
 10
1281.740283142062
 20
847.4409194541729
 10
1249.661911670241
 20
847.4409194541729
  0
TEXT
  5
75C6
330
1E
100
AcDbEntity
  8
文字-記号
  6
Continuous
 62
     7
100
AcDbText
 10
1253.842314108706
 20
849.8303534541728
 30
0.0
 40
6.5
  1
根太鋼
100
AcDbText
  0
LWPOLYLINE
  5
75C7
330
1E
100
AcDbEntity
  8
文字-記号
  6
Continuous
 62
     7
100
AcDbPolyline
 90
        3
 70
     0
 43
0.0
 10
1382.73059049155
 20
805.4254256460717
 10
1400.232361233829
 20
775.1114694980222
 10
1481.329495821344
 20
775.1114694980222
  0
TEXT
  5
75C8
330
1E
100
AcDbEntity
  8
文字-記号
  6
Continuous
 62
     7
100
AcDbText
 10
1402.693298857549
 20
777.6784997979811
 30
0.0
 40
6.5
  1
メインクッションゴム
100
AcDbText
  0
LWPOLYLINE
  5
7698
330
1E
100
AcDbEntity
  8
躯体と製品
  6
Continuous
 62
     4
100
AcDbPolyline
 90
       28
 70
     1
 43
0.0
 10
1608.617615150879
 20
895.2221511194041
 42
-0.4142135623730951
 10
1610.317615150879
 20
893.5221511194042
 10
1610.317615150879
 20
867.9221511194043
 42
0.4142135623730951
 10
1610.817615150879
 20
867.4221511194044
 10
1623.117615150879
 20
867.4221511194044
 42
0.4142135623730951
 10
1623.617615150879
 20
867.9221511194043
 10
1623.617615150879
 20
869.2221511194043
 10
1624.817615150879
 20
869.2221511194043
 10
1624.817615150879
 20
867.9221511194043
 42
-0.4142135623730951
 10
1623.117615150879
 20
866.2221511194044
 10
1610.817615150879
 20
866.2221511194044
 42
-0.4142135623730951
 10
1609.117615150879
 20
867.9221511194043
 10
1609.117615150879
 20
893.5221511194042
 42
0.4142135623730951
 10
1608.617615150879
 20
894.0221511194041
 10
1577.017615150879
 20
894.0221511194041
 42
0.4142135623730951
 10
1576.517615150879
 20
893.5221511194042
 10
1576.517615150879
 20
867.9221511194043
 42
-0.4142135623730951
 10
1574.817615150879
 20
866.2221511194044
 10
1562.517615150879
 20
866.2221511194044
 42
-0.4142135623730951
 10
1560.817615150879
 20
867.9221511194043
 10
1560.817615150879
 20
869.2221511194043
 10
1562.017615150879
 20
869.2221511194043
 10
1562.017615150879
 20
867.9221511194043
 42
0.4142135623730951
 10
1562.517615150879
 20
867.4221511194044
 10
1574.817615150879
 20
867.4221511194044
 42
0.4142135623730951
 10
1575.317615150879
 20
867.9221511194043
 10
1575.317615150879
 20
893.5221511194042
 42
-0.4142135623730951
 10
1577.017615150879
 20
895.2221511194041
  0
LWPOLYLINE
  5
76B9
330
1E
100
AcDbEntity
  8
躯体と製品
  6
Continuous
 62
     4
100
AcDbPolyline
 90
       13
 70
     0
 43
0.0
 10
1558.817615150879
 20
864.2221511194042
 10
1626.817615150879
 20
864.2221511194042
 10
1626.817615150879
 20
871.2221511194043
 10
1621.817615150879
 20
871.2221511194043
 10
1621.817615150879
 20
869.2221511194043
 10
1624.817615150879
 20
869.2221511194043
 10
1624.817615150879
 20
866.2221511194044
 10
1560.817615150879
 20
866.2221511194044
 10
1560.817615150879
 20
869.2221511194043
 10
1563.817615150879
 20
869.2221511194043
 10
1563.817615150879
 20
871.2221511194043
 10
1558.817615150879
 20
871.2221511194043
 10
1558.817615150879
 20
864.2221511194042
  0
LWPOLYLINE
  5
7756
330
1E
100
AcDbEntity
  8
文字-記号
  6
Continuous
 62
     7
100
AcDbPolyline
 90
        3
 70
     0
 43
0.0
 10
1365.040013150879
 20
928.2221511194041
 10
1383.809095424752
 20
960.7311552291925
 10
1457.87337098077
 20
960.7311552291925
  0
TEXT
  5
7757
330
1E
100
AcDbEntity
  8
文字-記号
  6
Continuous
 62
     7
100
AcDbText
 10
1390.529414863143
 20
962.5614365068813
 30
0.0
 40
6.5
  1
フローリング貼り
100
AcDbText
  0
LWPOLYLINE
  5
7758
330
1E
100
AcDbEntity
  8
文字-記号
  6
Continuous
 62
     7
100
AcDbPolyline
 90
        3
 70
     0
 43
0.0
 10
1377.119369357853
 20
905.2221511194042
 10
1400.518939184694
 20
945.7513949347482
 10
1445.561891110726
 20
945.7513949347482
  0
TEXT
  5
7759
330
1E
100
AcDbEntity
  8
文字-記号
  6
Continuous
 62
     7
100
AcDbText
 10
1408.905363707453
 20
947.5816762124368
 30
0.0
 40
6.5
  1
捨板貼り
100
AcDbText
  0
LWPOLYLINE
  5
7779
330
1E
100
AcDbEntity
  8
躯体と製品
  6
Continuous
 62
     4
100
AcDbPolyline
 90
        2
 70
     0
 43
0.0
 10
1344.851224150879
 20
864.2221511194042
 10
1384.851224150879
 20
864.2221511194042
  0
LWPOLYLINE
  5
777A
330
1E
100
AcDbEntity
  8
躯体と製品
  6
Continuous
 62
     4
100
AcDbPolyline
 90
        2
 70
     0
 43
0.0
 10
1372.851224150879
 20
616.9221511194042
 10
1371.351224150879
 20
615.4221511194042
  0
LWPOLYLINE
  5
777B
330
1E
100
AcDbEntity
  8
躯体と製品
  6
Continuous
 62
     4
100
AcDbPolyline
 90
        2
 70
     0
 43
0.0
 10
1356.851224150879
 20
616.9221511194041
 10
1358.351224150879
 20
615.4221511194042
  0
LWPOLYLINE
  5
777C
330
1E
100
AcDbEntity
  8
躯体と製品
  6
Continuous
 62
     3
100
AcDbPolyline
 90
        2
 70
     0
 43
0.0
 10
1372.851224150879
 20
616.9221511194042
 10
1356.851224150879
 20
616.9221511194042
  0
LWPOLYLINE
  5
777D
330
1E
100
AcDbEntity
  8
躯体と製品
  6
Continuous
 62
     4
100
AcDbPolyline
 90
        2
 70
     0
 43
0.0
 10
1371.352084150879
 20
615.4221511194042
 10
1358.351224150879
 20
615.4221511194042
  0
LWPOLYLINE
  5
777E
330
1E
100
AcDbEntity
  8
躯体と製品
  6
Continuous
 62
     3
100
AcDbPolyline
 90
        2
 70
     0
 43
0.0
 10
1358.351224150879
 20
654.0221504356853
 10
1358.351224150879
 20
615.4221511194042
  0
LWPOLYLINE
  5
777F
330
1E
100
AcDbEntity
  8
躯体と製品
  6
Continuous
 62
     3
100
AcDbPolyline
 90
        2
 70
     0
 43
0.0
 10
1371.351224150879
 20
654.0221504356853
 10
1371.351224150879
 20
615.4221511194042
  0
LWPOLYLINE
  5
7780
330
1E
100
AcDbEntity
  8
躯体と製品
  6
Continuous
 62
     4
100
AcDbPolyline
 90
        2
 70
     0
 43
0.0
 10
1356.851224150879
 20
654.0221504356853
 10
1356.851224150879
 20
616.9221511194043
  0
LWPOLYLINE
  5
7781
330
1E
100
AcDbEntity
  8
躯体と製品
  6
Continuous
 62
     4
100
AcDbPolyline
 90
        2
 70
     0
 43
0.0
 10
1372.851224150879
 20
654.0221504356853
 10
1372.851224150879
 20
616.9221511194042
  0
LWPOLYLINE
  5
7782
330
1E
100
AcDbEntity
  8
躯体と製品
  6
Continuous
 62
     3
100
AcDbPolyline
 90
        2
 70
     0
 43
0.0
 10
1500.242764150879
 20
915.2221111194043
 10
1500.242764150879
 20
910.2221511194043
  0
LWPOLYLINE
  5
7783
330
1E
100
AcDbEntity
  8
躯体と製品
  6
Continuous
 62
     3
100
AcDbPolyline
 90
        2
 70
     0
 43
0.0
 10
1500.242766150879
 20
915.2221111194043
 42
0.4142135623730951
 10
1499.242726150879
 20
916.2221511194044
  0
LWPOLYLINE
  5
7784
330
1E
100
AcDbEntity
  8
躯体と製品
  6
Continuous
 62
     3
100
AcDbPolyline
 90
        2
 70
     0
 43
0.0
 10
1499.242726150879
 20
916.2221511194044
 10
1491.242410150879
 20
916.2221511194044
  0
LWPOLYLINE
  5
7785
330
1E
100
AcDbEntity
  8
躯体と製品
  6
Continuous
 62
     3
100
AcDbPolyline
 90
        2
 70
     0
 43
0.0
 10
1500.242764150879
 20
923.2221891194043
 10
1500.242764150879
 20
928.2221511194041
  0
LWPOLYLINE
  5
7786
330
1E
100
AcDbEntity
  8
躯体と製品
  6
Continuous
 62
     3
100
AcDbPolyline
 90
        2
 70
     0
 43
0.0
 10
1499.242726150879
 20
922.2221491194042
 42
0.4142135623730951
 10
1500.242766150879
 20
923.2221891194043
  0
LWPOLYLINE
  5
7787
330
1E
100
AcDbEntity
  8
躯体と製品
  6
Continuous
 62
     3
100
AcDbPolyline
 90
        2
 70
     0
 43
0.0
 10
1499.242726150879
 20
922.2221511194042
 10
1491.242410150879
 20
922.2221511194042
  0
LWPOLYLINE
  5
7788
330
1E
100
AcDbEntity
  8
躯体と製品
  6
Continuous
 62
     3
100
AcDbPolyline
 90
        2
 70
     0
 43
0.0
 10
1491.242410150879
 20
922.2221511194042
 42
0.4142135623730951
 10
1490.242370150879
 20
921.2221111194043
  0
LWPOLYLINE
  5
7789
330
1E
100
AcDbEntity
  8
躯体と製品
  6
Continuous
 62
     3
100
AcDbPolyline
 90
        2
 70
     0
 43
0.0
 10
1490.242372150879
 20
921.2221111194043
 10
1490.242372150879
 20
917.2221911194043
  0
LWPOLYLINE
  5
778A
330
1E
100
AcDbEntity
  8
躯体と製品
  6
Continuous
 62
     3
100
AcDbPolyline
 90
        2
 70
     0
 43
0.0
 10
1490.242370150879
 20
917.2221911194043
 42
0.4142135623730951
 10
1491.242410150879
 20
916.2221511194044
  0
LWPOLYLINE
  5
778B
330
1E
100
AcDbEntity
  8
躯体と製品
  6
Continuous
 62
     3
100
AcDbPolyline
 90
        2
 70
     0
 43
0.0
 10
1230.242759150879
 20
915.2221111194043
 10
1230.242759150879
 20
910.2221511194043
  0
LWPOLYLINE
  5
778C
330
1E
100
AcDbEntity
  8
躯体と製品
  6
Continuous
 62
     3
100
AcDbPolyline
 90
        2
 70
     0
 43
0.0
 10
1230.242761150879
 20
915.2221111194043
 42
0.4142135623730951
 10
1229.242721150879
 20
916.2221511194044
  0
LWPOLYLINE
  5
778D
330
1E
100
AcDbEntity
  8
躯体と製品
  6
Continuous
 62
     3
100
AcDbPolyline
 90
        2
 70
     0
 43
0.0
 10
1229.242721150879
 20
916.2221511194044
 10
1221.242405150879
 20
916.2221511194044
  0
LWPOLYLINE
  5
778E
330
1E
100
AcDbEntity
  8
躯体と製品
  6
Continuous
 62
     3
100
AcDbPolyline
 90
        2
 70
     0
 43
0.0
 10
1230.242759150879
 20
923.2221891194043
 10
1230.242759150879
 20
928.2221511194041
  0
LWPOLYLINE
  5
778F
330
1E
100
AcDbEntity
  8
躯体と製品
  6
Continuous
 62
     3
100
AcDbPolyline
 90
        2
 70
     0
 43
0.0
 10
1229.242721150879
 20
922.2221491194042
 42
0.4142135623730951
 10
1230.242761150879
 20
923.2221891194043
  0
LWPOLYLINE
  5
7790
330
1E
100
AcDbEntity
  8
躯体と製品
  6
Continuous
 62
     3
100
AcDbPolyline
 90
        2
 70
     0
 43
0.0
 10
1229.242721150879
 20
922.2221511194042
 10
1221.242405150879
 20
922.2221511194042
  0
LWPOLYLINE
  5
7791
330
1E
100
AcDbEntity
  8
躯体と製品
  6
Continuous
 62
     3
100
AcDbPolyline
 90
        2
 70
     0
 43
0.0
 10
1221.242405150879
 20
922.2221511194042
 42
0.4142135623730951
 10
1220.242365150879
 20
921.2221111194043
  0
LWPOLYLINE
  5
7792
330
1E
100
AcDbEntity
  8
躯体と製品
  6
Continuous
 62
     3
100
AcDbPolyline
 90
        2
 70
     0
 43
0.0
 10
1220.242367150879
 20
921.2221111194043
 10
1220.242367150879
 20
917.2221911194043
  0
LWPOLYLINE
  5
7793
330
1E
100
AcDbEntity
  8
躯体と製品
  6
Continuous
 62
     3
100
AcDbPolyline
 90
        2
 70
     0
 43
0.0
 10
1220.242365150879
 20
917.2221911194043
 42
0.4142135623730951
 10
1221.242405150879
 20
916.2221511194044
  0
LWPOLYLINE
  5
7794
330
1E
100
AcDbEntity
  8
躯体と製品
  6
Continuous
 62
     3
100
AcDbPolyline
 90
        2
 70
     0
 43
0.0
 10
1320.242759150879
 20
915.2221111194043
 10
1320.242759150879
 20
910.2221511194043
  0
LWPOLYLINE
  5
7795
330
1E
100
AcDbEntity
  8
躯体と製品
  6
Continuous
 62
     3
100
AcDbPolyline
 90
        2
 70
     0
 43
0.0
 10
1320.242761150879
 20
915.2221111194043
 42
0.4142135623730951
 10
1319.242721150879
 20
916.2221511194044
  0
LWPOLYLINE
  5
7796
330
1E
100
AcDbEntity
  8
躯体と製品
  6
Continuous
 62
     3
100
AcDbPolyline
 90
        2
 70
     0
 43
0.0
 10
1319.242721150879
 20
916.2221511194044
 10
1311.242405150879
 20
916.2221511194044
  0
LWPOLYLINE
  5
7797
330
1E
100
AcDbEntity
  8
躯体と製品
  6
Continuous
 62
     3
100
AcDbPolyline
 90
        2
 70
     0
 43
0.0
 10
1320.242759150879
 20
923.2221891194043
 10
1320.242759150879
 20
928.2221511194041
  0
LWPOLYLINE
  5
7798
330
1E
100
AcDbEntity
  8
躯体と製品
  6
Continuous
 62
     3
100
AcDbPolyline
 90
        2
 70
     0
 43
0.0
 10
1319.242721150879
 20
922.2221491194042
 42
0.4142135623730951
 10
1320.242761150879
 20
923.2221891194043
  0
LWPOLYLINE
  5
7799
330
1E
100
AcDbEntity
  8
躯体と製品
  6
Continuous
 62
     3
100
AcDbPolyline
 90
        2
 70
     0
 43
0.0
 10
1319.242721150879
 20
922.2221511194042
 10
1311.242405150879
 20
922.2221511194042
  0
LWPOLYLINE
  5
779A
330
1E
100
AcDbEntity
  8
躯体と製品
  6
Continuous
 62
     3
100
AcDbPolyline
 90
        2
 70
     0
 43
0.0
 10
1311.242405150879
 20
922.2221511194042
 42
0.4142135623730951
 10
1310.242365150879
 20
921.2221111194043
  0
LWPOLYLINE
  5
779B
330
1E
100
AcDbEntity
  8
躯体と製品
  6
Continuous
 62
     3
100
AcDbPolyline
 90
        2
 70
     0
 43
0.0
 10
1310.242367150879
 20
921.2221111194043
 10
1310.242367150879
 20
917.2221911194043
  0
LWPOLYLINE
  5
779C
330
1E
100
AcDbEntity
  8
躯体と製品
  6
Continuous
 62
     3
100
AcDbPolyline
 90
        2
 70
     0
 43
0.0
 10
1310.242365150879
 20
917.2221911194043
 42
0.4142135623730951
 10
1311.242405150879
 20
916.2221511194044
  0
LWPOLYLINE
  5
779D
330
1E
100
AcDbEntity
  8
躯体と製品
  6
Continuous
 62
     3
100
AcDbPolyline
 90
        2
 70
     0
 43
0.0
 10
1410.242764150879
 20
915.2221111194043
 10
1410.242764150879
 20
910.2221511194043
  0
LWPOLYLINE
  5
779E
330
1E
100
AcDbEntity
  8
躯体と製品
  6
Continuous
 62
     3
100
AcDbPolyline
 90
        2
 70
     0
 43
0.0
 10
1410.242766150879
 20
915.2221111194043
 42
0.4142135623730951
 10
1409.242726150879
 20
916.2221511194044
  0
LWPOLYLINE
  5
779F
330
1E
100
AcDbEntity
  8
躯体と製品
  6
Continuous
 62
     3
100
AcDbPolyline
 90
        2
 70
     0
 43
0.0
 10
1409.242726150879
 20
916.2221511194044
 10
1401.242410150879
 20
916.2221511194044
  0
LWPOLYLINE
  5
77A0
330
1E
100
AcDbEntity
  8
躯体と製品
  6
Continuous
 62
     3
100
AcDbPolyline
 90
        2
 70
     0
 43
0.0
 10
1410.242764150879
 20
923.2221891194043
 10
1410.242764150879
 20
928.2221511194041
  0
LWPOLYLINE
  5
77A1
330
1E
100
AcDbEntity
  8
躯体と製品
  6
Continuous
 62
     3
100
AcDbPolyline
 90
        2
 70
     0
 43
0.0
 10
1409.242726150879
 20
922.2221491194042
 42
0.4142135623730951
 10
1410.242766150879
 20
923.2221891194043
  0
LWPOLYLINE
  5
77A2
330
1E
100
AcDbEntity
  8
躯体と製品
  6
Continuous
 62
     3
100
AcDbPolyline
 90
        2
 70
     0
 43
0.0
 10
1409.242726150879
 20
922.2221511194042
 10
1401.242410150879
 20
922.2221511194042
  0
LWPOLYLINE
  5
77A3
330
1E
100
AcDbEntity
  8
躯体と製品
  6
Continuous
 62
     3
100
AcDbPolyline
 90
        2
 70
     0
 43
0.0
 10
1401.242410150879
 20
922.2221511194042
 42
0.4142135623730951
 10
1400.242370150879
 20
921.2221111194043
  0
LWPOLYLINE
  5
77A4
330
1E
100
AcDbEntity
  8
躯体と製品
  6
Continuous
 62
     3
100
AcDbPolyline
 90
        2
 70
     0
 43
0.0
 10
1400.242372150879
 20
921.2221111194043
 10
1400.242372150879
 20
917.2221911194043
  0
LWPOLYLINE
  5
77A5
330
1E
100
AcDbEntity
  8
躯体と製品
  6
Continuous
 62
     3
100
AcDbPolyline
 90
        2
 70
     0
 43
0.0
 10
1400.242370150879
 20
917.2221911194043
 42
0.4142135623730951
 10
1401.242410150879
 20
916.2221511194044
  0
LWPOLYLINE
  5
77A6
330
1E
100
AcDbEntity
  8
躯体と製品
  6
Continuous
 62
     3
100
AcDbPolyline
 90
        2
 70
     0
 43
0.0
 10
1827.091056150879
 20
568.2221511194041
 10
1802.299370150879
 20
543.4304651194042
  0
LWPOLYLINE
  5
77A7
330
1E
100
AcDbEntity
  8
躯体と製品
  6
Continuous
 62
     3
100
AcDbPolyline
 90
        2
 70
     0
 43
0.0
 10
1812.947048150879
 20
568.2221511194041
 10
1788.155360150879
 20
543.4304651194042
  0
LWPOLYLINE
  5
77A8
330
1E
100
AcDbEntity
  8
躯体と製品
  6
Continuous
 62
     4
100
AcDbPolyline
 90
        2
 70
     0
 43
0.0
 10
1540.746770150879
 20
568.2221511194041
 10
1877.013352150879
 20
568.2221511194041
  0
LWPOLYLINE
  5
77A9
330
1E
100
AcDbEntity
  8
躯体と製品
  6
PLINE2
 62
     3
100
AcDbPolyline
 90
        2
 70
     0
 43
0.0
 10
1767.817615150879
 20
815.8221511194042
 10
1877.013352150879
 20
815.8221511194042
  0
LWPOLYLINE
  5
77AA
330
1E
100
AcDbEntity
  8
躯体と製品
  6
Continuous
 62
     4
100
AcDbPolyline
 90
        2
 70
     0
 43
0.0
 10
1767.817615150879
 20
814.2221511194042
 10
1877.013352150879
 20
814.2221511194042
  0
LWPOLYLINE
  5
77AB
330
1E
100
AcDbEntity
  8
躯体と製品
  6
PLINE2
 62
     3
100
AcDbPolyline
 90
        2
 70
     0
 43
0.0
 10
1767.817615150879
 20
862.6224071194041
 10
1877.013352150879
 20
862.6224071194041
  0
LWPOLYLINE
  5
77AC
330
1E
100
AcDbEntity
  8
躯体と製品
  6
Continuous
 62
     4
100
AcDbPolyline
 90
        2
 70
     0
 43
0.0
 10
1540.746770150879
 20
895.2221511194041
 10
1877.013352150879
 20
895.2221511194041
  0
LWPOLYLINE
  5
77AD
330
1E
100
AcDbEntity
  8
躯体と製品
  6
Continuous
 62
     4
100
AcDbPolyline
 90
        2
 70
     0
 43
0.0
 10
1540.746770150879
 20
928.2221511194041
 10
1877.013352150879
 20
928.2221511194041
  0
LWPOLYLINE
  5
77AE
330
1E
100
AcDbEntity
  8
躯体と製品
  6
Continuous
 62
     4
100
AcDbPolyline
 90
        2
 70
     0
 43
0.0
 10
1540.746770150879
 20
910.2221511194041
 10
1877.013352150879
 20
910.2221511194041
  0
LWPOLYLINE
  5
77AF
330
1E
100
AcDbEntity
  8
躯体と製品
  6
Continuous
 62
     4
100
AcDbPolyline
 90
        2
 70
     0
 43
0.0
 10
1767.817615150879
 20
864.2221511194042
 10
1877.013352150879
 20
864.2221511194042
  0
LWPOLYLINE
  5
77B0
330
1E
100
AcDbEntity
  8
躯体と製品
  6
Continuous
 62
     3
100
AcDbPolyline
 90
        2
 70
     0
 43
0.0
 10
1540.746770150879
 20
905.2221511194042
 10
1877.013352150879
 20
905.2221511194042
  0
LWPOLYLINE
  5
77B1
330
1E
100
AcDbEntity
  8
躯体と製品
  6
Continuous
 62
     3
100
AcDbPolyline
 90
        2
 70
     0
 43
0.0
 10
1540.746770150879
 20
900.2221511194042
 10
1877.013352150879
 20
900.2221511194042
  0
LWPOLYLINE
  5
77B2
330
1E
100
AcDbEntity
  8
躯体と製品
  6
PLINE2
 62
     3
100
AcDbPolyline
 90
        2
 70
     0
 43
0.0
 10
1540.746770150879
 20
815.8221511194042
 10
1717.817615150879
 20
815.8221511194042
  0
LWPOLYLINE
  5
77B3
330
1E
100
AcDbEntity
  8
躯体と製品
  6
Continuous
 62
     4
100
AcDbPolyline
 90
        2
 70
     0
 43
0.0
 10
1540.746770150879
 20
814.2221511194042
 10
1717.817615150879
 20
814.2221511194042
  0
LWPOLYLINE
  5
77B4
330
1E
100
AcDbEntity
  8
躯体と製品
  6
Continuous
 62
     4
100
AcDbPolyline
 90
        2
 70
     0
 43
0.0
 10
1717.817615150879
 20
796.9221511194041
 10
1767.817615150879
 20
796.9221511194041
  0
LWPOLYLINE
  5
77B5
330
1E
100
AcDbEntity
  8
躯体と製品
  6
Continuous
 62
     4
100
AcDbPolyline
 90
        2
 70
     0
 43
0.0
 10
1722.817615150879
 20
796.9221511194041
 42
0.4142124577991956
 10
1724.317607150879
 20
795.4221511194043
  0
LWPOLYLINE
  5
77B6
330
1E
100
AcDbEntity
  8
躯体と製品
  6
Continuous
 62
     3
100
AcDbPolyline
 90
        2
 70
     0
 43
0.0
 10
1722.817667150879
 20
809.2221251194041
 42
0.9999999999999998
 10
1732.817615150879
 20
809.2221251194041
  0
LWPOLYLINE
  5
77B7
330
1E
100
AcDbEntity
  8
躯体と製品
  6
Continuous
 62
     4
100
AcDbPolyline
 90
        2
 70
     0
 43
0.0
 10
1724.317607150879
 20
795.4221511194043
 10
1761.317623150879
 20
795.4221511194043
  0
LWPOLYLINE
  5
77B8
330
1E
100
AcDbEntity
  8
躯体と製品
  6
Continuous
 62
     3
100
AcDbPolyline
 90
        2
 70
     0
 43
0.0
 10
1752.817615150879
 20
809.2221251194041
 42
0.9999999999999998
 10
1762.817563150879
 20
809.2221251194041
  0
LWPOLYLINE
  5
77B9
330
1E
100
AcDbEntity
  8
躯体と製品
  6
Continuous
 62
     4
100
AcDbPolyline
 90
        2
 70
     0
 43
0.0
 10
1761.317623150879
 20
795.4221511194043
 42
0.4142124577991956
 10
1762.817615150879
 20
796.9221511194041
  0
LWPOLYLINE
  5
77BA
330
1E
100
AcDbEntity
  8
躯体と製品
  6
Continuous
 62
     4
100
AcDbPolyline
 90
        2
 70
     0
 43
0.0
 10
1717.817615150879
 20
796.9221511194041
 10
1717.817615150879
 20
880.2221511194041
  0
LWPOLYLINE
  5
77BB
330
1E
100
AcDbEntity
  8
躯体と製品
  6
Continuous
 62
     4
100
AcDbPolyline
 90
        2
 70
     0
 43
0.0
 10
1767.817615150879
 20
880.2221511194041
 42
0.4142135623730951
 10
1763.817615150879
 20
884.222151119404
  0
LWPOLYLINE
  5
77BC
330
1E
100
AcDbEntity
  8
躯体と製品
  6
Continuous
 62
     4
100
AcDbPolyline
 90
        2
 70
     0
 43
0.0
 10
1767.817615150879
 20
796.9221511194041
 10
1767.817615150879
 20
880.2221511194041
  0
LWPOLYLINE
  5
77BD
330
1E
100
AcDbEntity
  8
躯体と製品
  6
Continuous
 62
     3
100
AcDbPolyline
 90
        2
 70
     0
 43
0.0
 10
1762.817563150879
 20
874.222177119404
 10
1762.817563150879
 20
809.2221251194041
  0
LWPOLYLINE
  5
77BE
330
1E
100
AcDbEntity
  8
躯体と製品
  6
Continuous
 62
     3
100
AcDbPolyline
 90
        2
 70
     0
 43
0.0
 10
1722.817665150879
 20
874.222177119404
 10
1722.817665150879
 20
809.2221251194041
  0
LWPOLYLINE
  5
77BF
330
1E
100
AcDbEntity
  8
躯体と製品
  6
Continuous
 62
     3
100
AcDbPolyline
 90
        2
 70
     0
 43
0.0
 10
1732.817615150879
 20
874.222177119404
 10
1732.817615150879
 20
809.2221251194041
  0
LWPOLYLINE
  5
77C0
330
1E
100
AcDbEntity
  8
躯体と製品
  6
Continuous
 62
     3
100
AcDbPolyline
 90
        2
 70
     0
 43
0.0
 10
1752.817615150879
 20
874.222177119404
 10
1752.817615150879
 20
809.2221251194041
  0
LWPOLYLINE
  5
77C1
330
1E
100
AcDbEntity
  8
躯体と製品
  6
PLINE2
 62
     3
100
AcDbPolyline
 90
        2
 70
     0
 43
0.0
 10
1540.746770150879
 20
862.6224071194041
 10
1717.817615150879
 20
862.6224071194041
  0
LWPOLYLINE
  5
77C2
330
1E
100
AcDbEntity
  8
躯体と製品
  6
Continuous
 62
     4
100
AcDbPolyline
 90
        2
 70
     0
 43
0.0
 10
1721.817615150879
 20
884.222151119404
 42
0.4142135623730951
 10
1717.817615150879
 20
880.2221511194041
  0
LWPOLYLINE
  5
77C3
330
1E
100
AcDbEntity
  8
躯体と製品
  6
Continuous
 62
     4
100
AcDbPolyline
 90
        2
 70
     0
 43
0.0
 10
1763.817615150879
 20
884.222151119404
 10
1721.817615150879
 20
884.222151119404
  0
LWPOLYLINE
  5
77C4
330
1E
100
AcDbEntity
  8
躯体と製品
  6
Continuous
 62
     3
100
AcDbPolyline
 90
        2
 70
     0
 43
0.0
 10
1732.817615150879
 20
874.222177119404
 42
0.9999999999999998
 10
1722.817667150879
 20
874.222177119404
  0
LWPOLYLINE
  5
77C5
330
1E
100
AcDbEntity
  8
躯体と製品
  6
Continuous
 62
     3
100
AcDbPolyline
 90
        2
 70
     0
 43
0.0
 10
1717.817615150879
 20
870.2221511194043
 10
1722.817665150879
 20
870.2221511194043
  0
LWPOLYLINE
  5
77C6
330
1E
100
AcDbEntity
  8
躯体と製品
  6
Continuous
 62
     3
100
AcDbPolyline
 90
        2
 70
     0
 43
0.0
 10
1744.157311180316
 20
870.2221511194043
 10
1752.817615150879
 20
870.2221511194043
  0
LWPOLYLINE
  5
77C7
330
1E
100
AcDbEntity
  8
躯体と製品
  6
Continuous
 62
     3
100
AcDbPolyline
 90
        2
 70
     0
 43
0.0
 10
1741.477919657323
 20
870.2221511194043
 10
1732.817615150879
 20
870.2221511194043
  0
LWPOLYLINE
  5
77C8
330
1E
100
AcDbEntity
  8
躯体と製品
  6
Continuous
 62
     3
100
AcDbPolyline
 90
        2
 70
     0
 43
0.0
 10
1717.817615150879
 20
864.2221511194042
 10
1722.817665150879
 20
864.2221511194042
  0
LWPOLYLINE
  5
77C9
330
1E
100
AcDbEntity
  8
躯体と製品
  6
Continuous
 62
     3
100
AcDbPolyline
 90
        2
 70
     0
 43
0.0
 10
1732.817615150879
 20
864.2221511194042
 10
1752.817615150879
 20
864.2221511194042
  0
LWPOLYLINE
  5
77CA
330
1E
100
AcDbEntity
  8
躯体と製品
  6
Continuous
 62
     3
100
AcDbPolyline
 90
        2
 70
     0
 43
0.0
 10
1762.817563150879
 20
870.2221511194043
 10
1767.817615150879
 20
870.2221511194043
  0
LWPOLYLINE
  5
77CB
330
1E
100
AcDbEntity
  8
躯体と製品
  6
Continuous
 62
     3
100
AcDbPolyline
 90
        2
 70
     0
 43
0.0
 10
1762.817563150879
 20
864.2221511194042
 10
1767.817615150879
 20
864.2221511194042
  0
LWPOLYLINE
  5
77CC
330
1E
100
AcDbEntity
  8
躯体と製品
  6
Continuous
 62
     3
100
AcDbPolyline
 90
        2
 70
     0
 43
0.0
 10
1762.817563150879
 20
874.222177119404
 42
0.9999999999999998
 10
1752.817615150879
 20
874.222177119404
  0
LWPOLYLINE
  5
77CD
330
1E
100
AcDbEntity
  8
躯体と製品
  6
Continuous
 62
     4
100
AcDbPolyline
 90
        2
 70
     0
 43
0.0
 10
1747.916609150879
 20
876.4721451194041
 10
1748.317587150879
 20
876.4721451194041
  0
LWPOLYLINE
  5
77CE
330
1E
100
AcDbEntity
  8
躯体と製品
  6
Continuous
 62
     4
100
AcDbPolyline
 90
        2
 70
     0
 43
0.0
 10
1748.817585150878
 20
875.9721471194042
 42
0.4142135623730951
 10
1748.317587150879
 20
876.4721451194041
  0
LWPOLYLINE
  5
77CF
330
1E
100
AcDbEntity
  8
躯体と製品
  6
Continuous
 62
     4
100
AcDbPolyline
 90
        2
 70
     0
 43
0.0
 10
1748.817585150879
 20
875.9721471194042
 10
1748.817585150879
 20
874.4721551194041
  0
LWPOLYLINE
  5
77D0
330
1E
100
AcDbEntity
  8
躯体と製品
  6
Continuous
 62
     4
100
AcDbPolyline
 90
        2
 70
     0
 43
0.0
 10
1748.317587150879
 20
873.9721571194042
 42
0.4142135623730951
 10
1748.817585150878
 20
874.4721551194041
  0
LWPOLYLINE
  5
77D1
330
1E
100
AcDbEntity
  8
躯体と製品
  6
Continuous
 62
     4
100
AcDbPolyline
 90
        2
 70
     0
 43
0.0
 10
1748.317587150879
 20
873.9721571194042
 10
1747.916609150879
 20
873.9721571194042
  0
LWPOLYLINE
  5
77D2
330
1E
100
AcDbEntity
  8
躯体と製品
  6
Continuous
 62
     4
100
AcDbPolyline
 90
        2
 70
     0
 43
0.0
 10
1737.718623150878
 20
876.4721451194041
 10
1737.317643150878
 20
876.4721451194041
  0
LWPOLYLINE
  5
77D3
330
1E
100
AcDbEntity
  8
躯体と製品
  6
Continuous
 62
     4
100
AcDbPolyline
 90
        2
 70
     0
 43
0.0
 10
1737.317643150878
 20
876.4721451194041
 42
0.4142135623730951
 10
1736.817645150878
 20
875.9721471194042
  0
LWPOLYLINE
  5
77D4
330
1E
100
AcDbEntity
  8
躯体と製品
  6
Continuous
 62
     4
100
AcDbPolyline
 90
        2
 70
     0
 43
0.0
 10
1736.817647150879
 20
875.9721471194042
 10
1736.817647150879
 20
874.4721551194041
  0
LWPOLYLINE
  5
77D5
330
1E
100
AcDbEntity
  8
躯体と製品
  6
Continuous
 62
     4
100
AcDbPolyline
 90
        2
 70
     0
 43
0.0
 10
1736.817645150878
 20
874.4721551194041
 42
0.4142135623730951
 10
1737.317643150878
 20
873.9721571194042
  0
LWPOLYLINE
  5
77D6
330
1E
100
AcDbEntity
  8
躯体と製品
  6
Continuous
 62
     4
100
AcDbPolyline
 90
        2
 70
     0
 43
0.0
 10
1737.317643150878
 20
873.9721571194042
 10
1737.718623150878
 20
873.9721571194042
  0
LWPOLYLINE
  5
77D7
330
1E
100
AcDbEntity
  8
躯体と製品
  6
Continuous
 62
     3
100
AcDbPolyline
 90
        2
 70
     0
 43
0.0
 10
1742.817615150879
 20
869.4486771194041
 10
1737.817641150878
 20
872.335415119404
  0
LWPOLYLINE
  5
77D8
330
1E
100
AcDbEntity
  8
躯体と製品
  6
Continuous
 62
     3
100
AcDbPolyline
 90
        2
 70
     0
 43
0.0
 10
1737.817641150878
 20
872.335415119404
 10
1737.817641150878
 20
878.1088871194041
  0
LWPOLYLINE
  5
77D9
330
1E
100
AcDbEntity
  8
躯体と製品
  6
Continuous
 62
     3
100
AcDbPolyline
 90
        2
 70
     0
 43
0.0
 10
1737.817641150878
 20
878.1088871194041
 10
1742.817615150879
 20
880.9956251194043
  0
LWPOLYLINE
  5
77DA
330
1E
100
AcDbEntity
  8
躯体と製品
  6
Continuous
 62
     3
100
AcDbPolyline
 90
        2
 70
     0
 43
0.0
 10
1742.817615150879
 20
880.9956251194043
 10
1747.817591150879
 20
878.1088871194041
  0
LWPOLYLINE
  5
77DB
330
1E
100
AcDbEntity
  8
躯体と製品
  6
Continuous
 62
     3
100
AcDbPolyline
 90
        2
 70
     0
 43
0.0
 10
1747.817591150879
 20
878.1088871194041
 10
1747.817591150879
 20
872.335415119404
  0
LWPOLYLINE
  5
77DC
330
1E
100
AcDbEntity
  8
躯体と製品
  6
Continuous
 62
     3
100
AcDbPolyline
 90
        2
 70
     0
 43
0.0
 10
1747.817591150879
 20
872.335415119404
 10
1742.817615150879
 20
869.4486771194041
  0
LWPOLYLINE
  5
77DD
330
1E
100
AcDbEntity
  8
躯体と製品
  6
Continuous
 62
     4
100
AcDbPolyline
 90
        2
 70
     0
 43
0.0
 10
1717.817615150879
 20
864.2221511194042
 10
1540.746770150879
 20
864.2221511194042
  0
LWPOLYLINE
  5
77DE
330
1E
100
AcDbEntity
  8
躯体と製品
  6
Continuous
 62
     4
100
AcDbPolyline
 90
        2
 70
     0
 43
0.0
 10
1389.351026164211
 20
795.4221531194042
 42
0.4141745156370864
 10
1390.851224150879
 20
796.9221511194042
 42
0.4141745156370864
  0
LWPOLYLINE
  5
77DF
330
1E
100
AcDbEntity
  8
躯体と製品
  6
Continuous
 62
     4
100
AcDbPolyline
 90
        2
 70
     0
 43
0.0
 10
1397.151224150879
 20
870.2221511194043
 10
1397.151224150879
 20
884.2221511194042
  0
LWPOLYLINE
  5
77E0
330
1E
100
AcDbEntity
  8
躯体と製品
  6
Continuous
 62
     4
100
AcDbPolyline
 90
        2
 70
     0
 43
0.0
 10
1394.851224150879
 20
884.2221511194042
 10
1397.151224150879
 20
884.2221511194042
  0
LWPOLYLINE
  5
77E2
330
1E
100
AcDbEntity
  8
躯体と製品
  6
Continuous
 62
     3
100
AcDbPolyline
 90
        2
 70
     0
 43
0.0
 10
1398.651224150879
 20
881.3229581194041
 10
1397.151026150879
 20
881.3229581194041
  0
LWPOLYLINE
  5
77E3
330
1E
100
AcDbEntity
  8
躯体と製品
  6
Continuous
 62
     3
100
AcDbPolyline
 90
        2
 70
     0
 43
0.0
 10
1403.051808496918
 20
877.7224801834787
 42
0.2275707722563264
 10
1403.651888150879
 20
878.9726461194042
  0
LWPOLYLINE
  5
77E4
330
1E
100
AcDbEntity
  8
躯体と製品
  6
Continuous
 62
     3
100
AcDbPolyline
 90
        2
 70
     0
 43
0.0
 10
1403.051806761097
 20
872.7218193707987
 42
0.2400000040461867
 10
1403.051806761097
 20
877.7224808680099
  0
LWPOLYLINE
  5
77E5
330
1E
100
AcDbEntity
  8
躯体と製品
  6
Continuous
 62
     3
100
AcDbPolyline
 90
        2
 70
     0
 43
0.0
 10
1403.651888150879
 20
871.4716541194045
 42
0.2275707722563265
 10
1403.051808496918
 20
872.72182005533
  0
LWPOLYLINE
  5
77E6
330
1E
100
AcDbEntity
  8
躯体と製品
  6
Continuous
 62
     3
100
AcDbPolyline
 90
        2
 70
     0
 43
0.0
 10
1403.651886150879
 20
879.5977301194044
 10
1403.051808150879
 20
880.2228121194042
  0
LWPOLYLINE
  5
77E7
330
1E
100
AcDbEntity
  8
躯体と製品
  6
Continuous
 62
     3
100
AcDbPolyline
 90
        2
 70
     0
 43
0.0
 10
1403.651886150879
 20
870.8465721194043
 10
1403.051808150879
 20
870.2214881194041
  0
LWPOLYLINE
  5
77E8
330
1E
100
AcDbEntity
  8
躯体と製品
  6
Continuous
 62
     3
100
AcDbPolyline
 90
        2
 70
     0
 43
0.0
 10
1403.051808150879
 20
880.2228121194042
 10
1399.251304150879
 20
880.2228121194042
  0
LWPOLYLINE
  5
77E9
330
1E
100
AcDbEntity
  8
躯体と製品
  6
Continuous
 62
     3
100
AcDbPolyline
 90
        2
 70
     0
 43
0.0
 10
1403.051808150879
 20
877.7224821194044
 10
1399.251304150879
 20
877.7224821194044
  0
LWPOLYLINE
  5
77EA
330
1E
100
AcDbEntity
  8
躯体と製品
  6
Continuous
 62
     3
100
AcDbPolyline
 90
        2
 70
     0
 43
0.0
 10
1403.051808150879
 20
872.7218201194043
 10
1399.251304150879
 20
872.7218201194043
  0
LWPOLYLINE
  5
77EB
330
1E
100
AcDbEntity
  8
躯体と製品
  6
Continuous
 62
     3
100
AcDbPolyline
 90
        2
 70
     0
 43
0.0
 10
1403.051808150879
 20
870.2214881194041
 10
1399.251304150879
 20
870.2214881194041
  0
LWPOLYLINE
  5
77EC
330
1E
100
AcDbEntity
  8
躯体と製品
  6
Continuous
 62
     3
100
AcDbPolyline
 90
        2
 70
     0
 43
0.0
 10
1403.651886150879
 20
870.8465721194043
 10
1403.651886150879
 20
879.5977301194044
  0
LWPOLYLINE
  5
77ED
330
1E
100
AcDbEntity
  8
躯体と製品
  6
Continuous
 62
     3
100
AcDbPolyline
 90
        2
 70
     0
 43
0.0
 10
1403.651886150879
 20
879.5977301194044
 10
1403.651886150879
 20
870.8465721194043
  0
LWPOLYLINE
  5
77EE
330
1E
100
AcDbEntity
  8
躯体と製品
  6
Continuous
 62
     3
100
AcDbPolyline
 90
        2
 70
     0
 43
0.0
 10
1398.651224150879
 20
878.9726461194042
 42
0.2275707722563264
 10
1399.25130380484
 20
877.7224801834787
  0
LWPOLYLINE
  5
77EF
330
1E
100
AcDbEntity
  8
躯体と製品
  6
Continuous
 62
     3
100
AcDbPolyline
 90
        2
 70
     0
 43
0.0
 10
1399.251305540661
 20
877.7224808680099
 42
0.2400000040461867
 10
1399.251305540661
 20
872.7218193707987
  0
LWPOLYLINE
  5
77F0
330
1E
100
AcDbEntity
  8
躯体と製品
  6
Continuous
 62
     3
100
AcDbPolyline
 90
        2
 70
     0
 43
0.0
 10
1399.25130380484
 20
872.72182005533
 42
0.2275707722563265
 10
1398.651224150879
 20
871.4716541194045
  0
LWPOLYLINE
  5
77F1
330
1E
100
AcDbEntity
  8
躯体と製品
  6
Continuous
 62
     3
100
AcDbPolyline
 90
        2
 70
     0
 43
0.0
 10
1398.651224150879
 20
879.5977301194044
 10
1399.251304150879
 20
880.2228121194042
  0
LWPOLYLINE
  5
77F2
330
1E
100
AcDbEntity
  8
躯体と製品
  6
Continuous
 62
     3
100
AcDbPolyline
 90
        2
 70
     0
 43
0.0
 10
1398.651224150879
 20
870.8465721194043
 10
1399.251304150879
 20
870.2214881194041
  0
LWPOLYLINE
  5
77F3
330
1E
100
AcDbEntity
  8
躯体と製品
  6
Continuous
 62
     3
100
AcDbPolyline
 90
        2
 70
     0
 43
0.0
 10
1398.651224150879
 20
870.8465721194043
 10
1398.651224150879
 20
876.5256661194044
  0
LWPOLYLINE
  5
77F4
330
1E
100
AcDbEntity
  8
躯体と製品
  6
Continuous
 62
     3
100
AcDbPolyline
 90
        2
 70
     0
 43
0.0
 10
1398.651224150879
 20
879.2940171194045
 10
1398.651224150879
 20
870.5428591194044
  0
LWPOLYLINE
  5
77F5
330
1E
100
AcDbEntity
  8
躯体と製品
  6
Continuous
 62
     3
100
AcDbPolyline
 90
        2
 70
     0
 43
0.0
 10
1412.551224150879
 20
878.2221511194041
 10
1412.551224150879
 20
872.2221511194041
  0
LWPOLYLINE
  5
77F6
330
1E
100
AcDbEntity
  8
躯体と製品
  6
Continuous
 62
     4
100
AcDbPolyline
 90
        2
 70
     0
 43
0.0
 10
1398.651224150879
 20
866.2221511194042
 10
1515.248666150879
 20
866.2221511194042
  0
LWPOLYLINE
  5
77F7
330
1E
100
AcDbEntity
  8
躯体と製品
  6
Continuous
 62
     3
100
AcDbPolyline
 90
        2
 70
     0
 43
0.0
 10
1398.651224150879
 20
877.7219531194042
 42
0.4142135623730951
 10
1397.151026150879
 20
879.2221511194041
  0
LWPOLYLINE
  5
77F8
330
1E
100
AcDbEntity
  8
躯体と製品
  6
Continuous
 62
     3
100
AcDbPolyline
 90
        2
 70
     0
 43
0.0
 10
1397.151026150879
 20
804.2221511194041
 42
0.4142135623730951
 10
1398.651224150879
 20
805.7223491194042
  0
LWPOLYLINE
  5
77F9
330
1E
100
AcDbEntity
  8
躯体と製品
  6
Continuous
 62
     3
100
AcDbPolyline
 90
        2
 70
     0
 43
0.0
 10
1398.651224150879
 20
805.7223491194042
 10
1398.651224150879
 20
881.0192451194042
  0
LWPOLYLINE
  5
77FA
330
1E
100
AcDbEntity
  8
躯体と製品
  6
Continuous
 62
     4
100
AcDbPolyline
 90
        2
 70
     0
 43
0.0
 10
1393.850039052487
 20
869.6277371194044
 10
1389.851224150879
 20
869.6277371194044
  0
LWPOLYLINE
  5
77FB
330
1E
100
AcDbEntity
  8
躯体と製品
  6
Continuous
 62
     3
100
AcDbPolyline
 90
        2
 70
     0
 43
0.0
 10
1412.551224150879
 20
872.2221511194041
 10
1403.678084150879
 20
872.2221511194042
  0
LWPOLYLINE
  5
77FC
330
1E
100
AcDbEntity
  8
躯体と製品
  6
Continuous
 62
     3
100
AcDbPolyline
 90
        2
 70
     0
 43
0.0
 10
1394.851224150879
 20
872.2221511194042
 10
1389.551224150879
 20
872.2221511194042
  0
LWPOLYLINE
  5
77FD
330
1E
100
AcDbEntity
  8
躯体と製品
  6
Continuous
 62
     3
100
AcDbPolyline
 90
        2
 70
     0
 43
0.0
 10
1403.678084150879
 20
878.2221511194041
 10
1412.551224150879
 20
878.2221511194041
  0
LWPOLYLINE
  5
77FE
330
1E
100
AcDbEntity
  8
躯体と製品
  6
Continuous
 62
     3
100
AcDbPolyline
 90
        2
 70
     0
 43
0.0
 10
1394.851224150879
 20
878.2221511194041
 10
1389.551224150879
 20
878.2221511194041
  0
LWPOLYLINE
  5
77FF
330
1E
100
AcDbEntity
  8
躯体と製品
  6
Continuous
 62
     4
100
AcDbPolyline
 90
        2
 70
     0
 43
0.0
 10
1214.831360150879
 20
910.2221511194041
 10
1515.248666150879
 20
910.2221511194041
  0
LWPOLYLINE
  5
7800
330
1E
100
AcDbEntity
  8
躯体と製品
  6
Continuous
 62
     3
100
AcDbPolyline
 90
        2
 70
     0
 43
0.0
 10
1214.831360150879
 20
900.2221511194042
 10
1515.248666150879
 20
900.2221511194042
  0
LWPOLYLINE
  5
7801
330
1E
100
AcDbEntity
  8
躯体と製品
  6
Continuous
 62
     3
100
AcDbPolyline
 90
        2
 70
     0
 43
0.0
 10
1214.831360150879
 20
905.2221511194042
 10
1515.248666150879
 20
905.2221511194042
  0
LWPOLYLINE
  5
7802
330
1E
100
AcDbEntity
  8
躯体と製品
  6
Continuous
 62
     4
100
AcDbPolyline
 90
        2
 70
     0
 43
0.0
 10
1214.831360150879
 20
928.2221511194041
 10
1515.248666150879
 20
928.2221511194041
  0
LWPOLYLINE
  5
7803
330
1E
100
AcDbEntity
  8
躯体と製品
  6
Continuous
 62
     4
100
AcDbPolyline
 90
        2
 70
     0
 43
0.0
 10
1340.351422137547
 20
795.4221511194043
 10
1389.351026164211
 20
795.4221511194043
  0
LWPOLYLINE
  5
7805
330
1E
100
AcDbEntity
  8
躯体と製品
  6
Continuous
 62
     3
100
AcDbPolyline
 90
        2
 70
     0
 43
0.0
 10
1403.678084150879
 20
872.7222171194043
 10
1412.551224150879
 20
872.7222171194041
  0
LWPOLYLINE
  5
7806
330
1E
100
AcDbEntity
  8
躯体と製品
  6
Continuous
 62
     3
100
AcDbPolyline
 90
        2
 70
     0
 43
0.0
 10
1394.851224150879
 20
872.7218201194043
 10
1334.851224150879
 20
872.7218201194041
  0
LWPOLYLINE
  5
7807
330
1E
100
AcDbEntity
  8
躯体と製品
  6
Continuous
 62
     3
100
AcDbPolyline
 90
        2
 70
     0
 43
0.0
 10
1403.678084150879
 20
877.7220851194043
 10
1412.551224150879
 20
877.7220851194043
  0
LWPOLYLINE
  5
7808
330
1E
100
AcDbEntity
  8
躯体と製品
  6
Continuous
 62
     3
100
AcDbPolyline
 90
        2
 70
     0
 43
0.0
 10
1394.851224150879
 20
877.7220851194043
 10
1334.851224150879
 20
877.7220851194043
  0
LWPOLYLINE
  5
7809
330
1E
100
AcDbEntity
  8
躯体と製品
  6
Continuous
 62
     4
100
AcDbPolyline
 90
        2
 70
     0
 43
0.0
 10
1214.831360150879
 20
895.2221511194041
 10
1515.248666150879
 20
895.2221511194041
  0
LWPOLYLINE
  5
780A
330
1E
100
AcDbEntity
  8
躯体と製品
  6
Continuous
 62
     4
100
AcDbPolyline
 90
        2
 70
     0
 43
0.0
 10
1339.851224150879
 20
866.2221511194042
 10
1344.851224150879
 20
866.2221511194042
  0
LWPOLYLINE
  5
780D
330
1E
100
AcDbEntity
  8
躯体と製品
  6
Continuous
 62
     4
100
AcDbPolyline
 90
        2
 70
     0
 43
0.0
 10
1332.551224150879
 20
870.2221511194041
 10
1332.551224150879
 20
884.2221511194042
  0
LWPOLYLINE
  5
780E
330
1E
100
AcDbEntity
  8
躯体と製品
  6
Continuous
 62
     4
100
AcDbPolyline
 90
        2
 70
     0
 43
0.0
 10
1335.83490102702
 20
869.6677431194043
 10
1339.851224150879
 20
869.6677431194043
  0
LWPOLYLINE
  5
780F
330
1E
100
AcDbEntity
  8
躯体と製品
  6
Continuous
 62
     4
100
AcDbPolyline
 90
        2
 70
     0
 43
0.0
 10
1344.851224150879
 20
871.2221511194043
 10
1344.851224150879
 20
864.2221511194042
  0
LWPOLYLINE
  5
7810
330
1E
100
AcDbEntity
  8
躯体と製品
  6
Continuous
 62
     4
100
AcDbPolyline
 90
        2
 70
     0
 43
0.0
 10
1334.851224150879
 20
884.2221511194042
 10
1332.551224150879
 20
884.2221511194042
  0
LWPOLYLINE
  5
7811
330
1E
100
AcDbEntity
  8
躯体と製品
  6
Continuous
 62
     3
100
AcDbPolyline
 90
        2
 70
     0
 43
0.0
 10
1332.551224150879
 20
880.472151119404
 10
1331.551622150879
 20
880.472151119404
  0
LWPOLYLINE
  5
7812
330
1E
100
AcDbEntity
  8
躯体と製品
  6
Continuous
 62
     3
100
AcDbPolyline
 90
        2
 70
     0
 43
0.0
 10
1331.551622150879
 20
880.472151119404
 42
0.4142135623730951
 10
1328.551224150879
 20
877.471753119404
  0
LWPOLYLINE
  5
7813
330
1E
100
AcDbEntity
  8
躯体と製品
  6
Continuous
 62
     3
100
AcDbPolyline
 90
        2
 70
     0
 43
0.0
 10
1328.551224150879
 20
877.471753119404
 10
1328.55122415088
 20
872.9725491190761
  0
LWPOLYLINE
  5
7814
330
1E
100
AcDbEntity
  8
躯体と製品
  6
Continuous
 62
     4
100
AcDbPolyline
 90
        2
 70
     0
 43
0.0
 10
1331.051224866721
 20
866.2221511194042
 10
1214.831360150879
 20
866.2221511194042
  0
LWPOLYLINE
  5
7816
330
1E
100
AcDbEntity
  8
躯体と製品
  6
Continuous
 62
     3
100
AcDbPolyline
 90
        2
 70
     0
 43
0.0
 10
1331.051225186161
 20
805.7223491194044
 42
0.4141747039798828
 10
1332.551224150879
 20
804.2221511326076
 42
0.4141747039798828
  0
LWPOLYLINE
  5
7817
330
1E
100
AcDbEntity
  8
躯体と製品
  6
Continuous
 62
     3
100
AcDbPolyline
 90
        2
 70
     0
 43
0.0
 10
1332.551224150879
 20
879.2221511062008
 42
0.4141747039798736
 10
1331.051225186161
 20
877.7219531194042
  0
LWPOLYLINE
  5
7818
330
1E
100
AcDbEntity
  8
躯体と製品
  6
Continuous
 62
     3
100
AcDbPolyline
 90
        2
 70
     0
 43
0.0
 10
1331.051225186161
 20
877.7219531619632
 10
1331.051223186161
 20
805.7223491194044
  0
LWPOLYLINE
  5
7819
330
1E
100
AcDbEntity
  8
躯体と製品
  6
Continuous
 62
     4
100
AcDbPolyline
 90
        2
 70
     0
 43
0.0
 10
1389.851224150879
 20
866.2221511194042
 10
1384.851224150879
 20
866.2221511194042
  0
LWPOLYLINE
  5
781A
330
1E
100
AcDbEntity
  8
躯体と製品
  6
Continuous
 62
     4
100
AcDbPolyline
 90
        2
 70
     0
 43
0.0
 10
1384.851224150879
 20
871.2221511194043
 10
1384.851224150879
 20
864.2221511194042
  0
LWPOLYLINE
  5
781B
330
1E
100
AcDbEntity
  8
躯体と製品
  6
Continuous
 62
     3
100
AcDbPolyline
 90
        2
 70
     0
 43
0.0
 10
1389.551224150879
 20
878.2221511194041
 10
1389.051158150879
 20
877.7220851194043
  0
LWPOLYLINE
  5
781C
330
1E
100
AcDbEntity
  8
躯体と製品
  6
Continuous
 62
     3
100
AcDbPolyline
 90
        2
 70
     0
 43
0.0
 10
1389.551224150879
 20
872.2221511194042
 10
1389.051158150879
 20
872.7222171194043
  0
LWPOLYLINE
  5
781D
330
1E
100
AcDbEntity
  8
躯体と製品
  6
Continuous
 62
     3
100
AcDbPolyline
 90
        2
 70
     0
 43
0.0
 10
1389.551224150879
 20
872.2217541194041
 10
1389.551224150879
 20
878.2225481194043
  0
LWPOLYLINE
  5
781E
330
1E
100
AcDbEntity
  8
躯体と製品
  6
Continuous
 62
     4
100
AcDbPolyline
 90
        2
 70
     0
 43
0.0
 10
1344.851224150879
 20
871.2221511194043
 10
1384.851224150879
 20
871.2221511194043
  0
LWPOLYLINE
  5
781F
330
1E
100
AcDbEntity
  8
躯体と製品
  6
Continuous
 62
     3
100
AcDbPolyline
 90
        2
 70
     0
 43
0.0
 10
1658.062442150879
 20
568.2221511194041
 10
1633.270756150879
 20
543.4304651194042
  0
LWPOLYLINE
  5
7820
330
1E
100
AcDbEntity
  8
躯体と製品
  6
Continuous
 62
     3
100
AcDbPolyline
 90
        2
 70
     0
 43
0.0
 10
1672.206450150879
 20
568.2221511194041
 10
1647.414764150879
 20
543.4304651194042
  0
LWPOLYLINE
  5
7821
330
1E
100
AcDbEntity
  8
躯体と製品
  6
Continuous
 62
     3
100
AcDbPolyline
 90
        2
 70
     0
 43
0.0
 10
1643.918434150879
 20
568.2221511194041
 10
1619.126748150879
 20
543.4304651194042
  0
LWPOLYLINE
  5
7826
330
1E
100
AcDbEntity
  8
躯体と製品
  6
Continuous
 62
     3
100
AcDbPolyline
 90
        2
 70
     0
 43
0.0
 10
1478.235142150879
 20
568.2221511194041
 10
1453.310238150879
 20
543.2972471194042
  0
LWPOLYLINE
  5
7827
330
1E
100
AcDbEntity
  8
躯体と製品
  6
Continuous
 62
     3
100
AcDbPolyline
 90
        2
 70
     0
 43
0.0
 10
1492.379150150879
 20
568.2221511194041
 10
1467.454246150879
 20
543.2972471194042
  0
LWPOLYLINE
  5
7828
330
1E
100
AcDbEntity
  8
躯体と製品
  6
Continuous
 62
     3
100
AcDbPolyline
 90
        2
 70
     0
 43
0.0
 10
1464.091134150879
 20
568.2221511194041
 10
1439.166230150879
 20
543.2972471194042
  0
LWPOLYLINE
  5
7829
330
1E
100
AcDbEntity
  8
躯体と製品
  6
Continuous
 62
     3
100
AcDbPolyline
 90
        2
 70
     0
 43
0.0
 10
1358.351224150879
 20
765.4221511194042
 10
1358.351224150879
 20
687.2278451194041
  0
LWPOLYLINE
  5
782A
330
1E
100
AcDbEntity
  8
躯体と製品
  6
Continuous
 62
     3
100
AcDbPolyline
 90
        2
 70
     0
 43
0.0
 10
1371.351224150879
 20
765.4221511194042
 10
1371.351224150879
 20
687.2278451194041
  0
LWPOLYLINE
  5
782B
330
1E
100
AcDbEntity
  8
躯体と製品
  6
Continuous
 62
     4
100
AcDbPolyline
 90
        2
 70
     0
 43
0.0
 10
1356.851224150879
 20
765.4221511194042
 10
1356.851224150879
 20
687.2278451194041
  0
LWPOLYLINE
  5
782C
330
1E
100
AcDbEntity
  8
躯体と製品
  6
Continuous
 62
     4
100
AcDbPolyline
 90
        2
 70
     0
 43
0.0
 10
1372.851224150879
 20
765.4221511194042
 10
1372.851224150879
 20
687.2278451194041
  0
LWPOLYLINE
  5
782D
330
1E
100
AcDbEntity
  8
躯体と製品
  6
Continuous
 62
     4
100
AcDbPolyline
 90
        2
 70
     0
 43
0.0
 10
1515.248666150879
 20
568.2221511194041
 10
1214.453782150879
 20
568.2221511194041
  0
LWPOLYLINE
  5
782E
330
1E
100
AcDbEntity
  8
躯体と製品
  6
Continuous
 62
     3
100
AcDbPolyline
 90
        2
 70
     0
 43
0.0
 10
1265.703050150879
 20
568.2221511194041
 10
1240.778146150879
 20
543.2972471194042
  0
LWPOLYLINE
  5
782F
330
1E
100
AcDbEntity
  8
躯体と製品
  6
Continuous
 62
     3
100
AcDbPolyline
 90
        2
 70
     0
 43
0.0
 10
1279.847058150879
 20
568.2221511194041
 10
1254.922154150879
 20
543.2972471194042
  0
LWPOLYLINE
  5
7830
330
1E
100
AcDbEntity
  8
躯体と製品
  6
Continuous
 62
     3
100
AcDbPolyline
 90
        2
 70
     0
 43
0.0
 10
1251.559042150879
 20
568.2221511194041
 10
1226.634138150879
 20
543.2972471194042
  0
LWPOLYLINE
  5
7831
330
1E
100
AcDbEntity
  8
躯体と製品
  6
Continuous
 62
     3
100
AcDbPolyline
 90
        2
 70
     0
 43
0.0
 10
1841.235064150879
 20
568.2221511194041
 10
1816.443378150879
 20
543.4304651194042
  0
LWPOLYLINE
  5
7832
330
1E
100
AcDbEntity
  8
躯体と製品
  6
Continuous
 62
     3
100
AcDbPolyline
 90
        2
 70
     0
 43
0.0
 10
1398.651224150879
 20
869.2221511194041
 10
1515.248666150879
 20
869.2221511194041
  0
LWPOLYLINE
  5
7833
330
1E
100
AcDbEntity
  8
躯体と製品
  6
Continuous
 62
     3
100
AcDbPolyline
 90
        2
 70
     0
 43
0.0
 10
1339.851224150879
 20
869.2221511194041
 10
1344.851224150879
 20
869.2221511194041
  0
LWPOLYLINE
  5
7834
330
1E
100
AcDbEntity
  8
躯体と製品
  6
Continuous
 62
     3
100
AcDbPolyline
 90
        2
 70
     0
 43
0.0
 10
1331.051224950055
 20
869.2221511194041
 10
1214.831360150879
 20
869.2221511194041
  0
LWPOLYLINE
  5
7835
330
1E
100
AcDbEntity
  8
躯体と製品
  6
Continuous
 62
     3
100
AcDbPolyline
 90
        2
 70
     0
 43
0.0
 10
1389.851224150879
 20
869.2221511194041
 10
1384.851224150879
 20
869.2221511194041
  0
LWPOLYLINE
  5
7838
330
1E
100
AcDbEntity
  8
躯体と製品
  6
Continuous
 62
     4
100
AcDbPolyline
 90
        6
 70
     0
 43
0.0
 10
1334.851224150879
 20
863.2346707119285
 10
1334.851224150879
 20
801.5221511194042
 42
0.4142135623730835
 10
1337.151224150879
 20
799.2221511194042
 10
1392.551224150879
 20
799.2221511194042
 42
0.4142135623730835
 10
1394.851224150879
 20
801.5221511194042
 10
1394.85122415088
 20
863.234670711928
  0
LWPOLYLINE
  5
7839
330
1E
100
AcDbEntity
  8
躯体と製品
  6
Continuous
 62
     4
100
AcDbPolyline
 90
        2
 70
     0
 43
0.0
 10
1334.851224150879
 20
871.2096315268798
 10
1334.851224150879
 20
884.2221511194042
  0
LWPOLYLINE
  5
7841
330
1E
100
AcDbEntity
  8
躯体と製品
  6
Continuous
 62
     4
100
AcDbPolyline
 90
        2
 70
     0
 43
0.0
 10
1394.85122415088
 20
871.2096315268803
 10
1394.851224150879
 20
884.2221511194042
  0
LWPOLYLINE
  5
7844
330
1E
100
AcDbEntity
  8
躯体と製品
  6
Continuous
 62
     4
100
AcDbPolyline
 90
        2
 70
     0
 43
0.0
 10
1388.251224150879
 20
858.7221511194043
 10
1388.251224150879
 20
819.7221511194042
  0
LWPOLYLINE
  5
7845
330
1E
100
AcDbEntity
  8
躯体と製品
  6
Continuous
 62
     4
100
AcDbPolyline
 90
        2
 70
     0
 43
0.0
 10
1384.351224150879
 20
815.8221511194042
 10
1374.851224150879
 20
815.8221511194042
  0
LWPOLYLINE
  5
7846
330
1E
100
AcDbEntity
  8
躯体と製品
  6
Continuous
 62
     4
100
AcDbPolyline
 90
        2
 70
     0
 43
0.0
 10
1345.351224150879
 20
862.6221511194042
 42
0.4142135623730951
 10
1341.451224150879
 20
858.7221511194043
  0
LWPOLYLINE
  5
7847
330
1E
100
AcDbEntity
  8
躯体と製品
  6
Continuous
 62
     4
100
AcDbPolyline
 90
        2
 70
     0
 43
0.0
 10
1384.351224150879
 20
862.6221511194042
 10
1345.351224150879
 20
862.6221511194042
  0
LWPOLYLINE
  5
7848
330
1E
100
AcDbEntity
  8
躯体と製品
  6
Continuous
 62
     4
100
AcDbPolyline
 90
        2
 70
     0
 43
0.0
 10
1354.851224150879
 20
815.8221511194042
 10
1354.851224150879
 20
814.2221511194042
  0
LWPOLYLINE
  5
7849
330
1E
100
AcDbEntity
  8
躯体と製品
  6
Continuous
 62
     4
100
AcDbPolyline
 90
        2
 70
     0
 43
0.0
 10
1374.851224150879
 20
814.2221511194042
 10
1374.851224150879
 20
815.8221511194042
  0
LWPOLYLINE
  5
784A
330
1E
100
AcDbEntity
  8
躯体と製品
  6
Continuous
 62
     4
100
AcDbPolyline
 90
        2
 70
     0
 43
0.0
 10
1384.351224150879
 20
814.2221511194042
 10
1345.351224150879
 20
814.2221511194042
  0
LWPOLYLINE
  5
784B
330
1E
100
AcDbEntity
  8
躯体と製品
  6
Continuous
 62
     4
100
AcDbPolyline
 90
        2
 70
     0
 43
0.0
 10
1339.851224150879
 20
869.6677431194043
 10
1339.851224150879
 20
819.7221511194042
  0
LWPOLYLINE
  5
784C
330
1E
100
AcDbEntity
  8
躯体と製品
  6
Continuous
 62
     4
100
AcDbPolyline
 90
        2
 70
     0
 43
0.0
 10
1345.351224150879
 20
864.2221511194042
 42
0.4142135623730951
 10
1339.851224150879
 20
858.7221511194043
  0
LWPOLYLINE
  5
784D
330
1E
100
AcDbEntity
  8
躯体と製品
  6
Continuous
 62
     4
100
AcDbPolyline
 90
        2
 70
     0
 43
0.0
 10
1384.351224150879
 20
864.2221511194042
 10
1345.351224150879
 20
864.2221511194042
  0
LWPOLYLINE
  5
784E
330
1E
100
AcDbEntity
  8
躯体と製品
  6
Continuous
 62
     4
100
AcDbPolyline
 90
        2
 70
     0
 43
0.0
 10
1389.851224150879
 20
869.6277371194042
 10
1389.851224150879
 20
819.7221511194042
  0
LWPOLYLINE
  5
784F
330
1E
100
AcDbEntity
  8
躯体と製品
  6
Continuous
 62
     4
100
AcDbPolyline
 90
        2
 70
     0
 43
0.0
 10
1341.451224150879
 20
819.7221511194042
 10
1341.451224150879
 20
858.7221511194043
  0
LWPOLYLINE
  5
7850
330
1E
100
AcDbEntity
  8
躯体と製品
  6
Continuous
 62
     4
100
AcDbPolyline
 90
        2
 70
     0
 43
0.0
 10
1345.351224150879
 20
815.8221511194042
 10
1354.851224150879
 20
815.8221511194042
  0
LWPOLYLINE
  5
7851
330
1E
100
AcDbEntity
  8
躯体と製品
  6
Continuous
 62
     4
100
AcDbPolyline
 90
        2
 70
     0
 43
0.0
 10
1388.251224150879
 20
858.7221511194043
 42
0.4142135623730951
 10
1384.351224150879
 20
862.6221511194042
  0
LWPOLYLINE
  5
7852
330
1E
100
AcDbEntity
  8
躯体と製品
  6
Continuous
 62
     4
100
AcDbPolyline
 90
        2
 70
     0
 43
0.0
 10
1389.851224150879
 20
858.7221511194043
 42
0.4142135623730951
 10
1384.351224150879
 20
864.2221511194042
  0
LWPOLYLINE
  5
7853
330
1E
100
AcDbEntity
  8
躯体と製品
  6
Continuous
 62
     4
100
AcDbPolyline
 90
        2
 70
     0
 43
0.0
 10
1341.451224150879
 20
819.7221511194042
 42
0.4142135623730951
 10
1345.351224150879
 20
815.8221511194042
  0
LWPOLYLINE
  5
7854
330
1E
100
AcDbEntity
  8
躯体と製品
  6
Continuous
 62
     4
100
AcDbPolyline
 90
        2
 70
     0
 43
0.0
 10
1339.851224150879
 20
819.7221511194042
 42
0.4142135623730951
 10
1345.351224150879
 20
814.2221511194042
  0
LWPOLYLINE
  5
7855
330
1E
100
AcDbEntity
  8
躯体と製品
  6
Continuous
 62
     4
100
AcDbPolyline
 90
        2
 70
     0
 43
0.0
 10
1384.351224150879
 20
815.8221511194042
 42
0.4142135623730951
 10
1388.251224150879
 20
819.7221511194042
  0
LWPOLYLINE
  5
7856
330
1E
100
AcDbEntity
  8
躯体と製品
  6
Continuous
 62
     4
100
AcDbPolyline
 90
        2
 70
     0
 43
0.0
 10
1384.351224150879
 20
814.2221511194042
 42
0.4142135623730951
 10
1389.851224150879
 20
819.7221511194042
  0
LWPOLYLINE
  5
7AC8
330
1E
100
AcDbEntity
  8
躯体と製品
  6
Continuous
 62
     4
100
AcDbPolyline
 90
        6
 70
     0
 43
0.0
 10
1332.551224150879
 20
864.2221511194041
 10
1332.551224150879
 20
801.5221511194042
 42
0.4142135623730604
 10
1337.151224150879
 20
796.922151119404
 10
1392.551224150879
 20
796.9221511194042
 42
0.4142135623730602
 10
1397.151224150879
 20
801.5221511194042
 10
1397.151224150879
 20
864.2221511194039
  0
LWPOLYLINE
  5
7ACF
330
1E
100
AcDbEntity
  8
躯体と製品
  6
Continuous
 62
     4
100
AcDbPolyline
 90
        2
 70
     0
 43
0.0
 10
1338.851224150879
 20
796.922151119404
 42
0.4141745156370421
 10
1340.351422137547
 20
795.4221531194042
  0
ARC
  5
7AD7
330
1E
100
AcDbEntity
  8
躯体と製品
  6
Continuous
 62
     4
100
AcDbCircle
 10
1330.301224150879
 20
867.2221511194042
 30
0.0
 40
3.750000000000136
100
AcDbArc
 50
306.869897645844
 51
53.1301023541532
  0
ARC
  5
7AD8
330
1E
100
AcDbEntity
  8
躯体と製品
  6
Continuous
 62
     4
100
AcDbCircle
 10
1330.301224150879
 20
867.2221511194042
 30
0.0
 40
6.050000000000135
100
AcDbArc
 50
318.7696695640499
 51
41.23033043595015
  0
ARC
  5
7AD9
330
1E
100
AcDbEntity
  8
躯体と製品
  6
Continuous
 62
     4
100
AcDbCircle
 10
1399.401224150879
 20
867.2221511194042
 30
0.0
 40
3.750000000000136
100
AcDbArc
 50
126.8698976458408
 51
233.1301023541602
  0
ARC
  5
7ADA
330
1E
100
AcDbEntity
  8
躯体と製品
  6
Continuous
 62
     4
100
AcDbCircle
 10
1399.401224150879
 20
867.2221511194042
 30
0.0
 40
6.050000000000135
100
AcDbArc
 50
138.7696695640438
 51
221.2303304359562
  0
LWPOLYLINE
  5
7AE7
330
1E
100
AcDbEntity
  8
躯体と製品
  6
Continuous
 62
     3
100
AcDbPolyline
 90
        2
 70
     0
 43
0.0
 10
1331.051224972055
 20
870.0141727366853
 42
-0.3659456793920637
 10
1328.551224150879
 20
872.9725491194042
  0
LWPOLYLINE
  5
7AFD
330
1E
100
AcDbEntity
  8
躯体と製品
  6
Continuous
 62
     4
100
AcDbPolyline
 90
        2
 70
     0
 43
0.0
 10
1750.817615150879
 20
765.5799988958103
 10
1750.817615150879
 20
687.0643117978556
  0
LWPOLYLINE
  5
7AFE
330
1E
100
AcDbEntity
  8
躯体と製品
  6
Continuous
 62
     4
100
AcDbPolyline
 90
        2
 70
     0
 43
0.0
 10
1734.817615150879
 20
765.5799988562778
 10
1734.817615150879
 20
687.0643123382969
  0
LWPOLYLINE
  5
7AFF
330
1E
100
AcDbEntity
  8
躯体と製品
  6
Continuous
 62
     3
100
AcDbPolyline
 90
        2
 70
     0
 43
0.0
 10
1749.317615150879
 20
765.4319668629694
 10
1749.317615150879
 20
687.2123440192646
  0
LWPOLYLINE
  5
7B00
330
1E
100
AcDbEntity
  8
躯体と製品
  6
Continuous
 62
     3
100
AcDbPolyline
 90
        2
 70
     0
 43
0.0
 10
1736.317615150879
 20
765.4319667944572
 10
1736.317615150879
 20
687.2123442115491
  0
ENDSEC
  0
SECTION
  2
OBJECTS
  0
DICTIONARY
  5
C
330
0
100
AcDbDictionary
281
     1
  3
ACAD_CIP_PREVIOUS_PRODUCT_INFO
350
602F
  3
ACAD_COLOR
350
6013
  3
ACAD_GROUP
350
D
  3
ACAD_LAYOUT
350
19
  3
ACAD_MATERIAL
350
5FE1
  3
ACAD_MLEADERSTYLE
350
6028
  3
ACAD_MLINESTYLE
350
16
  3
ACAD_PLOTSETTINGS
350
18
  3
ACAD_PLOTSTYLENAME
350
E
  3
ACAD_SCALELIST
350
6016
  3
ACAD_TABLESTYLE
350
6014
  3
ACAD_VISUALSTYLE
350
5FFA
  3
ACDB_RECOMPOSE_DATA
350
7CA6
  3
AcDbVariableDictionary
350
169
  3
AEC_PROPERTY_SET_DEFS
350
6338
  0
DICTIONARY
  5
78B0
330
8
100
AcDbDictionary
280
     1
281
     1
  0
DICTIONARY
  5
175
330
2
100
AcDbDictionary
280
     1
281
     1
  3
ACAD_LAYERFILTERS
360
185
  3
ACAD_LAYERSTATES
360
176
  0
DICTIONARY
  5
608E
330
10
100
AcDbDictionary
280
     1
281
     1
  3
ADSK_XREC_LAYER_RECONCILED
360
608F
  0
DICTIONARY
  5
6090
330
178
100
AcDbDictionary
280
     1
281
     1
  3
ADSK_XREC_LAYER_RECONCILED
360
6091
  0
DICTIONARY
  5
6092
330
179
100
AcDbDictionary
280
     1
281
     1
  3
ADSK_XREC_LAYER_RECONCILED
360
6093
  0
DICTIONARY
  5
6094
330
4F62
100
AcDbDictionary
280
     1
281
     1
  3
ADSK_XREC_LAYER_RECONCILED
360
6095
  0
DICTIONARY
  5
28B
330
1E
100
AcDbDictionary
280
     1
281
     1
  3
ACAD_LAYOUTSELFREF
360
5C3B
  3
ACAD_SORTENTS
360
63C8
  0
DICTIONARY
  5
28D
330
1A
100
AcDbDictionary
280
     1
281
     1
  3
ACAD_LAYOUTSELFREF
360
5C3A
  0
XRECORD
  5
602F
102
{ACAD_REACTORS
330
C
102
}
330
C
100
AcDbXrecord
280
     1
300
ACD
300
2012
300
ACD_F_S
  0
DICTIONARY
  5
6013
102
{ACAD_REACTORS
330
C
102
}
330
C
100
AcDbDictionary
281
     1
  0
DICTIONARY
  5
D
102
{ACAD_REACTORS
330
C
102
}
330
C
100
AcDbDictionary
281
     1
  0
DICTIONARY
  5
19
102
{ACAD_REACTORS
330
C
102
}
330
C
100
AcDbDictionary
281
     1
  3
Model
350
21
  3
ﾚｲｱｳﾄ1
350
1D
  0
DICTIONARY
  5
5FE1
102
{ACAD_REACTORS
330
C
102
}
330
C
100
AcDbDictionary
281
     1
  3
ByBlock
350
5FEA
  3
ByLayer
350
5FE2
  3
Global
350
5FF2
  0
DICTIONARY
  5
6028
102
{ACAD_REACTORS
330
C
102
}
330
C
100
AcDbDictionary
281
     1
  3
Standard
350
6029
  0
DICTIONARY
  5
16
102
{ACAD_REACTORS
330
C
102
}
330
C
100
AcDbDictionary
281
     1
  3
Standard
350
17
  0
DICTIONARY
  5
18
102
{ACAD_REACTORS
330
C
102
}
330
C
100
AcDbDictionary
281
     1
  0
ACDBDICTIONARYWDFLT
  5
E
102
{ACAD_REACTORS
330
C
102
}
330
C
100
AcDbDictionary
281
     1
  3
Normal
350
F
100
AcDbDictionaryWithDefault
340
F
  0
DICTIONARY
  5
6016
102
{ACAD_REACTORS
330
C
102
}
330
C
100
AcDbDictionary
281
     1
  3
A0
350
6017
  3
A1
350
6018
  3
A2
350
6019
  3
A3
350
601A
  3
A4
350
601B
  3
A5
350
601C
  3
A6
350
601D
  3
A7
350
601E
  3
A8
350
601F
  3
A9
350
6020
  3
B0
350
6021
  3
B1
350
6022
  3
B2
350
6023
  3
B3
350
6024
  3
B4
350
6025
  3
B5
350
6026
  3
B6
350
6027
  0
DICTIONARY
  5
6014
102
{ACAD_REACTORS
330
C
102
}
330
C
100
AcDbDictionary
281
     1
  3
Standard
350
6015
  0
DICTIONARY
  5
5FFA
102
{ACAD_REACTORS
330
C
102
}
330
C
100
AcDbDictionary
281
     1
  3
2dWireframe
350
6000
  3
3dWireframe
350
6BD2
  3
Basic
350
5FFF
  3
Brighten
350
6006
  3
ColorChange
350
600A
  3
Conceptual
350
6003
  3
Dim
350
6005
  3
EdgeColorOff
350
6012
  3
Facepattern
350
6009
  3
Flat
350
5FFB
  3
FlatWithEdges
350
5FFC
  3
Gouraud
350
5FFD
  3
GouraudWithEdges
350
5FFE
  3
Hidden
350
6002
  3
JitterOff
350
6010
  3
Linepattern
350
6008
  3
OverhangOff
350
6011
  3
Realistic
350
6004
  3
Shaded
350
600F
  3
Shaded with edges
350
600E
  3
Shades of Gray
350
600B
  3
Sketchy
350
600C
  3
Thicken
350
6007
  3
Wireframe
350
6001
  3
X-Ray
350
600D
  0
XRECORD
  5
7CA6
102
{ACAD_REACTORS
330
C
102
}
330
C
100
AcDbXrecord
280
     1
 90
        1
330
6015
  0
DICTIONARY
  5
169
102
{ACAD_REACTORS
330
C
102
}
330
C
100
AcDbDictionary
281
     1
  3
CANNOSCALE
350
6277
  3
CMLEADERSTYLE
350
6275
  3
CTABLESTYLE
350
6274
  3
DIMASSOC
350
16A
  3
LAYEREVAL
350
6279
  3
LAYERNOTIFY
350
627A
  3
LIGHTINGUNITS
350
6278
  3
MSLTSCALE
350
6276
  3
XCLIPFRAME
350
7CA2
  0
DICTIONARY
  5
6338
102
{ACAD_REACTORS
330
C
102
}
330
C
100
AcDbDictionary
281
     1
  0
DICTIONARY
  5
185
102
{ACAD_REACTORS
330
175
102
}
330
175
100
AcDbDictionary
280
     1
281
     1
  0
DICTIONARY
  5
176
102
{ACAD_REACTORS
330
175
102
}
330
175
100
AcDbDictionary
281
     1
  3
ACAD
350
177
  0
XRECORD
  5
608F
102
{ACAD_REACTORS
330
608E
102
}
330
608E
100
AcDbXrecord
280
     1
290
     1
  0
XRECORD
  5
6091
102
{ACAD_REACTORS
330
6090
102
}
330
6090
100
AcDbXrecord
280
     1
290
     1
  0
XRECORD
  5
6093
102
{ACAD_REACTORS
330
6092
102
}
330
6092
100
AcDbXrecord
280
     1
290
     1
  0
XRECORD
  5
6095
102
{ACAD_REACTORS
330
6094
102
}
330
6094
100
AcDbXrecord
280
     1
290
     1
  0
XRECORD
  5
5C3B
102
{ACAD_REACTORS
330
28B
102
}
330
28B
100
AcDbXrecord
280
     1
340
1E
  0
SORTENTSTABLE
  5
63C8
102
{ACAD_REACTORS
330
28B
102
}
330
28B
100
AcDbSortentsTable
330
1E
331
7829
  5
75CF
331
77F2
  5
7759
331
77B3
  5
77BB
331
7831
  5
75C6
331
77FA
  5
76B2
331
77BB
  5
77B3
331
7839
  5
75B9
331
7802
  5
76AA
331
77C3
  5
77AB
331
7AC8
  5
75BB
331
7841
  5
75AF
331
780A
  5
76A2
331
77CB
  5
77A3
331
5FD2
  5
77CC
331
75B5
  5
7840
331
777C
  5
7854
331
7784
  5
77F0
331
7586
  5
7819
331
778C
  5
77E8
331
758E
  5
781F
331
75C5
  5
784B
331
7794
  5
77E0
331
7849
  5
75A5
331
7812
  5
7699
331
77D3
  5
779B
331
7AD8
  5
7AD8
331
7851
  5
5FBA
331
781A
  5
768B
331
77DB
  5
7790
331
77E3
  5
7788
331
77EB
  5
777F
331
779C
  5
77D8
331
759E
  5
782D
331
77A4
  5
77D0
331
7567
  5
77FD
331
75A6
  5
7833
331
77AC
  5
77C3
331
756F
  5
7804
331
7577
  5
780C
331
782A
  5
75CE
331
77F3
  5
7758
331
77B4
  5
77BA
331
7832
  5
75C5
331
77FB
  5
76B1
331
77BC
  5
77B2
331
7803
  5
76A9
331
77C4
  5
77AA
331
77CC
  5
77A2
331
757F
  5
7812
331
75B6
  5
7841
331
777D
  5
7853
331
7785
  5
77EF
331
7587
  5
781A
331
5F54
  5
7795
331
60C1
  5
77CE
331
75BE
  5
7845
331
778D
  5
77E7
331
758F
  5
7820
331
75C6
  5
784C
331
7795
  5
77DF
331
784A
  5
75A4
331
7813
  5
7698
331
77D4
  5
779A
331
7852
  5
5FAF
331
781B
  5
768A
331
77DC
  5
778F
331
77E4
  5
7787
331
77EC
  5
777E
331
779D
  5
77D7
331
7560
  5
77F7
331
759F
  5
782E
331
77A5
  5
77CF
331
7568
  5
77FE
331
75A7
  5
7834
331
77AD
  5
77C2
331
7570
  5
7805
331
75AF
  5
783A
331
7756
  5
7AB7
331
782B
  5
75CC
331
77F4
  5
7757
331
77B5
  5
77B9
331
7833
  5
75C4
331
77FC
  5
76B0
331
77BD
  5
77B1
331
77C5
  5
77A9
331
77CD
  5
77A1
331
7578
  5
780D
331
7580
  5
7813
331
777E
  5
7852
331
7786
  5
77EE
331
5F55
  5
7796
331
7588
  5
781B
331
75BF
  5
7846
331
778E
  5
77E6
331
7590
  5
7821
331
75C7
  5
784D
331
7796
  5
77DE
331
784B
  5
75A3
331
7814
  5
7692
331
77D5
  5
7799
331
7853
  5
5F89
331
781C
  5
7689
331
77DD
  5
778E
331
77E5
  5
7786
331
77ED
  5
777D
331
7598
  5
7827
331
779E
  5
77D6
331
77A6
  5
77C9
331
63A2
  5
77F3
331
7569
  5
77FF
331
75A8
  5
7835
331
77AE
  5
77C1
331
7571
  5
7806
331
7757
  5
7ABE
331
782C
  5
75CB
331
77F5
  5
7756
331
77B6
  5
77B8
331
7834
  5
75C3
331
77FD
  5
76AF
331
77BE
  5
77B0
331
7805
  5
76A8
331
77C6
  5
77A8
331
7844
  5
75AA
331
780D
  5
76A0
331
77CE
  5
77A0
331
7579
  5
780E
331
75B0
  5
783B
331
7581
  5
7814
331
777F
  5
7851
331
7787
  5
77ED
331
5F56
  5
7797
331
7589
  5
781C
331
75C0
  5
7847
331
778F
  5
77E5
331
7591
  5
7822
331
75C8
  5
784E
331
7797
  5
77DD
331
784C
  5
759B
331
77D6
  5
7798
331
7854
  5
5F56
331
781D
  5
7688
331
77DE
  5
778D
331
77E6
  5
7784
331
77EE
  5
777C
331
7698
  5
77F5
331
7599
  5
7828
331
779F
  5
77D5
331
7562
  5
77F8
331
77A7
  5
77C8
331
756A
  5
7800
331
75A9
  5
7836
331
77AF
  5
77C0
331
7572
  5
7807
331
7758
  5
7ABF
331
782D
  5
75CA
331
77F6
  5
76B6
331
77B7
  5
77B7
331
7835
  5
75C1
331
77FE
  5
76AE
331
77BF
  5
77AF
331
7806
  5
76A7
331
77C7
  5
77A7
331
7845
  5
75A9
331
780E
  5
769E
331
77CF
  5
779F
331
757A
  5
780F
331
75B1
  5
783C
331
7582
  5
7815
331
75B9
  5
7842
331
7780
  5
7850
331
7788
  5
77EC
331
758A
  5
781D
331
75C1
  5
7848
331
7790
  5
77E4
331
7592
  5
7823
331
784D
  5
63A2
331
7816
  5
7690
331
77D7
  5
7794
331
7855
  5
5F55
331
781E
  5
7687
331
77DF
  5
778C
331
7826
  5
762B
331
77E7
  5
7783
331
77EF
  5
777B
331
7798
  5
77DC
331
5FAF
  5
77CA
331
755B
  5
77F6
331
759A
  5
7829
331
77A0
  5
77D4
331
76B9
  5
77F4
331
7563
  5
77F9
331
75A2
  5
782F
331
77A8
  5
77C7
331
756B
  5
7801
331
75AA
  5
7837
331
7573
  5
7808
331
7759
  5
7AC1
331
77B0
  5
77BF
331
782E
  5
75C9
331
77F7
  5
76B5
331
77B8
  5
77B6
331
77FF
  5
76AD
331
77C0
  5
77AE
331
7807
  5
76A6
331
77C8
  5
77A6
331
7846
  5
75A8
331
780F
  5
769C
331
757B
  5
7810
331
75B2
  5
783D
331
7779
  5
7AB6
331
60BD
  5
77CD
331
7583
  5
7816
331
75BA
  5
7843
331
7781
  5
784F
331
7789
  5
77EB
331
758B
  5
781E
331
7791
  5
77E3
331
7593
  5
7824
331
77D0
  5
779E
331
784E
  5
60C1
331
7817
  5
768E
331
77D8
  5
7793
331
7856
  5
5F54
331
781F
  5
7686
331
77E0
  5
778A
331
7827
  5
75D1
331
77E8
  5
7782
331
7799
  5
77DB
331
759B
  5
782A
331
77A1
  5
77D3
331
7564
  5
77FA
331
75A3
  5
7830
331
77A9
  5
77C6
331
756C
  5
7802
331
75AB
  5
7838
331
7574
  5
7809
331
77F0
  5
777A
331
77B1
  5
77BE
331
782F
  5
75C8
331
77F8
  5
76B4
331
77B9
  5
77B5
331
7800
  5
76AC
331
77C1
  5
77AD
331
7808
  5
76A4
331
77C9
  5
77A5
331
7847
  5
75A7
331
75B3
  5
783E
331
777A
  5
7856
331
7782
  5
77F2
331
7584
  5
7817
331
75BB
  5
7844
331
778A
  5
77EA
331
5F89
  5
77BD
331
75C3
  5
7849
331
7792
  5
77E2
331
7594
  5
7825
331
7810
  5
769B
331
77D1
  5
779D
331
784F
  5
60BD
331
7818
  5
768D
331
77D9
  5
7792
331
7820
  5
7685
331
77E9
  5
7781
331
779A
  5
77DA
331
759C
  5
782B
331
77A2
  5
77D2
331
7565
  5
77FB
331
75A4
  5
7831
331
77AA
  5
77C5
331
756D
  5
7803
331
7575
  5
780A
331
7828
  5
75D0
331
77F1
  5
7779
331
77B2
  5
77BC
331
7830
  5
75C7
331
77F9
  5
76B3
331
77BA
  5
77B4
331
7838
  5
75BA
331
7801
  5
76AB
331
77C2
  5
77AC
331
7ACF
  5
76A1
331
7809
  5
76A3
331
77CA
  5
77A4
331
7AD7
  5
7AD7
331
757D
  5
7811
331
75B4
  5
783F
331
777B
  5
7855
331
7783
  5
77F1
331
7585
  5
7818
331
778B
  5
77E9
331
75C4
  5
784A
331
7793
  5
77E1
331
7595
  5
7826
331
7848
  5
75A6
331
7811
  5
769A
331
77D2
  5
779C
331
7850
  5
5FD2
331
7819
  5
768C
331
77DA
  5
7791
331
7821
  5
7684
331
77E2
  5
7789
331
77EA
  5
7780
331
779B
  5
77D9
331
759D
  5
782C
331
77A3
  5
77D1
331
5FBA
  5
77CB
331
7566
  5
77FC
331
75A5
  5
7832
331
77AB
  5
77C4
331
75AD
  5
7839
331
7576
  5
780B
  0
XRECORD
  5
5C3A
102
{ACAD_REACTORS
330
28D
102
}
330
28D
100
AcDbXrecord
280
     1
340
1A
  0
LAYOUT
  5
21
102
{ACAD_XDICTIONARY
360
609D
102
}
102
{ACAD_REACTORS
330
19
102
}
330
19
100
AcDbPlotSettings
  1

  2
none_device
  4
Letter_(8.50_x_11.00_Inches)
  6

 40
6.349999904632568
 41
6.349999904632568
 42
6.350006103515625
 43
6.350006103515625
 44
215.8999938964844
 45
279.3999938964844
 46
0.0
 47
0.0
 48
0.0
 49
0.0
140
0.0
141
0.0
142
1.0
143
111.6846402619708
 70
 11952
 72
     0
 73
     1
 74
     0
  7
monochrome.ctb
 75
     0
147
0.0089537827014921
 76
     0
 77
     2
 78
   300
148
-24691.8979814418
149
-13879.10040381731
100
AcDbLayout
  1
Model
 70
     1
 71
     0
 10
0.0
 20
0.0
 11
12.0
 21
9.0
 12
0.0
 22
0.0
 32
0.0
 14
0.0
 24
0.0
 34
0.0
 15
0.0
 25
0.0
 35
0.0
146
0.0
 13
0.0
 23
0.0
 33
0.0
 16
1.0
 26
0.0
 36
0.0
 17
0.0
 27
1.0
 37
0.0
 76
     0
330
1E
331
5FDF
1001
ACAD_PSEXT
1000
なし
1000
なし
1000
適切ではありません
1000
新しいプロッタ環境設定名を選択しない限り、レイアウトは印刷されません。
1070
     0
  0
LAYOUT
  5
1D
102
{ACAD_REACTORS
330
19
102
}
330
19
100
AcDbPlotSettings
  1

  2
\\MEISEI-1\EPSON Stylus Photo EX3
  4

  6

 40
0.0
 41
0.0
 42
0.0
 43
0.0
 44
0.0
 45
0.0
 46
0.0
 47
0.0
 48
0.0
 49
0.0
140
0.0
141
0.0
142
1.0
143
1.0
 70
   688
 72
     0
 73
     0
 74
     5
  7
monochrome.ctb
 75
    16
147
1.0
 76
     0
 77
     2
 78
   300
148
0.0
149
0.0
100
AcDbLayout
  1
ﾚｲｱｳﾄ1
 70
     1
 71
     1
 10
0.0
 20
0.0
 11
12.0
 21
9.0
 12
0.0
 22
0.0
 32
0.0
 14
1.000000000000000E+20
 24
1.000000000000000E+20
 34
1.000000000000000E+20
 15
-1.000000000000000E+20
 25
-1.000000000000000E+20
 35
-1.000000000000000E+20
146
0.0
 13
0.0
 23
0.0
 33
0.0
 16
1.0
 26
0.0
 36
0.0
 17
0.0
 27
1.0
 37
0.0
 76
     0
330
1A
  0
MATERIAL
  5
5FEA
102
{ACAD_XDICTIONARY
360
5FEB
102
}
102
{ACAD_REACTORS
330
5FE1
102
}
330
5FE1
100
AcDbMaterial
  1
ByBlock
 72
     0
 43
0.0208333333333333
 43
0.0
 43
0.0
 43
0.0
 43
0.0
 43
0.0208333333333333
 43
0.0
 43
0.0
 43
0.0
 43
0.0
 43
1.0
 43
0.0
 43
0.0
 43
0.0
 43
0.0
 43
1.0
 77
     0
 47
0.0208333333333333
 47
0.0
 47
0.0
 47
0.0
 47
0.0
 47
0.0208333333333333
 47
0.0
 47
0.0
 47
0.0
 47
0.0
 47
1.0
 47
0.0
 47
0.0
 47
0.0
 47
0.0
 47
1.0
171
     0
 49
0.0208333333333333
 49
0.0
 49
0.0
 49
0.0
 49
0.0
 49
0.0208333333333333
 49
0.0
 49
0.0
 49
0.0
 49
0.0
 49
1.0
 49
0.0
 49
0.0
 49
0.0
 49
0.0
 49
1.0
175
     0
142
0.0208333333333333
142
0.0
142
0.0
142
0.0
142
0.0
142
0.0208333333333333
142
0.0
142
0.0
142
0.0
142
0.0
142
1.0
142
0.0
142
0.0
142
0.0
142
0.0
142
1.0
179
     0
144
0.0208333333333333
144
0.0
144
0.0
144
0.0
144
0.0
144
0.0208333333333333
144
0.0
144
0.0
144
0.0
144
0.0
144
1.0
144
0.0
144
0.0
144
0.0
144
0.0
144
1.0
147
0.0208333333333333
147
0.0
147
0.0
147
0.0
147
0.0
147
0.0208333333333333
147
0.0
147
0.0
147
0.0
147
0.0
147
1.0
147
0.0
147
0.0
147
0.0
147
0.0
147
1.0
  0
MATERIAL
  5
5FE2
102
{ACAD_XDICTIONARY
360
5FE3
102
}
102
{ACAD_REACTORS
330
5FE1
102
}
330
5FE1
100
AcDbMaterial
  1
ByLayer
 72
     0
 43
0.0208333333333333
 43
0.0
 43
0.0
 43
0.0
 43
0.0
 43
0.0208333333333333
 43
0.0
 43
0.0
 43
0.0
 43
0.0
 43
1.0
 43
0.0
 43
0.0
 43
0.0
 43
0.0
 43
1.0
 77
     0
 47
0.0208333333333333
 47
0.0
 47
0.0
 47
0.0
 47
0.0
 47
0.0208333333333333
 47
0.0
 47
0.0
 47
0.0
 47
0.0
 47
1.0
 47
0.0
 47
0.0
 47
0.0
 47
0.0
 47
1.0
171
     0
 49
0.0208333333333333
 49
0.0
 49
0.0
 49
0.0
 49
0.0
 49
0.0208333333333333
 49
0.0
 49
0.0
 49
0.0
 49
0.0
 49
1.0
 49
0.0
 49
0.0
 49
0.0
 49
0.0
 49
1.0
175
     0
142
0.0208333333333333
142
0.0
142
0.0
142
0.0
142
0.0
142
0.0208333333333333
142
0.0
142
0.0
142
0.0
142
0.0
142
1.0
142
0.0
142
0.0
142
0.0
142
0.0
142
1.0
179
     0
144
0.0208333333333333
144
0.0
144
0.0
144
0.0
144
0.0
144
0.0208333333333333
144
0.0
144
0.0
144
0.0
144
0.0
144
1.0
144
0.0
144
0.0
144
0.0
144
0.0
144
1.0
147
0.0208333333333333
147
0.0
147
0.0
147
0.0
147
0.0
147
0.0208333333333333
147
0.0
147
0.0
147
0.0
147
0.0
147
1.0
147
0.0
147
0.0
147
0.0
147
0.0
147
1.0
  0
MATERIAL
  5
5FF2
102
{ACAD_XDICTIONARY
360
5FF3
102
}
102
{ACAD_REACTORS
330
5FE1
102
}
330
5FE1
100
AcDbMaterial
  1
Global
 72
     0
 43
0.0208333333333333
 43
0.0
 43
0.0
 43
0.0
 43
0.0
 43
0.0208333333333333
 43
0.0
 43
0.0
 43
0.0
 43
0.0
 43
1.0
 43
0.0
 43
0.0
 43
0.0
 43
0.0
 43
1.0
 77
     0
 47
0.0208333333333333
 47
0.0
 47
0.0
 47
0.0
 47
0.0
 47
0.0208333333333333
 47
0.0
 47
0.0
 47
0.0
 47
0.0
 47
1.0
 47
0.0
 47
0.0
 47
0.0
 47
0.0
 47
1.0
171
     0
 49
0.0208333333333333
 49
0.0
 49
0.0
 49
0.0
 49
0.0
 49
0.0208333333333333
 49
0.0
 49
0.0
 49
0.0
 49
0.0
 49
1.0
 49
0.0
 49
0.0
 49
0.0
 49
0.0
 49
1.0
175
     0
142
0.0208333333333333
142
0.0
142
0.0
142
0.0
142
0.0
142
0.0208333333333333
142
0.0
142
0.0
142
0.0
142
0.0
142
1.0
142
0.0
142
0.0
142
0.0
142
0.0
142
1.0
179
     0
144
0.0208333333333333
144
0.0
144
0.0
144
0.0
144
0.0
144
0.0208333333333333
144
0.0
144
0.0
144
0.0
144
0.0
144
1.0
144
0.0
144
0.0
144
0.0
144
0.0
144
1.0
147
0.0208333333333333
147
0.0
147
0.0
147
0.0
147
0.0
147
0.0208333333333333
147
0.0
147
0.0
147
0.0
147
0.0
147
1.0
147
0.0
147
0.0
147
0.0
147
0.0
147
1.0
  0
MLEADERSTYLE
  5
6029
102
{ACAD_XDICTIONARY
360
7CA4
102
}
102
{ACAD_REACTORS
330
6028
102
}
330
6028
100
AcDbMLeaderStyle
170
     2
171
     1
172
     0
 90
        2
 40
0.0
 41
0.0
173
     1
 91
-1056964608
340
13
 92
       -2
290
     1
 42
0.09
291
     1
 43
0.36
  3
Standard
 44
0.18
300

342
11
174
     1
178
     6
175
     1
176
     0
 93
-1056964608
 45
0.18
292
     0
297
     0
 46
0.18
 94
-1056964608
 47
1.0
 49
1.0
140
1.0
293
     1
141
0.0
294
     1
177
     0
142
1.0
295
     0
296
     0
143
0.125
1001
ACAD_MLEADERVER
1070
     2
  0
MLINESTYLE
  5
17
102
{ACAD_REACTORS
330
16
102
}
330
16
100
AcDbMlineStyle
  2
STANDARD
 70
     0
  3

 62
   256
 51
90.0
 52
90.0
 71
     2
 49
0.5
 62
   256
  6
BYLAYER
 49
-0.5
 62
   256
  6
BYLAYER
  0
ACDBPLACEHOLDER
  5
F
102
{ACAD_REACTORS
330
E
102
}
330
E
  0
SCALE
  5
6017
102
{ACAD_REACTORS
330
6016
102
}
330
6016
100
AcDbScale
 70
     0
300
1:1
140
1.0
141
1.0
290
     1
  0
SCALE
  5
6018
102
{ACAD_REACTORS
330
6016
102
}
330
6016
100
AcDbScale
 70
     0
300
1/128" = 1'-0"
140
0.0078125
141
12.0
290
     0
  0
SCALE
  5
6019
102
{ACAD_REACTORS
330
6016
102
}
330
6016
100
AcDbScale
 70
     0
300
1/64" = 1'-0"
140
0.015625
141
12.0
290
     0
  0
SCALE
  5
601A
102
{ACAD_REACTORS
330
6016
102
}
330
6016
100
AcDbScale
 70
     0
300
1/32" = 1'-0"
140
0.03125
141
12.0
290
     0
  0
SCALE
  5
601B
102
{ACAD_REACTORS
330
6016
102
}
330
6016
100
AcDbScale
 70
     0
300
1/16" = 1'-0"
140
0.0625
141
12.0
290
     0
  0
SCALE
  5
601C
102
{ACAD_REACTORS
330
6016
102
}
330
6016
100
AcDbScale
 70
     0
300
3/32" = 1'-0"
140
0.09375
141
12.0
290
     0
  0
SCALE
  5
601D
102
{ACAD_REACTORS
330
6016
102
}
330
6016
100
AcDbScale
 70
     0
300
1/8" = 1'-0"
140
0.125
141
12.0
290
     0
  0
SCALE
  5
601E
102
{ACAD_REACTORS
330
6016
102
}
330
6016
100
AcDbScale
 70
     0
300
3/16" = 1'-0"
140
0.1875
141
12.0
290
     0
  0
SCALE
  5
601F
102
{ACAD_REACTORS
330
6016
102
}
330
6016
100
AcDbScale
 70
     0
300
1/4" = 1'-0"
140
0.25
141
12.0
290
     0
  0
SCALE
  5
6020
102
{ACAD_REACTORS
330
6016
102
}
330
6016
100
AcDbScale
 70
     0
300
3/8" = 1'-0"
140
0.375
141
12.0
290
     0
  0
SCALE
  5
6021
102
{ACAD_REACTORS
330
6016
102
}
330
6016
100
AcDbScale
 70
     0
300
1/2" = 1'-0"
140
0.5
141
12.0
290
     0
  0
SCALE
  5
6022
102
{ACAD_REACTORS
330
6016
102
}
330
6016
100
AcDbScale
 70
     0
300
3/4" = 1'-0"
140
0.75
141
12.0
290
     0
  0
SCALE
  5
6023
102
{ACAD_REACTORS
330
6016
102
}
330
6016
100
AcDbScale
 70
     0
300
1" = 1'-0"
140
1.0
141
12.0
290
     0
  0
SCALE
  5
6024
102
{ACAD_REACTORS
330
6016
102
}
330
6016
100
AcDbScale
 70
     0
300
1-1/2" = 1'-0"
140
1.5
141
12.0
290
     0
  0
SCALE
  5
6025
102
{ACAD_REACTORS
330
6016
102
}
330
6016
100
AcDbScale
 70
     0
300
3" = 1'-0"
140
3.0
141
12.0
290
     0
  0
SCALE
  5
6026
102
{ACAD_REACTORS
330
6016
102
}
330
6016
100
AcDbScale
 70
     0
300
6" = 1'-0"
140
6.0
141
12.0
290
     0
  0
SCALE
  5
6027
102
{ACAD_REACTORS
330
6016
102
}
330
6016
100
AcDbScale
 70
     0
300
1'-0" = 1'-0"
140
12.0
141
12.0
290
     0
  0
TABLESTYLE
  5
6015
102
{ACAD_XDICTIONARY
360
78AB
102
}
102
{ACAD_REACTORS
330
6014
102
}
330
6014
100
AcDbTableStyle
  3
Standard
 70
     0
 71
     0
 40
0.06
 41
0.06
280
     0
281
     0
  7
STANDARD
140
0.18
170
     2
 62
     0
 63
     7
283
     0
274
    -2
284
     1
 64
     0
275
    -2
285
     1
 65
     0
276
    -2
286
     1
 66
     0
277
    -2
287
     1
 67
     0
278
    -2
288
     1
 68
     0
279
    -2
289
     1
 69
     0
  7
STANDARD
140
0.25
170
     5
 62
     0
 63
     7
283
     0
274
    -2
284
     1
 64
     0
275
    -2
285
     1
 65
     0
276
    -2
286
     1
 66
     0
277
    -2
287
     1
 67
     0
278
    -2
288
     1
 68
     0
279
    -2
289
     1
 69
     0
  7
STANDARD
140
0.18
170
     5
 62
     0
 63
     7
283
     0
274
    -2
284
     1
 64
     0
275
    -2
285
     1
 65
     0
276
    -2
286
     1
 66
     0
277
    -2
287
     1
 67
     0
278
    -2
288
     1
 68
     0
279
    -2
289
     1
 69
     0
  0
VISUALSTYLE
  5
6000
102
{ACAD_XDICTIONARY
360
7CB4
102
}
102
{ACAD_REACTORS
330
5FFA
102
}
330
5FFA
100
AcDbVisualStyle
  2
2dWireframe
 70
     4
 71
     0
 72
     2
 73
     0
 90
        0
 40
-0.6
 41
-30.0
 62
     5
 63
     7
421
 16777215
 74
     1
 91
        4
 64
     7
 65
   257
 75
     1
175
     1
 42
1.0
 92
        0
 66
   257
 43
1.0
 76
     1
 77
     6
 78
     2
 67
     7
 79
     5
170
     0
171
     0
290
     0
174
     0
 93
        1
 44
0.0
173
     0
291
     0
 45
0.0
1001
ACAD
1000
AcDbSavedByObjectVersion
1070
     0
  0
VISUALSTYLE
  5
6BD2
102
{ACAD_XDICTIONARY
360
7CDB
102
}
102
{ACAD_REACTORS
330
5FFA
102
}
330
5FFA
100
AcDbVisualStyle
  2
3dWireframe
 70
     5
 71
     0
 72
     2
 73
     0
 90
        0
 40
-0.6
 41
-30.0
 62
     5
 63
     7
421
 16777215
 74
     1
 91
        4
 64
     7
 65
   257
 75
     1
175
     1
 42
1.0
 92
        0
 66
   257
 43
1.0
 76
     1
 77
     6
 78
     2
 67
     7
 79
     5
170
     0
171
     0
290
     0
174
     0
 93
        1
 44
0.0
173
     0
291
     0
 45
0.0
1001
ACAD
1000
AcDbSavedByObjectVersion
1070
     0
  0
VISUALSTYLE
  5
5FFF
102
{ACAD_XDICTIONARY
360
7CB2
102
}
102
{ACAD_REACTORS
330
5FFA
102
}
330
5FFA
100
AcDbVisualStyle
  2
Basic
 70
     7
 71
     1
 72
     0
 73
     1
 90
        0
 40
-0.6
 41
-30.0
 62
     5
 63
     7
421
 16777215
 74
     0
 91
        4
 64
     7
 65
   257
 75
     1
175
     1
 42
1.0
 92
        8
 66
     7
 43
1.0
 76
     1
 77
     6
 78
     2
 67
     7
 79
     5
170
     0
171
     0
290
     0
174
     0
 93
        1
 44
0.0
173
     0
291
     1
 45
0.0
1001
ACAD
1000
AcDbSavedByObjectVersion
1070
     0
  0
VISUALSTYLE
  5
6006
102
{ACAD_XDICTIONARY
360
7CC0
102
}
102
{ACAD_REACTORS
330
5FFA
102
}
330
5FFA
100
AcDbVisualStyle
  2
Brighten
 70
    12
 71
     2
 72
     2
 73
     0
 90
        0
 40
-0.6
 41
-30.0
 62
     5
 63
     7
421
 16777215
 74
     1
 91
        4
 64
     7
 65
   257
 75
     1
175
     1
 42
1.0
 92
        8
 66
     7
 43
1.0
 76
     1
 77
     6
 78
     2
 67
     7
 79
     5
170
     0
171
     0
290
     0
174
     0
 93
        1
 44
50.0
173
     0
291
     1
 45
0.0
1001
ACAD
1000
AcDbSavedByObjectVersion
1070
     0
  0
VISUALSTYLE
  5
600A
102
{ACAD_XDICTIONARY
360
7CC8
102
}
102
{ACAD_REACTORS
330
5FFA
102
}
330
5FFA
100
AcDbVisualStyle
  2
ColorChange
 70
    16
 71
     2
 72
     2
 73
     3
 90
        0
 40
-0.6
 41
-30.0
 62
     5
 63
     8
421
  8421504
 74
     1
 91
        4
 64
     7
 65
   257
 75
     1
175
     1
 42
1.0
 92
        8
 66
     8
424
  8421504
 43
1.0
 76
     1
 77
     6
 78
     2
 67
     7
 79
     5
170
     0
171
     0
290
     0
174
     0
 93
        1
 44
0.0
173
     0
291
     1
 45
0.0
1001
ACAD
1000
AcDbSavedByObjectVersion
1070
     0
  0
VISUALSTYLE
  5
6003
102
{ACAD_XDICTIONARY
360
7CBA
102
}
102
{ACAD_REACTORS
330
5FFA
102
}
330
5FFA
100
AcDbVisualStyle
  2
Conceptual
 70
     9
 71
     3
 72
     2
 73
     0
 90
        0
 40
-0.6
 41
-30.0
 62
     5
 63
     7
421
 16777215
 74
     2
 91
        2
 64
     7
 65
   257
 75
     1
175
     1
 42
179.0
 92
        8
 66
     7
 43
1.0
 76
     1
 77
     6
 78
     2
 67
     7
 79
     3
170
     0
171
     0
290
     0
174
     0
 93
        1
 44
0.0
173
     0
291
     0
 45
0.0
1001
ACAD
1000
AcDbSavedByObjectVersion
1070
     0
  0
VISUALSTYLE
  5
6005
102
{ACAD_XDICTIONARY
360
7CBE
102
}
102
{ACAD_REACTORS
330
5FFA
102
}
330
5FFA
100
AcDbVisualStyle
  2
Dim
 70
    11
 71
     2
 72
     2
 73
     0
 90
        0
 40
-0.6
 41
-30.0
 62
     5
 63
     7
421
 16777215
 74
     1
 91
        4
 64
     7
 65
   257
 75
     1
175
     1
 42
1.0
 92
        8
 66
     7
 43
1.0
 76
     1
 77
     6
 78
     2
 67
     7
 79
     5
170
     0
171
     0
290
     0
174
     0
 93
        1
 44
-50.0
173
     0
291
     1
 45
0.0
1001
ACAD
1000
AcDbSavedByObjectVersion
1070
     0
  0
VISUALSTYLE
  5
6012
102
{ACAD_XDICTIONARY
360
7CD8
102
}
102
{ACAD_REACTORS
330
5FFA
102
}
330
5FFA
100
AcDbVisualStyle
  2
EdgeColorOff
 70
    22
 71
     2
 72
     2
 73
     0
 90
        0
 40
-0.6
 41
-30.0
 62
     5
 63
     7
421
 16777215
 74
     1
 91
        4
 64
     7
 65
   257
 75
     1
175
     1
 42
1.0
 92
        8
 66
     7
 43
1.0
 76
     1
 77
     6
 78
     2
 67
     7
 79
     5
170
     0
171
     0
290
     0
174
     0
 93
        1
 44
0.0
173
     0
291
     1
 45
0.0
1001
ACAD
1000
AcDbSavedByObjectVersion
1070
     0
  0
VISUALSTYLE
  5
6009
102
{ACAD_XDICTIONARY
360
7CC6
102
}
102
{ACAD_REACTORS
330
5FFA
102
}
330
5FFA
100
AcDbVisualStyle
  2
Facepattern
 70
    15
 71
     2
 72
     2
 73
     0
 90
        0
 40
-0.6
 41
-30.0
 62
     5
 63
     7
421
 16777215
 74
     1
 91
        4
 64
     7
 65
   257
 75
     1
175
     1
 42
1.0
 92
        8
 66
     7
 43
1.0
 76
     1
 77
     6
 78
     2
 67
     7
 79
     5
170
     0
171
     0
290
     0
174
     0
 93
        1
 44
0.0
173
     0
291
     1
 45
0.0
1001
ACAD
1000
AcDbSavedByObjectVersion
1070
     0
  0
VISUALSTYLE
  5
5FFB
102
{ACAD_XDICTIONARY
360
7CAA
102
}
102
{ACAD_REACTORS
330
5FFA
102
}
330
5FFA
100
AcDbVisualStyle
  2
Flat
 70
     0
 71
     2
 72
     1
 73
     1
 90
        2
 40
-0.6
 41
30.0
 62
     5
 63
     7
421
 16777215
 74
     0
 91
        0
 64
     7
 65
   257
 75
     1
175
     1
 42
1.0
 92
        8
 66
     7
 43
1.0
 76
     1
 77
     6
 78
     2
 67
     7
 79
     5
170
     0
171
     0
290
     0
174
     0
 93
       13
 44
0.0
173
     0
291
     1
 45
0.0
1001
ACAD
1000
AcDbSavedByObjectVersion
1070
     0
  0
VISUALSTYLE
  5
5FFC
102
{ACAD_XDICTIONARY
360
7CAC
102
}
102
{ACAD_REACTORS
330
5FFA
102
}
330
5FFA
100
AcDbVisualStyle
  2
FlatWithEdges
 70
     1
 71
     2
 72
     1
 73
     1
 90
        2
 40
-0.6
 41
30.0
 62
     5
 63
     7
421
 16777215
 74
     1
 91
        0
 64
     7
 65
   257
 75
     1
175
     1
 42
1.0
 92
        0
 66
   257
 43
1.0
 76
     1
 77
     6
 78
     2
 67
     7
 79
     5
170
     0
171
     0
290
     0
174
     0
 93
       13
 44
0.0
173
     0
291
     1
 45
0.0
1001
ACAD
1000
AcDbSavedByObjectVersion
1070
     0
  0
VISUALSTYLE
  5
5FFD
102
{ACAD_XDICTIONARY
360
7CAE
102
}
102
{ACAD_REACTORS
330
5FFA
102
}
330
5FFA
100
AcDbVisualStyle
  2
Gouraud
 70
     2
 71
     2
 72
     2
 73
     1
 90
        2
 40
-0.6
 41
30.0
 62
     5
 63
     7
421
 16777215
 74
     0
 91
        0
 64
     7
 65
   257
 75
     1
175
     1
 42
1.0
 92
        0
 66
     7
 43
1.0
 76
     1
 77
     6
 78
     2
 67
     7
 79
     5
170
     0
171
     0
290
     0
174
     0
 93
       13
 44
0.0
173
     0
291
     1
 45
0.0
1001
ACAD
1000
AcDbSavedByObjectVersion
1070
     0
  0
VISUALSTYLE
  5
5FFE
102
{ACAD_XDICTIONARY
360
7CB0
102
}
102
{ACAD_REACTORS
330
5FFA
102
}
330
5FFA
100
AcDbVisualStyle
  2
GouraudWithEdges
 70
     3
 71
     2
 72
     2
 73
     1
 90
        2
 40
-0.6
 41
30.0
 62
     5
 63
     7
421
 16777215
 74
     1
 91
        0
 64
     7
 65
   257
 75
     1
175
     1
 42
1.0
 92
        0
 66
   257
 43
1.0
 76
     1
 77
     6
 78
     2
 67
     7
 79
     5
170
     0
171
     0
290
     0
174
     0
 93
       13
 44
0.0
173
     0
291
     1
 45
0.0
1001
ACAD
1000
AcDbSavedByObjectVersion
1070
     0
  0
VISUALSTYLE
  5
6002
102
{ACAD_XDICTIONARY
360
7CB8
102
}
102
{ACAD_REACTORS
330
5FFA
102
}
330
5FFA
100
AcDbVisualStyle
  2
Hidden
 70
     6
 71
     1
 72
     2
 73
     2
 90
        0
 40
-0.6
 41
-30.0
 62
     5
 63
     7
421
 16777215
 74
     2
 91
        2
 64
     7
 65
   257
 75
     2
175
     1
 42
40.0
 92
        0
 66
   257
 43
1.0
 76
     1
 77
     6
 78
     2
 67
     7
 79
     3
170
     0
171
     0
290
     0
174
     0
 93
        1
 44
0.0
173
     0
291
     0
 45
0.0
1001
ACAD
1000
AcDbSavedByObjectVersion
1070
     0
  0
VISUALSTYLE
  5
6010
102
{ACAD_XDICTIONARY
360
7CD4
102
}
102
{ACAD_REACTORS
330
5FFA
102
}
330
5FFA
100
AcDbVisualStyle
  2
JitterOff
 70
    20
 71
     2
 72
     2
 73
     0
 90
        0
 40
-0.6
 41
-30.0
 62
     5
 63
     7
421
 16777215
 74
     1
 91
        4
 64
     7
 65
   257
 75
     1
175
     1
 42
1.0
 92
       10
 66
     7
 43
1.0
 76
     1
 77
     6
 78
     2
 67
     7
 79
     5
170
     0
171
     0
290
     0
174
     0
 93
        1
 44
0.0
173
     0
291
     1
 45
0.0
1001
ACAD
1000
AcDbSavedByObjectVersion
1070
     0
  0
VISUALSTYLE
  5
6008
102
{ACAD_XDICTIONARY
360
7CC4
102
}
102
{ACAD_REACTORS
330
5FFA
102
}
330
5FFA
100
AcDbVisualStyle
  2
Linepattern
 70
    14
 71
     2
 72
     2
 73
     0
 90
        0
 40
-0.6
 41
-30.0
 62
     5
 63
     7
421
 16777215
 74
     1
 91
        4
 64
     7
 65
   257
 75
     7
175
     7
 42
1.0
 92
        8
 66
     7
 43
1.0
 76
     1
 77
     6
 78
     2
 67
     7
 79
     5
170
     0
171
     0
290
     0
174
     0
 93
        1
 44
0.0
173
     0
291
     1
 45
0.0
1001
ACAD
1000
AcDbSavedByObjectVersion
1070
     0
  0
VISUALSTYLE
  5
6011
102
{ACAD_XDICTIONARY
360
7CD6
102
}
102
{ACAD_REACTORS
330
5FFA
102
}
330
5FFA
100
AcDbVisualStyle
  2
OverhangOff
 70
    21
 71
     2
 72
     2
 73
     0
 90
        0
 40
-0.6
 41
-30.0
 62
     5
 63
     7
421
 16777215
 74
     1
 91
        4
 64
     7
 65
   257
 75
     1
175
     1
 42
1.0
 92
        9
 66
     7
 43
1.0
 76
     1
 77
     6
 78
     2
 67
     7
 79
     5
170
     0
171
     0
290
     0
174
     0
 93
        1
 44
0.0
173
     0
291
     1
 45
0.0
1001
ACAD
1000
AcDbSavedByObjectVersion
1070
     0
  0
VISUALSTYLE
  5
6004
102
{ACAD_XDICTIONARY
360
7CBC
102
}
102
{ACAD_REACTORS
330
5FFA
102
}
330
5FFA
100
AcDbVisualStyle
  2
Realistic
 70
     8
 71
     2
 72
     2
 73
     0
 90
        2
 40
-0.6
 41
30.0
 62
     5
 63
     7
421
 16777215
 74
     0
 91
        0
 64
     7
 65
   257
 75
     1
175
     1
 42
1.0
 92
        8
 66
   257
 43
1.0
 76
     1
 77
     6
 78
     2
 67
     7
 79
     3
170
     0
171
     0
290
     0
174
     0
 93
       13
 44
0.0
173
     0
291
     0
 45
0.0
1001
ACAD
1000
AcDbSavedByObjectVersion
1070
     0
  0
VISUALSTYLE
  5
600F
102
{ACAD_XDICTIONARY
360
7CD2
102
}
102
{ACAD_REACTORS
330
5FFA
102
}
330
5FFA
100
AcDbVisualStyle
  2
Shaded
 70
    27
 71
     2
 72
     2
 73
     1
 90
        2
 40
-0.6
 41
30.0
 62
     5
 63
     7
421
 16777215
 74
     0
 91
        4
 64
     7
 65
   257
 75
     1
175
     1
 42
1.0
 92
        8
 66
   257
 43
1.0
 76
     1
 77
     6
 78
     2
 67
     8
425
  7895160
 79
     3
170
     0
171
     0
290
     0
174
     0
 93
        5
 44
0.0
173
     0
291
     0
 45
0.0
1001
ACAD
1000
AcDbSavedByObjectVersion
1070
     0
  0
VISUALSTYLE
  5
600E
102
{ACAD_XDICTIONARY
360
7CD0
102
}
102
{ACAD_REACTORS
330
5FFA
102
}
330
5FFA
100
AcDbVisualStyle
  2
Shaded with edges
 70
    26
 71
     2
 72
     2
 73
     1
 90
        2
 40
-0.6
 41
30.0
 62
     5
 63
     7
421
 16777215
 74
     1
 91
       10
 64
     7
 65
   257
 75
     2
175
     1
 42
1.0
 92
        8
 66
   257
 43
1.0
 76
     1
 77
     6
 78
     2
 67
     7
 79
     3
170
     0
171
     0
290
     0
174
     0
 93
        5
 44
0.0
173
     0
291
     0
 45
0.0
1001
ACAD
1000
AcDbSavedByObjectVersion
1070
     0
  0
VISUALSTYLE
  5
600B
102
{ACAD_XDICTIONARY
360
7CCA
102
}
102
{ACAD_REACTORS
330
5FFA
102
}
330
5FFA
100
AcDbVisualStyle
  2
Shades of Gray
 70
    23
 71
     2
 72
     2
 73
     3
 90
        0
 40
-0.6
 41
-30.0
 62
     5
 63
     7
421
 16777215
 74
     2
 91
        2
 64
     7
 65
     7
 75
     1
175
     1
 42
40.0
 92
        8
 66
     7
 43
1.0
 76
     1
 77
     6
 78
     2
 67
     7
 79
     3
170
     0
171
     0
290
     0
174
     0
 93
        1
 44
0.0
173
     0
291
     0
 45
0.0
1001
ACAD
1000
AcDbSavedByObjectVersion
1070
     0
  0
VISUALSTYLE
  5
600C
102
{ACAD_XDICTIONARY
360
7CCC
102
}
102
{ACAD_REACTORS
330
5FFA
102
}
330
5FFA
100
AcDbVisualStyle
  2
Sketchy
 70
    24
 71
     1
 72
     2
 73
     2
 90
        0
 40
-0.6
 41
-30.0
 62
     5
 63
     7
421
 16777215
 74
     2
 91
        2
 64
     7
 65
     7
 75
     1
175
     1
 42
40.0
 92
       11
 66
     7
 43
1.0
 76
     1
 77
     6
 78
     2
 67
     7
 79
     6
170
     0
171
     0
290
     0
174
     0
 93
        1
 44
0.0
173
     0
291
     0
 45
0.0
1001
ACAD
1000
AcDbSavedByObjectVersion
1070
     0
  0
VISUALSTYLE
  5
6007
102
{ACAD_XDICTIONARY
360
7CC2
102
}
102
{ACAD_REACTORS
330
5FFA
102
}
330
5FFA
100
AcDbVisualStyle
  2
Thicken
 70
    13
 71
     2
 72
     2
 73
     0
 90
        0
 40
-0.6
 41
-30.0
 62
     5
 63
     7
421
 16777215
 74
     1
 91
        4
 64
     7
 65
   257
 75
     1
175
     1
 42
1.0
 92
       12
 66
     7
 43
1.0
 76
     1
 77
     6
 78
     2
 67
     7
 79
     5
170
     0
171
     0
290
     0
174
     0
 93
        1
 44
0.0
173
     0
291
     1
 45
0.0
1001
ACAD
1000
AcDbSavedByObjectVersion
1070
     0
  0
VISUALSTYLE
  5
6001
102
{ACAD_XDICTIONARY
360
7CB6
102
}
102
{ACAD_REACTORS
330
5FFA
102
}
330
5FFA
100
AcDbVisualStyle
  2
Wireframe
 70
     5
 71
     0
 72
     2
 73
     0
 90
        0
 40
-0.6
 41
-30.0
 62
     5
 63
     7
421
 16777215
 74
     1
 91
        4
 64
     7
 65
   257
 75
     1
175
     1
 42
1.0
 92
        0
 66
   257
 43
1.0
 76
     1
 77
     6
 78
     2
 67
     7
 79
     3
170
     0
171
     0
290
     0
174
     0
 93
        1
 44
0.0
173
     0
291
     0
 45
0.0
1001
ACAD
1000
AcDbSavedByObjectVersion
1070
     0
  0
VISUALSTYLE
  5
600D
102
{ACAD_XDICTIONARY
360
7CCE
102
}
102
{ACAD_REACTORS
330
5FFA
102
}
330
5FFA
100
AcDbVisualStyle
  2
X-Ray
 70
    25
 71
     2
 72
     2
 73
     1
 90
        1
 40
0.5
 41
-30.0
 62
     5
 63
     7
421
 16777215
 74
     1
 91
        0
 64
     7
 65
   257
 75
     1
175
     1
 42
1.0
 92
        8
 66
     7
 43
1.0
 76
     1
 77
     6
 78
     2
 67
     7
 79
     3
170
     0
171
     0
290
     0
174
     0
 93
       13
 44
0.0
173
     0
291
     0
 45
0.0
1001
ACAD
1000
AcDbSavedByObjectVersion
1070
     0
  0
DICTIONARYVAR
  5
6277
102
{ACAD_REACTORS
330
169
102
}
330
169
100
DictionaryVariables
280
     0
  1
1:1
  0
DICTIONARYVAR
  5
6275
102
{ACAD_REACTORS
330
169
102
}
330
169
100
DictionaryVariables
280
     0
  1
STANDARD
  0
DICTIONARYVAR
  5
6274
102
{ACAD_REACTORS
330
169
102
}
330
169
100
DictionaryVariables
280
     0
  1
STANDARD
  0
DICTIONARYVAR
  5
16A
102
{ACAD_REACTORS
330
169
102
}
330
169
100
DictionaryVariables
280
     0
  1
1
  0
DICTIONARYVAR
  5
6279
102
{ACAD_REACTORS
330
169
102
}
330
169
100
DictionaryVariables
280
     0
  1
1
  0
DICTIONARYVAR
  5
627A
102
{ACAD_REACTORS
330
169
102
}
330
169
100
DictionaryVariables
280
     0
  1
15
  0
DICTIONARYVAR
  5
6278
102
{ACAD_REACTORS
330
169
102
}
330
169
100
DictionaryVariables
280
     0
  1
0
  0
DICTIONARYVAR
  5
6276
102
{ACAD_REACTORS
330
169
102
}
330
169
100
DictionaryVariables
280
     0
  1
0
  0
DICTIONARYVAR
  5
7CA2
102
{ACAD_REACTORS
330
169
102
}
330
169
100
DictionaryVariables
280
     0
  1
2
  0
XRECORD
  5
177
102
{ACAD_REACTORS
330
176
102
}
330
176
100
AcDbXrecord
280
     1
 91
      476
330
179
 90
        8
 62
     7
370
    -3
331
15
  1
Color_7
330
178
 90
        8
 62
     7
370
    -3
331
15
  1
Color_7
330
128
 90
        0
 62
     7
370
    -3
331
15
  1
Color_7
330
10
 90
        8
 62
     7
370
    -3
331
15
  1
Color_7
  0
DICTIONARY
  5
609D
330
21
100
AcDbDictionary
280
     1
281
     1
  3
ADSK_XREC_LAYOUTTHUMBNAIL
360
609E
  0
DICTIONARY
  5
5FEB
330
5FEA
100
AcDbDictionary
280
     1
281
     1
  3
ACAD_XREC_ROUNDTRIP
360
7CA8
  3
BUMPTILE
360
5FED
  3
DIFFUSETILE
360
5FEC
  3
OPACITYTILE
360
5FF0
  3
REFLECTIONTILE
360
5FEF
  3
REFRACTIONTILE
360
5FF1
  3
SPECULARTILE
360
5FEE
  0
DICTIONARY
  5
5FE3
330
5FE2
100
AcDbDictionary
280
     1
281
     1
  3
ACAD_XREC_ROUNDTRIP
360
7CA7
  3
BUMPTILE
360
5FE5
  3
DIFFUSETILE
360
5FE4
  3
OPACITYTILE
360
5FE8
  3
REFLECTIONTILE
360
5FE7
  3
REFRACTIONTILE
360
5FE9
  3
SPECULARTILE
360
5FE6
  0
DICTIONARY
  5
5FF3
330
5FF2
100
AcDbDictionary
280
     1
281
     1
  3
ACAD_XREC_ROUNDTRIP
360
7CA9
  3
BUMPTILE
360
5FF5
  3
DIFFUSETILE
360
5FF4
  3
OPACITYTILE
360
5FF8
  3
REFLECTIONTILE
360
5FF7
  3
REFRACTIONTILE
360
5FF9
  3
SPECULARTILE
360
5FF6
  0
DICTIONARY
  5
7CA4
330
6029
100
AcDbDictionary
280
     1
281
     1
  3
ACAD_XREC_ROUNDTRIP
360
7CA5
  0
DICTIONARY
  5
78AB
330
6015
100
AcDbDictionary
280
     1
281
     1
  3
ACAD_ROUNDTRIP_2008_TABLESTYLE_CELLSTYLEMAP
360
7CA3
  3
ACAD_XREC_ROUNDTRIP
360
7CDA
  0
DICTIONARY
  5
7CB4
330
6000
100
AcDbDictionary
280
     1
281
     1
  3
ACAD_XREC_ROUNDTRIP
360
7CB5
  0
DICTIONARY
  5
7CDB
330
6BD2
100
AcDbDictionary
280
     1
281
     1
  3
ACAD_XREC_ROUNDTRIP
360
7CDC
  0
DICTIONARY
  5
7CB2
330
5FFF
100
AcDbDictionary
280
     1
281
     1
  3
ACAD_XREC_ROUNDTRIP
360
7CB3
  0
DICTIONARY
  5
7CC0
330
6006
100
AcDbDictionary
280
     1
281
     1
  3
ACAD_XREC_ROUNDTRIP
360
7CC1
  0
DICTIONARY
  5
7CC8
330
600A
100
AcDbDictionary
280
     1
281
     1
  3
ACAD_XREC_ROUNDTRIP
360
7CC9
  0
DICTIONARY
  5
7CBA
330
6003
100
AcDbDictionary
280
     1
281
     1
  3
ACAD_XREC_ROUNDTRIP
360
7CBB
  0
DICTIONARY
  5
7CBE
330
6005
100
AcDbDictionary
280
     1
281
     1
  3
ACAD_XREC_ROUNDTRIP
360
7CBF
  0
DICTIONARY
  5
7CD8
330
6012
100
AcDbDictionary
280
     1
281
     1
  3
ACAD_XREC_ROUNDTRIP
360
7CD9
  0
DICTIONARY
  5
7CC6
330
6009
100
AcDbDictionary
280
     1
281
     1
  3
ACAD_XREC_ROUNDTRIP
360
7CC7
  0
DICTIONARY
  5
7CAA
330
5FFB
100
AcDbDictionary
280
     1
281
     1
  3
ACAD_XREC_ROUNDTRIP
360
7CAB
  0
DICTIONARY
  5
7CAC
330
5FFC
100
AcDbDictionary
280
     1
281
     1
  3
ACAD_XREC_ROUNDTRIP
360
7CAD
  0
DICTIONARY
  5
7CAE
330
5FFD
100
AcDbDictionary
280
     1
281
     1
  3
ACAD_XREC_ROUNDTRIP
360
7CAF
  0
DICTIONARY
  5
7CB0
330
5FFE
100
AcDbDictionary
280
     1
281
     1
  3
ACAD_XREC_ROUNDTRIP
360
7CB1
  0
DICTIONARY
  5
7CB8
330
6002
100
AcDbDictionary
280
     1
281
     1
  3
ACAD_XREC_ROUNDTRIP
360
7CB9
  0
DICTIONARY
  5
7CD4
330
6010
100
AcDbDictionary
280
     1
281
     1
  3
ACAD_XREC_ROUNDTRIP
360
7CD5
  0
DICTIONARY
  5
7CC4
330
6008
100
AcDbDictionary
280
     1
281
     1
  3
ACAD_XREC_ROUNDTRIP
360
7CC5
  0
DICTIONARY
  5
7CD6
330
6011
100
AcDbDictionary
280
     1
281
     1
  3
ACAD_XREC_ROUNDTRIP
360
7CD7
  0
DICTIONARY
  5
7CBC
330
6004
100
AcDbDictionary
280
     1
281
     1
  3
ACAD_XREC_ROUNDTRIP
360
7CBD
  0
DICTIONARY
  5
7CD2
330
600F
100
AcDbDictionary
280
     1
281
     1
  3
ACAD_XREC_ROUNDTRIP
360
7CD3
  0
DICTIONARY
  5
7CD0
330
600E
100
AcDbDictionary
280
     1
281
     1
  3
ACAD_XREC_ROUNDTRIP
360
7CD1
  0
DICTIONARY
  5
7CCA
330
600B
100
AcDbDictionary
280
     1
281
     1
  3
ACAD_XREC_ROUNDTRIP
360
7CCB
  0
DICTIONARY
  5
7CCC
330
600C
100
AcDbDictionary
280
     1
281
     1
  3
ACAD_XREC_ROUNDTRIP
360
7CCD
  0
DICTIONARY
  5
7CC2
330
6007
100
AcDbDictionary
280
     1
281
     1
  3
ACAD_XREC_ROUNDTRIP
360
7CC3
  0
DICTIONARY
  5
7CB6
330
6001
100
AcDbDictionary
280
     1
281
     1
  3
ACAD_XREC_ROUNDTRIP
360
7CB7
  0
DICTIONARY
  5
7CCE
330
600D
100
AcDbDictionary
280
     1
281
     1
  3
ACAD_XREC_ROUNDTRIP
360
7CCF
  0
XRECORD
  5
609E
102
{ACAD_REACTORS
330
609D
102
}
330
609D
100
AcDbXrecord
280
     1
310
280000000001000065000000010008000000000000650000000000000000000000010000000000003028210000000000FFFFFF000000000000000000000000000000000000000000000000000000000000000000330000006600000099000000CC000000FF00000000330000333300006633000099330000CC330000FF3300
310
0000660000336600006666000099660000CC660000FF66000000990000339900006699000099990000CC990000FF99000000CC000033CC000066CC000099CC0000CCCC0000FFCC000000FF000033FF000066FF000099FF0000CCFF0000FFFF000000003300330033006600330099003300CC003300FF003300003333003333
310
33006633330099333300CC333300FF33330000663300336633006666330099663300CC663300FF66330000993300339933006699330099993300CC993300FF99330000CC330033CC330066CC330099CC3300CCCC3300FFCC330000FF330033FF330066FF330099FF3300CCFF3300FFFF330000006600330066006600660099
310
006600CC006600FF00660000336600333366006633660099336600CC336600FF33660000666600336666006666660099666600CC666600FF66660000996600339966006699660099996600CC996600FF99660000CC660033CC660066CC660099CC6600CCCC6600FFCC660000FF660033FF660066FF660099FF6600CCFF6600
310
FFFF660000009900330099006600990099009900CC009900FF00990000339900333399006633990099339900CC339900FF33990000669900336699006666990099669900CC669900FF66990000999900339999006699990099999900CC999900FF99990000CC990033CC990066CC990099CC9900CCCC9900FFCC990000FF99
310
0033FF990066FF990099FF9900CCFF9900FFFF99000000CC003300CC006600CC009900CC00CC00CC00FF00CC000033CC003333CC006633CC009933CC00CC33CC00FF33CC000066CC003366CC006666CC009966CC00CC66CC00FF66CC000099CC003399CC006699CC009999CC00CC99CC00FF99CC0000CCCC0033CCCC0066CC
310
CC0099CCCC00CCCCCC00FFCCCC0000FFCC0033FFCC0066FFCC0099FFCC00CCFFCC00FFFFCC000000FF003300FF006600FF009900FF00CC00FF00FF00FF000033FF003333FF006633FF009933FF00CC33FF00FF33FF000066FF003366FF006666FF009966FF00CC66FF00FF66FF000099FF003399FF006699FF009999FF00CC
310
99FF00FF99FF0000CCFF0033CCFF0066CCFF0099CCFF00CCCCFF00FFCCFF0000FFFF0033FFFF0066FFFF0099FFFF00CCFFFF00FFFFFF00000000000D0D0D001A1A1A00282828003535350043434300505050005D5D5D006B6B6B00787878008686860093939300A1A1A100AEAEAE00BBBBBB00C9C9C900D6D6D600E4E4E400
310
F1F1F100FFFFFF000000000000000000000000000000000000000000000000000000000000000000000000000000000000000000000000000000000000000000000000000000000000000000000000000000000000000000000000000000000000000000000000000000000000000000000000000000000000000000000000
310
000000000000000000000000000000000000000000000000000000000000000000000000000000000000000000000000000000000000000000000000000000000000000000000000000000000000002D00000000000000000000002D0000000000000000000000000000000000000000000000000000000000000000000000
310
00000000000000000000000000000000000000000000000000000000000000000000000000000000000000000000000000000000000000000000000000000000000000000000000000000000000000000000000000000000000000000000000000000000000000000000002800002800002800000000000000000000000000
310
0000000000000000000000000000000000000000000000002800002800002800000000000000000000000000000000000000000000000000000000000028000028000028000000000000000000000000002D2D2D2D2D2828282D2D2D2DF52D0028000028000028000000000000000000000000000000000000000000000000
310
00000000000000000000000000000000000000000000000000000000000000000000000000000000000000000000000000000000000000000000000000000000000000000000000000000000000000000000000000000000000000000000000000000000000000000000000000002800002800002800000000000000000000
310
00000000000000000000000000000000000000000000000000000028000028000028000000000000000000000000000000000000000000000000000000000000280000280000280000000000000000000000002D00000000282828000000002D00000028000028000028000000000000000000000000000000000000000000
310
00000000000000000000000000000000000000000000000000000000000000000000000000000000000000000000000000000000000000000000000000000000000000000000000000000000000000000000000000000000000000000000000000000000000000000000000000000000002800002800002800000000000000
310
000000000000000000000000000000000000000000000000000000000000280000280000280000000000000000000000000000000000000000000000000000000000002800002800002800000000000000000000002D00000000282828000000002D0000000028280028280028280000000000000000000000000000000000
310
00000000000000000000000000000000000000000000000000000000000000000000000000000000000000000000000000000000000000000000000000000000000000000000000000000000000000000000000000000000000000000000000000000000000000000000000000000000000000002800002800002800000000
310
0000000000000000000000000000F50000000000000000000000000000000000002800002800002800000000000000000000000000000000000000000000000000000000000028000028000028000000000000000000002D0000000000F500000000002D000000000000280000280000280000000000000000000000000000
310
00000000000000000000000000000000000000000000000000000000000000000000000000000000000000000000000000000000000000000000000000000000000000000000000000000000000000000000000000000000000000000000000000000000000000000000000000000000000000000000002800002800002800
310
00000000000000000000000000000000F5000000000000000000000000000000000000002800002800002800000000000000000000000000000000000000000000000000000000000028000028000028000000000000000000F50000000000F50000000000F500000000000000280000280000280000000000000000000000
310
0000000000000000000000000000000000000000000000000000000000000000000000000000000000000000000000000000000000000000000000000000000000000000000000000000000000000000000000000000000000000000000000000000000000000000000000000000000000002D2D2D2D2D2D2D2D2D2D2D2D2D
310
2D2D2D2D2D2D2D2D2D2D2D2D2D2D2D2D2D2DF52D2D2D2D2D2D2D2D2D2D2D2D2D2D2D2D2D2D2D2D282D2D282D2D282D2D2D2D2D000000002D2D2D2D2D2D2D2D2D2D2D2D2D2D2D2D2D2D2D2D2D2D2D2D2D2D2D2D2D2D2D2D2D2D2D2D2D2D2D2D2D2D2D2D2D2D2D2D2D2D2D2D2D2D2D2D2D282D2D282D2D2D2D2D2D2D2D2DF52D
310
2D2D2D2D2D2D2D2D0000000000000000000000000000000000000000000000000000000000000000000000000000000000000000000000000000000000000000000000000000000000000000000000000000000000000000000000000000000000000000000000000000000000000000000000000000000000000000000000
310
0000000000002D2D2D2D2D2D2D2D2D0000000000F50000000000002D2D2D2D2D2D2D2D2D0000000000000000000000000000000000000000000000000000000000000000000000000000000000000000000000000000000000000000002D2D2D2D2D2D2D2D2D2D2D2D2D000000000000000000000000000000000000000000
310
0000000000000000002D000000000000000000000000000000000000000000000000000000000000000000000000000000000000000000000000000000000000000000000000000000000000000000000000000000000000000000000000000000000000000000000000000000000000000000000000000000000000000000
310
00000000000000000000000000002D002D0000000000F50000000000002D002D000000000000000000000000000000000000000000000000000000000000000000000000000000000000000000000000000000000000000000000000000000002D2D000000F5000000002D0000000000000000000000000000000000000000
310
00000000000000000000002D00000000000000000000000000000000000000000000000000000000000000000000000000000000000000000000000000000000000000000000000000000000000000000000000000000000000000000000000000000000000000000000000000000000000000000000000000000000000000
310
000000000000000000000000000000002D002D0000000000F50000000000002D002D000000000000000000000000000000000000000000000000000000000000000000000000000000000000000000000000000000000000000000000000000000002D2D000000F5000000002D000000000000000000000000000000000000
310
000000000000000000000000002D0000000000000000000000000000000000000000000000000000000000000000000000000000000000000000000000000000000000000000000000000000000000000000000000000000000000000000000000000000000000000000000000000000000000000000000000000000000000
310
0000000000000000000000000000000000002D002D0000000000F50000000000002D002D000000000000000000000000000000000000000000000000000000000000000000000000000000000000000000000000000000000000000000000000000000002D2D000000F5000000002D00000000000000000000000000000000
310
0000000000000000000000000000002D000000000000000000000000000000000000000000000000000000000000000000000000000000000000000000000000000000000000000000000000000000000000000000000000000000000000000000000000000000000000000000000000000000000000000000000000000000
310
00000000000000000000000000000000000000002D002D0000000000F50000000000002D002D000000000000000000000000000000000000000000000000000000000000000000000000000000000000000000000000000000000000000000000000000000002D2D000000F5000000002D0000000000000000000000000000
310
00000000000000000000000000000000002D00000000000000000000000000000000000000000000000000000000000000000000000000000000000000000000000000000000000000000000000000000000000000000000000000000000000000000000000000000000000000000000000000000000000000000000000000
310
00000000000000000000000000000000000000000000002D002D00000000F500000000002D002D00000000000000000000000000000000000000000000000000000000000000000000000000000000000000000000000000000000000000000000000000000000002D2D000000F5000000002D000000000000000000000000
310
000000000000000000000000000000000000002D0000000000000000000000000000000000000000000000000000000000000000000000000000000000000000000000000000000000000000000000000000000000000000000000000000000000000000000000000000000000000000000000000000000000000000000000
310
000000000000000000000000000000000000000000000000002D002D00000000F500000000002D002D00000000000000000000000000000000000000000000000000000000000000000000000000000000000000000000000000000000000000000000000000000000002D2D000000F5000000002D00000000000000000000
310
0000000000000000000000000000000000000000002D000000000000000000000000000000000000000000000000000000000000000000000000000000000000000000000000000000000000000000000000000000000000000000000000000000000000000000000000000000000000000000000000000000000000000000
310
0000000000000000000000000000000000000000000000000000002D002D00000000F500000000002D002D00000000000000000000000000000000000000000000000000000000000000000000000000000000000000000000000000000000000000000000000000000000002D2D000000F5000000002D0000000000000000
310
00000000000000000000000000000000000000000000002D00000000000000000000000000000000000000000000000000000000000000000000000000000000000000000000000000000000000000000000000000000000000000000000000000000000000000000000000000000000000000000000000000000000000000
310
00000000000000000000000000000000000000000000000000000000002D002D00000000F500000000002D002D00000000000000000000000000000000000000000000000000000000000000000000000000000000000000000000000000000000000000000000000000000000002D2D000000F5000000002D000000000000
310
000000000000000000000000000000000000000000000000002D0000000000000000000000000000000000000000000000000000000000000000000000000000000000000000000000000000000000000000000000000000000000000000000000000000000000000000000000000000000000000000000000000000000000
310
000000000000000000000000000000000000000000000000000000000000002D002D0000002D28282D0000002D002D00000000000000000000000000000000000000000000000000000000000000000000000000000000000000000000000000000000000000000000000000000000002D2D000000F5000000002D00000000
310
0000000000000000000000000000000000000000000000000000002D000000000000000000000000000000000000000000000000000000000000000000000000000000000000000000000000000000000000000000000000000000000000000000000000000000000000000000000000000000000000000000000000000000
310
0000000000000000000000000000000000000000000000000000000000000000002D002D00000028F500280000002D002D00000000000000000000000000000000000000000000000000000000000000000000000000000000000000000000000000000000000000000000000000000000002D2D000000F5000000002D0000
310
00000000000000000000000000000000000000000000000000000000002D00000000000000000000000000000000000000000000000000000000000000000000000000000000000000000000000000000000000000000000000000000000000000000000000000000000000000000000000000000000000000000000000000
310
00000000000000000000000000000000000000000000000000000000000000000000002D00002D000028F5002800002D00002D00000000000000000000000000000000000000000000000000000000000000000000000000000000000000000000000000000000000000000000000000000000002D2D000000F5000000002D
310
000000000000000000000000000000000000000000000000000000000000002D0000000000000000000000000000000000000000000000000000000000000000000000000000000000000000000000000000000000000000000000000000000000000000000000000000000000000000000000000000000000000000000000
310
000000000000000000000000000000000000000000000000000000000000000000000000002D00002D000028F5002800002D00002D00000000000000000000000000000000000000000000000000000000000000000000000000000000000000000000000000000000000000000000000000000000002D2D000000F5000000
310
002D000000000000000000000000000000000000000000000000000000000000002D000000000000000000000000000000000000000000000000000000000000000000000000000000000000000000000000000000000000000000000000000000000000000000000000000000000000000000000000000000000000000000
310
0000000000000000000000000000000000000000000000000000000000000000000000000000002D00002D000028F5002800002D00002D00000000000000000000000000000000000000000000000000000000000000000000000000000000000000000000000000000000000000000000000000000000002D2D000000F500
310
0000002D000000000000000000000000000000000000000000000000000000000000002D00000000000000000000000000000000000000000000000000000000000000000000000000000000000000000000000000000000000000000000000000000000000000000000000000000000000000000000000000000000000000
310
0000000000000000000000000000000000000000000000000000000000000000000000000000000000002D002D000028F5002800002D002D0000000000000000000000000000000000000000000000000000000000000000000000000000000000000000000000000000000000000000000000000000000000002D2D000000
310
F5000000002D000000000000000000000000000000000000000000000000000000000000002D0000000000000000000000000000000000000000000000000000000000000000000000000000000000000000000000000000000000000000000000000000000000000000000000000000000000000000000000000000000000
310
00000000000000000000000000000000000000000000000000000000000000000000000000000000000000002D002D000028F5002800002D002D0000000000000000000000000000000000000000000000000000000000000000000000000000000000000000000000000000000000000000000000000000000000002D2D00
310
0000F5000000002D000000000000000000000000000000000000000000000000000000000000002D000000000000000000000000000000000000000000000000000000000000000000000000000000000000000000000000000000000000000000000000000000000000000000000000000000000000000000000000000000
310
000000000000000000000000000000000000000000000000000000000000000000000000000000000000000000002D002D000028F5002800002D002D0000000000000000000000000000000000000000000000000000000000000000000000000000000000000000000000000000000000000000000000000000000000002D
310
2D000000F5000000002D000000000000000000000000000000000000000000000000000000000000002D00000000000000000000000000000000000000000000000000000000000000000000000000000000000000000000000000000000000000000000000000000000000000000000000000000000000000000000000000
310
0000000000000000000000000000000000000000000000000000000000000000000000000000000000000000000000002D00002D2D282D2D282D2D00002D0000000000000000000000000000000000000000000000000000000000000000000000000000000000000000000000000000000000000000000000000000000000
310
002D2D000000F5000000002D000000000000000000000000000000000000000000000000000000000000002D0000000000000000000000000000000000000000000000000000000000000000000000000000000000000000000000000000000000000000000000000000000000000000000000000000000000000000000000
310
00000000000000000000000000000000000000000000000000000000000000000000000000000000000000000000000000002D00002D2D2DF5002D2D2D00002D000000000000000000000000000000000000000000000000000000000000000000000000000000000000000000000000000000000000000000000000000000
310
0000002D2D000000F5000000002D000000000000000000000000000000000000000000000000000000000000002D000000000000000000000000000000000000000000000000000000000000000000000000000000000000000000000000000000000000000000000000000000000000000000000000000000000000000000
310
00000000000000000000000000000000000000000000000000000000000000000000000000000000000000000000000000000000002D2D2D2D2D2D2D2D2D2D2D2D0000000000000000000000000000000000000000000000000000000000000000000000000000000000000000000000000000000000000000000000000000
310
000000002D2D2D2D2D2D2D2D2D2D2D2D2D0000000000000000000000000000000000000000000000000000000000002D00000000000000000000000000000000000000000000000000000000000000000000000000000000000000000000000000000000000000000000000000000000000000000000000000000000000000
310
00000000000000000000000000000000000000000000000000000000000000000000000000000000000000000000000000000000000000002D2D2D2D2D2D2D2D2D2D00000000000000000000000000000000000000000000000000000000000000000000000000000000000000000000000000000000000000000000000000
310
0000000000002D2D2D2D2D2D2D2D2D2D2D2D2D0000000000000000000000000000000000000000000000000000000000002D0000000000000000000000000000000000000000000000000000000000000000000000000000000000000000000000000000000000000000000000000000000000000000000000000000000000
310
0000000000000000000000000000000000000000000000000000000000000000000000000000000000000000000000000000000000000000000000002D2D2D2D2D2D00000000000000000000000000000000000000000000000000000000000000000000000000000000000000000000000000000000000000000000000000
310
00000000000000000000002D2D2D2D2D2D2D0000000000000000000000000000000000000000000000000000000000000000002D000000000000000000000000000000000000000000000000000000000000000000000000000000000000000000000000000000000000000000000000000000000000000000000000000000
310
00000000000000000000000000000000000000000000000000000000000000000000000000000000000000000000000000000000000000000000000000002D2DF5002D2D0000000000000000000000000000000000000000000000000000000000000000000000000000000000000000000000000000000000000000000000
310
00000000000000000000000000002D002D00002D0000000000000000000000000000000000000000000000000000000000000000002D00000000000000000000000000000000000000000000000000000000000000000000000000000000000000000000000000000000000000000000000000000000000000000000000000
310
000000000000000000000000000000000000000000000000000000000000000000000000000000000000000000000000000000000000000000000000000000002D2DF5002D2D000000000000000000000000000000000000000000000000000000000000000000000000000000000000000000000000000000000000000000
310
000000000000000000000000000000002D002D00002D0000000000000000000000000000000000000000000000000000000000000000002D0000000000000000000000000000000000000000000000000000000000000000000000000000000000000000000000000000000000000000000000000000000000000000000000
310
0000000000000000000000000000000000000000000000000000000000000000000000000000000000000000000000000000000000000000000000000000000000002D2D2D2D2D2D00000000000000000000000000000000000000000000000000000000000000000000000000000000000000000000000000000000000000
310
0000000000000000000000000000000000002D282D282D000000000000000000000000000000000000000000000000000000000000000000002D000000000000000000000000000000000000000000000000000000000000000000000000000000000000000000000000000000000000000000000000000000000000000000
310
00000000000000000000000000000000000000000000000000000000000000000000000000000000000000000000000000000000000000000000000000000000000000000028F50028000000000000000000000000000000000000000000000000000000000000000000000000000000000000000000000000000000000000
310
00000000000000000000000000000000000000002D28F5282D000000000000000000000000000000000000000000000000000000000000000000002D00000000000000000000000000000000000000000000000000000000000000000000000000000000000000000000000000000000000000000000000000000000000000
310
000000000000000000000000000000000000000000000000000000000000000000000000000000000000000000000000000000000000000000000000000000000000000000000028F5002800000000000000000000000000000000000000000000000000000000000000000000000000000000000000000000000000000000
310
000000000000000000000000000000000000000000002D28F5282D000000000000000000000000000000000000000000000000000000000000002828282D0000000000000000000000000000000000000000000000000000000000000000000000000000000000000000000000000000000000000000000000000000000000
310
0000000000000000000000000000000000000000000000000000000000000000000000000000000000000000000000000000000000000000000000000000000000000000000000000028F500280000000000000000000000000000000000000000000000000000000000000000000000000000000000000000000000000000
310
0000000000000000000000000000000000000000000000002D28F5282D000000000000000000000000000000000000000000000000000000000000000028282D000000000000000000000000000000000000000000000000000000000000000000000000000000000000000000000000000000000000000000000000000000
310
00000000000000000000000000000000000000000000000000000000000000000000000000000000000000000000000000000000000000000000000000000000000000000000000000000028F50028000000000000000000000000000000000000000000000000000000000000000000000000000000000000000000000000
310
00000000000000000000000000000000000000000000000000002D28F5282D000000000000000000000000000000000000000000000000000000000000000028002D00000000000000000000000000000000000000000000000000000000000000000000000000000000000000000000000000000000000000000000000000
310
000000000000000000000000000000000000000000000000000000000000000000000000000000000000000000000000000000000000000000000000000000000000000000000000000000000028F5002800000000000000000000000000000000000000000000000000000000000000000000000000000000000000000000
310
000000000000000000000000000000000000000000000000000000002D28F5282D000000000000000000000000000000000000000000000000000000000000002828282D0000000000000000000000000000000000000000000000000000000000000000000000000000000000000000000000000000000000000000000000
310
0000000000000000000000000000000000000000000000000000000000000000000000000000000000000000000000000000000000000000000000000000000000000000000000000000000000000028F500280000000000000000000000000000000000000000000000000000000000000000000000000000000000000000
310
0000000000000000000000000000000000000000000000000000000000002D28F5282D000000000000000000000000000000000000000000000000000000000000002828282D000000000000000000000000000000000000000000000000000000000000000000000000000000000000000000000000000000000000000000
310
000000000000000000000000000000000000000000000000000000000000000000000000000000000000000000000000000000000000000000000000000000000000000000000000000000000000000000F5F50028000000000000000000000000000000000000000000000000000000000000000000000000000000000000
310
00000000000000000000000000000000000000000000000000000000000000002D28F5282D000000000000000000000000000000000000000000000000000000000000002828282D00000000000000000000000000000000000000000000000000000000000000000000000000000000000000000000000000000000000000
310
0000000000000000000000000000000000000000000000000000000000000000000000000000000000000000000000000000000000000000000000000000000000000000000000000000000000000000000000F5F5002800000000000000000000000000000000000000000000000000000000000000000000000000000000
310
000000000000000000000000000000000000000000000000000000000000000000002D28F5282D000000000000000000000000000000000000000000000000000000000000002828282D0000000000000000000000000000000000000000000000000000000000000000000000000000000000000000000000000000000000
310
000000000000000000000000000000000000000000000000000000000000000000000000000000000000000000000000000000000000000000000000000000000000000000000000000000000000000000000000F528F500280000000000000000000000000000000000000000000000000000000000000000000000000000
310
0000000000000000000000000000000000000000000000000000000000000000000000F52D28F5282D000000000000000000000000000000000000000000000000000000000000000028002D000000000000000000000000000000000000000000000000000000000000000000000000000000000000000000000000000000
310
0000000000000000000000000000000000000000000000000000000000000000000000000000000000000000000000000000000000000000000000000000000000000000000000000000000000000000000000000000F528F50028000000000000000000000000000000000000000000000000000000000000000000000000
310
00000000000000000000000000000000000000000000000000000000000000000000000000F52D28F5282D000000000000000000000000000000000000000000000000000000000000000028002D00000000000000000000000000000000000000000000000000000000000000000000000000000000000000000000000000
310
00000000000000000000000000000000000000000000000000000000000000000000000000000000000000000000000000000000000000000000000000000000000000000000000000F5F5F5F5F5F5F5F5F5F5F5F5F5F5F50028F5002800000000000000000000000000000000000000000000000000000000000000000000
310
00000000000000000000000000000000000000000000000000F5F5F5F5F5F5F5F5F5F5F5F5F5F5002D28F5282D000000000000000000000000000000000000000000000000000000000000002828282D0000000000000000000000000000000000000000000000000000000000000000000000000000000000000000000000
310
000000000000000000000000000000000000000000000000000000000000000000000000000000000000000000000000000000000000000000000000000000000000000000000000000000F5F5F5F5F5F5F5F5F5F5F5F500F5F50028F500280000000000000000000000000000000000000000000000000000000000000000
310
000000000000000000000000000000000000000000000000000000F5F5F5F5F5F5F5F500F5F5F5F5F5002D28F5282D000000000000000000000000000000000000000000000000000000000000002828282D000000000000000000000000000000000000000000000000000000000000000000000000000000000000000000
310
0000000000000000000000000000000000000000000000000000000000000000000000000000000000000000000000000000000000000000000000000000000000000000000000000000000000F5F5F5F500F50000000000000000000028F50028000000000000000000000000000000000000000000000000000000000000
310
0000000000000000000000000000000000000000000000000000000000F500F500F5000000000000000000002D28F5282D000000000000000000000000000000000000000000000000000000000000002828282D00000000000000000000000000000000000000000000000000000000000000000000000000000000000000
310
000000000000000000000000000000000000000000000000000000000000000000000000000000000000000000000000000000000000000000000000000000000000000000000000000000000000000000000000000000000000000000000028F5002800000000000000000000000000000000000000000000000000000000
310
000000000000000000000000000000000000000000000000000000000000000000000000000000000000000000002D28F5282D000000000000000000000000000000000000000000000000000000000000002828282D0000000000000000000000000000000000000000000000000000000000000000000000000000000000
310
0000000000000000000000000000000000000000000000000000000000000000000000000000000000000000000000000000000000000000000000000000000000000000000000000000000000000000000000000000000000000000000000000028F500280000000000000000000000000000000000000000000000000000
310
0000000000000000000000000000000000000000000000000000000000000000000000000000000000000000000000002D28F5282D000000000000000000000000000000000000000000000000000000000000002828282D000000000000000000000000000000000000000000000000000000000000000000000000000000
310
00000000000000000000000000000000000000000000000000000000000000000000000000000000000000000000000000000000000000000000000000000000000000000000000000000000000000000000000000000000000000000000000000002D2D2D2D2D2D0000000000000000000000000000000000000000000000
310
00000000000000000000000000000000000000000000000000000000000000000000000000000000000000000000000000002D282D282D2D0000000000000000000000000000000000000000000000000000000000000028002D00000000000000000000000000000000000000000000000000000000000000000000000000
310
000000000000000000000000000000000000000000000000000000000000000000000000000000000000000000000000000000000000000000000000000000000000000000000000000000000000000000000000000000000000000000000000000000002D2DF5002D2D000000000000000000000000000000000000000000
310
000000000000000000000000000000000000000000000000000000000000000000000000000000000000000000000000000000002D002D00002D0000000000000000000000000000000000000000000000000000000000000000002D0000000000000000000000000000000000000000000000000000000000000000000000
310
0000000000000000000000000000000000000000000000000000000000000000000000000000000000000000000000000000000000000000000000000000000000000000000000000000000000000000000000000000000000000000000000000000000000002D2D2D2D2D2D00000000F5F5F5F5F5F5F5F5F5F5F5F5F5F5F5
310
F5F5F500000000000000000000000000000000000000000000000000000000000000000000000000000000000000000000000000002D2D2D2D2D2D2D0000000000000000000000000000000000000000000000000000000000000000002D000000000000000000000000000000000000000000000000000000000000000000
310
00000000000000000000000000000000000000000000000000000000000000000000000000000000000000000000000000000000000000000000000000000000000000000000000000000000000000000000000000000000000000000000000000000000000000002D2D2D2D2D2D000000F500F5F5F5F5F5F5F5F5F5F5F5F5
310
F5F5F5F50000000000000000000000000000000000000000000000000000000000000000000000000000000000000000000000000000002D2D2D2D2D2D2D0000000000000000000000000000000000000000000000000000000000000000002D00000000000000000000000000000000000000000000000000000000000000
310
000000000000000000000000000000000000000000000000000000000000000000000000000000000000000000000000000000000000000000000000000000000000000000000000000000000000000000000000000000000000000000000000000000000000000000002D2DF5002D2D000000F50000000000000000000000
310
000000F50000000000000000000000000000000000000000000000F5F5F5F5F5F5F50000000000000000000000000000000000000000000000002D002D00002D0000000000000000000000000000000000000000000000000000000000000000002D0000000000000000000000000000000000000000000000000000000000
310
0000000000000000000000000000000000000000000000000000000000000000000000000000000000000000000000000000000000000000000000000000000000000000000000000000000000000000000000000000000000000000000000000000000000000000000000002D2DF5002D2D0000F500000000000000000000
310
000000000000000000000000000000000000000000000000000000000000F5F5F5F5F500F500000000000000000000000000000000000000000000002D002D00002D0000000000000000000000000000000000000000000000000000000000000000002D000000000000000000000000000000000000000000000000000000
310
000000000000000000000000000000000000000000000000000000000000000000000000000000000000000000000000000000000000000000000000000000000000000000000000000000000000000000000000000000000000000000000000000000000000000000002D2D2D2D2D2D2D2D2D2D2DF52D2D00000000000000
310
0000000000000000000000000000000000000000000000000000000000000000F5F5F5F5F500F500000000000000000000000000000000000000002D2D2D2D2D2D2D2D2D2D2D000000000000000000000000000000000000000000000000000000000000002D00000000000000000000000000000000000000000000000000
310
0000000000000000000000000000000000000000000000000000000000000000000000000000000000000000000000000000000000000000000000000000000000000000000000000000000000000000000000000000000000000000000000000000000000000000000000002D2D2D2D2D2DF52D2D2D2DF52D2D0000000000
310
0000000000000000000000000000000000000000000000000000000000000000000000000000000000F5000000000000000000000000000000000000002D00000000F5000000002D000000000000000000000000000000000000000000000000000000000000002D0000000000000000000000000000000000000000000000
310
0000000000000000000000000000000000000000000000000000000000000000000000000000000000000000000000000000000000000000000000000000000000000000000000000000000000000000000000000000000000000000000000000000000000000000000000000028280000000000F5000000F5000028000000
310
00000000000000000000000000000000000000000000000000000000000000000000000000000000000000F5000000000000000000000000000000000000002D28282800F5002828282D000000000000000000000000000000000000000000000000000000000000002D000000000000000000000000000000000000000000
310
0000000000000000000000000000000000000000000000000000000000000000000000000000000000000000000000000000000000000000000000000000000000000000000000000000000000000000000000000000000000000000000000000000000000000000F5F5F5F5F5F5F5282D0000000000F50000000000002800
310
00000000000000000000000000000000000000000000000000000000000000000000000000000000000000000000F50000000000000000000000000000000000002D28002800F5002800282D000000000000000000000000000000000000002D00000000000000000000002D00000000000000000000000000000000000000
310
00000000000000000000000000000000000000000000000000000000000000000000000000000000000000000000000000000000000000000000000000000000000000000000000000000000000000000000000000000000000000000000000000000000000000000000F5F5F5F5F5F500F52D2D2D2D2D2DF52D2D2D2D2D2D
310
280000000000000000000000000000000000000000000000000000000000282828282828282828282828282828282828F52828282828282828282828282828282828282828002800F5002800282828282828282828282828282828282828282828F528282800000000000000002D0000000000000000000000000000000000
310
00000000000000000000000000000000000000000000000000000000000000000000000000000000000000000000000000000000000000000000000000000000000000000000000000000000000000000000000000000000000000000000000000000000000000000000000000F5F5F5F5F500F52D2D2D000000F500000000
310
2D2D280000000000000000000000000000000000000000000000000000000000000000000000000000000000000000000000000000000000000000000000000000000000002D28002800F5002800282D000000000000000000000000000000000000002D00000000000000000000002D000000000000000000000000000000
310
00000000000000000000000000000000000000000000000000000000000000000000000000000000000000000000000000000000000000000000000000000000000000000000000000000000000000000000000000000000000000000000000000000000000000000000000000000000000000000028F52D2D000000F50000
310
00002D2D280000000000000000000000000000000000000000000000000000000000000000000000000000000000000000000000000000000000000000000000000000000000002D28002800F5002800282D000000000000000000000000000000000000002D00000000000000000000002D00000000000000000000000000
310
000000000000000000000000000000000000000000000000000000000000000000000000000000000000000000000000000000000000000000000000000000000000000000000000000000000000000000000000000000000000000000000000000000000000000000000000000000000000000000000028F52D2D000000F5
310
000000002D2D280000000000000000000000000000000000000000000000000000000000000000000000000000000000000000000000000000000000000000000000000000000000002D28002800F5002800282D000000000000000000000000000000000000002D00000000000000000000002D0000000000000000000000
310
00000000000000000000000000000000000000000000000000000000000000000000000000000000000000000000000000000000000000000000000000000000000000000000000000000000000000000000000000000000000000000000000000000000000000000000000000000000000000000000000000282DF52D0000
310
00F5000000002D2D280000000000000000000000000000000000000000000000000000000000000000000000000000000000000000000000000000000000000000000000000000000000002D28002800F5002800282D000000000000000000000000000000000028282D00000000000000000000002D000000000000000000
310
000000000000000000000000000000000000000000000000000000000000000000000000000000000000000000000000000000000000000000000000000000000000000000000000000000000000000000000000000000000000000000000000000000000000000000000000000000000000000000000000000000282D2D2D
310
000000F5000000002D2D280000000000000000000000000000000000000000000000000000000000000000000000000000000000000000000000000000000000000000000000000000000000002D28002800F5002800282D000000000000000000000000000000000028282D00000000000000000000002D00000000000000
310
0000000000000000000000000000000000000000000000000000000000000000000000000000000000000000000000000000000000000000000000000000000000000000000000000000000000000000000000000000000000000000000000000000000000000000000000000000000000000000000000000000000000282D
310
2D2D000000F5000000002D2D280000000000000000000000000000000000000000000000000000000000000000000000000000000000000000000000000000000000000000000000000000000000002D28002800F5002800282D000000000000000000000000000000000028282D00000000000000000000002D0000000000
310
000000000000000000000000000000000000000000000000000000000000000000000000000000000000000000000000000000000000000000000000000000000000000000000000000000000000000000000000000000000000000000000000000000000000000000000000000000F5F5F5F5F5F5F5000000000000000000
310
282D2D2D000000F5000000002D2D280000000000000000000000000000000000000000000000000000000000000000000000000000000000000000000000000000000000000000000000000000000000002D28002800F5002800282D000000000000000000000000000000000000002D00000000000000000000002D000000
310
0000000000000000000000000000000000000000000000000000000000000000000000000000000000000000000000000000000000000000000000000000000000000000000000000000000000000000000000000000000000000000000000000000000000000000000000000000000000F5F5F5F5F5F500F5000000000000
310
0000282D2D2D000000F5000000002D2D280000000000000000000000000000000000000000000000000000000000000000000000000000000000000000000000000000000000000000000000000000000000002D28002800F5002800282D000000000000000000000000000000000000002D00000000000000000000002D00
310
0000000000000000000000000000000000000000000000000000000000000000000000000000000000000000000000000000000000000000000000000000000000000000000000000000000000000000000000000000000000000000000000000000000000000000000000000000000000000000000000000000F500000000
310
00000000282D2D2D000000F5000000002D2D280000000000000000000000000000000000000000000000000000000000000000000000000000000000000000000000000000000000000000000000000000000000002D28002800F5002800282D000000000000000000000000000000000000002D0000000000000000000000
310
2D0000000000000000000000000000000000000000000000000000000000000000000000000000000000000000000000000000000000000000000000000000000000000000000000000000000000000000000000000000000000000000000000000000000000000000000000002D2D2D2D2D2D2D2D2D2D2D2D2D2D2D2DF52D
310
2D2D2D2D2D2D2D2D2D2D2D2D2D2D2D2D2D2D2D2D2D2D2D2D2D2D2D2D2D2D2D2D2D2D2D2D2D2D2D2D2DF52D2D2D2D00000000282828282D2D2D2D2D2D2D2D2D2D2D2D2D2D2D2828282828282828282828282828282828282D28002828F5282800282828282828282828282828282828282828282828F5282828000000000000
310
00002D00000000000000000000000000000000000000000000000000000000000000000000000000000000000000000000000000000000000000000000000000000000000000000000000000000000000000000000000000000000000000000000000000000000000000000000000028282828282828282828282828282828
310
2828282828282828282D2D2D2D2D2DF52D2D2D2D2D2D2D28282828282828282828282828282828282828282D2828282800000000000000002D2D2D2D0000000000002D2D2D2D2D0000000000000000000000000000000000002D28002828F5282800282D000000000000000000000000000000000000000000000000000000
310
000000002D0000000000000000000000000000000000000000000000000000000000000000000000000000000000000000000000000000000000000000000000000000000000000000000000000000000000000000000000000000000000000000000000000000000000000000000000000000000000000000000000000000
310
0000000000000000000028282828282828F52828282828282D28282800000000000000000000000000000028282D000000000000000000000000000000F50000000000002D2D0000000000000000000000000000000000000000002D2800282DF52D2800282D00000000000000000000000000000000000000000000000000
310
0000000000002D000000000000000000000000000000000000000000000000000000000000000000000000000000000000000000000000000000000000000000000000000000000000000000000000000000000000000000000000000000000000000000000000000000000000000000000000000000000000000000000000
310
00000000000000000000000028282828282828F52828282828282D28282800000000000000000000000000000028282D000000000000000000000000000000F50000000000002D2D0000000000000000000000000000000000000000002D2828282DF52D2828282D0000000000000000000000000000000000000000000000
310
00000000000000002D00000000000000000000000000000000000000000000000000000000000000000000000000000000000000000000000000000000000000000000000000000000000000000000000000000000000000000000000000000000000000000000000000000000000000000000000000000000000000000000
310
0000000000000000000000000000002D0000000000F50000000000002D00000000000000000000000000000000000028282D000000000000000000F5F5F5F5F5F52D0000000000002D2D0000000000000000000000000000000000000000002D2D2D2D2DF52D2D2D2D2D000000000000000000000000000000000000000000
310
000000000000000000002D0000000000000000000000000000000000000000000000000000000000000000000000000000000000000000000000000000000000000000000000000000000000000000000000000000000000000000000000000000000000000000000000000000000000000000000000000000000000000000
310
0000000000000000000000000000000000000000000000F50000000000000000000000000000000000000000000000000000002D000000000000000000F5F5F5F5F5F52D0000000000002D2D0000000000000000000000000000000000000000000000000000F5000000000000000000000000000000000000000000000000
310
0000000000000000000000002D0000000000000000000000000000000000000000000000000000000000000000000000000000000000000000000000000000000000000000000000000000000000000000000000000000000000000000000000000000000000000000000000000000000000000000000000002D2D2D2D2D2D
310
2D2D2D2D2D2D2D2D2D2D2D2D2D2D2D2D2D2D2D2D2D2D2D2D2D2D2D2D2D2D2D2D2D2D2D2D2D2D2D2D2D2D2D2D2D2D2D2D2D2D2D2D2DF52D2D2D2D000000002DF5F5F5F5F5F52D2D2D2D2D2D2D2D2D2D2D2D2D2D2D2D2D2D2D2D2D2D2D2D2D2D2D2D2D2D2D2D2D2D2D2D2D2D2D2D2D2D2D2D2D2D2D2D2D2D2D2D2D2D2D2D2D2D
310
2D2D2D2D2DF52D2D2D2D2D2D2D2DF500000000000000000000000000000000000000000000000000000000000000000000000000000000000000000000000000000000000000000000000000000000000000000000000000000000000000000000000000000000000000000000000000000000000000000000000028282828
310
282828282828282828282828282828282828282828282828282828282828282828282828282828282828282828282828282828282828282D2828282800000000282828282828282828282828282828282828282828282828282828282828282828282828282828282828282828282828282828282828282828282828282828
310
2828282828282828000000000000002D2D0000000000000000000000000000000000000000000000000000000000000000000000000000000000000000000000000000000000000000000000000000000000000000000000000000000000000000000000000000000000000000000000000000000000000000000000002828
310
2828282828282828282828282828282828282828282828282828282828282828F528282828282828282828282828282828282828282828282828282828280000000028282828282828282828282828282828282828282828282828282828282828282828282828282828282828282828282828282828282828282828282828
310
28282828282828282828000000000000000000000000000000000000000000000000000000000000000000000000000000000000000000000000000000000000000000000000000000000000000000000000000000000000000000000000000000000000000000000000000000000000000000000000000000000000000000
310
2D2D2D282D2D2D2D2D2D2D2D2D2D2D2D2D2D2D2D2D2D282D2D2D2D2D2D2D2D2D2D2D2DF52D2D2D2D2D282D2D2D2D2D2D2D2D2D2D2D2D2D2D2D2D2D2D282D2D2D000000002D2D2D2D2D2D2D2D2D2D2D2D2D2D2D2D2D2D2D2D2D2D2D2D2D2D2D2D2D2D2D2D2D2D2D2D2D2D2D2D2D2D2D2D2D2D2D2D2D2D2D2D2D2D2D2D2D2D2D
310
2D2D2D2D2D2D2D2D2D2D2D2D00000000000000000000000000000000000000000000000000000000000000000000000000000000000000000000000000000000000000000000000000000000000000000000000000000000000000000000000000000000000000000000000000000000000000000000000000000000000000
310
00000000002800000000000000000000000000000000000028000000000000000000000000F50000000000280000000000000000000000000000000000002800000000000000000000000000000000000000000000000000000000000000000000000000000000000000000000000000000000000000000000000000000000
310
00000000000000000000000000000000000000000000000000000000000000000000000000000000000000000000000000000000000000000000000000000000000000000000000000000000000000000000000000000000000000000000000000000000000000000000000000000000000000000000000000000000000000
310
00000000002828280000000000000000000000000000000028282800000000000000000000000000F50000282828000000000000000000000000000000002828280000000000000000000000000000000000000000000000000000000000000000000000000000000000000000000000000000000000000000000000000000
310
00000000000000000000000000000000000000000000000000000000000000000000000000000000000000000000000000000000000000000000000000000000000000000000000000000000000000000000000000000000000000000000000000000000000000000000000000000000000000000000000000000000000000
310
000000000000002828280000000000000000000000000000000028282800000000000000000000000000F5000028282800000000000000000000000000000000282828000000000000000000000000000000000000000000000000000000000000000000000000000000000000000000000000000000000000000000000000
310
00000000000000000000000000000000000000000000000000000000000000000000000000000000000000000000000000000000000000000000000000000000000000000000000000000000000000000000000000000000000000000000000000000000000000000000000000000000000000000000000000000000000000
310
00000000000000002D2D2D282D2D2D2D2D2D2D2D2D2D2D2D2D2D2D2D2D2D282D2D2D2D2D2D2D2D2DF52D2D2D2DF52D2D2D282D2D2D2D2D2D2D2D2D2D2D2D2D2D2D2D2D2D282D2D2D000000002D2D2D2D2D2D2D2D2D2D2D2D2D2D2D2D2D2D2D2D2D2D2D2D2D2D2D2D2D2D2D2D2D2D2D2D2D2D2D2D2D2D2D2D2D2D2D2D2D2D2D
310
2D2D2D2D2D2D2D2D2D2D2D2D2D2D2D2D2D2D2D2D0000000000000000000000000000000000000000000000000000000000000000000000000000000000000000000000000000000000000000000000000000000000000000000000000000000000000000000000000000000000000000000000000000000000000000000000
310
000000000000000000000000000000000000000000000000000000000000000000000000000000000000F500000000F500000000000000000000000000000000000000000000000000000000000000000000000000000000000000000000000000000000000000000000000000000000000000000000000000000000000000
310
00000000000000000000000000000000000000000000000000000000000000000000000000000000000000000000000000000000000000000000000000000000000000000000000000000000000000000000000000000000000000000000000000000000000000000000000000000000000000000000000000000000000000
310
000000000000000000000000000000000000000000000000000000000000000000000000000000000000000000F500000000F500000000000000000000000000000000000000000000000000000000000000000000000000000000000000000000000000000000000000000000000000000000000000000000000000000000
310
00000000000000000000000000000000000000000000000000000000000000000000000000000000000000000000000000000000000000000000000000000000000000000000000000000000000000000000000000000000000000000000000000000000000000000000000000000000000000000000000000000000000000
310
0000000000000000000000000000000000000000000000000000000000000000000000000000000000000000000000F500000000F50000000000000000000000000000000000000000000000000000000000000000000000000000000000000000000000000000000000000000000000000000000000000000000000000000
310
00000000000000000000000000000000000000000000000000000000000000000000000000000000000000000000000000000000000000000000000000000000000000000000000000000000000000000000000000000000000000000000000000000000000000000000000000000000000000000000000000000000000000
310
0000000000000000000000000000000000000000000000000000000000000000000000000000000000000000000000000000F500000000F5F5F5F5F5F5F5F5F5F50000000000000000000000000000000000000000000000000000000000000000000000000000000000000000000000000000000000000000000000000000
310
00000000000000000000000000000000000000000000000000000000000000000000000000000000000000000000000000000000000000000000000000000000000000000000000000000000000000000000000000000000000000000000000000000000000000000000000000000000000000000000000000000000000000
310
00000000000000000000000000000000000000000000000000000000000000000000000000000000000000000000000000000000F5000000000000F5F5F5F5F5F50000000000000000000000000000000000000000000000000000000000000000000000000000000000000000000000000000000000000000000000000000
310
00000000000000000000000000000000000000000000000000000000000000000000000000000000000000000000000000000000000000000000000000000000000000000000000000000000000000000000000000000000000000000000000000000000000000000000000000000000000000000000000000000000000000
310
00000000000000000000000000000000000000000000000000000000000000000000000000000000000000000000000000000000000000F50000000000000000000000000000000000000000000000000000000000000000000000000000000000000000000000000000000000000000000000000000000000000000000000
310
00000000000000000000000000000000000000000000000000000000000000000000000000000000000000000000000000000000000000000000000000000000000000000000000000000000000000000000000000000000000000000000000000000000000000000000000000000000000000000000000000000000000000
310
000000000000000000000000000000000000000000000000000000000000000000000000000000000000000000000000000000000000000000F5F5F5F5F5F5F5F5F5F5F5F5F5F5F5F5F50000000000000000000000000000000000000000000000000000000000000000000000000000000000000000000000000000000000
310
00000000000000000000000000000000000000000000000000000000000000000000000000000000000000000000000000000000000000000000000000000000000000000000000000000000000000000000000000000000000000000000000000000000000000000000000000000000000000000000000000000000000000
310
00000000000000000000000000000000000000000000000000000000000000000000000000000000000000000000000000000000000000000000000000F5F5F5F5F5F5F5F5F5F5F5F5F50000000000000000000000000000000000000000000000000000000000000000000000000000000000000000000000000000000000
310
00000000000000000000000000000000000000000000000000000000000000000000000000000000000000000000000000000000000000000000000000000000000000000000000000000000000000000000000000000000000000000000000000000000000000000000000000000000000000000000000000000000000000
310
000000000000000000000000000000000000000000000000000000000000000000000000000000000000000000000000000000000000000000000000000000000000000000000000F5F50000000000000000000000000000000000000000000000000000000000000000000000000000000000000000000000000000000000
310
00000000000000000000000000000000000000000000000000000000000000000000000000000000000000000000000000000000000000000000000000000000000000000000000000000000000000000000000000000000000000000000000000000000000000000000000000000000000000000000000000000000000000
310
00000000000000000000000000000000000000000000000000000000000000000000000000000000000000000000000000000000000000000000000000000000000000000000000000000000000000000000000000000000000000000000000000000000000000000000000000000000000000000000000000000000000000
310
00000000000000000000000000000000000000000000000000000000000000000000000000000000000000000000000000000000000000000000000000000000000000000000000000000000000000000000000000000000000000000000000000000000000000000000000000000000000000000000000000000000000000
310
00000000000000000000000000000000000000000000000000000000000000000000000000000000000000000000000000000000000000000000000000000000000000000000000000000000000000000000000000000000000000000000000000000000000000000000000000000000000000000000000000000000000000
310
00000000000000000000000000000000000000000000000000000000000000000000000000000000000000000000000000000000000000000000000000000000000000000000000000000000000000000000000000000000000000000000000000000000000000000000000000000000000000000000000000000000000000
310
00000000000000000000000000000000000000000000000000000000000000000000000000000000000000000000000000000000000000000000000000000000000000000000000000000000000000000000000000000000000000000000000000000000000000000000000000000000000000000000000000000000000000
310
00000000000000000000000000000000000000000000000000000000000000000000000000000000000000000000000000000000000000000000000000000000000000000000000000000000000000000000000000000000000000000000000000000000000000000000000000000000000000000000000000000000000000
310
00000000000000000000000000000000000000000000000000000000000000000000000000000000000000000000000000000000000000000000000000000000000000000000000000000000000000000000000000000000000000000000000000000000000000000000000000000000000000000000000000000000000000
310
00000000000000000000000000000000000000000000000000000000000000000000000000000000000000000000000000000000000000000000000000000000000000000000000000000000000000000000000000000000000000000000000000000000000000000000000000000000000000000000000000000000000000
310
00000000000000000000000000000000000000000000000000000000000000000000000000000000000000000000000000000000000000000000000000000000000000000000000000000000000000000000000000000000000000000000000000000000000000000000000000000000000000000000000000000000000000
310
00000000000000000000000000000000000000000000000000000000000000000000000000000000000000000000000000000000000000000000000000000000000000000000000000000000000000000000000000000000000000000000000000000000000000000000000000000000000000000000000000000000000000
310
00000000000000000000000000000000000000000000000000000000000000000000000000000000000000000000000000000000000000000000000000000000000000000000000000000000000000000000000000000000000000000000000000000000000000000000000000000000000000000000000000000000000000
310
00000000000000000000000000000000000000000000000000000000000000000000000000000000000000000000000000000000000000000000000000000000000000000000000000000000000000000000000000000000000000000000000000000000000000000000000000000000000000000000000000000000000000
310
00000000000000000000000000000000000000000000000000000000000000000000000000000000000000000000000000000000000000000000000000000000000000000000000000000000000000000000000000000000000000000000000000000000000000000000000000000000000000000000000000000000000000
310
00000000000000000000000000000000000000000000000000000000000000000000000000000000000000000000000000000000000000000000000000000000000000000000000000000000000000000000000000000000000000000000000000000000000000000000000000000000000000000000000000000000000000
310
00000000000000000000000000000000000000000000000000000000000000000000000000000000000000282828280028002800000000000000000000002828280028280028280028280028282800002800000000282828282828002828282828282828280028002828280028000028280000280000280028280000000000
310
00000000000000000000000000000000000000000000000000000000000000000000000000000000000000000000000000000000000000000000000000000000000000000000000000000000000000000000000000000000000000000000000000000000000000000000000000000000000000000000000000000000000000
310
00000000000000000000000000000000000000000000000000000000000000000000000000000000000000000028282800280000282828282800282800282828002828002800002828000028002828280000282828282828282828282800282828282828282828002800282828282828282828002828000028280028000000
310
00000000000000000000000000000000000000000000000000000000000000000000000000000000000000000000000000000000000000000000000000000000000000000000000000000000000000000000000000000000000000000000000000000000000000000000000000000000000000000000000000000000000000
310
00000000000000000000000000000000000000000000000000000000000000000000000000000000000000000000002828282828000028280000000028280000000028282800280000282800282800282828000028000000002828282828282828282828282828282800280028282828282828282828002828282828282800
310
00000000000000000000000000000000000000000000000000000000000000000000000000000000000000000000000000000000000000000000000000000000000000000000000000000000000000000000000000000000000000000000000000000000000000000000000000000000000000000000000000000000000000
310
00000000000000000000000000000000000000000000000000000000000000000000000000000000000000000000000000000000000000000000000000000000000000000000000000000000000000000000002800000000000000280000282800002800002828000000000000002800002828000000000000000000002800
310
000000000000000000000000000000000000000000000000000000000000000000000000000000000000000000000000000000000000000000000000000000000000000000000000000000000000000000000000000000000000000000000000000000000000000000000000000000000000000000000000000000
  0
XRECORD
  5
7CA8
102
{ACAD_REACTORS
330
5FEB
102
}
330
5FEB
100
AcDbXrecord
280
     1
102
MATERIAL
148
0.0
149
0.0
149
0.0
 93
        0
 94
      127
282
     0
 72
     0
 77
     0
171
     0
175
     0
179
     0
273
     0
  0
XRECORD
  5
5FED
102
{ACAD_REACTORS
330
5FEB
102
}
330
5FEB
100
AcDbXrecord
280
     1
270
     1
271
     1
  0
XRECORD
  5
5FEC
102
{ACAD_REACTORS
330
5FEB
102
}
330
5FEB
100
AcDbXrecord
280
     1
270
     1
271
     1
  0
XRECORD
  5
5FF0
102
{ACAD_REACTORS
330
5FEB
102
}
330
5FEB
100
AcDbXrecord
280
     1
270
     1
271
     1
  0
XRECORD
  5
5FEF
102
{ACAD_REACTORS
330
5FEB
102
}
330
5FEB
100
AcDbXrecord
280
     1
270
     1
271
     1
  0
XRECORD
  5
5FF1
102
{ACAD_REACTORS
330
5FEB
102
}
330
5FEB
100
AcDbXrecord
280
     1
270
     1
271
     1
  0
XRECORD
  5
5FEE
102
{ACAD_REACTORS
330
5FEB
102
}
330
5FEB
100
AcDbXrecord
280
     1
270
     1
271
     1
  0
XRECORD
  5
7CA7
102
{ACAD_REACTORS
330
5FE3
102
}
330
5FE3
100
AcDbXrecord
280
     1
102
MATERIAL
148
0.0
149
0.0
149
0.0
 93
        0
 94
      127
282
     0
 72
     0
 77
     0
171
     0
175
     0
179
     0
273
     0
  0
XRECORD
  5
5FE5
102
{ACAD_REACTORS
330
5FE3
102
}
330
5FE3
100
AcDbXrecord
280
     1
270
     1
271
     1
  0
XRECORD
  5
5FE4
102
{ACAD_REACTORS
330
5FE3
102
}
330
5FE3
100
AcDbXrecord
280
     1
270
     1
271
     1
  0
XRECORD
  5
5FE8
102
{ACAD_REACTORS
330
5FE3
102
}
330
5FE3
100
AcDbXrecord
280
     1
270
     1
271
     1
  0
XRECORD
  5
5FE7
102
{ACAD_REACTORS
330
5FE3
102
}
330
5FE3
100
AcDbXrecord
280
     1
270
     1
271
     1
  0
XRECORD
  5
5FE9
102
{ACAD_REACTORS
330
5FE3
102
}
330
5FE3
100
AcDbXrecord
280
     1
270
     1
271
     1
  0
XRECORD
  5
5FE6
102
{ACAD_REACTORS
330
5FE3
102
}
330
5FE3
100
AcDbXrecord
280
     1
270
     1
271
     1
  0
XRECORD
  5
7CA9
102
{ACAD_REACTORS
330
5FF3
102
}
330
5FF3
100
AcDbXrecord
280
     1
102
MATERIAL
148
0.0
149
0.0
149
0.0
 93
        0
 94
      127
282
     0
 72
     0
 77
     0
171
     0
175
     0
179
     0
273
     0
  0
XRECORD
  5
5FF5
102
{ACAD_REACTORS
330
5FF3
102
}
330
5FF3
100
AcDbXrecord
280
     1
270
     1
271
     1
  0
XRECORD
  5
5FF4
102
{ACAD_REACTORS
330
5FF3
102
}
330
5FF3
100
AcDbXrecord
280
     1
270
     1
271
     1
  0
XRECORD
  5
5FF8
102
{ACAD_REACTORS
330
5FF3
102
}
330
5FF3
100
AcDbXrecord
280
     1
270
     1
271
     1
  0
XRECORD
  5
5FF7
102
{ACAD_REACTORS
330
5FF3
102
}
330
5FF3
100
AcDbXrecord
280
     1
270
     1
271
     1
  0
XRECORD
  5
5FF9
102
{ACAD_REACTORS
330
5FF3
102
}
330
5FF3
100
AcDbXrecord
280
     1
270
     1
271
     1
  0
XRECORD
  5
5FF6
102
{ACAD_REACTORS
330
5FF3
102
}
330
5FF3
100
AcDbXrecord
280
     1
270
     1
271
     1
  0
XRECORD
  5
7CA5
102
{ACAD_REACTORS
330
7CA4
102
}
330
7CA4
100
AcDbXrecord
280
     1
102
ACAD_ROUNDTRIP_2012_MLEADER_STYLE
298
     1
  0
CELLSTYLEMAP
  5
7CA3
102
{ACAD_REACTORS
330
78AB
102
}
330
78AB
100
AcDbCellStyleMap
 90
        3
300
CELLSTYLE
  1
TABLEFORMAT_BEGIN
 90
        5
170
     1
 91
        0
 92
    32768
 62
   257
 93
        1
300
CONTENTFORMAT
  1
CONTENTFORMAT_BEGIN
 90
        0
 91
        0
 92
      512
 93
        0
300

 40
0.0
140
1.0
 94
        5
 62
     0
340
11
144
0.25
309
CONTENTFORMAT_END
171
     0
 94
        0
309
TABLEFORMAT_END
  1
CELLSTYLE_BEGIN
 90
        1
 91
        1
300
_TITLE
309
CELLSTYLE_END
300
CELLSTYLE
  1
TABLEFORMAT_BEGIN
 90
        5
170
     1
 91
        0
 92
        0
 62
   257
 93
        1
300
CONTENTFORMAT
  1
CONTENTFORMAT_BEGIN
 90
        0
 91
        0
 92
      512
 93
        0
300

 40
0.0
140
1.0
 94
        5
 62
     0
340
11
144
0.18
309
CONTENTFORMAT_END
171
     0
 94
        0
309
TABLEFORMAT_END
  1
CELLSTYLE_BEGIN
 90
        2
 91
        1
300
_HEADER
309
CELLSTYLE_END
300
CELLSTYLE
  1
TABLEFORMAT_BEGIN
 90
        5
170
     1
 91
        0
 92
        0
 62
   257
 93
        1
300
CONTENTFORMAT
  1
CONTENTFORMAT_BEGIN
 90
        0
 91
        0
 92
      512
 93
        0
300

 40
0.0
140
1.0
 94
        2
 62
     0
340
11
144
0.18
309
CONTENTFORMAT_END
171
     0
 94
        0
309
TABLEFORMAT_END
  1
CELLSTYLE_BEGIN
 90
        3
 91
        2
300
_DATA
309
CELLSTYLE_END
  0
XRECORD
  5
7CDA
102
{ACAD_REACTORS
330
78AB
102
}
330
78AB
100
AcDbXrecord
280
     1
102
ACAD_ROUNDTRIP_PRE2007_TABLESTYLE
 90
      512
 91
        0
  1

 92
      512
 93
        0
  2

 94
      512
 95
        0
  3

  0
XRECORD
  5
7CB5
102
{ACAD_REACTORS
330
7CB4
102
}
330
7CB4
100
AcDbXrecord
280
     1
102
RTVSPropertyOp0
 70
     1
102
RTVSPropertyOp1
 70
     1
102
RTVSPropertyOp2
 70
     1
102
RTVSPropertyOp3
 70
     1
102
RTVSPropertyOp4
 70
     1
102
RTVSPropertyOp5
 70
     1
102
RTVSPropertyOp6
 70
     1
102
RTVSPropertyOp7
 70
     1
102
RTVSPropertyOp8
 70
     1
102
RTVSPropertyOp9
 70
     1
102
RTVSPropertyOp10
 70
     1
102
RTVSPropertyOp11
 70
     1
102
RTVSPropertyOp12
 70
     1
102
RTVSPropertyOp13
 70
     1
102
RTVSPropertyOp14
 70
     1
102
RTVSPropertyOp15
 70
     1
102
RTVSPropertyOp16
 70
     1
102
RTVSPropertyOp17
 70
     1
102
RTVSPropertyOp18
 70
     1
102
RTVSPropertyOp19
 70
     1
102
RTVSPropertyOp20
 70
     1
102
RTVSPropertyOp21
 70
     1
102
RTVSPropertyOp22
 70
     1
102
RTVSPropertyOp23
 70
     1
102
RTVSPropertyOp24
 70
     1
102
RTVSPropertyOp25
 70
     1
102
RTVSPropertyOp26
 70
     1
102
RTVSPropertyOp27
 70
     1
102
RTVSPropertyOp28
 70
     1
102
RTVSPropertyOp29
 70
     1
102
RTVSPropertyOp30
 70
     1
102
RTVSPropertyOp31
 70
     1
102
RTVSPropertyOp32
 70
     1
  0
XRECORD
  5
7CDC
102
{ACAD_REACTORS
330
7CDB
102
}
330
7CDB
100
AcDbXrecord
280
     1
102
RTVSPropertyOp0
 70
     1
102
RTVSPropertyOp1
 70
     1
102
RTVSPropertyOp2
 70
     1
102
RTVSPropertyOp3
 70
     1
102
RTVSPropertyOp4
 70
     1
102
RTVSPropertyOp5
 70
     1
102
RTVSPropertyOp6
 70
     1
102
RTVSPropertyOp7
 70
     1
102
RTVSPropertyOp8
 70
     1
102
RTVSPropertyOp9
 70
     1
102
RTVSPropertyOp10
 70
     1
102
RTVSPropertyOp11
 70
     1
102
RTVSPropertyOp12
 70
     1
102
RTVSPropertyOp13
 70
     1
102
RTVSPropertyOp14
 70
     1
102
RTVSPropertyOp15
 70
     1
102
RTVSPropertyOp16
 70
     1
102
RTVSPropertyOp17
 70
     1
102
RTVSPropertyOp18
 70
     1
102
RTVSPropertyOp19
 70
     1
102
RTVSPropertyOp20
 70
     1
102
RTVSPropertyOp21
 70
     1
102
RTVSPropertyOp22
 70
     1
102
RTVSPropertyOp23
 70
     1
102
RTVSPropertyOp24
 70
     1
102
RTVSPropertyOp25
 70
     1
102
RTVSPropertyOp26
 70
     1
102
RTVSPropertyOp27
 70
     1
102
RTVSPropertyOp28
 70
     1
102
RTVSPropertyOp29
 70
     1
102
RTVSPropertyOp30
 70
     1
102
RTVSPropertyOp31
 70
     1
102
RTVSPropertyOp32
 70
     1
  0
XRECORD
  5
7CB3
102
{ACAD_REACTORS
330
7CB2
102
}
330
7CB2
100
AcDbXrecord
280
     1
102
RTVSPropertyOp0
 70
     1
102
RTVSPropertyOp1
 70
     1
102
RTVSPropertyOp2
 70
     1
102
RTVSPropertyOp3
 70
     1
102
RTVSPropertyOp4
 70
     1
102
RTVSPropertyOp5
 70
     1
102
RTVSPropertyOp6
 70
     1
102
RTVSPropertyOp7
 70
     1
102
RTVSPropertyOp8
 70
     1
102
RTVSPropertyOp9
 70
     1
102
RTVSPropertyOp10
 70
     1
102
RTVSPropertyOp11
 70
     1
102
RTVSPropertyOp12
 70
     1
102
RTVSPropertyOp13
 70
     1
102
RTVSPropertyOp14
 70
     1
102
RTVSPropertyOp15
 70
     1
102
RTVSPropertyOp16
 70
     1
102
RTVSPropertyOp17
 70
     1
102
RTVSPropertyOp18
 70
     1
102
RTVSPropertyOp19
 70
     1
102
RTVSPropertyOp20
 70
     1
102
RTVSPropertyOp21
 70
     1
102
RTVSPropertyOp22
 70
     1
102
RTVSPropertyOp23
 70
     1
102
RTVSPropertyOp24
 70
     1
102
RTVSPropertyOp25
 70
     1
102
RTVSPropertyOp26
 70
     1
102
RTVSPropertyOp27
 70
     1
102
RTVSPropertyOp28
 70
     1
102
RTVSPropertyOp29
 70
     1
102
RTVSPropertyOp30
 70
     1
102
RTVSPropertyOp31
 70
     1
102
RTVSPropertyOp32
 70
     1
  0
XRECORD
  5
7CC1
102
{ACAD_REACTORS
330
7CC0
102
}
330
7CC0
100
AcDbXrecord
280
     1
102
RTVSPropertyOp0
 70
     1
102
RTVSPropertyOp1
 70
     1
102
RTVSPropertyOp2
 70
     1
102
RTVSPropertyOp3
 70
     1
102
RTVSPropertyOp4
 70
     1
102
RTVSPropertyOp5
 70
     1
102
RTVSPropertyOp6
 70
     1
102
RTVSPropertyOp7
 70
     1
102
RTVSPropertyOp8
 70
     1
102
RTVSPropertyOp9
 70
     1
102
RTVSPropertyOp10
 70
     1
102
RTVSPropertyOp11
 70
     1
102
RTVSPropertyOp12
 70
     1
102
RTVSPropertyOp13
 70
     1
102
RTVSPropertyOp14
 70
     1
102
RTVSPropertyOp15
 70
     1
102
RTVSPropertyOp16
 70
     1
102
RTVSPropertyOp17
 70
     1
102
RTVSPropertyOp18
 70
     1
102
RTVSPropertyOp19
 70
     1
102
RTVSPropertyOp20
 70
     1
102
RTVSPropertyOp21
 70
     1
102
RTVSPropertyOp22
 70
     1
102
RTVSPropertyOp23
 70
     1
102
RTVSPropertyOp24
 70
     1
102
RTVSPropertyOp25
 70
     1
102
RTVSPropertyOp26
 70
     1
102
RTVSPropertyOp27
 70
     1
102
RTVSPropertyOp28
 70
     1
102
RTVSPropertyOp29
 70
     1
102
RTVSPropertyOp30
 70
     1
102
RTVSPropertyOp31
 70
     1
102
RTVSPropertyOp32
 70
     1
  0
XRECORD
  5
7CC9
102
{ACAD_REACTORS
330
7CC8
102
}
330
7CC8
100
AcDbXrecord
280
     1
102
RTVSPropertyOp0
 70
     1
102
RTVSPropertyOp1
 70
     1
102
RTVSPropertyOp2
 70
     1
102
RTVSPropertyOp3
 70
     1
102
RTVSPropertyOp4
 70
     1
102
RTVSPropertyOp5
 70
     1
102
RTVSPropertyOp6
 70
     1
102
RTVSPropertyOp7
 70
     1
102
RTVSPropertyOp8
 70
     1
102
RTVSPropertyOp9
 70
     1
102
RTVSPropertyOp10
 70
     1
102
RTVSPropertyOp11
 70
     1
102
RTVSPropertyOp12
 70
     1
102
RTVSPropertyOp13
 70
     1
102
RTVSPropertyOp14
 70
     1
102
RTVSPropertyOp15
 70
     1
102
RTVSPropertyOp16
 70
     1
102
RTVSPropertyOp17
 70
     1
102
RTVSPropertyOp18
 70
     1
102
RTVSPropertyOp19
 70
     1
102
RTVSPropertyOp20
 70
     1
102
RTVSPropertyOp21
 70
     1
102
RTVSPropertyOp22
 70
     1
102
RTVSPropertyOp23
 70
     1
102
RTVSPropertyOp24
 70
     1
102
RTVSPropertyOp25
 70
     1
102
RTVSPropertyOp26
 70
     1
102
RTVSPropertyOp27
 70
     1
102
RTVSPropertyOp28
 70
     1
102
RTVSPropertyOp29
 70
     1
102
RTVSPropertyOp30
 70
     1
102
RTVSPropertyOp31
 70
     1
102
RTVSPropertyOp32
 70
     1
  0
XRECORD
  5
7CBB
102
{ACAD_REACTORS
330
7CBA
102
}
330
7CBA
100
AcDbXrecord
280
     1
102
RTVSPropertyOp0
 70
     1
102
RTVSPropertyOp1
 70
     1
102
RTVSPropertyOp2
 70
     1
102
RTVSPropertyOp3
 70
     1
102
RTVSPropertyOp4
 70
     1
102
RTVSPropertyOp5
 70
     1
102
RTVSPropertyOp6
 70
     1
102
RTVSPropertyOp7
 70
     1
102
RTVSPropertyOp8
 70
     1
102
RTVSPropertyOp9
 70
     1
102
RTVSPropertyOp10
 70
     1
102
RTVSPropertyOp11
 70
     1
102
RTVSPropertyOp12
 70
     1
102
RTVSPropertyOp13
 70
     1
102
RTVSPropertyOp14
 70
     1
102
RTVSPropertyOp15
 70
     1
102
RTVSPropertyOp16
 70
     1
102
RTVSPropertyOp17
 70
     1
102
RTVSPropertyOp18
 70
     1
102
RTVSPropertyOp19
 70
     1
102
RTVSPropertyOp20
 70
     1
102
RTVSPropertyOp21
 70
     1
102
RTVSPropertyOp22
 70
     1
102
RTVSPropertyOp23
 70
     1
102
RTVSPropertyOp24
 70
     1
102
RTVSPropertyOp25
 70
     1
102
RTVSPropertyOp26
 70
     1
102
RTVSPropertyOp27
 70
     1
102
RTVSPropertyOp28
 70
     1
102
RTVSPropertyOp29
 70
     1
102
RTVSPropertyOp30
 70
     1
102
RTVSPropertyOp31
 70
     1
102
RTVSPropertyOp32
 70
     1
  0
XRECORD
  5
7CBF
102
{ACAD_REACTORS
330
7CBE
102
}
330
7CBE
100
AcDbXrecord
280
     1
102
RTVSPropertyOp0
 70
     1
102
RTVSPropertyOp1
 70
     1
102
RTVSPropertyOp2
 70
     1
102
RTVSPropertyOp3
 70
     1
102
RTVSPropertyOp4
 70
     1
102
RTVSPropertyOp5
 70
     1
102
RTVSPropertyOp6
 70
     1
102
RTVSPropertyOp7
 70
     1
102
RTVSPropertyOp8
 70
     1
102
RTVSPropertyOp9
 70
     1
102
RTVSPropertyOp10
 70
     1
102
RTVSPropertyOp11
 70
     1
102
RTVSPropertyOp12
 70
     1
102
RTVSPropertyOp13
 70
     1
102
RTVSPropertyOp14
 70
     1
102
RTVSPropertyOp15
 70
     1
102
RTVSPropertyOp16
 70
     1
102
RTVSPropertyOp17
 70
     1
102
RTVSPropertyOp18
 70
     1
102
RTVSPropertyOp19
 70
     1
102
RTVSPropertyOp20
 70
     1
102
RTVSPropertyOp21
 70
     1
102
RTVSPropertyOp22
 70
     1
102
RTVSPropertyOp23
 70
     1
102
RTVSPropertyOp24
 70
     1
102
RTVSPropertyOp25
 70
     1
102
RTVSPropertyOp26
 70
     1
102
RTVSPropertyOp27
 70
     1
102
RTVSPropertyOp28
 70
     1
102
RTVSPropertyOp29
 70
     1
102
RTVSPropertyOp30
 70
     1
102
RTVSPropertyOp31
 70
     1
102
RTVSPropertyOp32
 70
     1
  0
XRECORD
  5
7CD9
102
{ACAD_REACTORS
330
7CD8
102
}
330
7CD8
100
AcDbXrecord
280
     1
102
RTVSPropertyOp0
 70
     0
102
RTVSPropertyOp1
 70
     0
102
RTVSPropertyOp2
 70
     0
102
RTVSPropertyOp3
 70
     0
102
RTVSPropertyOp4
 70
     0
102
RTVSPropertyOp5
 70
     0
102
RTVSPropertyOp6
 70
     0
102
RTVSPropertyOp7
 70
     0
102
RTVSPropertyOp8
 70
     0
102
RTVSPropertyOp9
 70
     0
102
RTVSPropertyOp10
 70
     0
102
RTVSPropertyOp11
 70
     0
102
RTVSPropertyOp12
 70
     0
102
RTVSPropertyOp13
 70
     0
102
RTVSPropertyOp14
 70
     2
102
RTVSPropertyOp15
 70
     0
102
RTVSPropertyOp16
 70
     0
102
RTVSPropertyOp17
 70
     0
102
RTVSPropertyOp18
 70
     0
102
RTVSPropertyOp19
 70
     0
102
RTVSPropertyOp20
 70
     0
102
RTVSPropertyOp21
 70
     0
102
RTVSPropertyOp22
 70
     0
102
RTVSPropertyOp23
 70
     0
102
RTVSPropertyOp24
 70
     0
102
RTVSPropertyOp25
 70
     0
102
RTVSPropertyOp26
 70
     0
102
RTVSPropertyOp27
 70
     0
102
RTVSPropertyOp28
 70
     1
102
RTVSPropertyOp29
 70
     1
102
RTVSPropertyOp30
 70
     1
102
RTVSPropertyOp31
 70
     1
102
RTVSPropertyOp32
 70
     1
  0
XRECORD
  5
7CC7
102
{ACAD_REACTORS
330
7CC6
102
}
330
7CC6
100
AcDbXrecord
280
     1
102
RTVSPropertyOp0
 70
     1
102
RTVSPropertyOp1
 70
     1
102
RTVSPropertyOp2
 70
     1
102
RTVSPropertyOp3
 70
     1
102
RTVSPropertyOp4
 70
     1
102
RTVSPropertyOp5
 70
     1
102
RTVSPropertyOp6
 70
     1
102
RTVSPropertyOp7
 70
     1
102
RTVSPropertyOp8
 70
     1
102
RTVSPropertyOp9
 70
     1
102
RTVSPropertyOp10
 70
     1
102
RTVSPropertyOp11
 70
     1
102
RTVSPropertyOp12
 70
     1
102
RTVSPropertyOp13
 70
     1
102
RTVSPropertyOp14
 70
     1
102
RTVSPropertyOp15
 70
     1
102
RTVSPropertyOp16
 70
     1
102
RTVSPropertyOp17
 70
     1
102
RTVSPropertyOp18
 70
     1
102
RTVSPropertyOp19
 70
     1
102
RTVSPropertyOp20
 70
     1
102
RTVSPropertyOp21
 70
     1
102
RTVSPropertyOp22
 70
     1
102
RTVSPropertyOp23
 70
     1
102
RTVSPropertyOp24
 70
     1
102
RTVSPropertyOp25
 70
     1
102
RTVSPropertyOp26
 70
     1
102
RTVSPropertyOp27
 70
     1
102
RTVSPropertyOp28
 70
     1
102
RTVSPropertyOp29
 70
     1
102
RTVSPropertyOp30
 70
     1
102
RTVSPropertyOp31
 70
     1
102
RTVSPropertyOp32
 70
     1
  0
XRECORD
  5
7CAB
102
{ACAD_REACTORS
330
7CAA
102
}
330
7CAA
100
AcDbXrecord
280
     1
102
RTVSPropertyOp0
 70
     1
102
RTVSPropertyOp1
 70
     1
102
RTVSPropertyOp2
 70
     1
102
RTVSPropertyOp3
 70
     1
102
RTVSPropertyOp4
 70
     1
102
RTVSPropertyOp5
 70
     1
102
RTVSPropertyOp6
 70
     1
102
RTVSPropertyOp7
 70
     1
102
RTVSPropertyOp8
 70
     1
102
RTVSPropertyOp9
 70
     1
102
RTVSPropertyOp10
 70
     1
102
RTVSPropertyOp11
 70
     1
102
RTVSPropertyOp12
 70
     1
102
RTVSPropertyOp13
 70
     1
102
RTVSPropertyOp14
 70
     1
102
RTVSPropertyOp15
 70
     1
102
RTVSPropertyOp16
 70
     1
102
RTVSPropertyOp17
 70
     1
102
RTVSPropertyOp18
 70
     1
102
RTVSPropertyOp19
 70
     1
102
RTVSPropertyOp20
 70
     1
102
RTVSPropertyOp21
 70
     1
102
RTVSPropertyOp22
 70
     1
102
RTVSPropertyOp23
 70
     1
102
RTVSPropertyOp24
 70
     1
102
RTVSPropertyOp25
 70
     1
102
RTVSPropertyOp26
 70
     1
102
RTVSPropertyOp27
 70
     1
102
RTVSPropertyOp28
 70
     1
102
RTVSPropertyOp29
 70
     1
102
RTVSPropertyOp30
 70
     1
102
RTVSPropertyOp31
 70
     1
102
RTVSPropertyOp32
 70
     1
  0
XRECORD
  5
7CAD
102
{ACAD_REACTORS
330
7CAC
102
}
330
7CAC
100
AcDbXrecord
280
     1
102
RTVSPropertyOp0
 70
     1
102
RTVSPropertyOp1
 70
     1
102
RTVSPropertyOp2
 70
     1
102
RTVSPropertyOp3
 70
     1
102
RTVSPropertyOp4
 70
     1
102
RTVSPropertyOp5
 70
     1
102
RTVSPropertyOp6
 70
     1
102
RTVSPropertyOp7
 70
     1
102
RTVSPropertyOp8
 70
     1
102
RTVSPropertyOp9
 70
     1
102
RTVSPropertyOp10
 70
     1
102
RTVSPropertyOp11
 70
     1
102
RTVSPropertyOp12
 70
     1
102
RTVSPropertyOp13
 70
     1
102
RTVSPropertyOp14
 70
     1
102
RTVSPropertyOp15
 70
     1
102
RTVSPropertyOp16
 70
     1
102
RTVSPropertyOp17
 70
     1
102
RTVSPropertyOp18
 70
     1
102
RTVSPropertyOp19
 70
     1
102
RTVSPropertyOp20
 70
     1
102
RTVSPropertyOp21
 70
     1
102
RTVSPropertyOp22
 70
     1
102
RTVSPropertyOp23
 70
     1
102
RTVSPropertyOp24
 70
     1
102
RTVSPropertyOp25
 70
     1
102
RTVSPropertyOp26
 70
     1
102
RTVSPropertyOp27
 70
     1
102
RTVSPropertyOp28
 70
     1
102
RTVSPropertyOp29
 70
     1
102
RTVSPropertyOp30
 70
     1
102
RTVSPropertyOp31
 70
     1
102
RTVSPropertyOp32
 70
     1
  0
XRECORD
  5
7CAF
102
{ACAD_REACTORS
330
7CAE
102
}
330
7CAE
100
AcDbXrecord
280
     1
102
RTVSPropertyOp0
 70
     1
102
RTVSPropertyOp1
 70
     1
102
RTVSPropertyOp2
 70
     1
102
RTVSPropertyOp3
 70
     1
102
RTVSPropertyOp4
 70
     1
102
RTVSPropertyOp5
 70
     1
102
RTVSPropertyOp6
 70
     1
102
RTVSPropertyOp7
 70
     1
102
RTVSPropertyOp8
 70
     1
102
RTVSPropertyOp9
 70
     1
102
RTVSPropertyOp10
 70
     1
102
RTVSPropertyOp11
 70
     1
102
RTVSPropertyOp12
 70
     1
102
RTVSPropertyOp13
 70
     1
102
RTVSPropertyOp14
 70
     1
102
RTVSPropertyOp15
 70
     1
102
RTVSPropertyOp16
 70
     1
102
RTVSPropertyOp17
 70
     1
102
RTVSPropertyOp18
 70
     1
102
RTVSPropertyOp19
 70
     1
102
RTVSPropertyOp20
 70
     1
102
RTVSPropertyOp21
 70
     1
102
RTVSPropertyOp22
 70
     1
102
RTVSPropertyOp23
 70
     1
102
RTVSPropertyOp24
 70
     1
102
RTVSPropertyOp25
 70
     1
102
RTVSPropertyOp26
 70
     1
102
RTVSPropertyOp27
 70
     1
102
RTVSPropertyOp28
 70
     1
102
RTVSPropertyOp29
 70
     1
102
RTVSPropertyOp30
 70
     1
102
RTVSPropertyOp31
 70
     1
102
RTVSPropertyOp32
 70
     1
  0
XRECORD
  5
7CB1
102
{ACAD_REACTORS
330
7CB0
102
}
330
7CB0
100
AcDbXrecord
280
     1
102
RTVSPropertyOp0
 70
     1
102
RTVSPropertyOp1
 70
     1
102
RTVSPropertyOp2
 70
     1
102
RTVSPropertyOp3
 70
     1
102
RTVSPropertyOp4
 70
     1
102
RTVSPropertyOp5
 70
     1
102
RTVSPropertyOp6
 70
     1
102
RTVSPropertyOp7
 70
     1
102
RTVSPropertyOp8
 70
     1
102
RTVSPropertyOp9
 70
     1
102
RTVSPropertyOp10
 70
     1
102
RTVSPropertyOp11
 70
     1
102
RTVSPropertyOp12
 70
     1
102
RTVSPropertyOp13
 70
     1
102
RTVSPropertyOp14
 70
     1
102
RTVSPropertyOp15
 70
     1
102
RTVSPropertyOp16
 70
     1
102
RTVSPropertyOp17
 70
     1
102
RTVSPropertyOp18
 70
     1
102
RTVSPropertyOp19
 70
     1
102
RTVSPropertyOp20
 70
     1
102
RTVSPropertyOp21
 70
     1
102
RTVSPropertyOp22
 70
     1
102
RTVSPropertyOp23
 70
     1
102
RTVSPropertyOp24
 70
     1
102
RTVSPropertyOp25
 70
     1
102
RTVSPropertyOp26
 70
     1
102
RTVSPropertyOp27
 70
     1
102
RTVSPropertyOp28
 70
     1
102
RTVSPropertyOp29
 70
     1
102
RTVSPropertyOp30
 70
     1
102
RTVSPropertyOp31
 70
     1
102
RTVSPropertyOp32
 70
     1
  0
XRECORD
  5
7CB9
102
{ACAD_REACTORS
330
7CB8
102
}
330
7CB8
100
AcDbXrecord
280
     1
102
RTVSPropertyOp0
 70
     1
102
RTVSPropertyOp1
 70
     1
102
RTVSPropertyOp2
 70
     1
102
RTVSPropertyOp3
 70
     1
102
RTVSPropertyOp4
 70
     1
102
RTVSPropertyOp5
 70
     1
102
RTVSPropertyOp6
 70
     1
102
RTVSPropertyOp7
 70
     1
102
RTVSPropertyOp8
 70
     1
102
RTVSPropertyOp9
 70
     1
102
RTVSPropertyOp10
 70
     1
102
RTVSPropertyOp11
 70
     1
102
RTVSPropertyOp12
 70
     1
102
RTVSPropertyOp13
 70
     1
102
RTVSPropertyOp14
 70
     1
102
RTVSPropertyOp15
 70
     1
102
RTVSPropertyOp16
 70
     1
102
RTVSPropertyOp17
 70
     1
102
RTVSPropertyOp18
 70
     1
102
RTVSPropertyOp19
 70
     1
102
RTVSPropertyOp20
 70
     1
102
RTVSPropertyOp21
 70
     1
102
RTVSPropertyOp22
 70
     1
102
RTVSPropertyOp23
 70
     1
102
RTVSPropertyOp24
 70
     1
102
RTVSPropertyOp25
 70
     1
102
RTVSPropertyOp26
 70
     1
102
RTVSPropertyOp27
 70
     1
102
RTVSPropertyOp28
 70
     1
102
RTVSPropertyOp29
 70
     1
102
RTVSPropertyOp30
 70
     1
102
RTVSPropertyOp31
 70
     1
102
RTVSPropertyOp32
 70
     1
  0
XRECORD
  5
7CD5
102
{ACAD_REACTORS
330
7CD4
102
}
330
7CD4
100
AcDbXrecord
280
     1
102
RTVSPropertyOp0
 70
     0
102
RTVSPropertyOp1
 70
     0
102
RTVSPropertyOp2
 70
     0
102
RTVSPropertyOp3
 70
     0
102
RTVSPropertyOp4
 70
     0
102
RTVSPropertyOp5
 70
     0
102
RTVSPropertyOp6
 70
     0
102
RTVSPropertyOp7
 70
     0
102
RTVSPropertyOp8
 70
     0
102
RTVSPropertyOp9
 70
     0
102
RTVSPropertyOp10
 70
     0
102
RTVSPropertyOp11
 70
     0
102
RTVSPropertyOp12
 70
     0
102
RTVSPropertyOp13
 70
     0
102
RTVSPropertyOp14
 70
     2
102
RTVSPropertyOp15
 70
     0
102
RTVSPropertyOp16
 70
     0
102
RTVSPropertyOp17
 70
     0
102
RTVSPropertyOp18
 70
     0
102
RTVSPropertyOp19
 70
     0
102
RTVSPropertyOp20
 70
     0
102
RTVSPropertyOp21
 70
     0
102
RTVSPropertyOp22
 70
     0
102
RTVSPropertyOp23
 70
     0
102
RTVSPropertyOp24
 70
     0
102
RTVSPropertyOp25
 70
     0
102
RTVSPropertyOp26
 70
     0
102
RTVSPropertyOp27
 70
     0
102
RTVSPropertyOp28
 70
     1
102
RTVSPropertyOp29
 70
     1
102
RTVSPropertyOp30
 70
     1
102
RTVSPropertyOp31
 70
     1
102
RTVSPropertyOp32
 70
     1
  0
XRECORD
  5
7CC5
102
{ACAD_REACTORS
330
7CC4
102
}
330
7CC4
100
AcDbXrecord
280
     1
102
RTVSPropertyOp0
 70
     1
102
RTVSPropertyOp1
 70
     1
102
RTVSPropertyOp2
 70
     1
102
RTVSPropertyOp3
 70
     1
102
RTVSPropertyOp4
 70
     1
102
RTVSPropertyOp5
 70
     1
102
RTVSPropertyOp6
 70
     1
102
RTVSPropertyOp7
 70
     1
102
RTVSPropertyOp8
 70
     1
102
RTVSPropertyOp9
 70
     1
102
RTVSPropertyOp10
 70
     1
102
RTVSPropertyOp11
 70
     1
102
RTVSPropertyOp12
 70
     1
102
RTVSPropertyOp13
 70
     1
102
RTVSPropertyOp14
 70
     1
102
RTVSPropertyOp15
 70
     1
102
RTVSPropertyOp16
 70
     1
102
RTVSPropertyOp17
 70
     1
102
RTVSPropertyOp18
 70
     1
102
RTVSPropertyOp19
 70
     1
102
RTVSPropertyOp20
 70
     1
102
RTVSPropertyOp21
 70
     1
102
RTVSPropertyOp22
 70
     1
102
RTVSPropertyOp23
 70
     1
102
RTVSPropertyOp24
 70
     1
102
RTVSPropertyOp25
 70
     1
102
RTVSPropertyOp26
 70
     1
102
RTVSPropertyOp27
 70
     1
102
RTVSPropertyOp28
 70
     1
102
RTVSPropertyOp29
 70
     1
102
RTVSPropertyOp30
 70
     1
102
RTVSPropertyOp31
 70
     1
102
RTVSPropertyOp32
 70
     1
  0
XRECORD
  5
7CD7
102
{ACAD_REACTORS
330
7CD6
102
}
330
7CD6
100
AcDbXrecord
280
     1
102
RTVSPropertyOp0
 70
     0
102
RTVSPropertyOp1
 70
     0
102
RTVSPropertyOp2
 70
     0
102
RTVSPropertyOp3
 70
     0
102
RTVSPropertyOp4
 70
     0
102
RTVSPropertyOp5
 70
     0
102
RTVSPropertyOp6
 70
     0
102
RTVSPropertyOp7
 70
     0
102
RTVSPropertyOp8
 70
     0
102
RTVSPropertyOp9
 70
     0
102
RTVSPropertyOp10
 70
     0
102
RTVSPropertyOp11
 70
     0
102
RTVSPropertyOp12
 70
     0
102
RTVSPropertyOp13
 70
     0
102
RTVSPropertyOp14
 70
     2
102
RTVSPropertyOp15
 70
     0
102
RTVSPropertyOp16
 70
     0
102
RTVSPropertyOp17
 70
     0
102
RTVSPropertyOp18
 70
     0
102
RTVSPropertyOp19
 70
     0
102
RTVSPropertyOp20
 70
     0
102
RTVSPropertyOp21
 70
     0
102
RTVSPropertyOp22
 70
     0
102
RTVSPropertyOp23
 70
     0
102
RTVSPropertyOp24
 70
     0
102
RTVSPropertyOp25
 70
     0
102
RTVSPropertyOp26
 70
     0
102
RTVSPropertyOp27
 70
     0
102
RTVSPropertyOp28
 70
     1
102
RTVSPropertyOp29
 70
     1
102
RTVSPropertyOp30
 70
     1
102
RTVSPropertyOp31
 70
     1
102
RTVSPropertyOp32
 70
     1
  0
XRECORD
  5
7CBD
102
{ACAD_REACTORS
330
7CBC
102
}
330
7CBC
100
AcDbXrecord
280
     1
102
RTVSPropertyOp0
 70
     1
102
RTVSPropertyOp1
 70
     1
102
RTVSPropertyOp2
 70
     1
102
RTVSPropertyOp3
 70
     1
102
RTVSPropertyOp4
 70
     1
102
RTVSPropertyOp5
 70
     1
102
RTVSPropertyOp6
 70
     1
102
RTVSPropertyOp7
 70
     1
102
RTVSPropertyOp8
 70
     1
102
RTVSPropertyOp9
 70
     1
102
RTVSPropertyOp10
 70
     1
102
RTVSPropertyOp11
 70
     1
102
RTVSPropertyOp12
 70
     1
102
RTVSPropertyOp13
 70
     1
102
RTVSPropertyOp14
 70
     1
102
RTVSPropertyOp15
 70
     1
102
RTVSPropertyOp16
 70
     1
102
RTVSPropertyOp17
 70
     1
102
RTVSPropertyOp18
 70
     1
102
RTVSPropertyOp19
 70
     1
102
RTVSPropertyOp20
 70
     1
102
RTVSPropertyOp21
 70
     1
102
RTVSPropertyOp22
 70
     1
102
RTVSPropertyOp23
 70
     1
102
RTVSPropertyOp24
 70
     1
102
RTVSPropertyOp25
 70
     1
102
RTVSPropertyOp26
 70
     1
102
RTVSPropertyOp27
 70
     1
102
RTVSPropertyOp28
 70
     1
102
RTVSPropertyOp29
 70
     1
102
RTVSPropertyOp30
 70
     1
102
RTVSPropertyOp31
 70
     1
102
RTVSPropertyOp32
 70
     1
  0
XRECORD
  5
7CD3
102
{ACAD_REACTORS
330
7CD2
102
}
330
7CD2
100
AcDbXrecord
280
     1
102
RTVSPropertyOp0
 70
     1
102
RTVSPropertyOp1
 70
     1
102
RTVSPropertyOp2
 70
     1
102
RTVSPropertyOp3
 70
     1
102
RTVSPropertyOp4
 70
     1
102
RTVSPropertyOp5
 70
     1
102
RTVSPropertyOp6
 70
     1
102
RTVSPropertyOp7
 70
     1
102
RTVSPropertyOp8
 70
     1
102
RTVSPropertyOp9
 70
     1
102
RTVSPropertyOp10
 70
     1
102
RTVSPropertyOp11
 70
     1
102
RTVSPropertyOp12
 70
     1
102
RTVSPropertyOp13
 70
     1
102
RTVSPropertyOp14
 70
     1
102
RTVSPropertyOp15
 70
     1
102
RTVSPropertyOp16
 70
     1
102
RTVSPropertyOp17
 70
     1
102
RTVSPropertyOp18
 70
     1
102
RTVSPropertyOp19
 70
     1
102
RTVSPropertyOp20
 70
     1
102
RTVSPropertyOp21
 70
     1
102
RTVSPropertyOp22
 70
     1
102
RTVSPropertyOp23
 70
     1
102
RTVSPropertyOp24
 70
     1
102
RTVSPropertyOp25
 70
     1
102
RTVSPropertyOp26
 70
     1
102
RTVSPropertyOp27
 70
     1
102
RTVSPropertyOp28
 70
     1
102
RTVSPropertyOp29
 70
     1
102
RTVSPropertyOp30
 70
     1
102
RTVSPropertyOp31
 70
     1
102
RTVSPropertyOp32
 70
     1
  0
XRECORD
  5
7CD1
102
{ACAD_REACTORS
330
7CD0
102
}
330
7CD0
100
AcDbXrecord
280
     1
102
RTVSPropertyOp0
 70
     1
102
RTVSPropertyOp1
 70
     1
102
RTVSPropertyOp2
 70
     1
102
RTVSPropertyOp3
 70
     1
102
RTVSPropertyOp4
 70
     1
102
RTVSPropertyOp5
 70
     1
102
RTVSPropertyOp6
 70
     1
102
RTVSPropertyOp7
 70
     1
102
RTVSPropertyOp8
 70
     1
102
RTVSPropertyOp9
 70
     1
102
RTVSPropertyOp10
 70
     1
102
RTVSPropertyOp11
 70
     1
102
RTVSPropertyOp12
 70
     1
102
RTVSPropertyOp13
 70
     1
102
RTVSPropertyOp14
 70
     1
102
RTVSPropertyOp15
 70
     1
102
RTVSPropertyOp16
 70
     1
102
RTVSPropertyOp17
 70
     1
102
RTVSPropertyOp18
 70
     1
102
RTVSPropertyOp19
 70
     1
102
RTVSPropertyOp20
 70
     1
102
RTVSPropertyOp21
 70
     1
102
RTVSPropertyOp22
 70
     1
102
RTVSPropertyOp23
 70
     1
102
RTVSPropertyOp24
 70
     1
102
RTVSPropertyOp25
 70
     1
102
RTVSPropertyOp26
 70
     1
102
RTVSPropertyOp27
 70
     1
102
RTVSPropertyOp28
 70
     1
102
RTVSPropertyOp29
 70
     1
102
RTVSPropertyOp30
 70
     1
102
RTVSPropertyOp31
 70
     1
102
RTVSPropertyOp32
 70
     1
  0
XRECORD
  5
7CCB
102
{ACAD_REACTORS
330
7CCA
102
}
330
7CCA
100
AcDbXrecord
280
     1
102
RTVSPropertyOp0
 70
     1
102
RTVSPropertyOp1
 70
     1
102
RTVSPropertyOp2
 70
     1
102
RTVSPropertyOp3
 70
     1
102
RTVSPropertyOp4
 70
     1
102
RTVSPropertyOp5
 70
     1
102
RTVSPropertyOp6
 70
     1
102
RTVSPropertyOp7
 70
     1
102
RTVSPropertyOp8
 70
     1
102
RTVSPropertyOp9
 70
     1
102
RTVSPropertyOp10
 70
     1
102
RTVSPropertyOp11
 70
     1
102
RTVSPropertyOp12
 70
     1
102
RTVSPropertyOp13
 70
     1
102
RTVSPropertyOp14
 70
     1
102
RTVSPropertyOp15
 70
     1
102
RTVSPropertyOp16
 70
     1
102
RTVSPropertyOp17
 70
     1
102
RTVSPropertyOp18
 70
     1
102
RTVSPropertyOp19
 70
     1
102
RTVSPropertyOp20
 70
     1
102
RTVSPropertyOp21
 70
     1
102
RTVSPropertyOp22
 70
     1
102
RTVSPropertyOp23
 70
     1
102
RTVSPropertyOp24
 70
     1
102
RTVSPropertyOp25
 70
     1
102
RTVSPropertyOp26
 70
     1
102
RTVSPropertyOp27
 70
     1
102
RTVSPropertyOp28
 70
     1
102
RTVSPropertyOp29
 70
     1
102
RTVSPropertyOp30
 70
     1
102
RTVSPropertyOp31
 70
     1
102
RTVSPropertyOp32
 70
     1
  0
XRECORD
  5
7CCD
102
{ACAD_REACTORS
330
7CCC
102
}
330
7CCC
100
AcDbXrecord
280
     1
102
RTVSPropertyOp0
 70
     1
102
RTVSPropertyOp1
 70
     1
102
RTVSPropertyOp2
 70
     1
102
RTVSPropertyOp3
 70
     1
102
RTVSPropertyOp4
 70
     1
102
RTVSPropertyOp5
 70
     1
102
RTVSPropertyOp6
 70
     1
102
RTVSPropertyOp7
 70
     1
102
RTVSPropertyOp8
 70
     1
102
RTVSPropertyOp9
 70
     1
102
RTVSPropertyOp10
 70
     1
102
RTVSPropertyOp11
 70
     1
102
RTVSPropertyOp12
 70
     1
102
RTVSPropertyOp13
 70
     1
102
RTVSPropertyOp14
 70
     1
102
RTVSPropertyOp15
 70
     1
102
RTVSPropertyOp16
 70
     1
102
RTVSPropertyOp17
 70
     1
102
RTVSPropertyOp18
 70
     1
102
RTVSPropertyOp19
 70
     1
102
RTVSPropertyOp20
 70
     1
102
RTVSPropertyOp21
 70
     1
102
RTVSPropertyOp22
 70
     1
102
RTVSPropertyOp23
 70
     1
102
RTVSPropertyOp24
 70
     1
102
RTVSPropertyOp25
 70
     1
102
RTVSPropertyOp26
 70
     1
102
RTVSPropertyOp27
 70
     1
102
RTVSPropertyOp28
 70
     1
102
RTVSPropertyOp29
 70
     1
102
RTVSPropertyOp30
 70
     1
102
RTVSPropertyOp31
 70
     1
102
RTVSPropertyOp32
 70
     1
  0
XRECORD
  5
7CC3
102
{ACAD_REACTORS
330
7CC2
102
}
330
7CC2
100
AcDbXrecord
280
     1
102
RTVSPropertyOp0
 70
     1
102
RTVSPropertyOp1
 70
     1
102
RTVSPropertyOp2
 70
     1
102
RTVSPropertyOp3
 70
     1
102
RTVSPropertyOp4
 70
     1
102
RTVSPropertyOp5
 70
     1
102
RTVSPropertyOp6
 70
     1
102
RTVSPropertyOp7
 70
     1
102
RTVSPropertyOp8
 70
     1
102
RTVSPropertyOp9
 70
     1
102
RTVSPropertyOp10
 70
     1
102
RTVSPropertyOp11
 70
     1
102
RTVSPropertyOp12
 70
     1
102
RTVSPropertyOp13
 70
     1
102
RTVSPropertyOp14
 70
     1
102
RTVSPropertyOp15
 70
     1
102
RTVSPropertyOp16
 70
     1
102
RTVSPropertyOp17
 70
     1
102
RTVSPropertyOp18
 70
     1
102
RTVSPropertyOp19
 70
     1
102
RTVSPropertyOp20
 70
     1
102
RTVSPropertyOp21
 70
     1
102
RTVSPropertyOp22
 70
     1
102
RTVSPropertyOp23
 70
     1
102
RTVSPropertyOp24
 70
     1
102
RTVSPropertyOp25
 70
     1
102
RTVSPropertyOp26
 70
     1
102
RTVSPropertyOp27
 70
     1
102
RTVSPropertyOp28
 70
     1
102
RTVSPropertyOp29
 70
     1
102
RTVSPropertyOp30
 70
     1
102
RTVSPropertyOp31
 70
     1
102
RTVSPropertyOp32
 70
     1
  0
XRECORD
  5
7CB7
102
{ACAD_REACTORS
330
7CB6
102
}
330
7CB6
100
AcDbXrecord
280
     1
102
RTVSPropertyOp0
 70
     1
102
RTVSPropertyOp1
 70
     1
102
RTVSPropertyOp2
 70
     1
102
RTVSPropertyOp3
 70
     1
102
RTVSPropertyOp4
 70
     1
102
RTVSPropertyOp5
 70
     1
102
RTVSPropertyOp6
 70
     1
102
RTVSPropertyOp7
 70
     1
102
RTVSPropertyOp8
 70
     1
102
RTVSPropertyOp9
 70
     1
102
RTVSPropertyOp10
 70
     1
102
RTVSPropertyOp11
 70
     1
102
RTVSPropertyOp12
 70
     1
102
RTVSPropertyOp13
 70
     1
102
RTVSPropertyOp14
 70
     1
102
RTVSPropertyOp15
 70
     1
102
RTVSPropertyOp16
 70
     1
102
RTVSPropertyOp17
 70
     1
102
RTVSPropertyOp18
 70
     1
102
RTVSPropertyOp19
 70
     1
102
RTVSPropertyOp20
 70
     1
102
RTVSPropertyOp21
 70
     1
102
RTVSPropertyOp22
 70
     1
102
RTVSPropertyOp23
 70
     1
102
RTVSPropertyOp24
 70
     1
102
RTVSPropertyOp25
 70
     1
102
RTVSPropertyOp26
 70
     1
102
RTVSPropertyOp27
 70
     1
102
RTVSPropertyOp28
 70
     1
102
RTVSPropertyOp29
 70
     1
102
RTVSPropertyOp30
 70
     1
102
RTVSPropertyOp31
 70
     1
102
RTVSPropertyOp32
 70
     1
  0
XRECORD
  5
7CCF
102
{ACAD_REACTORS
330
7CCE
102
}
330
7CCE
100
AcDbXrecord
280
     1
102
RTVSPropertyOp0
 70
     1
102
RTVSPropertyOp1
 70
     1
102
RTVSPropertyOp2
 70
     1
102
RTVSPropertyOp3
 70
     1
102
RTVSPropertyOp4
 70
     1
102
RTVSPropertyOp5
 70
     1
102
RTVSPropertyOp6
 70
     1
102
RTVSPropertyOp7
 70
     1
102
RTVSPropertyOp8
 70
     1
102
RTVSPropertyOp9
 70
     1
102
RTVSPropertyOp10
 70
     1
102
RTVSPropertyOp11
 70
     1
102
RTVSPropertyOp12
 70
     1
102
RTVSPropertyOp13
 70
     1
102
RTVSPropertyOp14
 70
     1
102
RTVSPropertyOp15
 70
     1
102
RTVSPropertyOp16
 70
     1
102
RTVSPropertyOp17
 70
     1
102
RTVSPropertyOp18
 70
     1
102
RTVSPropertyOp19
 70
     1
102
RTVSPropertyOp20
 70
     1
102
RTVSPropertyOp21
 70
     1
102
RTVSPropertyOp22
 70
     1
102
RTVSPropertyOp23
 70
     1
102
RTVSPropertyOp24
 70
     1
102
RTVSPropertyOp25
 70
     1
102
RTVSPropertyOp26
 70
     1
102
RTVSPropertyOp27
 70
     1
102
RTVSPropertyOp28
 70
     1
102
RTVSPropertyOp29
 70
     1
102
RTVSPropertyOp30
 70
     1
102
RTVSPropertyOp31
 70
     1
102
RTVSPropertyOp32
 70
     1
  0
ENDSEC
  0
EOF
