  0
SECTION
  2
HEADER
  9
$ACADVER
  1
AC1018
  9
$ACADMAINTVER
 70
   104
  9
$DWGCODEPAGE
  3
ANSI_932
  9
$LASTSAVEDBY
  1
HON1000HC
  9
$INSBASE
 10
0.0
 20
0.0
 30
0.0
  9
$EXTMIN
 10
2693.480357944419
 20
503.1240607209615
 30
-0.0015258207003583
  9
$EXTMAX
 10
3630.863370571225
 20
788.6003063541202
 30
0.0000000349246037
  9
$LIMMIN
 10
0.0
 20
0.0
  9
$LIMMAX
 10
420.0
 20
297.0
  9
$ORTHOMODE
 70
     0
  9
$REGENMODE
 70
     1
  9
$FILLMODE
 70
     1
  9
$QTEXTMODE
 70
     0
  9
$MIRRTEXT
 70
     1
  9
$LTSCALE
 40
1.0
  9
$ATTMODE
 70
     1
  9
$TEXTSIZE
 40
5.0
  9
$TRACEWID
 40
0.05
  9
$TEXTSTYLE
  7
ACAD
  9
$CLAYER
  8
0
  9
$CELTYPE
  6
CONTINUOUS
  9
$CECOLOR
 62
   256
  9
$CELTSCALE
 40
1.0
  9
$DISPSILH
 70
     0
  9
$DIMSCALE
 40
1.0
  9
$DIMASZ
 40
1.0
  9
$DIMEXO
 40
0.0
  9
$DIMDLI
 40
0.38
  9
$DIMRND
 40
0.0
  9
$DIMDLE
 40
0.0
  9
$DIMEXE
 40
0.0
  9
$DIMTP
 40
0.0
  9
$DIMTM
 40
0.0
  9
$DIMTXT
 40
9.0
  9
$DIMCEN
 40
0.09
  9
$DIMTSZ
 40
0.0
  9
$DIMTOL
 70
     0
  9
$DIMLIM
 70
     0
  9
$DIMTIH
 70
     0
  9
$DIMTOH
 70
     1
  9
$DIMSE1
 70
     0
  9
$DIMSE2
 70
     0
  9
$DIMTAD
 70
     1
  9
$DIMZIN
 70
     0
  9
$DIMBLK
  1
Dot
  9
$DIMASO
 70
     1
  9
$DIMSHO
 70
     1
  9
$DIMPOST
  1

  9
$DIMAPOST
  1

  9
$DIMALT
 70
     0
  9
$DIMALTD
 70
     2
  9
$DIMALTF
 40
25.4
  9
$DIMLFAC
 40
1.0
  9
$DIMTOFL
 70
     0
  9
$DIMTVP
 40
0.0
  9
$DIMTIX
 70
     1
  9
$DIMSOXD
 70
     0
  9
$DIMSAH
 70
     0
  9
$DIMBLK1
  1

  9
$DIMBLK2
  1

  9
$DIMSTYLE
  2
AutoCAD
  9
$DIMCLRD
 70
     4
  9
$DIMCLRE
 70
     4
  9
$DIMCLRT
 70
     3
  9
$DIMTFAC
 40
1.0
  9
$DIMGAP
 40
3.0
  9
$DIMJUST
 70
     0
  9
$DIMSD1
 70
     0
  9
$DIMSD2
 70
     0
  9
$DIMTOLJ
 70
     1
  9
$DIMTZIN
 70
     0
  9
$DIMALTZ
 70
     0
  9
$DIMALTTZ
 70
     0
  9
$DIMUPT
 70
     0
  9
$DIMDEC
 70
     0
  9
$DIMTDEC
 70
     0
  9
$DIMALTU
 70
     2
  9
$DIMALTTD
 70
     2
  9
$DIMTXSTY
  7
ACAD
  9
$DIMAUNIT
 70
     0
  9
$DIMADEC
 70
     0
  9
$DIMALTRND
 40
0.0
  9
$DIMAZIN
 70
     0
  9
$DIMDSEP
 70
    46
  9
$DIMATFIT
 70
     0
  9
$DIMFRAC
 70
     0
  9
$DIMLDRBLK
  1
None
  9
$DIMLUNIT
 70
     2
  9
$DIMLWD
 70
    -2
  9
$DIMLWE
 70
    -2
  9
$DIMTMOVE
 70
     0
  9
$LUNITS
 70
     2
  9
$LUPREC
 70
     4
  9
$SKETCHINC
 40
0.1
  9
$FILLETRAD
 40
0.0
  9
$AUNITS
 70
     0
  9
$AUPREC
 70
     0
  9
$MENU
  1
.
  9
$ELEVATION
 40
0.0
  9
$PELEVATION
 40
0.0
  9
$THICKNESS
 40
0.0
  9
$LIMCHECK
 70
     0
  9
$CHAMFERA
 40
0.0
  9
$CHAMFERB
 40
0.0
  9
$CHAMFERC
 40
0.0
  9
$CHAMFERD
 40
0.0
  9
$SKPOLY
 70
     0
  9
$TDCREATE
 40
2454316.693457674
  9
$TDUCREATE
 40
2454316.318457674
  9
$TDUPDATE
 40
2456477.554676667
  9
$TDUUPDATE
 40
2456477.179676667
  9
$TDINDWG
 40
0.9482543056
  9
$TDUSRTIMER
 40
0.9482543056
  9
$USRTIMER
 70
     1
  9
$ANGBASE
 50
0.0
  9
$ANGDIR
 70
     0
  9
$PDMODE
 70
     0
  9
$PDSIZE
 40
0.0
  9
$PLINEWID
 40
0.0
  9
$SPLFRAME
 70
     0
  9
$SPLINETYPE
 70
     6
  9
$SPLINESEGS
 70
     8
  9
$HANDSEED
  5
86A0
  9
$SURFTAB1
 70
     6
  9
$SURFTAB2
 70
     6
  9
$SURFTYPE
 70
     6
  9
$SURFU
 70
     6
  9
$SURFV
 70
     6
  9
$UCSBASE
  2

  9
$UCSNAME
  2

  9
$UCSORG
 10
0.0
 20
0.0
 30
0.0
  9
$UCSXDIR
 10
1.0
 20
0.0
 30
0.0
  9
$UCSYDIR
 10
0.0
 20
1.0
 30
0.0
  9
$UCSORTHOREF
  2

  9
$UCSORTHOVIEW
 70
     0
  9
$UCSORGTOP
 10
0.0
 20
0.0
 30
0.0
  9
$UCSORGBOTTOM
 10
0.0
 20
0.0
 30
0.0
  9
$UCSORGLEFT
 10
0.0
 20
0.0
 30
0.0
  9
$UCSORGRIGHT
 10
0.0
 20
0.0
 30
0.0
  9
$UCSORGFRONT
 10
0.0
 20
0.0
 30
0.0
  9
$UCSORGBACK
 10
0.0
 20
0.0
 30
0.0
  9
$PUCSBASE
  2

  9
$PUCSNAME
  2

  9
$PUCSORG
 10
0.0
 20
0.0
 30
0.0
  9
$PUCSXDIR
 10
1.0
 20
0.0
 30
0.0
  9
$PUCSYDIR
 10
0.0
 20
1.0
 30
0.0
  9
$PUCSORTHOREF
  2

  9
$PUCSORTHOVIEW
 70
     0
  9
$PUCSORGTOP
 10
0.0
 20
0.0
 30
0.0
  9
$PUCSORGBOTTOM
 10
0.0
 20
0.0
 30
0.0
  9
$PUCSORGLEFT
 10
0.0
 20
0.0
 30
0.0
  9
$PUCSORGRIGHT
 10
0.0
 20
0.0
 30
0.0
  9
$PUCSORGFRONT
 10
0.0
 20
0.0
 30
0.0
  9
$PUCSORGBACK
 10
0.0
 20
0.0
 30
0.0
  9
$USERI1
 70
     0
  9
$USERI2
 70
     0
  9
$USERI3
 70
     0
  9
$USERI4
 70
     0
  9
$USERI5
 70
     0
  9
$USERR1
 40
0.0
  9
$USERR2
 40
0.0
  9
$USERR3
 40
0.0
  9
$USERR4
 40
0.0
  9
$USERR5
 40
0.0
  9
$WORLDVIEW
 70
     1
  9
$SHADEDGE
 70
     3
  9
$SHADEDIF
 70
    70
  9
$TILEMODE
 70
     1
  9
$MAXACTVP
 70
    48
  9
$PINSBASE
 10
0.0
 20
0.0
 30
0.0
  9
$PLIMCHECK
 70
     0
  9
$PEXTMIN
 10
1.000000000000000E+20
 20
1.000000000000000E+20
 30
1.000000000000000E+20
  9
$PEXTMAX
 10
-1.000000000000000E+20
 20
-1.000000000000000E+20
 30
-1.000000000000000E+20
  9
$PLIMMIN
 10
0.0
 20
0.0
  9
$PLIMMAX
 10
12.0
 20
9.0
  9
$UNITMODE
 70
     0
  9
$VISRETAIN
 70
     0
  9
$PLINEGEN
 70
     0
  9
$PSLTSCALE
 70
     1
  9
$TREEDEPTH
 70
  3020
  9
$CMLSTYLE
  2
Standard
  9
$CMLJUST
 70
     0
  9
$CMLSCALE
 40
1.0
  9
$PROXYGRAPHICS
 70
     1
  9
$MEASUREMENT
 70
     0
  9
$CELWEIGHT
370
    -1
  9
$ENDCAPS
280
     0
  9
$JOINSTYLE
280
     0
  9
$LWDISPLAY
290
     0
  9
$INSUNITS
 70
     0
  9
$HYPERLINKBASE
  1

  9
$STYLESHEET
  1
monochrome.ctb
  9
$XEDIT
290
     1
  9
$CEPSNTYPE
380
     0
  9
$PSTYLEMODE
290
     1
  9
$FINGERPRINTGUID
  2
{CC7D6DEE-A9F1-4F3E-AC95-C84B62CCA3FD}
  9
$VERSIONGUID
  2
{A1DEB35D-6A52-4ED6-8193-593FB18F1E21}
  9
$EXTNAMES
290
     1
  9
$PSVPSCALE
 40
0.0
  9
$OLESTARTUP
290
     0
  9
$SORTENTS
280
   127
  9
$INDEXCTL
280
     0
  9
$HIDETEXT
280
     0
  9
$XCLIPFRAME
290
     0
  9
$HALOGAP
280
     0
  9
$OBSCOLOR
 70
   257
  9
$OBSLTYPE
280
     0
  9
$INTERSECTIONDISPLAY
280
     0
  9
$INTERSECTIONCOLOR
 70
   257
  9
$DIMASSOC
280
     1
  9
$PROJECTNAME
  1

  0
ENDSEC
  0
SECTION
  2
CLASSES
  0
CLASS
  1
ACDBDICTIONARYWDFLT
  2
AcDbDictionaryWithDefault
  3
ObjectDBX Classes
 90
        0
 91
        1
280
     0
281
     0
  0
CLASS
  1
DICTIONARYVAR
  2
AcDbDictionaryVar
  3
ObjectDBX Classes
 90
        0
 91
       13
280
     0
281
     0
  0
CLASS
  1
MATERIAL
  2
AcDbMaterial
  3
ObjectDBX Classes
 90
     1153
 91
        3
280
     0
281
     0
  0
CLASS
  1
VISUALSTYLE
  2
AcDbVisualStyle
  3
ObjectDBX Classes
 90
     4095
 91
       26
280
     0
281
     0
  0
CLASS
  1
TABLESTYLE
  2
AcDbTableStyle
  3
ObjectDBX Classes
 90
     4095
 91
        1
280
     0
281
     0
  0
CLASS
  1
SCALE
  2
AcDbScale
  3
ObjectDBX Classes
 90
     1153
 91
       17
280
     0
281
     0
  0
CLASS
  1
MLEADERSTYLE
  2
AcDbMLeaderStyle
  3
ACDB_MLEADERSTYLE_CLASS
 90
     4095
 91
        1
280
     0
281
     0
  0
CLASS
  1
SORTENTSTABLE
  2
AcDbSortentsTable
  3
ObjectDBX Classes
 90
        0
 91
        2
280
     0
281
     0
  0
CLASS
  1
CELLSTYLEMAP
  2
AcDbCellStyleMap
  3
ObjectDBX Classes
 90
     1152
 91
        2
280
     0
281
     0
  0
CLASS
  1
ACDBSECTIONVIEWSTYLE
  2
AcDbSectionViewStyle
  3
ObjectDBX Classes
 90
     1025
 91
        2
280
     0
281
     0
  0
CLASS
  1
ACDBDETAILVIEWSTYLE
  2
AcDbDetailViewStyle
  3
ObjectDBX Classes
 90
     1025
 91
        2
280
     0
281
     0
  0
ENDSEC
  0
SECTION
  2
TABLES
  0
TABLE
  2
VPORT
  5
8
102
{ACAD_XDICTIONARY
360
630F
102
}
330
0
100
AcDbSymbolTable
 70
     1
  0
VPORT
  5
62A5
330
8
100
AcDbSymbolTableRecord
100
AcDbViewportTableRecord
  2
*Active
 70
     0
 10
0.0
 20
0.0
 11
1.0
 21
1.0
 12
2980.381356413222
 22
776.2481418535146
 13
0.0
 23
0.0
 14
1.0
 24
1.0
 15
0.0
 25
0.0
 16
0.0
 26
0.0
 36
1.0
 17
0.0
 27
0.0
 37
0.0
 40
297.966422731228
 41
2.678321678321678
 42
50.0
 43
0.0
 44
0.0
 50
0.0
 51
0.0
 71
     0
 72
   100
 73
     1
 74
     1
 75
     0
 76
     0
 77
     0
 78
     0
281
     0
 65
     1
110
0.0
120
0.0
130
0.0
111
1.0
121
0.0
131
0.0
112
0.0
122
1.0
132
0.0
 79
     0
146
0.0
1001
ACAD_NAV_VCDISPLAY
1070
     3
  0
ENDTAB
  0
TABLE
  2
LTYPE
  5
5
330
0
100
AcDbSymbolTable
 70
     5
  0
LTYPE
  5
13
330
5
100
AcDbSymbolTableRecord
100
AcDbLinetypeTableRecord
  2
ByBlock
 70
     0
  3

 72
    65
 73
     0
 40
0.0
  0
LTYPE
  5
14
330
5
100
AcDbSymbolTableRecord
100
AcDbLinetypeTableRecord
  2
ByLayer
 70
     0
  3

 72
    65
 73
     0
 40
0.0
  0
LTYPE
  5
15
330
5
100
AcDbSymbolTableRecord
100
AcDbLinetypeTableRecord
  2
CONTINUOUS
 70
     0
  3
実線
 72
    65
 73
     0
 40
0.0
  0
LTYPE
  5
25
330
5
100
AcDbSymbolTableRecord
100
AcDbLinetypeTableRecord
  2
CENTER1
 70
     0
  3
----- - ----- - ----- - ----- - 
 72
    65
 73
     4
 40
10.0
 49
6.25
 74
     0
 49
-1.25
 74
     0
 49
1.25
 74
     0
 49
-1.25
 74
     0
  0
LTYPE
  5
44
330
5
100
AcDbSymbolTableRecord
100
AcDbLinetypeTableRecord
  2
PLINE2
 70
     0
  3
------     -----------     -----
 72
    65
 73
     2
 40
3.0
 49
2.1
 74
     0
 49
-0.9
 74
     0
  0
LTYPE
  5
75C1
330
5
100
AcDbSymbolTableRecord
100
AcDbLinetypeTableRecord
  2
DASHED1
 70
     0
  3
--  --  --  --  --  --  --  --  
 72
    65
 73
     2
 40
2.5
 49
1.25
 74
     0
 49
-1.25
 74
     0
  0
LTYPE
  5
7985
330
5
100
AcDbSymbolTableRecord
100
AcDbLinetypeTableRecord
  2
HASEN
 70
     0
  3
hasen _ _ _ _ _ _ _ _ _ _ _ _ _ _ _ _ _
 72
    65
 73
     2
 40
2.5
 49
1.5
 74
     0
 49
-1.0
 74
     0
  0
ENDTAB
  0
TABLE
  2
LAYER
  5
2
102
{ACAD_XDICTIONARY
360
175
102
}
330
0
100
AcDbSymbolTable
 70
     6
  0
LAYER
  5
10
102
{ACAD_XDICTIONARY
360
634F
102
}
330
2
100
AcDbSymbolTableRecord
100
AcDbLayerTableRecord
  2
0
 70
     0
 62
     7
  6
CONTINUOUS
370
    -3
390
F
  0
LAYER
  5
128
330
2
100
AcDbSymbolTableRecord
100
AcDbLayerTableRecord
  2
Defpoints
 70
     0
 62
     7
  6
CONTINUOUS
290
     0
370
    -3
390
F
  0
LAYER
  5
178
102
{ACAD_XDICTIONARY
360
6351
102
}
330
2
100
AcDbSymbolTableRecord
100
AcDbLayerTableRecord
  2
寸法
 70
     0
 62
     7
  6
CONTINUOUS
370
    -3
390
F
  0
LAYER
  5
179
102
{ACAD_XDICTIONARY
360
6353
102
}
330
2
100
AcDbSymbolTableRecord
100
AcDbLayerTableRecord
  2
躯体と製品
 70
     0
 62
     7
  6
CONTINUOUS
370
    -3
390
F
  0
LAYER
  5
4F62
102
{ACAD_XDICTIONARY
360
6355
102
}
330
2
100
AcDbSymbolTableRecord
100
AcDbLayerTableRecord
  2
文字-記号
 70
     0
 62
     7
  6
CONTINUOUS
370
    -3
390
F
  0
LAYER
  5
63AA
102
{ACAD_XDICTIONARY
360
63AB
102
}
330
2
100
AcDbSymbolTableRecord
100
AcDbLayerTableRecord
  2
中心線
 70
     0
 62
     7
  6
CONTINUOUS
370
    -3
390
F
1001
AcAecLayerStandard
1000

1000

1001
AcCmTransparency
1071
        0
  0
ENDTAB
  0
TABLE
  2
STYLE
  5
3
330
0
100
AcDbSymbolTable
 70
     5
  0
STYLE
  5
11
330
3
100
AcDbSymbolTableRecord
100
AcDbTextStyleTableRecord
  2
STANDARD
 70
     0
 40
0.0
 41
1.0
 50
0.0
 71
     0
 42
0.2
  3
txt.shx
  4
extfont.shx
  0
STYLE
  5
123
330
3
100
AcDbSymbolTableRecord
100
AcDbTextStyleTableRecord
  2
ACAD
 70
     0
 40
0.0
 41
0.8
 50
0.0
 71
     0
 42
5.0
  3
romans.shx
  4
extfont.shx
  0
STYLE
  5
7802
330
3
100
AcDbSymbolTableRecord
100
AcDbTextStyleTableRecord
  2
ＭＳ ゴシック
 70
     0
 40
0.0
 41
1.0
 50
0.0
 71
     0
 42
2.5
  3
MS Gothic.ttf
  4

1001
ACAD
1000
MS Gothic
1071
    32769
  0
STYLE
  5
843B
330
3
100
AcDbSymbolTableRecord
100
AcDbTextStyleTableRecord
  2
FNT_T
 70
     0
 40
0.0
 41
1.0
 50
0.0
 71
     0
 42
300.0
  3
MS Gothic.ttf
  4

1001
ACAD
1000
MS Gothic
1071
    32817
  0
ENDTAB
  0
TABLE
  2
VIEW
  5
6
330
0
100
AcDbSymbolTable
 70
     1
  0
ENDTAB
  0
TABLE
  2
UCS
  5
7
330
0
100
AcDbSymbolTable
 70
     0
  0
ENDTAB
  0
TABLE
  2
APPID
  5
9
330
0
100
AcDbSymbolTable
 70
    17
  0
APPID
  5
12
330
9
100
AcDbSymbolTableRecord
100
AcDbRegAppTableRecord
  2
ACAD
 70
     0
  0
APPID
  5
6357
330
9
100
AcDbSymbolTableRecord
100
AcDbRegAppTableRecord
  2
ACAD_NAV_VCDISPLAY
 70
     0
  0
APPID
  5
63AC
330
9
100
AcDbSymbolTableRecord
100
AcDbRegAppTableRecord
  2
ACAD_DSTYLE_DIMJAG
 70
     0
  0
APPID
  5
63AD
330
9
100
AcDbSymbolTableRecord
100
AcDbRegAppTableRecord
  2
ACAD_DSTYLE_DIMTALN
 70
     0
  0
APPID
  5
63AE
330
9
100
AcDbSymbolTableRecord
100
AcDbRegAppTableRecord
  2
AcAecLayerStandard
 70
     0
  0
APPID
  5
63AF
330
9
100
AcDbSymbolTableRecord
100
AcDbRegAppTableRecord
  2
AcCmTransparency
 70
     0
  0
APPID
  5
7079
330
9
100
AcDbSymbolTableRecord
100
AcDbRegAppTableRecord
  2
ACAD_EXEMPT_FROM_CAD_STANDARDS
 70
     0
  0
APPID
  5
718F
330
9
100
AcDbSymbolTableRecord
100
AcDbRegAppTableRecord
  2
AcadAnnoPO
 70
     0
  0
APPID
  5
742C
330
9
100
AcDbSymbolTableRecord
100
AcDbRegAppTableRecord
  2
ACAD_MLEADERVER
 70
     0
  0
APPID
  5
7805
330
9
100
AcDbSymbolTableRecord
100
AcDbRegAppTableRecord
  2
ACAD_PSEXT
 70
     0
  0
APPID
  5
836F
330
9
100
AcDbSymbolTableRecord
100
AcDbRegAppTableRecord
  2
AcadAnnoMonitorAlertIconDisabled
 70
     0
  0
APPID
  5
843E
330
9
100
AcDbSymbolTableRecord
100
AcDbRegAppTableRecord
  2
ACAD_DSTYLE_DIMTEXT_FILL
 70
     0
  0
APPID
  5
843F
330
9
100
AcDbSymbolTableRecord
100
AcDbRegAppTableRecord
  2
PLOTTRANSPARENCY
 70
     0
  0
APPID
  5
85C4
330
9
100
AcDbSymbolTableRecord
100
AcDbRegAppTableRecord
  2
ACAD_DSTYLE_DIMARC_LENGTH_SYMBOL
 70
     0
  0
APPID
  5
85C8
330
9
100
AcDbSymbolTableRecord
100
AcDbRegAppTableRecord
  2
ACAD_DSTYLE_DIM_LINETYPE
 70
     0
  0
APPID
  5
85C9
330
9
100
AcDbSymbolTableRecord
100
AcDbRegAppTableRecord
  2
ACAD_DSTYLE_DIM_EXT1_LINETYPE
 70
     0
  0
APPID
  5
85CA
330
9
100
AcDbSymbolTableRecord
100
AcDbRegAppTableRecord
  2
ACAD_DSTYLE_DIM_EXT2_LINETYPE
 70
     0
  0
ENDTAB
  0
TABLE
  2
DIMSTYLE
  5
A
330
0
100
AcDbSymbolTable
 70
     7
100
AcDbDimStyleTable
 71
     1
340
126
  0
DIMSTYLE
105
11C
330
A
100
AcDbSymbolTableRecord
100
AcDbDimStyleTableRecord
  2
Standard
 70
     0
340
11
  0
DIMSTYLE
105
126
102
{ACAD_REACTORS
330
82ED
330
8482
330
8483
330
8485
102
}
330
A
100
AcDbSymbolTableRecord
100
AcDbDimStyleTableRecord
  2
AutoCAD
 70
     0
 41
1.0
 42
0.0
 44
0.0
 73
     0
 77
     1
140
9.0
147
3.0
174
     1
176
     4
177
     4
178
     3
271
     0
272
     0
289
     0
340
123
341
15B0
342
11E
1001
ACAD_DSTYLE_DIMJAG
1070
   388
1040
1.5
1001
ACAD_DSTYLE_DIMTALN
1070
   392
1070
     0
  0
DIMSTYLE
105
7803
330
A
100
AcDbSymbolTableRecord
100
AcDbDimStyleTableRecord
  2
ISO-25
 70
     0
 41
2.5
 42
0.625
 43
3.75
 44
1.25
 73
     0
 74
     0
 77
     1
 78
     8
140
2.5
141
2.5
143
0.03937007874016
147
0.625
171
     3
172
     1
271
     2
272
     2
274
     3
278
    44
283
     0
284
     8
340
11
  0
DIMSTYLE
105
7804
330
A
100
AcDbSymbolTableRecord
100
AcDbDimStyleTableRecord
  2
DimStyle
 70
     0
 41
2.5
 42
0.625
 43
3.75
 44
1.25
 73
     0
 74
     0
 77
     1
 78
     8
140
2.5
141
2.5
143
0.03937007874016
147
0.0
171
     3
172
     1
173
     1
271
     2
272
     2
274
     3
279
     2
283
     0
284
     8
340
11
1001
ACAD_DSTYLE_DIMARC_LENGTH_SYMBOL
1070
   379
1070
     2
  0
DIMSTYLE
105
843C
330
A
100
AcDbSymbolTableRecord
100
AcDbDimStyleTableRecord
  2
S-100
 70
     0
 41
125.0
 42
125.0
 43
750.0
 44
0.0
 48
0.000000001
 73
     0
 74
     0
 77
     1
 78
     8
140
250.0
141
0.0
143
0.03937007874016
147
75.0
171
     3
176
   256
177
   256
178
   256
271
     0
272
     0
274
     3
277
     6
279
     1
283
     0
284
     8
340
843B
341
8437
342
8437
371
    -1
372
    -1
1001
ACAD_DSTYLE_DIMJAG
1070
   388
1040
1.5
1001
ACAD_DSTYLE_DIMTALN
1070
   392
1070
     0
1001
ACAD_DSTYLE_DIMTEXT_FILL
1070
   376
1070
     1
1070
   377
1004
1800000001000000000000C1000000000000000000000000
1001
ACAD_DSTYLE_DIM_LINETYPE
1070
   380
1005
14
1001
ACAD_DSTYLE_DIM_EXT1_LINETYPE
1070
   381
1005
14
1001
ACAD_DSTYLE_DIM_EXT2_LINETYPE
1070
   382
1005
14
  0
DIMSTYLE
105
843D
330
A
100
AcDbSymbolTableRecord
100
AcDbDimStyleTableRecord
  2
S-60
 70
     0
 41
75.0
 42
75.0
 43
450.0
 44
0.0
 48
0.000000001
 73
     0
 74
     0
 77
     1
 78
     8
140
150.0
141
0.0
143
0.03937007874016
147
75.0
171
     3
176
   256
177
   256
178
   256
271
     0
272
     0
274
     3
277
     6
279
     1
283
     0
284
     8
340
843B
341
8437
342
8437
371
    -1
372
    -1
1001
ACAD_DSTYLE_DIMJAG
1070
   388
1040
1.5
1001
ACAD_DSTYLE_DIMTALN
1070
   392
1070
     0
1001
ACAD_DSTYLE_DIMTEXT_FILL
1070
   376
1070
     1
1070
   377
1004
1800000001000000000000C1000000000000000000000000
1001
ACAD_DSTYLE_DIM_LINETYPE
1070
   380
1005
14
1001
ACAD_DSTYLE_DIM_EXT1_LINETYPE
1070
   381
1005
14
1001
ACAD_DSTYLE_DIM_EXT2_LINETYPE
1070
   382
1005
14
  0
ENDTAB
  0
TABLE
  2
BLOCK_RECORD
  5
1
330
0
100
AcDbSymbolTable
 70
    11
  0
BLOCK_RECORD
  5
1E
102
{ACAD_XDICTIONARY
360
28B
102
}
330
1
100
AcDbSymbolTableRecord
100
AcDbBlockTableRecord
  2
*Model_Space
340
21
  0
BLOCK_RECORD
  5
1A
102
{ACAD_XDICTIONARY
360
28D
102
}
330
1
100
AcDbSymbolTableRecord
100
AcDbBlockTableRecord
  2
*Paper_Space
340
1D
  0
BLOCK_RECORD
  5
11E
330
1
100
AcDbSymbolTableRecord
100
AcDbBlockTableRecord
  2
_Dot
340
0
102
{BLKREFS
331
8076
331
8077
331
8083
331
8084
331
82F4
331
82F5
331
84D7
331
84D8
331
854C
331
854D
331
8555
331
8556
102
}
  0
BLOCK_RECORD
  5
15B0
330
1
100
AcDbSymbolTableRecord
100
AcDbBlockTableRecord
  2
_None
340
0
  0
BLOCK_RECORD
  5
8071
330
1
100
AcDbSymbolTableRecord
100
AcDbBlockTableRecord
  2
*D2
340
0
  0
BLOCK_RECORD
  5
807D
330
1
100
AcDbSymbolTableRecord
100
AcDbBlockTableRecord
  2
*D3
340
0
  0
BLOCK_RECORD
  5
808A
102
{ACAD_XDICTIONARY
360
81EF
102
}
330
1
100
AcDbSymbolTableRecord
100
AcDbBlockTableRecord
  2
A$C550C1761
340
0
  0
BLOCK_RECORD
  5
82EE
330
1
100
AcDbSymbolTableRecord
100
AcDbBlockTableRecord
  2
*D5
340
0
  0
BLOCK_RECORD
  5
8437
330
1
100
AcDbSymbolTableRecord
100
AcDbBlockTableRecord
  2
_Small
340
0
  0
BLOCK_RECORD
  5
8487
330
1
100
AcDbSymbolTableRecord
100
AcDbBlockTableRecord
  2
*D7
340
0
  0
BLOCK_RECORD
  5
8493
330
1
100
AcDbSymbolTableRecord
100
AcDbBlockTableRecord
  2
*D8
340
0
  0
BLOCK_RECORD
  5
84A0
330
1
100
AcDbSymbolTableRecord
100
AcDbBlockTableRecord
  2
*D9
340
0
  0
ENDTAB
  0
ENDSEC
  0
SECTION
  2
BLOCKS
  0
BLOCK
  5
1F
330
1E
100
AcDbEntity
  8
0
100
AcDbBlockBegin
  2
*Model_Space
 70
     0
 10
0.0
 20
0.0
 30
0.0
  3
*Model_Space
  1

  0
ENDBLK
  5
20
330
1E
100
AcDbEntity
  8
0
100
AcDbBlockEnd
  0
BLOCK
  5
1B
330
1A
100
AcDbEntity
 67
     1
  8
0
100
AcDbBlockBegin
  2
*Paper_Space
 70
     0
 10
0.0
 20
0.0
 30
0.0
  3
*Paper_Space
  1

  0
ENDBLK
  5
1C
330
1A
100
AcDbEntity
 67
     1
  8
0
100
AcDbBlockEnd
  0
BLOCK
  5
121
330
11E
100
AcDbEntity
  8
0
100
AcDbBlockBegin
  2
_Dot
 70
     0
 10
0.0
 20
0.0
 30
0.0
  3
_Dot
  1

  0
LWPOLYLINE
  5
11F
330
11E
100
AcDbEntity
  8
0
  6
ByBlock
 62
     0
100
AcDbPolyline
 90
        2
 70
     1
 43
0.5
 10
-0.25
 20
0.0
 42
1.0
 10
0.25
 20
0.0
 42
1.0
  0
LINE
  5
120
330
11E
100
AcDbEntity
  8
0
  6
ByBlock
 62
     0
370
    -2
100
AcDbLine
 10
-0.5
 20
0.0
 30
0.0
 11
-1.0
 21
0.0
 31
0.0
  0
ENDBLK
  5
122
330
11E
100
AcDbEntity
  8
0
100
AcDbBlockEnd
  0
BLOCK
  5
15B1
330
15B0
100
AcDbEntity
  8
0
100
AcDbBlockBegin
  2
_None
 70
     0
 10
0.0
 20
0.0
 30
0.0
  3
_None
  1

  0
ENDBLK
  5
15B2
330
15B0
100
AcDbEntity
  8
0
100
AcDbBlockEnd
  0
BLOCK
  5
8072
330
8071
100
AcDbEntity
  8
0
100
AcDbBlockBegin
  2
*D2
 70
     1
 10
0.0
 20
0.0
 30
0.0
  3
*D2
  1

  0
LINE
  5
8073
330
8071
100
AcDbEntity
  8
0
 62
     4
440
 16777216
370
    -2
100
AcDbLine
 10
4764.800991485024
 20
-1697.842647157008
 30
0.0
 11
4825.147702845592
 21
-1697.842647157008
 31
0.0
  0
LINE
  5
8074
330
8071
100
AcDbEntity
  8
0
 62
     4
440
 16777216
370
    -2
100
AcDbLine
 10
4764.800991485024
 20
-1597.842647157008
 30
0.0
 11
4825.147702845592
 21
-1597.842647157008
 31
0.0
  0
LINE
  5
8075
330
8071
100
AcDbEntity
  8
0
 62
     4
440
 16777216
370
    -2
100
AcDbLine
 10
4825.147702845592
 20
-1696.842647157008
 30
0.0
 11
4825.147702845592
 21
-1598.842647157008
 31
0.0
  0
INSERT
  5
8076
330
8071
100
AcDbEntity
  8
0
  6
Continuous
 62
     4
440
 16777216
370
    -2
100
AcDbBlockReference
  2
_Dot
 10
4825.147702845592
 20
-1697.842647157008
 30
0.0
 50
270.0
  0
INSERT
  5
8077
330
8071
100
AcDbEntity
  8
0
  6
Continuous
 62
     4
440
 16777216
370
    -2
100
AcDbBlockReference
  2
_Dot
 10
4825.147702845592
 20
-1597.842647157008
 30
0.0
 50
90.0
  0
MTEXT
  5
8078
330
8071
100
AcDbEntity
  8
0
  6
Continuous
 62
     3
440
 16777216
100
AcDbMText
 10
4817.647702845592
 20
-1647.842647157007
 30
0.0
 40
9.0
 41
0.0
 71
     5
 72
     1
  1
\A1;100
  7
ACAD
 11
0.0000000000000001
 21
1.0
 31
0.0
 73
     1
 44
1.0
 90
        3
 63
     9
421
 13158600
 45
1.25
441
        0
  0
POINT
  5
8079
330
8071
100
AcDbEntity
  8
Defpoints
  6
Continuous
 62
     0
440
 16777216
100
AcDbPoint
 10
4764.800991485024
 20
-1697.842647157008
 30
0.0
  0
POINT
  5
807A
330
8071
100
AcDbEntity
  8
Defpoints
  6
Continuous
 62
     0
440
 16777216
100
AcDbPoint
 10
4764.800991485024
 20
-1597.842647157008
 30
0.0
  0
POINT
  5
807B
330
8071
100
AcDbEntity
  8
Defpoints
  6
Continuous
 62
     0
440
 16777216
100
AcDbPoint
 10
4825.147702845592
 20
-1597.842647157008
 30
0.0
  0
ENDBLK
  5
807C
330
8071
100
AcDbEntity
  8
0
100
AcDbBlockEnd
  0
BLOCK
  5
807E
330
807D
100
AcDbEntity
  8
0
100
AcDbBlockBegin
  2
*D3
 70
     1
 10
0.0
 20
0.0
 30
0.0
  3
*D3
  1

  0
LINE
  5
807F
330
807D
100
AcDbEntity
  8
0
 62
     4
440
 16777216
370
    -2
100
AcDbLine
 10
4764.800991485024
 20
-1597.842647157008
 30
0.0
 11
4808.902870063993
 21
-1597.842647157008
 31
0.0
  0
LINE
  5
8080
330
807D
100
AcDbEntity
  8
0
 62
     4
440
 16777216
370
    -2
100
AcDbLine
 10
4764.800991485024
 20
-1604.342647157005
 30
0.0
 11
4808.902870063993
 21
-1604.342647157005
 31
0.0
  0
LINE
  5
8081
330
807D
100
AcDbEntity
  8
0
 62
     4
440
 16777216
370
    -2
100
AcDbLine
 10
4808.902870063993
 20
-1596.842647157008
 30
0.0
 11
4808.902870063993
 21
-1595.842647157008
 31
0.0
  0
LINE
  5
8082
330
807D
100
AcDbEntity
  8
0
 62
     4
440
 16777216
370
    -2
100
AcDbLine
 10
4808.902870063993
 20
-1605.342647157005
 30
0.0
 11
4808.902870063993
 21
-1606.342647157005
 31
0.0
  0
INSERT
  5
8083
330
807D
100
AcDbEntity
  8
0
  6
Continuous
 62
     4
440
 16777216
370
    -2
100
AcDbBlockReference
  2
_Dot
 10
4808.902870063993
 20
-1597.842647157008
 30
0.0
 50
270.0
  0
INSERT
  5
8084
330
807D
100
AcDbEntity
  8
0
  6
Continuous
 62
     4
440
 16777216
370
    -2
100
AcDbBlockReference
  2
_Dot
 10
4808.902870063993
 20
-1604.342647157005
 30
0.0
 50
90.0
  0
MTEXT
  5
8085
330
807D
100
AcDbEntity
  8
0
  6
Continuous
 62
     3
440
 16777216
100
AcDbMText
 10
4801.402870063994
 20
-1601.092647157006
 30
0.0
 40
9.0
 41
0.0
 71
     5
 72
     1
  1
\A1;7
  7
ACAD
 11
0.0000000000000001
 21
1.0
 31
0.0
 73
     1
 44
1.0
 90
        3
 63
     9
421
 13158600
 45
1.25
441
        0
  0
POINT
  5
8086
330
807D
100
AcDbEntity
  8
Defpoints
  6
Continuous
 62
     0
440
 16777216
100
AcDbPoint
 10
4764.800991485024
 20
-1597.842647157008
 30
0.0
  0
POINT
  5
8087
330
807D
100
AcDbEntity
  8
Defpoints
  6
Continuous
 62
     0
440
 16777216
100
AcDbPoint
 10
4764.800991485024
 20
-1604.342647157005
 30
0.0
  0
POINT
  5
8088
330
807D
100
AcDbEntity
  8
Defpoints
  6
Continuous
 62
     0
440
 16777216
100
AcDbPoint
 10
4808.902870063993
 20
-1604.342647157005
 30
0.0
  0
ENDBLK
  5
8089
330
807D
100
AcDbEntity
  8
0
100
AcDbBlockEnd
  0
BLOCK
  5
81F1
330
808A
100
AcDbEntity
  8
0
100
AcDbBlockBegin
  2
A$C550C1761
 70
     0
 10
0.0
 20
0.0
 30
0.0
  3
A$C550C1761
  1

  0
LWPOLYLINE
  5
808B
330
808A
100
AcDbEntity
  8
躯体と製品
  6
Continuous
 62
     7
100
AcDbPolyline
 90
        2
 70
     0
 43
0.0
 10
75.34241506444096
 20
93.71242819921418
 42
0.414457581961781
 10
82.16432732593375
 20
95.57294969910049
  0
LWPOLYLINE
  5
808C
330
808A
100
AcDbEntity
  8
躯体と製品
  6
Continuous
 62
     7
100
AcDbPolyline
 90
        2
 70
     0
 43
0.0
 10
47.24814108853524
 20
81.20836872113159
 10
51.24768508853549
 20
81.20836872113159
  0
LWPOLYLINE
  5
808D
330
808A
100
AcDbEntity
  8
躯体と製品
  6
Continuous
 62
     7
100
AcDbPolyline
 90
        2
 70
     0
 43
0.0
 10
54.25540726016288
 20
89.06098774088377
 42
0.3751876170069135
 10
47.24814310864712
 20
81.20836911356764
  0
LWPOLYLINE
  5
808E
330
808A
100
AcDbEntity
  8
躯体と製品
  6
Continuous
 62
     7
100
AcDbPolyline
 90
        2
 70
     0
 43
0.0
 10
65.54367308853534
 20
91.47980472113159
 10
62.56684108853505
 20
91.10769672113111
  0
LWPOLYLINE
  5
808F
330
808A
100
AcDbEntity
  8
躯体と製品
  6
Continuous
 62
     7
100
AcDbPolyline
 90
        2
 70
     0
 43
0.0
 10
54.68322108853453
 20
84.91568472113158
 10
78.03776508853434
 20
89.72397272113175
  0
LWPOLYLINE
  5
8090
330
808A
100
AcDbEntity
  8
躯体と製品
  6
Continuous
 62
     7
100
AcDbPolyline
 90
        2
 70
     0
 43
0.0
 10
55.74492706444153
 20
89.24717619921421
 42
0.414457581961781
 10
62.56683932593432
 20
91.10769769910053
  0
LWPOLYLINE
  5
8091
330
808A
100
AcDbEntity
  8
躯体と製品
  6
Continuous
 62
     7
100
AcDbPolyline
 90
        2
 70
     0
 43
0.0
 10
54.2554050885351
 20
89.06098872113124
 10
55.74492908853563
 20
89.24717672113184
  0
LWPOLYLINE
  5
8092
330
808A
100
AcDbEntity
  8
躯体と製品
  6
Continuous
 62
     7
100
AcDbPolyline
 90
        2
 70
     0
 43
0.0
 10
54.683221388726
 20
84.9156855600745
 42
0.3559186273149328
 10
51.24768478816486
 20
81.2083691716116
  0
LWPOLYLINE
  5
8093
330
808A
100
AcDbEntity
  8
躯体と製品
  6
Continuous
 62
     7
100
AcDbPolyline
 90
        2
 70
     0
 43
0.0
 10
75.34241708853506
 20
93.7124287211318
 10
72.36558508853477
 20
93.34032472113177
  0
LWPOLYLINE
  5
8094
330
808A
100
AcDbEntity
  8
躯体と製品
  6
Continuous
 62
     7
100
AcDbPolyline
 90
        2
 70
     0
 43
0.0
 10
65.54367106444124
 20
91.47980019921442
 42
0.414457581961781
 10
72.36558332593403
 20
93.34032169910074
  0
LWPOLYLINE
  5
8095
330
808A
100
AcDbEntity
  8
躯体と製品
  6
Continuous
 62
     7
100
AcDbPolyline
 90
        2
 70
     0
 43
0.0
 10
133.9996130885351
 20
91.97453672113169
 10
93.62750908853513
 20
86.9280247211318
  0
LWPOLYLINE
  5
8096
330
808A
100
AcDbEntity
  8
躯体と製品
  6
Continuous
 62
     7
100
AcDbPolyline
 90
        6
 70
     0
 43
0.0
 10
78.03776756440448
 20
89.72397498064879
 42
-0.4750147683717866
 10
85.24768508853549
 20
83.84723272113115
 10
85.24768508853549
 20
81.20836872113159
 10
89.24768508853549
 20
81.20836872113159
 10
89.24768508853549
 20
81.96663672113118
 42
-0.3782424536283502
 10
93.62751144580261
 20
86.92802610847616
  0
LWPOLYLINE
  5
8097
330
808A
100
AcDbEntity
  8
躯体と製品
  6
Continuous
 62
     7
100
AcDbPolyline
 90
        4
 70
     0
 43
0.0
 10
133.9996156314423
 20
91.97453647606925
 42
-0.4511234904532332
 10
136.2476850885355
 20
89.98998072113137
 10
136.2476850885355
 20
87.78302472113137
 42
0.4511234904532334
 10
136.8097024528088
 20
87.28688578239689
  0
LWPOLYLINE
  5
8098
330
808A
100
AcDbEntity
  8
躯体と製品
  6
Continuous
 62
     7
100
AcDbPolyline
 90
        3
 70
     0
 43
0.0
 10
140.2476850885355
 20
88.15802472113137
 10
139.8097010885353
 20
87.66188872113161
 10
136.8097010885353
 20
87.28688872113162
  0
LWPOLYLINE
  5
8099
330
808A
100
AcDbEntity
  8
躯体と製品
  6
Continuous
 62
     7
100
AcDbPolyline
 90
        3
 70
     0
 43
0.0
 10
140.2476850885355
 20
90.98998072113136
 10
140.2476850885355
 20
88.15802472113137
 42
-0.3782424536283501
 10
139.8097024528087
 20
87.6618857823969
  0
LWPOLYLINE
  5
809A
330
808A
100
AcDbEntity
  8
躯体と製品
  6
Continuous
 62
     7
100
AcDbPolyline
 90
        4
 70
     0
 43
0.0
 10
141.9996156314423
 20
92.97453647606927
 42
0.3782424536283502
 10
140.2476850885355
 20
90.98998072113136
 10
141.9996130885351
 20
92.97453672113169
 10
180.7515450885344
 20
97.81852872113176
  0
LWPOLYLINE
  5
809B
330
808A
100
AcDbEntity
  8
躯体と製品
  6
Continuous
 62
     7
100
AcDbPolyline
 90
        2
 70
     1
 43
0.0
 10
434.7705810885359
 20
122.7282887211313
 10
434.7705810885359
 20
87.20836872113158
  0
LWPOLYLINE
  5
809C
330
808A
100
AcDbEntity
  8
躯体と製品
  6
Continuous
 62
     7
100
AcDbPolyline
 90
       10
 70
     0
 43
0.0
 10
180.7515461743492
 20
97.81852823100713
 42
-0.4511234904532332
 10
185.2476850885355
 20
93.84941672113109
 10
185.2476850885355
 20
87.20836872113158
 10
184.2476850885354
 20
86.20836872113159
 10
184.2476850885354
 20
84.20836872113159
 42
0.9999999999999998
 10
190.2476850885355
 20
84.20836872113159
 10
190.2476850885355
 20
86.20836872113159
 10
189.2476850885355
 20
87.20836872113158
 10
189.2476850885355
 20
95.34941672113109
 42
-0.3782424536283502
 10
192.7515461743492
 20
99.31852823100712
  0
LWPOLYLINE
  5
809D
330
808A
100
AcDbEntity
  8
躯体と製品
  6
Continuous
 62
     7
100
AcDbPolyline
 90
        2
 70
     0
 43
0.0
 10
388.7515450885344
 20
123.8185287211317
 10
417.9015450885358
 20
127.4622807211317
  0
LWPOLYLINE
  5
809E
330
808A
100
AcDbEntity
  8
躯体と製品
  6
Continuous
 62
     7
100
AcDbPolyline
 90
        2
 70
     0
 43
0.0
 10
239.9996130885352
 20
105.2245367211317
 10
278.7515450885344
 20
110.0685287211317
  0
LWPOLYLINE
  5
809F
330
808A
100
AcDbEntity
  8
躯体と製品
  6
Continuous
 62
     7
100
AcDbPolyline
 90
        2
 70
     0
 43
0.0
 10
192.7515450885343
 20
99.31852872113177
 10
231.9996130885352
 20
104.2245367211317
  0
LWPOLYLINE
  5
80A0
330
808A
100
AcDbEntity
  8
躯体と製品
  6
Continuous
 62
     7
100
AcDbPolyline
 90
        4
 70
     0
 43
0.0
 10
237.8097024528088
 20
99.9118857823969
 42
0.3782424536283501
 10
238.2476850885355
 20
100.4080247211313
 10
238.2476850885355
 20
103.2399807211313
 42
-0.3782424536283502
 10
239.9996156314423
 20
105.2245364760692
  0
LWPOLYLINE
  5
80A1
330
808A
100
AcDbEntity
  8
躯体と製品
  6
Continuous
 62
     7
100
AcDbPolyline
 90
        2
 70
     0
 43
0.0
 10
234.8097010885354
 20
99.53688872113161
 10
237.8097010885353
 20
99.91188872113163
  0
LWPOLYLINE
  5
80A2
330
808A
100
AcDbEntity
  8
躯体と製品
  6
Continuous
 62
     7
100
AcDbPolyline
 90
        4
 70
     0
 43
0.0
 10
234.8097024528088
 20
99.5368857823969
 42
-0.4511234904532334
 10
234.2476850885355
 20
100.0330247211314
 10
234.2476850885355
 20
102.2399807211313
 42
0.4511234904532332
 10
231.9996156314423
 20
104.2245364760692
  0
LWPOLYLINE
  5
80A3
330
808A
100
AcDbEntity
  8
躯体と製品
  6
Continuous
 62
     7
100
AcDbPolyline
 90
        2
 70
     0
 43
0.0
 10
337.9996130885352
 20
117.4745367211317
 10
376.7515450885344
 20
122.3185287211318
  0
LWPOLYLINE
  5
80A4
330
808A
100
AcDbEntity
  8
躯体と製品
  6
Continuous
 62
     7
100
AcDbPolyline
 90
        2
 70
     0
 43
0.0
 10
290.7515450885344
 20
111.5685287211317
 10
329.9996130885352
 20
116.4745367211317
  0
LWPOLYLINE
  5
80A5
330
808A
100
AcDbEntity
  8
躯体と製品
  6
Continuous
 62
     7
100
AcDbPolyline
 90
       10
 70
     0
 43
0.0
 10
290.7515461743492
 20
111.5685282310071
 42
0.3782424536283502
 10
287.2476850885355
 20
107.5994167211311
 10
287.2476850885355
 20
87.20836872113158
 10
288.2476850885355
 20
86.20836872113159
 10
288.2476850885355
 20
84.20836872113159
 42
-0.9999999999999998
 10
282.2476850885355
 20
84.20836872113159
 10
282.2476850885355
 20
86.20836872113159
 10
283.2476850885355
 20
87.20836872113158
 10
283.2476850885355
 20
106.0994167211311
 42
0.4511234904532332
 10
278.7515461743492
 20
110.0685282310071
  0
LWPOLYLINE
  5
80A6
330
808A
100
AcDbEntity
  8
躯体と製品
  6
Continuous
 62
     7
100
AcDbPolyline
 90
        4
 70
     0
 43
0.0
 10
335.8097024528088
 20
112.1618857823969
 42
0.3782424536283501
 10
336.2476850885355
 20
112.6580247211314
 10
336.2476850885355
 20
115.4899807211313
 42
-0.3782424536283502
 10
337.9996156314423
 20
117.4745364760692
  0
LWPOLYLINE
  5
80A7
330
808A
100
AcDbEntity
  8
躯体と製品
  6
Continuous
 62
     7
100
AcDbPolyline
 90
        2
 70
     0
 43
0.0
 10
332.8097010885354
 20
111.7868887211316
 10
335.8097010885353
 20
112.1618887211316
  0
LWPOLYLINE
  5
80A8
330
808A
100
AcDbEntity
  8
躯体と製品
  6
Continuous
 62
     7
100
AcDbPolyline
 90
        4
 70
     0
 43
0.0
 10
332.8097024528088
 20
111.7868857823969
 42
-0.4511234904532334
 10
332.2476850885355
 20
112.2830247211313
 10
332.2476850885355
 20
114.4899807211313
 42
0.4511234904532332
 10
329.9996156314423
 20
116.4745364760692
  0
LWPOLYLINE
  5
80A9
330
808A
100
AcDbEntity
  8
躯体と製品
  6
Continuous
 62
     7
100
AcDbPolyline
 90
       10
 70
     0
 43
0.0
 10
388.7515461743492
 20
123.8185282310071
 42
0.3782424536283502
 10
385.2476850885355
 20
119.8494167211311
 10
385.2476850885355
 20
87.20836872113158
 10
386.2476850885355
 20
86.20836872113159
 10
386.2476850885355
 20
84.20836872113159
 42
-0.9999999999999998
 10
380.2476850885355
 20
84.20836872113159
 10
380.2476850885355
 20
86.20836872113159
 10
381.2476850885355
 20
87.20836872113158
 10
381.2476850885355
 20
118.3494167211311
 42
0.4511234904532332
 10
376.7515461743492
 20
122.3185282310071
  0
LWPOLYLINE
  5
80AA
330
808A
100
AcDbEntity
  8
躯体と製品
  6
Continuous
 62
     7
100
AcDbPolyline
 90
        2
 70
     0
 43
0.0
 10
538.2744450885343
 20
142.5088327211315
 10
550.2744450885343
 20
144.008828721131
  0
LWPOLYLINE
  5
80AB
330
808A
100
AcDbEntity
  8
躯体と製品
  6
Continuous
 62
     7
100
AcDbPolyline
 90
        2
 70
     0
 43
0.0
 10
486.5225130885351
 20
136.0398527211318
 10
442.2690890885347
 20
130.4475207211317
  0
LWPOLYLINE
  5
80AC
330
808A
100
AcDbEntity
  8
躯体と製品
  6
Continuous
 62
     7
100
AcDbPolyline
 90
        2
 70
     0
 43
0.0
 10
420.1341730885356
 20
125.7257927211312
 10
420.9155890885353
 20
119.474440721131
  0
LWPOLYLINE
  5
80AD
330
808A
100
AcDbEntity
  8
躯体と製品
  6
Continuous
 62
     7
100
AcDbPolyline
 90
        2
 70
     0
 43
0.0
 10
420.9155893335969
 20
119.4744432640377
 42
0.4142135623730272
 10
423.1482145456279
 20
117.7379569661934
  0
LWPOLYLINE
  5
80AE
330
808A
100
AcDbEntity
  8
躯体と製品
  6
Continuous
 62
     7
100
AcDbPolyline
 90
        2
 70
     0
 43
0.0
 10
433.269450452808
 20
119.0031097823966
 42
0.414213562373163
 10
433.7035720272693
 20
119.5612660854046
  0
LWPOLYLINE
  5
80AF
330
808A
100
AcDbEntity
  8
躯体と製品
  6
Continuous
 62
     7
100
AcDbPolyline
 90
        2
 70
     0
 43
0.0
 10
430.7102475859901
 20
127.8390249491333
 42
3.275457421082883
 10
431.2476845126211
 20
123.7409123973677
  0
LWPOLYLINE
  5
80B0
330
808A
100
AcDbEntity
  8
躯体と製品
  6
Continuous
 62
     7
100
AcDbPolyline
 90
        2
 70
     1
 43
0.0
 10
431.2239947298603
 20
124.2245995825471
 42
-3.732050807569851
 10
430.8518905442205
 20
127.2014332149535
 42
3.732050807569851
  0
LWPOLYLINE
  5
80B1
330
808A
100
AcDbEntity
  8
躯体と製品
  6
Continuous
 62
     7
100
AcDbPolyline
 90
        2
 70
     0
 43
0.0
 10
420.1341728434722
 20
125.725794178225
 42
0.4142135623730271
 10
417.9015476314411
 20
127.4622804760693
  0
LWPOLYLINE
  5
80B2
330
808A
100
AcDbEntity
  8
躯体と製品
  6
Continuous
 62
     7
100
AcDbPolyline
 90
        6
 70
     0
 43
0.0
 10
82.16432908853448
 20
95.57294872113107
 10
87.1257170885342
 20
96.19312472113143
 10
87.86992508853428
 20
90.23945672113132
 10
431.9918930885355
 20
133.2547007211315
 10
432.5392890885354
 20
128.8755327211311
 10
431.1162570885349
 20
127.7983247211314
  0
LWPOLYLINE
  5
80B3
330
808A
100
AcDbEntity
  8
躯体と製品
  6
Continuous
 62
     7
100
AcDbPolyline
 90
        5
 70
     0
 43
0.0
 10
431.6109970885349
 20
123.8403927211311
 10
433.2554050885351
 20
123.1466127211315
 10
433.703573088534
 20
119.5612687211314
 10
433.2694490885346
 20
119.0031087211318
 10
423.1482170885351
 20
117.737956721131
  0
LWPOLYLINE
  5
80B4
330
808A
100
AcDbEntity
  8
躯体と製品
  6
Continuous
 62
     7
100
AcDbPolyline
 90
        2
 70
     0
 43
0.0
 10
430.7102466469482
 20
127.8390241267707
 42
0.3923929879742395
 10
431.1162559379172
 20
127.7983245755633
  0
LWPOLYLINE
  5
80B5
330
808A
100
AcDbEntity
  8
躯体と製品
  6
Continuous
 62
     7
100
AcDbPolyline
 90
        2
 70
     0
 43
0.0
 10
431.610997602394
 20
123.8403912852638
 42
0.3923929930092653
 10
431.2274992519705
 20
123.7010032794062
  0
LWPOLYLINE
  5
80B6
330
808A
100
AcDbEntity
  8
躯体と製品
  6
Continuous
 62
     7
100
AcDbPolyline
 90
        4
 70
     0
 43
0.0
 10
432.5158490885346
 20
133.2547007211315
 10
784.5148170885345
 20
177.2544687211311
 10
432.5158490885346
 20
133.2547007211315
 10
433.0632610885345
 20
128.8753967211314
  0
LWPOLYLINE
  5
80B7
330
808A
100
AcDbEntity
  8
躯体と製品
  6
Continuous
 62
     7
100
AcDbPolyline
 90
        2
 70
     1
 43
0.0
 10
430.8518930885343
 20
127.2014327211318
 10
433.0632610885345
 20
128.8753967211314
  0
LWPOLYLINE
  5
80B8
330
808A
100
AcDbEntity
  8
躯体と製品
  6
Continuous
 62
     7
100
AcDbPolyline
 90
        2
 70
     1
 43
0.0
 10
434.7705810885359
 20
122.7282887211313
 10
431.2239970885343
 20
124.2246007211315
  0
LWPOLYLINE
  5
80B9
330
808A
100
AcDbEntity
  8
躯体と製品
  6
Continuous
 62
     7
100
AcDbPolyline
 90
       14
 70
     0
 43
0.0
 10
442.2690867726664
 20
130.4475191358165
 42
0.3778568936516659
 10
438.7705810885359
 20
126.4790807211311
 10
438.7705810885359
 20
87.20836872113158
 10
439.7705810885359
 20
86.20836872113159
 10
439.7705810885359
 20
84.20836872113159
 42
-0.9999999999999998
 10
433.7705810885359
 20
84.20836872113159
 10
433.7705810885359
 20
86.20836872113159
 10
434.7705810885359
 20
87.20836872113158
 10
433.7705810885359
 20
86.20836872113159
 10
433.7705810885359
 20
84.20836872113159
 42
0.9999999999999998
 10
439.7705810885359
 20
84.20836872113159
 10
439.7705810885359
 20
86.20836872113159
 10
438.7705810885359
 20
87.20836872113158
 10
438.7705810885359
 20
126.4790807211311
  0
LWPOLYLINE
  5
80BA
330
808A
100
AcDbEntity
  8
躯体と製品
  6
Continuous
 62
     7
100
AcDbPolyline
 90
        2
 70
     1
 43
0.0
 10
538.2744450885343
 20
142.5088327211315
 10
494.5225130885351
 20
137.0398527211318
  0
LWPOLYLINE
  5
80BB
330
808A
100
AcDbEntity
  8
躯体と製品
  6
Continuous
 62
     7
100
AcDbPolyline
 90
        2
 70
     0
 43
0.0
 10
489.3325970885357
 20
131.3522047211318
 10
492.3325970885357
 20
131.7272047211318
  0
LWPOLYLINE
  5
80BC
330
808A
100
AcDbEntity
  8
躯体と製品
  6
Continuous
 62
     7
100
AcDbPolyline
 90
        4
 70
     0
 43
0.0
 10
486.5225116314427
 20
136.0398564760689
 42
-0.4511234904532332
 10
488.7705810885359
 20
134.055300721131
 10
488.7705810885359
 20
131.848344721131
 42
0.4511234904532334
 10
489.3325984528091
 20
131.3522057823966
  0
LWPOLYLINE
  5
80BD
330
808A
100
AcDbEntity
  8
躯体と製品
  6
Continuous
 62
     7
100
AcDbPolyline
 90
        4
 70
     0
 43
0.0
 10
492.3325984528092
 20
131.7272057823966
 42
0.3782424536283501
 10
492.7705810885359
 20
132.223344721131
 10
492.7705810885359
 20
135.055300721131
 42
-0.3782424536283502
 10
494.5225116314427
 20
137.0398564760689
  0
LWPOLYLINE
  5
80BE
330
808A
100
AcDbEntity
  8
躯体と製品
  6
Continuous
 62
     7
100
AcDbPolyline
 90
        2
 70
     1
 43
0.0
 10
594.5225130885351
 20
149.5398247211315
 10
550.2744450885343
 20
144.008828721131
  0
LWPOLYLINE
  5
80BF
330
808A
100
AcDbEntity
  8
躯体と製品
  6
Continuous
 62
     7
100
AcDbPolyline
 90
       11
 70
     0
 43
0.0
 10
550.2744433520088
 20
144.0088283782145
 42
0.3782425384170875
 10
546.7705810885359
 20
140.0397167211313
 10
546.7705810885359
 20
87.20836872113158
 10
547.7705810885359
 20
86.20836872113159
 10
547.7705810885359
 20
84.20836872113159
 42
-0.9999999999999998
 10
541.7705810885358
 20
84.20836872113159
 10
541.7705810885358
 20
86.20836872113159
 10
542.7705810885359
 20
87.20836872113158
 10
542.7705810885359
 20
138.5397207211317
 42
0.4511234326887887
 10
538.2744429363643
 20
142.5088323262594
 42
-0.4511234326887887
 10
542.7705810885359
 20
138.5397207211317
  0
LWPOLYLINE
  5
80C0
330
808A
100
AcDbEntity
  8
躯体と製品
  6
Continuous
 62
     7
100
AcDbPolyline
 90
        4
 70
     0
 43
0.0
 10
594.5225116314427
 20
149.539824476069
 42
-0.4511234904532332
 10
596.7705810885359
 20
147.5552687211311
 10
596.7705810885359
 20
145.3483127211311
 42
0.4511234904532334
 10
597.3325984528091
 20
144.8521737823966
  0
LWPOLYLINE
  5
80C1
330
808A
100
AcDbEntity
  8
躯体と製品
  6
Continuous
 62
     7
100
AcDbPolyline
 90
        2
 70
     0
 43
0.0
 10
597.3325970885357
 20
144.8521727211318
 10
600.3325970885357
 20
145.2271727211318
  0
LWPOLYLINE
  5
80C2
330
808A
100
AcDbEntity
  8
躯体と製品
  6
Continuous
 62
     7
100
AcDbPolyline
 90
        4
 70
     0
 43
0.0
 10
602.5225116314427
 20
150.539824476069
 42
0.3782424536283502
 10
600.7705810885359
 20
148.5552687211311
 10
600.7705810885359
 20
145.7233127211311
 42
-0.3782424536283501
 10
600.3325984528092
 20
145.2271737823966
  0
LWPOLYLINE
  5
80C3
330
808A
100
AcDbEntity
  8
躯体と製品
  6
Continuous
 62
     7
100
AcDbPolyline
 90
        9
 70
     0
 43
0.0
 10
658.2744430056368
 20
157.5087963349181
 42
0.378242513479108
 10
654.7705810885359
 20
153.5396847211313
 10
654.7705810885359
 20
87.20836872113158
 10
655.7705810885359
 20
86.20836872113159
 10
655.7705810885359
 20
84.20836872113159
 42
-0.9999999999999998
 10
649.7705810885358
 20
84.20836872113159
 10
649.7705810885358
 20
86.20836872113159
 10
650.7705810885359
 20
87.20836872113158
 10
650.7705810885359
 20
152.0396887211318
  0
LWPOLYLINE
  5
80C4
330
808A
100
AcDbEntity
  8
躯体と製品
  6
Continuous
 62
     7
100
AcDbPolyline
 90
        6
 70
     0
 43
0.0
 10
646.2744450885343
 20
156.0088007211316
 10
602.5225130885351
 20
150.5398247211314
 10
646.2744450885343
 20
156.0088007211316
 10
658.2744450885343
 20
157.5087967211311
 10
702.5225130885351
 20
163.0397927211315
 10
658.2744450885343
 20
157.5087967211311
  0
LWPOLYLINE
  5
80C5
330
808A
100
AcDbEntity
  8
躯体と製品
  6
Continuous
 62
     7
100
AcDbPolyline
 90
        2
 70
     1
 43
0.0
 10
646.2744433520088
 20
156.008800378215
 42
-0.4511234011808991
 10
650.7705810885359
 20
152.0396887211318
 42
0.4511234011808991
  0
LWPOLYLINE
  5
80C6
330
808A
100
AcDbEntity
  8
躯体と製品
  6
Continuous
 62
     7
100
AcDbPolyline
 90
        2
 70
     0
 43
0.0
 10
760.7705810885359
 20
108.0123687211317
 10
760.7705810885359
 20
89.50823272113121
  0
LWPOLYLINE
  5
80C7
330
808A
100
AcDbEntity
  8
躯体と製品
  6
Continuous
 62
     7
100
AcDbPolyline
 90
        2
 70
     1
 43
0.0
 10
749.7705810885358
 20
100.208232721131
 42
-0.4142135623730951
 10
745.7705810885358
 20
96.20823272113103
 42
0.4142135623730951
  0
LWPOLYLINE
  5
80C8
330
808A
100
AcDbEntity
  8
躯体と製品
  6
Continuous
 62
     7
100
AcDbPolyline
 90
        2
 70
     1
 43
0.0
 10
805.7705810885359
 20
89.50823272113121
 10
805.7705810885359
 20
129.708232721131
  0
LWPOLYLINE
  5
80C9
330
808A
100
AcDbEntity
  8
躯体と製品
  6
Continuous
 62
     7
100
AcDbPolyline
 90
        2
 70
     1
 43
0.0
 10
801.7705810885358
 20
129.708232721131
 10
801.7705810885358
 20
89.50823272113121
  0
LWPOLYLINE
  5
80CA
330
808A
100
AcDbEntity
  8
躯体と製品
  6
Continuous
 62
     7
100
AcDbPolyline
 90
        2
 70
     1
 43
0.0
 10
756.7705810885358
 20
89.50823272113121
 10
756.7705810885358
 20
107.0748687211316
  0
LWPOLYLINE
  5
80CB
330
808A
100
AcDbEntity
  8
躯体と製品
  6
Continuous
 62
     7
100
AcDbPolyline
 90
        2
 70
     1
 43
0.0
 10
806.7705810885358
 20
86.5082327211312
 42
-0.9999999999999998
 10
800.7705810885358
 20
86.5082327211312
 42
0.9999999999999998
  0
LWPOLYLINE
  5
80CC
330
808A
100
AcDbEntity
  8
躯体と製品
  6
Continuous
 62
     7
100
AcDbPolyline
 90
       10
 70
     1
 43
0.0
 10
761.7705810885358
 20
88.50823272113121
 10
760.7705810885359
 20
89.50823272113121
 10
761.7705810885358
 20
88.50823272113121
 10
761.7705810885358
 20
86.5082327211312
 42
-0.9999999999999998
 10
755.7705810885359
 20
86.5082327211312
 10
755.7705810885359
 20
88.50823272113121
 10
756.7705810885358
 20
89.50823272113121
 10
755.7705810885359
 20
88.50823272113121
 10
755.7705810885359
 20
86.5082327211312
 42
0.9999999999999998
 10
761.7705810885358
 20
86.5082327211312
  0
LWPOLYLINE
  5
80CD
330
808A
100
AcDbEntity
  8
躯体と製品
  6
Continuous
 62
     7
100
AcDbPolyline
 90
        4
 70
     1
 43
0.0
 10
800.7705810885358
 20
88.50823272113121
 10
800.7705810885358
 20
86.5082327211312
 10
800.7705810885358
 20
88.50823272113121
 10
801.7705810885358
 20
89.50823272113121
  0
LWPOLYLINE
  5
80CE
330
808A
100
AcDbEntity
  8
躯体と製品
  6
Continuous
 62
     7
100
AcDbPolyline
 90
        4
 70
     1
 43
0.0
 10
806.7705810885358
 20
88.50823272113121
 10
805.7705810885359
 20
89.50823272113121
 10
806.7705810885358
 20
88.50823272113121
 10
806.7705810885358
 20
86.5082327211312
  0
LWPOLYLINE
  5
80CF
330
808A
100
AcDbEntity
  8
躯体と製品
  6
Continuous
 62
     7
100
AcDbPolyline
 90
        2
 70
     1
 43
0.0
 10
804.7705810885359
 20
183.2082927211313
 10
801.7705810885358
 20
183.2082927211313
  0
LWPOLYLINE
  5
80D0
330
808A
100
AcDbEntity
  8
躯体と製品
  6
Continuous
 62
     7
100
AcDbPolyline
 90
        2
 70
     1
 43
0.0
 10
752.2744370885352
 20
169.1933487211317
 10
721.7113410885353
 20
165.3729247211313
  0
LWPOLYLINE
  5
80D1
330
808A
100
AcDbEntity
  8
躯体と製品
  6
Continuous
 62
     7
100
AcDbPolyline
 90
        4
 70
     0
 43
0.0
 10
702.5225116314427
 20
163.0397924760691
 42
-0.4511234904532332
 10
704.7705810885359
 20
161.0552367211312
 10
704.7705810885359
 20
158.8482807211312
 42
0.4511234904532334
 10
705.3325984528092
 20
158.3521417823967
  0
LWPOLYLINE
  5
80D2
330
808A
100
AcDbEntity
  8
躯体と製品
  6
Continuous
 62
     7
100
AcDbPolyline
 90
        2
 70
     1
 43
0.0
 10
721.7113410885353
 20
165.3729247211313
 10
710.5225130885351
 20
164.0397927211315
  0
LWPOLYLINE
  5
80D3
330
808A
100
AcDbEntity
  8
躯体と製品
  6
Continuous
 62
     7
100
AcDbPolyline
 90
        2
 70
     0
 43
0.0
 10
705.3325970885357
 20
158.352140721131
 10
708.3325970885357
 20
158.727140721131
  0
LWPOLYLINE
  5
80D4
330
808A
100
AcDbEntity
  8
躯体と製品
  6
Continuous
 62
     7
100
AcDbPolyline
 90
        4
 70
     0
 43
0.0
 10
710.5225116314427
 20
164.0397924760691
 42
0.3782424536283502
 10
708.7705810885359
 20
162.0552367211312
 10
708.7705810885359
 20
159.2232807211312
 42
-0.3782424536283501
 10
708.3325984528092
 20
158.7271417823967
  0
LWPOLYLINE
  5
80D5
330
808A
100
AcDbEntity
  8
躯体と製品
  6
Continuous
 62
     7
100
AcDbPolyline
 90
        3
 70
     0
 43
0.0
 10
756.7705810885358
 20
165.2242367211311
 10
756.7705810885358
 20
112.6412527211314
 10
756.7705810885358
 20
144.7553767211311
  0
LWPOLYLINE
  5
80D6
330
808A
100
AcDbEntity
  8
躯体と製品
  6
Continuous
 62
     7
100
AcDbPolyline
 90
        3
 70
     0
 43
0.0
 10
801.7705810885358
 20
146.4156247211312
 10
801.7705810885358
 20
129.708232721131
 10
801.7705810885358
 20
171.4156847211316
  0
LWPOLYLINE
  5
80D7
330
808A
100
AcDbEntity
  8
躯体と製品
  6
Continuous
 62
     7
100
AcDbPolyline
 90
        2
 70
     1
 43
0.0
 10
747.7841621271031
 20
107.2532820555216
 42
-0.4975295559040413
 10
755.3880969885057
 20
111.7172918246042
 42
0.4975295559040413
  0
LWPOLYLINE
  5
80D8
330
808A
100
AcDbEntity
  8
躯体と製品
  6
Continuous
 62
     7
100
AcDbPolyline
 90
        2
 70
     1
 43
0.0
 10
749.7705812685321
 20
107.0206041782662
 42
-0.8827822161911921
 10
756.7705817626119
 20
107.074869344505
 42
0.8827822161911921
  0
LWPOLYLINE
  5
80D9
330
808A
100
AcDbEntity
  8
躯体と製品
  6
Continuous
 62
     7
100
AcDbPolyline
 90
        6
 70
     0
 43
0.0
 10
747.7705810885359
 20
107.2532807211319
 10
747.7705810885359
 20
100.208232721131
 42
-0.4142135623730951
 10
745.7705810885358
 20
98.20823272113102
 42
0.9999999999999998
 10
745.7705810885358
 20
96.20823272113103
 42
-0.9999999999999998
 10
745.7705810885358
 20
98.20823272113102
 42
0.4142135623730951
 10
747.7705810885359
 20
100.208232721131
  0
LWPOLYLINE
  5
80DA
330
808A
100
AcDbEntity
  8
躯体と製品
  6
Continuous
 62
     7
100
AcDbPolyline
 90
        2
 70
     1
 43
0.0
 10
749.7705810885358
 20
107.0206007211318
 10
749.7705810885358
 20
100.208232721131
  0
LWPOLYLINE
  5
80DB
330
808A
100
AcDbEntity
  8
躯体と製品
  6
Continuous
 62
     7
100
AcDbPolyline
 90
        2
 70
     1
 43
0.0
 10
756.7705810885358
 20
112.6412527211314
 42
-0.5344419618445278
 10
755.3880964991976
 20
111.7172908502089
 42
0.5344419618445278
  0
LWPOLYLINE
  5
80DC
330
808A
100
AcDbEntity
  8
躯体と製品
  6
Continuous
 62
     7
100
AcDbPolyline
 90
        2
 70
     1
 43
0.0
 10
797.8364610885342
 20
174.8886607211316
 10
763.8364570885346
 20
170.6386167211312
  0
LWPOLYLINE
  5
80DD
330
808A
100
AcDbEntity
  8
躯体と製品
  6
Continuous
 62
     7
100
AcDbPolyline
 90
        2
 70
     1
 43
0.0
 10
752.2744372558913
 20
169.1933476161966
 42
-0.4511238632965473
 10
756.7705810885358
 20
165.2242367211311
 42
0.4511238632965473
  0
LWPOLYLINE
  5
80DE
330
808A
100
AcDbEntity
  8
躯体と製品
  6
Continuous
 62
     7
100
AcDbPolyline
 90
        4
 70
     0
 43
0.0
 10
763.8364552349717
 20
170.6386167543142
 42
0.3782420995107611
 10
760.7705810885359
 20
167.1656447211317
 10
760.7705810885359
 20
108.0123687211317
 10
760.7705810885359
 20
145.2553767211311
  0
LWPOLYLINE
  5
80DF
330
808A
100
AcDbEntity
  8
躯体と製品
  6
Continuous
 62
     7
100
AcDbPolyline
 90
        4
 70
     0
 43
0.0
 10
788.7705810885359
 20
183.2082927211313
 10
783.7705810885359
 20
183.2082927211313
 10
784.5148170885345
 20
177.2544687211311
 10
783.8408330885354
 20
182.6462767211314
  0
LWPOLYLINE
  5
80E0
330
808A
100
AcDbEntity
  8
躯体と製品
  6
Continuous
 62
     7
100
AcDbPolyline
 90
        2
 70
     1
 43
0.0
 10
797.8364605084602
 20
174.8886574135024
 42
-0.4511234064322368
 10
801.7705810885358
 20
171.4156847211316
 42
0.4511234064322368
  0
LWPOLYLINE
  5
80E1
330
808A
100
AcDbEntity
  8
躯体と製品
  6
Continuous
 62
     7
100
AcDbPolyline
 90
        2
 70
     1
 43
0.0
 10
801.7705812137133
 20
183.2082932326195
 42
-0.8007473645010426
 10
796.7705809633585
 20
183.2082932326195
 42
0.8007473645010426
  0
LWPOLYLINE
  5
80E2
330
808A
100
AcDbEntity
  8
躯体と製品
  6
Continuous
 62
     7
100
AcDbPolyline
 90
        2
 70
     1
 43
0.0
 10
793.7705806606495
 20
183.2082961430073
 42
-0.8003183057287856
 10
788.7705815164222
 20
183.2082961430073
 42
0.8003183057287856
  0
LWPOLYLINE
  5
80E3
330
808A
100
AcDbEntity
  8
躯体と製品
  6
Continuous
 62
     7
100
AcDbPolyline
 90
        2
 70
     1
 43
0.0
 10
796.7705810885359
 20
183.2082927211313
 10
793.7705810885359
 20
183.2082927211313
  0
LWPOLYLINE
  5
80E4
330
808A
100
AcDbEntity
  8
躯体と製品
  6
Continuous
 62
     7
100
AcDbPolyline
 90
        3
 70
     0
 43
0.0
 10
805.7705810885359
 20
173.2084287211319
 10
805.7705810885359
 20
135.708232721131
 10
805.7705810885359
 20
148.2083687211316
  0
LWPOLYLINE
  5
80E5
330
808A
100
AcDbEntity
  8
躯体と製品
  6
Continuous
 62
     7
100
AcDbPolyline
 90
        2
 70
     0
 43
0.0
 10
814.7705810885359
 20
129.708232721131
 10
814.7705810885359
 20
120.208232721131
  0
LWPOLYLINE
  5
80E6
330
808A
100
AcDbEntity
  8
躯体と製品
  6
Continuous
 62
     7
100
AcDbPolyline
 90
        2
 70
     1
 43
0.0
 10
812.7705810885359
 20
120.208232721131
 10
812.7705810885359
 20
129.708232721131
  0
LWPOLYLINE
  5
80E7
330
808A
100
AcDbEntity
  8
躯体と製品
  6
Continuous
 62
     7
100
AcDbPolyline
 90
        4
 70
     1
 43
0.0
 10
814.7705810885359
 20
118.208232721131
 42
-0.4142135623730951
 10
812.7705810885359
 20
120.208232721131
 42
0.4142135623730951
 10
814.7705810885359
 20
118.208232721131
 42
0.9999999999999998
 10
814.7705810885359
 20
120.208232721131
 42
-0.9999999999999998
  0
LWPOLYLINE
  5
80E8
330
808A
100
AcDbEntity
  8
躯体と製品
  6
Continuous
 62
     7
100
AcDbPolyline
 90
        2
 70
     1
 43
0.0
 10
807.1551964739878
 20
134.7851557984029
 42
-0.5351837587796343
 10
805.7705810885359
 20
135.708232721131
 42
0.5351837587796343
  0
LWPOLYLINE
  5
80E9
330
808A
100
AcDbEntity
  8
躯体と製品
  6
Continuous
 62
     7
100
AcDbPolyline
 90
        2
 70
     1
 43
0.0
 10
807.1551964685472
 20
134.7851557961357
 42
-0.5351837587796345
 10
814.7705810885359
 20
129.708232721131
 42
0.5351837587796345
  0
LWPOLYLINE
  5
80EA
330
808A
100
AcDbEntity
  8
躯体と製品
  6
Continuous
 62
     7
100
AcDbPolyline
 90
        2
 70
     1
 43
0.0
 10
805.7705810885359
 20
129.708232721131
 42
-0.9999999999999998
 10
812.7705810885359
 20
129.708232721131
 42
0.9999999999999998
  0
LWPOLYLINE
  5
80EB
330
808A
100
AcDbEntity
  8
躯体と製品
  6
Continuous
 62
     7
100
AcDbPolyline
 90
        2
 70
     1
 43
0.0
 10
809.7705811204736
 20
183.2082942065524
 42
-0.8000341839480096
 10
804.7705810565981
 20
183.2082942065524
 42
0.8000341839480096
  0
LWPOLYLINE
  5
80EC
330
808A
100
AcDbEntity
  8
躯体と製品
  6
Continuous
 62
     7
100
AcDbPolyline
 90
        6
 70
     0
 43
0.0
 10
814.7705810885359
 20
182.7084287211319
 10
814.7705810885359
 20
177.2084287211319
 10
809.7705810885358
 20
177.2084287211319
 42
0.4142135623730951
 10
805.7705810885359
 20
173.2084287211319
 42
-0.4142135623730951
 10
809.7705810885358
 20
177.2084287211319
 10
814.2705810885358
 20
177.2084287211319
  0
LWPOLYLINE
  5
80ED
330
808A
100
AcDbEntity
  8
躯体と製品
  6
Continuous
 62
     7
100
AcDbPolyline
 90
        4
 70
     0
 43
0.0
 10
814.2742370885349
 20
183.2084167211315
 10
809.7705810885358
 20
183.2082927211313
 10
814.7705810885359
 20
183.2084287211319
 10
814.7705810885359
 20
177.7084287211319
  0
LINE
  5
80EE
330
808A
100
AcDbEntity
  8
躯体と製品
  6
Continuous
 62
     3
100
AcDbLine
 10
1276.774237042405
 20
82.20818472359088
 30
0.0
 11
1351.774237134664
 21
82.20818472359088
 31
0.0
  0
LINE
  5
80EF
330
808A
100
AcDbEntity
  8
躯体と製品
  6
Continuous
 62
     4
100
AcDbLine
 10
1314.024237088535
 20
174.7082327210901
 30
0.0
 11
1314.524237088535
 21
174.7082327210901
 31
0.0
  0
LWPOLYLINE
  5
80F0
330
808A
100
AcDbEntity
  8
躯体と製品
100
AcDbPolyline
 90
        2
 70
     0
 43
0.0
 10
6.021264603066356
 20
81.20823272113103
 10
1453.7884279158
 20
81.20823272113103
  0
LINE
  5
80F1
330
808A
100
AcDbEntity
  8
躯体と製品
  6
Continuous
 62
     3
100
AcDbLine
 10
826.7742370424052
 20
82.20818472359088
 30
0.0
 11
901.7742371346644
 21
82.20818472359088
 31
0.0
  0
LWPOLYLINE
  5
80F2
330
808A
100
AcDbEntity
  8
躯体と製品
  6
Continuous
 62
     4
100
AcDbPolyline
 90
        2
 70
     0
 43
0.0
 10
1100.480304914795
 20
81.20823272113103
 10
1070.480304914795
 20
51.20823272113103
  0
LWPOLYLINE
  5
80F3
330
808A
100
AcDbEntity
  8
躯体と製品
  6
Continuous
 62
     4
100
AcDbPolyline
 90
        2
 70
     0
 43
0.0
 10
1110.480304914795
 20
81.20823272113103
 10
1080.480304914795
 20
51.20823272113103
  0
LWPOLYLINE
  5
80F4
330
808A
100
AcDbEntity
  8
躯体と製品
  6
Continuous
 62
     4
100
AcDbPolyline
 90
        2
 70
     0
 43
0.0
 10
1120.480304914795
 20
81.20823272113103
 10
1090.480304914795
 20
51.20823272113103
  0
LWPOLYLINE
  5
80F5
330
808A
100
AcDbEntity
  8
躯体と製品
  6
Continuous
 62
     4
100
AcDbPolyline
 90
        2
 70
     0
 43
0.0
 10
1300.209939510365
 20
81.20823272113103
 10
1270.209939510372
 20
51.20823272113103
  0
LWPOLYLINE
  5
80F6
330
808A
100
AcDbEntity
  8
躯体と製品
  6
Continuous
 62
     4
100
AcDbPolyline
 90
        2
 70
     0
 43
0.0
 10
1310.209939510365
 20
81.20823272113103
 10
1280.209939510364
 20
51.20823272113103
  0
LWPOLYLINE
  5
80F7
330
808A
100
AcDbEntity
  8
躯体と製品
  6
Continuous
 62
     4
100
AcDbPolyline
 90
        2
 70
     0
 43
0.0
 10
1320.209939510365
 20
81.20823272113103
 10
1290.209939510365
 20
51.20823272113103
  0
TEXT
  5
80F8
330
808A
100
AcDbEntity
  8
文字-記号
100
AcDbText
 10
1410.462604353409
 20
56.73074917629356
 30
0.0
 40
18.0
  1
標準支持脚
  7
ACAD
 11
1410.462604353409
 21
56.73074917629356
 31
0.0
100
AcDbText
 73
     1
  0
TEXT
  5
80F9
330
808A
100
AcDbEntity
  8
文字-記号
100
AcDbText
 10
898.1322635708597
 20
85.67356012489108
 30
0.0
 40
18.0
  1
端部支持脚
  7
ACAD
 11
898.1322635708597
 21
85.67356012489108
 31
0.0
100
AcDbText
 73
     1
  0
TEXT
  5
80FA
330
808A
100
AcDbEntity
  8
文字-記号
  6
Continuous
 62
     7
100
AcDbText
 10
1342.589296323356
 20
216.6927926144217
 30
0.0
 40
18.0
  1
ビス留め
100
AcDbText
  0
LWPOLYLINE
  5
80FB
330
808A
100
AcDbEntity
  8
文字-記号
  6
Continuous
 62
     7
100
AcDbPolyline
 90
        3
 70
     0
 43
0.0
 10
1314.274237088535
 20
174.7082327211319
 10
1337.177295174495
 20
214.377492974716
 10
1426.213321301847
 20
214.377492974716
1001
ACAD
1000
DSTYLE
1002
{
1070
   147
1040
0.625
1070
    77
1070
     1
1002
}
  0
LWPOLYLINE
  5
80FC
330
808A
100
AcDbEntity
  8
文字-記号
  6
Continuous
 62
     7
100
AcDbPolyline
 90
        3
 70
     0
 43
0.0
 10
871.5401708121131
 20
118.7931845640251
 10
892.3075514311381
 20
82.8230261917497
 10
960.7060705012658
 20
82.83949580049556
1001
ACAD
1000
DSTYLE
1002
{
1070
   147
1040
0.625
1070
    77
1070
     1
1002
}
  0
LWPOLYLINE
  5
80FD
330
808A
100
AcDbEntity
  8
文字-記号
  6
Continuous
 62
     7
100
AcDbPolyline
 90
        3
 70
     0
 43
0.0
 10
1322.810842551687
 20
117.2931845640705
 10
1407.23255829855
 20
50.21416848880836
 10
1514.137781007231
 20
50.21416848880836
1001
ACAD
1000
DSTYLE
1002
{
1070
   147
1040
0.625
1070
    77
1070
     1
1002
}
  0
TEXT
  5
80FE
330
808A
100
AcDbEntity
  8
文字-記号
  6
Continuous
 62
     3
100
AcDbText
 10
-10.00000036830488
 20
332.4780220514063
 30
0.0
 40
15.0
  1
【アルミスロープ部収まり図（サンアクセスフロア ３００Ｔ：モルタル充填タイプ）】
100
AcDbText
1001
ACAD
1000
ACAD_MTEXT_DEFINED_HEIGHT_BEGIN
1070
    46
1040
0.0
1000
ACAD_MTEXT_DEFINED_HEIGHT_END
  0
TEXT
  5
80FF
330
808A
100
AcDbEntity
  8
文字-記号
  6
Continuous
 62
     7
100
AcDbText
 10
1167.541173137393
 20
58.96023589468405
 30
0.0
 40
18.0
  1
固定金具
100
AcDbText
  0
LWPOLYLINE
  5
8100
330
808A
100
AcDbEntity
  8
文字-記号
  6
Continuous
 62
     7
100
AcDbPolyline
 90
        3
 70
     0
 43
0.0
 10
1286.713229411176
 20
108.2082327211355
 10
1250.114429832837
 20
50.33470493410096
 10
1163.283545074698
 20
50.33470493410096
1001
ACAD
1000
DSTYLE
1002
{
1070
   147
1040
0.625
1070
    77
1070
     1
1002
}
  0
LWPOLYLINE
  5
8101
330
808A
100
AcDbEntity
  8
躯体と製品
 62
     3
100
AcDbPolyline
 90
        2
 70
     0
 43
0.0
 10
814.2742370885349
 20
176.7082327211319
 10
1453.7884279158
 20
176.708232721134
  0
LWPOLYLINE
  5
8102
330
808A
100
AcDbEntity
  8
躯体と製品
  6
Continuous
 62
     4
100
AcDbPolyline
 90
        2
 70
     0
 43
0.0
 10
900.7506703192261
 20
81.20823272113103
 10
870.7506703192262
 20
51.20823272113103
  0
LWPOLYLINE
  5
8103
330
808A
100
AcDbEntity
  8
躯体と製品
  6
Continuous
 62
     4
100
AcDbPolyline
 90
        2
 70
     0
 43
0.0
 10
910.7506703192262
 20
81.20823272113103
 10
880.7506703192261
 20
51.20823272113103
  0
LWPOLYLINE
  5
8104
330
808A
100
AcDbEntity
  8
躯体と製品
  6
Continuous
 62
     4
100
AcDbPolyline
 90
        2
 70
     0
 43
0.0
 10
920.7506703192262
 20
81.20823272113103
 10
890.7506703192261
 20
51.20823272113103
  0
DIMENSION
  5
8105
330
808A
100
AcDbEntity
  8
0
  6
Continuous
100
AcDbDimension
  2
*D2
 10
1514.135139276367
 20
181.208232721131
 30
0.0
 11
1506.635139276367
 21
131.2082327211319
 31
0.0
 12
-3311.012563569224
 22
1779.050879878139
 32
0.0
 71
     5
 42
100.0
  3
AutoCAD
100
AcDbAlignedDimension
 13
1453.7884279158
 23
81.20823272113103
 33
0.0
 14
1453.7884279158
 24
181.208232721131
 34
0.0
 50
90.0
100
AcDbRotatedDimension
1001
ACAD
1000
DSTYLE
1002
{
1070
    69
1070
     1
1070
   345
1005
14
1070
   346
1005
14
1070
   347
1005
14
1002
}
  0
LWPOLYLINE
  5
8106
330
808A
100
AcDbEntity
  8
躯体と製品
  6
Continuous
 62
     4
100
AcDbPolyline
 90
        2
 70
     0
 43
0.0
 10
679.020987723657
 20
81.20836872113159
 10
651.0210357236569
 20
53.20841672113147
  0
LWPOLYLINE
  5
8107
330
808A
100
AcDbEntity
  8
躯体と製品
  6
Continuous
 62
     4
100
AcDbPolyline
 90
        2
 70
     0
 43
0.0
 10
689.020987723657
 20
81.20836872113159
 10
661.0210357236569
 20
53.20841672113147
  0
LWPOLYLINE
  5
8108
330
808A
100
AcDbEntity
  8
躯体と製品
  6
Continuous
 62
     4
100
AcDbPolyline
 90
        2
 70
     0
 43
0.0
 10
699.020987723657
 20
81.20836872113159
 10
671.0210357236569
 20
53.20841672113147
  0
LWPOLYLINE
  5
8109
330
808A
100
AcDbEntity
  8
躯体と製品
  6
Continuous
 62
     4
100
AcDbPolyline
 90
        2
 70
     0
 43
0.0
 10
479.2913531280878
 20
81.20836872113159
 10
451.2914011280876
 20
53.20841672113147
  0
LWPOLYLINE
  5
810A
330
808A
100
AcDbEntity
  8
躯体と製品
  6
Continuous
 62
     4
100
AcDbPolyline
 90
        2
 70
     0
 43
0.0
 10
489.2913531280878
 20
81.20836872113159
 10
461.2914011280877
 20
53.20841672113147
  0
LWPOLYLINE
  5
810B
330
808A
100
AcDbEntity
  8
躯体と製品
  6
Continuous
 62
     4
100
AcDbPolyline
 90
        2
 70
     0
 43
0.0
 10
499.2913531280878
 20
81.20836872113159
 10
471.2914011280877
 20
53.20841672113147
  0
LWPOLYLINE
  5
810C
330
808A
100
AcDbEntity
  8
躯体と製品
  6
Continuous
 62
     4
100
AcDbPolyline
 90
        2
 70
     0
 43
0.0
 10
259.5617185325186
 20
81.20836872113159
 10
231.5617665325185
 20
53.20841672113147
  0
LWPOLYLINE
  5
810D
330
808A
100
AcDbEntity
  8
躯体と製品
  6
Continuous
 62
     4
100
AcDbPolyline
 90
        2
 70
     0
 43
0.0
 10
269.5617185325186
 20
81.20836872113159
 10
241.5617665325185
 20
53.20841672113147
  0
LWPOLYLINE
  5
810E
330
808A
100
AcDbEntity
  8
躯体と製品
  6
Continuous
 62
     4
100
AcDbPolyline
 90
        2
 70
     0
 43
0.0
 10
279.5617185325186
 20
81.20836872113159
 10
251.5617665325185
 20
53.20841672113147
  0
LWPOLYLINE
  5
810F
330
808A
100
AcDbEntity
  8
躯体と製品
  6
Continuous
 62
     4
100
AcDbPolyline
 90
        2
 70
     0
 43
0.0
 10
59.8320839369494
 20
81.20836872113159
 10
31.83213193694928
 20
53.20841672113147
  0
LWPOLYLINE
  5
8110
330
808A
100
AcDbEntity
  8
躯体と製品
  6
Continuous
 62
     4
100
AcDbPolyline
 90
        2
 70
     0
 43
0.0
 10
69.8320839369494
 20
81.20836872113159
 10
41.83213193694927
 20
53.20841672113147
  0
LWPOLYLINE
  5
8111
330
808A
100
AcDbEntity
  8
躯体と製品
  6
Continuous
 62
     4
100
AcDbPolyline
 90
        2
 70
     0
 43
0.0
 10
79.8320839369494
 20
81.20836872113159
 10
51.83213193694928
 20
53.20841672113147
  0
LWPOLYLINE
  5
8112
330
808A
100
AcDbEntity
  8
0
  6
Continuous
100
AcDbPolyline
 90
        5
 70
     0
 43
0.0
 10
87.86992508853428
 20
90.23945672113132
 10
87.06369975930783
 20
96.68926297547068
 10
783.7005084122142
 20
183.7688681058612
 10
784.5148170885345
 20
177.2544687211311
 10
87.86992508853428
 20
90.23945672113132
  0
LWPOLYLINE
  5
8113
330
808A
100
AcDbEntity
  8
躯体と製品
 62
     3
100
AcDbPolyline
 90
        2
 70
     0
 43
0.0
 10
814.7705810885359
 20
181.2082447211314
 10
1453.7884279158
 20
181.2082447211314
  0
HATCH
  5
8114
330
808A
100
AcDbEntity
  8
躯体と製品
 62
     3
100
AcDbHatch
 10
0.0
 20
0.0
 30
0.0
210
0.0
220
0.0
230
1.0
  2
LINE
 70
     0
 71
     0
 91
        1
 92
        1
 93
        4
 72
     1
 10
814.7705811475839
 20
181.2082447211251
 11
1453.7884279158
 21
181.2082447211314
 72
     1
 10
1453.7884279158
 20
181.2082447211314
 11
1453.7884279158
 21
176.7082447211305
 72
     1
 10
1453.7884279158
 20
176.7082447211305
 11
814.7705810885359
 21
176.7082447211323
 72
     1
 10
814.7705810885359
 20
176.7082447211323
 11
814.7705811475839
 21
181.2082447211251
 97
        0
 75
     0
 76
     1
 52
90.0
 41
1.0
 77
     0
 78
     1
 53
90.0
 43
-41311.35660755365
 44
-15148.93743840294
 45
-3.174999999999999
 46
0.0000000000000002
 79
     0
 98
        1
 10
-41311.35660755365
 20
-15148.93743840294
1001
ACAD
1010
0.0
1020
0.0
1030
0.0
  0
LWPOLYLINE
  5
8115
330
808A
100
AcDbEntity
  8
躯体と製品
  6
Continuous
 62
     3
100
AcDbPolyline
 90
       12
 70
     1
 43
0.0
 10
812.7705810885359
 20
85.5082327211312
 42
-0.4142135623730951
 10
808.4705810885356
 20
81.20823272113103
 10
754.0705810885365
 20
81.20823272113126
 42
-0.4142135623730951
 10
749.7705810885364
 20
85.5082327211312
 10
749.7705810885364
 20
106.208232721131
 10
752.0705810885365
 20
106.208232721131
 10
752.0705810885365
 20
85.5082327211312
 42
0.4142135623730951
 10
754.0705810885365
 20
83.50823272113121
 10
808.4705810885356
 20
83.50823272113121
 42
0.4142135623730951
 10
810.4705810885358
 20
85.5082327211312
 10
810.4705810885358
 20
128.208232721131
 10
812.7705810885368
 20
128.208232721131
  0
LINE
  5
8116
330
808A
100
AcDbEntity
  8
中心線
  6
CENTER1
 62
     7
100
AcDbLine
 10
781.2705810885367
 20
131.6941167211312
 30
0.0
 11
781.2705810885367
 21
74.57437572113121
 31
0.0
  0
LINE
  5
8117
330
808A
100
AcDbEntity
  8
中心線
  6
CENTER1
 62
     7
100
AcDbLine
 10
779.2705810885368
 20
83.50823272113121
 30
0.0
 11
779.2705810885368
 21
81.20823272113103
 31
0.0
  0
LINE
  5
8118
330
808A
100
AcDbEntity
  8
中心線
  6
CENTER1
 62
     7
100
AcDbLine
 10
783.2705810885368
 20
83.50823272113121
 30
0.0
 11
783.2705810885368
 21
81.20823272113103
 31
0.0
  0
LINE
  5
8119
330
808A
100
AcDbEntity
  8
躯体と製品
  6
Continuous
 62
     7
100
AcDbLine
 10
777.2705810885359
 20
84.30823272113116
 30
0.0
 11
785.2705810885359
 21
84.30823272113116
 31
0.0
  0
ARC
  5
811A
330
808A
100
AcDbEntity
  8
躯体と製品
  6
Continuous
 62
     7
100
AcDbCircle
 10
781.2705810885359
 20
80.50823272113097
 30
0.0
 40
6.0
100
AcDbArc
 50
90.0
 51
127.4662100000029
  0
LINE
  5
811B
330
808A
100
AcDbEntity
  8
躯体と製品
  6
DASHED1
 62
     7
100
AcDbLine
 10
779.2705810885359
 20
83.50823272113121
 30
0.0
 11
779.2705810885359
 21
73.50823272113098
 31
0.0
  0
LINE
  5
811C
330
808A
100
AcDbEntity
  8
躯体と製品
  6
Continuous
 62
     7
100
AcDbLine
 10
777.2705810885359
 20
84.30823272113116
 30
0.0
 11
777.7324610885366
 21
83.50823272113121
 31
0.0
  0
LINE
  5
811D
330
808A
100
AcDbEntity
  8
躯体と製品
  6
Continuous
 62
     7
100
AcDbLine
 10
777.6208210885356
 20
85.27050272113115
 30
0.0
 11
777.2705810885359
 21
84.30823272113116
 31
0.0
  0
LINE
  5
811E
330
808A
100
AcDbEntity
  8
中心線
  6
CENTER1
 62
     7
100
AcDbLine
 10
781.2705810885359
 20
90.0515545530518
 30
0.0
 11
781.2705810885359
 21
73.50823272113098
 31
0.0
  0
LINE
  5
811F
330
808A
100
AcDbEntity
  8
躯体と製品
  6
DASHED1
 62
     7
100
AcDbLine
 10
783.2705810885358
 20
83.50823272113121
 30
0.0
 11
783.2705810885358
 21
73.50823272113098
 31
0.0
  0
ARC
  5
8120
330
808A
100
AcDbEntity
  8
躯体と製品
  6
Continuous
 62
     7
100
AcDbCircle
 10
781.2705810885359
 20
80.50823272113097
 30
0.0
 40
6.0
100
AcDbArc
 50
52.53378199995911
 51
90.0
  0
LINE
  5
8121
330
808A
100
AcDbEntity
  8
躯体と製品
  6
Continuous
 62
     7
100
AcDbLine
 10
785.2705810885359
 20
84.30823272113116
 30
0.0
 11
784.808701088536
 21
83.50823272113121
 31
0.0
  0
LINE
  5
8122
330
808A
100
AcDbEntity
  8
躯体と製品
  6
Continuous
 62
     7
100
AcDbLine
 10
784.9203410885361
 20
85.27050272113115
 30
0.0
 11
785.2705810885359
 21
84.30823272113116
 31
0.0
  0
LINE
  5
8123
330
808A
100
AcDbEntity
  8
躯体と製品
  6
Continuous
 62
     3
100
AcDbLine
 10
812.569419749199
 20
82.20823272113149
 30
0.0
 11
1453.7884279158
 21
82.20823272113126
 31
0.0
  0
LINE
  5
8124
330
808A
100
AcDbEntity
  8
文字-記号
  6
Continuous
 62
     7
100
AcDbLine
 10
435.382104085761
 20
140.2290655406659
 30
0.0
 11
473.0164740857608
 21
205.4137055406659
 31
0.0
  0
LINE
  5
8125
330
808A
100
AcDbEntity
  8
文字-記号
  6
Continuous
 62
     7
100
AcDbLine
 10
473.0164740857608
 20
205.4137055406659
 30
0.0
 11
622.6454912928884
 21
205.4137055406659
 31
0.0
  0
TEXT
  5
8126
330
808A
100
AcDbEntity
  8
文字-記号
 62
     7
100
AcDbText
 10
473.0164840857606
 20
209.4136955406657
 30
0.0
 40
18.0
  1
タイルカーペット
 41
0.8
  7
ACAD
100
AcDbText
  0
LINE
  5
8127
330
808A
100
AcDbEntity
  8
文字-記号
  6
Continuous
 62
     7
100
AcDbLine
 10
769.1755176835686
 20
82.57510859985449
 30
0.0
 11
739.713987683569
 21
31.54625177015396
 31
0.0
  0
LINE
  5
8128
330
808A
100
AcDbEntity
  8
文字-記号
  6
Continuous
 62
     7
100
AcDbLine
 10
781.2705810885367
 20
74.57437572113121
 30
0.0
 11
738.2150410885373
 21
-0.0000000518025445
 31
0.0
  0
TEXT
  5
8129
330
808A
100
AcDbEntity
  8
文字-記号
 62
     7
100
AcDbText
 10
619.9521302121061
 20
35.54623177015447
 30
0.0
 40
18.0
  1
ベース固定金具
 50
0.0000099999977495
 41
0.8
  7
ACAD
100
AcDbText
  0
LINE
  5
812A
330
808A
100
AcDbEntity
  8
文字-記号
  6
Continuous
 62
     7
100
AcDbLine
 10
739.713987683569
 20
31.54625177015396
 30
0.0
 11
617.4345765089256
 21
31.54625177015396
 31
0.0
  0
LINE
  5
812B
330
808A
100
AcDbEntity
  8
文字-記号
  6
Continuous
 62
     7
100
AcDbLine
 10
738.2150410885373
 20
-0.0000000518025445
 30
0.0
 11
666.7589312574782
 21
-0.0000000518025445
 31
0.0
  0
TEXT
  5
812C
330
808A
100
AcDbEntity
  8
文字-記号
 62
     7
100
AcDbText
 10
666.5161576170739
 20
3.999999948197455
 30
0.0
 40
18.0
  1
ビ　ス
 50
0.0000099999977495
 41
0.8
  7
ACAD
100
AcDbText
  0
LINE
  5
812D
330
808A
100
AcDbEntity
  8
文字-記号
  6
Continuous
 62
     7
100
AcDbLine
 10
769.1755176835686
 20
82.57510859985449
 30
0.0
 11
766.9075676835691
 21
74.64690859985421
 31
0.0
  0
LINE
  5
812E
330
808A
100
AcDbEntity
  8
文字-記号
  6
Continuous
 62
     7
100
AcDbLine
 10
781.2705810885367
 20
74.57437572113121
 30
0.0
 11
775.5385310885372
 21
68.64617572113139
 31
0.0
  0
LINE
  5
812F
330
808A
100
AcDbEntity
  8
文字-記号
  6
Continuous
 62
     7
100
AcDbLine
 10
781.2705810885367
 20
74.57437572113121
 30
0.0
 11
779.0026310885373
 21
66.64617572113138
 31
0.0
  0
LINE
  5
8130
330
808A
100
AcDbEntity
  8
文字-記号
  6
Continuous
 62
     7
100
AcDbLine
 10
769.1755176835686
 20
82.57510859985449
 30
0.0
 11
763.443467683569
 21
76.64690859985421
 31
0.0
  0
TEXT
  5
8131
330
808A
100
AcDbEntity
  8
文字-記号
 62
     7
100
AcDbText
 10
842.8538121621263
 20
267.0268049647154
 30
0.0
 40
18.0
  1
アルミスロープ
 41
0.8
  7
ACAD
100
AcDbText
  0
LINE
  5
8132
330
808A
100
AcDbEntity
  8
文字-記号
  6
Continuous
 62
     7
100
AcDbLine
 10
842.8538021621266
 20
263.0267849647155
 30
0.0
 11
957.2773461056126
 21
263.0267849647155
 31
0.0
  0
LINE
  5
8133
330
808A
100
AcDbEntity
  8
文字-記号
  6
Continuous
 62
     7
100
AcDbLine
 10
796.7705810779539
 20
183.2082927211313
 30
0.0
 11
842.8538021621266
 21
263.0267849647155
 31
0.0
  0
LINE
  5
8134
330
808A
100
AcDbEntity
  8
文字-記号
  6
Continuous
 62
     7
100
AcDbLine
 10
796.7705810779539
 20
183.2082927211313
 30
0.0
 11
802.5026310779544
 21
189.1364927211311
 31
0.0
  0
LINE
  5
8135
330
808A
100
AcDbEntity
  8
文字-記号
  6
Continuous
 62
     7
100
AcDbLine
 10
796.7705810779539
 20
183.2082927211313
 30
0.0
 11
799.0385310779543
 21
191.1364927211311
 31
0.0
  0
LINE
  5
8136
330
808A
100
AcDbEntity
  8
文字-記号
  6
Continuous
 62
     7
100
AcDbLine
 10
1050.778383733478
 20
154.9975474415673
 30
0.0
 11
1083.398673733479
 21
211.4975474415674
 31
0.0
  0
LINE
  5
8137
330
808A
100
AcDbEntity
  8
文字-記号
  6
Continuous
 62
     7
100
AcDbLine
 10
1050.778383733478
 20
154.9975474415673
 30
0.0
 11
1056.510433733479
 21
160.9257474415674
 31
0.0
  0
LINE
  5
8138
330
808A
100
AcDbEntity
  8
文字-記号
  6
Continuous
 62
     7
100
AcDbLine
 10
1050.778383733478
 20
154.9975474415673
 30
0.0
 11
1053.046333733479
 21
162.9257474415674
 31
0.0
  0
LINE
  5
8139
330
808A
100
AcDbEntity
  8
文字-記号
  6
Continuous
 62
     7
100
AcDbLine
 10
1083.398673733479
 20
211.4975474415674
 30
0.0
 11
1314.878324710851
 21
211.4975474415674
 31
0.0
  0
TEXT
  5
813A
330
808A
100
AcDbEntity
  8
文字-記号
 62
     7
100
AcDbText
 10
1101.640897159431
 20
215.4975274415674
 30
0.0
 40
18.0
  1
サンアクセスフロア300T
 41
0.8
  7
ACAD
100
AcDbText
  0
LINE
  5
813B
330
808A
100
AcDbEntity
  8
文字-記号
  6
Continuous
 62
     7
100
AcDbLine
 10
948.4105247936254
 20
221.2082447211315
 30
0.0
 11
1087.536079699144
 21
221.2082447211315
 31
0.0
  0
TEXT
  5
813C
330
808A
100
AcDbEntity
  8
文字-記号
 62
     7
100
AcDbText
 10
954.7928162717484
 20
225.2082247211315
 30
0.0
 40
18.0
  1
タイルカーペット
 41
0.8
  7
ACAD
100
AcDbText
  0
LINE
  5
813D
330
808A
100
AcDbEntity
  8
文字-記号
  6
Continuous
 62
     7
100
AcDbLine
 10
925.3165147936247
 20
181.2082447211314
 30
0.0
 11
948.4105247936254
 21
221.2082447211315
 31
0.0
  0
LINE
  5
813E
330
808A
100
AcDbEntity
  8
文字-記号
  6
Continuous
 62
     7
100
AcDbLine
 10
925.3165147936247
 20
181.2082447211314
 30
0.0
 11
931.0485647936252
 21
187.1364447211315
 31
0.0
  0
LINE
  5
813F
330
808A
100
AcDbEntity
  8
文字-記号
  6
Continuous
 62
     7
100
AcDbLine
 10
925.3165147936247
 20
181.2082447211314
 30
0.0
 11
927.5844647936251
 21
189.1364447211315
 31
0.0
  0
LINE
  5
8140
330
808A
100
AcDbEntity
  8
文字-記号
  6
Continuous
 62
     7
100
AcDbLine
 10
1058.982574811476
 20
13.90966295797807
 30
0.0
 11
1193.843703841361
 21
13.90966295797807
 31
0.0
  0
TEXT
  5
8141
330
808A
100
AcDbEntity
  8
文字-記号
 62
     7
100
AcDbText
 10
1061.721366867668
 20
17.90964295797812
 30
0.0
 40
18.0
  1
クッションシート
 41
0.8
  7
ACAD
100
AcDbText
  0
LINE
  5
8142
330
808A
100
AcDbEntity
  8
文字-記号
  6
Continuous
 62
     7
100
AcDbLine
 10
1019.741502019078
 20
81.75585772906561
 30
0.0
 11
1058.982574811476
 21
13.90966295797807
 31
0.0
  0
LINE
  5
8143
330
808A
100
AcDbEntity
  8
文字-記号
  6
Continuous
 62
     7
100
AcDbLine
 10
1019.741502019078
 20
81.75585772906561
 30
0.0
 11
1022.026463610338
 21
73.83254384099018
 31
0.0
  0
LINE
  5
8144
330
808A
100
AcDbEntity
  8
文字-記号
  6
Continuous
 62
     7
100
AcDbLine
 10
1019.741502019078
 20
81.75585772906561
 30
0.0
 11
1025.486262899872
 21
75.83997445900331
 31
0.0
  0
DIMENSION
  5
8145
330
808A
100
AcDbEntity
  8
0
  6
Continuous
100
AcDbDimension
  2
*D3
 10
1497.890306494769
 20
174.708232721134
 30
0.0
 11
1490.390306494769
 21
177.9582327211335
 31
0.0
 12
-3311.012563569224
 22
1779.050879878139
 32
0.0
 71
     5
 42
6.499999999997044
  3
AutoCAD
100
AcDbAlignedDimension
 13
1453.7884279158
 23
181.208232721131
 33
0.0
 14
1453.7884279158
 24
174.708232721134
 34
0.0
 50
90.0
100
AcDbRotatedDimension
1001
ACAD
1000
DSTYLE
1002
{
1070
    69
1070
     1
1070
   345
1005
14
1070
   346
1005
14
1070
   347
1005
14
1002
}
  0
LINE
  5
8146
330
808A
100
AcDbEntity
  8
躯体と製品
  6
Continuous
 62
     3
100
AcDbLine
 10
1325.770581088536
 20
116.2082447210905
 30
0.0
 11
1325.770581088536
 21
140.2082447210905
 31
0.0
  0
LINE
  5
8147
330
808A
100
AcDbEntity
  8
躯体と製品
  6
Continuous
 62
     3
100
AcDbLine
 10
1303.770581088536
 20
116.2082447210905
 30
0.0
 11
1303.770581088536
 21
140.2082447210905
 31
0.0
  0
LINE
  5
8148
330
808A
100
AcDbEntity
  8
躯体と製品
  6
Continuous
 62
     3
100
AcDbLine
 10
1303.770581088536
 20
116.2082447210905
 30
0.0
 11
1325.770581088536
 21
116.2082447210905
 31
0.0
  0
LINE
  5
8149
330
808A
100
AcDbEntity
  8
躯体と製品
  6
Continuous
 62
     3
100
AcDbLine
 10
1349.770581088536
 20
147.2082447210905
 30
0.0
 11
1279.770581088536
 21
147.2082447210905
 31
0.0
  0
LINE
  5
814A
330
808A
100
AcDbEntity
  8
躯体と製品
  6
Continuous
 62
     3
100
AcDbLine
 10
1304.770581088594
 20
166.7082447210905
 30
0.0
 11
1304.770581088594
 21
147.2082447210905
 31
0.0
  0
LINE
  5
814B
330
808A
100
AcDbEntity
  8
躯体と製品
  6
Continuous
 62
     3
100
AcDbLine
 10
1321.77057932998
 20
148.186429090847
 30
0.0
 11
1321.295648643133
 21
170.7299365626513
 31
0.0
  0
LINE
  5
814C
330
808A
100
AcDbEntity
  8
躯体と製品
  6
Continuous
 62
     3
100
AcDbLine
 10
1307.770581087008
 20
148.1864292037117
 30
0.0
 11
1308.245516214954
 21
170.7300596061377
 31
0.0
  0
LINE
  5
814D
330
808A
100
AcDbEntity
  8
躯体と製品
  6
Continuous
 62
     3
100
AcDbLine
 10
1288.27058108855
 20
140.2082447210905
 30
0.0
 11
1288.27058108855
 21
144.2082447210905
 31
0.0
  0
LINE
  5
814E
330
808A
100
AcDbEntity
  8
躯体と製品
  6
Continuous
 62
     3
100
AcDbLine
 10
1349.770581088536
 20
140.2082447210905
 30
0.0
 11
1279.770581088536
 21
140.2082447210905
 31
0.0
  0
LINE
  5
814F
330
808A
100
AcDbEntity
  8
躯体と製品
  6
Continuous
 62
     3
100
AcDbLine
 10
1279.770581088536
 20
144.2082447210905
 30
0.0
 11
1349.770581088536
 21
144.2082447210905
 31
0.0
  0
LINE
  5
8150
330
808A
100
AcDbEntity
  8
躯体と製品
  6
Continuous
 62
     3
100
AcDbLine
 10
1279.770581088536
 20
140.2082447210905
 30
0.0
 11
1279.770581088536
 21
147.2082447210905
 31
0.0
  0
LINE
  5
8151
330
808A
100
AcDbEntity
  8
躯体と製品
  6
Continuous
 62
     3
100
AcDbLine
 10
1341.27058108855
 20
144.2082447210905
 30
0.0
 11
1341.27058108855
 21
140.2082447210905
 31
0.0
  0
LINE
  5
8152
330
808A
100
AcDbEntity
  8
躯体と製品
  6
Continuous
 62
     3
100
AcDbLine
 10
1307.873298650518
 20
147.2082441326547
 30
0.0
 11
1307.897749684429
 21
147.2089938608387
 31
0.0
  0
ARC
  5
8153
330
808A
100
AcDbEntity
  8
躯体と製品
  6
Continuous
 62
     3
100
AcDbCircle
 10
1306.770796137598
 20
148.2082655068134
 30
0.0
 40
1.000021374460674
100
AcDbArc
 50
270.0014126952299
 51
358.7488018035706
  0
ARC
  5
8154
330
808A
100
AcDbEntity
  8
躯体と製品
  6
Continuous
 62
     3
100
AcDbCircle
 10
1322.770364291091
 20
148.2082656568218
 30
0.0
 40
1.000021642794381
100
AcDbArc
 50
181.251213239439
 51
269.9986259446977
  0
LINE
  5
8155
330
808A
100
AcDbEntity
  8
躯体と製品
  6
Continuous
 62
     3
100
AcDbLine
 10
1324.770581088594
 20
166.7070627958292
 30
0.0
 11
1324.770581088594
 21
147.2082447210905
 31
0.0
  0
LINE
  5
8156
330
808A
100
AcDbEntity
  8
躯体と製品
  6
Continuous
 62
     3
100
AcDbLine
 10
1349.770581088536
 20
140.2082447210905
 30
0.0
 11
1349.770581088536
 21
147.2082447210905
 31
0.0
  0
LINE
  5
8157
330
808A
100
AcDbEntity
  8
躯体と製品
  6
Continuous
 62
     3
100
AcDbLine
 10
1344.270575150539
 20
148.1864282863589
 30
0.0
 11
1344.270575150539
 21
166.7070627958292
 31
0.0
  0
ARC
  5
8158
330
808A
100
AcDbEntity
  8
躯体と製品
  6
Continuous
 62
     3
100
AcDbCircle
 10
1331.270790201129
 20
148.2082655068134
 30
0.0
 40
1.000021374460674
100
AcDbArc
 50
270.0014126952299
 51
358.7488018035706
  0
ARC
  5
8159
330
808A
100
AcDbEntity
  8
躯体と製品
  6
Continuous
 62
     3
100
AcDbCircle
 10
1345.270358353094
 20
148.2082648139603
 30
0.0
 40
1.000021642794381
100
AcDbArc
 50
181.251213239439
 51
269.9986259446977
  0
LINE
  5
815A
330
808A
100
AcDbEntity
  8
躯体と製品
  6
Continuous
 62
     3
100
AcDbLine
 10
1332.270575150539
 20
148.1864257671896
 30
0.0
 11
1332.270575150539
 21
166.7070627958292
 31
0.0
  0
LINE
  5
815B
330
808A
100
AcDbEntity
  8
躯体と製品
  6
Continuous
 62
     3
100
AcDbLine
 10
1285.270587026532
 20
148.1864282863589
 30
0.0
 11
1285.270587026532
 21
166.7070627958292
 31
0.0
  0
ARC
  5
815C
330
808A
100
AcDbEntity
  8
躯体と製品
  6
Continuous
 62
     3
100
AcDbCircle
 10
1298.270371975942
 20
148.2082655068134
 30
0.0
 40
1.000021374460674
100
AcDbArc
 50
181.2511981964294
 51
269.9985873047701
  0
ARC
  5
815D
330
808A
100
AcDbEntity
  8
躯体と製品
  6
Continuous
 62
     3
100
AcDbCircle
 10
1284.27080382397
 20
148.2082648139603
 30
0.0
 40
1.000021642794381
100
AcDbArc
 50
270.0013740553022
 51
358.748786760561
  0
LINE
  5
815E
330
808A
100
AcDbEntity
  8
躯体と製品
  6
Continuous
 62
     3
100
AcDbLine
 10
1297.270587026532
 20
148.1864257671896
 30
0.0
 11
1297.270587026532
 21
166.7070627958292
 31
0.0
  0
LINE
  5
815F
330
808A
100
AcDbEntity
  8
躯体と製品
  6
Continuous
 62
     3
100
AcDbLine
 10
1344.270575132961
 20
148.186429090847
 30
0.0
 11
1332.270573137726
 21
148.186429090847
 31
0.0
  0
LINE
  5
8160
330
808A
100
AcDbEntity
  8
躯体と製品
  6
Continuous
 62
     3
100
AcDbLine
 10
1321.770581089365
 20
148.186429090847
 30
0.0
 11
1307.770579074187
 21
148.186429090847
 31
0.0
  0
LINE
  5
8161
330
808A
100
AcDbEntity
  8
躯体と製品
  6
Continuous
 62
     3
100
AcDbLine
 10
1285.270587044096
 20
148.186429090847
 30
0.0
 11
1297.270589039338
 21
148.186429090847
 31
0.0
  0
LINE
  5
8162
330
808A
100
AcDbEntity
  8
躯体と製品
  6
Continuous
 62
     3
100
AcDbLine
 10
1295.27058108855
 20
140.2082447210905
 30
0.0
 11
1295.27058108855
 21
144.2082447210905
 31
0.0
  0
LINE
  5
8163
330
808A
100
AcDbEntity
  8
躯体と製品
  6
Continuous
 62
     3
100
AcDbLine
 10
1334.27058108855
 20
144.2082447210905
 30
0.0
 11
1334.27058108855
 21
140.2082447210905
 31
0.0
  0
ARC
  5
8164
330
808A
100
AcDbEntity
  8
躯体と製品
  6
Continuous
 62
     3
100
AcDbCircle
 10
1309.245309080824
 20
170.7082132017076
 30
0.0
 40
1.000031519520032
100
AcDbArc
 50
90.0009144115855
 51
178.7482331021901
  0
ARC
  5
8165
330
808A
100
AcDbEntity
  8
躯体と製品
  6
Continuous
 62
     3
100
AcDbCircle
 10
1320.295853096233
 20
170.7082132017003
 30
0.0
 40
1.000031519520032
100
AcDbArc
 50
1.251766897809863
 51
89.9990855884145
  0
LINE
  5
8166
330
808A
100
AcDbEntity
  8
躯体と製品
  6
Continuous
 62
     4
100
AcDbLine
 10
1306.020581088536
 20
172.2082447210905
 30
0.0
 11
1306.020581088536
 21
166.7082447210905
 31
0.0
  0
LINE
  5
8167
330
808A
100
AcDbEntity
  8
躯体と製品
  6
Continuous
 62
     4
100
AcDbLine
 10
1284.874282110174
 20
166.7070627958292
 30
0.0
 11
1307.520581088536
 21
166.7070627958292
 31
0.0
  0
LINE
  5
8168
330
808A
100
AcDbEntity
  8
躯体と製品
  6
Continuous
 62
     4
100
AcDbLine
 10
1314.520581088536
 20
174.7082447210905
 30
0.0
 11
1315.020581088536
 21
174.7082447210905
 31
0.0
  0
LINE
  5
8169
330
808A
100
AcDbEntity
  8
躯体と製品
  6
Continuous
 62
     4
100
AcDbLine
 10
1315.020581088536
 20
174.7082447210905
 30
0.0
 11
1315.020581088536
 21
172.2082447210905
 31
0.0
  0
LINE
  5
816A
330
808A
100
AcDbEntity
  8
躯体と製品
  6
Continuous
 62
     4
100
AcDbLine
 10
1314.520581088536
 20
174.7082447210905
 30
0.0
 11
1314.520581088536
 21
172.2082447210905
 31
0.0
  0
LINE
  5
816B
330
808A
100
AcDbEntity
  8
躯体と製品
  6
Continuous
 62
     4
100
AcDbLine
 10
1307.520581088536
 20
171.7082447210905
 30
0.0
 11
1307.520581088536
 21
166.7070627958292
 31
0.0
  0
LINE
  5
816C
330
808A
100
AcDbEntity
  8
躯体と製品
  6
Continuous
 62
     4
100
AcDbLine
 10
1307.520581088536
 20
171.7082447210905
 30
0.0
 11
1322.020581088536
 21
171.7082447210905
 31
0.0
  0
LINE
  5
816D
330
808A
100
AcDbEntity
  8
躯体と製品
  6
Continuous
 62
     4
100
AcDbLine
 10
1344.666880066897
 20
166.7070627958292
 30
0.0
 11
1322.020581088536
 21
166.7070627958292
 31
0.0
  0
LINE
  5
816E
330
808A
100
AcDbEntity
  8
躯体と製品
  6
Continuous
 62
     4
100
AcDbLine
 10
1322.020581088536
 20
171.7082447210905
 30
0.0
 11
1322.020581088536
 21
166.7043241834817
 31
0.0
  0
LWPOLYLINE
  5
816F
330
808A
100
AcDbEntity
  8
躯体と製品
  6
Continuous
 62
     4
100
AcDbPolyline
 90
        2
 70
     0
 43
0.0
 10
1345.270581088536
 20
172.2082447210905
 10
1284.270581088536
 20
172.2082447210905
  0
LINE
  5
8170
330
808A
100
AcDbEntity
  8
躯体と製品
  6
Continuous
 62
     4
100
AcDbLine
 10
1328.270581088536
 20
172.2082447210905
 30
0.0
 11
1328.270581088536
 21
174.7082447210905
 31
0.0
  0
LINE
  5
8171
330
808A
100
AcDbEntity
  8
躯体と製品
  6
Continuous
 62
     4
100
AcDbLine
 10
1323.520581088536
 20
172.2082447210905
 30
0.0
 11
1323.520581088536
 21
166.7082447210905
 31
0.0
  0
LINE
  5
8172
330
808A
100
AcDbEntity
  8
躯体と製品
  6
Continuous
 62
     4
100
AcDbLine
 10
1337.020581088536
 20
174.7082447210905
 30
0.0
 11
1328.270581088536
 21
174.7082447210905
 31
0.0
  0
LINE
  5
8173
330
808A
100
AcDbEntity
  8
躯体と製品
  6
Continuous
 62
     4
100
AcDbLine
 10
1337.020581088536
 20
172.2082447210905
 30
0.0
 11
1337.020581088536
 21
174.7082447210905
 31
0.0
  0
LINE
  5
8174
330
808A
100
AcDbEntity
  8
躯体と製品
  6
Continuous
 62
     4
100
AcDbLine
 10
1299.615136522303
 20
172.2082447210905
 30
0.0
 11
1299.615136522303
 21
166.7082447210905
 31
0.0
  0
LINE
  5
8175
330
808A
100
AcDbEntity
  8
躯体と製品
  6
Continuous
 62
     4
100
AcDbLine
 10
1329.926025654754
 20
172.2082447210905
 30
0.0
 11
1329.926025654754
 21
166.7082447210905
 31
0.0
  0
LINE
  5
8176
330
808A
100
AcDbEntity
  8
躯体と製品
  6
Continuous
 62
     4
100
AcDbLine
 10
1301.270581088536
 20
172.2082447210905
 30
0.0
 11
1301.270581088536
 21
174.7082447210905
 31
0.0
  0
LINE
  5
8177
330
808A
100
AcDbEntity
  8
躯体と製品
  6
Continuous
 62
     4
100
AcDbLine
 10
1292.520581088536
 20
174.7082447210905
 30
0.0
 11
1301.270581088536
 21
174.7082447210905
 31
0.0
  0
LINE
  5
8178
330
808A
100
AcDbEntity
  8
躯体と製品
  6
Continuous
 62
     4
100
AcDbLine
 10
1292.520581088536
 20
172.2082447210905
 30
0.0
 11
1292.520581088536
 21
174.7082447210905
 31
0.0
  0
LINE
  5
8179
330
808A
100
AcDbEntity
  8
躯体と製品
  6
Continuous
 62
     4
100
AcDbLine
 10
1284.270581088536
 20
174.7082447210905
 30
0.0
 11
1290.020581088536
 21
174.7082447210905
 31
0.0
  0
LINE
  5
817A
330
808A
100
AcDbEntity
  8
躯体と製品
  6
Continuous
 62
     4
100
AcDbLine
 10
1290.020581088536
 20
172.2082447210905
 30
0.0
 11
1290.020581088536
 21
174.7082447210905
 31
0.0
  0
LINE
  5
817B
330
808A
100
AcDbEntity
  8
躯体と製品
  6
Continuous
 62
     4
100
AcDbLine
 10
1284.270581088536
 20
171.7082447210905
 30
0.0
 11
1284.270581088536
 21
174.7082447210905
 31
0.0
  0
LWPOLYLINE
  5
817C
330
808A
100
AcDbEntity
  8
躯体と製品
  6
Continuous
 62
     4
100
AcDbPolyline
 90
        2
 70
     0
 43
0.0
 10
1285.270581088536
 20
172.2082447210905
 10
1285.270581088536
 20
166.7070627958292
  0
LINE
  5
817D
330
808A
100
AcDbEntity
  8
躯体と製品
  6
Continuous
 62
     4
100
AcDbLine
 10
1284.874282110174
 20
171.7082447210905
 30
0.0
 11
1284.270581088536
 21
171.7082447210905
 31
0.0
  0
LWPOLYLINE
  5
817E
330
808A
100
AcDbEntity
  8
躯体と製品
  6
Continuous
 62
     4
100
AcDbPolyline
 90
        2
 70
     0
 43
0.0
 10
1284.874282110174
 20
171.7082447210905
 10
1284.874282110174
 20
166.7070627958292
  0
LINE
  5
817F
330
808A
100
AcDbEntity
  8
躯体と製品
  6
Continuous
 62
     4
100
AcDbLine
 10
1345.270581088528
 20
174.7082447210905
 30
0.0
 11
1339.520581088536
 21
174.7082447210905
 31
0.0
  0
LINE
  5
8180
330
808A
100
AcDbEntity
  8
躯体と製品
  6
Continuous
 62
     4
100
AcDbLine
 10
1339.520581088536
 20
172.2082447210905
 30
0.0
 11
1339.520581088536
 21
174.7082447210905
 31
0.0
  0
LINE
  5
8181
330
808A
100
AcDbEntity
  8
躯体と製品
  6
Continuous
 62
     4
100
AcDbLine
 10
1345.270581088528
 20
171.7082447210905
 30
0.0
 11
1345.270581088528
 21
174.7082447210905
 31
0.0
  0
LWPOLYLINE
  5
8182
330
808A
100
AcDbEntity
  8
躯体と製品
  6
Continuous
 62
     4
100
AcDbPolyline
 90
        2
 70
     0
 43
0.0
 10
1344.270581088536
 20
172.2082447210905
 10
1344.270581088536
 20
166.7070627958292
  0
LINE
  5
8183
330
808A
100
AcDbEntity
  8
躯体と製品
  6
Continuous
 62
     4
100
AcDbLine
 10
1344.666880066897
 20
171.7082447210905
 30
0.0
 11
1345.270581088536
 21
171.7082447210905
 31
0.0
  0
LWPOLYLINE
  5
8184
330
808A
100
AcDbEntity
  8
躯体と製品
  6
Continuous
 62
     4
100
AcDbPolyline
 90
        2
 70
     0
 43
0.0
 10
1344.666880066897
 20
171.7082447210905
 10
1344.666880066897
 20
166.7070627958292
  0
LWPOLYLINE
  5
8185
330
808A
100
AcDbEntity
  8
躯体と製品
  6
Continuous
 62
     6
100
AcDbPolyline
 90
        6
 70
     1
 43
0.0
 10
1327.770581088507
 20
112.5050503504881
 10
1327.770581088507
 20
109.7082447210905
 10
1265.770581088507
 20
109.7082447210905
 10
1265.770581088507
 20
112.5050503504881
 42
-0.4142135623730951
 10
1266.973775459116
 20
113.7082447210905
 10
1326.567386717897
 20
113.7082447210905
 42
-0.4142135623730951
  0
LWPOLYLINE
  5
8186
330
808A
100
AcDbEntity
  8
躯体と製品
  6
Continuous
 62
     6
100
AcDbPolyline
 90
        4
 70
     0
 43
0.0
 10
1307.270581088507
 20
109.7082447210905
 10
1307.270581088507
 20
108.7082447210905
 10
1322.270581088507
 20
108.7082447210905
 10
1322.270581088507
 20
109.7082447210905
  0
LWPOLYLINE
  5
8187
330
808A
100
AcDbEntity
  8
躯体と製品
  6
Continuous
 62
     6
100
AcDbPolyline
 90
        8
 70
     1
 43
0.0
 10
1327.770581088507
 20
115.6875567210936
 10
1327.770581088543
 20
114.2289327210874
 42
-0.4142135623730951
 10
1327.249893088546
 20
113.7082447210905
 10
1302.291269088525
 20
113.7082447210905
 42
-0.4142135623730951
 10
1301.770581088507
 20
114.2289327210874
 10
1301.770581088528
 20
115.6875567210936
 42
-0.4142135623730951
 10
1302.291269088525
 20
116.2082447210905
 10
1327.249893088546
 20
116.2082447210905
 42
-0.4142135623730951
  0
LWPOLYLINE
  5
8188
330
808A
100
AcDbEntity
  8
躯体と製品
 62
     3
100
AcDbPolyline
 90
        2
 70
     0
 43
0.0
 10
814.7705810885359
 20
181.2082447211314
 10
1453.7884279158
 20
181.2082447211314
  0
LWPOLYLINE
  5
8189
330
808A
100
AcDbEntity
  8
躯体と製品
 62
     3
100
AcDbPolyline
 90
        2
 70
     0
 43
0.0
 10
814.7705810885359
 20
174.7082447211323
 10
1453.7884279158
 20
174.7082447211344
  0
LWPOLYLINE
  5
818A
330
808A
100
AcDbEntity
  8
躯体と製品
 62
     2
100
AcDbPolyline
 90
        7
 70
     0
 43
0.0
 10
1064.770581088536
 20
153.2082447211023
 10
1218.21814701623
 20
153.2082447211023
 10
1218.21814701623
 20
148.2082447210951
 10
1250.702403162647
 20
148.2082447210951
 10
1250.702403162647
 20
147.708244721095
 42
0.4142135623667019
 10
1251.202403162647
 20
147.2082447210951
 10
1300.373465776892
 20
147.2082447210878
  0
LWPOLYLINE
  5
818B
330
808A
100
AcDbEntity
  8
躯体と製品
 62
     2
100
AcDbPolyline
 90
        2
 70
     0
 43
0.0
 10
824.331778171339
 20
173.2082447211241
 10
1284.270581088536
 20
173.2082447211205
  0
LWPOLYLINE
  5
818C
330
808A
100
AcDbEntity
  8
躯体と製品
 62
     2
100
AcDbPolyline
 90
        4
 70
     0
 43
0.0
 10
1301.270581088494
 20
173.2082447211278
 10
1313.52346577773
 20
173.2082447211314
 42
0.9999999999999998
 10
1313.52346577773
 20
174.7082447211314
 10
816.023481997619
 20
174.708244721136
  0
LWPOLYLINE
  5
818D
330
808A
100
AcDbEntity
  8
躯体と製品
 62
     2
100
AcDbPolyline
 90
        2
 70
     0
 43
0.0
 10
1303.873465776892
 20
150.708244721095
 10
1303.873465777543
 20
166.7082447211314
  0
LWPOLYLINE
  5
818E
330
808A
100
AcDbEntity
  8
躯体と製品
 62
     2
100
AcDbPolyline
 90
        4
 70
     0
 43
0.0
 10
1300.373465776892
 20
147.2082447210878
 42
0.4119010277362153
 10
1303.873465776892
 20
150.708244721095
 42
-0.41190102773863
 10
1300.373465776892
 20
147.2082447210951
 10
1297.404333891796
 20
147.2082447210951
  0
LWPOLYLINE
  5
818F
330
808A
100
AcDbEntity
  8
躯体と製品
 62
     2
100
AcDbPolyline
 90
        2
 70
     0
 43
0.0
 10
878.3387590144188
 20
147.2082447210923
 10
1251.202403162647
 20
147.2082447210878
  0
LWPOLYLINE
  5
8190
330
808A
100
AcDbEntity
  8
躯体と製品
 62
     2
100
AcDbPolyline
 90
        2
 70
     0
 43
0.0
 10
1304.275389566291
 20
172.2082447210905
 42
-0.115892716742169
 10
1305.215153382492
 20
173.2082447211241
  0
LWPOLYLINE
  5
8191
330
808A
100
AcDbEntity
  8
躯体と製品
 62
     2
100
AcDbPolyline
 90
        7
 70
     0
 43
0.0
 10
1345.960560989607
 20
147.2082447211023
 10
1378.344528391184
 20
147.2082447210951
 42
0.4142135623667019
 10
1378.844528391184
 20
147.708244721095
 10
1378.844528391184
 20
148.2082447210951
 10
1411.328784537659
 20
148.2082447210951
 10
1411.328784537659
 20
153.2082447211023
 10
1453.7884279158
 20
153.2082447211023
  0
LWPOLYLINE
  5
8192
330
808A
100
AcDbEntity
  8
躯体と製品
 62
     2
100
AcDbPolyline
 90
        3
 70
     0
 43
0.0
 10
1316.023481870111
 20
174.7082447211387
 42
1.000010584557319
 10
1316.02346577709
 20
173.2082447209641
 10
1328.270581088494
 20
173.2082447209677
  0
LWPOLYLINE
  5
8193
330
808A
100
AcDbEntity
  8
躯体と製品
 62
     2
100
AcDbPolyline
 90
        2
 70
     0
 43
0.0
 10
1337.020581088494
 20
173.2082447209704
 10
1339.520581088494
 20
173.2082447209714
  0
LWPOLYLINE
  5
8194
330
808A
100
AcDbEntity
  8
躯体と製品
 62
     2
100
AcDbPolyline
 90
        2
 70
     0
 43
0.0
 10
1345.27058108849
 20
173.2082447209732
 10
1453.7884279158
 20
173.2082447210095
  0
LWPOLYLINE
  5
8195
330
808A
100
AcDbEntity
  8
躯体と製品
 62
     2
100
AcDbPolyline
 90
        2
 70
     0
 43
0.0
 10
1453.7884279158
 20
174.7082447211367
 10
1316.02346577709
 20
174.7082447211387
  0
LWPOLYLINE
  5
8196
330
808A
100
AcDbEntity
  8
躯体と製品
 62
     2
100
AcDbPolyline
 90
        2
 70
     0
 43
0.0
 10
1325.27154198754
 20
172.2082447210905
 42
0.115892716742169
 10
1324.331778171339
 20
173.2082447211241
  0
LWPOLYLINE
  5
8197
330
808A
100
AcDbEntity
  8
躯体と製品
 62
     2
100
AcDbPolyline
 90
        2
 70
     0
 43
0.0
 10
1378.344528391184
 20
147.2082447210951
 10
1453.7884279158
 20
147.2082447210937
  0
LWPOLYLINE
  5
8198
330
808A
100
AcDbEntity
  8
躯体と製品
 62
     2
100
AcDbPolyline
 90
        2
 70
     0
 43
0.0
 10
1325.667696400179
 20
150.708244721095
 10
1325.667696399528
 20
166.7082447211314
  0
LWPOLYLINE
  5
8199
330
808A
100
AcDbEntity
  8
躯体と製品
 62
     2
100
AcDbPolyline
 90
        4
 70
     0
 43
0.0
 10
1329.167696400179
 20
147.2082447210878
 42
-0.4119010277362153
 10
1325.667696400179
 20
150.708244721095
 42
0.41190102773863
 10
1329.167696400179
 20
147.2082447210951
 10
1332.136828285276
 20
147.2082447210951
  0
LWPOLYLINE
  5
819A
330
808A
100
AcDbEntity
  8
躯体と製品
  6
Continuous
 62
     6
100
AcDbPolyline
 90
        6
 70
     1
 43
0.0
 10
851.7705810885649
 20
111.5050503504899
 10
851.7705810885649
 20
108.7082447210923
 10
913.770581088565
 20
108.7082447210923
 10
913.770581088565
 20
111.5050503504899
 42
0.4142135623730951
 10
912.5673867179553
 20
112.7082447210923
 10
852.9737754591746
 20
112.7082447210923
 42
0.4142135623730951
  0
LWPOLYLINE
  5
819B
330
808A
100
AcDbEntity
  8
躯体と製品
  6
Continuous
 62
     6
100
AcDbPolyline
 90
        4
 70
     0
 43
0.0
 10
872.2705810885649
 20
108.7082447210923
 10
872.2705810885649
 20
107.7082447210923
 10
857.2705810885649
 20
107.7082447210923
 10
857.2705810885649
 20
108.7082447210923
  0
LWPOLYLINE
  5
819C
330
808A
100
AcDbEntity
  8
躯体と製品
  6
Continuous
 62
     6
100
AcDbPolyline
 90
        8
 70
     1
 43
0.0
 10
851.7705810885649
 20
114.6875567210954
 10
851.7705810885285
 20
113.2289327210892
 42
0.4142135623730951
 10
852.2912690885254
 20
112.7082447210923
 10
877.2498930885463
 20
112.7082447210923
 42
0.4142135623730951
 10
877.7705810885649
 20
113.2289327210892
 10
877.7705810885432
 20
114.6875567210954
 42
0.4142135623730951
 10
877.2498930885463
 20
115.2082447210923
 10
852.2912690885254
 20
115.2082447210923
 42
0.4142135623730951
  0
LINE
  5
819D
330
808A
100
AcDbEntity
  8
躯体と製品
  6
Continuous
 62
     3
100
AcDbLine
 10
875.7705810885358
 20
115.2082447210923
 30
0.0
 11
875.7705810885358
 21
139.2082447210923
 31
0.0
  0
LINE
  5
819E
330
808A
100
AcDbEntity
  8
躯体と製品
  6
Continuous
 62
     3
100
AcDbLine
 10
853.7705810885359
 20
115.2082447210923
 30
0.0
 11
853.7705810885359
 21
139.2082447210923
 31
0.0
  0
LINE
  5
819F
330
808A
100
AcDbEntity
  8
躯体と製品
  6
Continuous
 62
     3
100
AcDbLine
 10
853.7705810885359
 20
115.2082447210923
 30
0.0
 11
875.7705810885358
 21
115.2082447210923
 31
0.0
  0
LWPOLYLINE
  5
81A0
330
808A
100
AcDbEntity
  8
躯体と製品
  6
Continuous
 62
     4
100
AcDbPolyline
 90
        4
 70
     1
 43
0.0
 10
828.0705810885242
 20
146.2082447210923
 10
901.4705810885475
 20
146.2082447210923
 10
901.4705810885475
 20
147.2082447210923
 10
828.0705810885242
 20
147.2082447210923
  0
LINE
  5
81A1
330
808A
100
AcDbEntity
  8
躯体と製品
  6
Continuous
 62
     3
100
AcDbLine
 10
899.7705810885358
 20
139.2082447210923
 30
0.0
 11
829.7705810885359
 21
139.2082447210923
 31
0.0
  0
LINE
  5
81A2
330
808A
100
AcDbEntity
  8
躯体と製品
  6
Continuous
 62
     3
100
AcDbLine
 10
829.7705810885359
 20
143.2082447210923
 30
0.0
 11
854.2705810885358
 21
143.2082447210923
 31
0.0
  0
LINE
  5
81A3
330
808A
100
AcDbEntity
  8
躯体と製品
  6
Continuous
 62
     3
100
AcDbLine
 10
857.2705810885359
 20
143.2082447210923
 30
0.0
 11
872.2705810885358
 21
143.2082447210923
 31
0.0
  0
LINE
  5
81A4
330
808A
100
AcDbEntity
  8
躯体と製品
  6
Continuous
 62
     3
100
AcDbLine
 10
875.2705810885359
 20
143.2082447210923
 30
0.0
 11
899.7705810885358
 21
143.2082447210923
 31
0.0
  0
LINE
  5
81A5
330
808A
100
AcDbEntity
  8
躯体と製品
  6
Continuous
 62
     3
100
AcDbLine
 10
829.7705810885359
 20
139.2082447210923
 30
0.0
 11
829.7705810885359
 21
146.2082447210923
 31
0.0
  0
LINE
  5
81A6
330
808A
100
AcDbEntity
  8
躯体と製品
  6
Continuous
 62
     3
100
AcDbLine
 10
899.7705810885358
 20
139.2082447210923
 30
0.0
 11
899.7705810885358
 21
146.2082447210923
 31
0.0
  0
LINE
  5
81A7
330
808A
100
AcDbEntity
  8
躯体と製品
  6
Continuous
 62
     4
100
AcDbLine
 10
841.7955810885009
 20
143.2082447210923
 30
0.0
 11
841.7955810885009
 21
140.4082447210967
 31
0.0
  0
LINE
  5
81A8
330
808A
100
AcDbEntity
  8
躯体と製品
  6
Continuous
 62
     4
100
AcDbLine
 10
841.7955810885009
 20
140.4082447210967
 30
0.0
 11
836.7455810885125
 21
140.4082447210967
 31
0.0
  0
LINE
  5
81A9
330
808A
100
AcDbEntity
  8
躯体と製品
  6
Continuous
 62
     4
100
AcDbLine
 10
836.7455810885125
 20
143.2082447210923
 30
0.0
 11
836.7455810885125
 21
140.4082447210967
 31
0.0
  0
LINE
  5
81AA
330
808A
100
AcDbEntity
  8
躯体と製品
  6
HASEN
 62
     2
100
AcDbLine
 10
841.7955810885009
 20
143.7331279162463
 30
0.0
 11
836.7455810885125
 21
143.7331279162463
 31
0.0
  0
LINE
  5
81AB
330
808A
100
AcDbEntity
  8
躯体と製品
  6
HASEN
 62
     2
100
AcDbLine
 10
841.7955810885009
 20
143.2331279162463
 30
0.0
 11
836.7455810885125
 21
143.2331279162463
 31
0.0
  0
ARC
  5
81AC
330
808A
100
AcDbEntity
  8
躯体と製品
  6
HASEN
 62
     2
100
AcDbCircle
 10
841.7393310885358
 20
143.4831279162463
 30
0.0
 40
0.2562499999998979
100
AcDbArc
 50
282.6803834935719
 51
77.31961650642813
  0
ARC
  5
81AD
330
808A
100
AcDbEntity
  8
躯体と製品
  6
HASEN
 62
     2
100
AcDbCircle
 10
836.8018310885359
 20
143.4831279162463
 30
0.0
 40
0.2562500000005634
100
AcDbArc
 50
102.6803834935718
 51
257.3196165064281
  0
LINE
  5
81AE
330
808A
100
AcDbEntity
  8
躯体と製品
  6
HASEN
 62
     2
100
AcDbLine
 10
841.7955810885009
 20
143.2082447210923
 30
0.0
 11
841.7955810884937
 21
143.2331279162463
 31
0.0
  0
LINE
  5
81AF
330
808A
100
AcDbEntity
  8
躯体と製品
  6
HASEN
 62
     2
100
AcDbLine
 10
841.7955810884937
 20
143.7331279162463
 30
0.0
 11
841.7955810884937
 21
146.2082447210923
 31
0.0
  0
LINE
  5
81B0
330
808A
100
AcDbEntity
  8
躯体と製品
  6
HASEN
 62
     2
100
AcDbLine
 10
836.7455810885052
 20
143.2082447210923
 30
0.0
 11
836.7455810885052
 21
143.2331279162463
 31
0.0
  0
LINE
  5
81B1
330
808A
100
AcDbEntity
  8
躯体と製品
  6
HASEN
 62
     2
100
AcDbLine
 10
836.7455810885052
 20
143.7331279162463
 30
0.0
 11
836.7455810885052
 21
146.2082447210923
 31
0.0
  0
LINE
  5
81B2
330
808A
100
AcDbEntity
  8
躯体と製品
  6
Continuous
 62
     4
100
AcDbLine
 10
887.7455810885708
 20
143.2082447210923
 30
0.0
 11
887.7455810885708
 21
140.4082447210967
 31
0.0
  0
LINE
  5
81B3
330
808A
100
AcDbEntity
  8
躯体と製品
  6
Continuous
 62
     4
100
AcDbLine
 10
887.7455810885708
 20
140.4082447210967
 30
0.0
 11
892.7955810885592
 21
140.4082447210967
 31
0.0
  0
LINE
  5
81B4
330
808A
100
AcDbEntity
  8
躯体と製品
  6
Continuous
 62
     4
100
AcDbLine
 10
892.7955810885592
 20
143.2082447210923
 30
0.0
 11
892.7955810885592
 21
140.4082447210967
 31
0.0
  0
LINE
  5
81B5
330
808A
100
AcDbEntity
  8
躯体と製品
  6
HASEN
 62
     2
100
AcDbLine
 10
887.7455810885708
 20
143.7331279162463
 30
0.0
 11
892.7955810885592
 21
143.7331279162463
 31
0.0
  0
LINE
  5
81B6
330
808A
100
AcDbEntity
  8
躯体と製品
  6
HASEN
 62
     2
100
AcDbLine
 10
887.7455810885708
 20
143.2331279162463
 30
0.0
 11
892.7955810885592
 21
143.2331279162463
 31
0.0
  0
ARC
  5
81B7
330
808A
100
AcDbEntity
  8
躯体と製品
  6
HASEN
 62
     2
100
AcDbCircle
 10
887.8018310885359
 20
143.4831279162463
 30
0.0
 40
0.2562499999998979
100
AcDbArc
 50
102.6803834935718
 51
257.3196165064281
  0
ARC
  5
81B8
330
808A
100
AcDbEntity
  8
躯体と製品
  6
HASEN
 62
     2
100
AcDbCircle
 10
892.7393310885358
 20
143.4831279162463
 30
0.0
 40
0.2562500000005634
100
AcDbArc
 50
282.6803834935719
 51
77.31961650642813
  0
LINE
  5
81B9
330
808A
100
AcDbEntity
  8
躯体と製品
  6
HASEN
 62
     2
100
AcDbLine
 10
887.7455810885708
 20
143.2082447210923
 30
0.0
 11
887.7455810885708
 21
143.2331279162463
 31
0.0
  0
LINE
  5
81BA
330
808A
100
AcDbEntity
  8
躯体と製品
  6
HASEN
 62
     2
100
AcDbLine
 10
887.7455810885708
 20
143.7331279162463
 30
0.0
 11
887.7455810885708
 21
146.2082447210923
 31
0.0
  0
LINE
  5
81BB
330
808A
100
AcDbEntity
  8
躯体と製品
  6
HASEN
 62
     2
100
AcDbLine
 10
892.7955810885592
 20
143.2082447210923
 30
0.0
 11
892.7955810885592
 21
143.2331279162463
 31
0.0
  0
LINE
  5
81BC
330
808A
100
AcDbEntity
  8
躯体と製品
  6
HASEN
 62
     2
100
AcDbLine
 10
892.7955810885592
 20
143.7331279162463
 30
0.0
 11
892.7955810885592
 21
146.2082447210923
 31
0.0
  0
LWPOLYLINE
  5
81BD
330
808A
100
AcDbEntity
  8
躯体と製品
  6
Continuous
 62
     3
100
AcDbPolyline
 90
        4
 70
     0
 43
0.0
 10
872.2705810885358
 20
143.2082447210923
 10
872.5205810885359
 20
139.2082447210923
 10
875.0205810885359
 20
139.2082447210923
 10
875.2705810885359
 20
143.2082447210923
  0
LWPOLYLINE
  5
81BE
330
808A
100
AcDbEntity
  8
躯体と製品
  6
Continuous
 62
     3
100
AcDbPolyline
 90
        4
 70
     0
 43
0.0
 10
857.2705810885359
 20
143.2082447210923
 10
857.0205810885358
 20
139.2082447210923
 10
854.5205810885359
 20
139.2082447210923
 10
854.2705810885358
 20
143.2082447210923
  0
LWPOLYLINE
  5
81BF
330
808A
100
AcDbEntity
  8
躯体と製品
 62
     2
100
AcDbPolyline
 90
        3
 70
     0
 43
0.0
 10
816.0234818701114
 20
174.7082447211387
 42
1.000010584557319
 10
816.0234657770901
 20
173.2082447209641
 10
824.331778171339
 20
173.2082447211241
  0
LWPOLYLINE
  5
81C0
330
808A
100
AcDbEntity
  8
躯体と製品
 62
     2
100
AcDbPolyline
 90
        2
 70
     0
 43
0.0
 10
825.6676963993573
 20
170.8942097047866
 42
0.2349564318019027
 10
824.331778171339
 20
173.2082447211241
  0
LWPOLYLINE
  5
81C1
330
808A
100
AcDbEntity
  8
躯体と製品
 62
     2
100
AcDbPolyline
 90
        2
 70
     0
 43
0.0
 10
825.6676964001794
 20
150.708244721095
 10
825.6676963993573
 20
170.8942097047866
  0
LWPOLYLINE
  5
81C2
330
808A
100
AcDbEntity
  8
躯体と製品
 62
     2
100
AcDbPolyline
 90
        4
 70
     0
 43
0.0
 10
829.1676964001794
 20
147.2082447210878
 42
-0.4119010277362153
 10
825.6676964001794
 20
150.708244721095
 42
0.41190102773863
 10
829.1676964001794
 20
147.2082447210951
 10
832.1368282852759
 20
147.2082447210951
  0
LWPOLYLINE
  5
81C3
330
808A
100
AcDbEntity
  8
躯体と製品
 62
     2
100
AcDbPolyline
 90
        7
 70
     0
 43
0.0
 10
1064.770581088536
 20
153.2082447211023
 10
911.3230151608417
 20
153.2082447211023
 10
911.3230151608417
 20
148.2082447210951
 10
878.8387590144242
 20
148.2082447210951
 10
878.8387590144242
 20
147.708244721095
 42
-0.4142135623667019
 10
878.3387590144243
 20
147.2082447210951
 10
829.1676964001794
 20
147.2082447210878
  0
LWPOLYLINE
  5
81C4
330
808A
100
AcDbEntity
  8
躯体と製品
 62
     3
100
AcDbPolyline
 90
        2
 70
     0
 43
0.0
 10
814.7705810885359
 20
175.7082447211323
 10
1453.7884279158
 20
175.7082447211344
  0
LWPOLYLINE
  5
81C5
330
808A
100
AcDbEntity
  8
躯体と製品
 62
     3
100
AcDbPolyline
 90
        2
 70
     0
 43
0.0
 10
814.7705810885359
 20
176.7082447211323
 10
1453.7884279158
 20
176.7082447211344
  0
LINE
  5
81C6
330
808A
100
AcDbEntity
  8
0
  6
Continuous
100
AcDbLine
 10
814.7705810885359
 20
181.2082447211314
 30
0.0
 11
1453.7884279158
 21
181.208232721131
 31
0.0
  0
LINE
  5
81C7
330
808A
100
AcDbEntity
  8
躯体と製品
  6
Continuous
 62
     3
100
AcDbLine
 10
869.7705810946768
 20
89.00823272949446
 30
0.0
 11
869.7705810946768
 21
107.7082447210923
 31
0.0
  0
LINE
  5
81C8
330
808A
100
AcDbEntity
  8
躯体と製品
  6
Continuous
 62
     3
100
AcDbLine
 10
859.7705810823949
 20
89.00823272949446
 30
0.0
 11
859.7705810823949
 21
107.7082447210923
 31
0.0
  0
LINE
  5
81C9
330
808A
100
AcDbEntity
  8
躯体と製品
  6
Continuous
 62
     3
100
AcDbLine
 10
871.7705810971215
 20
89.00823272949446
 30
0.0
 11
871.7705810971215
 21
107.7082447210923
 31
0.0
  0
LINE
  5
81CA
330
808A
100
AcDbEntity
  8
躯体と製品
  6
Continuous
 62
     3
100
AcDbLine
 10
857.7705810798921
 20
89.00823272949446
 30
0.0
 11
857.7705810798921
 21
107.7082447210923
 31
0.0
  0
LINE
  5
81CB
330
808A
100
AcDbEntity
  8
躯体と製品
  6
Continuous
 62
     3
100
AcDbLine
 10
902.2705811346654
 20
84.20823272359076
 30
0.0
 11
902.2705811346654
 21
82.20823272113149
 31
0.0
  0
LINE
  5
81CC
330
808A
100
AcDbEntity
  8
躯体と製品
  6
Continuous
 62
     3
100
AcDbLine
 10
827.2705810424064
 20
84.20823272359076
 30
0.0
 11
827.2705810424064
 21
82.20823272113149
 31
0.0
  0
LINE
  5
81CD
330
808A
100
AcDbEntity
  8
躯体と製品
  6
Continuous
 62
     3
100
AcDbLine
 10
827.2705810424064
 20
82.20823272113149
 30
0.0
 11
902.2705811346654
 21
82.20823272113149
 31
0.0
  0
LINE
  5
81CE
330
808A
100
AcDbEntity
  8
躯体と製品
  6
Continuous
 62
     3
100
AcDbLine
 10
852.9302935396094
 20
89.00823272949446
 30
0.0
 11
877.6274771731818
 21
89.00823272949446
 31
0.0
  0
LINE
  5
81CF
330
808A
100
AcDbEntity
  8
躯体と製品
  6
Continuous
 62
     3
100
AcDbLine
 10
836.3721497185883
 20
86.20823272605731
 30
0.0
 11
892.2773993041605
 21
86.20823272605731
 31
0.0
  0
LINE
  5
81D0
330
808A
100
AcDbEntity
  8
躯体と製品
  6
Continuous
 62
     3
100
AcDbLine
 10
827.2705810424064
 20
84.20823272359076
 30
0.0
 11
902.2705811346654
 21
84.20823272359076
 31
0.0
  0
LINE
  5
81D1
330
808A
100
AcDbEntity
  8
躯体と製品
  6
Continuous
 62
     3
100
AcDbLine
 10
852.9302935396094
 20
86.20823272605731
 30
0.0
 11
852.9302935396094
 21
89.00823272949446
 31
0.0
  0
LINE
  5
81D2
330
808A
100
AcDbEntity
  8
躯体と製品
  6
Continuous
 62
     3
100
AcDbLine
 10
840.5205810587045
 20
85.30823272494989
 30
0.0
 11
841.902581447864
 21
84.20823272359076
 31
0.0
  0
LINE
  5
81D3
330
808A
100
AcDbEntity
  8
躯体と製品
  6
Continuous
 62
     3
100
AcDbLine
 10
840.5205810587045
 20
85.30823272494989
 30
0.0
 11
831.5205810476451
 21
85.30823272494989
 31
0.0
  0
LINE
  5
81D4
330
808A
100
AcDbEntity
  8
躯体と製品
  6
Continuous
 62
     3
100
AcDbLine
 10
831.5205810476451
 20
85.30823272494989
 30
0.0
 11
830.1385810459155
 21
84.20823272359076
 31
0.0
  0
LINE
  5
81D5
330
808A
100
AcDbEntity
  8
躯体と製品
  6
Continuous
 62
     3
100
AcDbLine
 10
835.7503315360059
 20
85.30823272494989
 30
0.0
 11
836.3721497185883
 21
86.20823272605731
 31
0.0
  0
LINE
  5
81D6
330
808A
100
AcDbEntity
  8
躯体と製品
  6
Continuous
 62
     3
100
AcDbLine
 10
877.6274771731818
 20
86.20823272605731
 30
0.0
 11
877.6274771731818
 21
89.00823272949446
 31
0.0
  0
LINE
  5
81D7
330
808A
100
AcDbEntity
  8
躯体と製品
  6
Continuous
 62
     3
100
AcDbLine
 10
898.0205811294267
 20
85.30823272494989
 30
0.0
 11
899.4025811310979
 21
84.20823272359076
 31
0.0
  0
LINE
  5
81D8
330
808A
100
AcDbEntity
  8
躯体と製品
  6
Continuous
 62
     3
100
AcDbLine
 10
889.0205811183673
 20
85.30823272494989
 30
0.0
 11
887.6385807292077
 21
84.20823272359076
 31
0.0
  0
LINE
  5
81D9
330
808A
100
AcDbEntity
  8
躯体と製品
  6
Continuous
 62
     3
100
AcDbLine
 10
892.2773993041605
 20
86.20823272605731
 30
0.0
 11
892.8992174867429
 21
85.30823272494989
 31
0.0
  0
LINE
  5
81DA
330
808A
100
AcDbEntity
  8
躯体と製品
  6
Continuous
 62
     3
100
AcDbLine
 10
889.0205811183673
 20
85.30823272494989
 30
0.0
 11
898.0205811294267
 21
85.30823272494989
 31
0.0
  0
LINE
  5
81DB
330
808A
100
AcDbEntity
  8
躯体と製品
  6
Continuous
 62
     3
100
AcDbLine
 10
1319.770581094648
 20
89.00823272949423
 30
0.0
 11
1319.770581094648
 21
108.7082447210905
 31
0.0
  0
LINE
  5
81DC
330
808A
100
AcDbEntity
  8
躯体と製品
  6
Continuous
 62
     3
100
AcDbLine
 10
1309.770581082366
 20
89.00823272949423
 30
0.0
 11
1309.770581082366
 21
108.7082447210905
 31
0.0
  0
LINE
  5
81DD
330
808A
100
AcDbEntity
  8
躯体と製品
  6
Continuous
 62
     3
100
AcDbLine
 10
1321.770581097092
 20
89.00823272949423
 30
0.0
 11
1321.770581097092
 21
108.7082447210905
 31
0.0
  0
LINE
  5
81DE
330
808A
100
AcDbEntity
  8
躯体と製品
  6
Continuous
 62
     3
100
AcDbLine
 10
1307.770581079863
 20
89.00823272949423
 30
0.0
 11
1307.770581079863
 21
108.7082447210905
 31
0.0
  0
LINE
  5
81DF
330
808A
100
AcDbEntity
  8
躯体と製品
  6
Continuous
 62
     3
100
AcDbLine
 10
1352.270581134636
 20
84.20823272359053
 30
0.0
 11
1352.270581134636
 21
82.20823272113126
 31
0.0
  0
LINE
  5
81E0
330
808A
100
AcDbEntity
  8
躯体と製品
  6
Continuous
 62
     3
100
AcDbLine
 10
1277.270581042377
 20
84.20823272359053
 30
0.0
 11
1277.270581042377
 21
82.20823272113126
 31
0.0
  0
LINE
  5
81E1
330
808A
100
AcDbEntity
  8
躯体と製品
  6
Continuous
 62
     3
100
AcDbLine
 10
1302.93029353958
 20
89.00823272949423
 30
0.0
 11
1327.627477173153
 21
89.00823272949423
 31
0.0
  0
LINE
  5
81E2
330
808A
100
AcDbEntity
  8
躯体と製品
  6
Continuous
 62
     3
100
AcDbLine
 10
1286.372149718559
 20
86.20823272605708
 30
0.0
 11
1342.277399304131
 21
86.20823272605708
 31
0.0
  0
LINE
  5
81E3
330
808A
100
AcDbEntity
  8
躯体と製品
  6
Continuous
 62
     3
100
AcDbLine
 10
1277.270581042377
 20
84.20823272359053
 30
0.0
 11
1352.270581134636
 21
84.20823272359053
 31
0.0
  0
LINE
  5
81E4
330
808A
100
AcDbEntity
  8
躯体と製品
  6
Continuous
 62
     3
100
AcDbLine
 10
1302.93029353958
 20
86.20823272605708
 30
0.0
 11
1302.93029353958
 21
89.00823272949423
 31
0.0
  0
LINE
  5
81E5
330
808A
100
AcDbEntity
  8
躯体と製品
  6
Continuous
 62
     3
100
AcDbLine
 10
1290.520581058675
 20
85.30823272494968
 30
0.0
 11
1291.902581447835
 21
84.20823272359053
 31
0.0
  0
LINE
  5
81E6
330
808A
100
AcDbEntity
  8
躯体と製品
  6
Continuous
 62
     3
100
AcDbLine
 10
1290.520581058675
 20
85.30823272494968
 30
0.0
 11
1281.520581047616
 21
85.30823272494968
 31
0.0
  0
LINE
  5
81E7
330
808A
100
AcDbEntity
  8
躯体と製品
  6
Continuous
 62
     3
100
AcDbLine
 10
1281.520581047616
 20
85.30823272494968
 30
0.0
 11
1280.138581045886
 21
84.20823272359053
 31
0.0
  0
LINE
  5
81E8
330
808A
100
AcDbEntity
  8
躯体と製品
  6
Continuous
 62
     3
100
AcDbLine
 10
1285.750331535977
 20
85.30823272494968
 30
0.0
 11
1286.372149718559
 21
86.20823272605708
 31
0.0
  0
LINE
  5
81E9
330
808A
100
AcDbEntity
  8
躯体と製品
  6
Continuous
 62
     3
100
AcDbLine
 10
1327.627477173153
 20
86.20823272605708
 30
0.0
 11
1327.627477173153
 21
89.00823272949423
 31
0.0
  0
LINE
  5
81EA
330
808A
100
AcDbEntity
  8
躯体と製品
  6
Continuous
 62
     3
100
AcDbLine
 10
1348.020581129398
 20
85.30823272494968
 30
0.0
 11
1349.402581131069
 21
84.20823272359053
 31
0.0
  0
LINE
  5
81EB
330
808A
100
AcDbEntity
  8
躯体と製品
  6
Continuous
 62
     3
100
AcDbLine
 10
1339.020581118338
 20
85.30823272494968
 30
0.0
 11
1337.638580729178
 21
84.20823272359053
 31
0.0
  0
LINE
  5
81EC
330
808A
100
AcDbEntity
  8
躯体と製品
  6
Continuous
 62
     3
100
AcDbLine
 10
1342.277399304131
 20
86.20823272605708
 30
0.0
 11
1342.899217486714
 21
85.30823272494968
 31
0.0
  0
LINE
  5
81ED
330
808A
100
AcDbEntity
  8
躯体と製品
  6
Continuous
 62
     3
100
AcDbLine
 10
1339.020581118338
 20
85.30823272494968
 30
0.0
 11
1348.020581129398
 21
85.30823272494968
 31
0.0
  0
LINE
  5
81EE
330
808A
100
AcDbEntity
  8
躯体と製品
  6
Continuous
 62
     3
100
AcDbLine
 10
1277.270581042377
 20
82.20823272113126
 30
0.0
 11
1352.270581134636
 21
82.20823272113126
 31
0.0
  0
ENDBLK
  5
81F2
330
808A
100
AcDbEntity
  8
0
100
AcDbBlockEnd
  0
BLOCK
  5
82EF
330
82EE
100
AcDbEntity
  8
0
100
AcDbBlockBegin
  2
*D5
 70
     1
 10
0.0
 20
0.0
 30
0.0
  3
*D5
  1

  0
LINE
  5
82F1
330
82EE
100
AcDbEntity
  8
0
  6
Continuous
 62
     4
440
 16777216
370
    -2
100
AcDbLine
 10
2844.545635438673
 20
635.1356211962734
 30
0.0
 11
2830.811161810566
 21
635.1356211962734
 31
0.0
  0
LINE
  5
82F2
330
82EE
100
AcDbEntity
  8
0
  6
Continuous
 62
     4
440
 16777216
370
    -2
100
AcDbLine
 10
2844.545635438673
 20
533.1356211962734
 30
0.0
 11
2830.811161810566
 21
533.1356211962734
 31
0.0
  0
LINE
  5
82F3
330
82EE
100
AcDbEntity
  8
0
  6
Continuous
 62
     4
440
 16777216
370
    -2
100
AcDbLine
 10
2830.811161810566
 20
634.1356211962733
 30
0.0
 11
2830.811161810566
 21
534.1356211962733
 31
0.0
  0
INSERT
  5
82F4
330
82EE
100
AcDbEntity
  8
0
  6
Continuous
 62
     4
440
 16777216
370
    -2
100
AcDbBlockReference
  2
_Dot
 10
2830.811161810566
 20
635.1356211962734
 30
0.0
 50
90.0
  0
INSERT
  5
82F5
330
82EE
100
AcDbEntity
  8
0
  6
Continuous
 62
     4
440
 16777216
370
    -2
100
AcDbBlockReference
  2
_Dot
 10
2830.811161810566
 20
533.1356211962734
 30
0.0
 50
270.0
  0
MTEXT
  5
82F6
330
82EE
100
AcDbEntity
  8
0
  6
Continuous
 62
     3
440
 16777216
100
AcDbMText
 10
2823.311161810566
 20
584.1356211962739
 30
0.0
 40
9.0
 41
0.0
 71
     5
 72
     1
  1
\A1;102
  7
ACAD
 11
0.0000000000000001
 21
1.0
 31
0.0
 73
     1
 44
1.0
  0
POINT
  5
82F7
330
82EE
100
AcDbEntity
  8
Defpoints
  6
Continuous
 62
     0
440
 16777216
100
AcDbPoint
 10
2844.545635438673
 20
635.1356211962734
 30
0.0
  0
POINT
  5
82F8
330
82EE
100
AcDbEntity
  8
Defpoints
  6
Continuous
 62
     0
440
 16777216
100
AcDbPoint
 10
2844.545635438673
 20
533.1356211962734
 30
0.0
  0
POINT
  5
82F9
330
82EE
100
AcDbEntity
  8
Defpoints
  6
Continuous
 62
     0
440
 16777216
100
AcDbPoint
 10
2830.811161810566
 20
533.1356211962734
 30
0.0
  0
ENDBLK
  5
82F0
330
82EE
100
AcDbEntity
  8
0
100
AcDbBlockEnd
  0
BLOCK
  5
8438
330
8437
100
AcDbEntity
  8
0
100
AcDbBlockBegin
  2
_Small
 70
     0
 10
0.0
 20
0.0
 30
0.0
  3
_Small
  1

  0
CIRCLE
  5
8439
330
8437
100
AcDbEntity
  8
0
  6
ByBlock
 62
     0
370
    -2
100
AcDbCircle
 10
0.0
 20
0.0
 30
0.0
 40
0.25
  0
ENDBLK
  5
843A
330
8437
100
AcDbEntity
  8
0
100
AcDbBlockEnd
  0
BLOCK
  5
8488
330
8487
100
AcDbEntity
  8
0
100
AcDbBlockBegin
  2
*D7
 70
     1
 10
0.0
 20
0.0
 30
0.0
  3
*D7
  1

  0
LINE
  5
8552
330
8487
100
AcDbEntity
  8
0
 62
     4
440
 16777216
370
    -2
100
AcDbLine
 10
3536.438205308853
 20
633.133185337291
 30
0.0
 11
3630.252560342678
 21
633.133185337291
 31
0.0
  0
LINE
  5
8553
330
8487
100
AcDbEntity
  8
0
 62
     4
440
 16777216
370
    -2
100
AcDbLine
 10
3536.041172512433
 20
533.1356211962734
 30
0.0
 11
3630.252560342678
 21
533.1356211962734
 31
0.0
  0
LINE
  5
8554
330
8487
100
AcDbEntity
  8
0
 62
     4
440
 16777216
370
    -2
100
AcDbLine
 10
3630.252560342678
 20
632.133185337291
 30
0.0
 11
3630.252560342678
 21
534.1356211962733
 31
0.0
  0
INSERT
  5
8555
330
8487
100
AcDbEntity
  8
0
  6
Continuous
 62
     4
440
 16777216
370
    -2
100
AcDbBlockReference
  2
_Dot
 10
3630.252560342678
 20
633.133185337291
 30
0.0
 50
90.0
  0
INSERT
  5
8556
330
8487
100
AcDbEntity
  8
0
  6
Continuous
 62
     4
440
 16777216
370
    -2
100
AcDbBlockReference
  2
_Dot
 10
3630.252560342678
 20
533.1356211962734
 30
0.0
 50
270.0
  0
MTEXT
  5
8557
330
8487
100
AcDbEntity
  8
0
  6
Continuous
 62
     3
440
 16777216
100
AcDbMText
 10
3622.752560342677
 20
583.1344032667828
 30
0.0
 40
9.0
 41
0.0
 71
     5
 72
     1
  1
\A1;100
  7
ACAD
 11
0.0000000000000001
 21
1.0
 31
0.0
 73
     1
 44
1.0
 90
        3
 63
     9
421
 13158600
 45
1.25
441
        0
  0
POINT
  5
8558
330
8487
100
AcDbEntity
  8
Defpoints
  6
Continuous
 62
     0
440
 16777216
100
AcDbPoint
 10
3536.438205308853
 20
633.133185337291
 30
0.0
  0
POINT
  5
8559
330
8487
100
AcDbEntity
  8
Defpoints
  6
Continuous
 62
     0
440
 16777216
100
AcDbPoint
 10
3536.041172512433
 20
533.1356211962734
 30
0.0
  0
POINT
  5
855A
330
8487
100
AcDbEntity
  8
Defpoints
  6
Continuous
 62
     0
440
 16777216
100
AcDbPoint
 10
3630.252560342678
 20
533.1356211962734
 30
0.0
  0
ENDBLK
  5
8489
330
8487
100
AcDbEntity
  8
0
100
AcDbBlockEnd
  0
BLOCK
  5
8494
330
8493
100
AcDbEntity
  8
0
100
AcDbBlockBegin
  2
*D8
 70
     1
 10
0.0
 20
0.0
 30
0.0
  3
*D8
  1

  0
LINE
  5
84D3
330
8493
100
AcDbEntity
  8
0
 62
     4
440
 16777216
370
    -2
100
AcDbLine
 10
3536.438205308853
 20
633.133185337291
 30
0.0
 11
3580.360057649566
 21
633.133185337291
 31
0.0
  0
LINE
  5
84D4
330
8493
100
AcDbEntity
  8
0
 62
     4
440
 16777216
370
    -2
100
AcDbLine
 10
3536.438205308853
 20
626.633185337291
 30
0.0
 11
3580.360057649566
 21
626.633185337291
 31
0.0
  0
LINE
  5
84D5
330
8493
100
AcDbEntity
  8
0
 62
     4
440
 16777216
370
    -2
100
AcDbLine
 10
3580.360057649566
 20
634.133185337291
 30
0.0
 11
3580.360057649566
 21
635.133185337291
 31
0.0
  0
LINE
  5
84D6
330
8493
100
AcDbEntity
  8
0
 62
     4
440
 16777216
370
    -2
100
AcDbLine
 10
3580.360057649566
 20
625.633185337291
 30
0.0
 11
3580.360057649566
 21
624.633185337291
 31
0.0
  0
INSERT
  5
84D7
330
8493
100
AcDbEntity
  8
0
  6
Continuous
 62
     4
440
 16777216
370
    -2
100
AcDbBlockReference
  2
_Dot
 10
3580.360057649566
 20
633.133185337291
 30
0.0
 50
270.0
  0
INSERT
  5
84D8
330
8493
100
AcDbEntity
  8
0
  6
Continuous
 62
     4
440
 16777216
370
    -2
100
AcDbBlockReference
  2
_Dot
 10
3580.360057649566
 20
626.633185337291
 30
0.0
 50
90.0
  0
MTEXT
  5
84D9
330
8493
100
AcDbEntity
  8
0
  6
Continuous
 62
     3
440
 16777216
100
AcDbMText
 10
3572.860057649565
 20
629.8831853372916
 30
0.0
 40
9.0
 41
0.0
 71
     5
 72
     1
  1
\A1;6.5
  7
ACAD
 11
0.0000000000000001
 21
1.0
 31
0.0
 73
     1
 44
1.0
 90
        3
 63
     9
421
 13158600
 45
1.25
441
        0
  0
POINT
  5
84DA
330
8493
100
AcDbEntity
  8
Defpoints
  6
Continuous
 62
     0
440
 16777216
100
AcDbPoint
 10
3536.438205308853
 20
633.133185337291
 30
0.0
  0
POINT
  5
84DB
330
8493
100
AcDbEntity
  8
Defpoints
  6
Continuous
 62
     0
440
 16777216
100
AcDbPoint
 10
3536.438205308853
 20
626.633185337291
 30
0.0
  0
POINT
  5
84DC
330
8493
100
AcDbEntity
  8
Defpoints
  6
Continuous
 62
     0
440
 16777216
100
AcDbPoint
 10
3580.360057649566
 20
626.633185337291
 30
0.0
  0
ENDBLK
  5
8495
330
8493
100
AcDbEntity
  8
0
100
AcDbBlockEnd
  0
BLOCK
  5
84A1
330
84A0
100
AcDbEntity
  8
0
100
AcDbBlockBegin
  2
*D9
 70
     1
 10
0.0
 20
0.0
 30
0.0
  3
*D9
  1

  0
LINE
  5
8548
330
84A0
100
AcDbEntity
  8
0
 62
     4
440
 16777216
370
    -2
100
AcDbLine
 10
3536.438205308853
 20
626.633185337291
 30
0.0
 11
3608.294834782304
 21
626.633185337291
 31
0.0
  0
LINE
  5
8549
330
84A0
100
AcDbEntity
  8
0
 62
     4
440
 16777216
370
    -2
100
AcDbLine
 10
3536.041172512433
 20
601.2331853372915
 30
0.0
 11
3608.294834782304
 21
601.2331853372915
 31
0.0
  0
LINE
  5
854A
330
84A0
100
AcDbEntity
  8
0
 62
     4
440
 16777216
370
    -2
100
AcDbLine
 10
3608.294834782304
 20
627.6331853372909
 30
0.0
 11
3608.294834782304
 21
628.633185337291
 31
0.0
  0
LINE
  5
854B
330
84A0
100
AcDbEntity
  8
0
 62
     4
440
 16777216
370
    -2
100
AcDbLine
 10
3608.294834782304
 20
600.2331853372915
 30
0.0
 11
3608.294834782304
 21
599.2331853372915
 31
0.0
  0
INSERT
  5
854C
330
84A0
100
AcDbEntity
  8
0
  6
Continuous
 62
     4
440
 16777216
370
    -2
100
AcDbBlockReference
  2
_Dot
 10
3608.294834782304
 20
626.633185337291
 30
0.0
 50
270.0
  0
INSERT
  5
854D
330
84A0
100
AcDbEntity
  8
0
  6
Continuous
 62
     4
440
 16777216
370
    -2
100
AcDbBlockReference
  2
_Dot
 10
3608.294834782304
 20
601.2331853372915
 30
0.0
 50
90.0
  0
MTEXT
  5
854E
330
84A0
100
AcDbEntity
  8
0
  6
Continuous
 62
     3
440
 16777216
100
AcDbMText
 10
3600.794834782305
 20
613.9331853372919
 30
0.0
 40
9.0
 41
0.0
 71
     5
 72
     1
  1
\A1;24.5
  7
ACAD
 11
0.0000000000000001
 21
1.0
 31
0.0
 73
     1
 44
1.0
 90
        3
 63
     9
421
 13158600
 45
1.25
441
        0
  0
POINT
  5
854F
330
84A0
100
AcDbEntity
  8
Defpoints
  6
Continuous
 62
     0
440
 16777216
100
AcDbPoint
 10
3536.438205308853
 20
626.633185337291
 30
0.0
  0
POINT
  5
8550
330
84A0
100
AcDbEntity
  8
Defpoints
  6
Continuous
 62
     0
440
 16777216
100
AcDbPoint
 10
3536.041172512433
 20
601.2331853372915
 30
0.0
  0
POINT
  5
8551
330
84A0
100
AcDbEntity
  8
Defpoints
  6
Continuous
 62
     0
440
 16777216
100
AcDbPoint
 10
3608.294834782304
 20
601.2331853372915
 30
0.0
  0
ENDBLK
  5
84A2
330
84A0
100
AcDbEntity
  8
0
100
AcDbBlockEnd
  0
ENDSEC
  0
SECTION
  2
ENTITIES
  0
LINE
  5
76C0
330
1E
100
AcDbEntity
  8
躯体と製品
  6
Continuous
 62
     7
100
AcDbLine
 10
2844.545635438673
 20
538.1556211962734
 30
0.0
 11
2704.545636438674
 21
538.1556211962734
 31
0.0
  0
LINE
  5
76C6
330
1E
100
AcDbEntity
  8
文字-記号
  6
Continuous
 62
     7
100
AcDbLine
 10
2817.505152444015
 20
538.5814422992098
 30
0.0
 11
2811.773100444015
 21
544.5096422992098
 31
0.0
  0
LINE
  5
76C7
330
1E
100
AcDbEntity
  8
文字-記号
  6
Continuous
 62
     7
100
AcDbLine
 10
2817.505152444015
 20
538.5814422992098
 30
0.0
 11
2815.237200444015
 21
546.5096422992099
 31
0.0
  0
LINE
  5
76CB
330
1E
100
AcDbEntity
  8
躯体と製品
  6
Continuous
 62
     7
100
AcDbLine
 10
2862.045635438672
 20
536.2556211962733
 30
0.0
 11
2870.045635438673
 21
536.2556211962733
 31
0.0
  0
ARC
  5
76CC
330
1E
100
AcDbEntity
  8
躯体と製品
  6
Continuous
 62
     7
100
AcDbCircle
 10
2866.045635438672
 20
532.4556211962733
 30
0.0
 40
6.0
100
AcDbArc
 50
90.0
 51
127.4662099999988
  0
LINE
  5
76CD
330
1E
100
AcDbEntity
  8
躯体と製品
  6
DASHED1
 62
     7
100
AcDbLine
 10
2864.045635438673
 20
535.4556211962733
 30
0.0
 11
2864.045635438673
 21
525.4556211962733
 31
0.0
  0
LINE
  5
76D4
330
1E
100
AcDbEntity
  8
躯体と製品
  6
Continuous
 62
     7
100
AcDbLine
 10
2862.045635438672
 20
536.2556211962733
 30
0.0
 11
2862.507515438673
 21
535.4556211962733
 31
0.0
  0
LINE
  5
76D5
330
1E
100
AcDbEntity
  8
躯体と製品
  6
Continuous
 62
     7
100
AcDbLine
 10
2862.395875438673
 20
537.2178911962733
 30
0.0
 11
2862.045635438672
 21
536.2556211962733
 31
0.0
  0
LINE
  5
76D7
330
1E
100
AcDbEntity
  8
躯体と製品
  6
DASHED1
 62
     7
100
AcDbLine
 10
2868.045635438673
 20
535.4556211962733
 30
0.0
 11
2868.045635438673
 21
525.4556211962733
 31
0.0
  0
ARC
  5
76D8
330
1E
100
AcDbEntity
  8
躯体と製品
  6
Continuous
 62
     7
100
AcDbCircle
 10
2866.045635438672
 20
532.4556211962733
 30
0.0
 40
6.0
100
AcDbArc
 50
52.53378200001691
 51
90.0
  0
LINE
  5
76D9
330
1E
100
AcDbEntity
  8
躯体と製品
  6
Continuous
 62
     7
100
AcDbLine
 10
2870.045635438673
 20
536.2556211962733
 30
0.0
 11
2869.583755438673
 21
535.4556211962733
 31
0.0
  0
LINE
  5
76DA
330
1E
100
AcDbEntity
  8
躯体と製品
  6
Continuous
 62
     7
100
AcDbLine
 10
2869.695395438673
 20
537.2178911962733
 30
0.0
 11
2870.045635438673
 21
536.2556211962733
 31
0.0
  0
LWPOLYLINE
  5
76E0
330
1E
100
AcDbEntity
  8
文字-記号
  6
Continuous
 62
     7
100
AcDbPolyline
 90
        3
 70
     0
 43
0.0
 10
2817.505152444015
 20
538.5814422992098
 10
2792.969708415478
 20
581.0780817700652
 10
2728.883277634184
 20
581.0780817700652
  0
TEXT
  5
76E2
330
1E
100
AcDbEntity
  8
文字-記号
 62
     7
100
AcDbText
 10
2730.474751445165
 20
585.0780617700652
 30
0.0
 40
12.0
  1
Ｐタイル
100
AcDbText
  0
LINE
  5
76ED
330
1E
100
AcDbEntity
  8
躯体と製品
  6
Continuous
 62
     7
100
AcDbLine
 10
2884.545635438673
 20
595.1556211962733
 30
0.0
 11
2883.045635438673
 21
599.1556211962733
 31
0.0
  0
LINE
  5
76EE
330
1E
100
AcDbEntity
  8
躯体と製品
  6
Continuous
 62
     7
100
AcDbLine
 10
2884.037735438673
 20
595.6556211962733
 30
0.0
 11
2882.912735438674
 21
598.6556211962733
 31
0.0
  0
LINE
  5
76EF
330
1E
100
AcDbEntity
  8
躯体と製品
  6
Continuous
 62
     7
100
AcDbLine
 10
2883.553535438674
 20
598.6556211962733
 30
0.0
 11
2884.678535438674
 21
595.6556211962733
 31
0.0
  0
LINE
  5
76F0
330
1E
100
AcDbEntity
  8
躯体と製品
  6
Continuous
 62
     7
100
AcDbLine
 10
2881.545635438673
 20
595.6556211962733
 30
0.0
 11
2875.545635438673
 21
597.1556211962734
 31
0.0
  0
LINE
  5
76F1
330
1E
100
AcDbEntity
  8
躯体と製品
  6
Continuous
 62
     7
100
AcDbLine
 10
2875.545635438673
 20
597.1556211962734
 30
0.0
 11
2877.045635438673
 21
595.6556211962733
 31
0.0
  0
LINE
  5
76F2
330
1E
100
AcDbEntity
  8
躯体と製品
  6
Continuous
 62
     7
100
AcDbLine
 10
2881.545635438673
 20
595.6556211962733
 30
0.0
 11
2881.545635438673
 21
598.3012211962734
 31
0.0
  0
LINE
  5
76F3
330
1E
100
AcDbEntity
  8
躯体と製品
  6
Continuous
 62
     7
100
AcDbLine
 10
2883.045635438673
 20
595.1556211962733
 30
0.0
 11
2881.545635438673
 21
599.1556211962733
 31
0.0
  0
LINE
  5
76F4
330
1E
100
AcDbEntity
  8
躯体と製品
  6
Continuous
 62
     7
100
AcDbLine
 10
2882.537735438674
 20
595.6556211962733
 30
0.0
 11
2881.412735438674
 21
598.6556211962733
 31
0.0
  0
LINE
  5
76F5
330
1E
100
AcDbEntity
  8
躯体と製品
  6
Continuous
 62
     7
100
AcDbLine
 10
2882.053535438674
 20
598.6556211962733
 30
0.0
 11
2883.178535438674
 21
595.6556211962733
 31
0.0
  0
LINE
  5
76F6
330
1E
100
AcDbEntity
  8
躯体と製品
  6
Continuous
 62
     7
100
AcDbLine
 10
2886.045635438673
 20
595.1556211962733
 30
0.0
 11
2884.545635438673
 21
599.1556211962733
 31
0.0
  0
LINE
  5
76F7
330
1E
100
AcDbEntity
  8
躯体と製品
  6
Continuous
 62
     7
100
AcDbLine
 10
2885.537735438673
 20
595.6556211962733
 30
0.0
 11
2884.412735438673
 21
598.6556211962733
 31
0.0
  0
LINE
  5
76F8
330
1E
100
AcDbEntity
  8
躯体と製品
  6
Continuous
 62
     7
100
AcDbLine
 10
2885.053535438674
 20
598.6556211962733
 30
0.0
 11
2886.178535438674
 21
595.6556211962733
 31
0.0
  0
LINE
  5
76F9
330
1E
100
AcDbEntity
  8
躯体と製品
  6
Continuous
 62
     7
100
AcDbLine
 10
2887.545635438673
 20
595.1556211962733
 30
0.0
 11
2886.045635438673
 21
599.1556211962733
 31
0.0
  0
LINE
  5
76FA
330
1E
100
AcDbEntity
  8
躯体と製品
  6
Continuous
 62
     7
100
AcDbLine
 10
2887.037735438673
 20
595.6556211962733
 30
0.0
 11
2885.912735438673
 21
598.6556211962733
 31
0.0
  0
LINE
  5
76FB
330
1E
100
AcDbEntity
  8
躯体と製品
  6
Continuous
 62
     7
100
AcDbLine
 10
2886.553535438674
 20
598.6556211962733
 30
0.0
 11
2887.545635438673
 21
596.0100211962733
 31
0.0
  0
LINE
  5
76FC
330
1E
100
AcDbEntity
  8
躯体と製品
  6
Continuous
 62
     7
100
AcDbLine
 10
2888.345635438673
 20
601.1556211962734
 30
0.0
 11
2888.345635438673
 21
593.1556211962734
 31
0.0
  0
ARC
  5
76FD
330
1E
100
AcDbEntity
  8
躯体と製品
  6
Continuous
 62
     7
100
AcDbCircle
 10
2884.545635438673
 20
597.1556211962734
 30
0.0
 40
6.0
100
AcDbArc
 50
322.5337800000019
 51
0.0
  0
LINE
  5
76FE
330
1E
100
AcDbEntity
  8
躯体と製品
  6
Continuous
 62
     7
100
AcDbLine
 10
2877.045635438673
 20
595.6556211962733
 30
0.0
 11
2881.545635438673
 21
595.6556211962733
 31
0.0
  0
LINE
  5
7700
330
1E
100
AcDbEntity
  8
躯体と製品
  6
Continuous
 62
     7
100
AcDbLine
 10
2889.307905438673
 20
593.5058611962733
 30
0.0
 11
2888.345635438673
 21
593.1556211962734
 31
0.0
  0
LINE
  5
7701
330
1E
100
AcDbEntity
  8
躯体と製品
  6
Continuous
 62
     7
100
AcDbLine
 10
2882.537735438674
 20
595.6556211962733
 30
0.0
 11
2881.545635438673
 21
595.6556211962733
 31
0.0
  0
LINE
  5
7702
330
1E
100
AcDbEntity
  8
躯体と製品
  6
Continuous
 62
     7
100
AcDbLine
 10
2884.037735438673
 20
595.6556211962733
 30
0.0
 11
2883.178535438674
 21
595.6556211962733
 31
0.0
  0
LINE
  5
7703
330
1E
100
AcDbEntity
  8
躯体と製品
  6
Continuous
 62
     7
100
AcDbLine
 10
2884.545635438673
 20
595.1556211962733
 30
0.0
 11
2884.037735438673
 21
595.6556211962733
 31
0.0
  0
LINE
  5
7704
330
1E
100
AcDbEntity
  8
躯体と製品
  6
Continuous
 62
     7
100
AcDbLine
 10
2884.678535438674
 20
595.6556211962733
 30
0.0
 11
2884.545635438673
 21
595.1556211962733
 31
0.0
  0
LINE
  5
7705
330
1E
100
AcDbEntity
  8
躯体と製品
  6
Continuous
 62
     7
100
AcDbLine
 10
2881.545635438673
 20
595.1556211962733
 30
0.0
 11
2882.053535438674
 21
595.6556211962733
 31
0.0
  0
LINE
  5
7706
330
1E
100
AcDbEntity
  8
躯体と製品
  6
Continuous
 62
     7
100
AcDbLine
 10
2881.412735438674
 20
595.6556211962733
 30
0.0
 11
2881.545635438673
 21
595.1556211962733
 31
0.0
  0
LINE
  5
7707
330
1E
100
AcDbEntity
  8
躯体と製品
  6
Continuous
 62
     7
100
AcDbLine
 10
2883.045635438673
 20
595.1556211962733
 30
0.0
 11
2882.537735438674
 21
595.6556211962733
 31
0.0
  0
LINE
  5
7708
330
1E
100
AcDbEntity
  8
躯体と製品
  6
Continuous
 62
     7
100
AcDbLine
 10
2883.178535438674
 20
595.6556211962733
 30
0.0
 11
2883.045635438673
 21
595.1556211962733
 31
0.0
  0
LINE
  5
7709
330
1E
100
AcDbEntity
  8
躯体と製品
  6
Continuous
 62
     7
100
AcDbLine
 10
2886.045635438673
 20
595.1556211962733
 30
0.0
 11
2885.537735438673
 21
595.6556211962733
 31
0.0
  0
LINE
  5
770A
330
1E
100
AcDbEntity
  8
躯体と製品
  6
Continuous
 62
     7
100
AcDbLine
 10
2886.178535438674
 20
595.6556211962733
 30
0.0
 11
2886.045635438673
 21
595.1556211962733
 31
0.0
  0
LINE
  5
770B
330
1E
100
AcDbEntity
  8
躯体と製品
  6
Continuous
 62
     7
100
AcDbLine
 10
2887.545635438673
 20
595.1556211962733
 30
0.0
 11
2887.037735438673
 21
595.6556211962733
 31
0.0
  0
LINE
  5
770C
330
1E
100
AcDbEntity
  8
躯体と製品
  6
Continuous
 62
     7
100
AcDbLine
 10
2885.537735438673
 20
595.6556211962733
 30
0.0
 11
2884.678535438674
 21
595.6556211962733
 31
0.0
  0
LINE
  5
770D
330
1E
100
AcDbEntity
  8
躯体と製品
  6
Continuous
 62
     7
100
AcDbLine
 10
2887.037735438673
 20
595.6556211962733
 30
0.0
 11
2886.178535438674
 21
595.6556211962733
 31
0.0
  0
LINE
  5
770E
330
1E
100
AcDbEntity
  8
躯体と製品
  6
Continuous
 62
     7
100
AcDbLine
 10
2888.345635438673
 20
593.1556211962734
 30
0.0
 11
2887.545635438673
 21
593.6175011962734
 31
0.0
  0
LINE
  5
770F
330
1E
100
AcDbEntity
  8
躯体と製品
  6
Continuous
 62
     7
100
AcDbLine
 10
2881.412735438674
 20
598.6556211962733
 30
0.0
 11
2877.045635438673
 21
598.6556211962733
 31
0.0
  0
LINE
  5
7711
330
1E
100
AcDbEntity
  8
躯体と製品
  6
Continuous
 62
     7
100
AcDbLine
 10
2877.045635438673
 20
598.6556211962733
 30
0.0
 11
2877.045635438673
 21
596.7806211962733
 31
0.0
  0
LINE
  5
7712
330
1E
100
AcDbEntity
  8
躯体と製品
  6
Continuous
 62
     7
100
AcDbLine
 10
2877.045635438673
 20
598.6556211962733
 30
0.0
 11
2875.545635438673
 21
597.1556211962734
 31
0.0
  0
LINE
  5
7714
330
1E
100
AcDbEntity
  8
躯体と製品
  6
Continuous
 62
     7
100
AcDbLine
 10
2889.307905438673
 20
600.8053811962733
 30
0.0
 11
2888.345635438673
 21
601.1556211962734
 31
0.0
  0
LINE
  5
7715
330
1E
100
AcDbEntity
  8
躯体と製品
  6
Continuous
 62
     7
100
AcDbLine
 10
2882.858135438673
 20
598.6556211962733
 30
0.0
 11
2882.053535438674
 21
598.6556211962733
 31
0.0
  0
LINE
  5
7716
330
1E
100
AcDbEntity
  8
躯体と製品
  6
Continuous
 62
     7
100
AcDbLine
 10
2883.045635438673
 20
599.1556211962733
 30
0.0
 11
2883.553535438674
 21
598.6556211962733
 31
0.0
  0
LINE
  5
7717
330
1E
100
AcDbEntity
  8
躯体と製品
  6
Continuous
 62
     7
100
AcDbLine
 10
2882.912735438674
 20
598.6556211962733
 30
0.0
 11
2883.045635438673
 21
599.1556211962733
 31
0.0
  0
LINE
  5
7718
330
1E
100
AcDbEntity
  8
躯体と製品
  6
Continuous
 62
     7
100
AcDbLine
 10
2881.545635438673
 20
599.1556211962733
 30
0.0
 11
2882.053535438674
 21
598.6556211962733
 31
0.0
  0
LINE
  5
7719
330
1E
100
AcDbEntity
  8
躯体と製品
  6
Continuous
 62
     7
100
AcDbLine
 10
2881.412735438674
 20
598.6556211962733
 30
0.0
 11
2881.545635438673
 21
599.1556211962733
 31
0.0
  0
LINE
  5
771A
330
1E
100
AcDbEntity
  8
躯体と製品
  6
Continuous
 62
     7
100
AcDbLine
 10
2884.545635438673
 20
599.1556211962733
 30
0.0
 11
2885.053535438674
 21
598.6556211962733
 31
0.0
  0
LINE
  5
771B
330
1E
100
AcDbEntity
  8
躯体と製品
  6
Continuous
 62
     7
100
AcDbLine
 10
2884.412735438673
 20
598.6556211962733
 30
0.0
 11
2884.545635438673
 21
599.1556211962733
 31
0.0
  0
LINE
  5
771C
330
1E
100
AcDbEntity
  8
躯体と製品
  6
Continuous
 62
     7
100
AcDbLine
 10
2886.045635438673
 20
599.1556211962733
 30
0.0
 11
2886.553535438674
 21
598.6556211962733
 31
0.0
  0
LINE
  5
771D
330
1E
100
AcDbEntity
  8
躯体と製品
  6
Continuous
 62
     7
100
AcDbLine
 10
2885.912735438673
 20
598.6556211962733
 30
0.0
 11
2886.045635438673
 21
599.1556211962733
 31
0.0
  0
LINE
  5
771E
330
1E
100
AcDbEntity
  8
躯体と製品
  6
Continuous
 62
     7
100
AcDbLine
 10
2884.412735438673
 20
598.6556211962733
 30
0.0
 11
2883.553535438674
 21
598.6556211962733
 31
0.0
  0
LINE
  5
771F
330
1E
100
AcDbEntity
  8
躯体と製品
  6
Continuous
 62
     7
100
AcDbLine
 10
2885.858135438673
 20
598.6556211962733
 30
0.0
 11
2885.053535438674
 21
598.6556211962733
 31
0.0
  0
LINE
  5
7720
330
1E
100
AcDbEntity
  8
躯体と製品
  6
Continuous
 62
     7
100
AcDbLine
 10
2887.545635438673
 20
598.6556211962733
 30
0.0
 11
2886.553535438674
 21
598.6556211962733
 31
0.0
  0
LINE
  5
7721
330
1E
100
AcDbEntity
  8
躯体と製品
  6
Continuous
 62
     7
100
AcDbLine
 10
2888.345635438673
 20
601.1556211962734
 30
0.0
 11
2887.545635438673
 21
600.6937411962733
 31
0.0
  0
ARC
  5
7722
330
1E
100
AcDbEntity
  8
躯体と製品
  6
Continuous
 62
     7
100
AcDbCircle
 10
2884.545635438673
 20
597.1556211962734
 30
0.0
 40
6.0
100
AcDbArc
 50
0.0
 51
37.46621799999451
  0
TEXT
  5
776A
330
1E
100
AcDbEntity
  8
文字-記号
 62
     7
100
AcDbText
 10
2744.797853907109
 20
650.8383181183035
 30
0.0
 40
12.0
  1
OAクッション
 41
0.8
  7
ACAD
100
AcDbText
  0
LINE
  5
7B58
330
1E
100
AcDbEntity
  8
躯体と製品
  6
Continuous
 62
     3
100
AcDbLine
 10
3392.049291444814
 20
539.9356212046363
 30
0.0
 11
3392.049291444813
 21
559.1356211962779
 31
0.0
  0
LINE
  5
7B59
330
1E
100
AcDbEntity
  8
躯体と製品
  6
Continuous
 62
     3
100
AcDbLine
 10
3382.049291432531
 20
539.9356212046363
 30
0.0
 11
3382.049291432531
 21
559.1356211962779
 31
0.0
  0
LINE
  5
7B5A
330
1E
100
AcDbEntity
  8
躯体と製品
  6
Continuous
 62
     3
100
AcDbLine
 10
3394.049291447259
 20
539.9356212046363
 30
0.0
 11
3394.049291447258
 21
559.1356211962779
 31
0.0
  0
LINE
  5
7B5B
330
1E
100
AcDbEntity
  8
躯体と製品
  6
Continuous
 62
     3
100
AcDbLine
 10
3380.049291430028
 20
539.9356212046363
 30
0.0
 11
3380.049291430028
 21
559.1356211962779
 31
0.0
  0
LINE
  5
7B5C
330
1E
100
AcDbEntity
  8
躯体と製品
  6
Continuous
 62
     3
100
AcDbLine
 10
3424.549291484801
 20
535.1356211987327
 30
0.0
 11
3424.549291484801
 21
533.1356211962734
 31
0.0
  0
LINE
  5
7B5D
330
1E
100
AcDbEntity
  8
躯体と製品
  6
Continuous
 62
     3
100
AcDbLine
 10
3349.549291392543
 20
535.1356211987327
 30
0.0
 11
3349.549291392543
 21
533.1356211962734
 31
0.0
  0
LINE
  5
7B5E
330
1E
100
AcDbEntity
  8
躯体と製品
  6
Continuous
 62
     3
100
AcDbLine
 10
3349.549291392543
 20
533.1356211962734
 30
0.0
 11
3424.549291484801
 21
533.1356211962734
 31
0.0
  0
LINE
  5
7B5F
330
1E
100
AcDbEntity
  8
躯体と製品
  6
Continuous
 62
     3
100
AcDbLine
 10
3375.209003889746
 20
539.9356212046363
 30
0.0
 11
3399.906187523318
 21
539.9356212046363
 31
0.0
  0
LINE
  5
7B60
330
1E
100
AcDbEntity
  8
躯体と製品
  6
Continuous
 62
     3
100
AcDbLine
 10
3358.650860068725
 20
537.1356212011992
 30
0.0
 11
3414.556109654296
 21
537.1356212011992
 31
0.0
  0
LINE
  5
7B61
330
1E
100
AcDbEntity
  8
躯体と製品
  6
Continuous
 62
     3
100
AcDbLine
 10
3349.549291392543
 20
535.1356211987327
 30
0.0
 11
3424.549291484801
 21
535.1356211987327
 31
0.0
  0
LINE
  5
7B62
330
1E
100
AcDbEntity
  8
躯体と製品
  6
Continuous
 62
     3
100
AcDbLine
 10
3375.209003889746
 20
537.1356212011992
 30
0.0
 11
3375.209003889746
 21
539.9356212046363
 31
0.0
  0
LINE
  5
7B63
330
1E
100
AcDbEntity
  8
躯体と製品
  6
Continuous
 62
     3
100
AcDbLine
 10
3362.79929140884
 20
536.2356212000918
 30
0.0
 11
3364.181291798001
 21
535.1356211987327
 31
0.0
  0
LINE
  5
7B64
330
1E
100
AcDbEntity
  8
躯体と製品
  6
Continuous
 62
     3
100
AcDbLine
 10
3362.79929140884
 20
536.2356212000918
 30
0.0
 11
3353.799291397781
 21
536.2356212000918
 31
0.0
  0
LINE
  5
7B65
330
1E
100
AcDbEntity
  8
躯体と製品
  6
Continuous
 62
     3
100
AcDbLine
 10
3353.799291397781
 20
536.2356212000918
 30
0.0
 11
3352.417291396051
 21
535.1356211987327
 31
0.0
  0
LINE
  5
7B66
330
1E
100
AcDbEntity
  8
躯体と製品
  6
Continuous
 62
     3
100
AcDbLine
 10
3358.029041886142
 20
536.2356212000918
 30
0.0
 11
3358.650860068725
 21
537.1356212011992
 31
0.0
  0
LINE
  5
7B67
330
1E
100
AcDbEntity
  8
躯体と製品
  6
Continuous
 62
     3
100
AcDbLine
 10
3399.906187523318
 20
537.1356212011992
 30
0.0
 11
3399.906187523318
 21
539.9356212046363
 31
0.0
  0
LINE
  5
7B68
330
1E
100
AcDbEntity
  8
躯体と製品
  6
Continuous
 62
     3
100
AcDbLine
 10
3420.299291479563
 20
536.2356212000918
 30
0.0
 11
3421.681291481235
 21
535.1356211987327
 31
0.0
  0
LINE
  5
7B69
330
1E
100
AcDbEntity
  8
躯体と製品
  6
Continuous
 62
     3
100
AcDbLine
 10
3411.299291468503
 20
536.2356212000918
 30
0.0
 11
3409.917291079344
 21
535.1356211987327
 31
0.0
  0
LINE
  5
7B6A
330
1E
100
AcDbEntity
  8
躯体と製品
  6
Continuous
 62
     3
100
AcDbLine
 10
3414.556109654296
 20
537.1356212011992
 30
0.0
 11
3415.177927836879
 21
536.2356212000918
 31
0.0
  0
LINE
  5
7B6B
330
1E
100
AcDbEntity
  8
躯体と製品
  6
Continuous
 62
     3
100
AcDbLine
 10
3411.299291468503
 20
536.2356212000918
 30
0.0
 11
3420.299291479563
 21
536.2356212000918
 31
0.0
  0
LINE
  5
7B6C
330
1E
100
AcDbEntity
  8
躯体と製品
  6
Continuous
 62
     3
100
AcDbLine
 10
3398.049291438672
 20
566.6356211962779
 30
0.0
 11
3398.049291438672
 21
590.6356211962779
 31
0.0
  0
LINE
  5
7B6D
330
1E
100
AcDbEntity
  8
躯体と製品
  6
Continuous
 62
     3
100
AcDbLine
 10
3376.049291438672
 20
566.6356211962779
 30
0.0
 11
3376.049291438672
 21
590.6356211962779
 31
0.0
  0
LINE
  5
7B6E
330
1E
100
AcDbEntity
  8
躯体と製品
  6
Continuous
 62
     3
100
AcDbLine
 10
3376.049291438672
 20
566.6356211962779
 30
0.0
 11
3398.049291438672
 21
566.6356211962779
 31
0.0
  0
LINE
  5
7B6F
330
1E
100
AcDbEntity
  8
躯体と製品
  6
Continuous
 62
     3
100
AcDbLine
 10
3422.049291438672
 20
597.6356211962779
 30
0.0
 11
3352.049291438672
 21
597.6356211962779
 31
0.0
  0
LINE
  5
7B70
330
1E
100
AcDbEntity
  8
躯体と製品
  6
Continuous
 62
     3
100
AcDbLine
 10
3377.04929143873
 20
617.135621196278
 30
0.0
 11
3377.04929143873
 21
597.6356211962779
 31
0.0
  0
LINE
  5
7B71
330
1E
100
AcDbEntity
  8
躯体と製品
  6
Continuous
 62
     3
100
AcDbLine
 10
3394.049289680117
 20
598.6138055660344
 30
0.0
 11
3393.57435899327
 21
621.1573130378387
 31
0.0
  0
LINE
  5
7B72
330
1E
100
AcDbEntity
  8
躯体と製品
  6
Continuous
 62
     3
100
AcDbLine
 10
3380.049291437144
 20
598.613805678899
 30
0.0
 11
3380.52422656509
 21
621.1574360813251
 31
0.0
  0
LINE
  5
7B73
330
1E
100
AcDbEntity
  8
躯体と製品
  6
Continuous
 62
     3
100
AcDbLine
 10
3360.549291438687
 20
590.6356211962779
 30
0.0
 11
3360.549291438687
 21
594.6356211962779
 31
0.0
  0
LINE
  5
7B74
330
1E
100
AcDbEntity
  8
躯体と製品
  6
Continuous
 62
     3
100
AcDbLine
 10
3422.049291438672
 20
590.6356211962779
 30
0.0
 11
3352.049291438672
 21
590.6356211962779
 31
0.0
  0
LINE
  5
7B75
330
1E
100
AcDbEntity
  8
躯体と製品
  6
Continuous
 62
     3
100
AcDbLine
 10
3352.049291438672
 20
594.6356211962779
 30
0.0
 11
3422.049291438672
 21
594.6356211962779
 31
0.0
  0
LINE
  5
7B76
330
1E
100
AcDbEntity
  8
躯体と製品
  6
Continuous
 62
     3
100
AcDbLine
 10
3352.049291438672
 20
590.6356211962779
 30
0.0
 11
3352.049291438672
 21
597.6356211962779
 31
0.0
  0
LINE
  5
7B77
330
1E
100
AcDbEntity
  8
躯体と製品
  6
Continuous
 62
     3
100
AcDbLine
 10
3413.549291438687
 20
594.6356211962779
 30
0.0
 11
3413.549291438687
 21
590.6356211962779
 31
0.0
  0
LINE
  5
7B78
330
1E
100
AcDbEntity
  8
躯体と製品
  6
Continuous
 62
     3
100
AcDbLine
 10
3380.152009000654
 20
597.6356206078421
 30
0.0
 11
3380.176460034565
 21
597.6363703360261
 31
0.0
  0
ARC
  5
7B79
330
1E
100
AcDbEntity
  8
躯体と製品
  6
Continuous
 62
     3
100
AcDbCircle
 10
3379.049506487734
 20
598.6356419820008
 30
0.0
 40
1.000021374460674
100
AcDbArc
 50
270.0014126952299
 51
358.7488018035704
  0
ARC
  5
7B7A
330
1E
100
AcDbEntity
  8
躯体と製品
  6
Continuous
 62
     3
100
AcDbCircle
 10
3395.049074641227
 20
598.6356421320092
 30
0.0
 40
1.000021642794381
100
AcDbArc
 50
181.2512132394387
 51
269.9986259446977
  0
LINE
  5
7B7B
330
1E
100
AcDbEntity
  8
躯体と製品
  6
Continuous
 62
     3
100
AcDbLine
 10
3397.04929143873
 20
617.1344392710166
 30
0.0
 11
3397.04929143873
 21
597.6356211962779
 31
0.0
  0
LINE
  5
7B7C
330
1E
100
AcDbEntity
  8
躯体と製品
  6
Continuous
 62
     3
100
AcDbLine
 10
3422.049291438672
 20
590.6356211962779
 30
0.0
 11
3422.049291438672
 21
597.6356211962779
 31
0.0
  0
LINE
  5
7B7D
330
1E
100
AcDbEntity
  8
躯体と製品
  6
Continuous
 62
     3
100
AcDbLine
 10
3416.549285500675
 20
598.6138047615463
 30
0.0
 11
3416.549285500675
 21
617.1344392710166
 31
0.0
  0
ARC
  5
7B7E
330
1E
100
AcDbEntity
  8
躯体と製品
  6
Continuous
 62
     3
100
AcDbCircle
 10
3403.549500551265
 20
598.6356419820008
 30
0.0
 40
1.000021374460674
100
AcDbArc
 50
270.0014126952299
 51
358.7488018035704
  0
ARC
  5
7B7F
330
1E
100
AcDbEntity
  8
躯体と製品
  6
Continuous
 62
     3
100
AcDbCircle
 10
3417.54906870323
 20
598.6356412891478
 30
0.0
 40
1.000021642794381
100
AcDbArc
 50
181.2512132394387
 51
269.9986259446977
  0
LINE
  5
7B80
330
1E
100
AcDbEntity
  8
躯体と製品
  6
Continuous
 62
     3
100
AcDbLine
 10
3404.549285500676
 20
598.6138022423769
 30
0.0
 11
3404.549285500676
 21
617.1344392710166
 31
0.0
  0
LINE
  5
7B81
330
1E
100
AcDbEntity
  8
躯体と製品
  6
Continuous
 62
     3
100
AcDbLine
 10
3357.549297376669
 20
598.6138047615463
 30
0.0
 11
3357.549297376669
 21
617.1344392710166
 31
0.0
  0
ARC
  5
7B82
330
1E
100
AcDbEntity
  8
躯体と製品
  6
Continuous
 62
     3
100
AcDbCircle
 10
3370.549082326078
 20
598.6356419820008
 30
0.0
 40
1.000021374460674
100
AcDbArc
 50
181.2511981964292
 51
269.9985873047701
  0
ARC
  5
7B83
330
1E
100
AcDbEntity
  8
躯体と製品
  6
Continuous
 62
     3
100
AcDbCircle
 10
3356.549514174106
 20
598.6356412891478
 30
0.0
 40
1.000021642794381
100
AcDbArc
 50
270.0013740553022
 51
358.7487867605612
  0
LINE
  5
7B84
330
1E
100
AcDbEntity
  8
躯体と製品
  6
Continuous
 62
     3
100
AcDbLine
 10
3369.549297376668
 20
598.6138022423769
 30
0.0
 11
3369.549297376668
 21
617.1344392710166
 31
0.0
  0
LINE
  5
7B85
330
1E
100
AcDbEntity
  8
躯体と製品
  6
Continuous
 62
     3
100
AcDbLine
 10
3416.549285483096
 20
598.6138055660344
 30
0.0
 11
3404.549283487862
 21
598.6138055660344
 31
0.0
  0
LINE
  5
7B86
330
1E
100
AcDbEntity
  8
躯体と製品
  6
Continuous
 62
     3
100
AcDbLine
 10
3394.049291439502
 20
598.6138055660344
 30
0.0
 11
3380.049289424323
 21
598.6138055660344
 31
0.0
  0
LINE
  5
7B87
330
1E
100
AcDbEntity
  8
躯体と製品
  6
Continuous
 62
     3
100
AcDbLine
 10
3357.549297394232
 20
598.6138055660344
 30
0.0
 11
3369.549299389475
 21
598.6138055660344
 31
0.0
  0
LINE
  5
7B88
330
1E
100
AcDbEntity
  8
躯体と製品
  6
Continuous
 62
     3
100
AcDbLine
 10
3367.549291438687
 20
590.6356211962779
 30
0.0
 11
3367.549291438687
 21
594.6356211962779
 31
0.0
  0
LINE
  5
7B89
330
1E
100
AcDbEntity
  8
躯体と製品
  6
Continuous
 62
     3
100
AcDbLine
 10
3406.549291438687
 20
594.6356211962779
 30
0.0
 11
3406.549291438687
 21
590.6356211962779
 31
0.0
  0
ARC
  5
7B8A
330
1E
100
AcDbEntity
  8
躯体と製品
  6
Continuous
 62
     3
100
AcDbCircle
 10
3381.524019430961
 20
621.135589676895
 30
0.0
 40
1.000031519520032
100
AcDbArc
 50
90.0009144115855
 51
178.7482331021901
  0
ARC
  5
7B8B
330
1E
100
AcDbEntity
  8
躯体と製品
  6
Continuous
 62
     3
100
AcDbCircle
 10
3392.574563446369
 20
621.1355896768878
 30
0.0
 40
1.000031519520032
100
AcDbArc
 50
1.251766897809863
 51
89.9990855884145
  0
LINE
  5
7B8C
330
1E
100
AcDbEntity
  8
躯体と製品
  6
Continuous
 62
     4
100
AcDbLine
 10
3378.299291438672
 20
622.6356211962779
 30
0.0
 11
3378.299291438672
 21
617.135621196278
 31
0.0
  0
LINE
  5
7B8D
330
1E
100
AcDbEntity
  8
躯体と製品
  6
Continuous
 62
     4
100
AcDbLine
 10
3357.15299246031
 20
617.1344392710166
 30
0.0
 11
3379.799291438672
 21
617.1344392710166
 31
0.0
  0
LINE
  5
7B8E
330
1E
100
AcDbEntity
  8
躯体と製品
  6
Continuous
 62
     4
100
AcDbLine
 10
3386.799291438672
 20
626.6356211962325
 30
0.0
 11
3387.299291438672
 21
626.6356211962325
 31
0.0
  0
LINE
  5
7B8F
330
1E
100
AcDbEntity
  8
躯体と製品
  6
Continuous
 62
     4
100
AcDbLine
 10
3387.299291438672
 20
626.6356211962325
 30
0.0
 11
3387.299291438672
 21
622.6356211962779
 31
0.0
  0
LINE
  5
7B90
330
1E
100
AcDbEntity
  8
躯体と製品
  6
Continuous
 62
     4
100
AcDbLine
 10
3386.799291438672
 20
626.6356211962325
 30
0.0
 11
3386.799291438672
 21
622.6356211962779
 31
0.0
  0
LINE
  5
7B91
330
1E
100
AcDbEntity
  8
躯体と製品
  6
Continuous
 62
     4
100
AcDbLine
 10
3379.799291438672
 20
622.1356211962779
 30
0.0
 11
3379.799291438672
 21
617.1344392710166
 31
0.0
  0
LINE
  5
7B92
330
1E
100
AcDbEntity
  8
躯体と製品
  6
Continuous
 62
     4
100
AcDbLine
 10
3379.799291438672
 20
622.1356211962779
 30
0.0
 11
3394.299291438672
 21
622.1356211962779
 31
0.0
  0
LINE
  5
7B93
330
1E
100
AcDbEntity
  8
躯体と製品
  6
Continuous
 62
     4
100
AcDbLine
 10
3416.945590417034
 20
617.1344392710166
 30
0.0
 11
3394.299291438672
 21
617.1344392710166
 31
0.0
  0
LINE
  5
7B94
330
1E
100
AcDbEntity
  8
躯体と製品
  6
Continuous
 62
     4
100
AcDbLine
 10
3394.299291438672
 20
622.1356211962779
 30
0.0
 11
3394.299291438672
 21
617.1317006586691
 31
0.0
  0
LWPOLYLINE
  5
7B95
330
1E
100
AcDbEntity
  8
躯体と製品
  6
Continuous
 62
     4
100
AcDbPolyline
 90
        2
 70
     0
 43
0.0
 10
3417.549291438672
 20
622.6356211962779
 10
3356.549291438672
 20
622.6356211962779
  0
LINE
  5
7B96
330
1E
100
AcDbEntity
  8
躯体と製品
  6
Continuous
 62
     4
100
AcDbLine
 10
3400.549291438672
 20
622.6356211962779
 30
0.0
 11
3400.549291438672
 21
626.6356211962325
 31
0.0
  0
LINE
  5
7B97
330
1E
100
AcDbEntity
  8
躯体と製品
  6
Continuous
 62
     4
100
AcDbLine
 10
3395.799291438672
 20
622.6356211962779
 30
0.0
 11
3395.799291438672
 21
617.135621196278
 31
0.0
  0
LINE
  5
7B98
330
1E
100
AcDbEntity
  8
躯体と製品
  6
Continuous
 62
     4
100
AcDbLine
 10
3409.299291438672
 20
626.6356211962325
 30
0.0
 11
3400.549291438672
 21
626.6356211962325
 31
0.0
  0
LINE
  5
7B99
330
1E
100
AcDbEntity
  8
躯体と製品
  6
Continuous
 62
     4
100
AcDbLine
 10
3409.299291438672
 20
622.6356211962779
 30
0.0
 11
3409.299291438672
 21
626.6356211962325
 31
0.0
  0
LINE
  5
7B9A
330
1E
100
AcDbEntity
  8
躯体と製品
  6
Continuous
 62
     4
100
AcDbLine
 10
3371.893846872439
 20
622.6356211962779
 30
0.0
 11
3371.893846872439
 21
617.135621196278
 31
0.0
  0
LINE
  5
7B9B
330
1E
100
AcDbEntity
  8
躯体と製品
  6
Continuous
 62
     4
100
AcDbLine
 10
3402.204736004891
 20
622.6356211962779
 30
0.0
 11
3402.204736004891
 21
617.135621196278
 31
0.0
  0
LINE
  5
7B9C
330
1E
100
AcDbEntity
  8
躯体と製品
  6
Continuous
 62
     4
100
AcDbLine
 10
3373.549291438672
 20
622.6356211962779
 30
0.0
 11
3373.549291438672
 21
626.6356211962325
 31
0.0
  0
LINE
  5
7B9D
330
1E
100
AcDbEntity
  8
躯体と製品
  6
Continuous
 62
     4
100
AcDbLine
 10
3364.799291438672
 20
626.6356211962325
 30
0.0
 11
3373.549291438672
 21
626.6356211962325
 31
0.0
  0
LINE
  5
7B9E
330
1E
100
AcDbEntity
  8
躯体と製品
  6
Continuous
 62
     4
100
AcDbLine
 10
3364.799291438672
 20
622.6356211962779
 30
0.0
 11
3364.799291438672
 21
626.6356211962325
 31
0.0
  0
LINE
  5
7B9F
330
1E
100
AcDbEntity
  8
躯体と製品
  6
Continuous
 62
     4
100
AcDbLine
 10
3356.549291438672
 20
626.6356211962325
 30
0.0
 11
3362.299291438672
 21
626.6356211962325
 31
0.0
  0
LINE
  5
7BA0
330
1E
100
AcDbEntity
  8
躯体と製品
  6
Continuous
 62
     4
100
AcDbLine
 10
3362.299291438672
 20
622.6356211962779
 30
0.0
 11
3362.299291438672
 21
626.6356211962325
 31
0.0
  0
LINE
  5
7BA1
330
1E
100
AcDbEntity
  8
躯体と製品
  6
Continuous
 62
     4
100
AcDbLine
 10
3356.549291438672
 20
622.1356211962779
 30
0.0
 11
3356.549291438672
 21
626.6356211962325
 31
0.0
  0
LWPOLYLINE
  5
7BA2
330
1E
100
AcDbEntity
  8
躯体と製品
  6
Continuous
 62
     4
100
AcDbPolyline
 90
        2
 70
     0
 43
0.0
 10
3357.549291438672
 20
622.6356211962779
 10
3357.549291438672
 20
617.1344392710166
  0
LINE
  5
7BA3
330
1E
100
AcDbEntity
  8
躯体と製品
  6
Continuous
 62
     4
100
AcDbLine
 10
3357.15299246031
 20
622.1356211962779
 30
0.0
 11
3356.549291438672
 21
622.1356211962779
 31
0.0
  0
LWPOLYLINE
  5
7BA4
330
1E
100
AcDbEntity
  8
躯体と製品
  6
Continuous
 62
     4
100
AcDbPolyline
 90
        2
 70
     0
 43
0.0
 10
3357.15299246031
 20
622.1356211962779
 10
3357.15299246031
 20
617.1344392710166
  0
LINE
  5
7BA5
330
1E
100
AcDbEntity
  8
躯体と製品
  6
Continuous
 62
     4
100
AcDbLine
 10
3417.549291438664
 20
626.6356211962325
 30
0.0
 11
3411.799291438672
 21
626.6356211962325
 31
0.0
  0
LINE
  5
7BA6
330
1E
100
AcDbEntity
  8
躯体と製品
  6
Continuous
 62
     4
100
AcDbLine
 10
3411.799291438672
 20
622.6356211962779
 30
0.0
 11
3411.799291438672
 21
626.6356211962325
 31
0.0
  0
LINE
  5
7BA7
330
1E
100
AcDbEntity
  8
躯体と製品
  6
Continuous
 62
     4
100
AcDbLine
 10
3417.549291438664
 20
622.1356211962779
 30
0.0
 11
3417.549291438664
 21
626.6356211962325
 31
0.0
  0
LWPOLYLINE
  5
7BA8
330
1E
100
AcDbEntity
  8
躯体と製品
  6
Continuous
 62
     4
100
AcDbPolyline
 90
        2
 70
     0
 43
0.0
 10
3416.549291438672
 20
622.6356211962779
 10
3416.549291438672
 20
617.1344392710166
  0
LINE
  5
7BA9
330
1E
100
AcDbEntity
  8
躯体と製品
  6
Continuous
 62
     4
100
AcDbLine
 10
3416.945590417034
 20
622.1356211962779
 30
0.0
 11
3417.549291438672
 21
622.1356211962779
 31
0.0
  0
LWPOLYLINE
  5
7BAA
330
1E
100
AcDbEntity
  8
躯体と製品
  6
Continuous
 62
     4
100
AcDbPolyline
 90
        2
 70
     0
 43
0.0
 10
3416.945590417034
 20
622.1356211962779
 10
3416.945590417034
 20
617.1344392710166
  0
LWPOLYLINE
  5
7BAB
330
1E
100
AcDbEntity
  8
躯体と製品
  6
Continuous
 62
     6
100
AcDbPolyline
 90
        6
 70
     1
 43
0.0
 10
3400.049291438643
 20
562.9324268256755
 10
3400.049291438643
 20
560.1356211962779
 10
3338.049291438643
 20
560.1356211962779
 10
3338.049291438643
 20
562.9324268256755
 42
-0.4142135623730951
 10
3339.252485809253
 20
564.1356211962779
 10
3398.846097068033
 20
564.1356211962779
 42
-0.4142135623730951
  0
LWPOLYLINE
  5
7BAC
330
1E
100
AcDbEntity
  8
躯体と製品
  6
Continuous
 62
     6
100
AcDbPolyline
 90
        4
 70
     0
 43
0.0
 10
3379.549291438643
 20
560.1356211962779
 10
3379.549291438643
 20
559.1356211962779
 10
3394.549291438643
 20
559.1356211962779
 10
3394.549291438643
 20
560.1356211962779
  0
LWPOLYLINE
  5
7BAD
330
1E
100
AcDbEntity
  8
躯体と製品
  6
Continuous
 62
     6
100
AcDbPolyline
 90
        8
 70
     1
 43
0.0
 10
3400.049291438643
 20
566.1149331962811
 10
3400.049291438679
 20
564.6563091962748
 42
-0.4142135623730951
 10
3399.528603438682
 20
564.1356211962779
 10
3374.569979438662
 20
564.1356211962779
 42
-0.4142135623730951
 10
3374.049291438643
 20
564.6563091962748
 10
3374.049291438665
 20
566.1149331962811
 42
-0.4142135623730951
 10
3374.569979438662
 20
566.6356211962779
 10
3399.528603438682
 20
566.6356211962779
 42
-0.4142135623730951
  0
LWPOLYLINE
  5
7BAE
330
1E
100
AcDbEntity
  8
躯体と製品
 62
     3
100
AcDbPolyline
 90
        2
 70
     0
 43
0.0
 10
2887.545635438673
 20
626.6356211962743
 10
3526.563482265937
 20
626.6356211962763
  0
LINE
  5
7BB0
330
1E
100
AcDbEntity
  8
躯体と製品
  6
Continuous
 62
     3
100
AcDbLine
 10
2942.049291444813
 20
539.9356212046363
 30
0.0
 11
2942.049291444813
 21
558.1356211962774
 31
0.0
  0
LINE
  5
7BB1
330
1E
100
AcDbEntity
  8
躯体と製品
  6
Continuous
 62
     3
100
AcDbLine
 10
2932.049291432531
 20
539.9356212046363
 30
0.0
 11
2932.049291432531
 21
558.1356211962774
 31
0.0
  0
LINE
  5
7BB2
330
1E
100
AcDbEntity
  8
躯体と製品
  6
Continuous
 62
     3
100
AcDbLine
 10
2944.049291447257
 20
539.9356212046363
 30
0.0
 11
2944.049291447258
 21
558.1356211962774
 31
0.0
  0
LINE
  5
7BB3
330
1E
100
AcDbEntity
  8
躯体と製品
  6
Continuous
 62
     3
100
AcDbLine
 10
2930.049291430028
 20
539.9356212046363
 30
0.0
 11
2930.049291430028
 21
558.1356211962774
 31
0.0
  0
LINE
  5
7BB4
330
1E
100
AcDbEntity
  8
躯体と製品
  6
Continuous
 62
     3
100
AcDbLine
 10
2974.549291484802
 20
535.1356211987327
 30
0.0
 11
2974.549291484802
 21
533.1356211962734
 31
0.0
  0
LINE
  5
7BB5
330
1E
100
AcDbEntity
  8
躯体と製品
  6
Continuous
 62
     3
100
AcDbLine
 10
2899.549291392542
 20
535.1356211987327
 30
0.0
 11
2899.549291392542
 21
533.1356211962734
 31
0.0
  0
LINE
  5
7BB6
330
1E
100
AcDbEntity
  8
躯体と製品
  6
Continuous
 62
     3
100
AcDbLine
 10
2899.549291392542
 20
533.1356211962734
 30
0.0
 11
2974.549291484802
 21
533.1356211962734
 31
0.0
  0
LINE
  5
7BB7
330
1E
100
AcDbEntity
  8
躯体と製品
  6
Continuous
 62
     3
100
AcDbLine
 10
2925.209003889746
 20
539.9356212046363
 30
0.0
 11
2949.906187523318
 21
539.9356212046363
 31
0.0
  0
LINE
  5
7BB8
330
1E
100
AcDbEntity
  8
躯体と製品
  6
Continuous
 62
     3
100
AcDbLine
 10
2908.650860068724
 20
537.1356212011992
 30
0.0
 11
2964.556109654297
 21
537.1356212011992
 31
0.0
  0
LINE
  5
7BB9
330
1E
100
AcDbEntity
  8
躯体と製品
  6
Continuous
 62
     3
100
AcDbLine
 10
2899.549291392542
 20
535.1356211987327
 30
0.0
 11
2974.549291484802
 21
535.1356211987327
 31
0.0
  0
LINE
  5
7BBA
330
1E
100
AcDbEntity
  8
躯体と製品
  6
Continuous
 62
     3
100
AcDbLine
 10
2925.209003889746
 20
537.1356212011992
 30
0.0
 11
2925.209003889746
 21
539.9356212046363
 31
0.0
  0
LINE
  5
7BBB
330
1E
100
AcDbEntity
  8
躯体と製品
  6
Continuous
 62
     3
100
AcDbLine
 10
2912.799291408841
 20
536.2356212000918
 30
0.0
 11
2914.181291798
 21
535.1356211987327
 31
0.0
  0
LINE
  5
7BBC
330
1E
100
AcDbEntity
  8
躯体と製品
  6
Continuous
 62
     3
100
AcDbLine
 10
2912.799291408841
 20
536.2356212000918
 30
0.0
 11
2903.799291397781
 21
536.2356212000918
 31
0.0
  0
LINE
  5
7BBD
330
1E
100
AcDbEntity
  8
躯体と製品
  6
Continuous
 62
     3
100
AcDbLine
 10
2903.799291397781
 20
536.2356212000918
 30
0.0
 11
2902.417291396052
 21
535.1356211987327
 31
0.0
  0
LINE
  5
7BBE
330
1E
100
AcDbEntity
  8
躯体と製品
  6
Continuous
 62
     3
100
AcDbLine
 10
2908.029041886142
 20
536.2356212000918
 30
0.0
 11
2908.650860068724
 21
537.1356212011992
 31
0.0
  0
LINE
  5
7BBF
330
1E
100
AcDbEntity
  8
躯体と製品
  6
Continuous
 62
     3
100
AcDbLine
 10
2949.906187523318
 20
537.1356212011992
 30
0.0
 11
2949.906187523318
 21
539.9356212046363
 31
0.0
  0
LINE
  5
7BC0
330
1E
100
AcDbEntity
  8
躯体と製品
  6
Continuous
 62
     3
100
AcDbLine
 10
2970.299291479563
 20
536.2356212000918
 30
0.0
 11
2971.681291481234
 21
535.1356211987327
 31
0.0
  0
LINE
  5
7BC1
330
1E
100
AcDbEntity
  8
躯体と製品
  6
Continuous
 62
     3
100
AcDbLine
 10
2961.299291468503
 20
536.2356212000918
 30
0.0
 11
2959.917291079344
 21
535.1356211987327
 31
0.0
  0
LINE
  5
7BC2
330
1E
100
AcDbEntity
  8
躯体と製品
  6
Continuous
 62
     3
100
AcDbLine
 10
2964.556109654297
 20
537.1356212011992
 30
0.0
 11
2965.177927836879
 21
536.2356212000918
 31
0.0
  0
LINE
  5
7BC3
330
1E
100
AcDbEntity
  8
躯体と製品
  6
Continuous
 62
     3
100
AcDbLine
 10
2961.299291468503
 20
536.2356212000918
 30
0.0
 11
2970.299291479563
 21
536.2356212000918
 31
0.0
  0
LWPOLYLINE
  5
7BC4
330
1E
100
AcDbEntity
  8
躯体と製品
  6
Continuous
 62
     6
100
AcDbPolyline
 90
        6
 70
     1
 43
0.0
 10
2924.049291438701
 20
561.932426825675
 10
2924.049291438701
 20
559.1356211962774
 10
2986.049291438701
 20
559.1356211962774
 10
2986.049291438701
 20
561.932426825675
 42
0.4142135623730951
 10
2984.846097068091
 20
563.1356211962774
 10
2925.252485809311
 20
563.1356211962774
 42
0.4142135623730951
  0
LWPOLYLINE
  5
7BC5
330
1E
100
AcDbEntity
  8
躯体と製品
  6
Continuous
 62
     6
100
AcDbPolyline
 90
        4
 70
     0
 43
0.0
 10
2944.549291438701
 20
559.1356211962774
 10
2944.549291438701
 20
558.1356211962774
 10
2929.549291438701
 20
558.1356211962774
 10
2929.549291438701
 20
559.1356211962774
  0
LWPOLYLINE
  5
7BC6
330
1E
100
AcDbEntity
  8
躯体と製品
  6
Continuous
 62
     6
100
AcDbPolyline
 90
        8
 70
     1
 43
0.0
 10
2924.049291438701
 20
565.1149331962805
 10
2924.049291438665
 20
563.6563091962743
 42
0.4142135623730951
 10
2924.569979438662
 20
563.1356211962774
 10
2949.528603438682
 20
563.1356211962774
 42
0.4142135623730951
 10
2950.049291438701
 20
563.6563091962743
 10
2950.049291438679
 20
565.1149331962805
 42
0.4142135623730951
 10
2949.528603438682
 20
565.6356211962775
 10
2924.569979438662
 20
565.6356211962775
 42
0.4142135623730951
  0
LINE
  5
7BC7
330
1E
100
AcDbEntity
  8
躯体と製品
  6
Continuous
 62
     3
100
AcDbLine
 10
2948.049291438672
 20
565.6356211962775
 30
0.0
 11
2948.049291438672
 21
589.6356211962775
 31
0.0
  0
LINE
  5
7BC8
330
1E
100
AcDbEntity
  8
躯体と製品
  6
Continuous
 62
     3
100
AcDbLine
 10
2926.049291438672
 20
565.6356211962775
 30
0.0
 11
2926.049291438672
 21
589.6356211962775
 31
0.0
  0
LINE
  5
7BC9
330
1E
100
AcDbEntity
  8
躯体と製品
  6
Continuous
 62
     3
100
AcDbLine
 10
2926.049291438672
 20
565.6356211962775
 30
0.0
 11
2948.049291438672
 21
565.6356211962775
 31
0.0
  0
LWPOLYLINE
  5
7BCA
330
1E
100
AcDbEntity
  8
躯体と製品
  6
Continuous
 62
     4
100
AcDbPolyline
 90
        4
 70
     1
 43
0.0
 10
2900.34929143866
 20
596.6356211962774
 10
2973.749291438684
 20
596.6356211962774
 10
2973.749291438684
 20
597.6356211962775
 10
2900.34929143866
 20
597.6356211962775
  0
LINE
  5
7BCB
330
1E
100
AcDbEntity
  8
躯体と製品
  6
Continuous
 62
     3
100
AcDbLine
 10
2972.049291438672
 20
589.6356211962775
 30
0.0
 11
2902.049291438672
 21
589.6356211962775
 31
0.0
  0
LINE
  5
7BCC
330
1E
100
AcDbEntity
  8
躯体と製品
  6
Continuous
 62
     3
100
AcDbLine
 10
2902.049291438672
 20
593.6356211962775
 30
0.0
 11
2926.549291438672
 21
593.6356211962775
 31
0.0
  0
LINE
  5
7BCD
330
1E
100
AcDbEntity
  8
躯体と製品
  6
Continuous
 62
     3
100
AcDbLine
 10
2929.549291438672
 20
593.6356211962775
 30
0.0
 11
2944.549291438672
 21
593.6356211962775
 31
0.0
  0
LINE
  5
7BCE
330
1E
100
AcDbEntity
  8
躯体と製品
  6
Continuous
 62
     3
100
AcDbLine
 10
2947.549291438672
 20
593.6356211962775
 30
0.0
 11
2972.049291438672
 21
593.6356211962775
 31
0.0
  0
LINE
  5
7BCF
330
1E
100
AcDbEntity
  8
躯体と製品
  6
Continuous
 62
     3
100
AcDbLine
 10
2902.049291438672
 20
589.6356211962775
 30
0.0
 11
2902.049291438672
 21
596.6356211962774
 31
0.0
  0
LINE
  5
7BD0
330
1E
100
AcDbEntity
  8
躯体と製品
  6
Continuous
 62
     3
100
AcDbLine
 10
2972.049291438672
 20
589.6356211962775
 30
0.0
 11
2972.049291438672
 21
596.6356211962774
 31
0.0
  0
LINE
  5
7BD1
330
1E
100
AcDbEntity
  8
躯体と製品
  6
Continuous
 62
     4
100
AcDbLine
 10
2914.074291438637
 20
593.6356211962775
 30
0.0
 11
2914.074291438637
 21
590.8356211962818
 31
0.0
  0
LINE
  5
7BD2
330
1E
100
AcDbEntity
  8
躯体と製品
  6
Continuous
 62
     4
100
AcDbLine
 10
2914.074291438637
 20
590.8356211962818
 30
0.0
 11
2909.024291438649
 21
590.8356211962818
 31
0.0
  0
LINE
  5
7BD3
330
1E
100
AcDbEntity
  8
躯体と製品
  6
Continuous
 62
     4
100
AcDbLine
 10
2909.024291438649
 20
593.6356211962775
 30
0.0
 11
2909.024291438649
 21
590.8356211962818
 31
0.0
  0
LINE
  5
7BD4
330
1E
100
AcDbEntity
  8
躯体と製品
  6
Continuous
 62
     4
100
AcDbLine
 10
2960.024291438707
 20
593.6356211962775
 30
0.0
 11
2960.024291438707
 21
590.8356211962818
 31
0.0
  0
LINE
  5
7BD5
330
1E
100
AcDbEntity
  8
躯体と製品
  6
Continuous
 62
     4
100
AcDbLine
 10
2960.024291438707
 20
590.8356211962818
 30
0.0
 11
2965.074291438695
 21
590.8356211962818
 31
0.0
  0
LINE
  5
7BD6
330
1E
100
AcDbEntity
  8
躯体と製品
  6
Continuous
 62
     4
100
AcDbLine
 10
2965.074291438695
 20
593.6356211962775
 30
0.0
 11
2965.074291438695
 21
590.8356211962818
 31
0.0
  0
LWPOLYLINE
  5
7BD7
330
1E
100
AcDbEntity
  8
躯体と製品
  6
Continuous
 62
     3
100
AcDbPolyline
 90
        4
 70
     0
 43
0.0
 10
2944.549291438672
 20
593.6356211962775
 10
2944.799291438672
 20
589.6356211962775
 10
2947.299291438672
 20
589.6356211962775
 10
2947.549291438672
 20
593.6356211962775
  0
LWPOLYLINE
  5
7BD8
330
1E
100
AcDbEntity
  8
躯体と製品
  6
Continuous
 62
     3
100
AcDbPolyline
 90
        4
 70
     0
 43
0.0
 10
2929.549291438672
 20
593.6356211962775
 10
2929.299291438672
 20
589.6356211962775
 10
2926.799291438672
 20
589.6356211962775
 10
2926.549291438672
 20
593.6356211962775
  0
LWPOLYLINE
  5
7BD9
330
1E
100
AcDbEntity
  8
躯体と製品
  6
Continuous
 62
     4
100
AcDbPolyline
 90
        2
 70
     0
 43
0.0
 10
3173.255359264933
 20
533.1356211962734
 10
3143.255359264932
 20
503.1356211962734
  0
LWPOLYLINE
  5
7BDA
330
1E
100
AcDbEntity
  8
躯体と製品
  6
Continuous
 62
     4
100
AcDbPolyline
 90
        2
 70
     0
 43
0.0
 10
3183.255359264933
 20
533.1356211962734
 10
3153.255359264933
 20
503.1356211962734
  0
LWPOLYLINE
  5
7BDB
330
1E
100
AcDbEntity
  8
躯体と製品
  6
Continuous
 62
     4
100
AcDbPolyline
 90
        2
 70
     0
 43
0.0
 10
3193.255359264933
 20
533.1356211962734
 10
3163.255359264932
 20
503.1356211962734
  0
LWPOLYLINE
  5
7BDC
330
1E
100
AcDbEntity
  8
躯体と製品
  6
Continuous
 62
     4
100
AcDbPolyline
 90
        2
 70
     0
 43
0.0
 10
3372.984993860502
 20
533.1356211962734
 10
3342.984993860509
 20
503.1356211962734
  0
LWPOLYLINE
  5
7BDD
330
1E
100
AcDbEntity
  8
躯体と製品
  6
Continuous
 62
     4
100
AcDbPolyline
 90
        2
 70
     0
 43
0.0
 10
3382.984993860502
 20
533.1356211962734
 10
3352.984993860502
 20
503.1356211962734
  0
LWPOLYLINE
  5
7BDE
330
1E
100
AcDbEntity
  8
躯体と製品
  6
Continuous
 62
     4
100
AcDbPolyline
 90
        2
 70
     0
 43
0.0
 10
3392.984993860502
 20
533.1356211962734
 10
3362.984993860502
 20
503.1356211962734
  0
TEXT
  5
7BE5
330
1E
100
AcDbEntity
  8
文字-記号
  6
Continuous
 62
     3
100
AcDbText
 10
2683.756874230891
 20
773.5762390810614
 30
0.0
 40
15.0
  1
【SUS框部納まり図（サンアクセスフロア ３００Ｌ：中空タイプ）】
100
AcDbText
1001
ACAD
1000
ACAD_MTEXT_DEFINED_HEIGHT_BEGIN
1070
    46
1040
0.0
1000
ACAD_MTEXT_DEFINED_HEIGHT_END
  0
LWPOLYLINE
  5
7BE8
330
1E
100
AcDbEntity
  8
躯体と製品
 62
     3
100
AcDbPolyline
 90
        2
 70
     0
 43
0.0
 10
2887.545635438673
 20
627.6356211962743
 10
3526.563482265937
 20
627.6356211962763
  0
LWPOLYLINE
  5
7BE9
330
1E
100
AcDbEntity
  8
躯体と製品
 62
     3
100
AcDbPolyline
 90
        2
 70
     0
 43
0.0
 10
2887.545635438673
 20
628.6356211962742
 10
3526.563482265937
 20
628.6356211962763
  0
LWPOLYLINE
  5
7BEA
330
1E
100
AcDbEntity
  8
躯体と製品
  6
Continuous
 62
     4
100
AcDbPolyline
 90
        2
 70
     0
 43
0.0
 10
2973.525724669363
 20
533.1356211962734
 10
2943.525724669363
 20
503.1356211962734
  0
LWPOLYLINE
  5
7BEB
330
1E
100
AcDbEntity
  8
躯体と製品
  6
Continuous
 62
     4
100
AcDbPolyline
 90
        2
 70
     0
 43
0.0
 10
2983.525724669363
 20
533.1356211962734
 10
2953.525724669363
 20
503.1356211962734
  0
LWPOLYLINE
  5
7BEC
330
1E
100
AcDbEntity
  8
躯体と製品
  6
Continuous
 62
     4
100
AcDbPolyline
 90
        2
 70
     0
 43
0.0
 10
2993.525724669363
 20
533.1356211962734
 10
2963.525724669363
 20
503.1356211962734
  0
ARC
  5
7BED
330
1E
100
AcDbEntity
  8
躯体と製品
  6
Continuous
 62
     2
100
AcDbCircle
 10
3388.249291438672
 20
625.9356211962831
 30
0.0
 40
0.7
100
AcDbArc
 50
90.0
 51
270.0
  0
LINE
  5
7BEE
330
1E
100
AcDbEntity
  8
躯体と製品
  6
Continuous
 62
     2
100
AcDbLine
 10
3388.249291438672
 20
626.6356211962734
 30
0.0
 11
3526.563482265937
 21
626.6356211962736
 31
0.0
  0
LINE
  5
7BEF
330
1E
100
AcDbEntity
  8
躯体と製品
  6
Continuous
 62
     2
100
AcDbLine
 10
3526.563482265937
 20
625.2356211962835
 30
0.0
 11
3417.549291438664
 21
625.2356211962833
 31
0.0
  0
LINE
  5
7BF0
330
1E
100
AcDbEntity
  8
躯体と製品
  6
Continuous
 62
     2
100
AcDbLine
 10
3411.799291438672
 20
625.2356211962833
 30
0.0
 11
3409.299291438672
 21
625.2356211962828
 31
0.0
  0
LINE
  5
7BF1
330
1E
100
AcDbEntity
  8
躯体と製品
  6
Continuous
 62
     2
100
AcDbLine
 10
3400.549291438674
 20
625.2356211962828
 30
0.0
 11
3388.249291438672
 21
625.2356211962833
 31
0.0
  0
ARC
  5
7BF2
330
1E
100
AcDbEntity
  8
躯体と製品
  6
Continuous
 62
     2
100
AcDbCircle
 10
3388.249291438672
 20
625.9356211962831
 30
0.0
 40
0.7
100
AcDbArc
 50
90.0
 51
270.0
  0
LINE
  5
7BF3
330
1E
100
AcDbEntity
  8
躯体と製品
  6
Continuous
 62
     2
100
AcDbLine
 10
3526.563482265937
 20
599.6356211962777
 30
0.0
 11
3459.749291438673
 21
599.6356211962774
 31
0.0
  0
ARC
  5
7BF4
330
1E
100
AcDbEntity
  8
躯体と製品
  6
Continuous
 62
     2
100
AcDbCircle
 10
3400.549291438676
 20
601.1356211962775
 30
0.0
 40
3.5
100
AcDbArc
 50
180.0
 51
270.0
  0
LINE
  5
7BF5
330
1E
100
AcDbEntity
  8
躯体と製品
  6
Continuous
 62
     2
100
AcDbLine
 10
3397.049291438675
 20
601.1356211962775
 30
0.0
 11
3397.049291438678
 21
617.1344392710161
 31
0.0
  0
LINE
  5
7BF6
330
1E
100
AcDbEntity
  8
躯体と製品
  6
Continuous
 62
     2
100
AcDbLine
 10
3397.049291438675
 20
622.6356211962779
 30
0.0
 11
3397.049291438675
 21
624.2356211962833
 31
0.0
  0
LINE
  5
7BF7
330
1E
100
AcDbEntity
  8
躯体と製品
  6
Continuous
 62
     2
100
AcDbLine
 10
3526.563482265937
 20
597.6356211962775
 30
0.0
 11
3400.549291438676
 21
597.6356211962775
 31
0.0
  0
LINE
  5
7BF8
330
1E
100
AcDbEntity
  8
躯体と製品
  6
Continuous
 62
     2
100
AcDbLine
 10
3459.749291438673
 20
599.6356211962847
 30
0.0
 11
3459.749291438673
 21
597.6356211962775
 31
0.0
  0
LWPOLYLINE
  5
7BF9
330
1E
100
AcDbEntity
  8
躯体と製品
 62
     2
100
AcDbPolyline
 90
        2
 70
     0
 43
0.0
 10
3397.049291438675
 20
624.2356211962833
 42
0.4142135623721627
 10
3396.049291438675
 20
625.2356211962838
  0
ARC
  5
7BFA
330
1E
100
AcDbEntity
  8
躯体と製品
  6
Continuous
 62
     2
100
AcDbCircle
 10
2888.249291438673
 20
625.9356211962831
 30
0.0
 40
0.7
100
AcDbArc
 50
90.0
 51
270.0
  0
LINE
  5
7BFB
330
1E
100
AcDbEntity
  8
躯体と製品
  6
Continuous
 62
     2
100
AcDbLine
 10
2888.249291438673
 20
626.6356211962734
 30
0.0
 11
3385.849291438671
 21
626.6356211962734
 31
0.0
  0
LINE
  5
7BFC
330
1E
100
AcDbEntity
  8
躯体と製品
  6
Continuous
 62
     2
100
AcDbLine
 10
3385.849291438671
 20
625.2356211962833
 30
0.0
 11
3373.549291438672
 21
625.2356211962833
 31
0.0
  0
LINE
  5
7BFD
330
1E
100
AcDbEntity
  8
躯体と製品
  6
Continuous
 62
     2
100
AcDbLine
 10
3364.799291438674
 20
625.2356211962833
 30
0.0
 11
3362.299291438674
 21
625.2356211962833
 31
0.0
  0
LINE
  5
7BFE
330
1E
100
AcDbEntity
  8
躯体と製品
  6
Continuous
 62
     2
100
AcDbLine
 10
3356.549291438672
 20
625.2356211962833
 30
0.0
 11
2888.249291438673
 21
625.2356211962833
 31
0.0
  0
ARC
  5
7BFF
330
1E
100
AcDbEntity
  8
躯体と製品
  6
Continuous
 62
     2
100
AcDbCircle
 10
2888.249291438673
 20
625.9356211962831
 30
0.0
 40
0.7
100
AcDbArc
 50
90.0
 51
270.0
  0
LINE
  5
7C00
330
1E
100
AcDbEntity
  8
躯体と製品
  6
Continuous
 62
     2
100
AcDbLine
 10
3314.349291438671
 20
599.6356211962774
 30
0.0
 11
2959.749291438673
 21
599.6356211962774
 31
0.0
  0
ARC
  5
7C01
330
1E
100
AcDbEntity
  8
躯体と製品
  6
Continuous
 62
     2
100
AcDbCircle
 10
2900.549291438676
 20
601.1356211962775
 30
0.0
 40
3.5
100
AcDbArc
 50
180.0
 51
270.0
  0
LINE
  5
7C02
330
1E
100
AcDbEntity
  8
躯体と製品
  6
Continuous
 62
     2
100
AcDbLine
 10
2897.049291438676
 20
601.1356211962775
 30
0.0
 11
2897.049291438676
 21
624.2356211962833
 31
0.0
  0
LINE
  5
7C03
330
1E
100
AcDbEntity
  8
躯体と製品
  6
Continuous
 62
     2
100
AcDbLine
 10
3373.549291438675
 20
597.6356211962775
 30
0.0
 11
2900.549291438676
 21
597.6356211962775
 31
0.0
  0
LINE
  5
7C04
330
1E
100
AcDbEntity
  8
躯体と製品
  6
Continuous
 62
     2
100
AcDbLine
 10
2959.749291438673
 20
599.6356211962847
 30
0.0
 11
2959.749291438673
 21
597.6356211962775
 31
0.0
  0
LINE
  5
7C05
330
1E
100
AcDbEntity
  8
躯体と製品
  6
Continuous
 62
     2
100
AcDbLine
 10
3314.349291438671
 20
597.6356211962775
 30
0.0
 11
3314.349291438671
 21
599.6356211962847
 31
0.0
  0
ARC
  5
7C06
330
1E
100
AcDbEntity
  8
躯体と製品
  6
Continuous
 62
     2
100
AcDbCircle
 10
3373.549291438675
 20
601.1356211962775
 30
0.0
 40
3.5
100
AcDbArc
 50
270.0
 51
0.0
  0
LINE
  5
7C07
330
1E
100
AcDbEntity
  8
躯体と製品
  6
Continuous
 62
     2
100
AcDbLine
 10
3377.049291438676
 20
624.2356211962833
 30
0.0
 11
3377.049291438676
 21
622.6356211962779
 31
0.0
  0
LINE
  5
7C08
330
1E
100
AcDbEntity
  8
躯体と製品
  6
Continuous
 62
     2
100
AcDbLine
 10
3377.049291438677
 20
617.1344392710161
 30
0.0
 11
3377.049291438676
 21
601.1356211962775
 31
0.0
  0
LWPOLYLINE
  5
7C09
330
1E
100
AcDbEntity
  8
躯体と製品
 62
     2
100
AcDbPolyline
 90
        2
 70
     0
 43
0.0
 10
2897.049291438676
 20
624.2356211962833
 42
0.4142135623721627
 10
2896.049291438675
 20
625.2356211962838
  0
ARC
  5
7C0A
330
1E
100
AcDbEntity
  8
躯体と製品
  6
Continuous
 62
     2
100
AcDbCircle
 10
3385.849291438671
 20
625.9356211962831
 30
0.0
 40
0.7
100
AcDbArc
 50
270.0
 51
90.0
  0
ARC
  5
7C0B
330
1E
100
AcDbEntity
  8
躯体と製品
  6
Continuous
 62
     2
100
AcDbCircle
 10
3385.849291438671
 20
625.9356211962831
 30
0.0
 40
0.7
100
AcDbArc
 50
270.0
 51
90.0
  0
LWPOLYLINE
  5
7C0C
330
1E
100
AcDbEntity
  8
躯体と製品
 62
     2
100
AcDbPolyline
 90
        2
 70
     0
 43
0.0
 10
3377.049291438668
 20
624.2356211962833
 42
-0.4142135623721627
 10
3378.049291438669
 20
625.2356211962838
  0
LINE
  5
7C0D
330
1E
100
AcDbEntity
  8
躯体と製品
  6
HASEN
 62
     2
100
AcDbLine
 10
2914.074291438637
 20
594.1605043914314
 30
0.0
 11
2909.024291438649
 21
594.1605043914314
 31
0.0
  0
LINE
  5
7C0E
330
1E
100
AcDbEntity
  8
躯体と製品
  6
HASEN
 62
     2
100
AcDbLine
 10
2914.074291438637
 20
593.6605043914314
 30
0.0
 11
2909.024291438649
 21
593.6605043914314
 31
0.0
  0
ARC
  5
7C0F
330
1E
100
AcDbEntity
  8
躯体と製品
  6
HASEN
 62
     2
100
AcDbCircle
 10
2914.018041438672
 20
593.9105043914314
 30
0.0
 40
0.2562499999998979
100
AcDbArc
 50
282.6803834935707
 51
77.31961650642929
  0
ARC
  5
7C10
330
1E
100
AcDbEntity
  8
躯体と製品
  6
HASEN
 62
     2
100
AcDbCircle
 10
2909.080541438672
 20
593.9105043914314
 30
0.0
 40
0.2562500000005634
100
AcDbArc
 50
102.6803834935707
 51
257.3196165064293
  0
LINE
  5
7C11
330
1E
100
AcDbEntity
  8
躯体と製品
  6
HASEN
 62
     2
100
AcDbLine
 10
2914.074291438637
 20
593.6356211962775
 30
0.0
 11
2914.07429143863
 21
593.6605043914314
 31
0.0
  0
LINE
  5
7C12
330
1E
100
AcDbEntity
  8
躯体と製品
  6
HASEN
 62
     2
100
AcDbLine
 10
2914.07429143863
 20
594.1605043914314
 30
0.0
 11
2914.07429143863
 21
596.6356211962774
 31
0.0
  0
LINE
  5
7C13
330
1E
100
AcDbEntity
  8
躯体と製品
  6
HASEN
 62
     2
100
AcDbLine
 10
2909.024291438641
 20
593.6356211962775
 30
0.0
 11
2909.024291438641
 21
593.6605043914314
 31
0.0
  0
LINE
  5
7C14
330
1E
100
AcDbEntity
  8
躯体と製品
  6
HASEN
 62
     2
100
AcDbLine
 10
2909.024291438641
 20
594.1605043914314
 30
0.0
 11
2909.024291438641
 21
596.6356211962774
 31
0.0
  0
LINE
  5
7C15
330
1E
100
AcDbEntity
  8
躯体と製品
  6
HASEN
 62
     2
100
AcDbLine
 10
2960.024291438707
 20
594.1605043914314
 30
0.0
 11
2965.074291438695
 21
594.1605043914314
 31
0.0
  0
LINE
  5
7C16
330
1E
100
AcDbEntity
  8
躯体と製品
  6
HASEN
 62
     2
100
AcDbLine
 10
2960.024291438707
 20
593.6605043914314
 30
0.0
 11
2965.074291438695
 21
593.6605043914314
 31
0.0
  0
ARC
  5
7C17
330
1E
100
AcDbEntity
  8
躯体と製品
  6
HASEN
 62
     2
100
AcDbCircle
 10
2960.080541438672
 20
593.9105043914314
 30
0.0
 40
0.2562499999998979
100
AcDbArc
 50
102.6803834935707
 51
257.3196165064293
  0
ARC
  5
7C18
330
1E
100
AcDbEntity
  8
躯体と製品
  6
HASEN
 62
     2
100
AcDbCircle
 10
2965.018041438672
 20
593.9105043914314
 30
0.0
 40
0.2562500000005634
100
AcDbArc
 50
282.6803834935707
 51
77.31961650642929
  0
LINE
  5
7C19
330
1E
100
AcDbEntity
  8
躯体と製品
  6
HASEN
 62
     2
100
AcDbLine
 10
2960.024291438707
 20
593.6356211962775
 30
0.0
 11
2960.024291438707
 21
593.6605043914314
 31
0.0
  0
LINE
  5
7C1A
330
1E
100
AcDbEntity
  8
躯体と製品
  6
HASEN
 62
     2
100
AcDbLine
 10
2960.024291438707
 20
594.1605043914314
 30
0.0
 11
2960.024291438707
 21
596.6356211962774
 31
0.0
  0
LINE
  5
7C1B
330
1E
100
AcDbEntity
  8
躯体と製品
  6
HASEN
 62
     2
100
AcDbLine
 10
2965.074291438695
 20
593.6356211962775
 30
0.0
 11
2965.074291438695
 21
593.6605043914314
 31
0.0
  0
LINE
  5
7C1C
330
1E
100
AcDbEntity
  8
躯体と製品
  6
HASEN
 62
     2
100
AcDbLine
 10
2965.074291438695
 20
594.1605043914314
 30
0.0
 11
2965.074291438695
 21
596.6356211962774
 31
0.0
  0
LWPOLYLINE
  5
7C2B
330
1E
100
AcDbEntity
  8
躯体と製品
 62
     3
100
AcDbPolyline
 90
        2
 70
     0
 43
0.0
 10
2887.381050131422
 20
633.1356331962738
 10
3526.563482265937
 20
633.1356331962738
  0
HATCH
  5
7C2C
330
1E
100
AcDbEntity
  8
躯体と製品
 62
     3
100
AcDbHatch
 10
0.0
 20
0.0
 30
0.0
210
0.0
220
0.0
230
1.0
  2
LINE
 70
     0
 71
     0
 91
        1
 92
        1
 93
        4
 72
     1
 10
2887.545635497721
 20
633.1356331962674
 11
3526.563482265937
 21
633.1356331962738
 72
     1
 10
3526.563482265937
 20
633.1356331962738
 11
3526.563482265937
 21
628.6356331962728
 72
     1
 10
3526.563482265937
 20
628.6356331962728
 11
2887.545635438673
 21
628.6356331962747
 72
     1
 10
2887.545635438673
 20
628.6356331962747
 11
2887.545635497721
 21
633.1356331962674
 97
        0
 75
     0
 76
     1
 52
90.0
 41
1.0
 77
     0
 78
     1
 53
90.0
 43
-39238.58155320352
 44
-14697.0100499278
 45
-3.174999999999999
 46
0.0000000000000002
 79
     0
 98
        1
 10
-39238.58155320352
 20
-14697.0100499278
1001
ACAD
1010
0.0
1020
0.0
1030
0.0
  0
LINE
  5
7C4E
330
1E
100
AcDbEntity
  8
文字-記号
  6
Continuous
 62
     7
100
AcDbLine
 10
3123.553438083616
 20
606.9249359167097
 30
0.0
 11
3183.527205908841
 21
673.1356331962738
 31
0.0
  0
LINE
  5
7C4F
330
1E
100
AcDbEntity
  8
文字-記号
  6
Continuous
 62
     7
100
AcDbLine
 10
3123.553438083616
 20
606.9249359167097
 30
0.0
 11
3130.68205404357
 21
611.0701484490164
 31
0.0
  0
LINE
  5
7C50
330
1E
100
AcDbEntity
  8
文字-記号
  6
Continuous
 62
     7
100
AcDbLine
 10
3123.553438083616
 20
606.9249359167097
 30
0.0
 11
3127.892705091901
 21
613.9371191910763
 31
0.0
  0
LINE
  5
7C51
330
1E
100
AcDbEntity
  8
文字-記号
  6
Continuous
 62
     7
100
AcDbLine
 10
3183.527205908841
 20
673.1356331962738
 30
0.0
 11
3322.936035177398
 21
673.1356331962738
 31
0.0
  0
TEXT
  5
7C52
330
1E
100
AcDbEntity
  8
文字-記号
 62
     7
100
AcDbText
 10
3183.466200900423
 20
677.1370446870344
 30
0.0
 40
12.0
  1
サンアクセスフロア300L
 41
0.8
  7
ACAD
100
AcDbText
  0
LINE
  5
7C53
330
1E
100
AcDbEntity
  8
文字-記号
  6
Continuous
 62
     7
100
AcDbLine
 10
3056.594207676325
 20
657.1255717295746
 30
0.0
 11
3143.965735992039
 21
657.1255717295746
 31
0.0
  0
TEXT
  5
7C54
330
1E
100
AcDbEntity
  8
文字-記号
 62
     7
100
AcDbText
 10
3057.265436001979
 20
661.1255517295746
 30
0.0
 40
12.0
  1
タイルカーペット
 41
0.8
  7
ACAD
100
AcDbText
  0
LINE
  5
7C55
330
1E
100
AcDbEntity
  8
文字-記号
  6
Continuous
 62
     7
100
AcDbLine
 10
3024.073830639975
 20
633.1356331962738
 30
0.0
 11
3056.594207676325
 21
657.1255717295746
 31
0.0
  0
LINE
  5
7C56
330
1E
100
AcDbEntity
  8
文字-記号
  6
Continuous
 62
     7
100
AcDbLine
 10
3024.073830639975
 20
633.1356331962738
 30
0.0
 11
3031.547453369622
 21
636.6205888254628
 31
0.0
  0
LINE
  5
7C57
330
1E
100
AcDbEntity
  8
文字-記号
  6
Continuous
 62
     7
100
AcDbLine
 10
3024.073830639975
 20
633.1356331962738
 30
0.0
 11
3029.028224517103
 21
639.7275929771565
 31
0.0
  0
LINE
  5
7CB6
330
1E
100
AcDbEntity
  8
0
  6
Continuous
100
AcDbLine
 10
2704.545636438674
 20
533.1356211962734
 30
0.0
 11
3526.563482265937
 21
533.1356211962734
 31
0.0
  0
LINE
  5
7CCD
330
1E
100
AcDbEntity
  8
中心線
  6
CENTER1
 62
     7
100
AcDbLine
 10
2864.045635438673
 20
535.4356211962733
 30
0.0
 11
2864.045635438673
 21
533.1356211962734
 31
0.0
  0
LINE
  5
7CCE
330
1E
100
AcDbEntity
  8
中心線
  6
CENTER1
 62
     7
100
AcDbLine
 10
2868.045635438673
 20
535.4356211962733
 30
0.0
 11
2868.045635438673
 21
533.1356211962734
 31
0.0
  0
LWPOLYLINE
  5
7CCF
330
1E
100
AcDbEntity
  8
躯体と製品
  6
Continuous
 62
     7
100
AcDbPolyline
 90
        2
 70
   128
 43
0.0
 10
2886.045635438673
 20
617.1356211962733
 10
2886.045635438673
 20
537.6356211962733
  0
ARC
  5
7CD0
330
1E
100
AcDbEntity
  8
躯体と製品
  6
Continuous
 62
     7
100
AcDbCircle
 10
2881.545635438673
 20
537.6356211962733
 30
0.0
 40
4.5
100
AcDbArc
 50
270.0
 51
0.0
  0
LWPOLYLINE
  5
7CD1
330
1E
100
AcDbEntity
  8
躯体と製品
  6
Continuous
 62
     7
100
AcDbPolyline
 90
        2
 70
   128
 43
0.0
 10
2881.545635438673
 20
533.1356211962734
 10
2850.545635438673
 20
533.1356211962734
  0
ARC
  5
7CD2
330
1E
100
AcDbEntity
  8
躯体と製品
  6
Continuous
 62
     7
100
AcDbCircle
 10
2850.545635438673
 20
537.6356211962733
 30
0.0
 40
4.5
100
AcDbArc
 50
180.0
 51
270.0
  0
LWPOLYLINE
  5
7CD3
330
1E
100
AcDbEntity
  8
躯体と製品
  6
Continuous
 62
     7
100
AcDbPolyline
 90
        4
 70
   128
 43
0.0
 10
2846.045635438673
 20
537.6356211962733
 10
2846.045635438673
 20
573.1356211962734
 10
2848.345635438673
 20
573.1356211962734
 10
2848.345635438673
 20
537.6356211962733
  0
ARC
  5
7CD4
330
1E
100
AcDbEntity
  8
躯体と製品
  6
Continuous
 62
     7
100
AcDbCircle
 10
2850.545635438673
 20
537.6356211962733
 30
0.0
 40
2.200000000000271
100
AcDbArc
 50
180.0
 51
270.0
  0
LWPOLYLINE
  5
7CD5
330
1E
100
AcDbEntity
  8
躯体と製品
  6
Continuous
 62
     7
100
AcDbPolyline
 90
        2
 70
   128
 43
0.0
 10
2850.545635438673
 20
535.4356211962733
 10
2881.545635438673
 20
535.4356211962733
  0
ARC
  5
7CD6
330
1E
100
AcDbEntity
  8
躯体と製品
  6
Continuous
 62
     7
100
AcDbCircle
 10
2881.545635438673
 20
537.6356211962733
 30
0.0
 40
2.199999999999818
100
AcDbArc
 50
270.0
 51
0.0
  0
LWPOLYLINE
  5
7CD7
330
1E
100
AcDbEntity
  8
躯体と製品
  6
Continuous
 62
     7
100
AcDbPolyline
 90
        3
 70
   128
 43
0.0
 10
2883.745635438673
 20
537.6356211962733
 10
2883.745635438673
 20
617.1356211962733
 10
2886.045635438673
 20
617.1356211962733
  0
LWPOLYLINE
  5
7CD8
330
1E
100
AcDbEntity
  8
躯体と製品
  6
Continuous
 62
     7
100
AcDbPolyline
 90
        3
 70
   128
 43
0.0
 10
2844.545635438673
 20
533.1356211962734
 10
2846.045635438673
 20
533.1356211962734
 10
2846.045635438673
 20
632.1356211962734
  0
ARC
  5
7CD9
330
1E
100
AcDbEntity
  8
躯体と製品
  6
Continuous
 62
     7
100
AcDbCircle
 10
2847.545635438673
 20
632.1356211962734
 30
0.0
 40
1.5
100
AcDbArc
 50
90.0
 51
180.0
  0
LWPOLYLINE
  5
7CDA
330
1E
100
AcDbEntity
  8
躯体と製品
  6
Continuous
 62
     7
100
AcDbPolyline
 90
        2
 70
   128
 43
0.0
 10
2847.545635438673
 20
633.6356211962733
 10
2884.545635438673
 20
633.6356211962733
  0
ARC
  5
7CDB
330
1E
100
AcDbEntity
  8
躯体と製品
  6
Continuous
 62
     7
100
AcDbCircle
 10
2884.545635438673
 20
632.1356211962734
 30
0.0
 40
1.5
100
AcDbArc
 50
0.0
 51
90.0
  0
LWPOLYLINE
  5
7CDC
330
1E
100
AcDbEntity
  8
躯体と製品
  6
Continuous
 62
     7
100
AcDbPolyline
 90
        4
 70
   128
 43
0.0
 10
2886.045635438673
 20
632.1356211962734
 10
2886.045635438673
 20
577.1356211962734
 10
2887.545635438673
 20
577.1356211962734
 10
2887.545635438673
 20
632.1356211962734
  0
ARC
  5
7CDD
330
1E
100
AcDbEntity
  8
躯体と製品
  6
Continuous
 62
     7
100
AcDbCircle
 10
2884.545635438673
 20
632.1356211962734
 30
0.0
 40
3.0
100
AcDbArc
 50
0.0
 51
90.0
  0
LWPOLYLINE
  5
7CDE
330
1E
100
AcDbEntity
  8
躯体と製品
  6
Continuous
 62
     7
100
AcDbPolyline
 90
        2
 70
   128
 43
0.0
 10
2884.545635438673
 20
635.1356211962734
 10
2847.545635438673
 20
635.1356211962734
  0
ARC
  5
7CDF
330
1E
100
AcDbEntity
  8
躯体と製品
  6
Continuous
 62
     7
100
AcDbCircle
 10
2847.545635438673
 20
632.1356211962734
 30
0.0
 40
3.0
100
AcDbArc
 50
90.0
 51
180.0
  0
LWPOLYLINE
  5
7CE0
330
1E
100
AcDbEntity
  8
躯体と製品
  6
Continuous
 62
     7
100
AcDbPolyline
 90
        2
 70
   128
 43
0.0
 10
2844.545635438673
 20
632.1356211962734
 10
2844.545635438673
 20
533.1356211962734
  0
LINE
  5
7CEC
330
1E
100
AcDbEntity
  8
中心線
  6
CENTER1
 62
     7
100
AcDbLine
 10
2866.045635438672
 20
546.9366395290042
 30
0.0
 11
2866.045635438672
 21
516.0002054388412
 31
0.0
  0
LINE
  5
7CED
330
1E
100
AcDbEntity
  8
中心線
  6
CENTER1
 62
     7
100
AcDbLine
 10
2870.545635438673
 20
597.1556211962734
 30
0.0
 11
2892.545635438673
 21
597.1556211962734
 31
0.0
  0
LINE
  5
7CEE
330
1E
100
AcDbEntity
  8
躯体と製品
  6
Continuous
 62
     7
100
AcDbLine
 10
2897.049291438676
 20
611.3888151962806
 30
0.0
 11
2887.545635438673
 21
620.8924711962829
 31
0.0
  0
LINE
  5
7CEF
330
1E
100
AcDbEntity
  8
躯体と製品
  6
Continuous
 62
     7
100
AcDbLine
 10
2897.049291438676
 20
601.1556211962734
 30
0.0
 11
2897.049291438676
 21
625.2356211962831
 31
0.0
  0
LINE
  5
7CF0
330
1E
100
AcDbEntity
  8
躯体と製品
  6
Continuous
 62
     7
100
AcDbLine
 10
2896.21765107619
 20
625.2213468337995
 30
0.0
 11
2887.545635438673
 21
616.549331196283
 31
0.0
  0
LINE
  5
7CF1
330
1E
100
AcDbEntity
  8
躯体と製品
  6
Continuous
 62
     7
100
AcDbLine
 10
2887.545635438673
 20
615.2129911962831
 30
0.0
 11
2897.049291438675
 21
605.7093351962816
 31
0.0
  0
LINE
  5
7CF2
330
1E
100
AcDbEntity
  8
躯体と製品
  6
Continuous
 62
     7
100
AcDbLine
 10
2887.523005438673
 20
601.1556211962734
 30
0.0
 11
2897.049291438676
 21
601.1556211962734
 31
0.0
  0
LINE
  5
7CF3
330
1E
100
AcDbEntity
  8
躯体と製品
  6
Continuous
 62
     7
100
AcDbLine
 10
2897.049291438676
 20
620.3961271962851
 30
0.0
 11
2887.545635438673
 21
610.8924711962829
 31
0.0
  0
LINE
  5
7CF4
330
1E
100
AcDbEntity
  8
躯体と製品
  6
Continuous
 62
     7
100
AcDbLine
 10
2892.545635438673
 20
610.258251196283
 30
0.0
 11
2892.523005438674
 21
610.235621196283
 31
0.0
  0
LINE
  5
7CF5
330
1E
100
AcDbEntity
  8
躯体と製品
  6
Continuous
 62
     7
100
AcDbLine
 10
2897.049291438675
 20
617.0456751962793
 30
0.0
 11
2888.859345438673
 21
625.2356211962831
 31
0.0
  0
LINE
  5
7CF6
330
1E
100
AcDbEntity
  8
躯体と製品
  6
Continuous
 62
     7
100
AcDbLine
 10
2890.575075438673
 20
625.2356211962831
 30
0.0
 11
2887.545635438673
 21
622.2061811962831
 31
0.0
  0
LINE
  5
7CFC
330
1E
100
AcDbEntity
  8
躯体と製品
  6
Continuous
 62
     7
100
AcDbLine
 10
2897.049291438676
 20
614.7392671962854
 30
0.0
 11
2887.545635438673
 21
605.2356111962831
 31
0.0
  0
LINE
  5
7CFD
330
1E
100
AcDbEntity
  8
躯体と製品
  6
Continuous
 62
     7
100
AcDbLine
 10
2897.026661438676
 20
609.0824171962855
 30
0.0
 11
2889.099865438664
 21
601.1556211962734
 31
0.0
  0
LINE
  5
7CFE
330
1E
100
AcDbEntity
  8
躯体と製品
  6
Continuous
 62
     7
100
AcDbLine
 10
2897.049291438676
 20
603.4481871962849
 30
0.0
 11
2894.756725438664
 21
601.1556211962734
 31
0.0
  0
LINE
  5
7D01
330
1E
100
AcDbEntity
  8
躯体と製品
  6
Continuous
 62
     7
100
AcDbLine
 10
2887.545635438673
 20
603.854031196284
 30
0.0
 11
2890.244045438684
 21
601.1556211962734
 31
0.0
  0
LINE
  5
7D02
330
1E
100
AcDbEntity
  8
躯体と製品
  6
Continuous
 62
     7
100
AcDbLine
 10
2887.545635438673
 20
609.5335111962835
 30
0.0
 11
2895.923525438684
 21
601.1556211962734
 31
0.0
  0
LINE
  5
7D03
330
1E
100
AcDbEntity
  8
文字-記号
  6
Continuous
 62
     7
100
AcDbLine
 10
2827.202774925136
 20
647.2033449975897
 30
0.0
 11
2741.46060228081
 21
647.2033449975897
 31
0.0
  0
LINE
  5
7D04
330
1E
100
AcDbEntity
  8
文字-記号
  6
Continuous
 62
     7
100
AcDbLine
 10
2889.717205438673
 20
615.9466605230786
 30
0.0
 11
2827.202774925136
 21
647.2033449975897
 31
0.0
  0
LINE
  5
7D05
330
1E
100
AcDbEntity
  8
文字-記号
  6
Continuous
 62
     7
100
AcDbLine
 10
2889.717205438673
 20
615.9466605230786
 30
0.0
 11
2882.889390670922
 21
620.5706088294286
 31
0.0
  0
LINE
  5
7D06
330
1E
100
AcDbEntity
  8
文字-記号
  6
Continuous
 62
     7
100
AcDbLine
 10
2889.717205438673
 20
615.9466605230786
 30
0.0
 11
2881.516687322964
 21
616.8135256085638
 31
0.0
  0
TEXT
  5
82B6
330
1E
100
AcDbEntity
  8
文字-記号
 62
     7
100
AcDbText
 10
2921.961645603023
 20
684.122421406399
 30
0.0
 40
12.0
  1
ステンレス框 Ｈ１００用
100
AcDbText
  0
LWPOLYLINE
  5
82B7
330
1E
100
AcDbEntity
  8
文字-記号
  6
Continuous
 62
     7
100
AcDbPolyline
 90
        3
 70
     0
 43
0.0
 10
2866.045635603024
 20
635.1356203093578
 10
2917.552606510427
 20
680.7769578656781
 10
3084.475585950058
 20
680.7769578656781
  0
LINE
  5
82B8
330
1E
100
AcDbEntity
  8
文字-記号
  6
Continuous
 62
     7
100
AcDbLine
 10
2866.045635438673
 20
635.1356211962734
 30
0.0
 11
2873.247978041986
 21
639.1513668887942
 31
0.0
  0
LINE
  5
82B9
330
1E
100
AcDbEntity
  8
文字-記号
  6
Continuous
 62
     7
100
AcDbLine
 10
2866.045635438673
 20
635.1356211962734
 30
0.0
 11
2870.510880939234
 21
642.0682639147626
 31
0.0
  0
DIMENSION
  5
82ED
330
1E
100
AcDbEntity
  8
0
  6
Continuous
100
AcDbDimension
  2
*D5
 10
2830.811161810566
 20
533.1356211962734
 30
0.0
 11
2823.311161810566
 21
584.1356211962739
 31
0.0
 70
    32
 71
     5
 42
102.0
  3
AutoCAD
100
AcDbAlignedDimension
 13
2844.545635438673
 23
635.1356211962734
 33
0.0
 14
2844.545635438673
 24
533.1356211962734
 34
0.0
 50
90.0
100
AcDbRotatedDimension
  0
LINE
  5
8449
330
1E
100
AcDbEntity
  8
中心線
  6
CENTER1
 62
     7
 48
4.0
370
     9
100
AcDbLine
 10
2937.049291594478
 20
614.5941369796364
 30
0.0
 11
2937.049291594478
 21
522.3643030741056
 31
0.0
  0
LINE
  5
844A
330
1E
100
AcDbEntity
  8
中心線
  6
CENTER1
 62
     7
 48
4.0
370
     9
100
AcDbLine
 10
3387.049291438673
 20
611.0258657563601
 30
0.0
 11
3387.049291438672
 21
522.3643030741056
 31
0.0
  0
DIMENSION
  5
8482
330
1E
100
AcDbEntity
  8
0
  6
Continuous
100
AcDbDimension
  2
*D7
 10
3630.252560342678
 20
533.1356211962734
 30
0.0
 11
3622.752560342677
 21
583.1344032667828
 31
0.0
 70
    32
 71
     5
 42
99.99756414101762
  3
AutoCAD
100
AcDbAlignedDimension
 13
3536.438205308853
 23
633.133185337291
 33
0.0
 14
3536.041172512433
 24
533.1356211962734
 34
0.0
 50
90.0
100
AcDbRotatedDimension
1001
ACAD
1000
DSTYLE
1002
{
1070
    69
1070
     1
1070
   345
1005
14
1070
   346
1005
14
1070
   347
1005
14
1002
}
  0
DIMENSION
  5
8483
330
1E
100
AcDbEntity
  8
0
  6
Continuous
100
AcDbDimension
  2
*D8
 10
3580.360057649566
 20
626.633185337291
 30
0.0
 11
3572.860057649565
 21
629.8831853372916
 31
0.0
 70
    32
  1
6.5
 71
     5
 42
6.5
  3
AutoCAD
100
AcDbAlignedDimension
 13
3536.438205308853
 23
633.133185337291
 33
0.0
 14
3536.438205308853
 24
626.633185337291
 34
0.0
 50
90.0
100
AcDbRotatedDimension
1001
ACAD
1000
DSTYLE
1002
{
1070
    69
1070
     1
1070
   345
1005
14
1070
   346
1005
14
1070
   347
1005
14
1002
}
  0
LINE
  5
8484
330
1E
100
AcDbEntity
  8
0
  6
Continuous
 62
     4
100
AcDbLine
 10
3580.360057649566
 20
633.133185337291
 30
0.0
 11
3580.360057649566
 21
626.633185337291
 31
0.0
  0
DIMENSION
  5
8485
330
1E
100
AcDbEntity
  8
0
  6
Continuous
100
AcDbDimension
  2
*D9
 10
3608.294834782304
 20
601.2331853372915
 30
0.0
 11
3600.794834782305
 21
613.9331853372919
 31
0.0
 70
    32
  1
24.5
 71
     5
 42
25.39999999999952
  3
AutoCAD
100
AcDbAlignedDimension
 13
3536.438205308853
 23
626.633185337291
 33
0.0
 14
3536.041172512433
 24
601.2331853372915
 34
0.0
 50
90.0
100
AcDbRotatedDimension
1001
ACAD
1000
DSTYLE
1002
{
1070
    69
1070
     1
1070
   345
1005
14
1070
   346
1005
14
1070
   347
1005
14
1002
}
  0
LINE
  5
8486
330
1E
100
AcDbEntity
  8
0
  6
Continuous
 62
     4
100
AcDbLine
 10
3608.294834782304
 20
626.633185337291
 30
0.0
 11
3608.294834782304
 21
601.2331853372915
 31
0.0
  0
LWPOLYLINE
  5
84E7
330
1E
100
AcDbEntity
  8
躯体と製品
  6
Continuous
 62
     4
100
AcDbPolyline
 90
        2
 70
     0
 43
0.0
 10
2773.796090073794
 20
533.1356211962734
 10
2743.796090073794
 20
503.1356211962734
  0
LWPOLYLINE
  5
84E8
330
1E
100
AcDbEntity
  8
躯体と製品
  6
Continuous
 62
     4
100
AcDbPolyline
 90
        2
 70
     0
 43
0.0
 10
2783.796090073794
 20
533.1356211962734
 10
2753.796090073794
 20
503.1356211962734
  0
LWPOLYLINE
  5
84E9
330
1E
100
AcDbEntity
  8
躯体と製品
  6
Continuous
 62
     4
100
AcDbPolyline
 90
        2
 70
     0
 43
0.0
 10
2793.796090073794
 20
533.1356211962734
 10
2763.796090073794
 20
503.1356211962734
  0
LINE
  5
84EF
330
1E
100
AcDbEntity
  8
0
  6
Continuous
 62
     4
100
AcDbLine
 10
3608.294834782304
 20
626.633185337291
 30
0.0
 11
3591.711156175191
 21
626.633185337291
 31
0.0
  0
LINE
  5
84F0
330
1E
100
AcDbEntity
  8
0
  6
Continuous
 62
     4
100
AcDbLine
 10
3608.294834782304
 20
601.2331853372915
 30
0.0
 11
3593.244138080065
 21
601.2331853372915
 31
0.0
  0
ENDSEC
  0
SECTION
  2
OBJECTS
  0
DICTIONARY
  5
C
330
0
100
AcDbDictionary
281
     1
  3
ACAD_2007HEADERVARS_RT
350
8651
  3
ACAD_CIP_PREVIOUS_PRODUCT_INFO
350
634E
  3
ACAD_COLOR
350
6306
  3
ACAD_DETAILVIEWSTYLE
350
7530
  3
ACAD_GROUP
350
D
  3
ACAD_LAYOUT
350
19
  3
ACAD_MATERIAL
350
62F1
  3
ACAD_MLEADERSTYLE
350
6347
  3
ACAD_MLINESTYLE
350
16
  3
ACAD_PLOTSETTINGS
350
18
  3
ACAD_PLOTSTYLENAME
350
E
  3
ACAD_SCALELIST
350
6335
  3
ACAD_SECTIONVIEWSTYLE
350
752E
  3
ACAD_TABLESTYLE
350
6307
  3
ACAD_VISUALSTYLE
350
62F5
  3
ACDB_RECOMPOSE_DATA
350
8650
  3
AcDbVariableDictionary
350
169
  3
AcDsDecomposeData
350
865C
  0
DICTIONARY
  5
630F
330
8
100
AcDbDictionary
280
     1
281
     1
  0
DICTIONARY
  5
175
330
2
100
AcDbDictionary
280
     1
281
     1
  3
ACAD_LAYERFILTERS
360
185
  3
ACAD_LAYERSTATES
360
176
  0
DICTIONARY
  5
634F
330
10
100
AcDbDictionary
280
     1
281
     1
  3
ADSK_XREC_LAYER_RECONCILED
360
6350
  0
DICTIONARY
  5
6351
330
178
100
AcDbDictionary
280
     1
281
     1
  3
ADSK_XREC_LAYER_RECONCILED
360
6352
  0
DICTIONARY
  5
6353
330
179
100
AcDbDictionary
280
     1
281
     1
  3
ADSK_XREC_LAYER_RECONCILED
360
6354
  0
DICTIONARY
  5
6355
330
4F62
100
AcDbDictionary
280
     1
281
     1
  3
ADSK_XREC_LAYER_RECONCILED
360
6356
  0
DICTIONARY
  5
63AB
330
63AA
100
AcDbDictionary
280
     1
281
     1
  0
DICTIONARY
  5
28B
330
1E
100
AcDbDictionary
280
     1
281
     1
  3
ACAD_LAYOUTSELFREF
360
62EA
  3
ACAD_SORTENTS
360
7077
  0
DICTIONARY
  5
28D
330
1A
100
AcDbDictionary
280
     1
281
     1
  3
ACAD_LAYOUTSELFREF
360
62E9
  0
DICTIONARY
  5
81EF
330
808A
100
AcDbDictionary
280
     1
281
     1
  3
ACAD_SORTENTS
360
81F0
  0
DICTIONARY
  5
8651
102
{ACAD_REACTORS
330
C
102
}
330
C
100
AcDbDictionary
281
     1
  3
DIMARCSYM
350
8652
  3
DIMLTEX1
350
8655
  3
DIMLTEX2
350
8656
  3
DIMLTYPE
350
8654
  3
DIMTFILL
350
8653
  0
XRECORD
  5
634E
102
{ACAD_REACTORS
330
C
102
}
330
C
100
AcDbXrecord
280
     1
300
ACD
300
2014
300
ACD_F_S
  0
DICTIONARY
  5
6306
102
{ACAD_REACTORS
330
C
102
}
330
C
100
AcDbDictionary
281
     1
  0
DICTIONARY
  5
7530
102
{ACAD_REACTORS
330
C
102
}
330
C
100
AcDbDictionary
281
     1
  3
Imperial24
350
7531
  3
Metric50
350
7807
  0
DICTIONARY
  5
D
102
{ACAD_REACTORS
330
C
102
}
330
C
100
AcDbDictionary
281
     1
  0
DICTIONARY
  5
19
102
{ACAD_REACTORS
330
C
102
}
330
C
100
AcDbDictionary
281
     1
  3
Model
350
21
  3
ﾚｲｱｳﾄ1
350
1D
  0
DICTIONARY
  5
62F1
102
{ACAD_REACTORS
330
C
102
}
330
C
100
AcDbDictionary
281
     1
  3
ByBlock
350
62F3
  3
ByLayer
350
62F2
  3
Global
350
62F4
  0
DICTIONARY
  5
6347
102
{ACAD_REACTORS
330
C
102
}
330
C
100
AcDbDictionary
281
     1
  3
Standard
350
6348
  0
DICTIONARY
  5
16
102
{ACAD_REACTORS
330
C
102
}
330
C
100
AcDbDictionary
281
     1
  3
Standard
350
17
  0
DICTIONARY
  5
18
102
{ACAD_REACTORS
330
C
102
}
330
C
100
AcDbDictionary
281
     1
  0
ACDBDICTIONARYWDFLT
  5
E
102
{ACAD_REACTORS
330
C
102
}
330
C
100
AcDbDictionary
281
     1
  3
Normal
350
F
100
AcDbDictionaryWithDefault
340
F
  0
DICTIONARY
  5
6335
102
{ACAD_REACTORS
330
C
102
}
330
C
100
AcDbDictionary
281
     1
  3
A0
350
6336
  3
A1
350
6337
  3
A2
350
6338
  3
A3
350
6339
  3
A4
350
633A
  3
A5
350
633B
  3
A6
350
633C
  3
A7
350
633D
  3
A8
350
633E
  3
A9
350
633F
  3
B0
350
6340
  3
B1
350
6341
  3
B2
350
6342
  3
B3
350
6343
  3
B4
350
6344
  3
B5
350
6345
  3
B6
350
6346
  0
DICTIONARY
  5
752E
102
{ACAD_REACTORS
330
C
102
}
330
C
100
AcDbDictionary
281
     1
  3
Imperial24
350
752F
  3
Metric50
350
7806
  0
DICTIONARY
  5
6307
102
{ACAD_REACTORS
330
C
102
}
330
C
100
AcDbDictionary
281
     1
  3
Standard
350
6308
  0
DICTIONARY
  5
62F5
102
{ACAD_REACTORS
330
C
102
}
330
C
100
AcDbDictionary
281
     1
  3
2dWireframe
350
62FB
  3
3D Hidden
350
62FD
  3
3dWireframe
350
62FC
  3
Basic
350
62FA
  3
Brighten
350
6301
  3
ColorChange
350
6305
  3
Conceptual
350
62FE
  3
Dim
350
6300
  3
EdgeColorOff
350
6334
  3
Facepattern
350
6304
  3
Flat
350
62F6
  3
FlatWithEdges
350
62F7
  3
Gouraud
350
62F8
  3
GouraudWithEdges
350
62F9
  3
Hidden
350
632C
  3
JitterOff
350
6332
  3
Linepattern
350
6303
  3
OverhangOff
350
6333
  3
Realistic
350
62FF
  3
Shaded
350
6331
  3
Shaded with edges
350
6330
  3
Shades of Gray
350
632D
  3
Sketchy
350
632E
  3
Thicken
350
6302
  3
Wireframe
350
632B
  3
X-Ray
350
632F
  0
XRECORD
  5
8650
102
{ACAD_REACTORS
330
C
102
}
330
C
100
AcDbXrecord
280
     1
 90
        1
330
6308
  0
DICTIONARY
  5
169
102
{ACAD_REACTORS
330
C
102
}
330
C
100
AcDbDictionary
281
     1
  3
CANNOSCALE
350
636D
  3
CMLEADERSTYLE
350
636B
  3
CTABLESTYLE
350
6327
  3
CVIEWDETAILSTYLE
350
757D
  3
CVIEWSECTIONSTYLE
350
757E
  3
DIMASSOC
350
16A
  3
INDEXCTL
350
6329
  3
LAYEREVAL
350
636F
  3
LAYERNOTIFY
350
6370
  3
LIGHTINGUNITS
350
636E
  3
MSLTSCALE
350
636C
  3
SORTENTS
350
6328
  3
XCLIPFRAME
350
85ED
  0
DICTIONARY
  5
865C
102
{ACAD_REACTORS
330
C
102
}
330
C
100
AcDbDictionary
281
     1
  3
AcDsRecords
350
865E
  3
AcDsSchemas
350
865D
1001
ACAD
1070
     2
  0
DICTIONARY
  5
185
102
{ACAD_REACTORS
330
175
102
}
330
175
100
AcDbDictionary
280
     1
281
     1
  0
DICTIONARY
  5
176
102
{ACAD_REACTORS
330
175
102
}
330
175
100
AcDbDictionary
281
     1
  3
ACAD
350
177
  0
XRECORD
  5
6350
102
{ACAD_REACTORS
330
634F
102
}
330
634F
100
AcDbXrecord
280
     1
290
     1
  0
XRECORD
  5
6352
102
{ACAD_REACTORS
330
6351
102
}
330
6351
100
AcDbXrecord
280
     1
290
     1
  0
XRECORD
  5
6354
102
{ACAD_REACTORS
330
6353
102
}
330
6353
100
AcDbXrecord
280
     1
290
     1
  0
XRECORD
  5
6356
102
{ACAD_REACTORS
330
6355
102
}
330
6355
100
AcDbXrecord
280
     1
290
     1
  0
XRECORD
  5
62EA
102
{ACAD_REACTORS
330
28B
102
}
330
28B
100
AcDbXrecord
280
     1
340
1E
  0
SORTENTSTABLE
  5
7077
102
{ACAD_REACTORS
330
28B
102
}
330
28B
100
AcDbSortentsTable
330
1E
331
76D9
  5
76D9
331
7718
  5
7718
331
7C2C
  5
7C2C
331
7BE5
  5
7BE5
331
7BAE
  5
7BAE
331
7B6F
  5
7B6F
331
7720
  5
7720
331
7BED
  5
7BED
331
7B77
  5
7B77
331
7BB6
  5
7BB6
331
7CF3
  5
7CF3
331
7C54
  5
7C54
331
7BF5
  5
7BF5
331
7BBE
  5
7BBE
331
7B7F
  5
7B7F
331
76F1
  5
76F1
331
7BFD
  5
7BFD
331
7BC6
  5
7BC6
331
7B87
  5
7B87
331
76F9
  5
76F9
331
7BCE
  5
7BCE
331
7C05
  5
7C05
331
7B58
  5
7B58
331
7B8F
  5
7B8F
331
7701
  5
7701
331
7CD4
  5
7CD4
331
7BD6
  5
7BD6
331
7B60
  5
7B60
331
7B97
  5
7B97
331
7C0D
  5
7C0D
331
7709
  5
7709
331
7CDC
  5
7CDC
331
7BDE
  5
7BDE
331
7C15
  5
7C15
331
7B9F
  5
7B9F
331
7711
  5
7711
331
7BA7
  5
7BA7
331
7B68
  5
7B68
331
76DA
  5
76DA
331
7719
  5
7719
331
7B70
  5
7B70
331
7721
  5
7721
331
76E2
  5
76E2
331
7CEC
  5
7CEC
331
7BEE
  5
7BEE
331
7BB7
  5
7BB7
331
7B78
  5
7B78
331
7CF4
  5
7CF4
331
7C55
  5
7C55
331
7BF6
  5
7BF6
331
7BBF
  5
7BBF
331
7B80
  5
7B80
331
76F2
  5
76F2
331
7CFC
  5
7CFC
331
7BFE
  5
7BFE
331
7BC7
  5
7BC7
331
7B88
  5
7B88
331
76FA
  5
76FA
331
7CCD
  5
7CCD
331
7BCF
  5
7BCF
331
7B59
  5
7B59
331
7B90
  5
7B90
331
7C06
  5
7C06
331
76CB
  5
76CB
331
7702
  5
7702
331
7CD5
  5
7CD5
331
7BD7
  5
7BD7
331
7B61
  5
7B61
331
7B98
  5
7B98
331
7C0E
  5
7C0E
331
770A
  5
770A
331
7CDD
  5
7CDD
331
7C16
  5
7C16
331
7BA0
  5
7BA0
331
7712
  5
7712
331
7BA8
  5
7BA8
331
7B69
  5
7B69
331
771A
  5
771A
331
7B71
  5
7B71
331
7BB0
  5
7BB0
331
7722
  5
7722
331
7CED
  5
7CED
331
7C4E
  5
7C4E
331
7BEF
  5
7BEF
331
7BB8
  5
7BB8
331
7B79
  5
7B79
331
776A
  5
776A
331
7CF5
  5
7CF5
331
7C56
  5
7C56
331
7BF7
  5
7BF7
331
7BC0
  5
7BC0
331
7B81
  5
7B81
331
76F3
  5
76F3
331
7CB6
  5
7CB6
331
7BFF
  5
7BFF
331
7CFD
  5
7CFD
331
7BC8
  5
7BC8
331
7B89
  5
7B89
331
76FB
  5
76FB
331
7CCE
  5
7CCE
331
7BD0
  5
7BD0
331
7B5A
  5
7B5A
331
7B91
  5
7B91
331
7C07
  5
7C07
331
76CC
  5
76CC
331
7703
  5
7703
331
7CD6
  5
7CD6
331
7BD8
  5
7BD8
331
7C0F
  5
7C0F
331
7B62
  5
7B62
331
7B99
  5
7B99
331
76D4
  5
76D4
331
770B
  5
770B
331
7CDE
  5
7CDE
331
7C17
  5
7C17
331
7BA1
  5
7BA1
331
7BA9
  5
7BA9
331
7B6A
  5
7B6A
331
771B
  5
771B
331
7BE8
  5
7BE8
331
7B72
  5
7B72
331
7BB1
  5
7BB1
331
7CEE
  5
7CEE
331
7C4F
  5
7C4F
331
7BB9
  5
7BB9
331
7B7A
  5
7B7A
331
7BF0
  5
7BF0
331
7CF6
  5
7CF6
331
7C57
  5
7C57
331
7BC1
  5
7BC1
331
7B82
  5
7B82
331
7BF8
  5
7BF8
331
76F4
  5
76F4
331
7CFE
  5
7CFE
331
7BC9
  5
7BC9
331
76FC
  5
76FC
331
7B8A
  5
7B8A
331
7C00
  5
7C00
331
7CCF
  5
7CCF
331
7BD1
  5
7BD1
331
76CD
  5
76CD
331
7704
  5
7704
331
7B5B
  5
7B5B
331
7B92
  5
7B92
331
7C08
  5
7C08
331
7CD7
  5
7CD7
331
7BD9
  5
7BD9
331
7B63
  5
7B63
331
7B9A
  5
7B9A
331
7C10
  5
7C10
331
76D5
  5
76D5
331
770C
  5
770C
331
7CDF
  5
7CDF
331
7BA2
  5
7BA2
331
7C18
  5
7C18
331
7714
  5
7714
331
7BAA
  5
7BAA
331
7B6B
  5
7B6B
331
771C
  5
771C
331
7B73
  5
7B73
331
7BB2
  5
7BB2
331
7BE9
  5
7BE9
331
7CEF
  5
7CEF
331
7C50
  5
7C50
331
7BBA
  5
7BBA
331
7B7B
  5
7B7B
331
7BF1
  5
7BF1
331
76ED
  5
76ED
331
7BC2
  5
7BC2
331
7B83
  5
7B83
331
7BF9
  5
7BF9
331
76F5
  5
76F5
331
7BCA
  5
7BCA
331
7B8B
  5
7B8B
331
7C01
  5
7C01
331
76FD
  5
76FD
331
76C6
  5
76C6
331
7CD0
  5
7CD0
331
7BD2
  5
7BD2
331
7B5C
  5
7B5C
331
7B93
  5
7B93
331
7C09
  5
7C09
331
7705
  5
7705
331
7CD8
  5
7CD8
331
7BDA
  5
7BDA
331
7B64
  5
7B64
331
7B9B
  5
7B9B
331
7C11
  5
7C11
331
770D
  5
770D
331
7BA3
  5
7BA3
331
7C19
  5
7C19
331
7715
  5
7715
331
7BAB
  5
7BAB
331
7B6C
  5
7B6C
331
7CE0
  5
7CE0
331
771D
  5
771D
331
7B74
  5
7B74
331
7BB3
  5
7BB3
331
7BEA
  5
7BEA
331
7C51
  5
7C51
331
7BBB
  5
7BBB
331
7B7C
  5
7B7C
331
7BF2
  5
7BF2
331
7CF0
  5
7CF0
331
76EE
  5
76EE
331
7BC3
  5
7BC3
331
7B84
  5
7B84
331
7BFA
  5
7BFA
331
76F6
  5
76F6
331
7BCB
  5
7BCB
331
7B8C
  5
7B8C
331
7C02
  5
7C02
331
76FE
  5
76FE
331
76C7
  5
76C7
331
7CD1
  5
7CD1
331
7BD3
  5
7BD3
331
7B5D
  5
7B5D
331
7B94
  5
7B94
331
7C0A
  5
7C0A
331
7706
  5
7706
331
7CD9
  5
7CD9
331
7BDB
  5
7BDB
331
7B65
  5
7B65
331
7B9C
  5
7B9C
331
7C12
  5
7C12
331
76D7
  5
76D7
331
770E
  5
770E
331
7BA4
  5
7BA4
331
7C1A
  5
7C1A
331
7716
  5
7716
331
7BAC
  5
7BAC
331
7B6D
  5
7B6D
331
771E
  5
771E
331
7B75
  5
7B75
331
7BB4
  5
7BB4
331
7BEB
  5
7BEB
331
7CF1
  5
7CF1
331
7C52
  5
7C52
331
7BBC
  5
7BBC
331
7B7D
  5
7B7D
331
7BF3
  5
7BF3
331
76EF
  5
76EF
331
7BC4
  5
7BC4
331
7B85
  5
7B85
331
7BFB
  5
7BFB
331
76F7
  5
76F7
331
76C0
  5
76C0
331
7D01
  5
7D02
331
7BCC
  5
7BCC
331
7B8D
  5
7B8D
331
7C03
  5
7C03
331
7CD2
  5
7CD2
331
7BD4
  5
7BD4
331
7B5E
  5
7B5E
331
7B95
  5
7B95
331
7C0B
  5
7C0B
331
7707
  5
7707
331
7CDA
  5
7CDA
331
7BDC
  5
7BDC
331
7B66
  5
7B66
331
7B9D
  5
7B9D
331
7C13
  5
7C13
331
770F
  5
770F
331
7BA5
  5
7BA5
331
7C1B
  5
7C1B
331
7717
  5
7717
331
76D8
  5
76D8
331
7BAD
  5
7BAD
331
7B6E
  5
7B6E
331
7C2B
  5
7C2B
331
76E0
  5
76E0
331
771F
  5
771F
331
7B76
  5
7B76
331
7BB5
  5
7BB5
331
7BEC
  5
7BEC
331
7CF2
  5
7CF2
331
7C53
  5
7C53
331
7BBD
  5
7BBD
331
7B7E
  5
7B7E
331
7BF4
  5
7BF4
331
76F0
  5
76F0
331
7BC5
  5
7BC5
331
7B86
  5
7B86
331
7BFC
  5
7BFC
331
76F8
  5
76F8
331
7D02
  5
7D00
331
7BCD
  5
7BCD
331
7B8E
  5
7B8E
331
7C04
  5
7C04
331
7700
  5
7700
331
7CD3
  5
7CD3
331
7BD5
  5
7BD5
331
7B5F
  5
7B5F
331
7B96
  5
7B96
331
7C0C
  5
7C0C
331
7708
  5
7708
331
7CDB
  5
7CDB
331
7BDD
  5
7BDD
331
7C14
  5
7C14
331
7B67
  5
7B67
331
7B9E
  5
7B9E
331
7C1C
  5
7C1C
331
7BA6
  5
7BA6
  0
XRECORD
  5
62E9
102
{ACAD_REACTORS
330
28D
102
}
330
28D
100
AcDbXrecord
280
     1
340
1A
  0
SORTENTSTABLE
  5
81F0
102
{ACAD_REACTORS
330
81EF
102
}
330
81EF
100
AcDbSortentsTable
330
808A
  0
XRECORD
  5
8652
102
{ACAD_REACTORS
330
8651
102
}
330
8651
100
AcDbXrecord
280
     1
 70
     2
  0
XRECORD
  5
8655
102
{ACAD_REACTORS
330
8651
102
}
330
8651
100
AcDbXrecord
280
     1
340
14
  0
XRECORD
  5
8656
102
{ACAD_REACTORS
330
8651
102
}
330
8651
100
AcDbXrecord
280
     1
340
14
  0
XRECORD
  5
8654
102
{ACAD_REACTORS
330
8651
102
}
330
8651
100
AcDbXrecord
280
     1
340
14
  0
XRECORD
  5
8653
102
{ACAD_REACTORS
330
8651
102
}
330
8651
100
AcDbXrecord
280
     1
 70
     1
  0
ACDBDETAILVIEWSTYLE
  5
7531
102
{ACAD_XDICTIONARY
360
85DE
102
}
102
{ACAD_REACTORS
330
7530
102
}
330
7530
100
AcDbModelDocViewStyle
 70
     0
  3
Imperial24
290
     0
100
AcDbDetailViewStyle
 70
     0
 71
     0
 90
        3
 71
     1
340
11
 62
   256
 40
0.24
340
0
 62
   256
 40
0.24
300

 40
0.36
280
     3
 71
     2
340
15
 90
       25
 62
   256
 71
     3
340
11
 62
   256
 40
0.24
 90
        1
 40
0.75
 90
        1
300
%<\AcVar ViewType \f "%tc1">% %<\AcVar ViewDetailId>%\PSCALE %<\AcVar ViewScale \f "%sn">%
 71
     4
340
15
 90
       25
 62
   256
340
15
 90
       25
 62
   256
280
     0
  0
ACDBDETAILVIEWSTYLE
  5
7807
102
{ACAD_XDICTIONARY
360
85E2
102
}
102
{ACAD_REACTORS
330
7530
102
}
330
7530
100
AcDbModelDocViewStyle
 70
     0
  3
Metric50
290
     0
100
AcDbDetailViewStyle
 70
     0
 71
     0
 90
        3
 71
     1
340
11
 62
   256
 40
5.0
340
0
 62
   256
 40
5.0
300

 40
0.0
280
     1
 71
     2
340
15
 90
       25
 62
   256
 71
     3
340
11
 62
   256
 40
5.0
 90
        0
 40
15.0
 90
        1
300
%<\AcVar ViewDetailId>% (%<\AcVar ViewScale \f "%sn">%)
 71
     4
340
15
 90
       25
 62
   256
340
15
 90
       25
 62
   256
280
     0
  0
LAYOUT
  5
21
102
{ACAD_XDICTIONARY
360
6367
102
}
102
{ACAD_REACTORS
330
19
102
}
330
19
100
AcDbPlotSettings
  1

  2
none_device
  4
Letter_(8.50_x_11.00_Inches)
  6

 40
6.349999904632568
 41
6.349999904632568
 42
6.350006103515625
 43
6.350006103515625
 44
215.8999938964844
 45
279.3999938964844
 46
0.0
 47
0.0
 48
0.0
 49
0.0
140
0.0
141
0.0
142
1.0
143
25.58579379679323
 70
 11952
 72
     0
 73
     1
 74
     0
  7
monochrome.ctb
 75
     0
147
0.0390841889816737
 76
     0
 77
     2
 78
   300
148
-68429.01037911861
149
-14390.09065462964
100
AcDbLayout
  1
Model
 70
     1
 71
     0
 10
0.0
 20
0.0
 11
12.0
 21
9.0
 12
0.0
 22
0.0
 32
0.0
 14
0.0
 24
0.0
 34
0.0
 15
0.0
 25
0.0
 35
0.0
146
0.0
 13
0.0
 23
0.0
 33
0.0
 16
1.0
 26
0.0
 36
0.0
 17
0.0
 27
1.0
 37
0.0
 76
     0
330
1E
331
62A5
1001
ACAD_PSEXT
1000
なし
1000
なし
1000
適切ではありません
1000
新しいプロッタ環境設定名を選択しない限り、レイアウトは印刷されません。
1070
     0
  0
LAYOUT
  5
1D
102
{ACAD_REACTORS
330
19
102
}
330
19
100
AcDbPlotSettings
  1

  2
\\MEISEI-1\EPSON Stylus Photo EX3
  4

  6

 40
0.0
 41
0.0
 42
0.0
 43
0.0
 44
0.0
 45
0.0
 46
0.0
 47
0.0
 48
0.0
 49
0.0
140
0.0
141
0.0
142
1.0
143
1.0
 70
   688
 72
     0
 73
     0
 74
     5
  7
monochrome.ctb
 75
    16
147
1.0
 76
     0
 77
     2
 78
   300
148
0.0
149
0.0
100
AcDbLayout
  1
ﾚｲｱｳﾄ1
 70
     1
 71
     1
 10
0.0
 20
0.0
 11
12.0
 21
9.0
 12
0.0
 22
0.0
 32
0.0
 14
1.000000000000000E+20
 24
1.000000000000000E+20
 34
1.000000000000000E+20
 15
-1.000000000000000E+20
 25
-1.000000000000000E+20
 35
-1.000000000000000E+20
146
0.0
 13
0.0
 23
0.0
 33
0.0
 16
1.0
 26
0.0
 36
0.0
 17
0.0
 27
1.0
 37
0.0
 76
     0
330
1A
  0
MATERIAL
  5
62F3
102
{ACAD_XDICTIONARY
360
8661
102
}
102
{ACAD_REACTORS
330
62F1
102
}
330
62F1
100
AcDbMaterial
  1
ByBlock
 73
     1
 78
     1
172
     1
176
     1
270
     1
274
     1
  0
MATERIAL
  5
62F2
102
{ACAD_XDICTIONARY
360
865F
102
}
102
{ACAD_REACTORS
330
62F1
102
}
330
62F1
100
AcDbMaterial
  1
ByLayer
 73
     1
 78
     1
172
     1
176
     1
270
     1
274
     1
  0
MATERIAL
  5
62F4
102
{ACAD_XDICTIONARY
360
8663
102
}
102
{ACAD_REACTORS
330
62F1
102
}
330
62F1
100
AcDbMaterial
  1
Global
 73
     1
 78
     1
172
     1
176
     1
270
     1
274
     1
  0
MLEADERSTYLE
  5
6348
102
{ACAD_XDICTIONARY
360
869A
102
}
102
{ACAD_REACTORS
330
6347
102
}
330
6347
100
AcDbMLeaderStyle
170
     2
171
     1
172
     0
 90
        2
 40
0.0
 41
0.0
173
     1
 91
-1056964608
340
13
 92
       -2
290
     1
 42
0.09
291
     1
 43
0.36
  3
Standard
 44
0.18
300

342
11
174
     1
178
     6
175
     1
176
     0
 93
-1056964608
 45
0.18
292
     0
297
     0
 46
0.18
 94
-1056964608
 47
1.0
 49
1.0
140
1.0
293
     1
141
0.0
294
     1
177
     0
142
1.0
295
     0
296
     0
143
0.125
1001
ACAD_MLEADERVER
1070
     2
  0
MLINESTYLE
  5
17
102
{ACAD_REACTORS
330
16
102
}
330
16
100
AcDbMlineStyle
  2
STANDARD
 70
     0
  3

 62
   256
 51
90.0
 52
90.0
 71
     2
 49
0.5
 62
   256
  6
BYLAYER
 49
-0.5
 62
   256
  6
BYLAYER
  0
ACDBPLACEHOLDER
  5
F
102
{ACAD_REACTORS
330
E
102
}
330
E
  0
SCALE
  5
6336
102
{ACAD_REACTORS
330
6335
102
}
330
6335
100
AcDbScale
 70
     0
300
1:1
140
1.0
141
1.0
290
     1
  0
SCALE
  5
6337
102
{ACAD_REACTORS
330
6335
102
}
330
6335
100
AcDbScale
 70
     0
300
1/128" = 1'-0"
140
0.0078125
141
12.0
290
     0
  0
SCALE
  5
6338
102
{ACAD_REACTORS
330
6335
102
}
330
6335
100
AcDbScale
 70
     0
300
1/64" = 1'-0"
140
0.015625
141
12.0
290
     0
  0
SCALE
  5
6339
102
{ACAD_REACTORS
330
6335
102
}
330
6335
100
AcDbScale
 70
     0
300
1/32" = 1'-0"
140
0.03125
141
12.0
290
     0
  0
SCALE
  5
633A
102
{ACAD_REACTORS
330
6335
102
}
330
6335
100
AcDbScale
 70
     0
300
1/16" = 1'-0"
140
0.0625
141
12.0
290
     0
  0
SCALE
  5
633B
102
{ACAD_REACTORS
330
6335
102
}
330
6335
100
AcDbScale
 70
     0
300
3/32" = 1'-0"
140
0.09375
141
12.0
290
     0
  0
SCALE
  5
633C
102
{ACAD_REACTORS
330
6335
102
}
330
6335
100
AcDbScale
 70
     0
300
1/8" = 1'-0"
140
0.125
141
12.0
290
     0
  0
SCALE
  5
633D
102
{ACAD_REACTORS
330
6335
102
}
330
6335
100
AcDbScale
 70
     0
300
3/16" = 1'-0"
140
0.1875
141
12.0
290
     0
  0
SCALE
  5
633E
102
{ACAD_REACTORS
330
6335
102
}
330
6335
100
AcDbScale
 70
     0
300
1/4" = 1'-0"
140
0.25
141
12.0
290
     0
  0
SCALE
  5
633F
102
{ACAD_REACTORS
330
6335
102
}
330
6335
100
AcDbScale
 70
     0
300
3/8" = 1'-0"
140
0.375
141
12.0
290
     0
  0
SCALE
  5
6340
102
{ACAD_REACTORS
330
6335
102
}
330
6335
100
AcDbScale
 70
     0
300
1/2" = 1'-0"
140
0.5
141
12.0
290
     0
  0
SCALE
  5
6341
102
{ACAD_REACTORS
330
6335
102
}
330
6335
100
AcDbScale
 70
     0
300
3/4" = 1'-0"
140
0.75
141
12.0
290
     0
  0
SCALE
  5
6342
102
{ACAD_REACTORS
330
6335
102
}
330
6335
100
AcDbScale
 70
     0
300
1" = 1'-0"
140
1.0
141
12.0
290
     0
  0
SCALE
  5
6343
102
{ACAD_REACTORS
330
6335
102
}
330
6335
100
AcDbScale
 70
     0
300
1-1/2" = 1'-0"
140
1.5
141
12.0
290
     0
  0
SCALE
  5
6344
102
{ACAD_REACTORS
330
6335
102
}
330
6335
100
AcDbScale
 70
     0
300
3" = 1'-0"
140
3.0
141
12.0
290
     0
  0
SCALE
  5
6345
102
{ACAD_REACTORS
330
6335
102
}
330
6335
100
AcDbScale
 70
     0
300
6" = 1'-0"
140
6.0
141
12.0
290
     0
  0
SCALE
  5
6346
102
{ACAD_REACTORS
330
6335
102
}
330
6335
100
AcDbScale
 70
     0
300
1'-0" = 1'-0"
140
12.0
141
12.0
290
     0
  0
ACDBSECTIONVIEWSTYLE
  5
752F
102
{ACAD_XDICTIONARY
360
85DC
102
}
102
{ACAD_REACTORS
330
752E
102
}
330
752E
100
AcDbModelDocViewStyle
 70
     0
  3
Imperial24
290
     0
100
AcDbSectionViewStyle
 70
     0
 71
     0
 90
       78
 71
     1
340
11
 62
   256
 40
0.24
340
0
340
0
 62
   256
 40
0.24
300
I, O, Q, S, X, Z
 40
0.48
 90
        3
 40
0.18
 90
        1
 71
     2
340
15
 90
       25
 62
   256
340
15
 90
       50
 62
   256
 40
0.24
 40
0.0
 40
0.24
 71
     3
340
11
 62
   256
 40
0.24
 90
        1
 40
0.75
 90
        1
300
%<\AcVar ViewType \f "%tc1">% %<\AcVar ViewSectionStartId>%-%<\AcVar ViewSectionEndId>%\PSCALE %<\AcVar ViewScale \f "%sn">%
 71
     4
 62
   256
 62
   257
300
ANSI31
 40
1.0
 90
        0
290
     0
290
     0
 90
        6
 40
0.0
 40
1.570796326794896
 40
0.2617993877991494
 40
1.308996938995747
 40
-0.2617993877991494
 40
1.832595714594046
  0
ACDBSECTIONVIEWSTYLE
  5
7806
102
{ACAD_XDICTIONARY
360
85E0
102
}
102
{ACAD_REACTORS
330
752E
102
}
330
752E
100
AcDbModelDocViewStyle
 70
     0
  3
Metric50
290
     0
100
AcDbSectionViewStyle
 70
     0
 71
     0
 90
      102
 71
     1
340
11
 62
   256
 40
5.0
340
0
340
0
 62
   256
 40
5.0
300
I, O, Q, S, X, Z
 40
10.0
 90
        0
 40
2.5
 90
        0
 71
     2
340
15
 90
       25
 62
   256
340
15
 90
       50
 62
   256
 40
5.0
 40
2.5
 40
5.0
 71
     3
340
11
 62
   256
 40
5.0
 90
        0
 40
15.0
 90
        1
300
%<\AcVar ViewSectionStartId>%-%<\AcVar ViewSectionEndId>% (%<\AcVar ViewScale \f "%sn">%)
 71
     4
 62
   256
 62
   257
300
ANSI31
 40
1.0
 90
        0
290
     0
290
     0
 90
        6
 40
0.0
 40
1.570796326794896
 40
0.2617993877991494
 40
1.308996938995747
 40
-0.2617993877991494
 40
1.832595714594046
  0
TABLESTYLE
  5
6308
102
{ACAD_XDICTIONARY
360
73EB
102
}
102
{ACAD_REACTORS
330
6307
102
}
330
6307
100
AcDbTableStyle
  3
Standard
 70
     0
 71
     0
 40
0.06
 41
0.06
280
     0
281
     0
  7
STANDARD
140
0.18
170
     2
 62
     0
 63
     7
283
     0
274
    -2
284
     1
 64
     0
275
    -2
285
     1
 65
     0
276
    -2
286
     1
 66
     0
277
    -2
287
     1
 67
     0
278
    -2
288
     1
 68
     0
279
    -2
289
     1
 69
     0
  7
STANDARD
140
0.25
170
     5
 62
     0
 63
     7
283
     0
274
    -2
284
     1
 64
     0
275
    -2
285
     1
 65
     0
276
    -2
286
     1
 66
     0
277
    -2
287
     1
 67
     0
278
    -2
288
     1
 68
     0
279
    -2
289
     1
 69
     0
  7
STANDARD
140
0.18
170
     5
 62
     0
 63
     7
283
     0
274
    -2
284
     1
 64
     0
275
    -2
285
     1
 65
     0
276
    -2
286
     1
 66
     0
277
    -2
287
     1
 67
     0
278
    -2
288
     1
 68
     0
279
    -2
289
     1
 69
     0
  0
VISUALSTYLE
  5
62FB
102
{ACAD_XDICTIONARY
360
866F
102
}
102
{ACAD_REACTORS
330
62F5
102
}
330
62F5
100
AcDbVisualStyle
  2
2dWireframe
 70
     4
 71
     0
 72
     2
 73
     0
 90
        0
 40
-0.6
 41
-30.0
 62
     5
 63
     7
 74
     1
 91
        4
 64
     7
 65
   257
 75
     1
175
     1
 42
1.0
 92
        0
 66
   257
 43
1.0
 76
     1
 77
     6
 78
     2
 67
     7
 79
     5
170
     0
171
     0
290
     0
174
     0
 93
        1
 44
0.0
173
     0
291
     0
 45
0.0
1001
ACAD
1000
AcDbSavedByObjectVersion
1070
     0
  0
VISUALSTYLE
  5
62FD
102
{ACAD_XDICTIONARY
360
8673
102
}
102
{ACAD_REACTORS
330
62F5
102
}
330
62F5
100
AcDbVisualStyle
  2
3D Hidden
 70
     6
 71
     1
 72
     2
 73
     2
 90
        0
 40
-0.6
 41
-30.0
 62
     5
 63
     7
 74
     2
 91
        2
 64
     7
 65
   257
 75
     2
175
     1
 42
40.0
 92
        0
 66
   257
 43
1.0
 76
     1
 77
     6
 78
     2
 67
     7
 79
     3
170
     0
171
     0
290
     0
174
     0
 93
        1
 44
0.0
173
     0
291
     0
 45
0.0
1001
ACAD
1000
AcDbSavedByObjectVersion
1070
     0
  0
VISUALSTYLE
  5
62FC
102
{ACAD_XDICTIONARY
360
8671
102
}
102
{ACAD_REACTORS
330
62F5
102
}
330
62F5
100
AcDbVisualStyle
  2
3dWireframe
 70
     5
 71
     0
 72
     2
 73
     0
 90
        0
 40
-0.6
 41
-30.0
 62
     5
 63
     7
 74
     1
 91
        4
 64
     7
 65
   257
 75
     1
175
     1
 42
1.0
 92
        0
 66
   257
 43
1.0
 76
     1
 77
     6
 78
     2
 67
     7
 79
     5
170
     0
171
     0
290
     0
174
     0
 93
        1
 44
0.0
173
     0
291
     0
 45
0.0
1001
ACAD
1000
AcDbSavedByObjectVersion
1070
     0
  0
VISUALSTYLE
  5
62FA
102
{ACAD_XDICTIONARY
360
866D
102
}
102
{ACAD_REACTORS
330
62F5
102
}
330
62F5
100
AcDbVisualStyle
  2
Basic
 70
     7
 71
     1
 72
     0
 73
     1
 90
        0
 40
-0.6
 41
-30.0
 62
     5
 63
     7
 74
     0
 91
        4
 64
     7
 65
   257
 75
     1
175
     1
 42
1.0
 92
        8
 66
     7
 43
1.0
 76
     1
 77
     6
 78
     2
 67
     7
 79
     5
170
     0
171
     0
290
     0
174
     0
 93
        1
 44
0.0
173
     0
291
     1
 45
0.0
1001
ACAD
1000
AcDbSavedByObjectVersion
1070
     0
  0
VISUALSTYLE
  5
6301
102
{ACAD_XDICTIONARY
360
867B
102
}
102
{ACAD_REACTORS
330
62F5
102
}
330
62F5
100
AcDbVisualStyle
  2
Brighten
 70
    12
 71
     2
 72
     2
 73
     0
 90
        0
 40
-0.6
 41
-30.0
 62
     5
 63
     7
 74
     1
 91
        4
 64
     7
 65
   257
 75
     1
175
     1
 42
1.0
 92
        8
 66
     7
 43
1.0
 76
     1
 77
     6
 78
     2
 67
     7
 79
     5
170
     0
171
     0
290
     0
174
     0
 93
        1
 44
50.0
173
     0
291
     1
 45
0.0
1001
ACAD
1000
AcDbSavedByObjectVersion
1070
     0
  0
VISUALSTYLE
  5
6305
102
{ACAD_XDICTIONARY
360
8683
102
}
102
{ACAD_REACTORS
330
62F5
102
}
330
62F5
100
AcDbVisualStyle
  2
ColorChange
 70
    16
 71
     2
 72
     2
 73
     3
 90
        0
 40
-0.6
 41
-30.0
 62
     5
 63
     8
 74
     1
 91
        4
 64
     7
 65
   257
 75
     1
175
     1
 42
1.0
 92
        8
 66
     8
 43
1.0
 76
     1
 77
     6
 78
     2
 67
     7
 79
     5
170
     0
171
     0
290
     0
174
     0
 93
        1
 44
0.0
173
     0
291
     1
 45
0.0
1001
ACAD
1000
AcDbSavedByObjectVersion
1070
     0
  0
VISUALSTYLE
  5
62FE
102
{ACAD_XDICTIONARY
360
8675
102
}
102
{ACAD_REACTORS
330
62F5
102
}
330
62F5
100
AcDbVisualStyle
  2
Conceptual
 70
     9
 71
     3
 72
     2
 73
     0
 90
        0
 40
-0.6
 41
-30.0
 62
     5
 63
     7
 74
     2
 91
        2
 64
     7
 65
   257
 75
     1
175
     1
 42
40.0
 92
        8
 66
     7
 43
1.0
 76
     1
 77
     6
 78
     2
 67
     7
 79
     3
170
     0
171
     0
290
     0
174
     0
 93
        1
 44
0.0
173
     0
291
     0
 45
0.0
1001
ACAD
1000
AcDbSavedByObjectVersion
1070
     0
  0
VISUALSTYLE
  5
6300
102
{ACAD_XDICTIONARY
360
8679
102
}
102
{ACAD_REACTORS
330
62F5
102
}
330
62F5
100
AcDbVisualStyle
  2
Dim
 70
    11
 71
     2
 72
     2
 73
     0
 90
        0
 40
-0.6
 41
-30.0
 62
     5
 63
     7
 74
     1
 91
        4
 64
     7
 65
   257
 75
     1
175
     1
 42
1.0
 92
        8
 66
     7
 43
1.0
 76
     1
 77
     6
 78
     2
 67
     7
 79
     5
170
     0
171
     0
290
     0
174
     0
 93
        1
 44
-50.0
173
     0
291
     1
 45
0.0
1001
ACAD
1000
AcDbSavedByObjectVersion
1070
     0
  0
VISUALSTYLE
  5
6334
102
{ACAD_XDICTIONARY
360
8698
102
}
102
{ACAD_REACTORS
330
62F5
102
}
330
62F5
100
AcDbVisualStyle
  2
EdgeColorOff
 70
    22
 71
     2
 72
     2
 73
     0
 90
        0
 40
-0.6
 41
-30.0
 62
     5
 63
     7
421
 16777215
 74
     1
 91
        4
 64
     7
 65
   257
 75
     1
175
     1
 42
1.0
 92
        8
 66
     7
 43
1.0
 76
     1
 77
     6
 78
     2
 67
     7
 79
     5
170
     0
171
     0
290
     0
174
     0
 93
        1
 44
0.0
173
     0
291
     1
 45
0.0
1001
ACAD
1000
AcDbSavedByObjectVersion
1070
     0
  0
VISUALSTYLE
  5
6304
102
{ACAD_XDICTIONARY
360
8681
102
}
102
{ACAD_REACTORS
330
62F5
102
}
330
62F5
100
AcDbVisualStyle
  2
Facepattern
 70
    15
 71
     2
 72
     2
 73
     0
 90
        0
 40
-0.6
 41
-30.0
 62
     5
 63
     7
 74
     1
 91
        4
 64
     7
 65
   257
 75
     1
175
     1
 42
1.0
 92
        8
 66
     7
 43
1.0
 76
     1
 77
     6
 78
     2
 67
     7
 79
     5
170
     0
171
     0
290
     0
174
     0
 93
        1
 44
0.0
173
     0
291
     1
 45
0.0
1001
ACAD
1000
AcDbSavedByObjectVersion
1070
     0
  0
VISUALSTYLE
  5
62F6
102
{ACAD_XDICTIONARY
360
8665
102
}
102
{ACAD_REACTORS
330
62F5
102
}
330
62F5
100
AcDbVisualStyle
  2
Flat
 70
     0
 71
     2
 72
     1
 73
     1
 90
        2
 40
-0.6
 41
30.0
 62
     5
 63
     7
 74
     0
 91
        4
 64
     7
 65
   257
 75
     1
175
     1
 42
1.0
 92
        8
 66
     7
 43
1.0
 76
     1
 77
     6
 78
     2
 67
     7
 79
     5
170
     0
171
     0
290
     0
174
     0
 93
       13
 44
0.0
173
     0
291
     1
 45
0.0
1001
ACAD
1000
AcDbSavedByObjectVersion
1070
     0
  0
VISUALSTYLE
  5
62F7
102
{ACAD_XDICTIONARY
360
8667
102
}
102
{ACAD_REACTORS
330
62F5
102
}
330
62F5
100
AcDbVisualStyle
  2
FlatWithEdges
 70
     1
 71
     2
 72
     1
 73
     1
 90
        2
 40
-0.6
 41
30.0
 62
     5
 63
     7
 74
     1
 91
        4
 64
     7
 65
   257
 75
     1
175
     1
 42
1.0
 92
        0
 66
   257
 43
1.0
 76
     1
 77
     6
 78
     2
 67
     7
 79
     5
170
     0
171
     0
290
     0
174
     0
 93
       13
 44
0.0
173
     0
291
     1
 45
0.0
1001
ACAD
1000
AcDbSavedByObjectVersion
1070
     0
  0
VISUALSTYLE
  5
62F8
102
{ACAD_XDICTIONARY
360
8669
102
}
102
{ACAD_REACTORS
330
62F5
102
}
330
62F5
100
AcDbVisualStyle
  2
Gouraud
 70
     2
 71
     2
 72
     2
 73
     1
 90
        2
 40
-0.6
 41
30.0
 62
     5
 63
     7
 74
     0
 91
        4
 64
     7
 65
   257
 75
     1
175
     1
 42
1.0
 92
        0
 66
     7
 43
1.0
 76
     1
 77
     6
 78
     2
 67
     7
 79
     5
170
     0
171
     0
290
     0
174
     0
 93
       13
 44
0.0
173
     0
291
     1
 45
0.0
1001
ACAD
1000
AcDbSavedByObjectVersion
1070
     0
  0
VISUALSTYLE
  5
62F9
102
{ACAD_XDICTIONARY
360
866B
102
}
102
{ACAD_REACTORS
330
62F5
102
}
330
62F5
100
AcDbVisualStyle
  2
GouraudWithEdges
 70
     3
 71
     2
 72
     2
 73
     1
 90
        2
 40
-0.6
 41
30.0
 62
     5
 63
     7
 74
     1
 91
        4
 64
     7
 65
   257
 75
     1
175
     1
 42
1.0
 92
        0
 66
   257
 43
1.0
 76
     1
 77
     6
 78
     2
 67
     7
 79
     5
170
     0
171
     0
290
     0
174
     0
 93
       13
 44
0.0
173
     0
291
     1
 45
0.0
1001
ACAD
1000
AcDbSavedByObjectVersion
1070
     0
  0
VISUALSTYLE
  5
632C
102
{ACAD_XDICTIONARY
360
8688
102
}
102
{ACAD_REACTORS
330
62F5
102
}
330
62F5
100
AcDbVisualStyle
  2
Hidden
 70
     6
 71
     1
 72
     2
 73
     2
 90
        0
 40
-0.6
 41
-30.0
 62
     5
 63
     7
421
 16777215
 74
     2
 91
        2
 64
     7
 65
   257
 75
     2
175
     1
 42
40.0
 92
        0
 66
   257
 43
1.0
 76
     1
 77
     6
 78
     2
 67
     7
 79
     3
170
     0
171
     0
290
     0
174
     0
 93
        1
 44
0.0
173
     0
291
     0
 45
0.0
1001
ACAD
1000
AcDbSavedByObjectVersion
1070
     0
  0
VISUALSTYLE
  5
6332
102
{ACAD_XDICTIONARY
360
8694
102
}
102
{ACAD_REACTORS
330
62F5
102
}
330
62F5
100
AcDbVisualStyle
  2
JitterOff
 70
    20
 71
     2
 72
     2
 73
     0
 90
        0
 40
-0.6
 41
-30.0
 62
     5
 63
     7
421
 16777215
 74
     1
 91
        4
 64
     7
 65
   257
 75
     1
175
     1
 42
1.0
 92
       10
 66
     7
 43
1.0
 76
     1
 77
     6
 78
     2
 67
     7
 79
     5
170
     0
171
     0
290
     0
174
     0
 93
        1
 44
0.0
173
     0
291
     1
 45
0.0
1001
ACAD
1000
AcDbSavedByObjectVersion
1070
     0
  0
VISUALSTYLE
  5
6303
102
{ACAD_XDICTIONARY
360
867F
102
}
102
{ACAD_REACTORS
330
62F5
102
}
330
62F5
100
AcDbVisualStyle
  2
Linepattern
 70
    14
 71
     2
 72
     2
 73
     0
 90
        0
 40
-0.6
 41
-30.0
 62
     5
 63
     7
 74
     1
 91
        4
 64
     7
 65
   257
 75
     7
175
     7
 42
1.0
 92
        8
 66
     7
 43
1.0
 76
     1
 77
     6
 78
     2
 67
     7
 79
     5
170
     0
171
     0
290
     0
174
     0
 93
        1
 44
0.0
173
     0
291
     1
 45
0.0
1001
ACAD
1000
AcDbSavedByObjectVersion
1070
     0
  0
VISUALSTYLE
  5
6333
102
{ACAD_XDICTIONARY
360
8696
102
}
102
{ACAD_REACTORS
330
62F5
102
}
330
62F5
100
AcDbVisualStyle
  2
OverhangOff
 70
    21
 71
     2
 72
     2
 73
     0
 90
        0
 40
-0.6
 41
-30.0
 62
     5
 63
     7
421
 16777215
 74
     1
 91
        4
 64
     7
 65
   257
 75
     1
175
     1
 42
1.0
 92
        9
 66
     7
 43
1.0
 76
     1
 77
     6
 78
     2
 67
     7
 79
     5
170
     0
171
     0
290
     0
174
     0
 93
        1
 44
0.0
173
     0
291
     1
 45
0.0
1001
ACAD
1000
AcDbSavedByObjectVersion
1070
     0
  0
VISUALSTYLE
  5
62FF
102
{ACAD_XDICTIONARY
360
8677
102
}
102
{ACAD_REACTORS
330
62F5
102
}
330
62F5
100
AcDbVisualStyle
  2
Realistic
 70
     8
 71
     2
 72
     2
 73
     0
 90
        0
 40
-0.6
 41
-30.0
 62
     5
 63
     7
 74
     1
 91
        0
 64
     7
 65
   257
 75
     1
175
     1
 42
1.0
 92
        8
 66
     8
 43
1.0
 76
     1
 77
     6
 78
     2
 67
     7
 79
     5
170
     0
171
     0
290
     0
174
     0
 93
       13
 44
0.0
173
     0
291
     0
 45
0.0
1001
ACAD
1000
AcDbSavedByObjectVersion
1070
     0
  0
VISUALSTYLE
  5
6331
102
{ACAD_XDICTIONARY
360
8692
102
}
102
{ACAD_REACTORS
330
62F5
102
}
330
62F5
100
AcDbVisualStyle
  2
Shaded
 70
    27
 71
     2
 72
     2
 73
     1
 90
        2
 40
-0.6
 41
30.0
 62
     5
 63
     7
421
 16777215
 74
     0
 91
        4
 64
     7
 65
   257
 75
     1
175
     1
 42
1.0
 92
        8
 66
   257
 43
1.0
 76
     1
 77
     6
 78
     2
 67
     8
425
  7895160
 79
     3
170
     0
171
     0
290
     0
174
     0
 93
        5
 44
0.0
173
     0
291
     0
 45
0.0
1001
ACAD
1000
AcDbSavedByObjectVersion
1070
     0
  0
VISUALSTYLE
  5
6330
102
{ACAD_XDICTIONARY
360
8690
102
}
102
{ACAD_REACTORS
330
62F5
102
}
330
62F5
100
AcDbVisualStyle
  2
Shaded with edges
 70
    26
 71
     2
 72
     2
 73
     1
 90
        2
 40
-0.6
 41
30.0
 62
     5
 63
     7
421
 16777215
 74
     1
 91
       10
 64
     7
 65
   257
 75
     2
175
     1
 42
1.0
 92
        8
 66
   257
 43
1.0
 76
     1
 77
     6
 78
     2
 67
     7
 79
     3
170
     0
171
     0
290
     0
174
     0
 93
        5
 44
0.0
173
     0
291
     0
 45
0.0
1001
ACAD
1000
AcDbSavedByObjectVersion
1070
     0
  0
VISUALSTYLE
  5
632D
102
{ACAD_XDICTIONARY
360
868A
102
}
102
{ACAD_REACTORS
330
62F5
102
}
330
62F5
100
AcDbVisualStyle
  2
Shades of Gray
 70
    23
 71
     2
 72
     2
 73
     3
 90
        0
 40
-0.6
 41
-30.0
 62
     5
 63
     7
421
 16777215
 74
     2
 91
        2
 64
     7
 65
     7
 75
     1
175
     1
 42
40.0
 92
        8
 66
     7
 43
1.0
 76
     1
 77
     6
 78
     2
 67
     7
 79
     3
170
     0
171
     0
290
     0
174
     0
 93
        1
 44
0.0
173
     0
291
     0
 45
0.0
1001
ACAD
1000
AcDbSavedByObjectVersion
1070
     0
  0
VISUALSTYLE
  5
632E
102
{ACAD_XDICTIONARY
360
868C
102
}
102
{ACAD_REACTORS
330
62F5
102
}
330
62F5
100
AcDbVisualStyle
  2
Sketchy
 70
    24
 71
     1
 72
     2
 73
     2
 90
        0
 40
-0.6
 41
-30.0
 62
     5
 63
     7
421
 16777215
 74
     2
 91
        2
 64
     7
 65
     7
 75
     1
175
     1
 42
40.0
 92
       11
 66
     7
 43
1.0
 76
     1
 77
     6
 78
     2
 67
     7
 79
     6
170
     0
171
     0
290
     0
174
     0
 93
        1
 44
0.0
173
     0
291
     0
 45
0.0
1001
ACAD
1000
AcDbSavedByObjectVersion
1070
     0
  0
VISUALSTYLE
  5
6302
102
{ACAD_XDICTIONARY
360
867D
102
}
102
{ACAD_REACTORS
330
62F5
102
}
330
62F5
100
AcDbVisualStyle
  2
Thicken
 70
    13
 71
     2
 72
     2
 73
     0
 90
        0
 40
-0.6
 41
-30.0
 62
     5
 63
     7
 74
     1
 91
        4
 64
     7
 65
   257
 75
     1
175
     1
 42
1.0
 92
       12
 66
     7
 43
1.0
 76
     1
 77
     6
 78
     2
 67
     7
 79
     5
170
     0
171
     0
290
     0
174
     0
 93
        1
 44
0.0
173
     0
291
     1
 45
0.0
1001
ACAD
1000
AcDbSavedByObjectVersion
1070
     0
  0
VISUALSTYLE
  5
632B
102
{ACAD_XDICTIONARY
360
8686
102
}
102
{ACAD_REACTORS
330
62F5
102
}
330
62F5
100
AcDbVisualStyle
  2
Wireframe
 70
     5
 71
     0
 72
     2
 73
     0
 90
        0
 40
-0.6
 41
-30.0
 62
     5
 63
     7
421
 16777215
 74
     1
 91
        4
 64
     7
 65
   257
 75
     1
175
     1
 42
1.0
 92
        0
 66
   257
 43
1.0
 76
     1
 77
     6
 78
     2
 67
     7
 79
     3
170
     0
171
     0
290
     0
174
     0
 93
        1
 44
0.0
173
     0
291
     0
 45
0.0
1001
ACAD
1000
AcDbSavedByObjectVersion
1070
     0
  0
VISUALSTYLE
  5
632F
102
{ACAD_XDICTIONARY
360
868E
102
}
102
{ACAD_REACTORS
330
62F5
102
}
330
62F5
100
AcDbVisualStyle
  2
X-Ray
 70
    25
 71
     2
 72
     2
 73
     1
 90
        1
 40
0.5
 41
-30.0
 62
     5
 63
     7
421
 16777215
 74
     1
 91
        0
 64
     7
 65
   257
 75
     1
175
     1
 42
1.0
 92
        8
 66
     7
 43
1.0
 76
     1
 77
     6
 78
     2
 67
     7
 79
     3
170
     0
171
     0
290
     0
174
     0
 93
       13
 44
0.0
173
     0
291
     0
 45
0.0
1001
ACAD
1000
AcDbSavedByObjectVersion
1070
     0
  0
DICTIONARYVAR
  5
636D
102
{ACAD_REACTORS
330
169
102
}
330
169
100
DictionaryVariables
280
     0
  1
1:1
  0
DICTIONARYVAR
  5
636B
102
{ACAD_REACTORS
330
169
102
}
330
169
100
DictionaryVariables
280
     0
  1
STANDARD
  0
DICTIONARYVAR
  5
6327
102
{ACAD_REACTORS
330
169
102
}
330
169
100
DictionaryVariables
280
     0
  1
STANDARD
  0
DICTIONARYVAR
  5
757D
102
{ACAD_REACTORS
330
169
102
}
330
169
100
DictionaryVariables
280
     0
  1
Imperial24
  0
DICTIONARYVAR
  5
757E
102
{ACAD_REACTORS
330
169
102
}
330
169
100
DictionaryVariables
280
     0
  1
Imperial24
  0
DICTIONARYVAR
  5
16A
102
{ACAD_REACTORS
330
169
102
}
330
169
100
DictionaryVariables
280
     0
  1
1
  0
DICTIONARYVAR
  5
6329
102
{ACAD_REACTORS
330
169
102
}
330
169
100
DictionaryVariables
280
     0
  1
0
  0
DICTIONARYVAR
  5
636F
102
{ACAD_REACTORS
330
169
102
}
330
169
100
DictionaryVariables
280
     0
  1
1
  0
DICTIONARYVAR
  5
6370
102
{ACAD_REACTORS
330
169
102
}
330
169
100
DictionaryVariables
280
     0
  1
15
  0
DICTIONARYVAR
  5
636E
102
{ACAD_REACTORS
330
169
102
}
330
169
100
DictionaryVariables
280
     0
  1
0
  0
DICTIONARYVAR
  5
636C
102
{ACAD_REACTORS
330
169
102
}
330
169
100
DictionaryVariables
280
     0
  1
0
  0
DICTIONARYVAR
  5
6328
102
{ACAD_REACTORS
330
169
102
}
330
169
100
DictionaryVariables
280
     0
  1
127
  0
DICTIONARYVAR
  5
85ED
102
{ACAD_REACTORS
330
169
102
}
330
169
100
DictionaryVariables
280
     0
  1
2
  0
DICTIONARY
  5
865E
102
{ACAD_REACTORS
330
865C
102
}
330
865C
100
AcDbDictionary
281
     1
  0
DICTIONARY
  5
865D
102
{ACAD_REACTORS
330
865C
102
}
330
865C
100
AcDbDictionary
281
     1
  3
2128424120
350
8657
  3
2128424128
350
8658
  3
2128424136
350
8659
  3
2128424144
350
865A
  3
2128424152
350
865B
  0
XRECORD
  5
177
102
{ACAD_REACTORS
330
176
102
}
330
176
100
AcDbXrecord
280
     1
 91
      476
330
179
 90
        8
 62
     7
370
    -3
331
15
  1
Color_7
330
178
 90
        8
 62
     7
370
    -3
331
15
  1
Color_7
330
128
 90
        0
 62
     7
370
    -3
331
15
  1
Color_7
330
10
 90
        8
 62
     7
370
    -3
331
15
  1
Color_7
  0
DICTIONARY
  5
85DE
330
7531
100
AcDbDictionary
280
     1
281
     1
  3
ACAD_XREC_ROUNDTRIP
360
869D
  0
DICTIONARY
  5
85E2
330
7807
100
AcDbDictionary
280
     1
281
     1
  3
ACAD_XREC_ROUNDTRIP
360
869F
  0
DICTIONARY
  5
6367
330
21
100
AcDbDictionary
280
     1
281
     1
  0
DICTIONARY
  5
8661
330
62F3
100
AcDbDictionary
280
     1
281
     1
  3
ACAD_XREC_ROUNDTRIP
360
8662
  0
DICTIONARY
  5
865F
330
62F2
100
AcDbDictionary
280
     1
281
     1
  3
ACAD_XREC_ROUNDTRIP
360
8660
  0
DICTIONARY
  5
8663
330
62F4
100
AcDbDictionary
280
     1
281
     1
  3
ACAD_XREC_ROUNDTRIP
360
8664
  0
DICTIONARY
  5
869A
330
6348
100
AcDbDictionary
280
     1
281
     1
  3
ACAD_XREC_ROUNDTRIP
360
869B
  0
DICTIONARY
  5
85DC
330
752F
100
AcDbDictionary
280
     1
281
     1
  3
ACAD_XREC_ROUNDTRIP
360
869C
  0
DICTIONARY
  5
85E0
330
7806
100
AcDbDictionary
280
     1
281
     1
  3
ACAD_XREC_ROUNDTRIP
360
869E
  0
DICTIONARY
  5
73EB
330
6308
100
AcDbDictionary
280
     1
281
     1
  3
ACAD_ROUNDTRIP_2008_TABLESTYLE_CELLSTYLEMAP
360
864F
  3
ACAD_XREC_ROUNDTRIP
360
8685
  0
DICTIONARY
  5
866F
330
62FB
100
AcDbDictionary
280
     1
281
     1
  3
ACAD_XREC_ROUNDTRIP
360
8670
  0
DICTIONARY
  5
8673
330
62FD
100
AcDbDictionary
280
     1
281
     1
  3
ACAD_XREC_ROUNDTRIP
360
8674
  0
DICTIONARY
  5
8671
330
62FC
100
AcDbDictionary
280
     1
281
     1
  3
ACAD_XREC_ROUNDTRIP
360
8672
  0
DICTIONARY
  5
866D
330
62FA
100
AcDbDictionary
280
     1
281
     1
  3
ACAD_XREC_ROUNDTRIP
360
866E
  0
DICTIONARY
  5
867B
330
6301
100
AcDbDictionary
280
     1
281
     1
  3
ACAD_XREC_ROUNDTRIP
360
867C
  0
DICTIONARY
  5
8683
330
6305
100
AcDbDictionary
280
     1
281
     1
  3
ACAD_XREC_ROUNDTRIP
360
8684
  0
DICTIONARY
  5
8675
330
62FE
100
AcDbDictionary
280
     1
281
     1
  3
ACAD_XREC_ROUNDTRIP
360
8676
  0
DICTIONARY
  5
8679
330
6300
100
AcDbDictionary
280
     1
281
     1
  3
ACAD_XREC_ROUNDTRIP
360
867A
  0
DICTIONARY
  5
8698
330
6334
100
AcDbDictionary
280
     1
281
     1
  3
ACAD_XREC_ROUNDTRIP
360
8699
  0
DICTIONARY
  5
8681
330
6304
100
AcDbDictionary
280
     1
281
     1
  3
ACAD_XREC_ROUNDTRIP
360
8682
  0
DICTIONARY
  5
8665
330
62F6
100
AcDbDictionary
280
     1
281
     1
  3
ACAD_XREC_ROUNDTRIP
360
8666
  0
DICTIONARY
  5
8667
330
62F7
100
AcDbDictionary
280
     1
281
     1
  3
ACAD_XREC_ROUNDTRIP
360
8668
  0
DICTIONARY
  5
8669
330
62F8
100
AcDbDictionary
280
     1
281
     1
  3
ACAD_XREC_ROUNDTRIP
360
866A
  0
DICTIONARY
  5
866B
330
62F9
100
AcDbDictionary
280
     1
281
     1
  3
ACAD_XREC_ROUNDTRIP
360
866C
  0
DICTIONARY
  5
8688
330
632C
100
AcDbDictionary
280
     1
281
     1
  3
ACAD_XREC_ROUNDTRIP
360
8689
  0
DICTIONARY
  5
8694
330
6332
100
AcDbDictionary
280
     1
281
     1
  3
ACAD_XREC_ROUNDTRIP
360
8695
  0
DICTIONARY
  5
867F
330
6303
100
AcDbDictionary
280
     1
281
     1
  3
ACAD_XREC_ROUNDTRIP
360
8680
  0
DICTIONARY
  5
8696
330
6333
100
AcDbDictionary
280
     1
281
     1
  3
ACAD_XREC_ROUNDTRIP
360
8697
  0
DICTIONARY
  5
8677
330
62FF
100
AcDbDictionary
280
     1
281
     1
  3
ACAD_XREC_ROUNDTRIP
360
8678
  0
DICTIONARY
  5
8692
330
6331
100
AcDbDictionary
280
     1
281
     1
  3
ACAD_XREC_ROUNDTRIP
360
8693
  0
DICTIONARY
  5
8690
330
6330
100
AcDbDictionary
280
     1
281
     1
  3
ACAD_XREC_ROUNDTRIP
360
8691
  0
DICTIONARY
  5
868A
330
632D
100
AcDbDictionary
280
     1
281
     1
  3
ACAD_XREC_ROUNDTRIP
360
868B
  0
DICTIONARY
  5
868C
330
632E
100
AcDbDictionary
280
     1
281
     1
  3
ACAD_XREC_ROUNDTRIP
360
868D
  0
DICTIONARY
  5
867D
330
6302
100
AcDbDictionary
280
     1
281
     1
  3
ACAD_XREC_ROUNDTRIP
360
867E
  0
DICTIONARY
  5
8686
330
632B
100
AcDbDictionary
280
     1
281
     1
  3
ACAD_XREC_ROUNDTRIP
360
8687
  0
DICTIONARY
  5
868E
330
632F
100
AcDbDictionary
280
     1
281
     1
  3
ACAD_XREC_ROUNDTRIP
360
868F
  0
XRECORD
  5
8657
102
{ACAD_REACTORS
330
865D
102
}
330
865D
100
AcDbXrecord
280
     1
  1
AcDb_Thumbnail_Schema
102
{ATTRRECORD
341
8658
  2
AcDbDs::TreatedAsObjectData
280
     1
291
     1
102
ATTRRECORD}
102
{ATTRRECORD
341
8659
  2
AcDbDs::Legacy
280
     1
291
     1
102
ATTRRECORD}
  2
AcDbDs::ID
280
    10
 91
        8
102
{ATTRRECORD
341
865A
  2
AcDs:Indexable
280
     1
291
     1
102
ATTRRECORD}
102
{ATTRRECORD
341
865B
  2
AcDbDs::HandleAttribute
280
     7
282
     1
102
ATTRRECORD}
  2
Thumbnail_Data
280
    15
 91
        0
  0
XRECORD
  5
8658
102
{ACAD_REACTORS
330
865D
102
}
330
865D
100
AcDbXrecord
280
     1
  1
AcDbDs::TreatedAsObjectDataSchema
  2
AcDbDs::TreatedAsObjectData
280
     1
 91
        0
  0
XRECORD
  5
8659
102
{ACAD_REACTORS
330
865D
102
}
330
865D
100
AcDbXrecord
280
     1
  1
AcDbDs::LegacySchema
  2
AcDbDs::Legacy
280
     1
 91
        0
  0
XRECORD
  5
865A
102
{ACAD_REACTORS
330
865D
102
}
330
865D
100
AcDbXrecord
280
     1
  1
AcDbDs::IndexedPropertySchema
  2
AcDs:Indexable
280
     1
 91
        0
  0
XRECORD
  5
865B
102
{ACAD_REACTORS
330
865D
102
}
330
865D
100
AcDbXrecord
280
     1
  1
AcDbDs::HandleAttributeSchema
  2
AcDbDs::HandleAttribute
280
     7
 91
        1
284
     1
  0
XRECORD
  5
869D
102
{ACAD_REACTORS
330
85DE
102
}
330
85DE
100
AcDbXrecord
280
     1
102
DISPLAYNAME
  1
Imperial24
102
FLAGS
 90
        0
  0
XRECORD
  5
869F
102
{ACAD_REACTORS
330
85E2
102
}
330
85E2
100
AcDbXrecord
280
     1
102
DISPLAYNAME
  1
Metric50
102
FLAGS
 90
        0
  0
XRECORD
  5
8662
102
{ACAD_REACTORS
330
8661
102
}
330
8661
100
AcDbXrecord
280
     1
102
MATERIAL
148
0.0
149
0.0
149
0.0
 93
        0
 94
       63
282
     0
 72
     1
 77
     1
171
     1
175
     1
179
     1
273
     0
  0
XRECORD
  5
8660
102
{ACAD_REACTORS
330
865F
102
}
330
865F
100
AcDbXrecord
280
     1
102
MATERIAL
148
0.0
149
0.0
149
0.0
 93
        0
 94
       63
282
     0
 72
     1
 77
     1
171
     1
175
     1
179
     1
273
     0
  0
XRECORD
  5
8664
102
{ACAD_REACTORS
330
8663
102
}
330
8663
100
AcDbXrecord
280
     1
102
MATERIAL
148
0.0
149
0.0
149
0.0
 93
        0
 94
       63
282
     0
 72
     1
 77
     1
171
     1
175
     1
179
     1
273
     0
  0
XRECORD
  5
869B
102
{ACAD_REACTORS
330
869A
102
}
330
869A
100
AcDbXrecord
280
     1
102
ACAD_ROUNDTRIP_2012_MLEADER_STYLE
298
     1
  0
XRECORD
  5
869C
102
{ACAD_REACTORS
330
85DC
102
}
330
85DC
100
AcDbXrecord
280
     1
102
DISPLAYNAME
  1
Imperial24
102
FLAGS
 90
        0
  0
XRECORD
  5
869E
102
{ACAD_REACTORS
330
85E0
102
}
330
85E0
100
AcDbXrecord
280
     1
102
DISPLAYNAME
  1
Metric50
102
FLAGS
 90
        0
  0
CELLSTYLEMAP
  5
864F
102
{ACAD_REACTORS
330
73EB
102
}
330
73EB
100
AcDbCellStyleMap
 90
        3
300
CELLSTYLE
  1
TABLEFORMAT_BEGIN
 90
        5
170
     1
 91
        0
 92
    32768
 62
   257
 93
        1
300
CONTENTFORMAT
  1
CONTENTFORMAT_BEGIN
 90
        0
 91
        0
 92
      512
 93
        0
300

 40
0.0
140
1.0
 94
        5
 62
     0
340
11
144
0.25
309
CONTENTFORMAT_END
171
     0
 94
        6
 95
        1
302
GRIDFORMAT
  1
GRIDFORMAT_BEGIN
 90
        0
 91
        1
 62
     0
 92
       -2
340
0
 93
        0
 40
0.045
309
GRIDFORMAT_END
 95
        2
302
GRIDFORMAT
  1
GRIDFORMAT_BEGIN
 90
        0
 91
        1
 62
     0
 92
       -2
340
0
 93
        0
 40
0.045
309
GRIDFORMAT_END
 95
        4
302
GRIDFORMAT
  1
GRIDFORMAT_BEGIN
 90
        0
 91
        1
 62
     0
 92
       -2
340
0
 93
        0
 40
0.045
309
GRIDFORMAT_END
 95
        8
302
GRIDFORMAT
  1
GRIDFORMAT_BEGIN
 90
        0
 91
        1
 62
     0
 92
       -2
340
0
 93
        0
 40
0.045
309
GRIDFORMAT_END
 95
       16
302
GRIDFORMAT
  1
GRIDFORMAT_BEGIN
 90
        0
 91
        1
 62
     0
 92
       -2
340
0
 93
        0
 40
0.045
309
GRIDFORMAT_END
 95
       32
302
GRIDFORMAT
  1
GRIDFORMAT_BEGIN
 90
        0
 91
        1
 62
     0
 92
       -2
340
0
 93
        0
 40
0.045
309
GRIDFORMAT_END
309
TABLEFORMAT_END
  1
CELLSTYLE_BEGIN
 90
        1
 91
        1
300
_TITLE
309
CELLSTYLE_END
300
CELLSTYLE
  1
TABLEFORMAT_BEGIN
 90
        5
170
     1
 91
        0
 92
        0
 62
   257
 93
        1
300
CONTENTFORMAT
  1
CONTENTFORMAT_BEGIN
 90
        0
 91
        0
 92
      512
 93
        0
300

 40
0.0
140
1.0
 94
        5
 62
     0
340
11
144
0.18
309
CONTENTFORMAT_END
171
     0
 94
        6
 95
        1
302
GRIDFORMAT
  1
GRIDFORMAT_BEGIN
 90
        0
 91
        1
 62
     0
 92
       -2
340
0
 93
        0
 40
0.045
309
GRIDFORMAT_END
 95
        2
302
GRIDFORMAT
  1
GRIDFORMAT_BEGIN
 90
        0
 91
        1
 62
     0
 92
       -2
340
0
 93
        0
 40
0.045
309
GRIDFORMAT_END
 95
        4
302
GRIDFORMAT
  1
GRIDFORMAT_BEGIN
 90
        0
 91
        1
 62
     0
 92
       -2
340
0
 93
        0
 40
0.045
309
GRIDFORMAT_END
 95
        8
302
GRIDFORMAT
  1
GRIDFORMAT_BEGIN
 90
        0
 91
        1
 62
     0
 92
       -2
340
0
 93
        0
 40
0.045
309
GRIDFORMAT_END
 95
       16
302
GRIDFORMAT
  1
GRIDFORMAT_BEGIN
 90
        0
 91
        1
 62
     0
 92
       -2
340
0
 93
        0
 40
0.045
309
GRIDFORMAT_END
 95
       32
302
GRIDFORMAT
  1
GRIDFORMAT_BEGIN
 90
        0
 91
        1
 62
     0
 92
       -2
340
0
 93
        0
 40
0.045
309
GRIDFORMAT_END
309
TABLEFORMAT_END
  1
CELLSTYLE_BEGIN
 90
        2
 91
        1
300
_HEADER
309
CELLSTYLE_END
300
CELLSTYLE
  1
TABLEFORMAT_BEGIN
 90
        5
170
     1
 91
        0
 92
        0
 62
   257
 93
        1
300
CONTENTFORMAT
  1
CONTENTFORMAT_BEGIN
 90
        0
 91
        0
 92
      512
 93
        0
300

 40
0.0
140
1.0
 94
        2
 62
     0
340
11
144
0.18
309
CONTENTFORMAT_END
171
     0
 94
        6
 95
        1
302
GRIDFORMAT
  1
GRIDFORMAT_BEGIN
 90
        0
 91
        1
 62
     0
 92
       -2
340
0
 93
        0
 40
0.045
309
GRIDFORMAT_END
 95
        2
302
GRIDFORMAT
  1
GRIDFORMAT_BEGIN
 90
        0
 91
        1
 62
     0
 92
       -2
340
0
 93
        0
 40
0.045
309
GRIDFORMAT_END
 95
        4
302
GRIDFORMAT
  1
GRIDFORMAT_BEGIN
 90
        0
 91
        1
 62
     0
 92
       -2
340
0
 93
        0
 40
0.045
309
GRIDFORMAT_END
 95
        8
302
GRIDFORMAT
  1
GRIDFORMAT_BEGIN
 90
        0
 91
        1
 62
     0
 92
       -2
340
0
 93
        0
 40
0.045
309
GRIDFORMAT_END
 95
       16
302
GRIDFORMAT
  1
GRIDFORMAT_BEGIN
 90
        0
 91
        1
 62
     0
 92
       -2
340
0
 93
        0
 40
0.045
309
GRIDFORMAT_END
 95
       32
302
GRIDFORMAT
  1
GRIDFORMAT_BEGIN
 90
        0
 91
        1
 62
     0
 92
       -2
340
0
 93
        0
 40
0.045
309
GRIDFORMAT_END
309
TABLEFORMAT_END
  1
CELLSTYLE_BEGIN
 90
        3
 91
        2
300
_DATA
309
CELLSTYLE_END
  0
XRECORD
  5
8685
102
{ACAD_REACTORS
330
73EB
102
}
330
73EB
100
AcDbXrecord
280
     1
102
ACAD_ROUNDTRIP_PRE2007_TABLESTYLE
 90
      512
 91
        0
  1

 92
      512
 93
        0
  2

 94
      512
 95
        0
  3

  0
XRECORD
  5
8670
102
{ACAD_REACTORS
330
866F
102
}
330
866F
100
AcDbXrecord
280
     1
102
RTVSPost2010Prop28
280
     1
102
RTVSPost2010PropOp28
 70
     1
102
RTVSPost2010Prop29
280
     1
102
RTVSPost2010PropOp29
 70
     1
102
RTVSPost2010Prop30
280
     0
102
RTVSPost2010PropOp30
 70
     1
102
RTVSPost2010Prop31
280
     0
102
RTVSPost2010PropOp31
 70
     1
102
RTVSPost2010Prop32
280
     0
102
RTVSPost2010PropOp32
 70
     1
102
RTVSPost2010Prop33
280
     0
102
RTVSPost2010PropOp33
 70
     1
102
RTVSPost2010Prop34
280
     0
102
RTVSPost2010PropOp34
 70
     1
102
RTVSPost2010Prop35
280
     0
102
RTVSPost2010PropOp35
 70
     1
102
RTVSPost2010Prop36
280
     0
102
RTVSPost2010PropOp36
 70
     1
102
RTVSPost2010Prop37
 90
       50
102
RTVSPost2010PropOp37
 70
     1
102
RTVSPost2010Prop38
140
0.0
102
RTVSPost2010PropOp38
 70
     1
102
RTVSPost2010Prop39
140
1.0
102
RTVSPost2010PropOp39
 70
     1
102
RTVSPost2010Prop40
 90
        0
102
RTVSPost2010PropOp40
 70
     1
102
RTVSPost2010Prop41ColorIndex
 90
       18
102
RTVSPost2010Prop41ColorRGB
 90
        0
102
RTVSPost2010PropOp41
 70
     1
102
RTVSPost2010Prop42
 90
       50
102
RTVSPost2010PropOp42
 70
     1
102
RTVSPost2010Prop43
 90
        3
102
RTVSPost2010PropOp43
 70
     1
102
RTVSPost2010Prop44ColorIndex
 90
        5
102
RTVSPost2010Prop44ColorRGB
 90
      255
102
RTVSPost2010PropOp44
 70
     1
102
RTVSPost2010Prop45
280
     0
102
RTVSPost2010PropOp45
 70
     1
102
RTVSPost2010Prop46
 90
       50
102
RTVSPost2010PropOp46
 70
     1
102
RTVSPost2010Prop47
 90
       50
102
RTVSPost2010PropOp47
 70
     1
102
RTVSPost2010Prop48
 90
       50
102
RTVSPost2010PropOp48
 70
     1
102
RTVSPost2010Prop49
280
     0
102
RTVSPost2010PropOp49
 70
     1
102
RTVSPost2010Prop50
 90
       50
102
RTVSPost2010PropOp50
 70
     1
102
RTVSPost2010Prop51ColorIndex
 90
      256
102
RTVSPost2010Prop51ColorRGB
 90
-16777216
102
RTVSPost2010PropOp51
 70
     0
102
RTVSPost2010Prop52
140
1.0
102
RTVSPost2010PropOp52
 70
     0
102
RTVSPost2010Prop53
 90
        2
102
RTVSPost2010PropOp53
 70
     1
102
RTVSPost2010Prop54
  1
strokes_ogs.tif
102
RTVSPost2010PropOp54
 70
     1
102
RTVSPost2010Prop55
280
     0
102
RTVSPost2010PropOp55
 70
     1
102
RTVSPost2010Prop56
140
1.0
102
RTVSPost2010PropOp56
 70
     1
102
RTVSPost2010Prop57
140
1.0
102
RTVSPost2010PropOp57
 70
     1
102
RTVSPropertyOp0
 70
     1
102
RTVSPropertyOp1
 70
     1
102
RTVSPropertyOp2
 70
     1
102
RTVSPropertyOp3
 70
     1
102
RTVSPropertyOp4
 70
     1
102
RTVSPropertyOp5
 70
     1
102
RTVSPropertyOp6
 70
     1
102
RTVSPropertyOp7
 70
     1
102
RTVSPropertyOp8
 70
     1
102
RTVSPropertyOp9
 70
     1
102
RTVSPropertyOp10
 70
     1
102
RTVSPropertyOp11
 70
     1
102
RTVSPropertyOp12
 70
     1
102
RTVSPropertyOp13
 70
     1
102
RTVSPropertyOp14
 70
     1
102
RTVSPropertyOp15
 70
     1
102
RTVSPropertyOp16
 70
     1
102
RTVSPropertyOp17
 70
     1
102
RTVSPropertyOp18
 70
     1
102
RTVSPropertyOp19
 70
     1
102
RTVSPropertyOp20
 70
     1
102
RTVSPropertyOp21
 70
     1
102
RTVSPropertyOp22
 70
     1
102
RTVSPropertyOp23
 70
     1
102
RTVSPropertyOp24
 70
     1
102
RTVSPropertyOp25
 70
     1
102
RTVSPropertyOp26
 70
     1
102
RTVSPropertyOp27
 70
     1
102
RTVSPropertyOp28
 70
     1
102
RTVSPropertyOp29
 70
     1
102
RTVSPropertyOp30
 70
     1
102
RTVSPropertyOp31
 70
     1
102
RTVSPropertyOp32
 70
     1
102
RTVSPropertyOp33
 70
     1
102
RTVSPropertyOp34
 70
     1
102
RTVSPropertyOp35
 70
     1
102
RTVSPropertyOp36
 70
     1
102
RTVSPropertyOp37
 70
     1
102
RTVSPropertyOp38
 70
     1
102
RTVSPropertyOp39
 70
     1
102
RTVSPropertyOp40
 70
     1
102
RTVSPropertyOp41
 70
     1
102
RTVSPropertyOp42
 70
     1
102
RTVSPropertyOp43
 70
     1
102
RTVSPropertyOp44
 70
     1
102
RTVSPropertyOp45
 70
     1
102
RTVSPropertyOp46
 70
     1
102
RTVSPropertyOp47
 70
     1
102
RTVSPropertyOp48
 70
     1
102
RTVSPropertyOp49
 70
     1
102
RTVSPropertyOp50
 70
     1
102
RTVSPropertyOp51
 70
     0
102
RTVSPropertyOp52
 70
     0
102
RTVSPropertyOp53
 70
     1
102
RTVSPropertyOp54
 70
     1
102
RTVSPropertyOp55
 70
     1
102
RTVSPropertyOp56
 70
     1
102
RTVSPropertyOp57
 70
     1
102
RTVSPropertyOp58
 70
     1
102
RTVSPropertyOp59
 70
     1
102
RTVSPropertyOp60
 70
     1
102
RTVSPropertyOp61
 70
     1
102
RTVSPropertyOp62
 70
     1
  0
XRECORD
  5
8674
102
{ACAD_REACTORS
330
8673
102
}
330
8673
100
AcDbXrecord
280
     1
102
RTVSPost2010Prop28
280
     0
102
RTVSPost2010PropOp28
 70
     1
102
RTVSPost2010Prop29
280
     1
102
RTVSPost2010PropOp29
 70
     1
102
RTVSPost2010Prop30
280
     1
102
RTVSPost2010PropOp30
 70
     1
102
RTVSPost2010Prop31
280
     0
102
RTVSPost2010PropOp31
 70
     1
102
RTVSPost2010Prop32
280
     0
102
RTVSPost2010PropOp32
 70
     1
102
RTVSPost2010Prop33
280
     0
102
RTVSPost2010PropOp33
 70
     1
102
RTVSPost2010Prop34
280
     0
102
RTVSPost2010PropOp34
 70
     1
102
RTVSPost2010Prop35
280
     0
102
RTVSPost2010PropOp35
 70
     1
102
RTVSPost2010Prop36
280
     0
102
RTVSPost2010PropOp36
 70
     1
102
RTVSPost2010Prop37
 90
       50
102
RTVSPost2010PropOp37
 70
     1
102
RTVSPost2010Prop38
140
0.0
102
RTVSPost2010PropOp38
 70
     1
102
RTVSPost2010Prop39
140
1.0
102
RTVSPost2010PropOp39
 70
     1
102
RTVSPost2010Prop40
 90
        0
102
RTVSPost2010PropOp40
 70
     1
102
RTVSPost2010Prop41ColorIndex
 90
       18
102
RTVSPost2010Prop41ColorRGB
 90
        0
102
RTVSPost2010PropOp41
 70
     1
102
RTVSPost2010Prop42
 90
       50
102
RTVSPost2010PropOp42
 70
     1
102
RTVSPost2010Prop43
 90
        3
102
RTVSPost2010PropOp43
 70
     1
102
RTVSPost2010Prop44ColorIndex
 90
        5
102
RTVSPost2010Prop44ColorRGB
 90
      255
102
RTVSPost2010PropOp44
 70
     1
102
RTVSPost2010Prop45
280
     0
102
RTVSPost2010PropOp45
 70
     1
102
RTVSPost2010Prop46
 90
       50
102
RTVSPost2010PropOp46
 70
     1
102
RTVSPost2010Prop47
 90
       50
102
RTVSPost2010PropOp47
 70
     1
102
RTVSPost2010Prop48
 90
       50
102
RTVSPost2010PropOp48
 70
     1
102
RTVSPost2010Prop49
280
     0
102
RTVSPost2010PropOp49
 70
     1
102
RTVSPost2010Prop50
 90
       50
102
RTVSPost2010PropOp50
 70
     1
102
RTVSPost2010Prop51ColorIndex
 90
      256
102
RTVSPost2010Prop51ColorRGB
 90
-16777216
102
RTVSPost2010PropOp51
 70
     0
102
RTVSPost2010Prop52
140
1.0
102
RTVSPost2010PropOp52
 70
     0
102
RTVSPost2010Prop53
 90
        2
102
RTVSPost2010PropOp53
 70
     1
102
RTVSPost2010Prop54
  1
strokes_ogs.tif
102
RTVSPost2010PropOp54
 70
     1
102
RTVSPost2010Prop55
280
     0
102
RTVSPost2010PropOp55
 70
     1
102
RTVSPost2010Prop56
140
1.0
102
RTVSPost2010PropOp56
 70
     1
102
RTVSPost2010Prop57
140
1.0
102
RTVSPost2010PropOp57
 70
     1
102
RTVSPropertyOp0
 70
     1
102
RTVSPropertyOp1
 70
     1
102
RTVSPropertyOp2
 70
     1
102
RTVSPropertyOp3
 70
     1
102
RTVSPropertyOp4
 70
     1
102
RTVSPropertyOp5
 70
     1
102
RTVSPropertyOp6
 70
     1
102
RTVSPropertyOp7
 70
     1
102
RTVSPropertyOp8
 70
     1
102
RTVSPropertyOp9
 70
     1
102
RTVSPropertyOp10
 70
     1
102
RTVSPropertyOp11
 70
     1
102
RTVSPropertyOp12
 70
     1
102
RTVSPropertyOp13
 70
     1
102
RTVSPropertyOp14
 70
     1
102
RTVSPropertyOp15
 70
     1
102
RTVSPropertyOp16
 70
     1
102
RTVSPropertyOp17
 70
     1
102
RTVSPropertyOp18
 70
     1
102
RTVSPropertyOp19
 70
     1
102
RTVSPropertyOp20
 70
     1
102
RTVSPropertyOp21
 70
     1
102
RTVSPropertyOp22
 70
     1
102
RTVSPropertyOp23
 70
     1
102
RTVSPropertyOp24
 70
     1
102
RTVSPropertyOp25
 70
     1
102
RTVSPropertyOp26
 70
     1
102
RTVSPropertyOp27
 70
     1
102
RTVSPropertyOp28
 70
     1
102
RTVSPropertyOp29
 70
     1
102
RTVSPropertyOp30
 70
     1
102
RTVSPropertyOp31
 70
     1
102
RTVSPropertyOp32
 70
     1
102
RTVSPropertyOp33
 70
     1
102
RTVSPropertyOp34
 70
     1
102
RTVSPropertyOp35
 70
     1
102
RTVSPropertyOp36
 70
     1
102
RTVSPropertyOp37
 70
     1
102
RTVSPropertyOp38
 70
     1
102
RTVSPropertyOp39
 70
     1
102
RTVSPropertyOp40
 70
     1
102
RTVSPropertyOp41
 70
     1
102
RTVSPropertyOp42
 70
     1
102
RTVSPropertyOp43
 70
     1
102
RTVSPropertyOp44
 70
     1
102
RTVSPropertyOp45
 70
     1
102
RTVSPropertyOp46
 70
     1
102
RTVSPropertyOp47
 70
     1
102
RTVSPropertyOp48
 70
     1
102
RTVSPropertyOp49
 70
     1
102
RTVSPropertyOp50
 70
     1
102
RTVSPropertyOp51
 70
     0
102
RTVSPropertyOp52
 70
     0
102
RTVSPropertyOp53
 70
     1
102
RTVSPropertyOp54
 70
     1
102
RTVSPropertyOp55
 70
     1
102
RTVSPropertyOp56
 70
     1
102
RTVSPropertyOp57
 70
     1
102
RTVSPropertyOp58
 70
     1
102
RTVSPropertyOp59
 70
     1
102
RTVSPropertyOp60
 70
     1
102
RTVSPropertyOp61
 70
     1
102
RTVSPropertyOp62
 70
     1
  0
XRECORD
  5
8672
102
{ACAD_REACTORS
330
8671
102
}
330
8671
100
AcDbXrecord
280
     1
102
RTVSPost2010Prop28
280
     0
102
RTVSPost2010PropOp28
 70
     1
102
RTVSPost2010Prop29
280
     1
102
RTVSPost2010PropOp29
 70
     1
102
RTVSPost2010Prop30
280
     1
102
RTVSPost2010PropOp30
 70
     1
102
RTVSPost2010Prop31
280
     0
102
RTVSPost2010PropOp31
 70
     1
102
RTVSPost2010Prop32
280
     0
102
RTVSPost2010PropOp32
 70
     1
102
RTVSPost2010Prop33
280
     0
102
RTVSPost2010PropOp33
 70
     1
102
RTVSPost2010Prop34
280
     0
102
RTVSPost2010PropOp34
 70
     1
102
RTVSPost2010Prop35
280
     0
102
RTVSPost2010PropOp35
 70
     1
102
RTVSPost2010Prop36
280
     0
102
RTVSPost2010PropOp36
 70
     1
102
RTVSPost2010Prop37
 90
       50
102
RTVSPost2010PropOp37
 70
     1
102
RTVSPost2010Prop38
140
0.0
102
RTVSPost2010PropOp38
 70
     1
102
RTVSPost2010Prop39
140
1.0
102
RTVSPost2010PropOp39
 70
     1
102
RTVSPost2010Prop40
 90
        0
102
RTVSPost2010PropOp40
 70
     1
102
RTVSPost2010Prop41ColorIndex
 90
       18
102
RTVSPost2010Prop41ColorRGB
 90
        0
102
RTVSPost2010PropOp41
 70
     1
102
RTVSPost2010Prop42
 90
       50
102
RTVSPost2010PropOp42
 70
     1
102
RTVSPost2010Prop43
 90
        3
102
RTVSPost2010PropOp43
 70
     1
102
RTVSPost2010Prop44ColorIndex
 90
        5
102
RTVSPost2010Prop44ColorRGB
 90
      255
102
RTVSPost2010PropOp44
 70
     1
102
RTVSPost2010Prop45
280
     0
102
RTVSPost2010PropOp45
 70
     1
102
RTVSPost2010Prop46
 90
       50
102
RTVSPost2010PropOp46
 70
     1
102
RTVSPost2010Prop47
 90
       50
102
RTVSPost2010PropOp47
 70
     1
102
RTVSPost2010Prop48
 90
       50
102
RTVSPost2010PropOp48
 70
     1
102
RTVSPost2010Prop49
280
     0
102
RTVSPost2010PropOp49
 70
     1
102
RTVSPost2010Prop50
 90
       50
102
RTVSPost2010PropOp50
 70
     1
102
RTVSPost2010Prop51ColorIndex
 90
      256
102
RTVSPost2010Prop51ColorRGB
 90
-16777216
102
RTVSPost2010PropOp51
 70
     0
102
RTVSPost2010Prop52
140
1.0
102
RTVSPost2010PropOp52
 70
     0
102
RTVSPost2010Prop53
 90
        2
102
RTVSPost2010PropOp53
 70
     1
102
RTVSPost2010Prop54
  1
strokes_ogs.tif
102
RTVSPost2010PropOp54
 70
     1
102
RTVSPost2010Prop55
280
     0
102
RTVSPost2010PropOp55
 70
     1
102
RTVSPost2010Prop56
140
1.0
102
RTVSPost2010PropOp56
 70
     1
102
RTVSPost2010Prop57
140
1.0
102
RTVSPost2010PropOp57
 70
     1
102
RTVSPropertyOp0
 70
     1
102
RTVSPropertyOp1
 70
     1
102
RTVSPropertyOp2
 70
     1
102
RTVSPropertyOp3
 70
     1
102
RTVSPropertyOp4
 70
     1
102
RTVSPropertyOp5
 70
     1
102
RTVSPropertyOp6
 70
     1
102
RTVSPropertyOp7
 70
     1
102
RTVSPropertyOp8
 70
     1
102
RTVSPropertyOp9
 70
     1
102
RTVSPropertyOp10
 70
     1
102
RTVSPropertyOp11
 70
     1
102
RTVSPropertyOp12
 70
     1
102
RTVSPropertyOp13
 70
     1
102
RTVSPropertyOp14
 70
     1
102
RTVSPropertyOp15
 70
     1
102
RTVSPropertyOp16
 70
     1
102
RTVSPropertyOp17
 70
     1
102
RTVSPropertyOp18
 70
     1
102
RTVSPropertyOp19
 70
     1
102
RTVSPropertyOp20
 70
     1
102
RTVSPropertyOp21
 70
     1
102
RTVSPropertyOp22
 70
     1
102
RTVSPropertyOp23
 70
     1
102
RTVSPropertyOp24
 70
     1
102
RTVSPropertyOp25
 70
     1
102
RTVSPropertyOp26
 70
     1
102
RTVSPropertyOp27
 70
     1
102
RTVSPropertyOp28
 70
     1
102
RTVSPropertyOp29
 70
     1
102
RTVSPropertyOp30
 70
     1
102
RTVSPropertyOp31
 70
     1
102
RTVSPropertyOp32
 70
     1
102
RTVSPropertyOp33
 70
     1
102
RTVSPropertyOp34
 70
     1
102
RTVSPropertyOp35
 70
     1
102
RTVSPropertyOp36
 70
     1
102
RTVSPropertyOp37
 70
     1
102
RTVSPropertyOp38
 70
     1
102
RTVSPropertyOp39
 70
     1
102
RTVSPropertyOp40
 70
     1
102
RTVSPropertyOp41
 70
     1
102
RTVSPropertyOp42
 70
     1
102
RTVSPropertyOp43
 70
     1
102
RTVSPropertyOp44
 70
     1
102
RTVSPropertyOp45
 70
     1
102
RTVSPropertyOp46
 70
     1
102
RTVSPropertyOp47
 70
     1
102
RTVSPropertyOp48
 70
     1
102
RTVSPropertyOp49
 70
     1
102
RTVSPropertyOp50
 70
     1
102
RTVSPropertyOp51
 70
     0
102
RTVSPropertyOp52
 70
     0
102
RTVSPropertyOp53
 70
     1
102
RTVSPropertyOp54
 70
     1
102
RTVSPropertyOp55
 70
     1
102
RTVSPropertyOp56
 70
     1
102
RTVSPropertyOp57
 70
     1
102
RTVSPropertyOp58
 70
     1
102
RTVSPropertyOp59
 70
     1
102
RTVSPropertyOp60
 70
     1
102
RTVSPropertyOp61
 70
     1
102
RTVSPropertyOp62
 70
     1
  0
XRECORD
  5
866E
102
{ACAD_REACTORS
330
866D
102
}
330
866D
100
AcDbXrecord
280
     1
102
RTVSPost2010Prop28
280
     0
102
RTVSPost2010PropOp28
 70
     1
102
RTVSPost2010Prop29
280
     1
102
RTVSPost2010PropOp29
 70
     1
102
RTVSPost2010Prop30
280
     1
102
RTVSPost2010PropOp30
 70
     1
102
RTVSPost2010Prop31
280
     0
102
RTVSPost2010PropOp31
 70
     1
102
RTVSPost2010Prop32
280
     0
102
RTVSPost2010PropOp32
 70
     1
102
RTVSPost2010Prop33
280
     0
102
RTVSPost2010PropOp33
 70
     1
102
RTVSPost2010Prop34
280
     0
102
RTVSPost2010PropOp34
 70
     1
102
RTVSPost2010Prop35
280
     0
102
RTVSPost2010PropOp35
 70
     1
102
RTVSPost2010Prop36
280
     0
102
RTVSPost2010PropOp36
 70
     1
102
RTVSPost2010Prop37
 90
       50
102
RTVSPost2010PropOp37
 70
     1
102
RTVSPost2010Prop38
140
0.0
102
RTVSPost2010PropOp38
 70
     1
102
RTVSPost2010Prop39
140
1.0
102
RTVSPost2010PropOp39
 70
     1
102
RTVSPost2010Prop40
 90
        0
102
RTVSPost2010PropOp40
 70
     1
102
RTVSPost2010Prop41ColorIndex
 90
       18
102
RTVSPost2010Prop41ColorRGB
 90
        0
102
RTVSPost2010PropOp41
 70
     1
102
RTVSPost2010Prop42
 90
       50
102
RTVSPost2010PropOp42
 70
     1
102
RTVSPost2010Prop43
 90
        3
102
RTVSPost2010PropOp43
 70
     1
102
RTVSPost2010Prop44ColorIndex
 90
        5
102
RTVSPost2010Prop44ColorRGB
 90
      255
102
RTVSPost2010PropOp44
 70
     1
102
RTVSPost2010Prop45
280
     0
102
RTVSPost2010PropOp45
 70
     1
102
RTVSPost2010Prop46
 90
       50
102
RTVSPost2010PropOp46
 70
     1
102
RTVSPost2010Prop47
 90
       50
102
RTVSPost2010PropOp47
 70
     1
102
RTVSPost2010Prop48
 90
       50
102
RTVSPost2010PropOp48
 70
     1
102
RTVSPost2010Prop49
280
     0
102
RTVSPost2010PropOp49
 70
     1
102
RTVSPost2010Prop50
 90
       50
102
RTVSPost2010PropOp50
 70
     1
102
RTVSPost2010Prop51ColorIndex
 90
      256
102
RTVSPost2010Prop51ColorRGB
 90
-16777216
102
RTVSPost2010PropOp51
 70
     0
102
RTVSPost2010Prop52
140
1.0
102
RTVSPost2010PropOp52
 70
     0
102
RTVSPost2010Prop53
 90
        2
102
RTVSPost2010PropOp53
 70
     1
102
RTVSPost2010Prop54
  1
strokes_ogs.tif
102
RTVSPost2010PropOp54
 70
     1
102
RTVSPost2010Prop55
280
     0
102
RTVSPost2010PropOp55
 70
     1
102
RTVSPost2010Prop56
140
1.0
102
RTVSPost2010PropOp56
 70
     1
102
RTVSPost2010Prop57
140
1.0
102
RTVSPost2010PropOp57
 70
     1
102
RTVSPropertyOp0
 70
     1
102
RTVSPropertyOp1
 70
     1
102
RTVSPropertyOp2
 70
     1
102
RTVSPropertyOp3
 70
     1
102
RTVSPropertyOp4
 70
     1
102
RTVSPropertyOp5
 70
     1
102
RTVSPropertyOp6
 70
     1
102
RTVSPropertyOp7
 70
     1
102
RTVSPropertyOp8
 70
     1
102
RTVSPropertyOp9
 70
     1
102
RTVSPropertyOp10
 70
     1
102
RTVSPropertyOp11
 70
     1
102
RTVSPropertyOp12
 70
     1
102
RTVSPropertyOp13
 70
     1
102
RTVSPropertyOp14
 70
     1
102
RTVSPropertyOp15
 70
     1
102
RTVSPropertyOp16
 70
     1
102
RTVSPropertyOp17
 70
     1
102
RTVSPropertyOp18
 70
     1
102
RTVSPropertyOp19
 70
     1
102
RTVSPropertyOp20
 70
     1
102
RTVSPropertyOp21
 70
     1
102
RTVSPropertyOp22
 70
     1
102
RTVSPropertyOp23
 70
     1
102
RTVSPropertyOp24
 70
     1
102
RTVSPropertyOp25
 70
     1
102
RTVSPropertyOp26
 70
     1
102
RTVSPropertyOp27
 70
     1
102
RTVSPropertyOp28
 70
     1
102
RTVSPropertyOp29
 70
     1
102
RTVSPropertyOp30
 70
     1
102
RTVSPropertyOp31
 70
     1
102
RTVSPropertyOp32
 70
     1
102
RTVSPropertyOp33
 70
     1
102
RTVSPropertyOp34
 70
     1
102
RTVSPropertyOp35
 70
     1
102
RTVSPropertyOp36
 70
     1
102
RTVSPropertyOp37
 70
     1
102
RTVSPropertyOp38
 70
     1
102
RTVSPropertyOp39
 70
     1
102
RTVSPropertyOp40
 70
     1
102
RTVSPropertyOp41
 70
     1
102
RTVSPropertyOp42
 70
     1
102
RTVSPropertyOp43
 70
     1
102
RTVSPropertyOp44
 70
     1
102
RTVSPropertyOp45
 70
     1
102
RTVSPropertyOp46
 70
     1
102
RTVSPropertyOp47
 70
     1
102
RTVSPropertyOp48
 70
     1
102
RTVSPropertyOp49
 70
     1
102
RTVSPropertyOp50
 70
     1
102
RTVSPropertyOp51
 70
     0
102
RTVSPropertyOp52
 70
     0
102
RTVSPropertyOp53
 70
     1
102
RTVSPropertyOp54
 70
     1
102
RTVSPropertyOp55
 70
     1
102
RTVSPropertyOp56
 70
     1
102
RTVSPropertyOp57
 70
     1
102
RTVSPropertyOp58
 70
     1
102
RTVSPropertyOp59
 70
     1
102
RTVSPropertyOp60
 70
     1
102
RTVSPropertyOp61
 70
     1
102
RTVSPropertyOp62
 70
     1
  0
XRECORD
  5
867C
102
{ACAD_REACTORS
330
867B
102
}
330
867B
100
AcDbXrecord
280
     1
102
RTVSPost2010Prop28
280
     0
102
RTVSPost2010PropOp28
 70
     1
102
RTVSPost2010Prop29
280
     1
102
RTVSPost2010PropOp29
 70
     1
102
RTVSPost2010Prop30
280
     1
102
RTVSPost2010PropOp30
 70
     1
102
RTVSPost2010Prop31
280
     0
102
RTVSPost2010PropOp31
 70
     1
102
RTVSPost2010Prop32
280
     0
102
RTVSPost2010PropOp32
 70
     1
102
RTVSPost2010Prop33
280
     0
102
RTVSPost2010PropOp33
 70
     1
102
RTVSPost2010Prop34
280
     0
102
RTVSPost2010PropOp34
 70
     1
102
RTVSPost2010Prop35
280
     0
102
RTVSPost2010PropOp35
 70
     1
102
RTVSPost2010Prop36
280
     0
102
RTVSPost2010PropOp36
 70
     1
102
RTVSPost2010Prop37
 90
       50
102
RTVSPost2010PropOp37
 70
     1
102
RTVSPost2010Prop38
140
0.0
102
RTVSPost2010PropOp38
 70
     1
102
RTVSPost2010Prop39
140
1.0
102
RTVSPost2010PropOp39
 70
     1
102
RTVSPost2010Prop40
 90
        0
102
RTVSPost2010PropOp40
 70
     1
102
RTVSPost2010Prop41ColorIndex
 90
       18
102
RTVSPost2010Prop41ColorRGB
 90
        0
102
RTVSPost2010PropOp41
 70
     1
102
RTVSPost2010Prop42
 90
       50
102
RTVSPost2010PropOp42
 70
     1
102
RTVSPost2010Prop43
 90
        3
102
RTVSPost2010PropOp43
 70
     1
102
RTVSPost2010Prop44ColorIndex
 90
        5
102
RTVSPost2010Prop44ColorRGB
 90
      255
102
RTVSPost2010PropOp44
 70
     1
102
RTVSPost2010Prop45
280
     0
102
RTVSPost2010PropOp45
 70
     1
102
RTVSPost2010Prop46
 90
       50
102
RTVSPost2010PropOp46
 70
     1
102
RTVSPost2010Prop47
 90
       50
102
RTVSPost2010PropOp47
 70
     1
102
RTVSPost2010Prop48
 90
       50
102
RTVSPost2010PropOp48
 70
     1
102
RTVSPost2010Prop49
280
     0
102
RTVSPost2010PropOp49
 70
     1
102
RTVSPost2010Prop50
 90
       50
102
RTVSPost2010PropOp50
 70
     1
102
RTVSPost2010Prop51ColorIndex
 90
      256
102
RTVSPost2010Prop51ColorRGB
 90
-16777216
102
RTVSPost2010PropOp51
 70
     0
102
RTVSPost2010Prop52
140
1.0
102
RTVSPost2010PropOp52
 70
     0
102
RTVSPost2010Prop53
 90
        2
102
RTVSPost2010PropOp53
 70
     1
102
RTVSPost2010Prop54
  1
strokes_ogs.tif
102
RTVSPost2010PropOp54
 70
     1
102
RTVSPost2010Prop55
280
     0
102
RTVSPost2010PropOp55
 70
     1
102
RTVSPost2010Prop56
140
1.0
102
RTVSPost2010PropOp56
 70
     1
102
RTVSPost2010Prop57
140
1.0
102
RTVSPost2010PropOp57
 70
     1
102
RTVSPropertyOp0
 70
     1
102
RTVSPropertyOp1
 70
     1
102
RTVSPropertyOp2
 70
     1
102
RTVSPropertyOp3
 70
     1
102
RTVSPropertyOp4
 70
     1
102
RTVSPropertyOp5
 70
     1
102
RTVSPropertyOp6
 70
     1
102
RTVSPropertyOp7
 70
     1
102
RTVSPropertyOp8
 70
     1
102
RTVSPropertyOp9
 70
     1
102
RTVSPropertyOp10
 70
     1
102
RTVSPropertyOp11
 70
     1
102
RTVSPropertyOp12
 70
     1
102
RTVSPropertyOp13
 70
     1
102
RTVSPropertyOp14
 70
     1
102
RTVSPropertyOp15
 70
     1
102
RTVSPropertyOp16
 70
     1
102
RTVSPropertyOp17
 70
     1
102
RTVSPropertyOp18
 70
     1
102
RTVSPropertyOp19
 70
     1
102
RTVSPropertyOp20
 70
     1
102
RTVSPropertyOp21
 70
     1
102
RTVSPropertyOp22
 70
     1
102
RTVSPropertyOp23
 70
     1
102
RTVSPropertyOp24
 70
     1
102
RTVSPropertyOp25
 70
     1
102
RTVSPropertyOp26
 70
     1
102
RTVSPropertyOp27
 70
     1
102
RTVSPropertyOp28
 70
     1
102
RTVSPropertyOp29
 70
     1
102
RTVSPropertyOp30
 70
     1
102
RTVSPropertyOp31
 70
     1
102
RTVSPropertyOp32
 70
     1
102
RTVSPropertyOp33
 70
     1
102
RTVSPropertyOp34
 70
     1
102
RTVSPropertyOp35
 70
     1
102
RTVSPropertyOp36
 70
     1
102
RTVSPropertyOp37
 70
     1
102
RTVSPropertyOp38
 70
     1
102
RTVSPropertyOp39
 70
     1
102
RTVSPropertyOp40
 70
     1
102
RTVSPropertyOp41
 70
     1
102
RTVSPropertyOp42
 70
     1
102
RTVSPropertyOp43
 70
     1
102
RTVSPropertyOp44
 70
     1
102
RTVSPropertyOp45
 70
     1
102
RTVSPropertyOp46
 70
     1
102
RTVSPropertyOp47
 70
     1
102
RTVSPropertyOp48
 70
     1
102
RTVSPropertyOp49
 70
     1
102
RTVSPropertyOp50
 70
     1
102
RTVSPropertyOp51
 70
     0
102
RTVSPropertyOp52
 70
     0
102
RTVSPropertyOp53
 70
     1
102
RTVSPropertyOp54
 70
     1
102
RTVSPropertyOp55
 70
     1
102
RTVSPropertyOp56
 70
     1
102
RTVSPropertyOp57
 70
     1
102
RTVSPropertyOp58
 70
     1
102
RTVSPropertyOp59
 70
     1
102
RTVSPropertyOp60
 70
     1
102
RTVSPropertyOp61
 70
     1
102
RTVSPropertyOp62
 70
     1
  0
XRECORD
  5
8684
102
{ACAD_REACTORS
330
8683
102
}
330
8683
100
AcDbXrecord
280
     1
102
RTVSPost2010Prop28
280
     0
102
RTVSPost2010PropOp28
 70
     1
102
RTVSPost2010Prop29
280
     1
102
RTVSPost2010PropOp29
 70
     1
102
RTVSPost2010Prop30
280
     1
102
RTVSPost2010PropOp30
 70
     1
102
RTVSPost2010Prop31
280
     0
102
RTVSPost2010PropOp31
 70
     1
102
RTVSPost2010Prop32
280
     0
102
RTVSPost2010PropOp32
 70
     1
102
RTVSPost2010Prop33
280
     0
102
RTVSPost2010PropOp33
 70
     1
102
RTVSPost2010Prop34
280
     0
102
RTVSPost2010PropOp34
 70
     1
102
RTVSPost2010Prop35
280
     0
102
RTVSPost2010PropOp35
 70
     1
102
RTVSPost2010Prop36
280
     0
102
RTVSPost2010PropOp36
 70
     1
102
RTVSPost2010Prop37
 90
       50
102
RTVSPost2010PropOp37
 70
     1
102
RTVSPost2010Prop38
140
0.0
102
RTVSPost2010PropOp38
 70
     1
102
RTVSPost2010Prop39
140
1.0
102
RTVSPost2010PropOp39
 70
     1
102
RTVSPost2010Prop40
 90
        0
102
RTVSPost2010PropOp40
 70
     1
102
RTVSPost2010Prop41ColorIndex
 90
       18
102
RTVSPost2010Prop41ColorRGB
 90
        0
102
RTVSPost2010PropOp41
 70
     1
102
RTVSPost2010Prop42
 90
       50
102
RTVSPost2010PropOp42
 70
     1
102
RTVSPost2010Prop43
 90
        3
102
RTVSPost2010PropOp43
 70
     1
102
RTVSPost2010Prop44ColorIndex
 90
        5
102
RTVSPost2010Prop44ColorRGB
 90
      255
102
RTVSPost2010PropOp44
 70
     1
102
RTVSPost2010Prop45
280
     0
102
RTVSPost2010PropOp45
 70
     1
102
RTVSPost2010Prop46
 90
       50
102
RTVSPost2010PropOp46
 70
     1
102
RTVSPost2010Prop47
 90
       50
102
RTVSPost2010PropOp47
 70
     1
102
RTVSPost2010Prop48
 90
       50
102
RTVSPost2010PropOp48
 70
     1
102
RTVSPost2010Prop49
280
     0
102
RTVSPost2010PropOp49
 70
     1
102
RTVSPost2010Prop50
 90
       50
102
RTVSPost2010PropOp50
 70
     1
102
RTVSPost2010Prop51ColorIndex
 90
      256
102
RTVSPost2010Prop51ColorRGB
 90
-16777216
102
RTVSPost2010PropOp51
 70
     0
102
RTVSPost2010Prop52
140
1.0
102
RTVSPost2010PropOp52
 70
     0
102
RTVSPost2010Prop53
 90
        2
102
RTVSPost2010PropOp53
 70
     1
102
RTVSPost2010Prop54
  1
strokes_ogs.tif
102
RTVSPost2010PropOp54
 70
     1
102
RTVSPost2010Prop55
280
     0
102
RTVSPost2010PropOp55
 70
     1
102
RTVSPost2010Prop56
140
1.0
102
RTVSPost2010PropOp56
 70
     1
102
RTVSPost2010Prop57
140
1.0
102
RTVSPost2010PropOp57
 70
     1
102
RTVSPropertyOp0
 70
     1
102
RTVSPropertyOp1
 70
     1
102
RTVSPropertyOp2
 70
     1
102
RTVSPropertyOp3
 70
     1
102
RTVSPropertyOp4
 70
     1
102
RTVSPropertyOp5
 70
     1
102
RTVSPropertyOp6
 70
     1
102
RTVSPropertyOp7
 70
     1
102
RTVSPropertyOp8
 70
     1
102
RTVSPropertyOp9
 70
     1
102
RTVSPropertyOp10
 70
     1
102
RTVSPropertyOp11
 70
     1
102
RTVSPropertyOp12
 70
     1
102
RTVSPropertyOp13
 70
     1
102
RTVSPropertyOp14
 70
     1
102
RTVSPropertyOp15
 70
     1
102
RTVSPropertyOp16
 70
     1
102
RTVSPropertyOp17
 70
     1
102
RTVSPropertyOp18
 70
     1
102
RTVSPropertyOp19
 70
     1
102
RTVSPropertyOp20
 70
     1
102
RTVSPropertyOp21
 70
     1
102
RTVSPropertyOp22
 70
     1
102
RTVSPropertyOp23
 70
     1
102
RTVSPropertyOp24
 70
     1
102
RTVSPropertyOp25
 70
     1
102
RTVSPropertyOp26
 70
     1
102
RTVSPropertyOp27
 70
     1
102
RTVSPropertyOp28
 70
     1
102
RTVSPropertyOp29
 70
     1
102
RTVSPropertyOp30
 70
     1
102
RTVSPropertyOp31
 70
     1
102
RTVSPropertyOp32
 70
     1
102
RTVSPropertyOp33
 70
     1
102
RTVSPropertyOp34
 70
     1
102
RTVSPropertyOp35
 70
     1
102
RTVSPropertyOp36
 70
     1
102
RTVSPropertyOp37
 70
     1
102
RTVSPropertyOp38
 70
     1
102
RTVSPropertyOp39
 70
     1
102
RTVSPropertyOp40
 70
     1
102
RTVSPropertyOp41
 70
     1
102
RTVSPropertyOp42
 70
     1
102
RTVSPropertyOp43
 70
     1
102
RTVSPropertyOp44
 70
     1
102
RTVSPropertyOp45
 70
     1
102
RTVSPropertyOp46
 70
     1
102
RTVSPropertyOp47
 70
     1
102
RTVSPropertyOp48
 70
     1
102
RTVSPropertyOp49
 70
     1
102
RTVSPropertyOp50
 70
     1
102
RTVSPropertyOp51
 70
     0
102
RTVSPropertyOp52
 70
     0
102
RTVSPropertyOp53
 70
     1
102
RTVSPropertyOp54
 70
     1
102
RTVSPropertyOp55
 70
     1
102
RTVSPropertyOp56
 70
     1
102
RTVSPropertyOp57
 70
     1
102
RTVSPropertyOp58
 70
     1
102
RTVSPropertyOp59
 70
     1
102
RTVSPropertyOp60
 70
     1
102
RTVSPropertyOp61
 70
     1
102
RTVSPropertyOp62
 70
     1
  0
XRECORD
  5
8676
102
{ACAD_REACTORS
330
8675
102
}
330
8675
100
AcDbXrecord
280
     1
102
RTVSPost2010Prop28
280
     0
102
RTVSPost2010PropOp28
 70
     1
102
RTVSPost2010Prop29
280
     1
102
RTVSPost2010PropOp29
 70
     1
102
RTVSPost2010Prop30
280
     1
102
RTVSPost2010PropOp30
 70
     1
102
RTVSPost2010Prop31
280
     0
102
RTVSPost2010PropOp31
 70
     1
102
RTVSPost2010Prop32
280
     0
102
RTVSPost2010PropOp32
 70
     1
102
RTVSPost2010Prop33
280
     0
102
RTVSPost2010PropOp33
 70
     1
102
RTVSPost2010Prop34
280
     0
102
RTVSPost2010PropOp34
 70
     1
102
RTVSPost2010Prop35
280
     0
102
RTVSPost2010PropOp35
 70
     1
102
RTVSPost2010Prop36
280
     0
102
RTVSPost2010PropOp36
 70
     1
102
RTVSPost2010Prop37
 90
       50
102
RTVSPost2010PropOp37
 70
     1
102
RTVSPost2010Prop38
140
0.0
102
RTVSPost2010PropOp38
 70
     1
102
RTVSPost2010Prop39
140
1.0
102
RTVSPost2010PropOp39
 70
     1
102
RTVSPost2010Prop40
 90
        0
102
RTVSPost2010PropOp40
 70
     1
102
RTVSPost2010Prop41ColorIndex
 90
       18
102
RTVSPost2010Prop41ColorRGB
 90
        0
102
RTVSPost2010PropOp41
 70
     1
102
RTVSPost2010Prop42
 90
       50
102
RTVSPost2010PropOp42
 70
     1
102
RTVSPost2010Prop43
 90
        3
102
RTVSPost2010PropOp43
 70
     1
102
RTVSPost2010Prop44ColorIndex
 90
        5
102
RTVSPost2010Prop44ColorRGB
 90
      255
102
RTVSPost2010PropOp44
 70
     1
102
RTVSPost2010Prop45
280
     0
102
RTVSPost2010PropOp45
 70
     1
102
RTVSPost2010Prop46
 90
       50
102
RTVSPost2010PropOp46
 70
     1
102
RTVSPost2010Prop47
 90
       50
102
RTVSPost2010PropOp47
 70
     1
102
RTVSPost2010Prop48
 90
       50
102
RTVSPost2010PropOp48
 70
     1
102
RTVSPost2010Prop49
280
     0
102
RTVSPost2010PropOp49
 70
     1
102
RTVSPost2010Prop50
 90
       50
102
RTVSPost2010PropOp50
 70
     1
102
RTVSPost2010Prop51ColorIndex
 90
      256
102
RTVSPost2010Prop51ColorRGB
 90
-16777216
102
RTVSPost2010PropOp51
 70
     0
102
RTVSPost2010Prop52
140
1.0
102
RTVSPost2010PropOp52
 70
     0
102
RTVSPost2010Prop53
 90
        2
102
RTVSPost2010PropOp53
 70
     1
102
RTVSPost2010Prop54
  1
strokes_ogs.tif
102
RTVSPost2010PropOp54
 70
     1
102
RTVSPost2010Prop55
280
     0
102
RTVSPost2010PropOp55
 70
     1
102
RTVSPost2010Prop56
140
1.0
102
RTVSPost2010PropOp56
 70
     1
102
RTVSPost2010Prop57
140
1.0
102
RTVSPost2010PropOp57
 70
     1
102
RTVSPropertyOp0
 70
     1
102
RTVSPropertyOp1
 70
     1
102
RTVSPropertyOp2
 70
     1
102
RTVSPropertyOp3
 70
     1
102
RTVSPropertyOp4
 70
     1
102
RTVSPropertyOp5
 70
     1
102
RTVSPropertyOp6
 70
     1
102
RTVSPropertyOp7
 70
     1
102
RTVSPropertyOp8
 70
     1
102
RTVSPropertyOp9
 70
     1
102
RTVSPropertyOp10
 70
     1
102
RTVSPropertyOp11
 70
     1
102
RTVSPropertyOp12
 70
     1
102
RTVSPropertyOp13
 70
     1
102
RTVSPropertyOp14
 70
     1
102
RTVSPropertyOp15
 70
     1
102
RTVSPropertyOp16
 70
     1
102
RTVSPropertyOp17
 70
     1
102
RTVSPropertyOp18
 70
     1
102
RTVSPropertyOp19
 70
     1
102
RTVSPropertyOp20
 70
     1
102
RTVSPropertyOp21
 70
     1
102
RTVSPropertyOp22
 70
     1
102
RTVSPropertyOp23
 70
     1
102
RTVSPropertyOp24
 70
     1
102
RTVSPropertyOp25
 70
     1
102
RTVSPropertyOp26
 70
     1
102
RTVSPropertyOp27
 70
     1
102
RTVSPropertyOp28
 70
     1
102
RTVSPropertyOp29
 70
     1
102
RTVSPropertyOp30
 70
     1
102
RTVSPropertyOp31
 70
     1
102
RTVSPropertyOp32
 70
     1
102
RTVSPropertyOp33
 70
     1
102
RTVSPropertyOp34
 70
     1
102
RTVSPropertyOp35
 70
     1
102
RTVSPropertyOp36
 70
     1
102
RTVSPropertyOp37
 70
     1
102
RTVSPropertyOp38
 70
     1
102
RTVSPropertyOp39
 70
     1
102
RTVSPropertyOp40
 70
     1
102
RTVSPropertyOp41
 70
     1
102
RTVSPropertyOp42
 70
     1
102
RTVSPropertyOp43
 70
     1
102
RTVSPropertyOp44
 70
     1
102
RTVSPropertyOp45
 70
     1
102
RTVSPropertyOp46
 70
     1
102
RTVSPropertyOp47
 70
     1
102
RTVSPropertyOp48
 70
     1
102
RTVSPropertyOp49
 70
     1
102
RTVSPropertyOp50
 70
     1
102
RTVSPropertyOp51
 70
     0
102
RTVSPropertyOp52
 70
     0
102
RTVSPropertyOp53
 70
     1
102
RTVSPropertyOp54
 70
     1
102
RTVSPropertyOp55
 70
     1
102
RTVSPropertyOp56
 70
     1
102
RTVSPropertyOp57
 70
     1
102
RTVSPropertyOp58
 70
     1
102
RTVSPropertyOp59
 70
     1
102
RTVSPropertyOp60
 70
     1
102
RTVSPropertyOp61
 70
     1
102
RTVSPropertyOp62
 70
     1
  0
XRECORD
  5
867A
102
{ACAD_REACTORS
330
8679
102
}
330
8679
100
AcDbXrecord
280
     1
102
RTVSPost2010Prop28
280
     0
102
RTVSPost2010PropOp28
 70
     1
102
RTVSPost2010Prop29
280
     1
102
RTVSPost2010PropOp29
 70
     1
102
RTVSPost2010Prop30
280
     1
102
RTVSPost2010PropOp30
 70
     1
102
RTVSPost2010Prop31
280
     0
102
RTVSPost2010PropOp31
 70
     1
102
RTVSPost2010Prop32
280
     0
102
RTVSPost2010PropOp32
 70
     1
102
RTVSPost2010Prop33
280
     0
102
RTVSPost2010PropOp33
 70
     1
102
RTVSPost2010Prop34
280
     0
102
RTVSPost2010PropOp34
 70
     1
102
RTVSPost2010Prop35
280
     0
102
RTVSPost2010PropOp35
 70
     1
102
RTVSPost2010Prop36
280
     0
102
RTVSPost2010PropOp36
 70
     1
102
RTVSPost2010Prop37
 90
       50
102
RTVSPost2010PropOp37
 70
     1
102
RTVSPost2010Prop38
140
0.0
102
RTVSPost2010PropOp38
 70
     1
102
RTVSPost2010Prop39
140
1.0
102
RTVSPost2010PropOp39
 70
     1
102
RTVSPost2010Prop40
 90
        0
102
RTVSPost2010PropOp40
 70
     1
102
RTVSPost2010Prop41ColorIndex
 90
       18
102
RTVSPost2010Prop41ColorRGB
 90
        0
102
RTVSPost2010PropOp41
 70
     1
102
RTVSPost2010Prop42
 90
       50
102
RTVSPost2010PropOp42
 70
     1
102
RTVSPost2010Prop43
 90
        3
102
RTVSPost2010PropOp43
 70
     1
102
RTVSPost2010Prop44ColorIndex
 90
        5
102
RTVSPost2010Prop44ColorRGB
 90
      255
102
RTVSPost2010PropOp44
 70
     1
102
RTVSPost2010Prop45
280
     0
102
RTVSPost2010PropOp45
 70
     1
102
RTVSPost2010Prop46
 90
       50
102
RTVSPost2010PropOp46
 70
     1
102
RTVSPost2010Prop47
 90
       50
102
RTVSPost2010PropOp47
 70
     1
102
RTVSPost2010Prop48
 90
       50
102
RTVSPost2010PropOp48
 70
     1
102
RTVSPost2010Prop49
280
     0
102
RTVSPost2010PropOp49
 70
     1
102
RTVSPost2010Prop50
 90
       50
102
RTVSPost2010PropOp50
 70
     1
102
RTVSPost2010Prop51ColorIndex
 90
      256
102
RTVSPost2010Prop51ColorRGB
 90
-16777216
102
RTVSPost2010PropOp51
 70
     0
102
RTVSPost2010Prop52
140
1.0
102
RTVSPost2010PropOp52
 70
     0
102
RTVSPost2010Prop53
 90
        2
102
RTVSPost2010PropOp53
 70
     1
102
RTVSPost2010Prop54
  1
strokes_ogs.tif
102
RTVSPost2010PropOp54
 70
     1
102
RTVSPost2010Prop55
280
     0
102
RTVSPost2010PropOp55
 70
     1
102
RTVSPost2010Prop56
140
1.0
102
RTVSPost2010PropOp56
 70
     1
102
RTVSPost2010Prop57
140
1.0
102
RTVSPost2010PropOp57
 70
     1
102
RTVSPropertyOp0
 70
     1
102
RTVSPropertyOp1
 70
     1
102
RTVSPropertyOp2
 70
     1
102
RTVSPropertyOp3
 70
     1
102
RTVSPropertyOp4
 70
     1
102
RTVSPropertyOp5
 70
     1
102
RTVSPropertyOp6
 70
     1
102
RTVSPropertyOp7
 70
     1
102
RTVSPropertyOp8
 70
     1
102
RTVSPropertyOp9
 70
     1
102
RTVSPropertyOp10
 70
     1
102
RTVSPropertyOp11
 70
     1
102
RTVSPropertyOp12
 70
     1
102
RTVSPropertyOp13
 70
     1
102
RTVSPropertyOp14
 70
     1
102
RTVSPropertyOp15
 70
     1
102
RTVSPropertyOp16
 70
     1
102
RTVSPropertyOp17
 70
     1
102
RTVSPropertyOp18
 70
     1
102
RTVSPropertyOp19
 70
     1
102
RTVSPropertyOp20
 70
     1
102
RTVSPropertyOp21
 70
     1
102
RTVSPropertyOp22
 70
     1
102
RTVSPropertyOp23
 70
     1
102
RTVSPropertyOp24
 70
     1
102
RTVSPropertyOp25
 70
     1
102
RTVSPropertyOp26
 70
     1
102
RTVSPropertyOp27
 70
     1
102
RTVSPropertyOp28
 70
     1
102
RTVSPropertyOp29
 70
     1
102
RTVSPropertyOp30
 70
     1
102
RTVSPropertyOp31
 70
     1
102
RTVSPropertyOp32
 70
     1
102
RTVSPropertyOp33
 70
     1
102
RTVSPropertyOp34
 70
     1
102
RTVSPropertyOp35
 70
     1
102
RTVSPropertyOp36
 70
     1
102
RTVSPropertyOp37
 70
     1
102
RTVSPropertyOp38
 70
     1
102
RTVSPropertyOp39
 70
     1
102
RTVSPropertyOp40
 70
     1
102
RTVSPropertyOp41
 70
     1
102
RTVSPropertyOp42
 70
     1
102
RTVSPropertyOp43
 70
     1
102
RTVSPropertyOp44
 70
     1
102
RTVSPropertyOp45
 70
     1
102
RTVSPropertyOp46
 70
     1
102
RTVSPropertyOp47
 70
     1
102
RTVSPropertyOp48
 70
     1
102
RTVSPropertyOp49
 70
     1
102
RTVSPropertyOp50
 70
     1
102
RTVSPropertyOp51
 70
     0
102
RTVSPropertyOp52
 70
     0
102
RTVSPropertyOp53
 70
     1
102
RTVSPropertyOp54
 70
     1
102
RTVSPropertyOp55
 70
     1
102
RTVSPropertyOp56
 70
     1
102
RTVSPropertyOp57
 70
     1
102
RTVSPropertyOp58
 70
     1
102
RTVSPropertyOp59
 70
     1
102
RTVSPropertyOp60
 70
     1
102
RTVSPropertyOp61
 70
     1
102
RTVSPropertyOp62
 70
     1
  0
XRECORD
  5
8699
102
{ACAD_REACTORS
330
8698
102
}
330
8698
100
AcDbXrecord
280
     1
102
RTVSPost2010Prop28
280
     0
102
RTVSPost2010PropOp28
 70
     1
102
RTVSPost2010Prop29
280
     1
102
RTVSPost2010PropOp29
 70
     1
102
RTVSPost2010Prop30
280
     1
102
RTVSPost2010PropOp30
 70
     1
102
RTVSPost2010Prop31
280
     0
102
RTVSPost2010PropOp31
 70
     1
102
RTVSPost2010Prop32
280
     0
102
RTVSPost2010PropOp32
 70
     1
102
RTVSPost2010Prop33
280
     0
102
RTVSPost2010PropOp33
 70
     1
102
RTVSPost2010Prop34
280
     0
102
RTVSPost2010PropOp34
 70
     1
102
RTVSPost2010Prop35
280
     0
102
RTVSPost2010PropOp35
 70
     1
102
RTVSPost2010Prop36
280
     0
102
RTVSPost2010PropOp36
 70
     1
102
RTVSPost2010Prop37
 90
       50
102
RTVSPost2010PropOp37
 70
     1
102
RTVSPost2010Prop38
140
0.0
102
RTVSPost2010PropOp38
 70
     1
102
RTVSPost2010Prop39
140
1.0
102
RTVSPost2010PropOp39
 70
     1
102
RTVSPost2010Prop40
 90
        0
102
RTVSPost2010PropOp40
 70
     1
102
RTVSPost2010Prop41ColorIndex
 90
       18
102
RTVSPost2010Prop41ColorRGB
 90
        0
102
RTVSPost2010PropOp41
 70
     1
102
RTVSPost2010Prop42
 90
       50
102
RTVSPost2010PropOp42
 70
     1
102
RTVSPost2010Prop43
 90
        3
102
RTVSPost2010PropOp43
 70
     1
102
RTVSPost2010Prop44ColorIndex
 90
        5
102
RTVSPost2010Prop44ColorRGB
 90
      255
102
RTVSPost2010PropOp44
 70
     1
102
RTVSPost2010Prop45
280
     0
102
RTVSPost2010PropOp45
 70
     1
102
RTVSPost2010Prop46
 90
       50
102
RTVSPost2010PropOp46
 70
     1
102
RTVSPost2010Prop47
 90
       50
102
RTVSPost2010PropOp47
 70
     1
102
RTVSPost2010Prop48
 90
       50
102
RTVSPost2010PropOp48
 70
     1
102
RTVSPost2010Prop49
280
     0
102
RTVSPost2010PropOp49
 70
     1
102
RTVSPost2010Prop50
 90
       50
102
RTVSPost2010PropOp50
 70
     1
102
RTVSPost2010Prop51ColorIndex
 90
      256
102
RTVSPost2010Prop51ColorRGB
 90
-16777216
102
RTVSPost2010PropOp51
 70
     0
102
RTVSPost2010Prop52
140
1.0
102
RTVSPost2010PropOp52
 70
     0
102
RTVSPost2010Prop53
 90
        2
102
RTVSPost2010PropOp53
 70
     1
102
RTVSPost2010Prop54
  1
strokes_ogs.tif
102
RTVSPost2010PropOp54
 70
     1
102
RTVSPost2010Prop55
280
     0
102
RTVSPost2010PropOp55
 70
     1
102
RTVSPost2010Prop56
140
1.0
102
RTVSPost2010PropOp56
 70
     1
102
RTVSPost2010Prop57
140
1.0
102
RTVSPost2010PropOp57
 70
     1
102
RTVSPropertyOp0
 70
     0
102
RTVSPropertyOp1
 70
     0
102
RTVSPropertyOp2
 70
     0
102
RTVSPropertyOp3
 70
     0
102
RTVSPropertyOp4
 70
     0
102
RTVSPropertyOp5
 70
     0
102
RTVSPropertyOp6
 70
     0
102
RTVSPropertyOp7
 70
     0
102
RTVSPropertyOp8
 70
     0
102
RTVSPropertyOp9
 70
     0
102
RTVSPropertyOp10
 70
     0
102
RTVSPropertyOp11
 70
     0
102
RTVSPropertyOp12
 70
     0
102
RTVSPropertyOp13
 70
     0
102
RTVSPropertyOp14
 70
     2
102
RTVSPropertyOp15
 70
     0
102
RTVSPropertyOp16
 70
     0
102
RTVSPropertyOp17
 70
     0
102
RTVSPropertyOp18
 70
     0
102
RTVSPropertyOp19
 70
     0
102
RTVSPropertyOp20
 70
     0
102
RTVSPropertyOp21
 70
     0
102
RTVSPropertyOp22
 70
     0
102
RTVSPropertyOp23
 70
     0
102
RTVSPropertyOp24
 70
     0
102
RTVSPropertyOp25
 70
     0
102
RTVSPropertyOp26
 70
     0
102
RTVSPropertyOp27
 70
     0
102
RTVSPropertyOp28
 70
     1
102
RTVSPropertyOp29
 70
     1
102
RTVSPropertyOp30
 70
     1
102
RTVSPropertyOp31
 70
     1
102
RTVSPropertyOp32
 70
     1
102
RTVSPropertyOp33
 70
     1
102
RTVSPropertyOp34
 70
     1
102
RTVSPropertyOp35
 70
     1
102
RTVSPropertyOp36
 70
     1
102
RTVSPropertyOp37
 70
     1
102
RTVSPropertyOp38
 70
     1
102
RTVSPropertyOp39
 70
     1
102
RTVSPropertyOp40
 70
     1
102
RTVSPropertyOp41
 70
     1
102
RTVSPropertyOp42
 70
     1
102
RTVSPropertyOp43
 70
     1
102
RTVSPropertyOp44
 70
     1
102
RTVSPropertyOp45
 70
     1
102
RTVSPropertyOp46
 70
     1
102
RTVSPropertyOp47
 70
     1
102
RTVSPropertyOp48
 70
     1
102
RTVSPropertyOp49
 70
     1
102
RTVSPropertyOp50
 70
     1
102
RTVSPropertyOp51
 70
     0
102
RTVSPropertyOp52
 70
     0
102
RTVSPropertyOp53
 70
     1
102
RTVSPropertyOp54
 70
     1
102
RTVSPropertyOp55
 70
     1
102
RTVSPropertyOp56
 70
     1
102
RTVSPropertyOp57
 70
     1
102
RTVSPropertyOp58
 70
     1
102
RTVSPropertyOp59
 70
     1
102
RTVSPropertyOp60
 70
     1
102
RTVSPropertyOp61
 70
     1
102
RTVSPropertyOp62
 70
     1
  0
XRECORD
  5
8682
102
{ACAD_REACTORS
330
8681
102
}
330
8681
100
AcDbXrecord
280
     1
102
RTVSPost2010Prop28
280
     0
102
RTVSPost2010PropOp28
 70
     1
102
RTVSPost2010Prop29
280
     1
102
RTVSPost2010PropOp29
 70
     1
102
RTVSPost2010Prop30
280
     1
102
RTVSPost2010PropOp30
 70
     1
102
RTVSPost2010Prop31
280
     0
102
RTVSPost2010PropOp31
 70
     1
102
RTVSPost2010Prop32
280
     0
102
RTVSPost2010PropOp32
 70
     1
102
RTVSPost2010Prop33
280
     0
102
RTVSPost2010PropOp33
 70
     1
102
RTVSPost2010Prop34
280
     0
102
RTVSPost2010PropOp34
 70
     1
102
RTVSPost2010Prop35
280
     0
102
RTVSPost2010PropOp35
 70
     1
102
RTVSPost2010Prop36
280
     0
102
RTVSPost2010PropOp36
 70
     1
102
RTVSPost2010Prop37
 90
       50
102
RTVSPost2010PropOp37
 70
     1
102
RTVSPost2010Prop38
140
0.0
102
RTVSPost2010PropOp38
 70
     1
102
RTVSPost2010Prop39
140
1.0
102
RTVSPost2010PropOp39
 70
     1
102
RTVSPost2010Prop40
 90
        0
102
RTVSPost2010PropOp40
 70
     1
102
RTVSPost2010Prop41ColorIndex
 90
       18
102
RTVSPost2010Prop41ColorRGB
 90
        0
102
RTVSPost2010PropOp41
 70
     1
102
RTVSPost2010Prop42
 90
       50
102
RTVSPost2010PropOp42
 70
     1
102
RTVSPost2010Prop43
 90
        3
102
RTVSPost2010PropOp43
 70
     1
102
RTVSPost2010Prop44ColorIndex
 90
        5
102
RTVSPost2010Prop44ColorRGB
 90
      255
102
RTVSPost2010PropOp44
 70
     1
102
RTVSPost2010Prop45
280
     0
102
RTVSPost2010PropOp45
 70
     1
102
RTVSPost2010Prop46
 90
       50
102
RTVSPost2010PropOp46
 70
     1
102
RTVSPost2010Prop47
 90
       50
102
RTVSPost2010PropOp47
 70
     1
102
RTVSPost2010Prop48
 90
       50
102
RTVSPost2010PropOp48
 70
     1
102
RTVSPost2010Prop49
280
     0
102
RTVSPost2010PropOp49
 70
     1
102
RTVSPost2010Prop50
 90
       50
102
RTVSPost2010PropOp50
 70
     1
102
RTVSPost2010Prop51ColorIndex
 90
      256
102
RTVSPost2010Prop51ColorRGB
 90
-16777216
102
RTVSPost2010PropOp51
 70
     0
102
RTVSPost2010Prop52
140
1.0
102
RTVSPost2010PropOp52
 70
     0
102
RTVSPost2010Prop53
 90
        2
102
RTVSPost2010PropOp53
 70
     1
102
RTVSPost2010Prop54
  1
strokes_ogs.tif
102
RTVSPost2010PropOp54
 70
     1
102
RTVSPost2010Prop55
280
     0
102
RTVSPost2010PropOp55
 70
     1
102
RTVSPost2010Prop56
140
1.0
102
RTVSPost2010PropOp56
 70
     1
102
RTVSPost2010Prop57
140
1.0
102
RTVSPost2010PropOp57
 70
     1
102
RTVSPropertyOp0
 70
     1
102
RTVSPropertyOp1
 70
     1
102
RTVSPropertyOp2
 70
     1
102
RTVSPropertyOp3
 70
     1
102
RTVSPropertyOp4
 70
     1
102
RTVSPropertyOp5
 70
     1
102
RTVSPropertyOp6
 70
     1
102
RTVSPropertyOp7
 70
     1
102
RTVSPropertyOp8
 70
     1
102
RTVSPropertyOp9
 70
     1
102
RTVSPropertyOp10
 70
     1
102
RTVSPropertyOp11
 70
     1
102
RTVSPropertyOp12
 70
     1
102
RTVSPropertyOp13
 70
     1
102
RTVSPropertyOp14
 70
     1
102
RTVSPropertyOp15
 70
     1
102
RTVSPropertyOp16
 70
     1
102
RTVSPropertyOp17
 70
     1
102
RTVSPropertyOp18
 70
     1
102
RTVSPropertyOp19
 70
     1
102
RTVSPropertyOp20
 70
     1
102
RTVSPropertyOp21
 70
     1
102
RTVSPropertyOp22
 70
     1
102
RTVSPropertyOp23
 70
     1
102
RTVSPropertyOp24
 70
     1
102
RTVSPropertyOp25
 70
     1
102
RTVSPropertyOp26
 70
     1
102
RTVSPropertyOp27
 70
     1
102
RTVSPropertyOp28
 70
     1
102
RTVSPropertyOp29
 70
     1
102
RTVSPropertyOp30
 70
     1
102
RTVSPropertyOp31
 70
     1
102
RTVSPropertyOp32
 70
     1
102
RTVSPropertyOp33
 70
     1
102
RTVSPropertyOp34
 70
     1
102
RTVSPropertyOp35
 70
     1
102
RTVSPropertyOp36
 70
     1
102
RTVSPropertyOp37
 70
     1
102
RTVSPropertyOp38
 70
     1
102
RTVSPropertyOp39
 70
     1
102
RTVSPropertyOp40
 70
     1
102
RTVSPropertyOp41
 70
     1
102
RTVSPropertyOp42
 70
     1
102
RTVSPropertyOp43
 70
     1
102
RTVSPropertyOp44
 70
     1
102
RTVSPropertyOp45
 70
     1
102
RTVSPropertyOp46
 70
     1
102
RTVSPropertyOp47
 70
     1
102
RTVSPropertyOp48
 70
     1
102
RTVSPropertyOp49
 70
     1
102
RTVSPropertyOp50
 70
     1
102
RTVSPropertyOp51
 70
     0
102
RTVSPropertyOp52
 70
     0
102
RTVSPropertyOp53
 70
     1
102
RTVSPropertyOp54
 70
     1
102
RTVSPropertyOp55
 70
     1
102
RTVSPropertyOp56
 70
     1
102
RTVSPropertyOp57
 70
     1
102
RTVSPropertyOp58
 70
     1
102
RTVSPropertyOp59
 70
     1
102
RTVSPropertyOp60
 70
     1
102
RTVSPropertyOp61
 70
     1
102
RTVSPropertyOp62
 70
     1
  0
XRECORD
  5
8666
102
{ACAD_REACTORS
330
8665
102
}
330
8665
100
AcDbXrecord
280
     1
102
RTVSPost2010Prop28
280
     0
102
RTVSPost2010PropOp28
 70
     1
102
RTVSPost2010Prop29
280
     1
102
RTVSPost2010PropOp29
 70
     1
102
RTVSPost2010Prop30
280
     1
102
RTVSPost2010PropOp30
 70
     1
102
RTVSPost2010Prop31
280
     0
102
RTVSPost2010PropOp31
 70
     1
102
RTVSPost2010Prop32
280
     0
102
RTVSPost2010PropOp32
 70
     1
102
RTVSPost2010Prop33
280
     0
102
RTVSPost2010PropOp33
 70
     1
102
RTVSPost2010Prop34
280
     0
102
RTVSPost2010PropOp34
 70
     1
102
RTVSPost2010Prop35
280
     0
102
RTVSPost2010PropOp35
 70
     1
102
RTVSPost2010Prop36
280
     0
102
RTVSPost2010PropOp36
 70
     1
102
RTVSPost2010Prop37
 90
       50
102
RTVSPost2010PropOp37
 70
     1
102
RTVSPost2010Prop38
140
0.0
102
RTVSPost2010PropOp38
 70
     1
102
RTVSPost2010Prop39
140
1.0
102
RTVSPost2010PropOp39
 70
     1
102
RTVSPost2010Prop40
 90
        0
102
RTVSPost2010PropOp40
 70
     1
102
RTVSPost2010Prop41ColorIndex
 90
       18
102
RTVSPost2010Prop41ColorRGB
 90
        0
102
RTVSPost2010PropOp41
 70
     1
102
RTVSPost2010Prop42
 90
       50
102
RTVSPost2010PropOp42
 70
     1
102
RTVSPost2010Prop43
 90
        3
102
RTVSPost2010PropOp43
 70
     1
102
RTVSPost2010Prop44ColorIndex
 90
        5
102
RTVSPost2010Prop44ColorRGB
 90
      255
102
RTVSPost2010PropOp44
 70
     1
102
RTVSPost2010Prop45
280
     0
102
RTVSPost2010PropOp45
 70
     1
102
RTVSPost2010Prop46
 90
       50
102
RTVSPost2010PropOp46
 70
     1
102
RTVSPost2010Prop47
 90
       50
102
RTVSPost2010PropOp47
 70
     1
102
RTVSPost2010Prop48
 90
       50
102
RTVSPost2010PropOp48
 70
     1
102
RTVSPost2010Prop49
280
     0
102
RTVSPost2010PropOp49
 70
     1
102
RTVSPost2010Prop50
 90
       50
102
RTVSPost2010PropOp50
 70
     1
102
RTVSPost2010Prop51ColorIndex
 90
      256
102
RTVSPost2010Prop51ColorRGB
 90
-16777216
102
RTVSPost2010PropOp51
 70
     0
102
RTVSPost2010Prop52
140
1.0
102
RTVSPost2010PropOp52
 70
     0
102
RTVSPost2010Prop53
 90
        2
102
RTVSPost2010PropOp53
 70
     1
102
RTVSPost2010Prop54
  1
strokes_ogs.tif
102
RTVSPost2010PropOp54
 70
     1
102
RTVSPost2010Prop55
280
     0
102
RTVSPost2010PropOp55
 70
     1
102
RTVSPost2010Prop56
140
1.0
102
RTVSPost2010PropOp56
 70
     1
102
RTVSPost2010Prop57
140
1.0
102
RTVSPost2010PropOp57
 70
     1
102
RTVSPropertyOp0
 70
     1
102
RTVSPropertyOp1
 70
     1
102
RTVSPropertyOp2
 70
     1
102
RTVSPropertyOp3
 70
     1
102
RTVSPropertyOp4
 70
     1
102
RTVSPropertyOp5
 70
     1
102
RTVSPropertyOp6
 70
     1
102
RTVSPropertyOp7
 70
     1
102
RTVSPropertyOp8
 70
     1
102
RTVSPropertyOp9
 70
     1
102
RTVSPropertyOp10
 70
     1
102
RTVSPropertyOp11
 70
     1
102
RTVSPropertyOp12
 70
     1
102
RTVSPropertyOp13
 70
     1
102
RTVSPropertyOp14
 70
     1
102
RTVSPropertyOp15
 70
     1
102
RTVSPropertyOp16
 70
     1
102
RTVSPropertyOp17
 70
     1
102
RTVSPropertyOp18
 70
     1
102
RTVSPropertyOp19
 70
     1
102
RTVSPropertyOp20
 70
     1
102
RTVSPropertyOp21
 70
     1
102
RTVSPropertyOp22
 70
     1
102
RTVSPropertyOp23
 70
     1
102
RTVSPropertyOp24
 70
     1
102
RTVSPropertyOp25
 70
     1
102
RTVSPropertyOp26
 70
     1
102
RTVSPropertyOp27
 70
     1
102
RTVSPropertyOp28
 70
     1
102
RTVSPropertyOp29
 70
     1
102
RTVSPropertyOp30
 70
     1
102
RTVSPropertyOp31
 70
     1
102
RTVSPropertyOp32
 70
     1
102
RTVSPropertyOp33
 70
     1
102
RTVSPropertyOp34
 70
     1
102
RTVSPropertyOp35
 70
     1
102
RTVSPropertyOp36
 70
     1
102
RTVSPropertyOp37
 70
     1
102
RTVSPropertyOp38
 70
     1
102
RTVSPropertyOp39
 70
     1
102
RTVSPropertyOp40
 70
     1
102
RTVSPropertyOp41
 70
     1
102
RTVSPropertyOp42
 70
     1
102
RTVSPropertyOp43
 70
     1
102
RTVSPropertyOp44
 70
     1
102
RTVSPropertyOp45
 70
     1
102
RTVSPropertyOp46
 70
     1
102
RTVSPropertyOp47
 70
     1
102
RTVSPropertyOp48
 70
     1
102
RTVSPropertyOp49
 70
     1
102
RTVSPropertyOp50
 70
     1
102
RTVSPropertyOp51
 70
     0
102
RTVSPropertyOp52
 70
     0
102
RTVSPropertyOp53
 70
     1
102
RTVSPropertyOp54
 70
     1
102
RTVSPropertyOp55
 70
     1
102
RTVSPropertyOp56
 70
     1
102
RTVSPropertyOp57
 70
     1
102
RTVSPropertyOp58
 70
     1
102
RTVSPropertyOp59
 70
     1
102
RTVSPropertyOp60
 70
     1
102
RTVSPropertyOp61
 70
     1
102
RTVSPropertyOp62
 70
     1
  0
XRECORD
  5
8668
102
{ACAD_REACTORS
330
8667
102
}
330
8667
100
AcDbXrecord
280
     1
102
RTVSPost2010Prop28
280
     0
102
RTVSPost2010PropOp28
 70
     1
102
RTVSPost2010Prop29
280
     1
102
RTVSPost2010PropOp29
 70
     1
102
RTVSPost2010Prop30
280
     1
102
RTVSPost2010PropOp30
 70
     1
102
RTVSPost2010Prop31
280
     0
102
RTVSPost2010PropOp31
 70
     1
102
RTVSPost2010Prop32
280
     0
102
RTVSPost2010PropOp32
 70
     1
102
RTVSPost2010Prop33
280
     0
102
RTVSPost2010PropOp33
 70
     1
102
RTVSPost2010Prop34
280
     0
102
RTVSPost2010PropOp34
 70
     1
102
RTVSPost2010Prop35
280
     0
102
RTVSPost2010PropOp35
 70
     1
102
RTVSPost2010Prop36
280
     0
102
RTVSPost2010PropOp36
 70
     1
102
RTVSPost2010Prop37
 90
       50
102
RTVSPost2010PropOp37
 70
     1
102
RTVSPost2010Prop38
140
0.0
102
RTVSPost2010PropOp38
 70
     1
102
RTVSPost2010Prop39
140
1.0
102
RTVSPost2010PropOp39
 70
     1
102
RTVSPost2010Prop40
 90
        0
102
RTVSPost2010PropOp40
 70
     1
102
RTVSPost2010Prop41ColorIndex
 90
       18
102
RTVSPost2010Prop41ColorRGB
 90
        0
102
RTVSPost2010PropOp41
 70
     1
102
RTVSPost2010Prop42
 90
       50
102
RTVSPost2010PropOp42
 70
     1
102
RTVSPost2010Prop43
 90
        3
102
RTVSPost2010PropOp43
 70
     1
102
RTVSPost2010Prop44ColorIndex
 90
        5
102
RTVSPost2010Prop44ColorRGB
 90
      255
102
RTVSPost2010PropOp44
 70
     1
102
RTVSPost2010Prop45
280
     0
102
RTVSPost2010PropOp45
 70
     1
102
RTVSPost2010Prop46
 90
       50
102
RTVSPost2010PropOp46
 70
     1
102
RTVSPost2010Prop47
 90
       50
102
RTVSPost2010PropOp47
 70
     1
102
RTVSPost2010Prop48
 90
       50
102
RTVSPost2010PropOp48
 70
     1
102
RTVSPost2010Prop49
280
     0
102
RTVSPost2010PropOp49
 70
     1
102
RTVSPost2010Prop50
 90
       50
102
RTVSPost2010PropOp50
 70
     1
102
RTVSPost2010Prop51ColorIndex
 90
      256
102
RTVSPost2010Prop51ColorRGB
 90
-16777216
102
RTVSPost2010PropOp51
 70
     0
102
RTVSPost2010Prop52
140
1.0
102
RTVSPost2010PropOp52
 70
     0
102
RTVSPost2010Prop53
 90
        2
102
RTVSPost2010PropOp53
 70
     1
102
RTVSPost2010Prop54
  1
strokes_ogs.tif
102
RTVSPost2010PropOp54
 70
     1
102
RTVSPost2010Prop55
280
     0
102
RTVSPost2010PropOp55
 70
     1
102
RTVSPost2010Prop56
140
1.0
102
RTVSPost2010PropOp56
 70
     1
102
RTVSPost2010Prop57
140
1.0
102
RTVSPost2010PropOp57
 70
     1
102
RTVSPropertyOp0
 70
     1
102
RTVSPropertyOp1
 70
     1
102
RTVSPropertyOp2
 70
     1
102
RTVSPropertyOp3
 70
     1
102
RTVSPropertyOp4
 70
     1
102
RTVSPropertyOp5
 70
     1
102
RTVSPropertyOp6
 70
     1
102
RTVSPropertyOp7
 70
     1
102
RTVSPropertyOp8
 70
     1
102
RTVSPropertyOp9
 70
     1
102
RTVSPropertyOp10
 70
     1
102
RTVSPropertyOp11
 70
     1
102
RTVSPropertyOp12
 70
     1
102
RTVSPropertyOp13
 70
     1
102
RTVSPropertyOp14
 70
     1
102
RTVSPropertyOp15
 70
     1
102
RTVSPropertyOp16
 70
     1
102
RTVSPropertyOp17
 70
     1
102
RTVSPropertyOp18
 70
     1
102
RTVSPropertyOp19
 70
     1
102
RTVSPropertyOp20
 70
     1
102
RTVSPropertyOp21
 70
     1
102
RTVSPropertyOp22
 70
     1
102
RTVSPropertyOp23
 70
     1
102
RTVSPropertyOp24
 70
     1
102
RTVSPropertyOp25
 70
     1
102
RTVSPropertyOp26
 70
     1
102
RTVSPropertyOp27
 70
     1
102
RTVSPropertyOp28
 70
     1
102
RTVSPropertyOp29
 70
     1
102
RTVSPropertyOp30
 70
     1
102
RTVSPropertyOp31
 70
     1
102
RTVSPropertyOp32
 70
     1
102
RTVSPropertyOp33
 70
     1
102
RTVSPropertyOp34
 70
     1
102
RTVSPropertyOp35
 70
     1
102
RTVSPropertyOp36
 70
     1
102
RTVSPropertyOp37
 70
     1
102
RTVSPropertyOp38
 70
     1
102
RTVSPropertyOp39
 70
     1
102
RTVSPropertyOp40
 70
     1
102
RTVSPropertyOp41
 70
     1
102
RTVSPropertyOp42
 70
     1
102
RTVSPropertyOp43
 70
     1
102
RTVSPropertyOp44
 70
     1
102
RTVSPropertyOp45
 70
     1
102
RTVSPropertyOp46
 70
     1
102
RTVSPropertyOp47
 70
     1
102
RTVSPropertyOp48
 70
     1
102
RTVSPropertyOp49
 70
     1
102
RTVSPropertyOp50
 70
     1
102
RTVSPropertyOp51
 70
     0
102
RTVSPropertyOp52
 70
     0
102
RTVSPropertyOp53
 70
     1
102
RTVSPropertyOp54
 70
     1
102
RTVSPropertyOp55
 70
     1
102
RTVSPropertyOp56
 70
     1
102
RTVSPropertyOp57
 70
     1
102
RTVSPropertyOp58
 70
     1
102
RTVSPropertyOp59
 70
     1
102
RTVSPropertyOp60
 70
     1
102
RTVSPropertyOp61
 70
     1
102
RTVSPropertyOp62
 70
     1
  0
XRECORD
  5
866A
102
{ACAD_REACTORS
330
8669
102
}
330
8669
100
AcDbXrecord
280
     1
102
RTVSPost2010Prop28
280
     0
102
RTVSPost2010PropOp28
 70
     1
102
RTVSPost2010Prop29
280
     1
102
RTVSPost2010PropOp29
 70
     1
102
RTVSPost2010Prop30
280
     1
102
RTVSPost2010PropOp30
 70
     1
102
RTVSPost2010Prop31
280
     0
102
RTVSPost2010PropOp31
 70
     1
102
RTVSPost2010Prop32
280
     0
102
RTVSPost2010PropOp32
 70
     1
102
RTVSPost2010Prop33
280
     0
102
RTVSPost2010PropOp33
 70
     1
102
RTVSPost2010Prop34
280
     0
102
RTVSPost2010PropOp34
 70
     1
102
RTVSPost2010Prop35
280
     0
102
RTVSPost2010PropOp35
 70
     1
102
RTVSPost2010Prop36
280
     0
102
RTVSPost2010PropOp36
 70
     1
102
RTVSPost2010Prop37
 90
       50
102
RTVSPost2010PropOp37
 70
     1
102
RTVSPost2010Prop38
140
0.0
102
RTVSPost2010PropOp38
 70
     1
102
RTVSPost2010Prop39
140
1.0
102
RTVSPost2010PropOp39
 70
     1
102
RTVSPost2010Prop40
 90
        0
102
RTVSPost2010PropOp40
 70
     1
102
RTVSPost2010Prop41ColorIndex
 90
       18
102
RTVSPost2010Prop41ColorRGB
 90
        0
102
RTVSPost2010PropOp41
 70
     1
102
RTVSPost2010Prop42
 90
       50
102
RTVSPost2010PropOp42
 70
     1
102
RTVSPost2010Prop43
 90
        3
102
RTVSPost2010PropOp43
 70
     1
102
RTVSPost2010Prop44ColorIndex
 90
        5
102
RTVSPost2010Prop44ColorRGB
 90
      255
102
RTVSPost2010PropOp44
 70
     1
102
RTVSPost2010Prop45
280
     0
102
RTVSPost2010PropOp45
 70
     1
102
RTVSPost2010Prop46
 90
       50
102
RTVSPost2010PropOp46
 70
     1
102
RTVSPost2010Prop47
 90
       50
102
RTVSPost2010PropOp47
 70
     1
102
RTVSPost2010Prop48
 90
       50
102
RTVSPost2010PropOp48
 70
     1
102
RTVSPost2010Prop49
280
     0
102
RTVSPost2010PropOp49
 70
     1
102
RTVSPost2010Prop50
 90
       50
102
RTVSPost2010PropOp50
 70
     1
102
RTVSPost2010Prop51ColorIndex
 90
      256
102
RTVSPost2010Prop51ColorRGB
 90
-16777216
102
RTVSPost2010PropOp51
 70
     0
102
RTVSPost2010Prop52
140
1.0
102
RTVSPost2010PropOp52
 70
     0
102
RTVSPost2010Prop53
 90
        2
102
RTVSPost2010PropOp53
 70
     1
102
RTVSPost2010Prop54
  1
strokes_ogs.tif
102
RTVSPost2010PropOp54
 70
     1
102
RTVSPost2010Prop55
280
     0
102
RTVSPost2010PropOp55
 70
     1
102
RTVSPost2010Prop56
140
1.0
102
RTVSPost2010PropOp56
 70
     1
102
RTVSPost2010Prop57
140
1.0
102
RTVSPost2010PropOp57
 70
     1
102
RTVSPropertyOp0
 70
     1
102
RTVSPropertyOp1
 70
     1
102
RTVSPropertyOp2
 70
     1
102
RTVSPropertyOp3
 70
     1
102
RTVSPropertyOp4
 70
     1
102
RTVSPropertyOp5
 70
     1
102
RTVSPropertyOp6
 70
     1
102
RTVSPropertyOp7
 70
     1
102
RTVSPropertyOp8
 70
     1
102
RTVSPropertyOp9
 70
     1
102
RTVSPropertyOp10
 70
     1
102
RTVSPropertyOp11
 70
     1
102
RTVSPropertyOp12
 70
     1
102
RTVSPropertyOp13
 70
     1
102
RTVSPropertyOp14
 70
     1
102
RTVSPropertyOp15
 70
     1
102
RTVSPropertyOp16
 70
     1
102
RTVSPropertyOp17
 70
     1
102
RTVSPropertyOp18
 70
     1
102
RTVSPropertyOp19
 70
     1
102
RTVSPropertyOp20
 70
     1
102
RTVSPropertyOp21
 70
     1
102
RTVSPropertyOp22
 70
     1
102
RTVSPropertyOp23
 70
     1
102
RTVSPropertyOp24
 70
     1
102
RTVSPropertyOp25
 70
     1
102
RTVSPropertyOp26
 70
     1
102
RTVSPropertyOp27
 70
     1
102
RTVSPropertyOp28
 70
     1
102
RTVSPropertyOp29
 70
     1
102
RTVSPropertyOp30
 70
     1
102
RTVSPropertyOp31
 70
     1
102
RTVSPropertyOp32
 70
     1
102
RTVSPropertyOp33
 70
     1
102
RTVSPropertyOp34
 70
     1
102
RTVSPropertyOp35
 70
     1
102
RTVSPropertyOp36
 70
     1
102
RTVSPropertyOp37
 70
     1
102
RTVSPropertyOp38
 70
     1
102
RTVSPropertyOp39
 70
     1
102
RTVSPropertyOp40
 70
     1
102
RTVSPropertyOp41
 70
     1
102
RTVSPropertyOp42
 70
     1
102
RTVSPropertyOp43
 70
     1
102
RTVSPropertyOp44
 70
     1
102
RTVSPropertyOp45
 70
     1
102
RTVSPropertyOp46
 70
     1
102
RTVSPropertyOp47
 70
     1
102
RTVSPropertyOp48
 70
     1
102
RTVSPropertyOp49
 70
     1
102
RTVSPropertyOp50
 70
     1
102
RTVSPropertyOp51
 70
     0
102
RTVSPropertyOp52
 70
     0
102
RTVSPropertyOp53
 70
     1
102
RTVSPropertyOp54
 70
     1
102
RTVSPropertyOp55
 70
     1
102
RTVSPropertyOp56
 70
     1
102
RTVSPropertyOp57
 70
     1
102
RTVSPropertyOp58
 70
     1
102
RTVSPropertyOp59
 70
     1
102
RTVSPropertyOp60
 70
     1
102
RTVSPropertyOp61
 70
     1
102
RTVSPropertyOp62
 70
     1
  0
XRECORD
  5
866C
102
{ACAD_REACTORS
330
866B
102
}
330
866B
100
AcDbXrecord
280
     1
102
RTVSPost2010Prop28
280
     0
102
RTVSPost2010PropOp28
 70
     1
102
RTVSPost2010Prop29
280
     1
102
RTVSPost2010PropOp29
 70
     1
102
RTVSPost2010Prop30
280
     1
102
RTVSPost2010PropOp30
 70
     1
102
RTVSPost2010Prop31
280
     0
102
RTVSPost2010PropOp31
 70
     1
102
RTVSPost2010Prop32
280
     0
102
RTVSPost2010PropOp32
 70
     1
102
RTVSPost2010Prop33
280
     0
102
RTVSPost2010PropOp33
 70
     1
102
RTVSPost2010Prop34
280
     0
102
RTVSPost2010PropOp34
 70
     1
102
RTVSPost2010Prop35
280
     0
102
RTVSPost2010PropOp35
 70
     1
102
RTVSPost2010Prop36
280
     0
102
RTVSPost2010PropOp36
 70
     1
102
RTVSPost2010Prop37
 90
       50
102
RTVSPost2010PropOp37
 70
     1
102
RTVSPost2010Prop38
140
0.0
102
RTVSPost2010PropOp38
 70
     1
102
RTVSPost2010Prop39
140
1.0
102
RTVSPost2010PropOp39
 70
     1
102
RTVSPost2010Prop40
 90
        0
102
RTVSPost2010PropOp40
 70
     1
102
RTVSPost2010Prop41ColorIndex
 90
       18
102
RTVSPost2010Prop41ColorRGB
 90
        0
102
RTVSPost2010PropOp41
 70
     1
102
RTVSPost2010Prop42
 90
       50
102
RTVSPost2010PropOp42
 70
     1
102
RTVSPost2010Prop43
 90
        3
102
RTVSPost2010PropOp43
 70
     1
102
RTVSPost2010Prop44ColorIndex
 90
        5
102
RTVSPost2010Prop44ColorRGB
 90
      255
102
RTVSPost2010PropOp44
 70
     1
102
RTVSPost2010Prop45
280
     0
102
RTVSPost2010PropOp45
 70
     1
102
RTVSPost2010Prop46
 90
       50
102
RTVSPost2010PropOp46
 70
     1
102
RTVSPost2010Prop47
 90
       50
102
RTVSPost2010PropOp47
 70
     1
102
RTVSPost2010Prop48
 90
       50
102
RTVSPost2010PropOp48
 70
     1
102
RTVSPost2010Prop49
280
     0
102
RTVSPost2010PropOp49
 70
     1
102
RTVSPost2010Prop50
 90
       50
102
RTVSPost2010PropOp50
 70
     1
102
RTVSPost2010Prop51ColorIndex
 90
      256
102
RTVSPost2010Prop51ColorRGB
 90
-16777216
102
RTVSPost2010PropOp51
 70
     0
102
RTVSPost2010Prop52
140
1.0
102
RTVSPost2010PropOp52
 70
     0
102
RTVSPost2010Prop53
 90
        2
102
RTVSPost2010PropOp53
 70
     1
102
RTVSPost2010Prop54
  1
strokes_ogs.tif
102
RTVSPost2010PropOp54
 70
     1
102
RTVSPost2010Prop55
280
     0
102
RTVSPost2010PropOp55
 70
     1
102
RTVSPost2010Prop56
140
1.0
102
RTVSPost2010PropOp56
 70
     1
102
RTVSPost2010Prop57
140
1.0
102
RTVSPost2010PropOp57
 70
     1
102
RTVSPropertyOp0
 70
     1
102
RTVSPropertyOp1
 70
     1
102
RTVSPropertyOp2
 70
     1
102
RTVSPropertyOp3
 70
     1
102
RTVSPropertyOp4
 70
     1
102
RTVSPropertyOp5
 70
     1
102
RTVSPropertyOp6
 70
     1
102
RTVSPropertyOp7
 70
     1
102
RTVSPropertyOp8
 70
     1
102
RTVSPropertyOp9
 70
     1
102
RTVSPropertyOp10
 70
     1
102
RTVSPropertyOp11
 70
     1
102
RTVSPropertyOp12
 70
     1
102
RTVSPropertyOp13
 70
     1
102
RTVSPropertyOp14
 70
     1
102
RTVSPropertyOp15
 70
     1
102
RTVSPropertyOp16
 70
     1
102
RTVSPropertyOp17
 70
     1
102
RTVSPropertyOp18
 70
     1
102
RTVSPropertyOp19
 70
     1
102
RTVSPropertyOp20
 70
     1
102
RTVSPropertyOp21
 70
     1
102
RTVSPropertyOp22
 70
     1
102
RTVSPropertyOp23
 70
     1
102
RTVSPropertyOp24
 70
     1
102
RTVSPropertyOp25
 70
     1
102
RTVSPropertyOp26
 70
     1
102
RTVSPropertyOp27
 70
     1
102
RTVSPropertyOp28
 70
     1
102
RTVSPropertyOp29
 70
     1
102
RTVSPropertyOp30
 70
     1
102
RTVSPropertyOp31
 70
     1
102
RTVSPropertyOp32
 70
     1
102
RTVSPropertyOp33
 70
     1
102
RTVSPropertyOp34
 70
     1
102
RTVSPropertyOp35
 70
     1
102
RTVSPropertyOp36
 70
     1
102
RTVSPropertyOp37
 70
     1
102
RTVSPropertyOp38
 70
     1
102
RTVSPropertyOp39
 70
     1
102
RTVSPropertyOp40
 70
     1
102
RTVSPropertyOp41
 70
     1
102
RTVSPropertyOp42
 70
     1
102
RTVSPropertyOp43
 70
     1
102
RTVSPropertyOp44
 70
     1
102
RTVSPropertyOp45
 70
     1
102
RTVSPropertyOp46
 70
     1
102
RTVSPropertyOp47
 70
     1
102
RTVSPropertyOp48
 70
     1
102
RTVSPropertyOp49
 70
     1
102
RTVSPropertyOp50
 70
     1
102
RTVSPropertyOp51
 70
     0
102
RTVSPropertyOp52
 70
     0
102
RTVSPropertyOp53
 70
     1
102
RTVSPropertyOp54
 70
     1
102
RTVSPropertyOp55
 70
     1
102
RTVSPropertyOp56
 70
     1
102
RTVSPropertyOp57
 70
     1
102
RTVSPropertyOp58
 70
     1
102
RTVSPropertyOp59
 70
     1
102
RTVSPropertyOp60
 70
     1
102
RTVSPropertyOp61
 70
     1
102
RTVSPropertyOp62
 70
     1
  0
XRECORD
  5
8689
102
{ACAD_REACTORS
330
8688
102
}
330
8688
100
AcDbXrecord
280
     1
102
RTVSPost2010Prop28
280
     0
102
RTVSPost2010PropOp28
 70
     1
102
RTVSPost2010Prop29
280
     1
102
RTVSPost2010PropOp29
 70
     1
102
RTVSPost2010Prop30
280
     1
102
RTVSPost2010PropOp30
 70
     1
102
RTVSPost2010Prop31
280
     0
102
RTVSPost2010PropOp31
 70
     1
102
RTVSPost2010Prop32
280
     0
102
RTVSPost2010PropOp32
 70
     1
102
RTVSPost2010Prop33
280
     0
102
RTVSPost2010PropOp33
 70
     1
102
RTVSPost2010Prop34
280
     0
102
RTVSPost2010PropOp34
 70
     1
102
RTVSPost2010Prop35
280
     0
102
RTVSPost2010PropOp35
 70
     1
102
RTVSPost2010Prop36
280
     0
102
RTVSPost2010PropOp36
 70
     1
102
RTVSPost2010Prop37
 90
       50
102
RTVSPost2010PropOp37
 70
     1
102
RTVSPost2010Prop38
140
0.0
102
RTVSPost2010PropOp38
 70
     1
102
RTVSPost2010Prop39
140
1.0
102
RTVSPost2010PropOp39
 70
     1
102
RTVSPost2010Prop40
 90
        0
102
RTVSPost2010PropOp40
 70
     1
102
RTVSPost2010Prop41ColorIndex
 90
       18
102
RTVSPost2010Prop41ColorRGB
 90
        0
102
RTVSPost2010PropOp41
 70
     1
102
RTVSPost2010Prop42
 90
       50
102
RTVSPost2010PropOp42
 70
     1
102
RTVSPost2010Prop43
 90
        3
102
RTVSPost2010PropOp43
 70
     1
102
RTVSPost2010Prop44ColorIndex
 90
        5
102
RTVSPost2010Prop44ColorRGB
 90
      255
102
RTVSPost2010PropOp44
 70
     1
102
RTVSPost2010Prop45
280
     0
102
RTVSPost2010PropOp45
 70
     1
102
RTVSPost2010Prop46
 90
       50
102
RTVSPost2010PropOp46
 70
     1
102
RTVSPost2010Prop47
 90
       50
102
RTVSPost2010PropOp47
 70
     1
102
RTVSPost2010Prop48
 90
       50
102
RTVSPost2010PropOp48
 70
     1
102
RTVSPost2010Prop49
280
     0
102
RTVSPost2010PropOp49
 70
     1
102
RTVSPost2010Prop50
 90
       50
102
RTVSPost2010PropOp50
 70
     1
102
RTVSPost2010Prop51ColorIndex
 90
      256
102
RTVSPost2010Prop51ColorRGB
 90
-16777216
102
RTVSPost2010PropOp51
 70
     0
102
RTVSPost2010Prop52
140
1.0
102
RTVSPost2010PropOp52
 70
     0
102
RTVSPost2010Prop53
 90
        2
102
RTVSPost2010PropOp53
 70
     1
102
RTVSPost2010Prop54
  1
strokes_ogs.tif
102
RTVSPost2010PropOp54
 70
     1
102
RTVSPost2010Prop55
280
     0
102
RTVSPost2010PropOp55
 70
     1
102
RTVSPost2010Prop56
140
1.0
102
RTVSPost2010PropOp56
 70
     1
102
RTVSPost2010Prop57
140
1.0
102
RTVSPost2010PropOp57
 70
     1
102
RTVSPropertyOp0
 70
     1
102
RTVSPropertyOp1
 70
     1
102
RTVSPropertyOp2
 70
     1
102
RTVSPropertyOp3
 70
     1
102
RTVSPropertyOp4
 70
     1
102
RTVSPropertyOp5
 70
     1
102
RTVSPropertyOp6
 70
     1
102
RTVSPropertyOp7
 70
     1
102
RTVSPropertyOp8
 70
     1
102
RTVSPropertyOp9
 70
     1
102
RTVSPropertyOp10
 70
     1
102
RTVSPropertyOp11
 70
     1
102
RTVSPropertyOp12
 70
     1
102
RTVSPropertyOp13
 70
     1
102
RTVSPropertyOp14
 70
     1
102
RTVSPropertyOp15
 70
     1
102
RTVSPropertyOp16
 70
     1
102
RTVSPropertyOp17
 70
     1
102
RTVSPropertyOp18
 70
     1
102
RTVSPropertyOp19
 70
     1
102
RTVSPropertyOp20
 70
     1
102
RTVSPropertyOp21
 70
     1
102
RTVSPropertyOp22
 70
     1
102
RTVSPropertyOp23
 70
     1
102
RTVSPropertyOp24
 70
     1
102
RTVSPropertyOp25
 70
     1
102
RTVSPropertyOp26
 70
     1
102
RTVSPropertyOp27
 70
     1
102
RTVSPropertyOp28
 70
     1
102
RTVSPropertyOp29
 70
     1
102
RTVSPropertyOp30
 70
     1
102
RTVSPropertyOp31
 70
     1
102
RTVSPropertyOp32
 70
     1
102
RTVSPropertyOp33
 70
     1
102
RTVSPropertyOp34
 70
     1
102
RTVSPropertyOp35
 70
     1
102
RTVSPropertyOp36
 70
     1
102
RTVSPropertyOp37
 70
     1
102
RTVSPropertyOp38
 70
     1
102
RTVSPropertyOp39
 70
     1
102
RTVSPropertyOp40
 70
     1
102
RTVSPropertyOp41
 70
     1
102
RTVSPropertyOp42
 70
     1
102
RTVSPropertyOp43
 70
     1
102
RTVSPropertyOp44
 70
     1
102
RTVSPropertyOp45
 70
     1
102
RTVSPropertyOp46
 70
     1
102
RTVSPropertyOp47
 70
     1
102
RTVSPropertyOp48
 70
     1
102
RTVSPropertyOp49
 70
     1
102
RTVSPropertyOp50
 70
     1
102
RTVSPropertyOp51
 70
     0
102
RTVSPropertyOp52
 70
     0
102
RTVSPropertyOp53
 70
     1
102
RTVSPropertyOp54
 70
     1
102
RTVSPropertyOp55
 70
     1
102
RTVSPropertyOp56
 70
     1
102
RTVSPropertyOp57
 70
     1
102
RTVSPropertyOp58
 70
     1
102
RTVSPropertyOp59
 70
     1
102
RTVSPropertyOp60
 70
     1
102
RTVSPropertyOp61
 70
     1
102
RTVSPropertyOp62
 70
     1
  0
XRECORD
  5
8695
102
{ACAD_REACTORS
330
8694
102
}
330
8694
100
AcDbXrecord
280
     1
102
RTVSPost2010Prop28
280
     0
102
RTVSPost2010PropOp28
 70
     1
102
RTVSPost2010Prop29
280
     1
102
RTVSPost2010PropOp29
 70
     1
102
RTVSPost2010Prop30
280
     1
102
RTVSPost2010PropOp30
 70
     1
102
RTVSPost2010Prop31
280
     0
102
RTVSPost2010PropOp31
 70
     1
102
RTVSPost2010Prop32
280
     0
102
RTVSPost2010PropOp32
 70
     1
102
RTVSPost2010Prop33
280
     0
102
RTVSPost2010PropOp33
 70
     1
102
RTVSPost2010Prop34
280
     0
102
RTVSPost2010PropOp34
 70
     1
102
RTVSPost2010Prop35
280
     0
102
RTVSPost2010PropOp35
 70
     1
102
RTVSPost2010Prop36
280
     0
102
RTVSPost2010PropOp36
 70
     1
102
RTVSPost2010Prop37
 90
       50
102
RTVSPost2010PropOp37
 70
     1
102
RTVSPost2010Prop38
140
0.0
102
RTVSPost2010PropOp38
 70
     1
102
RTVSPost2010Prop39
140
1.0
102
RTVSPost2010PropOp39
 70
     1
102
RTVSPost2010Prop40
 90
        0
102
RTVSPost2010PropOp40
 70
     1
102
RTVSPost2010Prop41ColorIndex
 90
       18
102
RTVSPost2010Prop41ColorRGB
 90
        0
102
RTVSPost2010PropOp41
 70
     1
102
RTVSPost2010Prop42
 90
       50
102
RTVSPost2010PropOp42
 70
     1
102
RTVSPost2010Prop43
 90
        3
102
RTVSPost2010PropOp43
 70
     1
102
RTVSPost2010Prop44ColorIndex
 90
        5
102
RTVSPost2010Prop44ColorRGB
 90
      255
102
RTVSPost2010PropOp44
 70
     1
102
RTVSPost2010Prop45
280
     0
102
RTVSPost2010PropOp45
 70
     1
102
RTVSPost2010Prop46
 90
       50
102
RTVSPost2010PropOp46
 70
     1
102
RTVSPost2010Prop47
 90
       50
102
RTVSPost2010PropOp47
 70
     1
102
RTVSPost2010Prop48
 90
       50
102
RTVSPost2010PropOp48
 70
     1
102
RTVSPost2010Prop49
280
     0
102
RTVSPost2010PropOp49
 70
     1
102
RTVSPost2010Prop50
 90
       50
102
RTVSPost2010PropOp50
 70
     1
102
RTVSPost2010Prop51ColorIndex
 90
      256
102
RTVSPost2010Prop51ColorRGB
 90
-16777216
102
RTVSPost2010PropOp51
 70
     0
102
RTVSPost2010Prop52
140
1.0
102
RTVSPost2010PropOp52
 70
     0
102
RTVSPost2010Prop53
 90
        2
102
RTVSPost2010PropOp53
 70
     1
102
RTVSPost2010Prop54
  1
strokes_ogs.tif
102
RTVSPost2010PropOp54
 70
     1
102
RTVSPost2010Prop55
280
     0
102
RTVSPost2010PropOp55
 70
     1
102
RTVSPost2010Prop56
140
1.0
102
RTVSPost2010PropOp56
 70
     1
102
RTVSPost2010Prop57
140
1.0
102
RTVSPost2010PropOp57
 70
     1
102
RTVSPropertyOp0
 70
     0
102
RTVSPropertyOp1
 70
     0
102
RTVSPropertyOp2
 70
     0
102
RTVSPropertyOp3
 70
     0
102
RTVSPropertyOp4
 70
     0
102
RTVSPropertyOp5
 70
     0
102
RTVSPropertyOp6
 70
     0
102
RTVSPropertyOp7
 70
     0
102
RTVSPropertyOp8
 70
     0
102
RTVSPropertyOp9
 70
     0
102
RTVSPropertyOp10
 70
     0
102
RTVSPropertyOp11
 70
     0
102
RTVSPropertyOp12
 70
     0
102
RTVSPropertyOp13
 70
     0
102
RTVSPropertyOp14
 70
     2
102
RTVSPropertyOp15
 70
     0
102
RTVSPropertyOp16
 70
     0
102
RTVSPropertyOp17
 70
     0
102
RTVSPropertyOp18
 70
     0
102
RTVSPropertyOp19
 70
     0
102
RTVSPropertyOp20
 70
     0
102
RTVSPropertyOp21
 70
     0
102
RTVSPropertyOp22
 70
     0
102
RTVSPropertyOp23
 70
     0
102
RTVSPropertyOp24
 70
     0
102
RTVSPropertyOp25
 70
     0
102
RTVSPropertyOp26
 70
     0
102
RTVSPropertyOp27
 70
     0
102
RTVSPropertyOp28
 70
     1
102
RTVSPropertyOp29
 70
     1
102
RTVSPropertyOp30
 70
     1
102
RTVSPropertyOp31
 70
     1
102
RTVSPropertyOp32
 70
     1
102
RTVSPropertyOp33
 70
     1
102
RTVSPropertyOp34
 70
     1
102
RTVSPropertyOp35
 70
     1
102
RTVSPropertyOp36
 70
     1
102
RTVSPropertyOp37
 70
     1
102
RTVSPropertyOp38
 70
     1
102
RTVSPropertyOp39
 70
     1
102
RTVSPropertyOp40
 70
     1
102
RTVSPropertyOp41
 70
     1
102
RTVSPropertyOp42
 70
     1
102
RTVSPropertyOp43
 70
     1
102
RTVSPropertyOp44
 70
     1
102
RTVSPropertyOp45
 70
     1
102
RTVSPropertyOp46
 70
     1
102
RTVSPropertyOp47
 70
     1
102
RTVSPropertyOp48
 70
     1
102
RTVSPropertyOp49
 70
     1
102
RTVSPropertyOp50
 70
     1
102
RTVSPropertyOp51
 70
     0
102
RTVSPropertyOp52
 70
     0
102
RTVSPropertyOp53
 70
     1
102
RTVSPropertyOp54
 70
     1
102
RTVSPropertyOp55
 70
     1
102
RTVSPropertyOp56
 70
     1
102
RTVSPropertyOp57
 70
     1
102
RTVSPropertyOp58
 70
     1
102
RTVSPropertyOp59
 70
     1
102
RTVSPropertyOp60
 70
     1
102
RTVSPropertyOp61
 70
     1
102
RTVSPropertyOp62
 70
     1
  0
XRECORD
  5
8680
102
{ACAD_REACTORS
330
867F
102
}
330
867F
100
AcDbXrecord
280
     1
102
RTVSPost2010Prop28
280
     0
102
RTVSPost2010PropOp28
 70
     1
102
RTVSPost2010Prop29
280
     1
102
RTVSPost2010PropOp29
 70
     1
102
RTVSPost2010Prop30
280
     1
102
RTVSPost2010PropOp30
 70
     1
102
RTVSPost2010Prop31
280
     0
102
RTVSPost2010PropOp31
 70
     1
102
RTVSPost2010Prop32
280
     0
102
RTVSPost2010PropOp32
 70
     1
102
RTVSPost2010Prop33
280
     0
102
RTVSPost2010PropOp33
 70
     1
102
RTVSPost2010Prop34
280
     0
102
RTVSPost2010PropOp34
 70
     1
102
RTVSPost2010Prop35
280
     0
102
RTVSPost2010PropOp35
 70
     1
102
RTVSPost2010Prop36
280
     0
102
RTVSPost2010PropOp36
 70
     1
102
RTVSPost2010Prop37
 90
       50
102
RTVSPost2010PropOp37
 70
     1
102
RTVSPost2010Prop38
140
0.0
102
RTVSPost2010PropOp38
 70
     1
102
RTVSPost2010Prop39
140
1.0
102
RTVSPost2010PropOp39
 70
     1
102
RTVSPost2010Prop40
 90
        0
102
RTVSPost2010PropOp40
 70
     1
102
RTVSPost2010Prop41ColorIndex
 90
       18
102
RTVSPost2010Prop41ColorRGB
 90
        0
102
RTVSPost2010PropOp41
 70
     1
102
RTVSPost2010Prop42
 90
       50
102
RTVSPost2010PropOp42
 70
     1
102
RTVSPost2010Prop43
 90
        3
102
RTVSPost2010PropOp43
 70
     1
102
RTVSPost2010Prop44ColorIndex
 90
        5
102
RTVSPost2010Prop44ColorRGB
 90
      255
102
RTVSPost2010PropOp44
 70
     1
102
RTVSPost2010Prop45
280
     0
102
RTVSPost2010PropOp45
 70
     1
102
RTVSPost2010Prop46
 90
       50
102
RTVSPost2010PropOp46
 70
     1
102
RTVSPost2010Prop47
 90
       50
102
RTVSPost2010PropOp47
 70
     1
102
RTVSPost2010Prop48
 90
       50
102
RTVSPost2010PropOp48
 70
     1
102
RTVSPost2010Prop49
280
     0
102
RTVSPost2010PropOp49
 70
     1
102
RTVSPost2010Prop50
 90
       50
102
RTVSPost2010PropOp50
 70
     1
102
RTVSPost2010Prop51ColorIndex
 90
      256
102
RTVSPost2010Prop51ColorRGB
 90
-16777216
102
RTVSPost2010PropOp51
 70
     0
102
RTVSPost2010Prop52
140
1.0
102
RTVSPost2010PropOp52
 70
     0
102
RTVSPost2010Prop53
 90
        2
102
RTVSPost2010PropOp53
 70
     1
102
RTVSPost2010Prop54
  1
strokes_ogs.tif
102
RTVSPost2010PropOp54
 70
     1
102
RTVSPost2010Prop55
280
     0
102
RTVSPost2010PropOp55
 70
     1
102
RTVSPost2010Prop56
140
1.0
102
RTVSPost2010PropOp56
 70
     1
102
RTVSPost2010Prop57
140
1.0
102
RTVSPost2010PropOp57
 70
     1
102
RTVSPropertyOp0
 70
     1
102
RTVSPropertyOp1
 70
     1
102
RTVSPropertyOp2
 70
     1
102
RTVSPropertyOp3
 70
     1
102
RTVSPropertyOp4
 70
     1
102
RTVSPropertyOp5
 70
     1
102
RTVSPropertyOp6
 70
     1
102
RTVSPropertyOp7
 70
     1
102
RTVSPropertyOp8
 70
     1
102
RTVSPropertyOp9
 70
     1
102
RTVSPropertyOp10
 70
     1
102
RTVSPropertyOp11
 70
     1
102
RTVSPropertyOp12
 70
     1
102
RTVSPropertyOp13
 70
     1
102
RTVSPropertyOp14
 70
     1
102
RTVSPropertyOp15
 70
     1
102
RTVSPropertyOp16
 70
     1
102
RTVSPropertyOp17
 70
     1
102
RTVSPropertyOp18
 70
     1
102
RTVSPropertyOp19
 70
     1
102
RTVSPropertyOp20
 70
     1
102
RTVSPropertyOp21
 70
     1
102
RTVSPropertyOp22
 70
     1
102
RTVSPropertyOp23
 70
     1
102
RTVSPropertyOp24
 70
     1
102
RTVSPropertyOp25
 70
     1
102
RTVSPropertyOp26
 70
     1
102
RTVSPropertyOp27
 70
     1
102
RTVSPropertyOp28
 70
     1
102
RTVSPropertyOp29
 70
     1
102
RTVSPropertyOp30
 70
     1
102
RTVSPropertyOp31
 70
     1
102
RTVSPropertyOp32
 70
     1
102
RTVSPropertyOp33
 70
     1
102
RTVSPropertyOp34
 70
     1
102
RTVSPropertyOp35
 70
     1
102
RTVSPropertyOp36
 70
     1
102
RTVSPropertyOp37
 70
     1
102
RTVSPropertyOp38
 70
     1
102
RTVSPropertyOp39
 70
     1
102
RTVSPropertyOp40
 70
     1
102
RTVSPropertyOp41
 70
     1
102
RTVSPropertyOp42
 70
     1
102
RTVSPropertyOp43
 70
     1
102
RTVSPropertyOp44
 70
     1
102
RTVSPropertyOp45
 70
     1
102
RTVSPropertyOp46
 70
     1
102
RTVSPropertyOp47
 70
     1
102
RTVSPropertyOp48
 70
     1
102
RTVSPropertyOp49
 70
     1
102
RTVSPropertyOp50
 70
     1
102
RTVSPropertyOp51
 70
     0
102
RTVSPropertyOp52
 70
     0
102
RTVSPropertyOp53
 70
     1
102
RTVSPropertyOp54
 70
     1
102
RTVSPropertyOp55
 70
     1
102
RTVSPropertyOp56
 70
     1
102
RTVSPropertyOp57
 70
     1
102
RTVSPropertyOp58
 70
     1
102
RTVSPropertyOp59
 70
     1
102
RTVSPropertyOp60
 70
     1
102
RTVSPropertyOp61
 70
     1
102
RTVSPropertyOp62
 70
     1
  0
XRECORD
  5
8697
102
{ACAD_REACTORS
330
8696
102
}
330
8696
100
AcDbXrecord
280
     1
102
RTVSPost2010Prop28
280
     0
102
RTVSPost2010PropOp28
 70
     1
102
RTVSPost2010Prop29
280
     1
102
RTVSPost2010PropOp29
 70
     1
102
RTVSPost2010Prop30
280
     1
102
RTVSPost2010PropOp30
 70
     1
102
RTVSPost2010Prop31
280
     0
102
RTVSPost2010PropOp31
 70
     1
102
RTVSPost2010Prop32
280
     0
102
RTVSPost2010PropOp32
 70
     1
102
RTVSPost2010Prop33
280
     0
102
RTVSPost2010PropOp33
 70
     1
102
RTVSPost2010Prop34
280
     0
102
RTVSPost2010PropOp34
 70
     1
102
RTVSPost2010Prop35
280
     0
102
RTVSPost2010PropOp35
 70
     1
102
RTVSPost2010Prop36
280
     0
102
RTVSPost2010PropOp36
 70
     1
102
RTVSPost2010Prop37
 90
       50
102
RTVSPost2010PropOp37
 70
     1
102
RTVSPost2010Prop38
140
0.0
102
RTVSPost2010PropOp38
 70
     1
102
RTVSPost2010Prop39
140
1.0
102
RTVSPost2010PropOp39
 70
     1
102
RTVSPost2010Prop40
 90
        0
102
RTVSPost2010PropOp40
 70
     1
102
RTVSPost2010Prop41ColorIndex
 90
       18
102
RTVSPost2010Prop41ColorRGB
 90
        0
102
RTVSPost2010PropOp41
 70
     1
102
RTVSPost2010Prop42
 90
       50
102
RTVSPost2010PropOp42
 70
     1
102
RTVSPost2010Prop43
 90
        3
102
RTVSPost2010PropOp43
 70
     1
102
RTVSPost2010Prop44ColorIndex
 90
        5
102
RTVSPost2010Prop44ColorRGB
 90
      255
102
RTVSPost2010PropOp44
 70
     1
102
RTVSPost2010Prop45
280
     0
102
RTVSPost2010PropOp45
 70
     1
102
RTVSPost2010Prop46
 90
       50
102
RTVSPost2010PropOp46
 70
     1
102
RTVSPost2010Prop47
 90
       50
102
RTVSPost2010PropOp47
 70
     1
102
RTVSPost2010Prop48
 90
       50
102
RTVSPost2010PropOp48
 70
     1
102
RTVSPost2010Prop49
280
     0
102
RTVSPost2010PropOp49
 70
     1
102
RTVSPost2010Prop50
 90
       50
102
RTVSPost2010PropOp50
 70
     1
102
RTVSPost2010Prop51ColorIndex
 90
      256
102
RTVSPost2010Prop51ColorRGB
 90
-16777216
102
RTVSPost2010PropOp51
 70
     0
102
RTVSPost2010Prop52
140
1.0
102
RTVSPost2010PropOp52
 70
     0
102
RTVSPost2010Prop53
 90
        2
102
RTVSPost2010PropOp53
 70
     1
102
RTVSPost2010Prop54
  1
strokes_ogs.tif
102
RTVSPost2010PropOp54
 70
     1
102
RTVSPost2010Prop55
280
     0
102
RTVSPost2010PropOp55
 70
     1
102
RTVSPost2010Prop56
140
1.0
102
RTVSPost2010PropOp56
 70
     1
102
RTVSPost2010Prop57
140
1.0
102
RTVSPost2010PropOp57
 70
     1
102
RTVSPropertyOp0
 70
     0
102
RTVSPropertyOp1
 70
     0
102
RTVSPropertyOp2
 70
     0
102
RTVSPropertyOp3
 70
     0
102
RTVSPropertyOp4
 70
     0
102
RTVSPropertyOp5
 70
     0
102
RTVSPropertyOp6
 70
     0
102
RTVSPropertyOp7
 70
     0
102
RTVSPropertyOp8
 70
     0
102
RTVSPropertyOp9
 70
     0
102
RTVSPropertyOp10
 70
     0
102
RTVSPropertyOp11
 70
     0
102
RTVSPropertyOp12
 70
     0
102
RTVSPropertyOp13
 70
     0
102
RTVSPropertyOp14
 70
     2
102
RTVSPropertyOp15
 70
     0
102
RTVSPropertyOp16
 70
     0
102
RTVSPropertyOp17
 70
     0
102
RTVSPropertyOp18
 70
     0
102
RTVSPropertyOp19
 70
     0
102
RTVSPropertyOp20
 70
     0
102
RTVSPropertyOp21
 70
     0
102
RTVSPropertyOp22
 70
     0
102
RTVSPropertyOp23
 70
     0
102
RTVSPropertyOp24
 70
     0
102
RTVSPropertyOp25
 70
     0
102
RTVSPropertyOp26
 70
     0
102
RTVSPropertyOp27
 70
     0
102
RTVSPropertyOp28
 70
     1
102
RTVSPropertyOp29
 70
     1
102
RTVSPropertyOp30
 70
     1
102
RTVSPropertyOp31
 70
     1
102
RTVSPropertyOp32
 70
     1
102
RTVSPropertyOp33
 70
     1
102
RTVSPropertyOp34
 70
     1
102
RTVSPropertyOp35
 70
     1
102
RTVSPropertyOp36
 70
     1
102
RTVSPropertyOp37
 70
     1
102
RTVSPropertyOp38
 70
     1
102
RTVSPropertyOp39
 70
     1
102
RTVSPropertyOp40
 70
     1
102
RTVSPropertyOp41
 70
     1
102
RTVSPropertyOp42
 70
     1
102
RTVSPropertyOp43
 70
     1
102
RTVSPropertyOp44
 70
     1
102
RTVSPropertyOp45
 70
     1
102
RTVSPropertyOp46
 70
     1
102
RTVSPropertyOp47
 70
     1
102
RTVSPropertyOp48
 70
     1
102
RTVSPropertyOp49
 70
     1
102
RTVSPropertyOp50
 70
     1
102
RTVSPropertyOp51
 70
     0
102
RTVSPropertyOp52
 70
     0
102
RTVSPropertyOp53
 70
     1
102
RTVSPropertyOp54
 70
     1
102
RTVSPropertyOp55
 70
     1
102
RTVSPropertyOp56
 70
     1
102
RTVSPropertyOp57
 70
     1
102
RTVSPropertyOp58
 70
     1
102
RTVSPropertyOp59
 70
     1
102
RTVSPropertyOp60
 70
     1
102
RTVSPropertyOp61
 70
     1
102
RTVSPropertyOp62
 70
     1
  0
XRECORD
  5
8678
102
{ACAD_REACTORS
330
8677
102
}
330
8677
100
AcDbXrecord
280
     1
102
RTVSPost2010Prop28
280
     0
102
RTVSPost2010PropOp28
 70
     1
102
RTVSPost2010Prop29
280
     1
102
RTVSPost2010PropOp29
 70
     1
102
RTVSPost2010Prop30
280
     1
102
RTVSPost2010PropOp30
 70
     1
102
RTVSPost2010Prop31
280
     0
102
RTVSPost2010PropOp31
 70
     1
102
RTVSPost2010Prop32
280
     0
102
RTVSPost2010PropOp32
 70
     1
102
RTVSPost2010Prop33
280
     0
102
RTVSPost2010PropOp33
 70
     1
102
RTVSPost2010Prop34
280
     0
102
RTVSPost2010PropOp34
 70
     1
102
RTVSPost2010Prop35
280
     0
102
RTVSPost2010PropOp35
 70
     1
102
RTVSPost2010Prop36
280
     0
102
RTVSPost2010PropOp36
 70
     1
102
RTVSPost2010Prop37
 90
       50
102
RTVSPost2010PropOp37
 70
     1
102
RTVSPost2010Prop38
140
0.0
102
RTVSPost2010PropOp38
 70
     1
102
RTVSPost2010Prop39
140
1.0
102
RTVSPost2010PropOp39
 70
     1
102
RTVSPost2010Prop40
 90
        0
102
RTVSPost2010PropOp40
 70
     1
102
RTVSPost2010Prop41ColorIndex
 90
       18
102
RTVSPost2010Prop41ColorRGB
 90
        0
102
RTVSPost2010PropOp41
 70
     1
102
RTVSPost2010Prop42
 90
       50
102
RTVSPost2010PropOp42
 70
     1
102
RTVSPost2010Prop43
 90
        3
102
RTVSPost2010PropOp43
 70
     1
102
RTVSPost2010Prop44ColorIndex
 90
        5
102
RTVSPost2010Prop44ColorRGB
 90
      255
102
RTVSPost2010PropOp44
 70
     1
102
RTVSPost2010Prop45
280
     0
102
RTVSPost2010PropOp45
 70
     1
102
RTVSPost2010Prop46
 90
       50
102
RTVSPost2010PropOp46
 70
     1
102
RTVSPost2010Prop47
 90
       50
102
RTVSPost2010PropOp47
 70
     1
102
RTVSPost2010Prop48
 90
       50
102
RTVSPost2010PropOp48
 70
     1
102
RTVSPost2010Prop49
280
     0
102
RTVSPost2010PropOp49
 70
     1
102
RTVSPost2010Prop50
 90
       50
102
RTVSPost2010PropOp50
 70
     1
102
RTVSPost2010Prop51ColorIndex
 90
      256
102
RTVSPost2010Prop51ColorRGB
 90
-16777216
102
RTVSPost2010PropOp51
 70
     0
102
RTVSPost2010Prop52
140
1.0
102
RTVSPost2010PropOp52
 70
     0
102
RTVSPost2010Prop53
 90
        2
102
RTVSPost2010PropOp53
 70
     1
102
RTVSPost2010Prop54
  1
strokes_ogs.tif
102
RTVSPost2010PropOp54
 70
     1
102
RTVSPost2010Prop55
280
     0
102
RTVSPost2010PropOp55
 70
     1
102
RTVSPost2010Prop56
140
1.0
102
RTVSPost2010PropOp56
 70
     1
102
RTVSPost2010Prop57
140
1.0
102
RTVSPost2010PropOp57
 70
     1
102
RTVSPropertyOp0
 70
     1
102
RTVSPropertyOp1
 70
     1
102
RTVSPropertyOp2
 70
     1
102
RTVSPropertyOp3
 70
     1
102
RTVSPropertyOp4
 70
     1
102
RTVSPropertyOp5
 70
     1
102
RTVSPropertyOp6
 70
     1
102
RTVSPropertyOp7
 70
     1
102
RTVSPropertyOp8
 70
     1
102
RTVSPropertyOp9
 70
     1
102
RTVSPropertyOp10
 70
     1
102
RTVSPropertyOp11
 70
     1
102
RTVSPropertyOp12
 70
     1
102
RTVSPropertyOp13
 70
     1
102
RTVSPropertyOp14
 70
     1
102
RTVSPropertyOp15
 70
     1
102
RTVSPropertyOp16
 70
     1
102
RTVSPropertyOp17
 70
     1
102
RTVSPropertyOp18
 70
     1
102
RTVSPropertyOp19
 70
     1
102
RTVSPropertyOp20
 70
     1
102
RTVSPropertyOp21
 70
     1
102
RTVSPropertyOp22
 70
     1
102
RTVSPropertyOp23
 70
     1
102
RTVSPropertyOp24
 70
     1
102
RTVSPropertyOp25
 70
     1
102
RTVSPropertyOp26
 70
     1
102
RTVSPropertyOp27
 70
     1
102
RTVSPropertyOp28
 70
     1
102
RTVSPropertyOp29
 70
     1
102
RTVSPropertyOp30
 70
     1
102
RTVSPropertyOp31
 70
     1
102
RTVSPropertyOp32
 70
     1
102
RTVSPropertyOp33
 70
     1
102
RTVSPropertyOp34
 70
     1
102
RTVSPropertyOp35
 70
     1
102
RTVSPropertyOp36
 70
     1
102
RTVSPropertyOp37
 70
     1
102
RTVSPropertyOp38
 70
     1
102
RTVSPropertyOp39
 70
     1
102
RTVSPropertyOp40
 70
     1
102
RTVSPropertyOp41
 70
     1
102
RTVSPropertyOp42
 70
     1
102
RTVSPropertyOp43
 70
     1
102
RTVSPropertyOp44
 70
     1
102
RTVSPropertyOp45
 70
     1
102
RTVSPropertyOp46
 70
     1
102
RTVSPropertyOp47
 70
     1
102
RTVSPropertyOp48
 70
     1
102
RTVSPropertyOp49
 70
     1
102
RTVSPropertyOp50
 70
     1
102
RTVSPropertyOp51
 70
     0
102
RTVSPropertyOp52
 70
     0
102
RTVSPropertyOp53
 70
     1
102
RTVSPropertyOp54
 70
     1
102
RTVSPropertyOp55
 70
     1
102
RTVSPropertyOp56
 70
     1
102
RTVSPropertyOp57
 70
     1
102
RTVSPropertyOp58
 70
     1
102
RTVSPropertyOp59
 70
     1
102
RTVSPropertyOp60
 70
     1
102
RTVSPropertyOp61
 70
     1
102
RTVSPropertyOp62
 70
     1
  0
XRECORD
  5
8693
102
{ACAD_REACTORS
330
8692
102
}
330
8692
100
AcDbXrecord
280
     1
102
RTVSPost2010Prop28
280
     0
102
RTVSPost2010PropOp28
 70
     1
102
RTVSPost2010Prop29
280
     1
102
RTVSPost2010PropOp29
 70
     1
102
RTVSPost2010Prop30
280
     1
102
RTVSPost2010PropOp30
 70
     1
102
RTVSPost2010Prop31
280
     0
102
RTVSPost2010PropOp31
 70
     1
102
RTVSPost2010Prop32
280
     0
102
RTVSPost2010PropOp32
 70
     1
102
RTVSPost2010Prop33
280
     0
102
RTVSPost2010PropOp33
 70
     1
102
RTVSPost2010Prop34
280
     0
102
RTVSPost2010PropOp34
 70
     1
102
RTVSPost2010Prop35
280
     0
102
RTVSPost2010PropOp35
 70
     1
102
RTVSPost2010Prop36
280
     0
102
RTVSPost2010PropOp36
 70
     1
102
RTVSPost2010Prop37
 90
       50
102
RTVSPost2010PropOp37
 70
     1
102
RTVSPost2010Prop38
140
0.0
102
RTVSPost2010PropOp38
 70
     1
102
RTVSPost2010Prop39
140
1.0
102
RTVSPost2010PropOp39
 70
     1
102
RTVSPost2010Prop40
 90
        0
102
RTVSPost2010PropOp40
 70
     1
102
RTVSPost2010Prop41ColorIndex
 90
       18
102
RTVSPost2010Prop41ColorRGB
 90
        0
102
RTVSPost2010PropOp41
 70
     1
102
RTVSPost2010Prop42
 90
       50
102
RTVSPost2010PropOp42
 70
     1
102
RTVSPost2010Prop43
 90
        3
102
RTVSPost2010PropOp43
 70
     1
102
RTVSPost2010Prop44ColorIndex
 90
        5
102
RTVSPost2010Prop44ColorRGB
 90
      255
102
RTVSPost2010PropOp44
 70
     1
102
RTVSPost2010Prop45
280
     0
102
RTVSPost2010PropOp45
 70
     1
102
RTVSPost2010Prop46
 90
       50
102
RTVSPost2010PropOp46
 70
     1
102
RTVSPost2010Prop47
 90
       50
102
RTVSPost2010PropOp47
 70
     1
102
RTVSPost2010Prop48
 90
       50
102
RTVSPost2010PropOp48
 70
     1
102
RTVSPost2010Prop49
280
     0
102
RTVSPost2010PropOp49
 70
     1
102
RTVSPost2010Prop50
 90
       50
102
RTVSPost2010PropOp50
 70
     1
102
RTVSPost2010Prop51ColorIndex
 90
      256
102
RTVSPost2010Prop51ColorRGB
 90
-16777216
102
RTVSPost2010PropOp51
 70
     0
102
RTVSPost2010Prop52
140
1.0
102
RTVSPost2010PropOp52
 70
     0
102
RTVSPost2010Prop53
 90
        2
102
RTVSPost2010PropOp53
 70
     1
102
RTVSPost2010Prop54
  1
strokes_ogs.tif
102
RTVSPost2010PropOp54
 70
     1
102
RTVSPost2010Prop55
280
     0
102
RTVSPost2010PropOp55
 70
     1
102
RTVSPost2010Prop56
140
1.0
102
RTVSPost2010PropOp56
 70
     1
102
RTVSPost2010Prop57
140
1.0
102
RTVSPost2010PropOp57
 70
     1
102
RTVSPropertyOp0
 70
     1
102
RTVSPropertyOp1
 70
     1
102
RTVSPropertyOp2
 70
     1
102
RTVSPropertyOp3
 70
     1
102
RTVSPropertyOp4
 70
     1
102
RTVSPropertyOp5
 70
     1
102
RTVSPropertyOp6
 70
     1
102
RTVSPropertyOp7
 70
     1
102
RTVSPropertyOp8
 70
     1
102
RTVSPropertyOp9
 70
     1
102
RTVSPropertyOp10
 70
     1
102
RTVSPropertyOp11
 70
     1
102
RTVSPropertyOp12
 70
     1
102
RTVSPropertyOp13
 70
     1
102
RTVSPropertyOp14
 70
     1
102
RTVSPropertyOp15
 70
     1
102
RTVSPropertyOp16
 70
     1
102
RTVSPropertyOp17
 70
     1
102
RTVSPropertyOp18
 70
     1
102
RTVSPropertyOp19
 70
     1
102
RTVSPropertyOp20
 70
     1
102
RTVSPropertyOp21
 70
     1
102
RTVSPropertyOp22
 70
     1
102
RTVSPropertyOp23
 70
     1
102
RTVSPropertyOp24
 70
     1
102
RTVSPropertyOp25
 70
     1
102
RTVSPropertyOp26
 70
     1
102
RTVSPropertyOp27
 70
     1
102
RTVSPropertyOp28
 70
     1
102
RTVSPropertyOp29
 70
     1
102
RTVSPropertyOp30
 70
     1
102
RTVSPropertyOp31
 70
     1
102
RTVSPropertyOp32
 70
     1
102
RTVSPropertyOp33
 70
     1
102
RTVSPropertyOp34
 70
     1
102
RTVSPropertyOp35
 70
     1
102
RTVSPropertyOp36
 70
     1
102
RTVSPropertyOp37
 70
     1
102
RTVSPropertyOp38
 70
     1
102
RTVSPropertyOp39
 70
     1
102
RTVSPropertyOp40
 70
     1
102
RTVSPropertyOp41
 70
     1
102
RTVSPropertyOp42
 70
     1
102
RTVSPropertyOp43
 70
     1
102
RTVSPropertyOp44
 70
     1
102
RTVSPropertyOp45
 70
     1
102
RTVSPropertyOp46
 70
     1
102
RTVSPropertyOp47
 70
     1
102
RTVSPropertyOp48
 70
     1
102
RTVSPropertyOp49
 70
     1
102
RTVSPropertyOp50
 70
     1
102
RTVSPropertyOp51
 70
     0
102
RTVSPropertyOp52
 70
     0
102
RTVSPropertyOp53
 70
     1
102
RTVSPropertyOp54
 70
     1
102
RTVSPropertyOp55
 70
     1
102
RTVSPropertyOp56
 70
     1
102
RTVSPropertyOp57
 70
     1
102
RTVSPropertyOp58
 70
     1
102
RTVSPropertyOp59
 70
     1
102
RTVSPropertyOp60
 70
     1
102
RTVSPropertyOp61
 70
     1
102
RTVSPropertyOp62
 70
     1
  0
XRECORD
  5
8691
102
{ACAD_REACTORS
330
8690
102
}
330
8690
100
AcDbXrecord
280
     1
102
RTVSPost2010Prop28
280
     0
102
RTVSPost2010PropOp28
 70
     1
102
RTVSPost2010Prop29
280
     1
102
RTVSPost2010PropOp29
 70
     1
102
RTVSPost2010Prop30
280
     1
102
RTVSPost2010PropOp30
 70
     1
102
RTVSPost2010Prop31
280
     0
102
RTVSPost2010PropOp31
 70
     1
102
RTVSPost2010Prop32
280
     0
102
RTVSPost2010PropOp32
 70
     1
102
RTVSPost2010Prop33
280
     0
102
RTVSPost2010PropOp33
 70
     1
102
RTVSPost2010Prop34
280
     0
102
RTVSPost2010PropOp34
 70
     1
102
RTVSPost2010Prop35
280
     0
102
RTVSPost2010PropOp35
 70
     1
102
RTVSPost2010Prop36
280
     0
102
RTVSPost2010PropOp36
 70
     1
102
RTVSPost2010Prop37
 90
       50
102
RTVSPost2010PropOp37
 70
     1
102
RTVSPost2010Prop38
140
0.0
102
RTVSPost2010PropOp38
 70
     1
102
RTVSPost2010Prop39
140
1.0
102
RTVSPost2010PropOp39
 70
     1
102
RTVSPost2010Prop40
 90
        0
102
RTVSPost2010PropOp40
 70
     1
102
RTVSPost2010Prop41ColorIndex
 90
       18
102
RTVSPost2010Prop41ColorRGB
 90
        0
102
RTVSPost2010PropOp41
 70
     1
102
RTVSPost2010Prop42
 90
       50
102
RTVSPost2010PropOp42
 70
     1
102
RTVSPost2010Prop43
 90
        3
102
RTVSPost2010PropOp43
 70
     1
102
RTVSPost2010Prop44ColorIndex
 90
        5
102
RTVSPost2010Prop44ColorRGB
 90
      255
102
RTVSPost2010PropOp44
 70
     1
102
RTVSPost2010Prop45
280
     0
102
RTVSPost2010PropOp45
 70
     1
102
RTVSPost2010Prop46
 90
       50
102
RTVSPost2010PropOp46
 70
     1
102
RTVSPost2010Prop47
 90
       50
102
RTVSPost2010PropOp47
 70
     1
102
RTVSPost2010Prop48
 90
       50
102
RTVSPost2010PropOp48
 70
     1
102
RTVSPost2010Prop49
280
     0
102
RTVSPost2010PropOp49
 70
     1
102
RTVSPost2010Prop50
 90
       50
102
RTVSPost2010PropOp50
 70
     1
102
RTVSPost2010Prop51ColorIndex
 90
      256
102
RTVSPost2010Prop51ColorRGB
 90
-16777216
102
RTVSPost2010PropOp51
 70
     0
102
RTVSPost2010Prop52
140
1.0
102
RTVSPost2010PropOp52
 70
     0
102
RTVSPost2010Prop53
 90
        2
102
RTVSPost2010PropOp53
 70
     1
102
RTVSPost2010Prop54
  1
strokes_ogs.tif
102
RTVSPost2010PropOp54
 70
     1
102
RTVSPost2010Prop55
280
     0
102
RTVSPost2010PropOp55
 70
     1
102
RTVSPost2010Prop56
140
1.0
102
RTVSPost2010PropOp56
 70
     1
102
RTVSPost2010Prop57
140
1.0
102
RTVSPost2010PropOp57
 70
     1
102
RTVSPropertyOp0
 70
     1
102
RTVSPropertyOp1
 70
     1
102
RTVSPropertyOp2
 70
     1
102
RTVSPropertyOp3
 70
     1
102
RTVSPropertyOp4
 70
     1
102
RTVSPropertyOp5
 70
     1
102
RTVSPropertyOp6
 70
     1
102
RTVSPropertyOp7
 70
     1
102
RTVSPropertyOp8
 70
     1
102
RTVSPropertyOp9
 70
     1
102
RTVSPropertyOp10
 70
     1
102
RTVSPropertyOp11
 70
     1
102
RTVSPropertyOp12
 70
     1
102
RTVSPropertyOp13
 70
     1
102
RTVSPropertyOp14
 70
     1
102
RTVSPropertyOp15
 70
     1
102
RTVSPropertyOp16
 70
     1
102
RTVSPropertyOp17
 70
     1
102
RTVSPropertyOp18
 70
     1
102
RTVSPropertyOp19
 70
     1
102
RTVSPropertyOp20
 70
     1
102
RTVSPropertyOp21
 70
     1
102
RTVSPropertyOp22
 70
     1
102
RTVSPropertyOp23
 70
     1
102
RTVSPropertyOp24
 70
     1
102
RTVSPropertyOp25
 70
     1
102
RTVSPropertyOp26
 70
     1
102
RTVSPropertyOp27
 70
     1
102
RTVSPropertyOp28
 70
     1
102
RTVSPropertyOp29
 70
     1
102
RTVSPropertyOp30
 70
     1
102
RTVSPropertyOp31
 70
     1
102
RTVSPropertyOp32
 70
     1
102
RTVSPropertyOp33
 70
     1
102
RTVSPropertyOp34
 70
     1
102
RTVSPropertyOp35
 70
     1
102
RTVSPropertyOp36
 70
     1
102
RTVSPropertyOp37
 70
     1
102
RTVSPropertyOp38
 70
     1
102
RTVSPropertyOp39
 70
     1
102
RTVSPropertyOp40
 70
     1
102
RTVSPropertyOp41
 70
     1
102
RTVSPropertyOp42
 70
     1
102
RTVSPropertyOp43
 70
     1
102
RTVSPropertyOp44
 70
     1
102
RTVSPropertyOp45
 70
     1
102
RTVSPropertyOp46
 70
     1
102
RTVSPropertyOp47
 70
     1
102
RTVSPropertyOp48
 70
     1
102
RTVSPropertyOp49
 70
     1
102
RTVSPropertyOp50
 70
     1
102
RTVSPropertyOp51
 70
     0
102
RTVSPropertyOp52
 70
     0
102
RTVSPropertyOp53
 70
     1
102
RTVSPropertyOp54
 70
     1
102
RTVSPropertyOp55
 70
     1
102
RTVSPropertyOp56
 70
     1
102
RTVSPropertyOp57
 70
     1
102
RTVSPropertyOp58
 70
     1
102
RTVSPropertyOp59
 70
     1
102
RTVSPropertyOp60
 70
     1
102
RTVSPropertyOp61
 70
     1
102
RTVSPropertyOp62
 70
     1
  0
XRECORD
  5
868B
102
{ACAD_REACTORS
330
868A
102
}
330
868A
100
AcDbXrecord
280
     1
102
RTVSPost2010Prop28
280
     0
102
RTVSPost2010PropOp28
 70
     1
102
RTVSPost2010Prop29
280
     1
102
RTVSPost2010PropOp29
 70
     1
102
RTVSPost2010Prop30
280
     1
102
RTVSPost2010PropOp30
 70
     1
102
RTVSPost2010Prop31
280
     0
102
RTVSPost2010PropOp31
 70
     1
102
RTVSPost2010Prop32
280
     0
102
RTVSPost2010PropOp32
 70
     1
102
RTVSPost2010Prop33
280
     0
102
RTVSPost2010PropOp33
 70
     1
102
RTVSPost2010Prop34
280
     0
102
RTVSPost2010PropOp34
 70
     1
102
RTVSPost2010Prop35
280
     0
102
RTVSPost2010PropOp35
 70
     1
102
RTVSPost2010Prop36
280
     0
102
RTVSPost2010PropOp36
 70
     1
102
RTVSPost2010Prop37
 90
       50
102
RTVSPost2010PropOp37
 70
     1
102
RTVSPost2010Prop38
140
0.0
102
RTVSPost2010PropOp38
 70
     1
102
RTVSPost2010Prop39
140
1.0
102
RTVSPost2010PropOp39
 70
     1
102
RTVSPost2010Prop40
 90
        0
102
RTVSPost2010PropOp40
 70
     1
102
RTVSPost2010Prop41ColorIndex
 90
       18
102
RTVSPost2010Prop41ColorRGB
 90
        0
102
RTVSPost2010PropOp41
 70
     1
102
RTVSPost2010Prop42
 90
       50
102
RTVSPost2010PropOp42
 70
     1
102
RTVSPost2010Prop43
 90
        3
102
RTVSPost2010PropOp43
 70
     1
102
RTVSPost2010Prop44ColorIndex
 90
        5
102
RTVSPost2010Prop44ColorRGB
 90
      255
102
RTVSPost2010PropOp44
 70
     1
102
RTVSPost2010Prop45
280
     0
102
RTVSPost2010PropOp45
 70
     1
102
RTVSPost2010Prop46
 90
       50
102
RTVSPost2010PropOp46
 70
     1
102
RTVSPost2010Prop47
 90
       50
102
RTVSPost2010PropOp47
 70
     1
102
RTVSPost2010Prop48
 90
       50
102
RTVSPost2010PropOp48
 70
     1
102
RTVSPost2010Prop49
280
     0
102
RTVSPost2010PropOp49
 70
     1
102
RTVSPost2010Prop50
 90
       50
102
RTVSPost2010PropOp50
 70
     1
102
RTVSPost2010Prop51ColorIndex
 90
      256
102
RTVSPost2010Prop51ColorRGB
 90
-16777216
102
RTVSPost2010PropOp51
 70
     0
102
RTVSPost2010Prop52
140
1.0
102
RTVSPost2010PropOp52
 70
     0
102
RTVSPost2010Prop53
 90
        2
102
RTVSPost2010PropOp53
 70
     1
102
RTVSPost2010Prop54
  1
strokes_ogs.tif
102
RTVSPost2010PropOp54
 70
     1
102
RTVSPost2010Prop55
280
     0
102
RTVSPost2010PropOp55
 70
     1
102
RTVSPost2010Prop56
140
1.0
102
RTVSPost2010PropOp56
 70
     1
102
RTVSPost2010Prop57
140
1.0
102
RTVSPost2010PropOp57
 70
     1
102
RTVSPropertyOp0
 70
     1
102
RTVSPropertyOp1
 70
     1
102
RTVSPropertyOp2
 70
     1
102
RTVSPropertyOp3
 70
     1
102
RTVSPropertyOp4
 70
     1
102
RTVSPropertyOp5
 70
     1
102
RTVSPropertyOp6
 70
     1
102
RTVSPropertyOp7
 70
     1
102
RTVSPropertyOp8
 70
     1
102
RTVSPropertyOp9
 70
     1
102
RTVSPropertyOp10
 70
     1
102
RTVSPropertyOp11
 70
     1
102
RTVSPropertyOp12
 70
     1
102
RTVSPropertyOp13
 70
     1
102
RTVSPropertyOp14
 70
     1
102
RTVSPropertyOp15
 70
     1
102
RTVSPropertyOp16
 70
     1
102
RTVSPropertyOp17
 70
     1
102
RTVSPropertyOp18
 70
     1
102
RTVSPropertyOp19
 70
     1
102
RTVSPropertyOp20
 70
     1
102
RTVSPropertyOp21
 70
     1
102
RTVSPropertyOp22
 70
     1
102
RTVSPropertyOp23
 70
     1
102
RTVSPropertyOp24
 70
     1
102
RTVSPropertyOp25
 70
     1
102
RTVSPropertyOp26
 70
     1
102
RTVSPropertyOp27
 70
     1
102
RTVSPropertyOp28
 70
     1
102
RTVSPropertyOp29
 70
     1
102
RTVSPropertyOp30
 70
     1
102
RTVSPropertyOp31
 70
     1
102
RTVSPropertyOp32
 70
     1
102
RTVSPropertyOp33
 70
     1
102
RTVSPropertyOp34
 70
     1
102
RTVSPropertyOp35
 70
     1
102
RTVSPropertyOp36
 70
     1
102
RTVSPropertyOp37
 70
     1
102
RTVSPropertyOp38
 70
     1
102
RTVSPropertyOp39
 70
     1
102
RTVSPropertyOp40
 70
     1
102
RTVSPropertyOp41
 70
     1
102
RTVSPropertyOp42
 70
     1
102
RTVSPropertyOp43
 70
     1
102
RTVSPropertyOp44
 70
     1
102
RTVSPropertyOp45
 70
     1
102
RTVSPropertyOp46
 70
     1
102
RTVSPropertyOp47
 70
     1
102
RTVSPropertyOp48
 70
     1
102
RTVSPropertyOp49
 70
     1
102
RTVSPropertyOp50
 70
     1
102
RTVSPropertyOp51
 70
     0
102
RTVSPropertyOp52
 70
     0
102
RTVSPropertyOp53
 70
     1
102
RTVSPropertyOp54
 70
     1
102
RTVSPropertyOp55
 70
     1
102
RTVSPropertyOp56
 70
     1
102
RTVSPropertyOp57
 70
     1
102
RTVSPropertyOp58
 70
     1
102
RTVSPropertyOp59
 70
     1
102
RTVSPropertyOp60
 70
     1
102
RTVSPropertyOp61
 70
     1
102
RTVSPropertyOp62
 70
     1
  0
XRECORD
  5
868D
102
{ACAD_REACTORS
330
868C
102
}
330
868C
100
AcDbXrecord
280
     1
102
RTVSPost2010Prop28
280
     0
102
RTVSPost2010PropOp28
 70
     1
102
RTVSPost2010Prop29
280
     1
102
RTVSPost2010PropOp29
 70
     1
102
RTVSPost2010Prop30
280
     1
102
RTVSPost2010PropOp30
 70
     1
102
RTVSPost2010Prop31
280
     0
102
RTVSPost2010PropOp31
 70
     1
102
RTVSPost2010Prop32
280
     0
102
RTVSPost2010PropOp32
 70
     1
102
RTVSPost2010Prop33
280
     0
102
RTVSPost2010PropOp33
 70
     1
102
RTVSPost2010Prop34
280
     0
102
RTVSPost2010PropOp34
 70
     1
102
RTVSPost2010Prop35
280
     0
102
RTVSPost2010PropOp35
 70
     1
102
RTVSPost2010Prop36
280
     0
102
RTVSPost2010PropOp36
 70
     1
102
RTVSPost2010Prop37
 90
       50
102
RTVSPost2010PropOp37
 70
     1
102
RTVSPost2010Prop38
140
0.0
102
RTVSPost2010PropOp38
 70
     1
102
RTVSPost2010Prop39
140
1.0
102
RTVSPost2010PropOp39
 70
     1
102
RTVSPost2010Prop40
 90
        0
102
RTVSPost2010PropOp40
 70
     1
102
RTVSPost2010Prop41ColorIndex
 90
       18
102
RTVSPost2010Prop41ColorRGB
 90
        0
102
RTVSPost2010PropOp41
 70
     1
102
RTVSPost2010Prop42
 90
       50
102
RTVSPost2010PropOp42
 70
     1
102
RTVSPost2010Prop43
 90
        3
102
RTVSPost2010PropOp43
 70
     1
102
RTVSPost2010Prop44ColorIndex
 90
        5
102
RTVSPost2010Prop44ColorRGB
 90
      255
102
RTVSPost2010PropOp44
 70
     1
102
RTVSPost2010Prop45
280
     0
102
RTVSPost2010PropOp45
 70
     1
102
RTVSPost2010Prop46
 90
       50
102
RTVSPost2010PropOp46
 70
     1
102
RTVSPost2010Prop47
 90
       50
102
RTVSPost2010PropOp47
 70
     1
102
RTVSPost2010Prop48
 90
       50
102
RTVSPost2010PropOp48
 70
     1
102
RTVSPost2010Prop49
280
     0
102
RTVSPost2010PropOp49
 70
     1
102
RTVSPost2010Prop50
 90
       50
102
RTVSPost2010PropOp50
 70
     1
102
RTVSPost2010Prop51ColorIndex
 90
      256
102
RTVSPost2010Prop51ColorRGB
 90
-16777216
102
RTVSPost2010PropOp51
 70
     0
102
RTVSPost2010Prop52
140
1.0
102
RTVSPost2010PropOp52
 70
     0
102
RTVSPost2010Prop53
 90
        2
102
RTVSPost2010PropOp53
 70
     1
102
RTVSPost2010Prop54
  1
strokes_ogs.tif
102
RTVSPost2010PropOp54
 70
     1
102
RTVSPost2010Prop55
280
     0
102
RTVSPost2010PropOp55
 70
     1
102
RTVSPost2010Prop56
140
1.0
102
RTVSPost2010PropOp56
 70
     1
102
RTVSPost2010Prop57
140
1.0
102
RTVSPost2010PropOp57
 70
     1
102
RTVSPropertyOp0
 70
     1
102
RTVSPropertyOp1
 70
     1
102
RTVSPropertyOp2
 70
     1
102
RTVSPropertyOp3
 70
     1
102
RTVSPropertyOp4
 70
     1
102
RTVSPropertyOp5
 70
     1
102
RTVSPropertyOp6
 70
     1
102
RTVSPropertyOp7
 70
     1
102
RTVSPropertyOp8
 70
     1
102
RTVSPropertyOp9
 70
     1
102
RTVSPropertyOp10
 70
     1
102
RTVSPropertyOp11
 70
     1
102
RTVSPropertyOp12
 70
     1
102
RTVSPropertyOp13
 70
     1
102
RTVSPropertyOp14
 70
     1
102
RTVSPropertyOp15
 70
     1
102
RTVSPropertyOp16
 70
     1
102
RTVSPropertyOp17
 70
     1
102
RTVSPropertyOp18
 70
     1
102
RTVSPropertyOp19
 70
     1
102
RTVSPropertyOp20
 70
     1
102
RTVSPropertyOp21
 70
     1
102
RTVSPropertyOp22
 70
     1
102
RTVSPropertyOp23
 70
     1
102
RTVSPropertyOp24
 70
     1
102
RTVSPropertyOp25
 70
     1
102
RTVSPropertyOp26
 70
     1
102
RTVSPropertyOp27
 70
     1
102
RTVSPropertyOp28
 70
     1
102
RTVSPropertyOp29
 70
     1
102
RTVSPropertyOp30
 70
     1
102
RTVSPropertyOp31
 70
     1
102
RTVSPropertyOp32
 70
     1
102
RTVSPropertyOp33
 70
     1
102
RTVSPropertyOp34
 70
     1
102
RTVSPropertyOp35
 70
     1
102
RTVSPropertyOp36
 70
     1
102
RTVSPropertyOp37
 70
     1
102
RTVSPropertyOp38
 70
     1
102
RTVSPropertyOp39
 70
     1
102
RTVSPropertyOp40
 70
     1
102
RTVSPropertyOp41
 70
     1
102
RTVSPropertyOp42
 70
     1
102
RTVSPropertyOp43
 70
     1
102
RTVSPropertyOp44
 70
     1
102
RTVSPropertyOp45
 70
     1
102
RTVSPropertyOp46
 70
     1
102
RTVSPropertyOp47
 70
     1
102
RTVSPropertyOp48
 70
     1
102
RTVSPropertyOp49
 70
     1
102
RTVSPropertyOp50
 70
     1
102
RTVSPropertyOp51
 70
     0
102
RTVSPropertyOp52
 70
     0
102
RTVSPropertyOp53
 70
     1
102
RTVSPropertyOp54
 70
     1
102
RTVSPropertyOp55
 70
     1
102
RTVSPropertyOp56
 70
     1
102
RTVSPropertyOp57
 70
     1
102
RTVSPropertyOp58
 70
     1
102
RTVSPropertyOp59
 70
     1
102
RTVSPropertyOp60
 70
     1
102
RTVSPropertyOp61
 70
     1
102
RTVSPropertyOp62
 70
     1
  0
XRECORD
  5
867E
102
{ACAD_REACTORS
330
867D
102
}
330
867D
100
AcDbXrecord
280
     1
102
RTVSPost2010Prop28
280
     0
102
RTVSPost2010PropOp28
 70
     1
102
RTVSPost2010Prop29
280
     1
102
RTVSPost2010PropOp29
 70
     1
102
RTVSPost2010Prop30
280
     1
102
RTVSPost2010PropOp30
 70
     1
102
RTVSPost2010Prop31
280
     0
102
RTVSPost2010PropOp31
 70
     1
102
RTVSPost2010Prop32
280
     0
102
RTVSPost2010PropOp32
 70
     1
102
RTVSPost2010Prop33
280
     0
102
RTVSPost2010PropOp33
 70
     1
102
RTVSPost2010Prop34
280
     0
102
RTVSPost2010PropOp34
 70
     1
102
RTVSPost2010Prop35
280
     0
102
RTVSPost2010PropOp35
 70
     1
102
RTVSPost2010Prop36
280
     0
102
RTVSPost2010PropOp36
 70
     1
102
RTVSPost2010Prop37
 90
       50
102
RTVSPost2010PropOp37
 70
     1
102
RTVSPost2010Prop38
140
0.0
102
RTVSPost2010PropOp38
 70
     1
102
RTVSPost2010Prop39
140
1.0
102
RTVSPost2010PropOp39
 70
     1
102
RTVSPost2010Prop40
 90
        0
102
RTVSPost2010PropOp40
 70
     1
102
RTVSPost2010Prop41ColorIndex
 90
       18
102
RTVSPost2010Prop41ColorRGB
 90
        0
102
RTVSPost2010PropOp41
 70
     1
102
RTVSPost2010Prop42
 90
       50
102
RTVSPost2010PropOp42
 70
     1
102
RTVSPost2010Prop43
 90
        3
102
RTVSPost2010PropOp43
 70
     1
102
RTVSPost2010Prop44ColorIndex
 90
        5
102
RTVSPost2010Prop44ColorRGB
 90
      255
102
RTVSPost2010PropOp44
 70
     1
102
RTVSPost2010Prop45
280
     0
102
RTVSPost2010PropOp45
 70
     1
102
RTVSPost2010Prop46
 90
       50
102
RTVSPost2010PropOp46
 70
     1
102
RTVSPost2010Prop47
 90
       50
102
RTVSPost2010PropOp47
 70
     1
102
RTVSPost2010Prop48
 90
       50
102
RTVSPost2010PropOp48
 70
     1
102
RTVSPost2010Prop49
280
     0
102
RTVSPost2010PropOp49
 70
     1
102
RTVSPost2010Prop50
 90
       50
102
RTVSPost2010PropOp50
 70
     1
102
RTVSPost2010Prop51ColorIndex
 90
      256
102
RTVSPost2010Prop51ColorRGB
 90
-16777216
102
RTVSPost2010PropOp51
 70
     0
102
RTVSPost2010Prop52
140
1.0
102
RTVSPost2010PropOp52
 70
     0
102
RTVSPost2010Prop53
 90
        2
102
RTVSPost2010PropOp53
 70
     1
102
RTVSPost2010Prop54
  1
strokes_ogs.tif
102
RTVSPost2010PropOp54
 70
     1
102
RTVSPost2010Prop55
280
     0
102
RTVSPost2010PropOp55
 70
     1
102
RTVSPost2010Prop56
140
1.0
102
RTVSPost2010PropOp56
 70
     1
102
RTVSPost2010Prop57
140
1.0
102
RTVSPost2010PropOp57
 70
     1
102
RTVSPropertyOp0
 70
     1
102
RTVSPropertyOp1
 70
     1
102
RTVSPropertyOp2
 70
     1
102
RTVSPropertyOp3
 70
     1
102
RTVSPropertyOp4
 70
     1
102
RTVSPropertyOp5
 70
     1
102
RTVSPropertyOp6
 70
     1
102
RTVSPropertyOp7
 70
     1
102
RTVSPropertyOp8
 70
     1
102
RTVSPropertyOp9
 70
     1
102
RTVSPropertyOp10
 70
     1
102
RTVSPropertyOp11
 70
     1
102
RTVSPropertyOp12
 70
     1
102
RTVSPropertyOp13
 70
     1
102
RTVSPropertyOp14
 70
     1
102
RTVSPropertyOp15
 70
     1
102
RTVSPropertyOp16
 70
     1
102
RTVSPropertyOp17
 70
     1
102
RTVSPropertyOp18
 70
     1
102
RTVSPropertyOp19
 70
     1
102
RTVSPropertyOp20
 70
     1
102
RTVSPropertyOp21
 70
     1
102
RTVSPropertyOp22
 70
     1
102
RTVSPropertyOp23
 70
     1
102
RTVSPropertyOp24
 70
     1
102
RTVSPropertyOp25
 70
     1
102
RTVSPropertyOp26
 70
     1
102
RTVSPropertyOp27
 70
     1
102
RTVSPropertyOp28
 70
     1
102
RTVSPropertyOp29
 70
     1
102
RTVSPropertyOp30
 70
     1
102
RTVSPropertyOp31
 70
     1
102
RTVSPropertyOp32
 70
     1
102
RTVSPropertyOp33
 70
     1
102
RTVSPropertyOp34
 70
     1
102
RTVSPropertyOp35
 70
     1
102
RTVSPropertyOp36
 70
     1
102
RTVSPropertyOp37
 70
     1
102
RTVSPropertyOp38
 70
     1
102
RTVSPropertyOp39
 70
     1
102
RTVSPropertyOp40
 70
     1
102
RTVSPropertyOp41
 70
     1
102
RTVSPropertyOp42
 70
     1
102
RTVSPropertyOp43
 70
     1
102
RTVSPropertyOp44
 70
     1
102
RTVSPropertyOp45
 70
     1
102
RTVSPropertyOp46
 70
     1
102
RTVSPropertyOp47
 70
     1
102
RTVSPropertyOp48
 70
     1
102
RTVSPropertyOp49
 70
     1
102
RTVSPropertyOp50
 70
     1
102
RTVSPropertyOp51
 70
     0
102
RTVSPropertyOp52
 70
     0
102
RTVSPropertyOp53
 70
     1
102
RTVSPropertyOp54
 70
     1
102
RTVSPropertyOp55
 70
     1
102
RTVSPropertyOp56
 70
     1
102
RTVSPropertyOp57
 70
     1
102
RTVSPropertyOp58
 70
     1
102
RTVSPropertyOp59
 70
     1
102
RTVSPropertyOp60
 70
     1
102
RTVSPropertyOp61
 70
     1
102
RTVSPropertyOp62
 70
     1
  0
XRECORD
  5
8687
102
{ACAD_REACTORS
330
8686
102
}
330
8686
100
AcDbXrecord
280
     1
102
RTVSPost2010Prop28
280
     0
102
RTVSPost2010PropOp28
 70
     1
102
RTVSPost2010Prop29
280
     1
102
RTVSPost2010PropOp29
 70
     1
102
RTVSPost2010Prop30
280
     1
102
RTVSPost2010PropOp30
 70
     1
102
RTVSPost2010Prop31
280
     0
102
RTVSPost2010PropOp31
 70
     1
102
RTVSPost2010Prop32
280
     0
102
RTVSPost2010PropOp32
 70
     1
102
RTVSPost2010Prop33
280
     0
102
RTVSPost2010PropOp33
 70
     1
102
RTVSPost2010Prop34
280
     0
102
RTVSPost2010PropOp34
 70
     1
102
RTVSPost2010Prop35
280
     0
102
RTVSPost2010PropOp35
 70
     1
102
RTVSPost2010Prop36
280
     0
102
RTVSPost2010PropOp36
 70
     1
102
RTVSPost2010Prop37
 90
       50
102
RTVSPost2010PropOp37
 70
     1
102
RTVSPost2010Prop38
140
0.0
102
RTVSPost2010PropOp38
 70
     1
102
RTVSPost2010Prop39
140
1.0
102
RTVSPost2010PropOp39
 70
     1
102
RTVSPost2010Prop40
 90
        0
102
RTVSPost2010PropOp40
 70
     1
102
RTVSPost2010Prop41ColorIndex
 90
       18
102
RTVSPost2010Prop41ColorRGB
 90
        0
102
RTVSPost2010PropOp41
 70
     1
102
RTVSPost2010Prop42
 90
       50
102
RTVSPost2010PropOp42
 70
     1
102
RTVSPost2010Prop43
 90
        3
102
RTVSPost2010PropOp43
 70
     1
102
RTVSPost2010Prop44ColorIndex
 90
        5
102
RTVSPost2010Prop44ColorRGB
 90
      255
102
RTVSPost2010PropOp44
 70
     1
102
RTVSPost2010Prop45
280
     0
102
RTVSPost2010PropOp45
 70
     1
102
RTVSPost2010Prop46
 90
       50
102
RTVSPost2010PropOp46
 70
     1
102
RTVSPost2010Prop47
 90
       50
102
RTVSPost2010PropOp47
 70
     1
102
RTVSPost2010Prop48
 90
       50
102
RTVSPost2010PropOp48
 70
     1
102
RTVSPost2010Prop49
280
     0
102
RTVSPost2010PropOp49
 70
     1
102
RTVSPost2010Prop50
 90
       50
102
RTVSPost2010PropOp50
 70
     1
102
RTVSPost2010Prop51ColorIndex
 90
      256
102
RTVSPost2010Prop51ColorRGB
 90
-16777216
102
RTVSPost2010PropOp51
 70
     0
102
RTVSPost2010Prop52
140
1.0
102
RTVSPost2010PropOp52
 70
     0
102
RTVSPost2010Prop53
 90
        2
102
RTVSPost2010PropOp53
 70
     1
102
RTVSPost2010Prop54
  1
strokes_ogs.tif
102
RTVSPost2010PropOp54
 70
     1
102
RTVSPost2010Prop55
280
     0
102
RTVSPost2010PropOp55
 70
     1
102
RTVSPost2010Prop56
140
1.0
102
RTVSPost2010PropOp56
 70
     1
102
RTVSPost2010Prop57
140
1.0
102
RTVSPost2010PropOp57
 70
     1
102
RTVSPropertyOp0
 70
     1
102
RTVSPropertyOp1
 70
     1
102
RTVSPropertyOp2
 70
     1
102
RTVSPropertyOp3
 70
     1
102
RTVSPropertyOp4
 70
     1
102
RTVSPropertyOp5
 70
     1
102
RTVSPropertyOp6
 70
     1
102
RTVSPropertyOp7
 70
     1
102
RTVSPropertyOp8
 70
     1
102
RTVSPropertyOp9
 70
     1
102
RTVSPropertyOp10
 70
     1
102
RTVSPropertyOp11
 70
     1
102
RTVSPropertyOp12
 70
     1
102
RTVSPropertyOp13
 70
     1
102
RTVSPropertyOp14
 70
     1
102
RTVSPropertyOp15
 70
     1
102
RTVSPropertyOp16
 70
     1
102
RTVSPropertyOp17
 70
     1
102
RTVSPropertyOp18
 70
     1
102
RTVSPropertyOp19
 70
     1
102
RTVSPropertyOp20
 70
     1
102
RTVSPropertyOp21
 70
     1
102
RTVSPropertyOp22
 70
     1
102
RTVSPropertyOp23
 70
     1
102
RTVSPropertyOp24
 70
     1
102
RTVSPropertyOp25
 70
     1
102
RTVSPropertyOp26
 70
     1
102
RTVSPropertyOp27
 70
     1
102
RTVSPropertyOp28
 70
     1
102
RTVSPropertyOp29
 70
     1
102
RTVSPropertyOp30
 70
     1
102
RTVSPropertyOp31
 70
     1
102
RTVSPropertyOp32
 70
     1
102
RTVSPropertyOp33
 70
     1
102
RTVSPropertyOp34
 70
     1
102
RTVSPropertyOp35
 70
     1
102
RTVSPropertyOp36
 70
     1
102
RTVSPropertyOp37
 70
     1
102
RTVSPropertyOp38
 70
     1
102
RTVSPropertyOp39
 70
     1
102
RTVSPropertyOp40
 70
     1
102
RTVSPropertyOp41
 70
     1
102
RTVSPropertyOp42
 70
     1
102
RTVSPropertyOp43
 70
     1
102
RTVSPropertyOp44
 70
     1
102
RTVSPropertyOp45
 70
     1
102
RTVSPropertyOp46
 70
     1
102
RTVSPropertyOp47
 70
     1
102
RTVSPropertyOp48
 70
     1
102
RTVSPropertyOp49
 70
     1
102
RTVSPropertyOp50
 70
     1
102
RTVSPropertyOp51
 70
     0
102
RTVSPropertyOp52
 70
     0
102
RTVSPropertyOp53
 70
     1
102
RTVSPropertyOp54
 70
     1
102
RTVSPropertyOp55
 70
     1
102
RTVSPropertyOp56
 70
     1
102
RTVSPropertyOp57
 70
     1
102
RTVSPropertyOp58
 70
     1
102
RTVSPropertyOp59
 70
     1
102
RTVSPropertyOp60
 70
     1
102
RTVSPropertyOp61
 70
     1
102
RTVSPropertyOp62
 70
     1
  0
XRECORD
  5
868F
102
{ACAD_REACTORS
330
868E
102
}
330
868E
100
AcDbXrecord
280
     1
102
RTVSPost2010Prop28
280
     0
102
RTVSPost2010PropOp28
 70
     1
102
RTVSPost2010Prop29
280
     1
102
RTVSPost2010PropOp29
 70
     1
102
RTVSPost2010Prop30
280
     1
102
RTVSPost2010PropOp30
 70
     1
102
RTVSPost2010Prop31
280
     0
102
RTVSPost2010PropOp31
 70
     1
102
RTVSPost2010Prop32
280
     0
102
RTVSPost2010PropOp32
 70
     1
102
RTVSPost2010Prop33
280
     0
102
RTVSPost2010PropOp33
 70
     1
102
RTVSPost2010Prop34
280
     0
102
RTVSPost2010PropOp34
 70
     1
102
RTVSPost2010Prop35
280
     0
102
RTVSPost2010PropOp35
 70
     1
102
RTVSPost2010Prop36
280
     0
102
RTVSPost2010PropOp36
 70
     1
102
RTVSPost2010Prop37
 90
       50
102
RTVSPost2010PropOp37
 70
     1
102
RTVSPost2010Prop38
140
0.0
102
RTVSPost2010PropOp38
 70
     1
102
RTVSPost2010Prop39
140
1.0
102
RTVSPost2010PropOp39
 70
     1
102
RTVSPost2010Prop40
 90
        0
102
RTVSPost2010PropOp40
 70
     1
102
RTVSPost2010Prop41ColorIndex
 90
       18
102
RTVSPost2010Prop41ColorRGB
 90
        0
102
RTVSPost2010PropOp41
 70
     1
102
RTVSPost2010Prop42
 90
       50
102
RTVSPost2010PropOp42
 70
     1
102
RTVSPost2010Prop43
 90
        3
102
RTVSPost2010PropOp43
 70
     1
102
RTVSPost2010Prop44ColorIndex
 90
        5
102
RTVSPost2010Prop44ColorRGB
 90
      255
102
RTVSPost2010PropOp44
 70
     1
102
RTVSPost2010Prop45
280
     0
102
RTVSPost2010PropOp45
 70
     1
102
RTVSPost2010Prop46
 90
       50
102
RTVSPost2010PropOp46
 70
     1
102
RTVSPost2010Prop47
 90
       50
102
RTVSPost2010PropOp47
 70
     1
102
RTVSPost2010Prop48
 90
       50
102
RTVSPost2010PropOp48
 70
     1
102
RTVSPost2010Prop49
280
     0
102
RTVSPost2010PropOp49
 70
     1
102
RTVSPost2010Prop50
 90
       50
102
RTVSPost2010PropOp50
 70
     1
102
RTVSPost2010Prop51ColorIndex
 90
      256
102
RTVSPost2010Prop51ColorRGB
 90
-16777216
102
RTVSPost2010PropOp51
 70
     0
102
RTVSPost2010Prop52
140
1.0
102
RTVSPost2010PropOp52
 70
     0
102
RTVSPost2010Prop53
 90
        2
102
RTVSPost2010PropOp53
 70
     1
102
RTVSPost2010Prop54
  1
strokes_ogs.tif
102
RTVSPost2010PropOp54
 70
     1
102
RTVSPost2010Prop55
280
     0
102
RTVSPost2010PropOp55
 70
     1
102
RTVSPost2010Prop56
140
1.0
102
RTVSPost2010PropOp56
 70
     1
102
RTVSPost2010Prop57
140
1.0
102
RTVSPost2010PropOp57
 70
     1
102
RTVSPropertyOp0
 70
     1
102
RTVSPropertyOp1
 70
     1
102
RTVSPropertyOp2
 70
     1
102
RTVSPropertyOp3
 70
     1
102
RTVSPropertyOp4
 70
     1
102
RTVSPropertyOp5
 70
     1
102
RTVSPropertyOp6
 70
     1
102
RTVSPropertyOp7
 70
     1
102
RTVSPropertyOp8
 70
     1
102
RTVSPropertyOp9
 70
     1
102
RTVSPropertyOp10
 70
     1
102
RTVSPropertyOp11
 70
     1
102
RTVSPropertyOp12
 70
     1
102
RTVSPropertyOp13
 70
     1
102
RTVSPropertyOp14
 70
     1
102
RTVSPropertyOp15
 70
     1
102
RTVSPropertyOp16
 70
     1
102
RTVSPropertyOp17
 70
     1
102
RTVSPropertyOp18
 70
     1
102
RTVSPropertyOp19
 70
     1
102
RTVSPropertyOp20
 70
     1
102
RTVSPropertyOp21
 70
     1
102
RTVSPropertyOp22
 70
     1
102
RTVSPropertyOp23
 70
     1
102
RTVSPropertyOp24
 70
     1
102
RTVSPropertyOp25
 70
     1
102
RTVSPropertyOp26
 70
     1
102
RTVSPropertyOp27
 70
     1
102
RTVSPropertyOp28
 70
     1
102
RTVSPropertyOp29
 70
     1
102
RTVSPropertyOp30
 70
     1
102
RTVSPropertyOp31
 70
     1
102
RTVSPropertyOp32
 70
     1
102
RTVSPropertyOp33
 70
     1
102
RTVSPropertyOp34
 70
     1
102
RTVSPropertyOp35
 70
     1
102
RTVSPropertyOp36
 70
     1
102
RTVSPropertyOp37
 70
     1
102
RTVSPropertyOp38
 70
     1
102
RTVSPropertyOp39
 70
     1
102
RTVSPropertyOp40
 70
     1
102
RTVSPropertyOp41
 70
     1
102
RTVSPropertyOp42
 70
     1
102
RTVSPropertyOp43
 70
     1
102
RTVSPropertyOp44
 70
     1
102
RTVSPropertyOp45
 70
     1
102
RTVSPropertyOp46
 70
     1
102
RTVSPropertyOp47
 70
     1
102
RTVSPropertyOp48
 70
     1
102
RTVSPropertyOp49
 70
     1
102
RTVSPropertyOp50
 70
     1
102
RTVSPropertyOp51
 70
     0
102
RTVSPropertyOp52
 70
     0
102
RTVSPropertyOp53
 70
     1
102
RTVSPropertyOp54
 70
     1
102
RTVSPropertyOp55
 70
     1
102
RTVSPropertyOp56
 70
     1
102
RTVSPropertyOp57
 70
     1
102
RTVSPropertyOp58
 70
     1
102
RTVSPropertyOp59
 70
     1
102
RTVSPropertyOp60
 70
     1
102
RTVSPropertyOp61
 70
     1
102
RTVSPropertyOp62
 70
     1
  0
ENDSEC
  0
EOF
