  0
SECTION
  2
HEADER
  9
$ACADVER
  1
AC1018
  9
$ACADMAINTVER
 70
   104
  9
$DWGCODEPAGE
  3
ANSI_932
  9
$LASTSAVEDBY
  1
HON1000CV
  9
$INSBASE
 10
0.0
 20
0.0
 30
0.0
  9
$EXTMIN
 10
-1151.06604538071
 20
1585.996493908599
 30
0.0
  9
$EXTMAX
 10
-128.2950914381642
 20
1894.852139454975
 30
0.0
  9
$LIMMIN
 10
0.0
 20
0.0
  9
$LIMMAX
 10
841.0
 20
594.0
  9
$ORTHOMODE
 70
     0
  9
$REGENMODE
 70
     1
  9
$FILLMODE
 70
     1
  9
$QTEXTMODE
 70
     0
  9
$MIRRTEXT
 70
     1
  9
$LTSCALE
 40
1.0
  9
$ATTMODE
 70
     1
  9
$TEXTSIZE
 40
2.5
  9
$TRACEWID
 40
1.0
  9
$TEXTSTYLE
  7
Standard
  9
$CLAYER
  8
0
  9
$CELTYPE
  6
ByLayer
  9
$CECOLOR
 62
   256
  9
$CELTSCALE
 40
1.0
  9
$DISPSILH
 70
     0
  9
$DIMSCALE
 40
1.0
  9
$DIMASZ
 40
4.5
  9
$DIMEXO
 40
0.0
  9
$DIMDLI
 40
0.38
  9
$DIMRND
 40
0.0
  9
$DIMDLE
 40
0.0
  9
$DIMEXE
 40
0.0
  9
$DIMTP
 40
0.0
  9
$DIMTM
 40
0.0
  9
$DIMTXT
 40
9.0
  9
$DIMCEN
 40
0.09
  9
$DIMTSZ
 40
0.0
  9
$DIMTOL
 70
     0
  9
$DIMLIM
 70
     0
  9
$DIMTIH
 70
     0
  9
$DIMTOH
 70
     1
  9
$DIMSE1
 70
     0
  9
$DIMSE2
 70
     0
  9
$DIMTAD
 70
     1
  9
$DIMZIN
 70
     0
  9
$DIMBLK
  1
Small
  9
$DIMASO
 70
     1
  9
$DIMSHO
 70
     1
  9
$DIMPOST
  1

  9
$DIMAPOST
  1

  9
$DIMALT
 70
     0
  9
$DIMALTD
 70
     2
  9
$DIMALTF
 40
25.4
  9
$DIMLFAC
 40
1.0
  9
$DIMTOFL
 70
     0
  9
$DIMTVP
 40
0.0
  9
$DIMTIX
 70
     1
  9
$DIMSOXD
 70
     0
  9
$DIMSAH
 70
     0
  9
$DIMBLK1
  1

  9
$DIMBLK2
  1

  9
$DIMSTYLE
  2
AutoCAD
  9
$DIMCLRD
 70
     4
  9
$DIMCLRE
 70
     4
  9
$DIMCLRT
 70
     3
  9
$DIMTFAC
 40
1.0
  9
$DIMGAP
 40
3.0
  9
$DIMJUST
 70
     0
  9
$DIMSD1
 70
     0
  9
$DIMSD2
 70
     0
  9
$DIMTOLJ
 70
     1
  9
$DIMTZIN
 70
     0
  9
$DIMALTZ
 70
     0
  9
$DIMALTTZ
 70
     0
  9
$DIMUPT
 70
     0
  9
$DIMDEC
 70
     0
  9
$DIMTDEC
 70
     0
  9
$DIMALTU
 70
     2
  9
$DIMALTTD
 70
     2
  9
$DIMTXSTY
  7
ACAD
  9
$DIMAUNIT
 70
     0
  9
$DIMADEC
 70
     0
  9
$DIMALTRND
 40
0.0
  9
$DIMAZIN
 70
     0
  9
$DIMDSEP
 70
    46
  9
$DIMATFIT
 70
     0
  9
$DIMFRAC
 70
     0
  9
$DIMLDRBLK
  1
None
  9
$DIMLUNIT
 70
     2
  9
$DIMLWD
 70
    -2
  9
$DIMLWE
 70
    -2
  9
$DIMTMOVE
 70
     0
  9
$LUNITS
 70
     2
  9
$LUPREC
 70
     2
  9
$SKETCHINC
 40
1.0
  9
$FILLETRAD
 40
0.0
  9
$AUNITS
 70
     0
  9
$AUPREC
 70
     2
  9
$MENU
  1
.
  9
$ELEVATION
 40
0.0
  9
$PELEVATION
 40
0.0
  9
$THICKNESS
 40
0.0
  9
$LIMCHECK
 70
     0
  9
$CHAMFERA
 40
10.0
  9
$CHAMFERB
 40
10.0
  9
$CHAMFERC
 40
20.0
  9
$CHAMFERD
 40
0.0
  9
$SKPOLY
 70
     0
  9
$TDCREATE
 40
2455748.681291193
  9
$TDUCREATE
 40
2455748.306291193
  9
$TDUPDATE
 40
2455961.471577338
  9
$TDUUPDATE
 40
2455961.096577338
  9
$TDINDWG
 40
0.0798536458
  9
$TDUSRTIMER
 40
0.0798536458
  9
$USRTIMER
 70
     1
  9
$ANGBASE
 50
0.0
  9
$ANGDIR
 70
     0
  9
$PDMODE
 70
     0
  9
$PDSIZE
 40
10.0
  9
$PLINEWID
 40
0.0
  9
$SPLFRAME
 70
     0
  9
$SPLINETYPE
 70
     6
  9
$SPLINESEGS
 70
     8
  9
$HANDSEED
  5
52AC5
  9
$SURFTAB1
 70
     6
  9
$SURFTAB2
 70
     6
  9
$SURFTYPE
 70
     6
  9
$SURFU
 70
     6
  9
$SURFV
 70
     6
  9
$UCSBASE
  2

  9
$UCSNAME
  2

  9
$UCSORG
 10
0.0
 20
0.0
 30
0.0
  9
$UCSXDIR
 10
1.0
 20
0.0
 30
0.0
  9
$UCSYDIR
 10
0.0
 20
1.0
 30
0.0
  9
$UCSORTHOREF
  2

  9
$UCSORTHOVIEW
 70
     0
  9
$UCSORGTOP
 10
0.0
 20
0.0
 30
0.0
  9
$UCSORGBOTTOM
 10
0.0
 20
0.0
 30
0.0
  9
$UCSORGLEFT
 10
0.0
 20
0.0
 30
0.0
  9
$UCSORGRIGHT
 10
0.0
 20
0.0
 30
0.0
  9
$UCSORGFRONT
 10
0.0
 20
0.0
 30
0.0
  9
$UCSORGBACK
 10
0.0
 20
0.0
 30
0.0
  9
$PUCSBASE
  2

  9
$PUCSNAME
  2

  9
$PUCSORG
 10
0.0
 20
0.0
 30
0.0
  9
$PUCSXDIR
 10
1.0
 20
0.0
 30
0.0
  9
$PUCSYDIR
 10
0.0
 20
1.0
 30
0.0
  9
$PUCSORTHOREF
  2

  9
$PUCSORTHOVIEW
 70
     0
  9
$PUCSORGTOP
 10
0.0
 20
0.0
 30
0.0
  9
$PUCSORGBOTTOM
 10
0.0
 20
0.0
 30
0.0
  9
$PUCSORGLEFT
 10
0.0
 20
0.0
 30
0.0
  9
$PUCSORGRIGHT
 10
0.0
 20
0.0
 30
0.0
  9
$PUCSORGFRONT
 10
0.0
 20
0.0
 30
0.0
  9
$PUCSORGBACK
 10
0.0
 20
0.0
 30
0.0
  9
$USERI1
 70
     0
  9
$USERI2
 70
     0
  9
$USERI3
 70
     0
  9
$USERI4
 70
     0
  9
$USERI5
 70
     0
  9
$USERR1
 40
0.0
  9
$USERR2
 40
0.0
  9
$USERR3
 40
0.0
  9
$USERR4
 40
0.0
  9
$USERR5
 40
0.0
  9
$WORLDVIEW
 70
     1
  9
$SHADEDGE
 70
     3
  9
$SHADEDIF
 70
    70
  9
$TILEMODE
 70
     1
  9
$MAXACTVP
 70
    48
  9
$PINSBASE
 10
0.0
 20
0.0
 30
0.0
  9
$PLIMCHECK
 70
     0
  9
$PEXTMIN
 10
0.0
 20
0.0
 30
0.0
  9
$PEXTMAX
 10
0.0
 20
0.0
 30
0.0
  9
$PLIMMIN
 10
0.0
 20
0.0
  9
$PLIMMAX
 10
12.0
 20
9.0
  9
$UNITMODE
 70
     0
  9
$VISRETAIN
 70
     1
  9
$PLINEGEN
 70
     0
  9
$PSLTSCALE
 70
     1
  9
$TREEDEPTH
 70
  3020
  9
$CMLSTYLE
  2
Standard
  9
$CMLJUST
 70
     1
  9
$CMLSCALE
 40
3.5
  9
$PROXYGRAPHICS
 70
     1
  9
$MEASUREMENT
 70
     1
  9
$CELWEIGHT
370
    -1
  9
$ENDCAPS
280
     0
  9
$JOINSTYLE
280
     0
  9
$LWDISPLAY
290
     0
  9
$INSUNITS
 70
     4
  9
$HYPERLINKBASE
  1

  9
$STYLESHEET
  1
monochrome.ctb
  9
$XEDIT
290
     1
  9
$CEPSNTYPE
380
     0
  9
$PSTYLEMODE
290
     1
  9
$FINGERPRINTGUID
  2
{75253CF9-08B3-4660-9A51-F564FBA57CE0}
  9
$VERSIONGUID
  2
{6F4F838A-D8D6-4F21-9140-0165F2B67B17}
  9
$EXTNAMES
290
     1
  9
$PSVPSCALE
 40
0.0
  9
$OLESTARTUP
290
     0
  9
$SORTENTS
280
    96
  9
$INDEXCTL
280
     0
  9
$HIDETEXT
280
     0
  9
$XCLIPFRAME
290
     0
  9
$HALOGAP
280
     0
  9
$OBSCOLOR
 70
   257
  9
$OBSLTYPE
280
     0
  9
$INTERSECTIONDISPLAY
280
     0
  9
$INTERSECTIONCOLOR
 70
   257
  9
$DIMASSOC
280
     1
  9
$PROJECTNAME
  1

  0
ENDSEC
  0
SECTION
  2
CLASSES
  0
CLASS
  1
ACDBDICTIONARYWDFLT
  2
AcDbDictionaryWithDefault
  3
ObjectDBX Classes
 90
        0
 91
        1
280
     0
281
     0
  0
CLASS
  1
DICTIONARYVAR
  2
AcDbDictionaryVar
  3
ObjectDBX Classes
 90
        0
 91
        9
280
     0
281
     0
  0
CLASS
  1
MATERIAL
  2
AcDbMaterial
  3
ObjectDBX Classes
 90
     1153
 91
        3
280
     0
281
     0
  0
CLASS
  1
VISUALSTYLE
  2
AcDbVisualStyle
  3
ObjectDBX Classes
 90
     4095
 91
       26
280
     0
281
     0
  0
CLASS
  1
TABLESTYLE
  2
AcDbTableStyle
  3
ObjectDBX Classes
 90
     4095
 91
        1
280
     0
281
     0
  0
CLASS
  1
SCALE
  2
AcDbScale
  3
ObjectDBX Classes
 90
     1153
 91
       21
280
     0
281
     0
  0
CLASS
  1
MLEADERSTYLE
  2
AcDbMLeaderStyle
  3
ACDB_MLEADERSTYLE_CLASS
 90
     4095
 91
        1
280
     0
281
     0
  0
CLASS
  1
CELLSTYLEMAP
  2
AcDbCellStyleMap
  3
ObjectDBX Classes
 90
     1152
 91
        2
280
     0
281
     0
  0
CLASS
  1
AEC_REFEDIT_STATUS_TRACKER
  2
AecDbRefEditStatusTracker
  3
AecArchBase60|Product Desc: Autodesk Architectural Desktop 2007 |Company: Autodesk,Inc. |WEB Address: www.autodesk.com
 90
      129
 91
        0
280
     0
281
     0
  0
CLASS
  1
NPOCOLLECTION
  2
AcDbImpNonPersistentObjectsCollection
  3
ObjectDBX Classes
 90
     1153
 91
        0
280
     0
281
     0
  0
CLASS
  1
PLOTSETTINGS
  2
AcDbPlotSettings
  3
ObjectDBX Classes
 90
        0
 91
        8
280
     0
281
     0
  0
CLASS
  1
SORTENTSTABLE
  2
AcDbSortentsTable
  3
ObjectDBX Classes
 90
        0
 91
        1
280
     0
281
     0
  0
CLASS
  1
ACAD_EVALUATION_GRAPH
  2
AcDbEvalGraph
  3
ObjectDBX Classes
 90
     1153
 91
        0
280
     0
281
     0
  0
CLASS
  1
ACAECUSTOBJ
  2
AcAeEditorObj
  3
AcAeEditorObj
 90
     1024
 91
        0
280
     0
281
     0
  0
CLASS
  1
ACDB_DYNAMICBLOCKPURGEPREVENTER_VERSION
  2
AcDbDynamicBlockPurgePreventer
  3
ObjectDBX Classes
 90
     1153
 91
        0
280
     0
281
     0
  0
CLASS
  1
SOLID_BACKGROUND
  2
AcDbSolidBackground
  3
SCENEOE
 90
     4095
 91
        0
280
     0
281
     0
  0
ENDSEC
  0
SECTION
  2
TABLES
  0
TABLE
  2
VPORT
  5
8
102
{ACAD_XDICTIONARY
360
52616
102
}
330
0
100
AcDbSymbolTable
 70
     1
  0
VPORT
  5
1FF1E
330
8
100
AcDbSymbolTableRecord
100
AcDbViewportTableRecord
  2
*Active
 70
     0
 10
0.0
 20
0.0
 11
1.0
 21
1.0
 12
-1154.166195993497
 22
-1808.432202984642
 13
0.0
 23
0.0
 14
10.0
 24
10.0
 15
10.0
 25
10.0
 16
0.0
 26
0.0
 36
2120.973378360774
 17
514.5358060702892
 27
3548.809190640961
 37
0.0
 40
407.3839666862188
 41
2.519736842105263
 42
50.0
 43
0.0
 44
0.0
 50
0.0
 51
0.0
 71
     0
 72
   100
 73
     1
 74
     3
 75
     0
 76
     0
 77
     0
 78
     0
281
     0
 65
     1
110
0.0
120
0.0
130
0.0
111
1.0
121
0.0
131
0.0
112
0.0
122
1.0
132
0.0
 79
     0
146
0.0
1001
ACAD_NAV_VCDISPLAY
1070
     3
  0
ENDTAB
  0
TABLE
  2
LTYPE
  5
5
330
0
100
AcDbSymbolTable
 70
     2
  0
LTYPE
  5
14
330
5
100
AcDbSymbolTableRecord
100
AcDbLinetypeTableRecord
  2
ByBlock
 70
     0
  3

 72
    65
 73
     0
 40
0.0
  0
LTYPE
  5
15
330
5
100
AcDbSymbolTableRecord
100
AcDbLinetypeTableRecord
  2
ByLayer
 70
     0
  3

 72
    65
 73
     0
 40
0.0
  0
LTYPE
  5
16
330
5
100
AcDbSymbolTableRecord
100
AcDbLinetypeTableRecord
  2
Continuous
 70
     0
  3
Solid line
 72
    65
 73
     0
 40
0.0
  0
LTYPE
  5
4BDA4
330
5
100
AcDbSymbolTableRecord
100
AcDbLinetypeTableRecord
  2
CENTER1
 70
     0
  3
----- - ----- - ----- - ----- - 
 72
    65
 73
     4
 40
10.0
 49
6.25
 74
     0
 49
-1.25
 74
     0
 49
1.25
 74
     0
 49
-1.25
 74
     0
  0
ENDTAB
  0
TABLE
  2
LAYER
  5
2
102
{ACAD_XDICTIONARY
360
1562
102
}
330
0
100
AcDbSymbolTable
 70
     6
  0
LAYER
  5
10
102
{ACAD_XDICTIONARY
360
22778
102
}
330
2
100
AcDbSymbolTableRecord
100
AcDbLayerTableRecord
  2
0
 70
     0
 62
     7
  6
Continuous
370
    -3
390
F
  0
LAYER
  5
16F1
330
2
100
AcDbSymbolTableRecord
100
AcDbLayerTableRecord
  2
Defpoints
 70
     0
 62
    20
  6
Continuous
290
     0
370
    -3
390
F
  0
LAYER
  5
4BDA5
102
{ACAD_XDICTIONARY
360
4BDA6
102
}
330
2
100
AcDbSymbolTableRecord
100
AcDbLayerTableRecord
  2
寸法
 70
     0
 62
     7
  6
Continuous
370
    -3
390
F
  0
LAYER
  5
4BDA7
102
{ACAD_XDICTIONARY
360
4BDA8
102
}
330
2
100
AcDbSymbolTableRecord
100
AcDbLayerTableRecord
  2
躯体と製品
 70
     0
 62
     7
  6
Continuous
370
    -3
390
F
  0
LAYER
  5
4BDA9
102
{ACAD_XDICTIONARY
360
4BDAA
102
}
330
2
100
AcDbSymbolTableRecord
100
AcDbLayerTableRecord
  2
文字-記号
 70
     0
 62
     7
  6
Continuous
370
    -3
390
F
  0
LAYER
  5
4BDAB
102
{ACAD_XDICTIONARY
360
525A1
102
}
330
2
100
AcDbSymbolTableRecord
100
AcDbLayerTableRecord
  2
中心線
 70
     0
 62
     7
  6
Continuous
370
    -3
390
F
1001
AcAecLayerStandard
1000

1000

1001
AcCmTransparency
1071
        0
  0
ENDTAB
  0
TABLE
  2
STYLE
  5
3
330
0
100
AcDbSymbolTable
 70
     2
  0
STYLE
  5
11
330
3
100
AcDbSymbolTableRecord
100
AcDbTextStyleTableRecord
  2
Standard
 70
     0
 40
0.0
 41
0.8
 50
0.0
 71
     0
 42
2.5
  3
txt.shx
  4
extfont.shx
  0
STYLE
  5
4BDAD
330
3
100
AcDbSymbolTableRecord
100
AcDbTextStyleTableRecord
  2
ACAD
 70
     0
 40
9.0
 41
0.8
 50
0.0
 71
     0
 42
5.0
  3
romans.shx
  4
extfont.shx
  0
ENDTAB
  0
TABLE
  2
VIEW
  5
6
330
0
100
AcDbSymbolTable
 70
     0
  0
ENDTAB
  0
TABLE
  2
UCS
  5
7
330
0
100
AcDbSymbolTable
 70
     0
  0
ENDTAB
  0
TABLE
  2
APPID
  5
9
330
0
100
AcDbSymbolTable
 70
    23
  0
APPID
  5
12
330
9
100
AcDbSymbolTableRecord
100
AcDbRegAppTableRecord
  2
ACAD
 70
     0
  0
APPID
  5
22729
330
9
100
AcDbSymbolTableRecord
100
AcDbRegAppTableRecord
  2
DCO15
 70
     0
  0
APPID
  5
2276D
330
9
100
AcDbSymbolTableRecord
100
AcDbRegAppTableRecord
  2
ACAD_MLEADERVER
 70
     0
  0
APPID
  5
22776
330
9
100
AcDbSymbolTableRecord
100
AcDbRegAppTableRecord
  2
AcAecLayerStandard
 70
     0
  0
APPID
  5
227C1
330
9
100
AcDbSymbolTableRecord
100
AcDbRegAppTableRecord
  2
ACAD_DSTYLE_DIMJAG
 70
     0
  0
APPID
  5
227C2
330
9
100
AcDbSymbolTableRecord
100
AcDbRegAppTableRecord
  2
ACAD_DSTYLE_DIMTALN
 70
     0
  0
APPID
  5
22821
330
9
100
AcDbSymbolTableRecord
100
AcDbRegAppTableRecord
  2
ACAD_PSEXT
 70
     0
  0
APPID
  5
2282A
330
9
100
AcDbSymbolTableRecord
100
AcDbRegAppTableRecord
  2
ACAD_EXEMPT_FROM_CAD_STANDARDS
 70
     0
  0
APPID
  5
229A9
330
9
100
AcDbSymbolTableRecord
100
AcDbRegAppTableRecord
  2
AcadAnnoPO
 70
     0
  0
APPID
  5
23673
330
9
100
AcDbSymbolTableRecord
100
AcDbRegAppTableRecord
  2
ACAD_DSTYLE_DIMTEXT_FILL
 70
     0
  0
APPID
  5
23674
330
9
100
AcDbSymbolTableRecord
100
AcDbRegAppTableRecord
  2
ACAD_DSTYLE_DIMBREAK
 70
     0
  0
APPID
  5
25752
330
9
100
AcDbSymbolTableRecord
100
AcDbRegAppTableRecord
  2
AcLayerTools
 70
     0
  0
APPID
  5
262DB
330
9
100
AcDbSymbolTableRecord
100
AcDbRegAppTableRecord
  2
ACAUTHENVIRON
 70
     0
  0
APPID
  5
27EF5
330
9
100
AcDbSymbolTableRecord
100
AcDbRegAppTableRecord
  2
AcDbDynamicBlockTrueName
 70
     0
  0
APPID
  5
27EF6
330
9
100
AcDbSymbolTableRecord
100
AcDbRegAppTableRecord
  2
AcDbDynamicBlockGUID
 70
     0
  0
APPID
  5
30E17
330
9
100
AcDbSymbolTableRecord
100
AcDbRegAppTableRecord
  2
AcadAnnoAV
 70
     0
  0
APPID
  5
47910
330
9
100
AcDbSymbolTableRecord
100
AcDbRegAppTableRecord
  2
ACAD_DSTYLE_DIMJOGGED_JOGANGLE_SYMBOL
 70
     0
  0
APPID
  5
47911
330
9
100
AcDbSymbolTableRecord
100
AcDbRegAppTableRecord
  2
AcDbBlockRepETag
 70
     0
  0
APPID
  5
4A789
330
9
100
AcDbSymbolTableRecord
100
AcDbRegAppTableRecord
  2
AcadAnnotative
 70
     0
  0
APPID
  5
4A78A
330
9
100
AcDbSymbolTableRecord
100
AcDbRegAppTableRecord
  2
AcCmTransparency
 70
     0
  0
APPID
  5
4BCBF
330
9
100
AcDbSymbolTableRecord
100
AcDbRegAppTableRecord
  2
ACAD_NAV_VCDISPLAY
 70
     0
  0
APPID
  5
4BDAF
330
9
100
AcDbSymbolTableRecord
100
AcDbRegAppTableRecord
  2
GradientColor1ACI
 70
     0
  0
APPID
  5
4BDB0
330
9
100
AcDbSymbolTableRecord
100
AcDbRegAppTableRecord
  2
GradientColor2ACI
 70
     0
  0
ENDTAB
  0
TABLE
  2
DIMSTYLE
  5
A
330
0
100
AcDbSymbolTable
 70
     2
100
AcDbDimStyleTable
 71
     2
340
4BDAE
340
3B
  0
DIMSTYLE
105
3B
330
A
100
AcDbSymbolTableRecord
100
AcDbDimStyleTableRecord
  2
Standard
 70
     0
178
   256
277
     6
340
11
1001
ACAD_DSTYLE_DIMJAG
1070
   388
1040
1.5
1001
ACAD_DSTYLE_DIMTALN
1070
   392
1070
     0
1001
ACAD_DSTYLE_DIMTEXT_FILL
1070
   376
1070
     1
1070
   377
1004
1800000001000000000000C1000000000000000000000000
  0
DIMSTYLE
105
4BDAE
102
{ACAD_REACTORS
330
515EB
102
}
330
A
100
AcDbSymbolTableRecord
100
AcDbDimStyleTableRecord
  2
AutoCAD
 70
     0
 41
4.5
 42
0.0
 44
0.0
 73
     0
 77
     1
140
9.0
147
3.0
174
     1
176
     4
177
     4
178
     3
271
     0
272
     0
289
     0
340
4BDAD
341
4BCC4
342
527A3
1001
ACAD_DSTYLE_DIMJAG
1070
   388
1040
1.5
1001
ACAD_DSTYLE_DIMTALN
1070
   392
1070
     0
  0
ENDTAB
  0
TABLE
  2
BLOCK_RECORD
  5
1
330
0
100
AcDbSymbolTable
 70
     3
  0
BLOCK_RECORD
  5
1F
102
{ACAD_XDICTIONARY
360
3662
102
}
330
1
100
AcDbSymbolTableRecord
100
AcDbBlockTableRecord
  2
*Model_Space
340
22
  0
BLOCK_RECORD
  5
525BA
330
1
100
AcDbSymbolTableRecord
100
AcDbBlockTableRecord
  2
*Paper_Space
340
525BB
  0
BLOCK_RECORD
  5
4BCC4
330
1
100
AcDbSymbolTableRecord
100
AcDbBlockTableRecord
  2
_None
340
0
  0
BLOCK_RECORD
  5
5216D
330
1
100
AcDbSymbolTableRecord
100
AcDbBlockTableRecord
  2
*D1
340
0
  0
BLOCK_RECORD
  5
527A3
330
1
100
AcDbSymbolTableRecord
100
AcDbBlockTableRecord
  2
_Small
340
0
102
{BLKREFS
331
5290C
331
5290D
102
}
  0
ENDTAB
  0
ENDSEC
  0
SECTION
  2
BLOCKS
  0
BLOCK
  5
20
330
1F
100
AcDbEntity
  8
0
100
AcDbBlockBegin
  2
*Model_Space
 70
     0
 10
0.0
 20
0.0
 30
0.0
  3
*Model_Space
  1

  0
ENDBLK
  5
21
330
1F
100
AcDbEntity
  8
0
100
AcDbBlockEnd
  0
BLOCK
  5
525BC
330
525BA
100
AcDbEntity
 67
     1
  8
0
100
AcDbBlockBegin
  2
*Paper_Space
 70
     0
 10
0.0
 20
0.0
 30
0.0
  3
*Paper_Space
  1

  0
ENDBLK
  5
525BD
330
525BA
100
AcDbEntity
 67
     1
  8
0
100
AcDbBlockEnd
  0
BLOCK
  5
4BCC5
330
4BCC4
100
AcDbEntity
  8
0
100
AcDbBlockBegin
  2
_None
 70
     0
 10
0.0
 20
0.0
 30
0.0
  3
_None
  1

  0
ENDBLK
  5
4BCC6
330
4BCC4
100
AcDbEntity
  8
0
100
AcDbBlockEnd
  0
BLOCK
  5
5216E
330
5216D
100
AcDbEntity
  8
0
100
AcDbBlockBegin
  2
*D1
 70
     1
 10
0.0
 20
0.0
 30
0.0
  3
*D1
  1

  0
LINE
  5
52909
330
5216D
100
AcDbEntity
  8
寸法
  6
Continuous
 62
     4
440
 16777216
370
    -2
100
AcDbLine
 10
-168.6519724381639
 20
1605.996493908599
 30
0.0
 11
-129.4200914381643
 21
1605.996493908599
 31
0.0
  0
LINE
  5
5290A
330
5216D
100
AcDbEntity
  8
寸法
  6
Continuous
 62
     4
440
 16777216
370
    -2
100
AcDbLine
 10
-168.6519724381639
 20
1743.996493908599
 30
0.0
 11
-129.4200914381642
 21
1743.996493908599
 31
0.0
  0
LINE
  5
5290B
330
5216D
100
AcDbEntity
  8
寸法
  6
Continuous
 62
     4
440
 16777216
370
    -2
100
AcDbLine
 10
-129.4200914381643
 20
1605.996493908599
 30
0.0
 11
-129.4200914381642
 21
1743.996493908599
 31
0.0
  0
INSERT
  5
5290C
330
5216D
100
AcDbEntity
  8
寸法
  6
Continuous
 62
     4
440
 16777216
370
    -2
100
AcDbBlockReference
  2
_Small
 10
-129.4200914381643
 20
1605.996493908599
 30
0.0
 41
4.5
 42
4.5
 43
4.5
 50
270.0
  0
INSERT
  5
5290D
330
5216D
100
AcDbEntity
  8
寸法
  6
Continuous
 62
     4
440
 16777216
370
    -2
100
AcDbBlockReference
  2
_Small
 10
-129.4200914381642
 20
1743.996493908599
 30
0.0
 41
4.5
 42
4.5
 43
4.5
 50
90.0
  0
MTEXT
  5
5290E
330
5216D
100
AcDbEntity
  8
寸法
  6
Continuous
 62
     3
440
 16777216
100
AcDbMText
 10
-136.9200914381645
 20
1674.996493908599
 30
0.0
 40
9.0
 41
0.0
 71
     5
 72
     1
  1
\A1;h
  7
ACAD
 11
0.0000000000000001
 21
1.0
 31
0.0
 73
     1
 44
1.0
  0
POINT
  5
5290F
330
5216D
100
AcDbEntity
  8
Defpoints
  6
Continuous
 62
     0
440
 16777216
100
AcDbPoint
 10
-168.6519724381639
 20
1605.996493908599
 30
0.0
  0
POINT
  5
52910
330
5216D
100
AcDbEntity
  8
Defpoints
  6
Continuous
 62
     0
440
 16777216
100
AcDbPoint
 10
-168.6519724381639
 20
1743.996493908599
 30
0.0
  0
POINT
  5
52911
330
5216D
100
AcDbEntity
  8
Defpoints
  6
Continuous
 62
     0
440
 16777216
100
AcDbPoint
 10
-129.4200914381642
 20
1743.996493908599
 30
0.0
  0
ENDBLK
  5
5216F
330
5216D
100
AcDbEntity
  8
0
100
AcDbBlockEnd
  0
BLOCK
  5
527A5
330
527A3
100
AcDbEntity
  8
0
100
AcDbBlockBegin
  2
_Small
 70
     0
 10
0.0
 20
0.0
 30
0.0
  3
_Small
  1

  0
CIRCLE
  5
527A4
330
527A3
100
AcDbEntity
  8
0
  6
ByBlock
 62
     0
370
    -2
100
AcDbCircle
 10
0.0
 20
0.0
 30
0.0
 40
0.25
  0
ENDBLK
  5
527A6
330
527A3
100
AcDbEntity
  8
0
100
AcDbBlockEnd
  0
ENDSEC
  0
SECTION
  2
ENTITIES
  0
LINE
  5
514D6
330
1F
100
AcDbEntity
  8
躯体と製品
  6
Continuous
 62
     4
100
AcDbLine
 10
-766.1602239898082
 20
1690.996493908599
 30
0.0
 11
-666.1602239898082
 21
1605.996493908599
 31
0.0
  0
LINE
  5
514D7
330
1F
100
AcDbEntity
  8
躯体と製品
  6
Continuous
 62
     4
100
AcDbLine
 10
-666.1602239898082
 20
1690.996493908599
 30
0.0
 11
-766.1602239898082
 21
1690.996493908599
 31
0.0
  0
LINE
  5
514D8
330
1F
100
AcDbEntity
  8
躯体と製品
  6
Continuous
 62
     4
100
AcDbLine
 10
-666.1602239898082
 20
1715.996493908599
 30
0.0
 11
-766.1602239898082
 21
1715.996493908599
 31
0.0
  0
LINE
  5
514D9
330
1F
100
AcDbEntity
  8
躯体と製品
  6
Continuous
 62
     4
100
AcDbLine
 10
-766.1602239898082
 20
1855.9964939086
 30
0.0
 11
-766.1602239898082
 21
1698.996493908599
 31
0.0
  0
LINE
  5
514DA
330
1F
100
AcDbEntity
  8
躯体と製品
  6
Continuous
 62
     4
100
AcDbLine
 10
-666.1602239898082
 20
1605.996493908599
 30
0.0
 11
-666.1602239898082
 21
1855.9964939086
 31
0.0
  0
LINE
  5
514DB
330
1F
100
AcDbEntity
  8
躯体と製品
  6
Continuous
 62
     4
100
AcDbLine
 10
-683.6602239898081
 20
1690.996493908599
 30
0.0
 11
-683.6602239898081
 21
1715.996493908599
 31
0.0
  0
LINE
  5
514DC
330
1F
100
AcDbEntity
  8
躯体と製品
  6
Continuous
 62
     4
100
AcDbLine
 10
-748.6602239898082
 20
1690.996493908599
 30
0.0
 11
-748.6602239898082
 21
1715.996493908599
 31
0.0
  0
LINE
  5
514DD
330
1F
100
AcDbEntity
  8
躯体と製品
  6
Continuous
 62
     4
100
AcDbLine
 10
-766.1602239898082
 20
1605.996493908599
 30
0.0
 11
-766.1602239898082
 21
1698.996493908599
 31
0.0
  0
LINE
  5
514DE
330
1F
100
AcDbEntity
  8
躯体と製品
  6
Continuous
 62
     4
100
AcDbLine
 10
-748.6602239898082
 20
1715.996493908599
 30
0.0
 11
-683.6602239898081
 21
1690.996493908599
 31
0.0
  0
LINE
  5
514DF
330
1F
100
AcDbEntity
  8
躯体と製品
  6
Continuous
 62
     4
100
AcDbLine
 10
-666.1602239898082
 20
1755.9964939086
 30
0.0
 11
-690.6602239898082
 21
1755.9964939086
 31
0.0
  0
LINE
  5
514E0
330
1F
100
AcDbEntity
  8
躯体と製品
  6
Continuous
 62
     4
100
AcDbLine
 10
-690.6602239898082
 20
1855.9964939086
 30
0.0
 11
-690.6602239898082
 21
1750.9964939086
 31
0.0
  0
LINE
  5
514E1
330
1F
100
AcDbEntity
  8
躯体と製品
  6
Continuous
 62
     4
100
AcDbLine
 10
-690.6602239898082
 20
1750.9964939086
 30
0.0
 11
-711.6602239898082
 21
1750.9964939086
 31
0.0
  0
LINE
  5
514E2
330
1F
100
AcDbEntity
  8
躯体と製品
  6
Continuous
 62
     4
100
AcDbLine
 10
-711.6602239898082
 20
1855.9964939086
 30
0.0
 11
-711.6602239898082
 21
1750.9964939086
 31
0.0
  0
LINE
  5
514E3
330
1F
100
AcDbEntity
  8
躯体と製品
  6
Continuous
 62
     4
100
AcDbLine
 10
-711.6602239898082
 20
1755.9964939086
 30
0.0
 11
-720.6602239898082
 21
1755.9964939086
 31
0.0
  0
LINE
  5
514E4
330
1F
100
AcDbEntity
  8
躯体と製品
  6
Continuous
 62
     4
100
AcDbLine
 10
-720.6602239898082
 20
1855.9964939086
 30
0.0
 11
-720.6602239898082
 21
1750.9964939086
 31
0.0
  0
LINE
  5
514E5
330
1F
100
AcDbEntity
  8
躯体と製品
  6
Continuous
 62
     4
100
AcDbLine
 10
-720.6602239898082
 20
1750.9964939086
 30
0.0
 11
-741.6602239898081
 21
1750.9964939086
 31
0.0
  0
LINE
  5
514E6
330
1F
100
AcDbEntity
  8
躯体と製品
  6
Continuous
 62
     4
100
AcDbLine
 10
-741.6602239898081
 20
1855.9964939086
 30
0.0
 11
-741.6602239898081
 21
1750.9964939086
 31
0.0
  0
LINE
  5
514E7
330
1F
100
AcDbEntity
  8
躯体と製品
  6
Continuous
 62
     4
100
AcDbLine
 10
-741.6602239898081
 20
1755.9964939086
 30
0.0
 11
-766.1602239898082
 21
1755.9964939086
 31
0.0
  0
LINE
  5
514ED
330
1F
100
AcDbEntity
  8
躯体と製品
  6
Continuous
 62
     3
100
AcDbLine
 10
-697.875952742356
 20
1715.996493908599
 30
0.0
 11
-732.875952742356
 21
1750.9964939086
 31
0.0
  0
LINE
  5
514EE
330
1F
100
AcDbEntity
  8
躯体と製品
  6
Continuous
 62
     3
100
AcDbLine
 10
-704.9470205541608
 20
1715.996493908599
 30
0.0
 11
-739.9470205541608
 21
1750.9964939086
 31
0.0
  0
LINE
  5
514EF
330
1F
100
AcDbEntity
  8
躯体と製品
  6
Continuous
 62
     3
100
AcDbLine
 10
-741.6602239898081
 20
1752.709697344247
 30
0.0
 11
-744.9470205541608
 21
1755.9964939086
 31
0.0
  0
LINE
  5
514F0
330
1F
100
AcDbEntity
  8
躯体と製品
  6
Continuous
 62
     3
100
AcDbLine
 10
-712.0180883660821
 20
1715.996493908599
 30
0.0
 11
-752.018088366082
 21
1755.9964939086
 31
0.0
  0
LINE
  5
514F1
330
1F
100
AcDbEntity
  8
躯体と製品
  6
Continuous
 62
     3
100
AcDbLine
 10
-719.0891561778869
 20
1715.996493908599
 30
0.0
 11
-759.0891561778869
 21
1755.9964939086
 31
0.0
  0
LINE
  5
514F2
330
1F
100
AcDbEntity
  8
躯体と製品
  6
Continuous
 62
     3
100
AcDbLine
 10
-726.1658359849268
 20
1715.996493908599
 30
0.0
 11
-766.1602239898082
 21
1755.990825352864
 31
0.0
  0
LINE
  5
514F3
330
1F
100
AcDbEntity
  8
躯体と製品
  6
Continuous
 62
     3
100
AcDbLine
 10
-733.2312918016129
 20
1715.996493908599
 30
0.0
 11
-766.1602239898082
 21
1748.925426096737
 31
0.0
  0
LINE
  5
514F4
330
1F
100
AcDbEntity
  8
躯体と製品
  6
Continuous
 62
     3
100
AcDbLine
 10
-740.3023596135342
 20
1715.996493908599
 30
0.0
 11
-766.1602239898082
 21
1741.854358284873
 31
0.0
  0
LINE
  5
514F5
330
1F
100
AcDbEntity
  8
躯体と製品
  6
Continuous
 62
     3
100
AcDbLine
 10
-747.373427425339
 20
1715.996493908599
 30
0.0
 11
-766.1602239898082
 21
1734.78329047301
 31
0.0
  0
LINE
  5
514F6
330
1F
100
AcDbEntity
  8
躯体と製品
  6
Continuous
 62
     3
100
AcDbLine
 10
-754.4444952372603
 20
1715.996493908599
 30
0.0
 11
-766.1602239898082
 21
1727.712222661147
 31
0.0
  0
LINE
  5
514F7
330
1F
100
AcDbEntity
  8
躯体と製品
  6
Continuous
 62
     3
100
AcDbLine
 10
-761.5155630490651
 20
1715.996493908599
 30
0.0
 11
-766.1602239898082
 21
1720.641154849284
 31
0.0
  0
LINE
  5
514F8
330
1F
100
AcDbEntity
  8
躯体と製品
  6
Continuous
 62
     3
100
AcDbLine
 10
-690.8048849304348
 20
1715.996493908599
 30
0.0
 11
-725.8048849304348
 21
1750.9964939086
 31
0.0
  0
LINE
  5
514F9
330
1F
100
AcDbEntity
  8
躯体と製品
  6
Continuous
 62
     3
100
AcDbLine
 10
-683.7338171186299
 20
1715.996493908599
 30
0.0
 11
-720.6602239898082
 21
1752.922900779777
 31
0.0
  0
LINE
  5
514FA
330
1F
100
AcDbEntity
  8
躯体と製品
  6
Continuous
 62
     3
100
AcDbLine
 10
-676.6683613019438
 20
1715.996493908599
 30
0.0
 11
-716.668417870477
 21
1755.9964939086
 31
0.0
  0
LINE
  5
514FB
330
1F
100
AcDbEntity
  8
躯体と製品
  6
Continuous
 62
     3
100
AcDbLine
 10
-669.5916814949039
 20
1715.996493908599
 30
0.0
 11
-704.5916814949038
 21
1750.9964939086
 31
0.0
  0
LINE
  5
514FC
330
1F
100
AcDbEntity
  8
躯体と製品
  6
Continuous
 62
     3
100
AcDbLine
 10
-666.1602239898082
 20
1719.636104215425
 30
0.0
 11
-697.5206136829826
 21
1750.9964939086
 31
0.0
  0
LINE
  5
514FD
330
1F
100
AcDbEntity
  8
躯体と製品
  6
Continuous
 62
     3
100
AcDbLine
 10
-666.1602239898082
 20
1726.707172027288
 30
0.0
 11
-690.6602239898082
 21
1751.207172027288
 31
0.0
  0
LINE
  5
514FE
330
1F
100
AcDbEntity
  8
躯体と製品
  6
Continuous
 62
     3
100
AcDbLine
 10
-666.1602239898082
 20
1733.778239839151
 30
0.0
 11
-688.3784780592566
 21
1755.9964939086
 31
0.0
  0
LINE
  5
514FF
330
1F
100
AcDbEntity
  8
躯体と製品
  6
Continuous
 62
     3
100
AcDbLine
 10
-666.1602239898082
 20
1740.849307651014
 30
0.0
 11
-681.3074102473353
 21
1755.9964939086
 31
0.0
  0
LINE
  5
51500
330
1F
100
AcDbEntity
  8
躯体と製品
  6
Continuous
 62
     3
100
AcDbLine
 10
-666.1602239898082
 20
1747.920375462877
 30
0.0
 11
-674.2363424355305
 21
1755.9964939086
 31
0.0
  0
LINE
  5
51501
330
1F
100
AcDbEntity
  8
躯体と製品
  6
Continuous
 62
     3
100
AcDbLine
 10
-666.1602239898082
 20
1754.99144327474
 30
0.0
 11
-667.1652746236093
 21
1755.9964939086
 31
0.0
  0
LINE
  5
51502
330
1F
100
AcDbEntity
  8
躯体と製品
  6
Continuous
 62
     3
100
AcDbLine
 10
-1076.217255401369
 20
1727.360130272246
 30
0.0
 11
-1076.217255401369
 21
1749.632857544836
 31
0.0
  0
LINE
  5
51503
330
1F
100
AcDbEntity
  8
躯体と製品
  6
Continuous
 62
     3
100
AcDbLine
 10
-1063.489982674192
 20
1727.360130272246
 30
0.0
 11
-1063.489982674192
 21
1749.632857544836
 31
0.0
  0
LINE
  5
51504
330
1F
100
AcDbEntity
  8
躯体と製品
  6
Continuous
 62
     3
100
AcDbLine
 10
-1050.762709947014
 20
1727.360130272246
 30
0.0
 11
-1050.762709947014
 21
1749.632857544836
 31
0.0
  0
LINE
  5
51505
330
1F
100
AcDbEntity
  8
躯体と製品
  6
Continuous
 62
     3
100
AcDbLine
 10
-1038.035437219837
 20
1727.360130272246
 30
0.0
 11
-1038.035437219837
 21
1749.632857544836
 31
0.0
  0
LINE
  5
51506
330
1F
100
AcDbEntity
  8
躯体と製品
  6
Continuous
 62
     3
100
AcDbLine
 10
-1025.308164492543
 20
1727.360130272246
 30
0.0
 11
-1025.308164492543
 21
1749.632857544836
 31
0.0
  0
LINE
  5
51507
330
1F
100
AcDbEntity
  8
躯体と製品
  6
Continuous
 62
     3
100
AcDbLine
 10
-1012.580891765365
 20
1727.360130272246
 30
0.0
 11
-1012.580891765365
 21
1749.632857544836
 31
0.0
  0
LINE
  5
51508
330
1F
100
AcDbEntity
  8
躯体と製品
  6
Continuous
 62
     3
100
AcDbLine
 10
-999.853619038188
 20
1727.360130272246
 30
0.0
 11
-999.853619038188
 21
1749.632857544836
 31
0.0
  0
LINE
  5
51509
330
1F
100
AcDbEntity
  8
躯体と製品
  6
Continuous
 62
     3
100
AcDbLine
 10
-987.1263463110105
 20
1727.360130272246
 30
0.0
 11
-987.1263463110105
 21
1749.632857544836
 31
0.0
  0
LINE
  5
5150A
330
1F
100
AcDbEntity
  8
躯体と製品
  6
Continuous
 62
     3
100
AcDbLine
 10
-974.3990735837167
 20
1727.360130272246
 30
0.0
 11
-974.3990735837167
 21
1749.632857544836
 31
0.0
  0
LINE
  5
5150B
330
1F
100
AcDbEntity
  8
躯体と製品
  6
Continuous
 62
     3
100
AcDbLine
 10
-961.6718008565392
 20
1727.360130272246
 30
0.0
 11
-961.6718008565392
 21
1749.632857544836
 31
0.0
  0
ARC
  5
5150C
330
1F
100
AcDbEntity
  8
躯体と製品
  6
Continuous
 62
     3
100
AcDbCircle
 10
-1069.853619037839
 20
1727.360130272246
 30
0.0
 40
6.363636363603001
100
AcDbArc
 50
180.0
 51
0.0
  0
ARC
  5
5150D
330
1F
100
AcDbEntity
  8
躯体と製品
  6
Continuous
 62
     3
100
AcDbCircle
 10
-1082.580891765016
 20
1749.632857544836
 30
0.0
 40
6.363636363603291
100
AcDbArc
 50
0.0
 51
180.0
  0
ARC
  5
5150E
330
1F
100
AcDbEntity
  8
躯体と製品
  6
Continuous
 62
     3
100
AcDbCircle
 10
-1044.399073583367
 20
1727.360130272246
 30
0.0
 40
6.363636363603001
100
AcDbArc
 50
180.0
 51
0.0
  0
ARC
  5
5150F
330
1F
100
AcDbEntity
  8
躯体と製品
  6
Continuous
 62
     3
100
AcDbCircle
 10
-1057.126346310661
 20
1749.632857544836
 30
0.0
 40
6.363636363603291
100
AcDbArc
 50
0.0
 51
180.0
  0
ARC
  5
51510
330
1F
100
AcDbEntity
  8
躯体と製品
  6
Continuous
 62
     3
100
AcDbCircle
 10
-1018.944528129012
 20
1727.360130272246
 30
0.0
 40
6.363636363603001
100
AcDbArc
 50
180.0
 51
0.0
  0
ARC
  5
51511
330
1F
100
AcDbEntity
  8
躯体と製品
  6
Continuous
 62
     3
100
AcDbCircle
 10
-1031.67180085619
 20
1749.632857544836
 30
0.0
 40
6.363636363603291
100
AcDbArc
 50
0.0
 51
180.0
  0
ARC
  5
51512
330
1F
100
AcDbEntity
  8
躯体と製品
  6
Continuous
 62
     3
100
AcDbCircle
 10
-993.4899826745411
 20
1727.360130272246
 30
0.0
 40
6.363636363603001
100
AcDbArc
 50
180.0
 51
0.0
  0
ARC
  5
51513
330
1F
100
AcDbEntity
  8
躯体と製品
  6
Continuous
 62
     3
100
AcDbCircle
 10
-1006.217255401835
 20
1749.632857544836
 30
0.0
 40
6.363636363603291
100
AcDbArc
 50
0.0
 51
180.0
  0
ARC
  5
51514
330
1F
100
AcDbEntity
  8
躯体と製品
  6
Continuous
 62
     3
100
AcDbCircle
 10
-968.0354372201861
 20
1727.360130272246
 30
0.0
 40
6.363636363603001
100
AcDbArc
 50
180.0
 51
0.0
  0
ARC
  5
51515
330
1F
100
AcDbEntity
  8
躯体と製品
  6
Continuous
 62
     3
100
AcDbCircle
 10
-980.7627099473636
 20
1749.632857544836
 30
0.0
 40
6.363636363603291
100
AcDbArc
 50
0.0
 51
180.0
  0
LINE
  5
51516
330
1F
100
AcDbEntity
  8
躯体と製品
  6
Continuous
 62
     3
100
AcDbLine
 10
-859.4423603288047
 20
1727.360130272246
 30
0.0
 11
-859.4423603288047
 21
1749.632857544953
 31
0.0
  0
LINE
  5
51517
330
1F
100
AcDbEntity
  8
躯体と製品
  6
Continuous
 62
     3
100
AcDbLine
 10
-846.7150876015109
 20
1727.360130272246
 30
0.0
 11
-846.7150876015109
 21
1749.632857544953
 31
0.0
  0
LINE
  5
51518
330
1F
100
AcDbEntity
  8
躯体と製品
  6
Continuous
 62
     3
100
AcDbLine
 10
-833.9878148742171
 20
1727.360130272246
 30
0.0
 11
-833.9878148742171
 21
1749.632857544953
 31
0.0
  0
LINE
  5
51519
330
1F
100
AcDbEntity
  8
躯体と製品
  6
Continuous
 62
     3
100
AcDbLine
 10
-821.2605421469231
 20
1727.360130272246
 30
0.0
 11
-821.2605421469231
 21
1749.632857544953
 31
0.0
  0
LINE
  5
5151A
330
1F
100
AcDbEntity
  8
躯体と製品
  6
Continuous
 62
     3
100
AcDbLine
 10
-808.5332694196292
 20
1727.360130272246
 30
0.0
 11
-808.5332694196292
 21
1749.632857544953
 31
0.0
  0
ARC
  5
5151B
330
1F
100
AcDbEntity
  8
躯体と製品
  6
Continuous
 62
     3
100
AcDbCircle
 10
-865.8059966924518
 20
1727.360130272246
 30
0.0
 40
6.363636363637676
100
AcDbArc
 50
180.0
 51
0.0
  0
ARC
  5
5151C
330
1F
100
AcDbEntity
  8
躯体と製品
  6
Continuous
 62
     3
100
AcDbCircle
 10
-840.351451237864
 20
1727.360130272246
 30
0.0
 40
6.363636363637676
100
AcDbArc
 50
180.0
 51
0.0
  0
ARC
  5
5151D
330
1F
100
AcDbEntity
  8
躯体と製品
  6
Continuous
 62
     3
100
AcDbCircle
 10
-853.0787239651578
 20
1749.632857544953
 30
0.0
 40
6.363636363637965
100
AcDbArc
 50
0.0
 51
180.0
  0
ARC
  5
5151E
330
1F
100
AcDbEntity
  8
躯体と製品
  6
Continuous
 62
     3
100
AcDbCircle
 10
-814.8969057832761
 20
1727.360130272246
 30
0.0
 40
6.363636363637676
100
AcDbArc
 50
180.0
 51
0.0
  0
ARC
  5
5151F
330
1F
100
AcDbEntity
  8
躯体と製品
  6
Continuous
 62
     3
100
AcDbCircle
 10
-827.6241785105701
 20
1749.632857544953
 30
0.0
 40
6.363636363637965
100
AcDbArc
 50
0.0
 51
180.0
  0
LINE
  5
51520
330
1F
100
AcDbEntity
  8
躯体と製品
  6
Continuous
 62
     3
100
AcDbLine
 10
-795.8059966924517
 20
1727.360130272246
 30
0.0
 11
-795.8059966924517
 21
1749.632857544953
 31
0.0
  0
LINE
  5
51521
330
1F
100
AcDbEntity
  8
躯体と製品
  6
Continuous
 62
     3
100
AcDbLine
 10
-783.0787239651579
 20
1727.360130272246
 30
0.0
 11
-783.0787239651579
 21
1749.632857544953
 31
0.0
  0
LINE
  5
51522
330
1F
100
AcDbEntity
  8
躯体と製品
  6
Continuous
 62
     3
100
AcDbLine
 10
-770.351451237864
 20
1727.360130272246
 30
0.0
 11
-770.351451237864
 21
1749.632857544953
 31
0.0
  0
ARC
  5
51523
330
1F
100
AcDbEntity
  8
躯体と製品
  6
Continuous
 62
     3
100
AcDbCircle
 10
-789.4423603288048
 20
1727.360130272246
 30
0.0
 40
6.363636363637676
100
AcDbArc
 50
180.0
 51
0.0
  0
ARC
  5
51524
330
1F
100
AcDbEntity
  8
躯体と製品
  6
Continuous
 62
     3
100
AcDbCircle
 10
-802.1696330560986
 20
1749.632857544953
 30
0.0
 40
6.363636363637965
100
AcDbArc
 50
0.0
 51
180.0
  0
ARC
  5
51525
330
1F
100
AcDbEntity
  8
躯体と製品
  6
Continuous
 62
     3
100
AcDbCircle
 10
-763.987814874217
 20
1727.360130272246
 30
0.0
 40
6.363636363637676
100
AcDbArc
 50
180.0
 51
250.0391134032694
  0
ARC
  5
51526
330
1F
100
AcDbEntity
  8
躯体と製品
  6
Continuous
 62
     3
100
AcDbCircle
 10
-776.7150876015109
 20
1749.632857544953
 30
0.0
 40
6.363636363637965
100
AcDbArc
 50
0.0
 51
180.0
  0
LINE
  5
51527
330
1F
100
AcDbEntity
  8
躯体と製品
  6
Continuous
 62
     3
100
AcDbLine
 10
-948.9445281293617
 20
1727.360130272246
 30
0.0
 11
-948.9445281293617
 21
1749.632857544836
 31
0.0
  0
LINE
  5
51528
330
1F
100
AcDbEntity
  8
躯体と製品
  6
Continuous
 62
     3
100
AcDbLine
 10
-936.2172554021842
 20
1727.360130272246
 30
0.0
 11
-936.2172554021842
 21
1749.632857544836
 31
0.0
  0
ARC
  5
51529
330
1F
100
AcDbEntity
  8
躯体と製品
  6
Continuous
 62
     3
100
AcDbCircle
 10
-942.5808917657148
 20
1727.360130272246
 30
0.0
 40
6.363636363603001
100
AcDbArc
 50
180.0
 51
0.0
  0
ARC
  5
5152A
330
1F
100
AcDbEntity
  8
躯体と製品
  6
Continuous
 62
     3
100
AcDbCircle
 10
-955.3081644930086
 20
1749.632857544836
 30
0.0
 40
6.363636363603291
100
AcDbArc
 50
0.0
 51
180.0
  0
LINE
  5
5152B
330
1F
100
AcDbEntity
  8
躯体と製品
  6
Continuous
 62
     3
100
AcDbLine
 10
-923.4899826750067
 20
1727.360130272246
 30
0.0
 11
-923.4899826750067
 21
1749.632857544836
 31
0.0
  0
LINE
  5
5152C
330
1F
100
AcDbEntity
  8
躯体と製品
  6
Continuous
 62
     3
100
AcDbLine
 10
-910.7627099477129
 20
1727.360130272246
 30
0.0
 11
-910.7627099477129
 21
1736.069589286601
 31
0.0
  0
ARC
  5
5152D
330
1F
100
AcDbEntity
  8
躯体と製品
  6
Continuous
 62
     3
100
AcDbCircle
 10
-917.1263463113598
 20
1727.360130272246
 30
0.0
 40
6.363636363603001
100
AcDbArc
 50
180.0
 51
0.0
  0
ARC
  5
5152E
330
1F
100
AcDbEntity
  8
躯体と製品
  6
Continuous
 62
     3
100
AcDbCircle
 10
-929.8536190385373
 20
1749.632857544836
 30
0.0
 40
6.363636363603291
100
AcDbArc
 50
0.0
 51
180.0
  0
LINE
  5
51540
330
1F
100
AcDbEntity
  8
躯体と製品
  6
Continuous
 62
     3
100
AcDbLine
 10
-766.160223989809
 20
1755.9964939086
 30
0.0
 11
-766.160223989809
 21
1720.996493908599
 31
0.0
  0
LINE
  5
51541
330
1F
100
AcDbEntity
  8
躯体と製品
  6
Continuous
 62
     4
100
AcDbLine
 10
-781.1602239899245
 20
1700.9964939086
 30
0.0
 11
-781.1602239899245
 21
1720.996493908599
 31
0.0
  0
LINE
  5
51542
330
1F
100
AcDbEntity
  8
躯体と製品
  6
Continuous
 62
     4
100
AcDbLine
 10
-766.160223989809
 20
1755.9964939086
 30
0.0
 11
-917.2675136953401
 21
1755.9964939086
 31
0.0
  0
LINE
  5
51543
330
1F
100
AcDbEntity
  8
躯体と製品
  6
Continuous
 62
     4
100
AcDbLine
 10
-922.26751369534
 20
1755.9964939086
 30
0.0
 11
-1088.944528128663
 21
1755.9964939086
 31
0.0
  0
LINE
  5
51544
330
1F
100
AcDbEntity
  8
躯体と製品
  6
Continuous
 62
     4
100
AcDbLine
 10
-781.1602239899245
 20
1720.996493908599
 30
0.0
 11
-897.0602542737022
 21
1720.996493908599
 31
0.0
  0
LINE
  5
51547
330
1F
100
AcDbEntity
  8
躯体と製品
  6
Continuous
 62
     4
100
AcDbLine
 10
-902.0602542737021
 20
1720.996493908599
 30
0.0
 11
-1088.944528128663
 21
1720.996493908599
 31
0.0
  0
LINE
  5
51548
330
1F
100
AcDbEntity
  8
躯体と製品
  6
Continuous
 62
     4
100
AcDbLine
 10
-781.1602239899245
 20
1700.9964939086
 30
0.0
 11
-885.5132488899092
 21
1700.996493908599
 31
0.0
  0
LINE
  5
51549
330
1F
100
AcDbEntity
  8
躯体と製品
  6
Continuous
 62
     4
100
AcDbLine
 10
-890.5132488899093
 20
1700.9964939086
 30
0.0
 11
-1088.944528128663
 21
1700.9964939086
 31
0.0
  0
LINE
  5
51561
330
1F
100
AcDbEntity
  8
躯体と製品
  6
Continuous
 62
     4
100
AcDbLine
 10
-611.1602168611887
 20
1609.996512525505
 30
0.0
 11
-646.1602311184349
 21
1609.996512525505
 31
0.0
  0
LINE
  5
51562
330
1F
100
AcDbEntity
  8
躯体と製品
  6
Continuous
 62
     4
100
AcDbLine
 10
-614.1602308238605
 20
1621.296495752621
 30
0.0
 11
-643.1602171557558
 21
1621.296495752621
 31
0.0
  0
LINE
  5
51563
330
1F
100
AcDbEntity
  8
躯体と製品
  6
Continuous
 62
     4
100
AcDbLine
 10
-611.4260854126721
 20
1607.996503217052
 30
0.0
 11
-614.6602083775385
 21
1607.996503217052
 31
0.0
  0
LINE
  5
51564
330
1F
100
AcDbEntity
  8
躯体と製品
  6
Continuous
 62
     4
100
AcDbLine
 10
-631.0912911435614
 20
1605.996493908599
 30
0.0
 11
-629.6152896249939
 21
1605.996493908599
 31
0.0
  0
LINE
  5
51565
330
1F
100
AcDbEntity
  8
躯体と製品
  6
Continuous
 62
     4
100
AcDbLine
 10
-629.6152896249939
 20
1606.996498562826
 30
0.0
 11
-627.7051583546296
 21
1606.996498562826
 31
0.0
  0
LINE
  5
51566
330
1F
100
AcDbEntity
  8
躯体と製品
  6
Continuous
 62
     4
100
AcDbLine
 10
-643.1602171557558
 20
1621.296495752621
 30
0.0
 11
-646.1602311184349
 21
1609.996512525505
 31
0.0
  0
LINE
  5
51567
330
1F
100
AcDbEntity
  8
躯体と製品
  6
Continuous
 62
     4
100
AcDbLine
 10
-642.4475348515214
 20
1605.996493908599
 30
0.0
 11
-631.0912911435614
 21
1605.996493908599
 31
0.0
  0
LINE
  5
51568
330
1F
100
AcDbEntity
  8
躯体と製品
  6
Continuous
 62
     4
100
AcDbLine
 10
-642.6601900552075
 20
1607.996503217052
 30
0.0
 11
-645.8943625669514
 21
1607.996503217052
 31
0.0
  0
LINE
  5
51569
330
1F
100
AcDbEntity
  8
躯体と製品
  6
Continuous
 62
     4
100
AcDbLine
 10
-646.1602311184349
 20
1609.996512525505
 30
0.0
 11
-645.8943625669514
 21
1609.996512525505
 31
0.0
  0
LINE
  5
5156A
330
1F
100
AcDbEntity
  8
躯体と製品
  6
Continuous
 62
     4
100
AcDbLine
 10
-645.8943625669514
 20
1609.996512525505
 30
0.0
 11
-645.8943625669514
 21
1607.996503217052
 31
0.0
  0
LINE
  5
5156B
330
1F
100
AcDbEntity
  8
躯体と製品
  6
Continuous
 62
     4
100
AcDbLine
 10
-642.6601900552075
 20
1606.996498562826
 30
0.0
 11
-642.4475348515214
 21
1606.996498562826
 31
0.0
  0
LINE
  5
5156C
330
1F
100
AcDbEntity
  8
躯体と製品
  6
Continuous
 62
     4
100
AcDbLine
 10
-642.4475348515214
 20
1605.996493908599
 30
0.0
 11
-642.4475348515214
 21
1606.996498562826
 31
0.0
  0
LINE
  5
5156D
330
1F
100
AcDbEntity
  8
躯体と製品
  6
Continuous
 62
     4
100
AcDbLine
 10
-642.6601900552075
 20
1607.996503217052
 30
0.0
 11
-642.6601900552075
 21
1606.996498562826
 31
0.0
  0
LINE
  5
5156E
330
1F
100
AcDbEntity
  8
躯体と製品
  6
Continuous
 62
     4
100
AcDbLine
 10
-614.8729131280949
 20
1605.996493908599
 30
0.0
 11
-626.2291568360549
 21
1605.996493908599
 31
0.0
  0
LINE
  5
5156F
330
1F
100
AcDbEntity
  8
躯体と製品
  6
Continuous
 62
     4
100
AcDbLine
 10
-626.2291568360549
 20
1605.996493908599
 30
0.0
 11
-627.7051583546296
 21
1605.996493908599
 31
0.0
  0
LINE
  5
51570
330
1F
100
AcDbEntity
  8
躯体と製品
  6
Continuous
 62
     4
100
AcDbLine
 10
-627.7051583546296
 20
1605.996493908599
 30
0.0
 11
-627.7051583546296
 21
1606.996498562826
 31
0.0
  0
LINE
  5
51571
330
1F
100
AcDbEntity
  8
躯体と製品
  6
Continuous
 62
     4
100
AcDbLine
 10
-629.6152896249939
 20
1605.996493908599
 30
0.0
 11
-629.6152896249939
 21
1606.996498562826
 31
0.0
  0
LINE
  5
51572
330
1F
100
AcDbEntity
  8
躯体と製品
  6
Continuous
 62
     4
100
AcDbLine
 10
-614.8729131280949
 20
1605.996493908599
 30
0.0
 11
-614.8729131280949
 21
1606.996498562826
 31
0.0
  0
LINE
  5
51573
330
1F
100
AcDbEntity
  8
躯体と製品
  6
Continuous
 62
     4
100
AcDbLine
 10
-614.8729131280949
 20
1606.996498562826
 30
0.0
 11
-614.6602083775385
 21
1606.996498562826
 31
0.0
  0
LINE
  5
51574
330
1F
100
AcDbEntity
  8
躯体と製品
  6
Continuous
 62
     4
100
AcDbLine
 10
-614.6602083775385
 20
1606.996498562826
 30
0.0
 11
-614.6602083775385
 21
1607.996503217052
 31
0.0
  0
LINE
  5
51575
330
1F
100
AcDbEntity
  8
躯体と製品
  6
Continuous
 62
     4
100
AcDbLine
 10
-614.1602308238605
 20
1621.296495752621
 30
0.0
 11
-611.1602168611887
 21
1609.996512525505
 31
0.0
  0
LINE
  5
51576
330
1F
100
AcDbEntity
  8
躯体と製品
  6
Continuous
 62
     4
100
AcDbLine
 10
-611.4260854126721
 20
1609.996512525505
 30
0.0
 11
-611.4260854126721
 21
1607.996503217052
 31
0.0
  0
LINE
  5
5157F
330
1F
100
AcDbEntity
  8
躯体と製品
 62
     3
100
AcDbLine
 10
-672.5763130304356
 20
1605.996493908599
 30
0.0
 11
-692.5763130304355
 21
1585.996493908599
 31
0.0
  0
LINE
  5
51580
330
1F
100
AcDbEntity
  8
躯体と製品
 62
     3
100
AcDbLine
 10
-665.5052452185725
 20
1605.996493908599
 30
0.0
 11
-685.5052452185725
 21
1585.996493908599
 31
0.0
  0
LINE
  5
51581
330
1F
100
AcDbEntity
  8
躯体と製品
 62
     3
100
AcDbLine
 10
-658.4341774067022
 20
1605.996493908599
 30
0.0
 11
-678.4341774067022
 21
1585.996493908599
 31
0.0
  0
LINE
  5
51585
330
1F
100
AcDbEntity
  8
躯体と製品
  6
Continuous
 62
     4
100
AcDbLine
 10
-651.1602239898081
 20
1723.9964939086
 30
0.0
 11
-606.1602239898081
 21
1723.9964939086
 31
0.0
  0
LINE
  5
51586
330
1F
100
AcDbEntity
  8
躯体と製品
  6
Continuous
 62
     4
100
AcDbLine
 10
-606.1602239898081
 20
1723.9964939086
 30
0.0
 11
-606.1602239898081
 21
1693.996493908599
 31
0.0
  0
LINE
  5
51587
330
1F
100
AcDbEntity
  8
躯体と製品
  6
Continuous
 62
     4
100
AcDbLine
 10
-606.1602239898081
 20
1693.996493908599
 30
0.0
 11
-651.1602239898081
 21
1693.996493908599
 31
0.0
  0
LINE
  5
51588
330
1F
100
AcDbEntity
  8
躯体と製品
  6
Continuous
 62
     4
100
AcDbLine
 10
-651.1602239898081
 20
1693.996493908599
 30
0.0
 11
-651.1602239898081
 21
1723.9964939086
 31
0.0
  0
LINE
  5
51589
330
1F
100
AcDbEntity
  8
躯体と製品
  6
Continuous
 62
     4
100
AcDbLine
 10
-651.1602239898081
 20
1723.9964939086
 30
0.0
 11
-606.1602239898081
 21
1693.996493908599
 31
0.0
  0
LINE
  5
5158A
330
1F
100
AcDbEntity
  8
躯体と製品
  6
Continuous
 62
     4
100
AcDbLine
 10
-606.1602239898081
 20
1723.9964939086
 30
0.0
 11
-651.1602239898081
 21
1693.996493908599
 31
0.0
  0
LINE
  5
5158D
330
1F
100
AcDbEntity
  8
中心線
  6
CENTER1
 62
     7
100
AcDbLine
 10
-628.6602239898082
 20
1727.507899631457
 30
0.0
 11
-628.6602239898082
 21
1601.238001927354
 31
0.0
  0
LINE
  5
5158E
330
1F
100
AcDbEntity
  8
躯体と製品
  6
Continuous
 62
     4
100
AcDbLine
 10
-310.726901967854
 20
1698.996493908599
 30
0.0
 11
-284.726901967854
 21
1698.996493908599
 31
0.0
  0
LINE
  5
5158F
330
1F
100
AcDbEntity
  8
躯体と製品
  6
Continuous
 62
     4
100
AcDbLine
 10
-345.726901967854
 20
1723.9964939086
 30
0.0
 11
-345.726901967854
 21
1716.9964939086
 31
0.0
  0
LINE
  5
51590
330
1F
100
AcDbEntity
  8
躯体と製品
  6
Continuous
 62
     4
100
AcDbLine
 10
-308.226901967854
 20
1723.9964939086
 30
0.0
 11
-287.226901967854
 21
1723.9964939086
 31
0.0
  0
LINE
  5
51591
330
1F
100
AcDbEntity
  8
躯体と製品
  6
Continuous
 62
     4
100
AcDbLine
 10
-310.726901967854
 20
1699.778911844799
 30
0.0
 11
-310.726901967854
 21
1698.996493908599
 31
0.0
  0
LINE
  5
51592
330
1F
100
AcDbEntity
  8
躯体と製品
  6
Continuous
 62
     4
100
AcDbLine
 10
-284.726901967854
 20
1698.996493908599
 30
0.0
 11
-284.726901967854
 21
1699.778911844799
 31
0.0
  0
LINE
  5
51593
330
1F
100
AcDbEntity
  8
躯体と製品
  6
Continuous
 62
     4
100
AcDbLine
 10
-308.726901967854
 20
1724.296493908602
 30
0.0
 11
-309.226901967854
 21
1723.9964939086
 31
0.0
  0
LINE
  5
51594
330
1F
100
AcDbEntity
  8
躯体と製品
  6
Continuous
 62
     4
100
AcDbLine
 10
-308.226901967854
 20
1723.9964939086
 30
0.0
 11
-308.726901967854
 21
1724.296493908602
 31
0.0
  0
LINE
  5
51595
330
1F
100
AcDbEntity
  8
躯体と製品
  6
Continuous
 62
     4
100
AcDbLine
 10
-286.726901967854
 20
1724.296493908602
 30
0.0
 11
-287.226901967854
 21
1723.9964939086
 31
0.0
  0
LINE
  5
51596
330
1F
100
AcDbEntity
  8
躯体と製品
  6
Continuous
 62
     4
100
AcDbLine
 10
-286.226901967854
 20
1723.9964939086
 30
0.0
 11
-286.726901967854
 21
1724.296493908602
 31
0.0
  0
ARC
  5
51597
330
1F
100
AcDbEntity
  8
躯体と製品
  6
Continuous
 62
     4
100
AcDbCircle
 10
-250.726901967854
 20
1716.9964939086
 30
0.0
 40
1.0
100
AcDbArc
 50
270.0
 51
0.0
  0
LINE
  5
51598
330
1F
100
AcDbEntity
  8
躯体と製品
  6
Continuous
 62
     4
100
AcDbLine
 10
-249.726901967854
 20
1723.9964939086
 30
0.0
 11
-249.726901967854
 21
1716.9964939086
 31
0.0
  0
ARC
  5
51599
330
1F
100
AcDbEntity
  8
躯体と製品
  6
Continuous
 62
     4
100
AcDbCircle
 10
-344.726901967854
 20
1716.9964939086
 30
0.0
 40
1.0
100
AcDbArc
 50
180.0
 51
270.0
  0
LINE
  5
5159A
330
1F
100
AcDbEntity
  8
躯体と製品
  6
Continuous
 62
     4
100
AcDbLine
 10
-298.476901967854
 20
1708.2201161606
 30
0.0
 11
-298.476901967854
 21
1715.996493908599
 31
0.0
  0
LINE
  5
5159B
330
1F
100
AcDbEntity
  8
躯体と製品
  6
Continuous
 62
     4
100
AcDbLine
 10
-296.976901967854
 20
1708.2201161606
 30
0.0
 11
-297.4767785110532
 21
1708.224515292998
 31
0.0
  0
LINE
  5
5159C
330
1F
100
AcDbEntity
  8
躯体と製品
  6
Continuous
 62
     4
100
AcDbLine
 10
-297.4767785110532
 20
1708.224515292998
 30
0.0
 11
-297.9770254248549
 21
1708.224515292998
 31
0.0
  0
LINE
  5
5159D
330
1F
100
AcDbEntity
  8
躯体と製品
  6
Continuous
 62
     4
100
AcDbLine
 10
-297.9770254248549
 20
1708.224515292998
 30
0.0
 11
-298.476901967854
 21
1708.2201161606
 31
0.0
  0
LINE
  5
5159E
330
1F
100
AcDbEntity
  8
躯体と製品
  6
Continuous
 62
     4
100
AcDbLine
 10
-296.976901967854
 20
1708.2201161606
 30
0.0
 11
-296.976901967854
 21
1715.996493908599
 31
0.0
  0
LINE
  5
5159F
330
1F
100
AcDbEntity
  8
躯体と製品
  6
Continuous
 62
     4
100
AcDbLine
 10
-283.8757136604552
 20
1709.281817740602
 30
0.0
 11
-253.0731087360552
 21
1715.996493908599
 31
0.0
  0
LINE
  5
515A0
330
1F
100
AcDbEntity
  8
躯体と製品
  6
Continuous
 62
     4
100
AcDbLine
 10
-284.1032895946526
 20
1709.0009944692
 30
0.0
 11
-252.0124485642561
 21
1715.996493908599
 31
0.0
  0
LINE
  5
515A1
330
1F
100
AcDbEntity
  8
躯体と製品
  6
Continuous
 62
     4
100
AcDbLine
 10
-282.3719007698535
 20
1711.137486956796
 30
0.0
 11
-282.3719007698535
 21
1710.9964939086
 31
0.0
  0
LINE
  5
515A2
330
1F
100
AcDbEntity
  8
躯体と製品
  6
Continuous
 62
     4
100
AcDbLine
 10
-311.350514341252
 20
1709.0009944692
 30
0.0
 11
-343.4413553716556
 21
1715.996493908599
 31
0.0
  0
LINE
  5
515A3
330
1F
100
AcDbEntity
  8
躯体と製品
  6
Continuous
 62
     4
100
AcDbLine
 10
-311.5780902752529
 20
1709.281817740602
 30
0.0
 11
-342.3806951998529
 21
1715.996493908599
 31
0.0
  0
LINE
  5
515A4
330
1F
100
AcDbEntity
  8
躯体と製品
  6
Continuous
 62
     4
100
AcDbLine
 10
-313.0819031658546
 20
1710.9964939086
 30
0.0
 11
-313.0819031658546
 21
1711.137486956796
 31
0.0
  0
LINE
  5
515A5
330
1F
100
AcDbEntity
  8
躯体と製品
  6
Continuous
 62
     4
100
AcDbLine
 10
-280.3011109184561
 20
1715.996493908599
 30
0.0
 11
-280.3011109184561
 21
1715.972882797601
 31
0.0
  0
LINE
  5
515A6
330
1F
100
AcDbEntity
  8
躯体と製品
  6
Continuous
 62
     4
100
AcDbLine
 10
-278.4533518534561
 20
1715.996493908599
 30
0.0
 11
-278.4533518534561
 21
1715.972882797601
 31
0.0
  0
LINE
  5
515A7
330
1F
100
AcDbEntity
  8
躯体と製品
  6
Continuous
 62
     4
100
AcDbLine
 10
-278.4533518534561
 20
1715.972882797601
 30
0.0
 11
-280.3011109184561
 21
1715.972882797601
 31
0.0
  0
LINE
  5
515A8
330
1F
100
AcDbEntity
  8
躯体と製品
  6
Continuous
 62
     4
100
AcDbLine
 10
-278.4533518534561
 20
1715.972882797601
 30
0.0
 11
-291.8428782458548
 21
1699.450526790403
 31
0.0
  0
LINE
  5
515A9
330
1F
100
AcDbEntity
  8
躯体と製品
  6
Continuous
 62
     4
100
AcDbLine
 10
-293.6906373108548
 20
1699.450526790403
 30
0.0
 11
-293.0618864116521
 21
1699.4666942052
 31
0.0
  0
LINE
  5
515AA
330
1F
100
AcDbEntity
  8
躯体と製品
  6
Continuous
 62
     4
100
AcDbLine
 10
-293.0618864116521
 20
1699.4666942052
 30
0.0
 11
-292.4454253730553
 21
1699.4666942052
 31
0.0
  0
LINE
  5
515AB
330
1F
100
AcDbEntity
  8
躯体と製品
  6
Continuous
 62
     4
100
AcDbLine
 10
-292.4454253730553
 20
1699.4666942052
 30
0.0
 11
-291.8428782458548
 21
1699.450526790403
 31
0.0
  0
LINE
  5
515AC
330
1F
100
AcDbEntity
  8
躯体と製品
  6
Continuous
 62
     4
100
AcDbLine
 10
-280.3011109184561
 20
1715.972882797601
 30
0.0
 11
-293.6906373108548
 21
1699.450526790403
 31
0.0
  0
LINE
  5
515AD
330
1F
100
AcDbEntity
  8
躯体と製品
  6
Continuous
 62
     4
100
AcDbLine
 10
-293.6906373108548
 20
1699.450526790403
 30
0.0
 11
-293.6906373108548
 21
1710.9964939086
 31
0.0
  0
LINE
  5
515AE
330
1F
100
AcDbEntity
  8
躯体と製品
  6
Continuous
 62
     4
100
AcDbLine
 10
-290.0595597514518
 20
1715.996493908599
 30
0.0
 11
-290.0595597514518
 21
1710.9964939086
 31
0.0
  0
LINE
  5
515AF
330
1F
100
AcDbEntity
  8
躯体と製品
  6
Continuous
 62
     4
100
AcDbLine
 10
-315.152693017252
 20
1715.972882797601
 30
0.0
 11
-317.000452082252
 21
1715.972882797601
 31
0.0
  0
LINE
  5
515B0
330
1F
100
AcDbEntity
  8
躯体と製品
  6
Continuous
 62
     4
100
AcDbLine
 10
-315.152693017252
 20
1715.972882797601
 30
0.0
 11
-301.7631666248533
 21
1699.450526790403
 31
0.0
  0
LINE
  5
515B1
330
1F
100
AcDbEntity
  8
躯体と製品
  6
Continuous
 62
     4
100
AcDbLine
 10
-303.6109256898533
 20
1699.450526790403
 30
0.0
 11
-303.0083785626528
 21
1699.4666942052
 31
0.0
  0
LINE
  5
515B2
330
1F
100
AcDbEntity
  8
躯体と製品
  6
Continuous
 62
     4
100
AcDbLine
 10
-303.0083785626528
 20
1699.4666942052
 30
0.0
 11
-302.3919175242525
 21
1699.4666942052
 31
0.0
  0
LINE
  5
515B3
330
1F
100
AcDbEntity
  8
躯体と製品
  6
Continuous
 62
     4
100
AcDbLine
 10
-302.3919175242525
 20
1699.4666942052
 30
0.0
 11
-301.7631666248533
 21
1699.450526790403
 31
0.0
  0
LINE
  5
515B4
330
1F
100
AcDbEntity
  8
躯体と製品
  6
Continuous
 62
     4
100
AcDbLine
 10
-317.000452082252
 20
1715.972882797601
 30
0.0
 11
-303.6109256898533
 21
1699.450526790403
 31
0.0
  0
LINE
  5
515B5
330
1F
100
AcDbEntity
  8
躯体と製品
  6
Continuous
 62
     4
100
AcDbLine
 10
-305.3942441844526
 20
1710.9964939086
 30
0.0
 11
-305.3942441844526
 21
1715.996493908599
 31
0.0
  0
LINE
  5
515B6
330
1F
100
AcDbEntity
  8
躯体と製品
  6
Continuous
 62
     4
100
AcDbLine
 10
-301.7631666248533
 20
1699.450526790403
 30
0.0
 11
-301.7631666248533
 21
1710.9964939086
 31
0.0
  0
LINE
  5
515B7
330
1F
100
AcDbEntity
  8
躯体と製品
  6
Continuous
 62
     4
100
AcDbLine
 10
-315.152693017252
 20
1715.996493908599
 30
0.0
 11
-315.152693017252
 21
1715.972882797601
 31
0.0
  0
LINE
  5
515B8
330
1F
100
AcDbEntity
  8
躯体と製品
  6
Continuous
 62
     4
100
AcDbLine
 10
-317.000452082252
 20
1715.996493908599
 30
0.0
 11
-317.000452082252
 21
1715.972882797601
 31
0.0
  0
LINE
  5
515B9
330
1F
100
AcDbEntity
  8
躯体と製品
  6
Continuous
 62
     4
100
AcDbLine
 10
-296.5046797456532
 20
1715.996493908599
 30
0.0
 11
-296.5046797456532
 21
1710.9964939086
 31
0.0
  0
LINE
  5
515BA
330
1F
100
AcDbEntity
  8
躯体と製品
  6
Continuous
 62
     4
100
AcDbLine
 10
-298.9491241900548
 20
1710.9964939086
 30
0.0
 11
-298.9491241900548
 21
1715.996493908599
 31
0.0
  0
LINE
  5
515BB
330
1F
100
AcDbEntity
  8
躯体と製品
  6
Continuous
 62
     4
100
AcDbLine
 10
-290.6816195720537
 20
1710.9964939086
 30
0.0
 11
-290.6816195720537
 21
1715.996493908599
 31
0.0
  0
LINE
  5
515BC
330
1F
100
AcDbEntity
  8
躯体と製品
  6
Continuous
 62
     4
100
AcDbLine
 10
-304.7721843636543
 20
1715.996493908599
 30
0.0
 11
-304.7721843636543
 21
1710.9964939086
 31
0.0
  0
LINE
  5
515BD
330
1F
100
AcDbEntity
  8
躯体と製品
  6
Continuous
 62
     4
100
AcDbLine
 10
-253.730899033854
 20
1715.621887980204
 30
0.0
 11
-285.3693711620551
 21
1699.450526790403
 31
0.0
  0
LINE
  5
515BE
330
1F
100
AcDbEntity
  8
躯体と製品
  6
Continuous
 62
     4
100
AcDbLine
 10
-286.1347380266532
 20
1699.450526790403
 30
0.0
 11
-285.8480971046526
 21
1699.4666942052
 31
0.0
  0
LINE
  5
515BF
330
1F
100
AcDbEntity
  8
躯体と製品
  6
Continuous
 62
     4
100
AcDbLine
 10
-285.8480971046526
 20
1699.4666942052
 30
0.0
 11
-285.5927505818552
 21
1699.4666942052
 31
0.0
  0
LINE
  5
515C0
330
1F
100
AcDbEntity
  8
躯体と製品
  6
Continuous
 62
     4
100
AcDbLine
 10
-285.5927505818552
 20
1699.4666942052
 30
0.0
 11
-285.3693711620551
 21
1699.450526790403
 31
0.0
  0
LINE
  5
515C1
330
1F
100
AcDbEntity
  8
躯体と製品
  6
Continuous
 62
     4
100
AcDbLine
 10
-255.0654247614555
 20
1715.330974009799
 30
0.0
 11
-286.1347380266532
 21
1699.450526790403
 31
0.0
  0
LINE
  5
515C2
330
1F
100
AcDbEntity
  8
躯体と製品
  6
Continuous
 62
     4
100
AcDbLine
 10
-286.1347380266532
 20
1699.450526790403
 30
0.0
 11
-286.1347380266532
 21
1706.494235587598
 31
0.0
  0
LINE
  5
515C3
330
1F
100
AcDbEntity
  8
躯体と製品
  6
Continuous
 62
     4
100
AcDbLine
 10
-309.3190659090549
 20
1699.450526790403
 30
0.0
 11
-309.3190659090549
 21
1706.494235587598
 31
0.0
  0
LINE
  5
515C4
330
1F
100
AcDbEntity
  8
躯体と製品
  6
Continuous
 62
     4
100
AcDbLine
 10
-340.3883791744563
 20
1715.330974009799
 30
0.0
 11
-309.3190659090549
 21
1699.450526790403
 31
0.0
  0
LINE
  5
515C5
330
1F
100
AcDbEntity
  8
躯体と製品
  6
Continuous
 62
     4
100
AcDbLine
 10
-310.084432773853
 20
1699.450526790403
 30
0.0
 11
-309.8610533538565
 21
1699.4666942052
 31
0.0
  0
LINE
  5
515C6
330
1F
100
AcDbEntity
  8
躯体と製品
  6
Continuous
 62
     4
100
AcDbLine
 10
-309.8610533538565
 20
1699.4666942052
 30
0.0
 11
-309.6057068310518
 21
1699.4666942052
 31
0.0
  0
LINE
  5
515C7
330
1F
100
AcDbEntity
  8
躯体と製品
  6
Continuous
 62
     4
100
AcDbLine
 10
-309.6057068310518
 20
1699.4666942052
 30
0.0
 11
-309.3190659090549
 21
1699.450526790403
 31
0.0
  0
LINE
  5
515C8
330
1F
100
AcDbEntity
  8
躯体と製品
  6
Continuous
 62
     4
100
AcDbLine
 10
-341.7229049020541
 20
1715.621887980204
 30
0.0
 11
-310.084432773853
 21
1699.450526790403
 31
0.0
  0
LINE
  5
515C9
330
1F
100
AcDbEntity
  8
躯体と製品
  6
Continuous
 62
     4
100
AcDbLine
 10
-282.3719007698535
 20
1710.9964939086
 30
0.0
 11
-282.4861599068542
 21
1710.9964939086
 31
0.0
  0
LINE
  5
515CA
330
1F
100
AcDbEntity
  8
躯体と製品
  6
Continuous
 62
     4
100
AcDbLine
 10
-312.9676440288538
 20
1710.9964939086
 30
0.0
 11
-313.0819031658546
 21
1710.9964939086
 31
0.0
  0
LINE
  5
515CB
330
1F
100
AcDbEntity
  8
躯体と製品
  6
Continuous
 62
     4
100
AcDbLine
 10
-254.8351740064543
 20
1715.057460299803
 30
0.0
 11
-250.726901967854
 21
1715.996493908599
 31
0.0
  0
LINE
  5
515CC
330
1F
100
AcDbEntity
  8
躯体と製品
  6
Continuous
 62
     4
100
AcDbLine
 10
-340.6186299294538
 20
1715.057460299803
 30
0.0
 11
-344.726901967854
 21
1715.996493908599
 31
0.0
  0
LINE
  5
515CD
330
1F
100
AcDbEntity
  8
躯体と製品
  6
Continuous
 62
     4
100
AcDbLine
 10
-345.726901967854
 20
1723.9964939086
 30
0.0
 11
-309.226901967854
 21
1723.9964939086
 31
0.0
  0
LINE
  5
515CE
330
1F
100
AcDbEntity
  8
躯体と製品
  6
Continuous
 62
     4
100
AcDbLine
 10
-345.726901967854
 20
1716.9964939086
 30
0.0
 11
-249.726901967854
 21
1716.9964939086
 31
0.0
  0
LINE
  5
515CF
330
1F
100
AcDbEntity
  8
躯体と製品
  6
Continuous
 62
     4
100
AcDbLine
 10
-254.726901967854
 20
1723.9964939086
 30
0.0
 11
-254.726901967854
 21
1715.996493908599
 31
0.0
  0
LINE
  5
515D0
330
1F
100
AcDbEntity
  8
躯体と製品
  6
Continuous
 62
     4
100
AcDbLine
 10
-286.226901967854
 20
1723.9964939086
 30
0.0
 11
-249.726901967854
 21
1723.9964939086
 31
0.0
  0
LINE
  5
515D1
330
1F
100
AcDbEntity
  8
躯体と製品
  6
Continuous
 62
     4
100
AcDbLine
 10
-340.726901967854
 20
1723.9964939086
 30
0.0
 11
-340.726901967854
 21
1715.996493908599
 31
0.0
  0
LINE
  5
515D2
330
1F
100
AcDbEntity
  8
躯体と製品
  6
Continuous
 62
     4
100
AcDbLine
 10
-250.726901967854
 20
1715.996493908599
 30
0.0
 11
-344.726901967854
 21
1715.996493908599
 31
0.0
  0
LINE
  5
515D3
330
1F
100
AcDbEntity
  8
躯体と製品
  6
Continuous
 62
     4
100
AcDbLine
 10
-298.476901967854
 20
1710.9964939086
 30
0.0
 11
-305.3942441844526
 21
1710.9964939086
 31
0.0
  0
LINE
  5
515D4
330
1F
100
AcDbEntity
  8
躯体と製品
  6
Continuous
 62
     4
100
AcDbLine
 10
-290.0595597514518
 20
1710.9964939086
 30
0.0
 11
-296.976901967854
 21
1710.9964939086
 31
0.0
  0
LINE
  5
515D5
330
1F
100
AcDbEntity
  8
中心線
  6
CENTER1
 62
     7
100
AcDbLine
 10
-297.726901967854
 20
1729.478909041158
 30
0.0
 11
-297.726901967854
 21
1601.238001927354
 31
0.0
  0
LINE
  5
515D6
330
1F
100
AcDbEntity
  8
躯体と製品
  6
Continuous
 62
     4
100
AcDbLine
 10
-286.226901967854
 20
1743.996493908599
 30
0.0
 11
-286.226901967854
 21
1723.9964939086
 31
0.0
  0
LINE
  5
515D7
330
1F
100
AcDbEntity
  8
躯体と製品
  6
Continuous
 62
     4
100
AcDbLine
 10
-309.226901967854
 20
1743.996493908599
 30
0.0
 11
-309.226901967854
 21
1723.9964939086
 31
0.0
  0
LINE
  5
515D8
330
1F
100
AcDbEntity
  8
躯体と製品
  6
Continuous
 62
     4
100
AcDbLine
 10
-627.1602239898136
 20
1663.996493908599
 30
0.0
 11
-627.1602239898117
 21
1649.996512525505
 31
0.0
  0
LINE
  5
515D9
330
1F
100
AcDbEntity
  8
躯体と製品
  6
Continuous
 62
     4
100
AcDbLine
 10
-638.6602239898136
 20
1663.996493908599
 30
0.0
 11
-638.6602239898118
 21
1649.996512525505
 31
0.0
  0
LINE
  5
515DA
330
1F
100
AcDbEntity
  8
躯体と製品
  6
Continuous
 62
     4
100
AcDbLine
 10
-630.1602239898118
 20
1663.996493908599
 30
0.0
 11
-630.1602239898118
 21
1649.996512525505
 31
0.0
  0
LINE
  5
515DB
330
1F
100
AcDbEntity
  8
躯体と製品
  6
Continuous
 62
     4
100
AcDbLine
 10
-637.307223989809
 20
1663.996493908599
 30
0.0
 11
-637.307223989809
 21
1649.996512525505
 31
0.0
  0
LINE
  5
515DC
330
1F
100
AcDbEntity
  8
躯体と製品
  6
Continuous
 62
     4
100
AcDbLine
 10
-618.6602239898136
 20
1663.996493908599
 30
0.0
 11
-618.6602239898117
 21
1649.996512525505
 31
0.0
  0
LINE
  5
515DD
330
1F
100
AcDbEntity
  8
躯体と製品
  6
Continuous
 62
     4
100
AcDbLine
 10
-638.6602239898118
 20
1649.996512525505
 30
0.0
 11
-618.6602239898117
 21
1649.996512525505
 31
0.0
  0
LINE
  5
515DE
330
1F
100
AcDbEntity
  8
躯体と製品
  6
Continuous
 62
     4
100
AcDbLine
 10
-620.013223989811
 20
1663.996493908599
 30
0.0
 11
-620.013223989811
 21
1649.996512525505
 31
0.0
  0
LINE
  5
515DF
330
1F
100
AcDbEntity
  8
躯体と製品
  6
Continuous
 62
     4
100
AcDbLine
 10
-637.1602239898118
 20
1621.296495752621
 30
0.0
 11
-637.1602239898118
 21
1649.996512525505
 31
0.0
  0
LINE
  5
515E0
330
1F
100
AcDbEntity
  8
躯体と製品
  6
Continuous
 62
     4
100
AcDbLine
 10
-620.1602239898118
 20
1621.296495752621
 30
0.0
 11
-620.1602239898118
 21
1649.996512525505
 31
0.0
  0
LWPOLYLINE
  5
515E1
330
1F
100
AcDbEntity
  8
文字-記号
 62
     7
100
AcDbPolyline
 90
        3
 70
     0
 43
0.0
 10
-270.6872793937607
 20
1707.541781765911
 10
-258.6526218346287
 20
1686.697143421802
 10
-196.1865492004933
 20
1686.697143421802
  0
TEXT
  5
515E2
330
1F
100
AcDbEntity
  8
文字-記号
 62
     7
100
AcDbText
 10
-255.2130845772397
 20
1689.17579690607
 30
0.0
 40
9.0
  1
ボード受け
100
AcDbText
  0
LWPOLYLINE
  5
515E3
330
1F
100
AcDbEntity
  8
文字-記号
 62
     7
100
AcDbPolyline
 90
        3
 70
     0
 43
0.0
 10
-612.6602238425245
 20
1615.646504139063
 10
-598.4602343179164
 20
1640.241607462629
 10
-488.5753441650183
 20
1640.241607462629
  0
TEXT
  5
515E4
330
1F
100
AcDbEntity
  8
文字-記号
 62
     7
100
AcDbText
 10
-595.5785180048795
 20
1645.379763889927
 30
0.0
 40
9.0
  1
クッションＬＫＧゴム
100
AcDbText
  0
LWPOLYLINE
  5
515E5
330
1F
100
AcDbEntity
  8
文字-記号
 62
     7
100
AcDbPolyline
 90
        3
 70
     0
 43
0.0
 10
-422.2997801094359
 20
1755.9964939086
 10
-389.1025405950993
 20
1813.495799418462
 10
-249.2591506455708
 20
1813.495799418462
  0
TEXT
  5
515E6
330
1F
100
AcDbEntity
  8
文字-記号
 62
     7
100
AcDbText
 10
-386.2208242820623
 20
1818.633955845759
 30
0.0
 40
9.0
  1
フローリング t＝１２ｍｍ
100
AcDbText
  0
LWPOLYLINE
  5
515E7
330
1F
100
AcDbEntity
  8
文字-記号
 62
     7
100
AcDbPolyline
 90
        3
 70
     0
 43
0.0
 10
-400.4058003093184
 20
1734.109392409505
 10
-371.8372887239009
 20
1783.591505972069
 10
-205.1217218524787
 20
1783.591505972069
  0
TEXT
  5
515E8
330
1F
100
AcDbEntity
  8
文字-記号
 62
     7
100
AcDbText
 10
-368.955572410862
 20
1788.729662399366
 30
0.0
 40
9.0
  1
パーティクルボード t＝２０ｍｍ
100
AcDbText
  0
LWPOLYLINE
  5
515E9
330
1F
100
AcDbEntity
  8
文字-記号
 62
     7
100
AcDbPolyline
 90
        3
 70
     0
 43
0.0
 10
-606.1602239898081
 20
1703.926655158837
 10
-560.1657009278376
 20
1783.591505972069
 10
-456.2680494340518
 20
1783.591505972069
  0
TEXT
  5
515EA
330
1F
100
AcDbEntity
  8
文字-記号
 62
     7
100
AcDbText
 10
-557.2839846148005
 20
1788.729662399366
 30
0.0
 40
9.0
  1
防音システム際根太
100
AcDbText
  0
DIMENSION
  5
515EB
330
1F
100
AcDbEntity
  8
寸法
  6
Continuous
100
AcDbDimension
  2
*D1
 10
-129.4200914381642
 20
1743.996493908599
 30
0.0
 11
-136.9200914381645
 21
1674.996493908599
 31
0.0
 70
    32
  1
h
 71
     5
 42
138.0
  3
AutoCAD
100
AcDbAlignedDimension
 13
-168.6519724381639
 23
1605.996493908599
 33
0.0
 14
-168.6519724381639
 24
1743.996493908599
 34
0.0
 50
90.0
100
AcDbRotatedDimension
1001
ACAD
1000
DSTYLE
1002
{
1070
   140
1040
9.0
1002
}
  0
LINE
  5
515EC
330
1F
100
AcDbEntity
  8
躯体と製品
  6
Continuous
 62
     4
100
AcDbLine
 10
-296.226901967854
 20
1698.996493908599
 30
0.0
 11
-296.2269019678522
 21
1667.996494003551
 31
0.0
  0
LINE
  5
515ED
330
1F
100
AcDbEntity
  8
躯体と製品
  6
Continuous
 62
     4
100
AcDbLine
 10
-307.726901967854
 20
1698.996493908599
 30
0.0
 11
-307.7269019678522
 21
1667.996494003551
 31
0.0
  0
LINE
  5
515EE
330
1F
100
AcDbEntity
  8
躯体と製品
  6
Continuous
 62
     4
100
AcDbLine
 10
-299.226901967854
 20
1698.996493908599
 30
0.0
 11
-299.2269019678522
 21
1667.996494003551
 31
0.0
  0
LINE
  5
515EF
330
1F
100
AcDbEntity
  8
躯体と製品
  6
Continuous
 62
     4
100
AcDbLine
 10
-306.3739019678512
 20
1698.996493908599
 30
0.0
 11
-306.3739019678494
 21
1667.996494003551
 31
0.0
  0
LINE
  5
515F0
330
1F
100
AcDbEntity
  8
躯体と製品
  6
Continuous
 62
     4
100
AcDbLine
 10
-287.726901967854
 20
1698.996493908599
 30
0.0
 11
-287.7269019678522
 21
1667.996494003551
 31
0.0
  0
LINE
  5
515F1
330
1F
100
AcDbEntity
  8
躯体と製品
  6
Continuous
 62
     4
100
AcDbLine
 10
-289.0799019678532
 20
1698.996493908599
 30
0.0
 11
-289.0799019678514
 21
1667.996494003551
 31
0.0
  0
LINE
  5
515F2
330
1F
100
AcDbEntity
  8
躯体と製品
  6
Continuous
 62
     4
100
AcDbLine
 10
-306.2269019678522
 20
1637.996494003551
 30
0.0
 11
-306.2269019678522
 21
1667.996494003551
 31
0.0
  0
LINE
  5
515F3
330
1F
100
AcDbEntity
  8
躯体と製品
  6
Continuous
 62
     4
100
AcDbLine
 10
-289.2269019678522
 20
1637.996494003551
 30
0.0
 11
-289.2269019678522
 21
1667.996494003551
 31
0.0
  0
TEXT
  5
515F4
330
1F
100
AcDbEntity
  8
文字-記号
 62
     7
100
AcDbText
 10
-448.010038375113
 20
1655.729753754414
 30
0.0
 40
9.0
  1
クッションＬＣＢＢゴム
100
AcDbText
  0
LWPOLYLINE
  5
515F5
330
1F
100
AcDbEntity
  8
文字-記号
 62
     7
100
AcDbPolyline
 90
        3
 70
     0
 43
0.0
 10
-313.9769019678559
 20
1625.996494003551
 10
-328.1768914924621
 20
1650.591597327117
 10
-448.7983109410058
 20
1650.591597327117
  0
ARC
  5
515F6
330
1F
100
AcDbEntity
  8
躯体と製品
  6
Continuous
 62
     4
100
AcDbCircle
 10
-315.2269019678558
 20
1610.996494003551
 30
0.0
 40
3.0
100
AcDbArc
 50
90.0
 51
270.0
  0
LINE
  5
515F7
330
1F
100
AcDbEntity
  8
躯体と製品
  6
Continuous
 62
     4
100
AcDbLine
 10
-309.3126879752042
 20
1605.996493908599
 30
0.0
 11
-286.1411159605038
 21
1605.996493908599
 31
0.0
  0
LINE
  5
515F8
330
1F
100
AcDbEntity
  8
躯体と製品
  6
Continuous
 62
     4
100
AcDbLine
 10
-311.6662779570058
 20
1607.170142193348
 30
0.0
 11
-311.3126883030043
 21
1606.996493956104
 31
0.0
  0
LINE
  5
515F9
330
1F
100
AcDbEntity
  8
躯体と製品
  6
Continuous
 62
     4
100
AcDbLine
 10
-312.0217088357083
 20
1607.338514138953
 30
0.0
 11
-311.6662779570058
 21
1607.170142193348
 31
0.0
  0
LINE
  5
515FA
330
1F
100
AcDbEntity
  8
躯体と製品
  6
Continuous
 62
     4
100
AcDbLine
 10
-312.3681822538554
 20
1607.496493979802
 30
0.0
 11
-312.0217088357083
 21
1607.338514138953
 31
0.0
  0
LINE
  5
515FB
330
1F
100
AcDbEntity
  8
躯体と製品
  6
Continuous
 62
     4
100
AcDbLine
 10
-312.6951714724553
 20
1607.639281621204
 30
0.0
 11
-312.3681822538554
 21
1607.496493979802
 31
0.0
  0
LINE
  5
515FC
330
1F
100
AcDbEntity
  8
躯体と製品
  6
Continuous
 62
     4
100
AcDbLine
 10
-312.9927392796042
 20
1607.762538453201
 30
0.0
 11
-312.6951714724553
 21
1607.639281621204
 31
0.0
  0
LINE
  5
515FD
330
1F
100
AcDbEntity
  8
躯体と製品
  6
Continuous
 62
     4
100
AcDbLine
 10
-313.2518462583564
 20
1607.862519409501
 30
0.0
 11
-312.9927392796042
 21
1607.762538453201
 31
0.0
  0
LINE
  5
515FE
330
1F
100
AcDbEntity
  8
躯体と製品
  6
Continuous
 62
     4
100
AcDbLine
 10
-313.4646180764055
 20
1607.936186625005
 30
0.0
 11
-313.2518462583564
 21
1607.862519409501
 31
0.0
  0
LINE
  5
515FF
330
1F
100
AcDbEntity
  8
躯体と製品
  6
Continuous
 62
     4
100
AcDbLine
 10
-313.6245894924057
 20
1607.981301756802
 30
0.0
 11
-313.4646180764055
 21
1607.936186625005
 31
0.0
  0
LINE
  5
51600
330
1F
100
AcDbEntity
  8
躯体と製品
  6
Continuous
 62
     4
100
AcDbLine
 10
-313.7269027278078
 20
1607.996494003551
 30
0.0
 11
-313.6245894924057
 21
1607.981301756802
 31
0.0
  0
LINE
  5
51601
330
1F
100
AcDbEntity
  8
躯体と製品
  6
Continuous
 62
     4
100
AcDbLine
 10
-311.3126883030043
 20
1606.996493956104
 30
0.0
 11
-309.3126879752042
 21
1605.996493908599
 31
0.0
  0
LINE
  5
51602
330
1F
100
AcDbEntity
  8
躯体と製品
  6
Continuous
 62
     4
100
AcDbLine
 10
-286.1411159605038
 20
1605.996493908599
 30
0.0
 11
-284.1411156327074
 21
1606.996493956104
 31
0.0
  0
LINE
  5
51603
330
1F
100
AcDbEntity
  8
躯体と製品
  6
Continuous
 62
     4
100
AcDbLine
 10
-281.829214443306
 20
1607.981301756802
 30
0.0
 11
-281.7269012079039
 21
1607.996494003551
 31
0.0
  0
LINE
  5
51604
330
1F
100
AcDbEntity
  8
躯体と製品
  6
Continuous
 62
     4
100
AcDbLine
 10
-281.9891858593026
 20
1607.936186625005
 30
0.0
 11
-281.829214443306
 21
1607.981301756802
 31
0.0
  0
LINE
  5
51605
330
1F
100
AcDbEntity
  8
躯体と製品
  6
Continuous
 62
     4
100
AcDbLine
 10
-282.2019576773552
 20
1607.862519409501
 30
0.0
 11
-281.9891858593026
 21
1607.936186625005
 31
0.0
  0
LINE
  5
51606
330
1F
100
AcDbEntity
  8
躯体と製品
  6
Continuous
 62
     4
100
AcDbLine
 10
-282.4610646561039
 20
1607.762538453201
 30
0.0
 11
-282.2019576773552
 21
1607.862519409501
 31
0.0
  0
LINE
  5
51607
330
1F
100
AcDbEntity
  8
躯体と製品
  6
Continuous
 62
     4
100
AcDbLine
 10
-282.7586324632564
 20
1607.639281621204
 30
0.0
 11
-282.4610646561039
 21
1607.762538453201
 31
0.0
  0
LINE
  5
51608
330
1F
100
AcDbEntity
  8
躯体と製品
  6
Continuous
 62
     4
100
AcDbLine
 10
-283.0856216818563
 20
1607.496493979802
 30
0.0
 11
-282.7586324632564
 21
1607.639281621204
 31
0.0
  0
LINE
  5
51609
330
1F
100
AcDbEntity
  8
躯体と製品
  6
Continuous
 62
     4
100
AcDbLine
 10
-283.432095100007
 20
1607.338514138953
 30
0.0
 11
-283.0856216818563
 21
1607.496493979802
 31
0.0
  0
LINE
  5
5160A
330
1F
100
AcDbEntity
  8
躯体と製品
  6
Continuous
 62
     4
100
AcDbLine
 10
-283.7875259787058
 20
1607.170142193348
 30
0.0
 11
-283.432095100007
 21
1607.338514138953
 31
0.0
  0
LINE
  5
5160B
330
1F
100
AcDbEntity
  8
躯体と製品
  6
Continuous
 62
     4
100
AcDbLine
 10
-284.1411156327074
 20
1606.996493956104
 30
0.0
 11
-283.7875259787058
 21
1607.170142193348
 31
0.0
  0
LINE
  5
5160C
330
1F
100
AcDbEntity
  8
躯体と製品
  6
Continuous
 62
     4
100
AcDbLine
 10
-296.7420942362576
 20
1607.170142193348
 30
0.0
 11
-296.7269019203548
 21
1606.996493956104
 31
0.0
  0
LINE
  5
5160D
330
1F
100
AcDbEntity
  8
躯体と製品
  6
Continuous
 62
     4
100
AcDbLine
 10
-296.7872093644571
 20
1607.338514138953
 30
0.0
 11
-296.7420942362576
 21
1607.170142193348
 31
0.0
  0
LINE
  5
5160E
330
1F
100
AcDbEntity
  8
躯体と製品
  6
Continuous
 62
     4
100
AcDbLine
 10
-296.8608765726083
 20
1607.496493979802
 30
0.0
 11
-296.7872093644571
 21
1607.338514138953
 31
0.0
  0
LINE
  5
5160F
330
1F
100
AcDbEntity
  8
躯体と製品
  6
Continuous
 62
     4
100
AcDbLine
 10
-296.9608575434565
 20
1607.639281621204
 30
0.0
 11
-296.8608765726083
 21
1607.496493979802
 31
0.0
  0
LINE
  5
51610
330
1F
100
AcDbEntity
  8
躯体と製品
  6
Continuous
 62
     4
100
AcDbLine
 10
-297.0841143609566
 20
1607.762538453201
 30
0.0
 11
-296.9608575434565
 21
1607.639281621204
 31
0.0
  0
LINE
  5
51611
330
1F
100
AcDbEntity
  8
躯体と製品
  6
Continuous
 62
     4
100
AcDbLine
 10
-297.2269019441071
 20
1607.862519409501
 30
0.0
 11
-297.0841143609566
 21
1607.762538453201
 31
0.0
  0
LINE
  5
51612
330
1F
100
AcDbEntity
  8
躯体と製品
  6
Continuous
 62
     4
100
AcDbLine
 10
-297.3848818141039
 20
1607.936186625005
 30
0.0
 11
-297.2269019441071
 21
1607.862519409501
 31
0.0
  0
LINE
  5
51613
330
1F
100
AcDbEntity
  8
躯体と製品
  6
Continuous
 62
     4
100
AcDbLine
 10
-297.5532537888055
 20
1607.981301756802
 30
0.0
 11
-297.3848818141039
 21
1607.936186625005
 31
0.0
  0
LINE
  5
51614
330
1F
100
AcDbEntity
  8
躯体と製品
  6
Continuous
 62
     4
100
AcDbLine
 10
-297.7269019678558
 20
1607.996494003551
 30
0.0
 11
-297.5532537888055
 21
1607.981301756802
 31
0.0
  0
LINE
  5
51615
330
1F
100
AcDbEntity
  8
躯体と製品
  6
Continuous
 62
     4
100
AcDbLine
 10
-296.7269019203548
 20
1606.996493956104
 30
0.0
 11
-296.7269019203548
 21
1605.996493908599
 31
0.0
  0
LINE
  5
51616
330
1F
100
AcDbEntity
  8
躯体と製品
  6
Continuous
 62
     4
100
AcDbLine
 10
-289.2416210592044
 20
1605.996493908599
 30
0.0
 11
-286.4131934688037
 21
1607.996494003551
 31
0.0
  0
LINE
  5
51617
330
1F
100
AcDbEntity
  8
躯体と製品
  6
Continuous
 62
     4
100
AcDbLine
 10
-298.7269020153533
 20
1605.996493908599
 30
0.0
 11
-298.7269020153533
 21
1606.996493956104
 31
0.0
  0
LINE
  5
51618
330
1F
100
AcDbEntity
  8
躯体と製品
  6
Continuous
 62
     4
100
AcDbLine
 10
-297.9005501469062
 20
1607.981301756802
 30
0.0
 11
-297.7269019678558
 21
1607.996494003551
 31
0.0
  0
LINE
  5
51619
330
1F
100
AcDbEntity
  8
躯体と製品
  6
Continuous
 62
     4
100
AcDbLine
 10
-298.0689221216078
 20
1607.936186625005
 30
0.0
 11
-297.9005501469062
 21
1607.981301756802
 31
0.0
  0
LINE
  5
5161A
330
1F
100
AcDbEntity
  8
躯体と製品
  6
Continuous
 62
     4
100
AcDbLine
 10
-298.2269019916046
 20
1607.862519409501
 30
0.0
 11
-298.0689221216078
 21
1607.936186625005
 31
0.0
  0
LINE
  5
5161B
330
1F
100
AcDbEntity
  8
躯体と製品
  6
Continuous
 62
     4
100
AcDbLine
 10
-298.369689574755
 20
1607.762538453201
 30
0.0
 11
-298.2269019916046
 21
1607.862519409501
 31
0.0
  0
LINE
  5
5161C
330
1F
100
AcDbEntity
  8
躯体と製品
  6
Continuous
 62
     4
100
AcDbLine
 10
-298.4929463922551
 20
1607.639281621204
 30
0.0
 11
-298.369689574755
 21
1607.762538453201
 31
0.0
  0
LINE
  5
5161D
330
1F
100
AcDbEntity
  8
躯体と製品
  6
Continuous
 62
     4
100
AcDbLine
 10
-298.592927363107
 20
1607.496493979802
 30
0.0
 11
-298.4929463922551
 21
1607.639281621204
 31
0.0
  0
LINE
  5
5161E
330
1F
100
AcDbEntity
  8
躯体と製品
  6
Continuous
 62
     4
100
AcDbLine
 10
-298.6665945712582
 20
1607.338514138953
 30
0.0
 11
-298.592927363107
 21
1607.496493979802
 31
0.0
  0
LINE
  5
5161F
330
1F
100
AcDbEntity
  8
躯体と製品
  6
Continuous
 62
     4
100
AcDbLine
 10
-298.7117096994541
 20
1607.170142193348
 30
0.0
 11
-298.6665945712582
 21
1607.338514138953
 31
0.0
  0
LINE
  5
51620
330
1F
100
AcDbEntity
  8
躯体と製品
  6
Continuous
 62
     4
100
AcDbLine
 10
-298.7269020153533
 20
1606.996493956104
 30
0.0
 11
-298.7117096994541
 21
1607.170142193348
 31
0.0
  0
LINE
  5
51621
330
1F
100
AcDbEntity
  8
躯体と製品
  6
Continuous
 62
     4
100
AcDbLine
 10
-312.7269019678558
 20
1637.996494003551
 30
0.0
 11
-282.7269019678558
 21
1637.996494003551
 31
0.0
  0
LINE
  5
51622
330
1F
100
AcDbEntity
  8
躯体と製品
  6
Continuous
 62
     4
100
AcDbLine
 10
-315.2269019678558
 20
1613.996494003551
 30
0.0
 11
-297.7269019678558
 21
1613.996494003551
 31
0.0
  0
LINE
  5
51623
330
1F
100
AcDbEntity
  8
躯体と製品
  6
Continuous
 62
     4
100
AcDbLine
 10
-297.7269019678558
 20
1613.996494003551
 30
0.0
 11
-280.2269019678558
 21
1613.996494003551
 31
0.0
  0
LINE
  5
51624
330
1F
100
AcDbEntity
  8
躯体と製品
  6
Continuous
 62
     4
100
AcDbLine
 10
-312.7269019678558
 20
1637.996494003551
 30
0.0
 11
-315.2269019678558
 21
1613.996494003551
 31
0.0
  0
LINE
  5
51625
330
1F
100
AcDbEntity
  8
躯体と製品
  6
Continuous
 62
     4
100
AcDbLine
 10
-280.2269019678558
 20
1613.996494003551
 30
0.0
 11
-282.7269019678558
 21
1637.996494003551
 31
0.0
  0
ARC
  5
51626
330
1F
100
AcDbEntity
  8
躯体と製品
  6
Continuous
 62
     4
100
AcDbCircle
 10
-280.2269019678558
 20
1610.996494003551
 30
0.0
 40
3.0
100
AcDbArc
 50
270.0
 51
90.0
  0
LINE
  5
51627
330
1F
100
AcDbEntity
  8
躯体と製品
  6
Continuous
 62
     4
100
AcDbLine
 10
-306.2121828765073
 20
1605.996493908599
 30
0.0
 11
-309.040610466908
 21
1607.996494003551
 31
0.0
  0
LINE
  5
51628
330
1F
100
AcDbEntity
  8
躯体と製品
  6
Continuous
 62
     4
100
AcDbLine
 10
-315.2269019678558
 20
1607.996494003551
 30
0.0
 11
-280.2269019678558
 21
1607.996494003551
 31
0.0
  0
LINE
  5
51629
330
1F
100
AcDbEntity
  8
躯体と製品
  6
Continuous
 62
     4
100
AcDbLine
 10
-307.7269019678522
 20
1667.996494003551
 30
0.0
 11
-287.7269019678522
 21
1667.996494003551
 31
0.0
  0
LINE
  5
5162B
330
1F
100
AcDbEntity
  8
躯体と製品
  6
Continuous
 62
     4
100
AcDbLine
 10
-786.1602168611887
 20
1609.996512525506
 30
0.0
 11
-821.1602311184348
 21
1609.996512525506
 31
0.0
  0
LINE
  5
5162C
330
1F
100
AcDbEntity
  8
躯体と製品
  6
Continuous
 62
     4
100
AcDbLine
 10
-789.1602308238605
 20
1621.296495752622
 30
0.0
 11
-818.1602171557559
 21
1621.296495752622
 31
0.0
  0
LINE
  5
5162D
330
1F
100
AcDbEntity
  8
躯体と製品
  6
Continuous
 62
     4
100
AcDbLine
 10
-786.4260854126721
 20
1607.996503217053
 30
0.0
 11
-789.6602083775385
 21
1607.996503217053
 31
0.0
  0
LINE
  5
5162E
330
1F
100
AcDbEntity
  8
躯体と製品
  6
Continuous
 62
     4
100
AcDbLine
 10
-806.0912911435615
 20
1605.9964939086
 30
0.0
 11
-804.6152896249939
 21
1605.9964939086
 31
0.0
  0
LINE
  5
5162F
330
1F
100
AcDbEntity
  8
躯体と製品
  6
Continuous
 62
     4
100
AcDbLine
 10
-804.6152896249939
 20
1606.996498562826
 30
0.0
 11
-802.7051583546297
 21
1606.996498562826
 31
0.0
  0
LINE
  5
51630
330
1F
100
AcDbEntity
  8
躯体と製品
  6
Continuous
 62
     4
100
AcDbLine
 10
-818.1602171557559
 20
1621.296495752622
 30
0.0
 11
-821.1602311184348
 21
1609.996512525506
 31
0.0
  0
LINE
  5
51631
330
1F
100
AcDbEntity
  8
躯体と製品
  6
Continuous
 62
     4
100
AcDbLine
 10
-817.4475348515214
 20
1605.9964939086
 30
0.0
 11
-806.0912911435615
 21
1605.9964939086
 31
0.0
  0
LINE
  5
51632
330
1F
100
AcDbEntity
  8
躯体と製品
  6
Continuous
 62
     4
100
AcDbLine
 10
-817.6601900552075
 20
1607.996503217053
 30
0.0
 11
-820.8943625669515
 21
1607.996503217053
 31
0.0
  0
LINE
  5
51633
330
1F
100
AcDbEntity
  8
躯体と製品
  6
Continuous
 62
     4
100
AcDbLine
 10
-821.1602311184348
 20
1609.996512525506
 30
0.0
 11
-820.8943625669515
 21
1609.996512525506
 31
0.0
  0
LINE
  5
51634
330
1F
100
AcDbEntity
  8
躯体と製品
  6
Continuous
 62
     4
100
AcDbLine
 10
-820.8943625669515
 20
1609.996512525506
 30
0.0
 11
-820.8943625669515
 21
1607.996503217053
 31
0.0
  0
LINE
  5
51635
330
1F
100
AcDbEntity
  8
躯体と製品
  6
Continuous
 62
     4
100
AcDbLine
 10
-817.6601900552075
 20
1606.996498562826
 30
0.0
 11
-817.4475348515214
 21
1606.996498562826
 31
0.0
  0
LINE
  5
51636
330
1F
100
AcDbEntity
  8
躯体と製品
  6
Continuous
 62
     4
100
AcDbLine
 10
-817.4475348515214
 20
1605.9964939086
 30
0.0
 11
-817.4475348515214
 21
1606.996498562826
 31
0.0
  0
LINE
  5
51637
330
1F
100
AcDbEntity
  8
躯体と製品
  6
Continuous
 62
     4
100
AcDbLine
 10
-817.6601900552075
 20
1607.996503217053
 30
0.0
 11
-817.6601900552075
 21
1606.996498562826
 31
0.0
  0
LINE
  5
51638
330
1F
100
AcDbEntity
  8
躯体と製品
  6
Continuous
 62
     4
100
AcDbLine
 10
-789.8729131280949
 20
1605.9964939086
 30
0.0
 11
-801.2291568360549
 21
1605.9964939086
 31
0.0
  0
LINE
  5
51639
330
1F
100
AcDbEntity
  8
躯体と製品
  6
Continuous
 62
     4
100
AcDbLine
 10
-801.2291568360549
 20
1605.9964939086
 30
0.0
 11
-802.7051583546297
 21
1605.9964939086
 31
0.0
  0
LINE
  5
5163A
330
1F
100
AcDbEntity
  8
躯体と製品
  6
Continuous
 62
     4
100
AcDbLine
 10
-802.7051583546297
 20
1605.9964939086
 30
0.0
 11
-802.7051583546297
 21
1606.996498562826
 31
0.0
  0
LINE
  5
5163B
330
1F
100
AcDbEntity
  8
躯体と製品
  6
Continuous
 62
     4
100
AcDbLine
 10
-804.6152896249939
 20
1605.9964939086
 30
0.0
 11
-804.6152896249939
 21
1606.996498562826
 31
0.0
  0
LINE
  5
5163C
330
1F
100
AcDbEntity
  8
躯体と製品
  6
Continuous
 62
     4
100
AcDbLine
 10
-789.8729131280949
 20
1605.9964939086
 30
0.0
 11
-789.8729131280949
 21
1606.996498562826
 31
0.0
  0
LINE
  5
5163D
330
1F
100
AcDbEntity
  8
躯体と製品
  6
Continuous
 62
     4
100
AcDbLine
 10
-789.8729131280949
 20
1606.996498562826
 30
0.0
 11
-789.6602083775385
 21
1606.996498562826
 31
0.0
  0
LINE
  5
5163E
330
1F
100
AcDbEntity
  8
躯体と製品
  6
Continuous
 62
     4
100
AcDbLine
 10
-789.6602083775385
 20
1606.996498562826
 30
0.0
 11
-789.6602083775385
 21
1607.996503217053
 31
0.0
  0
LINE
  5
5163F
330
1F
100
AcDbEntity
  8
躯体と製品
  6
Continuous
 62
     4
100
AcDbLine
 10
-789.1602308238605
 20
1621.296495752622
 30
0.0
 11
-786.1602168611887
 21
1609.996512525506
 31
0.0
  0
LINE
  5
51640
330
1F
100
AcDbEntity
  8
躯体と製品
  6
Continuous
 62
     4
100
AcDbLine
 10
-786.4260854126721
 20
1609.996512525506
 30
0.0
 11
-786.4260854126721
 21
1607.996503217053
 31
0.0
  0
LINE
  5
51642
330
1F
100
AcDbEntity
  8
躯体と製品
  6
Continuous
 62
     4
100
AcDbLine
 10
-826.1602239899245
 20
1700.9964939086
 30
0.0
 11
-781.1602239899245
 21
1700.9964939086
 31
0.0
  0
LINE
  5
51643
330
1F
100
AcDbEntity
  8
躯体と製品
  6
Continuous
 62
     4
100
AcDbLine
 10
-781.1602239899245
 20
1700.9964939086
 30
0.0
 11
-781.1602239899245
 21
1670.996493908599
 31
0.0
  0
LINE
  5
51644
330
1F
100
AcDbEntity
  8
躯体と製品
  6
Continuous
 62
     4
100
AcDbLine
 10
-781.1602239899245
 20
1670.996493908599
 30
0.0
 11
-826.1602239899245
 21
1670.996493908599
 31
0.0
  0
LINE
  5
51645
330
1F
100
AcDbEntity
  8
躯体と製品
  6
Continuous
 62
     4
100
AcDbLine
 10
-826.1602239899245
 20
1670.996493908599
 30
0.0
 11
-826.1602239899245
 21
1700.9964939086
 31
0.0
  0
LINE
  5
51646
330
1F
100
AcDbEntity
  8
躯体と製品
  6
Continuous
 62
     4
100
AcDbLine
 10
-826.1602239899245
 20
1700.9964939086
 30
0.0
 11
-781.1602239899245
 21
1670.996493908599
 31
0.0
  0
LINE
  5
51647
330
1F
100
AcDbEntity
  8
躯体と製品
  6
Continuous
 62
     4
100
AcDbLine
 10
-781.1602239899245
 20
1700.9964939086
 30
0.0
 11
-826.1602239899245
 21
1670.996493908599
 31
0.0
  0
LINE
  5
51648
330
1F
100
AcDbEntity
  8
中心線
  6
CENTER1
 62
     7
100
AcDbLine
 10
-803.6602239898082
 20
1704.198168846623
 30
0.0
 11
-803.6602239898082
 21
1601.238001927354
 31
0.0
  0
LINE
  5
51649
330
1F
100
AcDbEntity
  8
躯体と製品
  6
Continuous
 62
     4
100
AcDbLine
 10
-802.1602239898138
 20
1662.9964939086
 30
0.0
 11
-802.1602239898081
 21
1629.996512525505
 31
0.0
  0
LINE
  5
5164A
330
1F
100
AcDbEntity
  8
躯体と製品
  6
Continuous
 62
     4
100
AcDbLine
 10
-813.6602239898136
 20
1662.9964939086
 30
0.0
 11
-813.6602239898081
 21
1629.996512525505
 31
0.0
  0
LINE
  5
5164B
330
1F
100
AcDbEntity
  8
躯体と製品
  6
Continuous
 62
     4
100
AcDbLine
 10
-805.1602239898137
 20
1662.9964939086
 30
0.0
 11
-805.1602239898082
 21
1629.996512525505
 31
0.0
  0
LINE
  5
5164C
330
1F
100
AcDbEntity
  8
躯体と製品
  6
Continuous
 62
     4
100
AcDbLine
 10
-812.3072239898109
 20
1662.9964939086
 30
0.0
 11
-812.3072239898053
 21
1629.996512525505
 31
0.0
  0
LINE
  5
5164D
330
1F
100
AcDbEntity
  8
躯体と製品
  6
Continuous
 62
     4
100
AcDbLine
 10
-793.6602239898138
 20
1662.9964939086
 30
0.0
 11
-793.6602239898081
 21
1629.996512525505
 31
0.0
  0
LINE
  5
5164E
330
1F
100
AcDbEntity
  8
躯体と製品
  6
Continuous
 62
     4
100
AcDbLine
 10
-813.6602239898081
 20
1629.996512525505
 30
0.0
 11
-793.6602239898081
 21
1629.996512525505
 31
0.0
  0
LINE
  5
5164F
330
1F
100
AcDbEntity
  8
躯体と製品
  6
Continuous
 62
     4
100
AcDbLine
 10
-795.013223989813
 20
1662.9964939086
 30
0.0
 11
-795.0132239898073
 21
1629.996512525505
 31
0.0
  0
LINE
  5
51650
330
1F
100
AcDbEntity
  8
躯体と製品
  6
Continuous
 62
     4
100
AcDbLine
 10
-812.1602239898118
 20
1621.296495752622
 30
0.0
 11
-812.1602239898081
 21
1629.996512525505
 31
0.0
  0
LINE
  5
51651
330
1F
100
AcDbEntity
  8
躯体と製品
  6
Continuous
 62
     4
100
AcDbLine
 10
-795.1602239898118
 20
1621.296495752622
 30
0.0
 11
-795.1602239898082
 21
1629.996512525505
 31
0.0
  0
LINE
  5
51652
330
1F
100
AcDbEntity
  8
躯体と製品
  6
Continuous
 62
     4
100
AcDbLine
 10
-816.1602239899245
 20
1662.9964939086
 30
0.0
 11
-791.1602239899246
 21
1662.9964939086
 31
0.0
  0
LINE
  5
51653
330
1F
100
AcDbEntity
  8
躯体と製品
  6
Continuous
 62
     4
100
AcDbLine
 10
-825.6602239899246
 20
1670.996493908599
 30
0.0
 11
-825.6602239899246
 21
1663.996493908599
 31
0.0
  0
LINE
  5
51654
330
1F
100
AcDbEntity
  8
躯体と製品
  6
Continuous
 62
     4
100
AcDbLine
 10
-781.6602239899245
 20
1663.996493908599
 30
0.0
 11
-781.6602239899245
 21
1670.996493908599
 31
0.0
  0
LINE
  5
51655
330
1F
100
AcDbEntity
  8
躯体と製品
  6
Continuous
 62
     4
100
AcDbLine
 10
-816.1602239899245
 20
1663.161824630298
 30
0.0
 11
-816.1602239899245
 21
1662.9964939086
 31
0.0
  0
LINE
  5
51656
330
1F
100
AcDbEntity
  8
躯体と製品
  6
Continuous
 62
     4
100
AcDbLine
 10
-791.1602239899246
 20
1662.9964939086
 30
0.0
 11
-791.1602239899246
 21
1663.161824630298
 31
0.0
  0
LINE
  5
51657
330
1F
100
AcDbEntity
  8
躯体と製品
  6
Continuous
 62
     4
100
AcDbLine
 10
-802.1602239899246
 20
1663.046493908602
 30
0.0
 11
-802.1602239899246
 21
1663.996493908599
 31
0.0
  0
LINE
  5
51658
330
1F
100
AcDbEntity
  8
躯体と製品
  6
Continuous
 62
     4
100
AcDbLine
 10
-805.1602239899246
 20
1663.046493908602
 30
0.0
 11
-802.1602239899246
 21
1663.046493908602
 31
0.0
  0
LINE
  5
51659
330
1F
100
AcDbEntity
  8
躯体と製品
  6
Continuous
 62
     4
100
AcDbLine
 10
-805.1602239899246
 20
1663.996493908599
 30
0.0
 11
-805.1602239899246
 21
1663.046493908602
 31
0.0
  0
LINE
  5
5165A
330
1F
100
AcDbEntity
  8
躯体と製品
  6
Continuous
 62
     4
100
AcDbLine
 10
-815.157316620024
 20
1663.046493908602
 30
0.0
 11
-813.6573166200239
 21
1663.046493908602
 31
0.0
  0
LINE
  5
5165B
330
1F
100
AcDbEntity
  8
躯体と製品
  6
Continuous
 62
     4
100
AcDbLine
 10
-813.6573166200239
 20
1663.996493908599
 30
0.0
 11
-813.6573166200239
 21
1663.046493908602
 31
0.0
  0
LINE
  5
5165C
330
1F
100
AcDbEntity
  8
躯体と製品
  6
Continuous
 62
     4
100
AcDbLine
 10
-793.6631313598252
 20
1663.996493908599
 30
0.0
 11
-793.6631313598252
 21
1663.046493908602
 31
0.0
  0
LINE
  5
5165D
330
1F
100
AcDbEntity
  8
躯体と製品
  6
Continuous
 62
     4
100
AcDbLine
 10
-793.6631313598252
 20
1663.046493908602
 30
0.0
 11
-792.1631313598252
 21
1663.046493908602
 31
0.0
  0
LINE
  5
5165E
330
1F
100
AcDbEntity
  8
躯体と製品
  6
Continuous
 62
     4
100
AcDbLine
 10
-785.4020020846753
 20
1663.996493908599
 30
0.0
 11
-793.6631313598252
 21
1663.046493908602
 31
0.0
  0
LINE
  5
5165F
330
1F
100
AcDbEntity
  8
躯体と製品
  6
Continuous
 62
     4
100
AcDbLine
 10
-792.1631313598252
 20
1663.046493908602
 30
0.0
 11
-783.9020020846754
 21
1663.996493908599
 31
0.0
  0
LINE
  5
51660
330
1F
100
AcDbEntity
  8
躯体と製品
  6
Continuous
 62
     4
100
AcDbLine
 10
-813.6573166200239
 20
1663.046493908602
 30
0.0
 11
-821.9184458951739
 21
1663.996493908599
 31
0.0
  0
LINE
  5
51661
330
1F
100
AcDbEntity
  8
躯体と製品
  6
Continuous
 62
     4
100
AcDbLine
 10
-823.4184458951737
 20
1663.996493908599
 30
0.0
 11
-815.157316620024
 21
1663.046493908602
 31
0.0
  0
LINE
  5
51662
330
1F
100
AcDbEntity
  8
躯体と製品
  6
Continuous
 62
     4
100
AcDbLine
 10
-825.6602239899246
 20
1663.996493908599
 30
0.0
 11
-781.6602239899245
 21
1663.996493908599
 31
0.0
  0
LINE
  5
51663
330
1F
100
AcDbEntity
  8
躯体と製品
  6
Continuous
 62
     4
100
AcDbLine
 10
-825.6602239899246
 20
1670.996493908599
 30
0.0
 11
-781.6602239899245
 21
1670.996493908599
 31
0.0
  0
LINE
  5
51666
330
1F
100
AcDbEntity
  8
躯体と製品
  6
Continuous
 62
     4
100
AcDbLine
 10
-1009.078723965273
 20
1675.9964939086
 30
0.0
 11
-983.0787239652734
 21
1675.9964939086
 31
0.0
  0
LINE
  5
51667
330
1F
100
AcDbEntity
  8
躯体と製品
  6
Continuous
 62
     4
100
AcDbLine
 10
-1044.078723965273
 20
1700.9964939086
 30
0.0
 11
-1044.078723965273
 21
1693.996493908599
 31
0.0
  0
LINE
  5
51668
330
1F
100
AcDbEntity
  8
躯体と製品
  6
Continuous
 62
     4
100
AcDbLine
 10
-1006.578723965273
 20
1700.9964939086
 30
0.0
 11
-985.5787239652734
 21
1700.9964939086
 31
0.0
  0
LINE
  5
51669
330
1F
100
AcDbEntity
  8
躯体と製品
  6
Continuous
 62
     4
100
AcDbLine
 10
-1009.078723965273
 20
1676.778911844799
 30
0.0
 11
-1009.078723965273
 21
1675.9964939086
 31
0.0
  0
LINE
  5
5166A
330
1F
100
AcDbEntity
  8
躯体と製品
  6
Continuous
 62
     4
100
AcDbLine
 10
-983.0787239652734
 20
1675.9964939086
 30
0.0
 11
-983.0787239652734
 21
1676.778911844799
 31
0.0
  0
LINE
  5
5166B
330
1F
100
AcDbEntity
  8
躯体と製品
  6
Continuous
 62
     4
100
AcDbLine
 10
-1007.078723965273
 20
1701.296493908602
 30
0.0
 11
-1007.578723965273
 21
1700.9964939086
 31
0.0
  0
LINE
  5
5166C
330
1F
100
AcDbEntity
  8
躯体と製品
  6
Continuous
 62
     4
100
AcDbLine
 10
-1006.578723965273
 20
1700.9964939086
 30
0.0
 11
-1007.078723965273
 21
1701.296493908602
 31
0.0
  0
LINE
  5
5166D
330
1F
100
AcDbEntity
  8
躯体と製品
  6
Continuous
 62
     4
100
AcDbLine
 10
-985.0787239652733
 20
1701.296493908602
 30
0.0
 11
-985.5787239652734
 21
1700.9964939086
 31
0.0
  0
LINE
  5
5166E
330
1F
100
AcDbEntity
  8
躯体と製品
  6
Continuous
 62
     4
100
AcDbLine
 10
-984.5787239652734
 20
1700.9964939086
 30
0.0
 11
-985.0787239652733
 21
1701.296493908602
 31
0.0
  0
ARC
  5
5166F
330
1F
100
AcDbEntity
  8
躯体と製品
  6
Continuous
 62
     4
100
AcDbCircle
 10
-949.0787239652734
 20
1693.996493908599
 30
0.0
 40
1.0
100
AcDbArc
 50
270.0
 51
0.0
  0
LINE
  5
51670
330
1F
100
AcDbEntity
  8
躯体と製品
  6
Continuous
 62
     4
100
AcDbLine
 10
-948.0787239652734
 20
1700.9964939086
 30
0.0
 11
-948.0787239652734
 21
1693.996493908599
 31
0.0
  0
ARC
  5
51671
330
1F
100
AcDbEntity
  8
躯体と製品
  6
Continuous
 62
     4
100
AcDbCircle
 10
-1043.078723965273
 20
1693.996493908599
 30
0.0
 40
1.0
100
AcDbArc
 50
180.0
 51
270.0
  0
LINE
  5
51672
330
1F
100
AcDbEntity
  8
躯体と製品
  6
Continuous
 62
     4
100
AcDbLine
 10
-996.8287239652735
 20
1685.2201161606
 30
0.0
 11
-996.8287239652735
 21
1692.9964939086
 31
0.0
  0
LINE
  5
51673
330
1F
100
AcDbEntity
  8
躯体と製品
  6
Continuous
 62
     4
100
AcDbLine
 10
-995.3287239652734
 20
1685.2201161606
 30
0.0
 11
-995.8286005084726
 21
1685.224515292998
 31
0.0
  0
LINE
  5
51674
330
1F
100
AcDbEntity
  8
躯体と製品
  6
Continuous
 62
     4
100
AcDbLine
 10
-995.8286005084726
 20
1685.224515292998
 30
0.0
 11
-996.3288474222743
 21
1685.224515292998
 31
0.0
  0
LINE
  5
51675
330
1F
100
AcDbEntity
  8
躯体と製品
  6
Continuous
 62
     4
100
AcDbLine
 10
-996.3288474222743
 20
1685.224515292998
 30
0.0
 11
-996.8287239652735
 21
1685.2201161606
 31
0.0
  0
LINE
  5
51676
330
1F
100
AcDbEntity
  8
躯体と製品
  6
Continuous
 62
     4
100
AcDbLine
 10
-995.3287239652734
 20
1685.2201161606
 30
0.0
 11
-995.3287239652734
 21
1692.9964939086
 31
0.0
  0
LINE
  5
51677
330
1F
100
AcDbEntity
  8
躯体と製品
  6
Continuous
 62
     4
100
AcDbLine
 10
-982.2275356578746
 20
1686.281817740602
 30
0.0
 11
-951.4249307334747
 21
1692.9964939086
 31
0.0
  0
LINE
  5
51678
330
1F
100
AcDbEntity
  8
躯体と製品
  6
Continuous
 62
     4
100
AcDbLine
 10
-982.4551115920719
 20
1686.0009944692
 30
0.0
 11
-950.3642705616755
 21
1692.9964939086
 31
0.0
  0
LINE
  5
51679
330
1F
100
AcDbEntity
  8
躯体と製品
  6
Continuous
 62
     4
100
AcDbLine
 10
-980.7237227672729
 20
1688.137486956796
 30
0.0
 11
-980.7237227672729
 21
1687.9964939086
 31
0.0
  0
LINE
  5
5167A
330
1F
100
AcDbEntity
  8
躯体と製品
  6
Continuous
 62
     4
100
AcDbLine
 10
-1009.702336338671
 20
1686.0009944692
 30
0.0
 11
-1041.793177369075
 21
1692.9964939086
 31
0.0
  0
LINE
  5
5167B
330
1F
100
AcDbEntity
  8
躯体と製品
  6
Continuous
 62
     4
100
AcDbLine
 10
-1009.929912272672
 20
1686.281817740602
 30
0.0
 11
-1040.732517197272
 21
1692.9964939086
 31
0.0
  0
LINE
  5
5167C
330
1F
100
AcDbEntity
  8
躯体と製品
  6
Continuous
 62
     4
100
AcDbLine
 10
-1011.433725163274
 20
1687.9964939086
 30
0.0
 11
-1011.433725163274
 21
1688.137486956796
 31
0.0
  0
LINE
  5
5167D
330
1F
100
AcDbEntity
  8
躯体と製品
  6
Continuous
 62
     4
100
AcDbLine
 10
-978.6529329158755
 20
1692.9964939086
 30
0.0
 11
-978.6529329158755
 21
1692.9728827976
 31
0.0
  0
LINE
  5
5167E
330
1F
100
AcDbEntity
  8
躯体と製品
  6
Continuous
 62
     4
100
AcDbLine
 10
-976.8051738508754
 20
1692.9964939086
 30
0.0
 11
-976.8051738508754
 21
1692.9728827976
 31
0.0
  0
LINE
  5
5167F
330
1F
100
AcDbEntity
  8
躯体と製品
  6
Continuous
 62
     4
100
AcDbLine
 10
-976.8051738508754
 20
1692.9728827976
 30
0.0
 11
-978.6529329158755
 21
1692.9728827976
 31
0.0
  0
LINE
  5
51680
330
1F
100
AcDbEntity
  8
躯体と製品
  6
Continuous
 62
     4
100
AcDbLine
 10
-976.8051738508754
 20
1692.9728827976
 30
0.0
 11
-990.1947002432741
 21
1676.450526790403
 31
0.0
  0
LINE
  5
51681
330
1F
100
AcDbEntity
  8
躯体と製品
  6
Continuous
 62
     4
100
AcDbLine
 10
-992.042459308274
 20
1676.450526790403
 30
0.0
 11
-991.4137084090715
 21
1676.4666942052
 31
0.0
  0
LINE
  5
51682
330
1F
100
AcDbEntity
  8
躯体と製品
  6
Continuous
 62
     4
100
AcDbLine
 10
-991.4137084090715
 20
1676.4666942052
 30
0.0
 11
-990.7972473704747
 21
1676.4666942052
 31
0.0
  0
LINE
  5
51683
330
1F
100
AcDbEntity
  8
躯体と製品
  6
Continuous
 62
     4
100
AcDbLine
 10
-990.7972473704747
 20
1676.4666942052
 30
0.0
 11
-990.1947002432741
 21
1676.450526790403
 31
0.0
  0
LINE
  5
51684
330
1F
100
AcDbEntity
  8
躯体と製品
  6
Continuous
 62
     4
100
AcDbLine
 10
-978.6529329158755
 20
1692.9728827976
 30
0.0
 11
-992.042459308274
 21
1676.450526790403
 31
0.0
  0
LINE
  5
51685
330
1F
100
AcDbEntity
  8
躯体と製品
  6
Continuous
 62
     4
100
AcDbLine
 10
-992.042459308274
 20
1676.450526790403
 30
0.0
 11
-992.042459308274
 21
1687.9964939086
 31
0.0
  0
LINE
  5
51686
330
1F
100
AcDbEntity
  8
躯体と製品
  6
Continuous
 62
     4
100
AcDbLine
 10
-988.4113817488712
 20
1692.9964939086
 30
0.0
 11
-988.4113817488712
 21
1687.9964939086
 31
0.0
  0
LINE
  5
51687
330
1F
100
AcDbEntity
  8
躯体と製品
  6
Continuous
 62
     4
100
AcDbLine
 10
-1013.504515014671
 20
1692.9728827976
 30
0.0
 11
-1015.352274079671
 21
1692.9728827976
 31
0.0
  0
LINE
  5
51688
330
1F
100
AcDbEntity
  8
躯体と製品
  6
Continuous
 62
     4
100
AcDbLine
 10
-1013.504515014671
 20
1692.9728827976
 30
0.0
 11
-1000.114988622272
 21
1676.450526790403
 31
0.0
  0
LINE
  5
51689
330
1F
100
AcDbEntity
  8
躯体と製品
  6
Continuous
 62
     4
100
AcDbLine
 10
-1001.962747687272
 20
1676.450526790403
 30
0.0
 11
-1001.360200560072
 21
1676.4666942052
 31
0.0
  0
LINE
  5
5168A
330
1F
100
AcDbEntity
  8
躯体と製品
  6
Continuous
 62
     4
100
AcDbLine
 10
-1001.360200560072
 20
1676.4666942052
 30
0.0
 11
-1000.743739521672
 21
1676.4666942052
 31
0.0
  0
LINE
  5
5168B
330
1F
100
AcDbEntity
  8
躯体と製品
  6
Continuous
 62
     4
100
AcDbLine
 10
-1000.743739521672
 20
1676.4666942052
 30
0.0
 11
-1000.114988622272
 21
1676.450526790403
 31
0.0
  0
LINE
  5
5168C
330
1F
100
AcDbEntity
  8
躯体と製品
  6
Continuous
 62
     4
100
AcDbLine
 10
-1015.352274079671
 20
1692.9728827976
 30
0.0
 11
-1001.962747687272
 21
1676.450526790403
 31
0.0
  0
LINE
  5
5168D
330
1F
100
AcDbEntity
  8
躯体と製品
  6
Continuous
 62
     4
100
AcDbLine
 10
-1003.746066181872
 20
1687.9964939086
 30
0.0
 11
-1003.746066181872
 21
1692.9964939086
 31
0.0
  0
LINE
  5
5168E
330
1F
100
AcDbEntity
  8
躯体と製品
  6
Continuous
 62
     4
100
AcDbLine
 10
-1000.114988622272
 20
1676.450526790403
 30
0.0
 11
-1000.114988622272
 21
1687.9964939086
 31
0.0
  0
LINE
  5
5168F
330
1F
100
AcDbEntity
  8
躯体と製品
  6
Continuous
 62
     4
100
AcDbLine
 10
-1013.504515014671
 20
1692.9964939086
 30
0.0
 11
-1013.504515014671
 21
1692.9728827976
 31
0.0
  0
LINE
  5
51690
330
1F
100
AcDbEntity
  8
躯体と製品
  6
Continuous
 62
     4
100
AcDbLine
 10
-1015.352274079671
 20
1692.9964939086
 30
0.0
 11
-1015.352274079671
 21
1692.9728827976
 31
0.0
  0
LINE
  5
51691
330
1F
100
AcDbEntity
  8
躯体と製品
  6
Continuous
 62
     4
100
AcDbLine
 10
-994.8565017430725
 20
1692.9964939086
 30
0.0
 11
-994.8565017430725
 21
1687.9964939086
 31
0.0
  0
LINE
  5
51692
330
1F
100
AcDbEntity
  8
躯体と製品
  6
Continuous
 62
     4
100
AcDbLine
 10
-997.3009461874742
 20
1687.9964939086
 30
0.0
 11
-997.3009461874742
 21
1692.9964939086
 31
0.0
  0
LINE
  5
51693
330
1F
100
AcDbEntity
  8
躯体と製品
  6
Continuous
 62
     4
100
AcDbLine
 10
-989.0334415694731
 20
1687.9964939086
 30
0.0
 11
-989.0334415694731
 21
1692.9964939086
 31
0.0
  0
LINE
  5
51694
330
1F
100
AcDbEntity
  8
躯体と製品
  6
Continuous
 62
     4
100
AcDbLine
 10
-1003.124006361074
 20
1692.9964939086
 30
0.0
 11
-1003.124006361074
 21
1687.9964939086
 31
0.0
  0
LINE
  5
51695
330
1F
100
AcDbEntity
  8
躯体と製品
  6
Continuous
 62
     4
100
AcDbLine
 10
-952.0827210312734
 20
1692.621887980205
 30
0.0
 11
-983.7211931594746
 21
1676.450526790403
 31
0.0
  0
LINE
  5
51696
330
1F
100
AcDbEntity
  8
躯体と製品
  6
Continuous
 62
     4
100
AcDbLine
 10
-984.4865600240725
 20
1676.450526790403
 30
0.0
 11
-984.199919102072
 21
1676.4666942052
 31
0.0
  0
LINE
  5
51697
330
1F
100
AcDbEntity
  8
躯体と製品
  6
Continuous
 62
     4
100
AcDbLine
 10
-984.199919102072
 20
1676.4666942052
 30
0.0
 11
-983.9445725792746
 21
1676.4666942052
 31
0.0
  0
LINE
  5
51698
330
1F
100
AcDbEntity
  8
躯体と製品
  6
Continuous
 62
     4
100
AcDbLine
 10
-983.9445725792746
 20
1676.4666942052
 30
0.0
 11
-983.7211931594746
 21
1676.450526790403
 31
0.0
  0
LINE
  5
51699
330
1F
100
AcDbEntity
  8
躯体と製品
  6
Continuous
 62
     4
100
AcDbLine
 10
-953.4172467588748
 20
1692.330974009799
 30
0.0
 11
-984.4865600240725
 21
1676.450526790403
 31
0.0
  0
LINE
  5
5169A
330
1F
100
AcDbEntity
  8
躯体と製品
  6
Continuous
 62
     4
100
AcDbLine
 10
-984.4865600240725
 20
1676.450526790403
 30
0.0
 11
-984.4865600240725
 21
1683.494235587598
 31
0.0
  0
LINE
  5
5169B
330
1F
100
AcDbEntity
  8
躯体と製品
  6
Continuous
 62
     4
100
AcDbLine
 10
-1007.670887906474
 20
1676.450526790403
 30
0.0
 11
-1007.670887906474
 21
1683.494235587598
 31
0.0
  0
LINE
  5
5169C
330
1F
100
AcDbEntity
  8
躯体と製品
  6
Continuous
 62
     4
100
AcDbLine
 10
-1038.740201171876
 20
1692.330974009799
 30
0.0
 11
-1007.670887906474
 21
1676.450526790403
 31
0.0
  0
LINE
  5
5169D
330
1F
100
AcDbEntity
  8
躯体と製品
  6
Continuous
 62
     4
100
AcDbLine
 10
-1008.436254771272
 20
1676.450526790403
 30
0.0
 11
-1008.212875351276
 21
1676.4666942052
 31
0.0
  0
LINE
  5
5169E
330
1F
100
AcDbEntity
  8
躯体と製品
  6
Continuous
 62
     4
100
AcDbLine
 10
-1008.212875351276
 20
1676.4666942052
 30
0.0
 11
-1007.957528828471
 21
1676.4666942052
 31
0.0
  0
LINE
  5
5169F
330
1F
100
AcDbEntity
  8
躯体と製品
  6
Continuous
 62
     4
100
AcDbLine
 10
-1007.957528828471
 20
1676.4666942052
 30
0.0
 11
-1007.670887906474
 21
1676.450526790403
 31
0.0
  0
LINE
  5
516A0
330
1F
100
AcDbEntity
  8
躯体と製品
  6
Continuous
 62
     4
100
AcDbLine
 10
-1040.074726899473
 20
1692.621887980205
 30
0.0
 11
-1008.436254771272
 21
1676.450526790403
 31
0.0
  0
LINE
  5
516A1
330
1F
100
AcDbEntity
  8
躯体と製品
  6
Continuous
 62
     4
100
AcDbLine
 10
-980.7237227672729
 20
1687.9964939086
 30
0.0
 11
-980.8379819042736
 21
1687.9964939086
 31
0.0
  0
LINE
  5
516A2
330
1F
100
AcDbEntity
  8
躯体と製品
  6
Continuous
 62
     4
100
AcDbLine
 10
-1011.319466026273
 20
1687.9964939086
 30
0.0
 11
-1011.433725163274
 21
1687.9964939086
 31
0.0
  0
LINE
  5
516A3
330
1F
100
AcDbEntity
  8
躯体と製品
  6
Continuous
 62
     4
100
AcDbLine
 10
-953.1869960038736
 20
1692.057460299803
 30
0.0
 11
-949.0787239652734
 21
1692.9964939086
 31
0.0
  0
LINE
  5
516A4
330
1F
100
AcDbEntity
  8
躯体と製品
  6
Continuous
 62
     4
100
AcDbLine
 10
-1038.970451926873
 20
1692.057460299803
 30
0.0
 11
-1043.078723965273
 21
1692.9964939086
 31
0.0
  0
LINE
  5
516A5
330
1F
100
AcDbEntity
  8
躯体と製品
  6
Continuous
 62
     4
100
AcDbLine
 10
-1044.078723965273
 20
1700.9964939086
 30
0.0
 11
-1007.578723965273
 21
1700.9964939086
 31
0.0
  0
LINE
  5
516A6
330
1F
100
AcDbEntity
  8
躯体と製品
  6
Continuous
 62
     4
100
AcDbLine
 10
-1044.078723965273
 20
1693.996493908599
 30
0.0
 11
-948.0787239652734
 21
1693.996493908599
 31
0.0
  0
LINE
  5
516A7
330
1F
100
AcDbEntity
  8
躯体と製品
  6
Continuous
 62
     4
100
AcDbLine
 10
-953.0787239652735
 20
1700.9964939086
 30
0.0
 11
-953.0787239652735
 21
1692.9964939086
 31
0.0
  0
LINE
  5
516A8
330
1F
100
AcDbEntity
  8
躯体と製品
  6
Continuous
 62
     4
100
AcDbLine
 10
-984.5787239652734
 20
1700.9964939086
 30
0.0
 11
-948.0787239652734
 21
1700.9964939086
 31
0.0
  0
LINE
  5
516A9
330
1F
100
AcDbEntity
  8
躯体と製品
  6
Continuous
 62
     4
100
AcDbLine
 10
-1039.078723965273
 20
1700.9964939086
 30
0.0
 11
-1039.078723965273
 21
1692.9964939086
 31
0.0
  0
LINE
  5
516AA
330
1F
100
AcDbEntity
  8
躯体と製品
  6
Continuous
 62
     4
100
AcDbLine
 10
-949.0787239652734
 20
1692.9964939086
 30
0.0
 11
-1043.078723965273
 21
1692.9964939086
 31
0.0
  0
LINE
  5
516AB
330
1F
100
AcDbEntity
  8
躯体と製品
  6
Continuous
 62
     4
100
AcDbLine
 10
-996.8287239652735
 20
1687.9964939086
 30
0.0
 11
-1003.746066181872
 21
1687.9964939086
 31
0.0
  0
LINE
  5
516AC
330
1F
100
AcDbEntity
  8
躯体と製品
  6
Continuous
 62
     4
100
AcDbLine
 10
-988.4113817488712
 20
1687.9964939086
 30
0.0
 11
-995.3287239652734
 21
1687.9964939086
 31
0.0
  0
LINE
  5
516AD
330
1F
100
AcDbEntity
  8
中心線
  6
CENTER1
 62
     7
100
AcDbLine
 10
-996.0787239651569
 20
1703.199971730066
 30
0.0
 11
-996.0787239651569
 21
1601.238001927354
 31
0.0
  0
LINE
  5
516AE
330
1F
100
AcDbEntity
  8
躯体と製品
  6
Continuous
 62
     4
100
AcDbLine
 10
-984.5787239652734
 20
1720.996493908599
 30
0.0
 11
-984.5787239652734
 21
1700.9964939086
 31
0.0
  0
LINE
  5
516AF
330
1F
100
AcDbEntity
  8
躯体と製品
  6
Continuous
 62
     4
100
AcDbLine
 10
-1007.578723965273
 20
1720.996493908599
 30
0.0
 11
-1007.578723965273
 21
1700.9964939086
 31
0.0
  0
ARC
  5
516B0
330
1F
100
AcDbEntity
  8
躯体と製品
  6
Continuous
 62
     4
100
AcDbCircle
 10
-1013.578723965159
 20
1610.996494003551
 30
0.0
 40
3.0
100
AcDbArc
 50
90.0
 51
270.0
  0
LINE
  5
516B1
330
1F
100
AcDbEntity
  8
躯体と製品
  6
Continuous
 62
     4
100
AcDbLine
 10
-1007.664509972507
 20
1605.9964939086
 30
0.0
 11
-984.4929379578069
 21
1605.9964939086
 31
0.0
  0
LINE
  5
516B2
330
1F
100
AcDbEntity
  8
躯体と製品
  6
Continuous
 62
     4
100
AcDbLine
 10
-1010.018099954309
 20
1607.170142193348
 30
0.0
 11
-1009.664510300307
 21
1606.996493956105
 31
0.0
  0
LINE
  5
516B3
330
1F
100
AcDbEntity
  8
躯体と製品
  6
Continuous
 62
     4
100
AcDbLine
 10
-1010.373530833011
 20
1607.338514138953
 30
0.0
 11
-1010.018099954309
 21
1607.170142193348
 31
0.0
  0
LINE
  5
516B4
330
1F
100
AcDbEntity
  8
躯体と製品
  6
Continuous
 62
     4
100
AcDbLine
 10
-1010.720004251158
 20
1607.496493979802
 30
0.0
 11
-1010.373530833011
 21
1607.338514138953
 31
0.0
  0
LINE
  5
516B5
330
1F
100
AcDbEntity
  8
躯体と製品
  6
Continuous
 62
     4
100
AcDbLine
 10
-1011.046993469758
 20
1607.639281621204
 30
0.0
 11
-1010.720004251158
 21
1607.496493979802
 31
0.0
  0
LINE
  5
516B6
330
1F
100
AcDbEntity
  8
躯体と製品
  6
Continuous
 62
     4
100
AcDbLine
 10
-1011.344561276907
 20
1607.762538453202
 30
0.0
 11
-1011.046993469758
 21
1607.639281621204
 31
0.0
  0
LINE
  5
516B7
330
1F
100
AcDbEntity
  8
躯体と製品
  6
Continuous
 62
     4
100
AcDbLine
 10
-1011.603668255659
 20
1607.862519409502
 30
0.0
 11
-1011.344561276907
 21
1607.762538453202
 31
0.0
  0
LINE
  5
516B8
330
1F
100
AcDbEntity
  8
躯体と製品
  6
Continuous
 62
     4
100
AcDbLine
 10
-1011.816440073708
 20
1607.936186625005
 30
0.0
 11
-1011.603668255659
 21
1607.862519409502
 31
0.0
  0
LINE
  5
516B9
330
1F
100
AcDbEntity
  8
躯体と製品
  6
Continuous
 62
     4
100
AcDbLine
 10
-1011.976411489708
 20
1607.981301756803
 30
0.0
 11
-1011.816440073708
 21
1607.936186625005
 31
0.0
  0
LINE
  5
516BA
330
1F
100
AcDbEntity
  8
躯体と製品
  6
Continuous
 62
     4
100
AcDbLine
 10
-1012.078724725111
 20
1607.996494003551
 30
0.0
 11
-1011.976411489708
 21
1607.981301756803
 31
0.0
  0
LINE
  5
516BB
330
1F
100
AcDbEntity
  8
躯体と製品
  6
Continuous
 62
     4
100
AcDbLine
 10
-1009.664510300307
 20
1606.996493956105
 30
0.0
 11
-1007.664509972507
 21
1605.9964939086
 31
0.0
  0
LINE
  5
516BC
330
1F
100
AcDbEntity
  8
躯体と製品
  6
Continuous
 62
     4
100
AcDbLine
 10
-984.4929379578069
 20
1605.9964939086
 30
0.0
 11
-982.4929376300103
 21
1606.996493956105
 31
0.0
  0
LINE
  5
516BD
330
1F
100
AcDbEntity
  8
躯体と製品
  6
Continuous
 62
     4
100
AcDbLine
 10
-980.181036440609
 20
1607.981301756803
 30
0.0
 11
-980.0787232052069
 21
1607.996494003551
 31
0.0
  0
LINE
  5
516BE
330
1F
100
AcDbEntity
  8
躯体と製品
  6
Continuous
 62
     4
100
AcDbLine
 10
-980.3410078566056
 20
1607.936186625005
 30
0.0
 11
-980.181036440609
 21
1607.981301756803
 31
0.0
  0
LINE
  5
516BF
330
1F
100
AcDbEntity
  8
躯体と製品
  6
Continuous
 62
     4
100
AcDbLine
 10
-980.5537796746582
 20
1607.862519409502
 30
0.0
 11
-980.3410078566056
 21
1607.936186625005
 31
0.0
  0
LINE
  5
516C0
330
1F
100
AcDbEntity
  8
躯体と製品
  6
Continuous
 62
     4
100
AcDbLine
 10
-980.8128866534069
 20
1607.762538453202
 30
0.0
 11
-980.5537796746582
 21
1607.862519409502
 31
0.0
  0
LINE
  5
516C1
330
1F
100
AcDbEntity
  8
躯体と製品
  6
Continuous
 62
     4
100
AcDbLine
 10
-981.1104544605594
 20
1607.639281621204
 30
0.0
 11
-980.8128866534069
 21
1607.762538453202
 31
0.0
  0
LINE
  5
516C2
330
1F
100
AcDbEntity
  8
躯体と製品
  6
Continuous
 62
     4
100
AcDbLine
 10
-981.4374436791593
 20
1607.496493979802
 30
0.0
 11
-981.1104544605594
 21
1607.639281621204
 31
0.0
  0
LINE
  5
516C3
330
1F
100
AcDbEntity
  8
躯体と製品
  6
Continuous
 62
     4
100
AcDbLine
 10
-981.7839170973099
 20
1607.338514138953
 30
0.0
 11
-981.4374436791593
 21
1607.496493979802
 31
0.0
  0
LINE
  5
516C4
330
1F
100
AcDbEntity
  8
躯体と製品
  6
Continuous
 62
     4
100
AcDbLine
 10
-982.1393479760088
 20
1607.170142193348
 30
0.0
 11
-981.7839170973099
 21
1607.338514138953
 31
0.0
  0
LINE
  5
516C5
330
1F
100
AcDbEntity
  8
躯体と製品
  6
Continuous
 62
     4
100
AcDbLine
 10
-982.4929376300103
 20
1606.996493956105
 30
0.0
 11
-982.1393479760088
 21
1607.170142193348
 31
0.0
  0
LINE
  5
516C6
330
1F
100
AcDbEntity
  8
躯体と製品
  6
Continuous
 62
     4
100
AcDbLine
 10
-995.0939162335606
 20
1607.170142193348
 30
0.0
 11
-995.0787239176577
 21
1606.996493956105
 31
0.0
  0
LINE
  5
516C7
330
1F
100
AcDbEntity
  8
躯体と製品
  6
Continuous
 62
     4
100
AcDbLine
 10
-995.1390313617601
 20
1607.338514138953
 30
0.0
 11
-995.0939162335606
 21
1607.170142193348
 31
0.0
  0
LINE
  5
516C8
330
1F
100
AcDbEntity
  8
躯体と製品
  6
Continuous
 62
     4
100
AcDbLine
 10
-995.2126985699113
 20
1607.496493979802
 30
0.0
 11
-995.1390313617601
 21
1607.338514138953
 31
0.0
  0
LINE
  5
516C9
330
1F
100
AcDbEntity
  8
躯体と製品
  6
Continuous
 62
     4
100
AcDbLine
 10
-995.3126795407595
 20
1607.639281621204
 30
0.0
 11
-995.2126985699113
 21
1607.496493979802
 31
0.0
  0
LINE
  5
516CA
330
1F
100
AcDbEntity
  8
躯体と製品
  6
Continuous
 62
     4
100
AcDbLine
 10
-995.4359363582595
 20
1607.762538453202
 30
0.0
 11
-995.3126795407595
 21
1607.639281621204
 31
0.0
  0
LINE
  5
516CB
330
1F
100
AcDbEntity
  8
躯体と製品
  6
Continuous
 62
     4
100
AcDbLine
 10
-995.5787239414101
 20
1607.862519409502
 30
0.0
 11
-995.4359363582595
 21
1607.762538453202
 31
0.0
  0
LINE
  5
516CC
330
1F
100
AcDbEntity
  8
躯体と製品
  6
Continuous
 62
     4
100
AcDbLine
 10
-995.7367038114069
 20
1607.936186625005
 30
0.0
 11
-995.5787239414101
 21
1607.862519409502
 31
0.0
  0
LINE
  5
516CD
330
1F
100
AcDbEntity
  8
躯体と製品
  6
Continuous
 62
     4
100
AcDbLine
 10
-995.9050757861085
 20
1607.981301756803
 30
0.0
 11
-995.7367038114069
 21
1607.936186625005
 31
0.0
  0
LINE
  5
516CE
330
1F
100
AcDbEntity
  8
躯体と製品
  6
Continuous
 62
     4
100
AcDbLine
 10
-996.0787239651589
 20
1607.996494003551
 30
0.0
 11
-995.9050757861085
 21
1607.981301756803
 31
0.0
  0
LINE
  5
516CF
330
1F
100
AcDbEntity
  8
躯体と製品
  6
Continuous
 62
     4
100
AcDbLine
 10
-995.0787239176577
 20
1606.996493956105
 30
0.0
 11
-995.0787239176577
 21
1605.9964939086
 31
0.0
  0
LINE
  5
516D0
330
1F
100
AcDbEntity
  8
躯体と製品
  6
Continuous
 62
     4
100
AcDbLine
 10
-987.5934430565074
 20
1605.9964939086
 30
0.0
 11
-984.7650154661065
 21
1607.996494003551
 31
0.0
  0
LINE
  5
516D1
330
1F
100
AcDbEntity
  8
躯体と製品
  6
Continuous
 62
     4
100
AcDbLine
 10
-997.0787240126563
 20
1605.9964939086
 30
0.0
 11
-997.0787240126563
 21
1606.996493956105
 31
0.0
  0
LINE
  5
516D2
330
1F
100
AcDbEntity
  8
躯体と製品
  6
Continuous
 62
     4
100
AcDbLine
 10
-996.2523721442092
 20
1607.981301756803
 30
0.0
 11
-996.0787239651589
 21
1607.996494003551
 31
0.0
  0
LINE
  5
516D3
330
1F
100
AcDbEntity
  8
躯体と製品
  6
Continuous
 62
     4
100
AcDbLine
 10
-996.4207441189108
 20
1607.936186625005
 30
0.0
 11
-996.2523721442092
 21
1607.981301756803
 31
0.0
  0
LINE
  5
516D4
330
1F
100
AcDbEntity
  8
躯体と製品
  6
Continuous
 62
     4
100
AcDbLine
 10
-996.5787239889076
 20
1607.862519409502
 30
0.0
 11
-996.4207441189108
 21
1607.936186625005
 31
0.0
  0
LINE
  5
516D5
330
1F
100
AcDbEntity
  8
躯体と製品
  6
Continuous
 62
     4
100
AcDbLine
 10
-996.7215115720581
 20
1607.762538453202
 30
0.0
 11
-996.5787239889076
 21
1607.862519409502
 31
0.0
  0
LINE
  5
516D6
330
1F
100
AcDbEntity
  8
躯体と製品
  6
Continuous
 62
     4
100
AcDbLine
 10
-996.8447683895581
 20
1607.639281621204
 30
0.0
 11
-996.7215115720581
 21
1607.762538453202
 31
0.0
  0
LINE
  5
516D7
330
1F
100
AcDbEntity
  8
躯体と製品
  6
Continuous
 62
     4
100
AcDbLine
 10
-996.94474936041
 20
1607.496493979802
 30
0.0
 11
-996.8447683895581
 21
1607.639281621204
 31
0.0
  0
LINE
  5
516D8
330
1F
100
AcDbEntity
  8
躯体と製品
  6
Continuous
 62
     4
100
AcDbLine
 10
-997.0184165685612
 20
1607.338514138953
 30
0.0
 11
-996.94474936041
 21
1607.496493979802
 31
0.0
  0
LINE
  5
516D9
330
1F
100
AcDbEntity
  8
躯体と製品
  6
Continuous
 62
     4
100
AcDbLine
 10
-997.0635316967571
 20
1607.170142193348
 30
0.0
 11
-997.0184165685612
 21
1607.338514138953
 31
0.0
  0
LINE
  5
516DA
330
1F
100
AcDbEntity
  8
躯体と製品
  6
Continuous
 62
     4
100
AcDbLine
 10
-997.0787240126563
 20
1606.996493956105
 30
0.0
 11
-997.0635316967571
 21
1607.170142193348
 31
0.0
  0
LINE
  5
516DB
330
1F
100
AcDbEntity
  8
躯体と製品
  6
Continuous
 62
     4
100
AcDbLine
 10
-1011.078723965159
 20
1637.996494003551
 30
0.0
 11
-981.0787239651588
 21
1637.996494003551
 31
0.0
  0
LINE
  5
516DC
330
1F
100
AcDbEntity
  8
躯体と製品
  6
Continuous
 62
     4
100
AcDbLine
 10
-1013.578723965159
 20
1613.996494003551
 30
0.0
 11
-996.0787239651589
 21
1613.996494003551
 31
0.0
  0
LINE
  5
516DD
330
1F
100
AcDbEntity
  8
躯体と製品
  6
Continuous
 62
     4
100
AcDbLine
 10
-996.0787239651589
 20
1613.996494003551
 30
0.0
 11
-978.5787239651588
 21
1613.996494003551
 31
0.0
  0
LINE
  5
516DE
330
1F
100
AcDbEntity
  8
躯体と製品
  6
Continuous
 62
     4
100
AcDbLine
 10
-1011.078723965159
 20
1637.996494003551
 30
0.0
 11
-1013.578723965159
 21
1613.996494003551
 31
0.0
  0
LINE
  5
516DF
330
1F
100
AcDbEntity
  8
躯体と製品
  6
Continuous
 62
     4
100
AcDbLine
 10
-978.5787239651588
 20
1613.996494003551
 30
0.0
 11
-981.0787239651588
 21
1637.996494003551
 31
0.0
  0
ARC
  5
516E0
330
1F
100
AcDbEntity
  8
躯体と製品
  6
Continuous
 62
     4
100
AcDbCircle
 10
-978.5787239651588
 20
1610.996494003551
 30
0.0
 40
3.0
100
AcDbArc
 50
270.0
 51
90.0
  0
LINE
  5
516E1
330
1F
100
AcDbEntity
  8
躯体と製品
  6
Continuous
 62
     4
100
AcDbLine
 10
-1004.56400487381
 20
1605.9964939086
 30
0.0
 11
-1007.392432464211
 21
1607.996494003551
 31
0.0
  0
LINE
  5
516E2
330
1F
100
AcDbEntity
  8
躯体と製品
  6
Continuous
 62
     4
100
AcDbLine
 10
-1013.578723965159
 20
1607.996494003551
 30
0.0
 11
-978.5787239651588
 21
1607.996494003551
 31
0.0
  0
LINE
  5
516E3
330
1F
100
AcDbEntity
  8
躯体と製品
  6
Continuous
 62
     4
100
AcDbLine
 10
-1004.578723965157
 20
1647.996494003551
 30
0.0
 11
-1004.578723965157
 21
1637.996494003552
 31
0.0
  0
LINE
  5
516E4
330
1F
100
AcDbEntity
  8
躯体と製品
  6
Continuous
 62
     4
100
AcDbLine
 10
-987.578723965157
 20
1647.996494003551
 30
0.0
 11
-987.578723965157
 21
1637.996494003552
 31
0.0
  0
LINE
  5
516E5
330
1F
100
AcDbEntity
  8
躯体と製品
  6
Continuous
 62
     4
100
AcDbLine
 10
-997.578723965158
 20
1675.9964939086
 30
0.0
 11
-997.578723965157
 21
1647.996494003551
 31
0.0
  0
LINE
  5
516E6
330
1F
100
AcDbEntity
  8
躯体と製品
  6
Continuous
 62
     4
100
AcDbLine
 10
-994.5787239651581
 20
1675.9964939086
 30
0.0
 11
-994.578723965157
 21
1647.996494003551
 31
0.0
  0
LINE
  5
516E7
330
1F
100
AcDbEntity
  8
躯体と製品
  6
Continuous
 62
     4
100
AcDbLine
 10
-1004.725723965154
 20
1675.9964939086
 30
0.0
 11
-1004.725723965154
 21
1647.996494003551
 31
0.0
  0
LINE
  5
516E8
330
1F
100
AcDbEntity
  8
躯体と製品
  6
Continuous
 62
     4
100
AcDbLine
 10
-987.431723965156
 20
1675.9964939086
 30
0.0
 11
-987.4317239651562
 21
1647.996494003551
 31
0.0
  0
LINE
  5
516E9
330
1F
100
AcDbEntity
  8
躯体と製品
  6
Continuous
 62
     4
100
AcDbLine
 10
-986.0787239651569
 20
1675.9964939086
 30
0.0
 11
-986.0787239651569
 21
1647.996494003551
 31
0.0
  0
LINE
  5
516EA
330
1F
100
AcDbEntity
  8
躯体と製品
  6
Continuous
 62
     4
100
AcDbLine
 10
-986.0787239651569
 20
1647.996494003551
 30
0.0
 11
-1006.078723965157
 21
1647.996494003551
 31
0.0
  0
LINE
  5
516EB
330
1F
100
AcDbEntity
  8
躯体と製品
  6
Continuous
 62
     4
100
AcDbLine
 10
-1006.078723965157
 20
1675.9964939086
 30
0.0
 11
-1006.078723965157
 21
1647.996494003551
 31
0.0
  0
LINE
  5
516EC
330
1F
100
AcDbEntity
  8
躯体と製品
  6
Continuous
 62
     4
100
AcDbLine
 10
-641.1602239898591
 20
1663.996493908599
 30
0.0
 11
-616.1602239898591
 21
1663.996493908599
 31
0.0
  0
LINE
  5
516ED
330
1F
100
AcDbEntity
  8
躯体と製品
  6
Continuous
 62
     4
100
AcDbLine
 10
-650.660223989859
 20
1688.996493908599
 30
0.0
 11
-606.6602239898591
 21
1688.996493908599
 31
0.0
  0
LINE
  5
516EE
330
1F
100
AcDbEntity
  8
躯体と製品
  6
Continuous
 62
     4
100
AcDbLine
 10
-650.660223989859
 20
1693.996493908599
 30
0.0
 11
-606.6602239898591
 21
1693.996493908599
 31
0.0
  0
LINE
  5
516EF
330
1F
100
AcDbEntity
  8
躯体と製品
  6
Continuous
 62
     4
100
AcDbLine
 10
-644.6930910806575
 20
1681.365726742698
 30
0.0
 11
-640.1573166199584
 21
1663.996493908599
 31
0.0
  0
LINE
  5
516F0
330
1F
100
AcDbEntity
  8
躯体と製品
  6
Continuous
 62
     4
100
AcDbLine
 10
-617.163131359756
 20
1663.996493908599
 30
0.0
 11
-612.6273568990606
 21
1681.365726742698
 31
0.0
  0
LINE
  5
516F1
330
1F
100
AcDbEntity
  8
躯体と製品
  6
Continuous
 62
     4
100
AcDbLine
 10
-647.4231365910553
 20
1687.600402626203
 30
0.0
 11
-648.418446614555
 21
1688.996494281099
 31
0.0
  0
LINE
  5
516F2
330
1F
100
AcDbEntity
  8
躯体と製品
  6
Continuous
 62
     4
100
AcDbLine
 10
-646.5495429775572
 20
1686.1224849699
 30
0.0
 11
-647.4231365910553
 21
1687.600402626203
 31
0.0
  0
LINE
  5
516F3
330
1F
100
AcDbEntity
  8
躯体と製品
  6
Continuous
 62
     4
100
AcDbLine
 10
-645.7992452970564
 20
1684.573062228898
 30
0.0
 11
-646.5495429775572
 21
1686.1224849699
 31
0.0
  0
LINE
  5
516F4
330
1F
100
AcDbEntity
  8
躯体と製品
  6
Continuous
 62
     4
100
AcDbLine
 10
-645.1839838019575
 20
1682.991013395601
 30
0.0
 11
-645.7992452970564
 21
1684.573062228898
 31
0.0
  0
LINE
  5
516F5
330
1F
100
AcDbEntity
  8
躯体と製品
  6
Continuous
 62
     4
100
AcDbLine
 10
-644.6930911234582
 20
1681.365726980396
 30
0.0
 11
-645.1839838019575
 21
1682.991013395601
 31
0.0
  0
LINE
  5
516F6
330
1F
100
AcDbEntity
  8
躯体と製品
  6
Continuous
 62
     4
100
AcDbLine
 10
-643.1930910806575
 20
1681.365726742698
 30
0.0
 11
-644.6930910806575
 21
1681.365726742698
 31
0.0
  0
LINE
  5
516F7
330
1F
100
AcDbEntity
  8
躯体と製品
  6
Continuous
 62
     4
100
AcDbLine
 10
-638.6573166199585
 20
1663.996493908599
 30
0.0
 11
-643.1930910806575
 21
1681.365726742698
 31
0.0
  0
LINE
  5
516F8
330
1F
100
AcDbEntity
  8
躯体と製品
  6
Continuous
 62
     4
100
AcDbLine
 10
-638.6573161772564
 20
1688.996494281099
 30
0.0
 11
-638.6573166199585
 21
1663.996493908599
 31
0.0
  0
LINE
  5
516F9
330
1F
100
AcDbEntity
  8
躯体と製品
  6
Continuous
 62
     4
100
AcDbLine
 10
-643.8129046774581
 20
1683.354707899504
 30
0.0
 11
-643.1930908776583
 21
1681.365726980396
 31
0.0
  0
LINE
  5
516FA
330
1F
100
AcDbEntity
  8
躯体と製品
  6
Continuous
 62
     4
100
AcDbLine
 10
-644.4446068099594
 20
1684.899727347301
 30
0.0
 11
-643.8129046774581
 21
1683.354707899504
 31
0.0
  0
LINE
  5
516FB
330
1F
100
AcDbEntity
  8
躯体と製品
  6
Continuous
 62
     4
100
AcDbLine
 10
-645.1824210426591
 20
1686.366448643604
 30
0.0
 11
-644.4446068099594
 21
1684.899727347301
 31
0.0
  0
LINE
  5
516FC
330
1F
100
AcDbEntity
  8
躯体と製品
  6
Continuous
 62
     4
100
AcDbLine
 10
-646.0063285968597
 20
1687.727403360398
 30
0.0
 11
-645.1824210426591
 21
1686.366448643604
 31
0.0
  0
LINE
  5
516FD
330
1F
100
AcDbEntity
  8
躯体と製品
  6
Continuous
 62
     4
100
AcDbLine
 10
-646.918445437356
 20
1688.996494281099
 30
0.0
 11
-646.0063285968597
 21
1687.727403360398
 31
0.0
  0
LINE
  5
516FE
330
1F
100
AcDbEntity
  8
躯体と製品
  6
Continuous
 62
     4
100
AcDbLine
 10
-614.1273568990571
 20
1681.365726742698
 30
0.0
 11
-618.6631313597597
 21
1663.996493908599
 31
0.0
  0
LINE
  5
516FF
330
1F
100
AcDbEntity
  8
躯体と製品
  6
Continuous
 62
     4
100
AcDbLine
 10
-618.6631318024581
 20
1688.996494281099
 30
0.0
 11
-618.6631313597597
 21
1663.996493908599
 31
0.0
  0
LINE
  5
51700
330
1F
100
AcDbEntity
  8
躯体と製品
  6
Continuous
 62
     4
100
AcDbLine
 10
-611.3973125658583
 20
1687.600402626203
 30
0.0
 11
-610.4020025423549
 21
1688.996494281099
 31
0.0
  0
LINE
  5
51701
330
1F
100
AcDbEntity
  8
躯体と製品
  6
Continuous
 62
     4
100
AcDbLine
 10
-612.2709043166566
 20
1686.1224849699
 30
0.0
 11
-611.3973125658583
 21
1687.600402626203
 31
0.0
  0
LINE
  5
51702
330
1F
100
AcDbEntity
  8
躯体と製品
  6
Continuous
 62
     4
100
AcDbLine
 10
-613.0212019971574
 20
1684.573062228898
 30
0.0
 11
-612.2709043166566
 21
1686.1224849699
 31
0.0
  0
LINE
  5
51703
330
1F
100
AcDbEntity
  8
躯体と製品
  6
Continuous
 62
     4
100
AcDbLine
 10
-613.6364644236553
 20
1682.991013395601
 30
0.0
 11
-613.0212019971574
 21
1684.573062228898
 31
0.0
  0
LINE
  5
51704
330
1F
100
AcDbEntity
  8
躯体と製品
  6
Continuous
 62
     4
100
AcDbLine
 10
-614.1273571021582
 20
1681.365726980396
 30
0.0
 11
-613.6364644236553
 21
1682.991013395601
 31
0.0
  0
LINE
  5
51705
330
1F
100
AcDbEntity
  8
躯体と製品
  6
Continuous
 62
     4
100
AcDbLine
 10
-612.6273568990606
 20
1681.365726742698
 30
0.0
 11
-614.1273568990571
 21
1681.365726742698
 31
0.0
  0
LINE
  5
51706
330
1F
100
AcDbEntity
  8
躯体と製品
  6
Continuous
 62
     4
100
AcDbLine
 10
-612.0075430563581
 20
1683.354707899504
 30
0.0
 11
-612.6273568562562
 21
1681.365726980396
 31
0.0
  0
LINE
  5
51707
330
1F
100
AcDbEntity
  8
躯体と製品
  6
Continuous
 62
     4
100
AcDbLine
 10
-611.3758418551576
 20
1684.899727347301
 30
0.0
 11
-612.0075430563581
 21
1683.354707899504
 31
0.0
  0
LINE
  5
51708
330
1F
100
AcDbEntity
  8
躯体と製品
  6
Continuous
 62
     4
100
AcDbLine
 10
-610.6380276224578
 20
1686.366448643604
 30
0.0
 11
-611.3758418551576
 21
1684.899727347301
 31
0.0
  0
LINE
  5
51709
330
1F
100
AcDbEntity
  8
躯体と製品
  6
Continuous
 62
     4
100
AcDbLine
 10
-609.8141200683592
 20
1687.727403360398
 30
0.0
 11
-610.6380276224578
 21
1686.366448643604
 31
0.0
  0
LINE
  5
5170A
330
1F
100
AcDbEntity
  8
躯体と製品
  6
Continuous
 62
     4
100
AcDbLine
 10
-608.9020013651559
 20
1688.996494281099
 30
0.0
 11
-609.8141200683592
 21
1687.727403360398
 31
0.0
  0
LINE
  5
5170B
330
1F
100
AcDbEntity
  8
躯体と製品
  6
Continuous
 62
     4
100
AcDbLine
 10
-627.1602239898591
 20
1681.365726742698
 30
0.0
 11
-630.1602239898591
 21
1681.365726742698
 31
0.0
  0
LINE
  5
5170C
330
1F
100
AcDbEntity
  8
躯体と製品
  6
Continuous
 62
     4
100
AcDbLine
 10
-641.16022417616
 20
1667.837013722398
 30
0.0
 11
-641.1602239898591
 21
1663.996493908599
 31
0.0
  0
LINE
  5
5170D
330
1F
100
AcDbEntity
  8
躯体と製品
  6
Continuous
 62
     4
100
AcDbLine
 10
-616.1602239898591
 20
1663.996493908599
 30
0.0
 11
-616.1602238035582
 21
1667.837013722398
 31
0.0
  0
LINE
  5
5170E
330
1F
100
AcDbEntity
  8
躯体と製品
  6
Continuous
 62
     4
100
AcDbLine
 10
-606.6602239898591
 20
1688.996493908599
 30
0.0
 11
-606.6602239898591
 21
1693.996493908599
 31
0.0
  0
LINE
  5
5170F
330
1F
100
AcDbEntity
  8
躯体と製品
  6
Continuous
 62
     4
100
AcDbLine
 10
-650.660223989859
 20
1693.996493908599
 30
0.0
 11
-650.660223989859
 21
1688.996493908599
 31
0.0
  0
LINE
  5
51710
330
1F
100
AcDbEntity
  8
躯体と製品
  6
Continuous
 62
     4
100
AcDbLine
 10
-630.1602239898591
 20
1688.996493908599
 30
0.0
 11
-630.1602239898591
 21
1663.996493908599
 31
0.0
  0
LINE
  5
51711
330
1F
100
AcDbEntity
  8
躯体と製品
  6
Continuous
 62
     4
100
AcDbLine
 10
-627.1602239898591
 20
1663.996493908599
 30
0.0
 11
-627.1602239898591
 21
1688.996493908599
 31
0.0
  0
LINE
  5
51712
330
1F
100
AcDbEntity
  8
躯体と製品
 62
     3
100
AcDbLine
 10
-847.5763130304356
 20
1605.996493908599
 30
0.0
 11
-867.5763130304355
 21
1585.996493908599
 31
0.0
  0
LINE
  5
51713
330
1F
100
AcDbEntity
  8
躯体と製品
 62
     3
100
AcDbLine
 10
-840.5052452185724
 20
1605.996493908599
 30
0.0
 11
-860.5052452185725
 21
1585.996493908599
 31
0.0
  0
LINE
  5
51714
330
1F
100
AcDbEntity
  8
躯体と製品
 62
     3
100
AcDbLine
 10
-833.4341774067022
 20
1605.996493908599
 30
0.0
 11
-853.4341774067023
 21
1585.996493908599
 31
0.0
  0
LINE
  5
51715
330
1F
100
AcDbEntity
  8
躯体と製品
 62
     3
100
AcDbLine
 10
-1022.576313030435
 20
1605.996493908599
 30
0.0
 11
-1042.576313030435
 21
1585.996493908599
 31
0.0
  0
LINE
  5
51716
330
1F
100
AcDbEntity
  8
躯体と製品
 62
     3
100
AcDbLine
 10
-1015.505245218572
 20
1605.996493908599
 30
0.0
 11
-1035.505245218572
 21
1585.996493908599
 31
0.0
  0
LINE
  5
51717
330
1F
100
AcDbEntity
  8
躯体と製品
 62
     3
100
AcDbLine
 10
-1008.434177406702
 20
1605.996493908599
 30
0.0
 11
-1028.434177406702
 21
1585.996493908599
 31
0.0
  0
LINE
  5
51718
330
1F
100
AcDbEntity
  8
躯体と製品
 62
     3
100
AcDbLine
 10
-497.5763130304356
 20
1605.996493908599
 30
0.0
 11
-517.5763130304355
 21
1585.996493908599
 31
0.0
  0
LINE
  5
51719
330
1F
100
AcDbEntity
  8
躯体と製品
 62
     3
100
AcDbLine
 10
-490.5052452185725
 20
1605.996493908599
 30
0.0
 11
-510.5052452185725
 21
1585.996493908599
 31
0.0
  0
LINE
  5
5171A
330
1F
100
AcDbEntity
  8
躯体と製品
 62
     3
100
AcDbLine
 10
-483.4341774067022
 20
1605.996493908599
 30
0.0
 11
-503.4341774067022
 21
1585.996493908599
 31
0.0
  0
LINE
  5
5171B
330
1F
100
AcDbEntity
  8
躯体と製品
 62
     3
100
AcDbLine
 10
-322.5763130304356
 20
1605.996493908599
 30
0.0
 11
-342.5763130304356
 21
1585.996493908599
 31
0.0
  0
LINE
  5
5171C
330
1F
100
AcDbEntity
  8
躯体と製品
 62
     3
100
AcDbLine
 10
-315.5052452185726
 20
1605.996493908599
 30
0.0
 11
-335.5052452185725
 21
1585.996493908599
 31
0.0
  0
LINE
  5
5171D
330
1F
100
AcDbEntity
  8
躯体と製品
 62
     3
100
AcDbLine
 10
-308.4341774067023
 20
1605.996493908599
 30
0.0
 11
-328.4341774067022
 21
1585.996493908599
 31
0.0
  0
LWPOLYLINE
  5
518B8
330
1F
100
AcDbEntity
  8
文字-記号
 62
     7
100
AcDbPolyline
 90
        3
 70
     0
 43
0.0
 10
-1024.255490835372
 20
1684.536207385304
 10
-1031.236937171869
 20
1672.443987620176
 10
-1093.703009806004
 20
1672.443987620176
  0
TEXT
  5
518B9
330
1F
100
AcDbEntity
  8
文字-記号
 62
     7
100
AcDbText
 10
-1089.537968324274
 20
1674.922641104445
 30
0.0
 40
9.0
  1
ボード受け
100
AcDbText
  0
TEXT
  5
518BA
330
1F
100
AcDbEntity
  8
文字-記号
 62
     7
100
AcDbText
 10
-935.0891744787556
 20
1632.345764689002
 30
0.0
 40
9.0
  1
クッションＬＫＧゴム
100
AcDbText
  0
LWPOLYLINE
  5
518BB
330
1F
100
AcDbEntity
  8
文字-記号
 62
     7
100
AcDbPolyline
 90
        3
 70
     0
 43
0.0
 10
-819.6602241370962
 20
1615.646504139065
 10
-827.3876072412456
 20
1629.030724285003
 10
-937.4110196915696
 20
1629.030724285003
  0
LWPOLYLINE
  5
518BD
330
1F
100
AcDbEntity
  8
文字-記号
 62
     7
100
AcDbPolyline
 90
        3
 70
     0
 43
0.0
 10
-942.1773910730061
 20
1710.545575820382
 10
-984.350478509288
 20
1783.591505972069
 10
-1151.06604538071
 20
1783.591505972069
  0
LWPOLYLINE
  5
518BE
330
1F
100
AcDbEntity
  8
文字-記号
 62
     7
100
AcDbPolyline
 90
        3
 70
     0
 43
0.0
 10
-934.1349388695942
 20
1755.9964939086
 10
-967.3321783839314
 20
1813.495799418462
 10
-1019.609933458141
 20
1813.495799418462
  0
TEXT
  5
518BF
330
1F
100
AcDbEntity
  8
文字-記号
 62
     7
100
AcDbText
 10
-1016.728217145105
 20
1817.16499049184
 30
0.0
 40
9.0
  1
畳敷き込
100
AcDbText
  0
TEXT
  5
518C1
330
1F
100
AcDbEntity
  8
文字-記号
 62
     7
100
AcDbText
 10
-1149.243365147929
 20
1787.260697045447
 30
0.0
 40
9.0
  1
パーティクルボード t＝２０ｍｍ
100
AcDbText
  0
LINE
  5
518C4
330
1F
100
AcDbEntity
  8
躯体と製品
  6
Continuous
 62
     3
100
AcDbLine
 10
-884.8969057833926
 20
1727.360130272246
 30
0.0
 11
-884.8969057833926
 21
1749.632857544953
 31
0.0
  0
LINE
  5
518C5
330
1F
100
AcDbEntity
  8
躯体と製品
  6
Continuous
 62
     3
100
AcDbLine
 10
-872.1696330560988
 20
1727.360130272246
 30
0.0
 11
-872.1696330560988
 21
1749.632857544953
 31
0.0
  0
ARC
  5
518C6
330
1F
100
AcDbEntity
  8
躯体と製品
  6
Continuous
 62
     3
100
AcDbCircle
 10
-891.2605421470395
 20
1727.360130272246
 30
0.0
 40
6.363636363637676
100
AcDbArc
 50
180.0
 51
0.0
  0
ARC
  5
518C7
330
1F
100
AcDbEntity
  8
躯体と製品
  6
Continuous
 62
     3
100
AcDbCircle
 10
-878.5332694197457
 20
1749.632857544953
 30
0.0
 40
6.363636363637965
100
AcDbArc
 50
0.0
 51
180.0
  0
LINE
  5
518C8
330
1F
100
AcDbEntity
  8
躯体と製品
  6
Continuous
 62
     3
100
AcDbLine
 10
-910.3514512379804
 20
1744.017522344133
 30
0.0
 11
-910.3514512379804
 21
1749.632857544953
 31
0.0
  0
LINE
  5
518C9
330
1F
100
AcDbEntity
  8
躯体と製品
  6
Continuous
 62
     3
100
AcDbLine
 10
-897.6241785106864
 20
1727.360130272246
 30
0.0
 11
-897.6241785106864
 21
1749.632857544953
 31
0.0
  0
ARC
  5
518CA
330
1F
100
AcDbEntity
  8
躯体と製品
  6
Continuous
 62
     3
100
AcDbCircle
 10
-903.9878148743335
 20
1749.632857544953
 30
0.0
 40
6.363636363637965
100
AcDbArc
 50
0.0
 51
180.0
  0
LINE
  5
518CB
330
1F
100
AcDbEntity
  8
文字-記号
  6
Continuous
 62
     3
100
AcDbLine
 10
-899.7366665898478
 20
1829.817248908599
 30
0.0
 11
-899.7366665898478
 21
1855.9964939086
 31
0.0
  0
LINE
  5
518CC
330
1F
100
AcDbEntity
  8
文字-記号
  6
Continuous
 62
     3
100
AcDbLine
 10
-848.7932705898472
 20
1829.817248908599
 30
0.0
 11
-899.7366665898478
 21
1829.817248908599
 31
0.0
  0
LINE
  5
518CD
330
1F
100
AcDbEntity
  8
文字-記号
  6
Continuous
 62
     3
100
AcDbLine
 10
-848.7932705898472
 20
1855.9964939086
 30
0.0
 11
-848.7932705898472
 21
1829.817248908599
 31
0.0
  0
LINE
  5
518CE
330
1F
100
AcDbEntity
  8
文字-記号
  6
Continuous
 62
     3
100
AcDbLine
 10
-899.7366665898478
 20
1855.9964939086
 30
0.0
 11
-848.7932705898472
 21
1855.9964939086
 31
0.0
  0
TEXT
  5
518CF
330
1F
100
AcDbEntity
  8
文字-記号
  6
Continuous
 62
     4
100
AcDbText
 10
-890.3911685688587
 20
1835.445819165694
 30
0.0
 40
15.0
  1
和室
  7
ACAD
100
AcDbText
  0
LINE
  5
518D5
330
1F
100
AcDbEntity
  8
文字-記号
  6
Continuous
 62
     3
100
AcDbLine
 10
-521.419517383804
 20
1829.817248908599
 30
0.0
 11
-521.419517383804
 21
1855.9964939086
 31
0.0
  0
LINE
  5
518D6
330
1F
100
AcDbEntity
  8
文字-記号
  6
Continuous
 62
     3
100
AcDbLine
 10
-470.4761213838053
 20
1829.817248908599
 30
0.0
 11
-521.419517383804
 21
1829.817248908599
 31
0.0
  0
LINE
  5
518D7
330
1F
100
AcDbEntity
  8
文字-記号
  6
Continuous
 62
     3
100
AcDbLine
 10
-470.4761213838053
 20
1855.9964939086
 30
0.0
 11
-470.4761213838053
 21
1829.817248908599
 31
0.0
  0
LINE
  5
518D8
330
1F
100
AcDbEntity
  8
文字-記号
  6
Continuous
 62
     3
100
AcDbLine
 10
-521.419517383804
 20
1855.9964939086
 30
0.0
 11
-470.4761213838053
 21
1855.9964939086
 31
0.0
  0
TEXT
  5
518D9
330
1F
100
AcDbEntity
  8
文字-記号
  6
Continuous
 62
     4
100
AcDbText
 10
-511.8196753767612
 20
1834.496773625582
 30
0.0
 40
15.0
  1
ＬＤ
  7
ACAD
100
AcDbText
  0
LWPOLYLINE
  5
518DE
330
1F
100
AcDbEntity
  8
文字-記号
 62
     7
100
AcDbPolyline
 90
        3
 70
     0
 43
0.0
 10
-683.2599731995403
 20
1755.9964939086
 10
-650.0627336852037
 20
1813.495799418462
 10
-617.2478609045054
 20
1813.495799418462
  0
TEXT
  5
518DF
330
1F
100
AcDbEntity
  8
文字-記号
 62
     7
100
AcDbText
 10
-647.1810173721666
 20
1816.84780626168
 30
0.0
 40
9.0
  1
敷 居
100
AcDbText
  0
TEXT
  5
518E0
330
1F
100
AcDbEntity
  8
文字-記号
  6
Continuous
 62
     3
100
AcDbText
 10
-1106.928611573627
 20
1879.785472788308
 30
0.0
 40
15.0
  1
【ホームベース ＬＣＢＢ-N：敷居廻り詳細図】
  7
ACAD
100
AcDbText
  0
CIRCLE
  5
5190A
330
1F
100
AcDbEntity
  8
躯体と製品
  6
Continuous
 62
     3
100
AcDbCircle
 10
-641.1602239898082
 20
1737.9964939086
 30
0.0
 40
0.9999999999999998
  0
CIRCLE
  5
5190B
330
1F
100
AcDbEntity
  8
躯体と製品
  6
Continuous
 62
     3
100
AcDbCircle
 10
-631.1602239898081
 20
1737.9964939086
 30
0.0
 40
0.9999999999999998
  0
CIRCLE
  5
5190C
330
1F
100
AcDbEntity
  8
躯体と製品
  6
Continuous
 62
     3
100
AcDbCircle
 10
-611.1602239898082
 20
1737.9964939086
 30
0.0
 40
0.9999999999999998
  0
CIRCLE
  5
5190D
330
1F
100
AcDbEntity
  8
躯体と製品
  6
Continuous
 62
     3
100
AcDbCircle
 10
-601.1602239898081
 20
1737.9964939086
 30
0.0
 40
0.9999999999999998
  0
CIRCLE
  5
5190E
330
1F
100
AcDbEntity
  8
躯体と製品
  6
Continuous
 62
     3
100
AcDbCircle
 10
-591.1602239898082
 20
1737.9964939086
 30
0.0
 40
0.9999999999999998
  0
CIRCLE
  5
5190F
330
1F
100
AcDbEntity
  8
躯体と製品
  6
Continuous
 62
     3
100
AcDbCircle
 10
-571.1602239898081
 20
1737.9964939086
 30
0.0
 40
0.9999999999999998
  0
CIRCLE
  5
51910
330
1F
100
AcDbEntity
  8
躯体と製品
  6
Continuous
 62
     3
100
AcDbCircle
 10
-561.1602239898082
 20
1737.9964939086
 30
0.0
 40
0.9999999999999998
  0
CIRCLE
  5
51911
330
1F
100
AcDbEntity
  8
躯体と製品
  6
Continuous
 62
     3
100
AcDbCircle
 10
-631.1602239898081
 20
1729.996493908599
 30
0.0
 40
0.9999999999999998
  0
CIRCLE
  5
51912
330
1F
100
AcDbEntity
  8
躯体と製品
  6
Continuous
 62
     3
100
AcDbCircle
 10
-621.1602239898081
 20
1729.996493908599
 30
0.0
 40
0.9999999999999998
  0
CIRCLE
  5
51913
330
1F
100
AcDbEntity
  8
躯体と製品
  6
Continuous
 62
     3
100
AcDbCircle
 10
-611.1602239898082
 20
1729.996493908599
 30
0.0
 40
0.9999999999999998
  0
CIRCLE
  5
51914
330
1F
100
AcDbEntity
  8
躯体と製品
  6
Continuous
 62
     3
100
AcDbCircle
 10
-591.1602239898082
 20
1729.996493908599
 30
0.0
 40
0.9999999999999998
  0
CIRCLE
  5
51915
330
1F
100
AcDbEntity
  8
躯体と製品
  6
Continuous
 62
     3
100
AcDbCircle
 10
-581.1602239898081
 20
1729.996493908599
 30
0.0
 40
0.9999999999999998
  0
CIRCLE
  5
51916
330
1F
100
AcDbEntity
  8
躯体と製品
  6
Continuous
 62
     3
100
AcDbCircle
 10
-571.1602239898081
 20
1729.996493908599
 30
0.0
 40
0.9999999999999998
  0
CIRCLE
  5
51917
330
1F
100
AcDbEntity
  8
躯体と製品
  6
Continuous
 62
     3
100
AcDbCircle
 10
-646.1602239898081
 20
1733.9964939086
 30
0.0
 40
0.9999999999999998
  0
CIRCLE
  5
51918
330
1F
100
AcDbEntity
  8
躯体と製品
  6
Continuous
 62
     3
100
AcDbCircle
 10
-606.1602239898081
 20
1733.9964939086
 30
0.0
 40
0.9999999999999998
  0
CIRCLE
  5
51919
330
1F
100
AcDbEntity
  8
躯体と製品
  6
Continuous
 62
     3
100
AcDbCircle
 10
-638.6602239898081
 20
1727.996493908599
 30
0.0
 40
0.9999999999999998
  0
CIRCLE
  5
5191A
330
1F
100
AcDbEntity
  8
躯体と製品
  6
Continuous
 62
     3
100
AcDbCircle
 10
-598.6602239898082
 20
1727.996493908599
 30
0.0
 40
0.9999999999999998
  0
CIRCLE
  5
5191B
330
1F
100
AcDbEntity
  8
躯体と製品
  6
Continuous
 62
     3
100
AcDbCircle
 10
-623.6602239898082
 20
1739.9964939086
 30
0.0
 40
0.9999999999999998
  0
CIRCLE
  5
5191C
330
1F
100
AcDbEntity
  8
躯体と製品
  6
Continuous
 62
     3
100
AcDbCircle
 10
-583.6602239898081
 20
1739.9964939086
 30
0.0
 40
0.9999999999999998
  0
CIRCLE
  5
5191D
330
1F
100
AcDbEntity
  8
躯体と製品
  6
Continuous
 62
     3
100
AcDbCircle
 10
-558.6602239898081
 20
1727.996493908599
 30
0.0
 40
0.9999999999999998
  0
CIRCLE
  5
5191E
330
1F
100
AcDbEntity
  8
躯体と製品
  6
Continuous
 62
     3
100
AcDbCircle
 10
-543.6602239898081
 20
1739.9964939086
 30
0.0
 40
0.9999999999999998
  0
CIRCLE
  5
5191F
330
1F
100
AcDbEntity
  8
躯体と製品
  6
Continuous
 62
     3
100
AcDbCircle
 10
-503.6602239898082
 20
1739.9964939086
 30
0.0
 40
0.9999999999999998
  0
CIRCLE
  5
51920
330
1F
100
AcDbEntity
  8
躯体と製品
  6
Continuous
 62
     3
100
AcDbCircle
 10
-463.6602239898081
 20
1739.9964939086
 30
0.0
 40
0.9999999999999998
  0
CIRCLE
  5
51921
330
1F
100
AcDbEntity
  8
躯体と製品
  6
Continuous
 62
     3
100
AcDbCircle
 10
-423.6602239898081
 20
1739.9964939086
 30
0.0
 40
0.9999999999999998
  0
CIRCLE
  5
51922
330
1F
100
AcDbEntity
  8
躯体と製品
  6
Continuous
 62
     3
100
AcDbCircle
 10
-383.6602239898082
 20
1739.9964939086
 30
0.0
 40
0.9999999999999998
  0
CIRCLE
  5
51923
330
1F
100
AcDbEntity
  8
躯体と製品
  6
Continuous
 62
     3
100
AcDbCircle
 10
-343.6602239898082
 20
1739.9964939086
 30
0.0
 40
0.9999999999999998
  0
CIRCLE
  5
51924
330
1F
100
AcDbEntity
  8
躯体と製品
  6
Continuous
 62
     3
100
AcDbCircle
 10
-263.6602239898082
 20
1739.9964939086
 30
0.0
 40
0.9999999999999998
  0
CIRCLE
  5
51925
330
1F
100
AcDbEntity
  8
躯体と製品
  6
Continuous
 62
     3
100
AcDbCircle
 10
-183.6602239898081
 20
1739.9964939086
 30
0.0
 40
0.9999999999999998
  0
CIRCLE
  5
51926
330
1F
100
AcDbEntity
  8
躯体と製品
  6
Continuous
 62
     3
100
AcDbCircle
 10
-223.6602239898082
 20
1739.9964939086
 30
0.0
 40
0.9999999999999998
  0
CIRCLE
  5
51927
330
1F
100
AcDbEntity
  8
躯体と製品
  6
Continuous
 62
     3
100
AcDbCircle
 10
-518.6602239898081
 20
1727.996493908599
 30
0.0
 40
0.9999999999999998
  0
CIRCLE
  5
51928
330
1F
100
AcDbEntity
  8
躯体と製品
  6
Continuous
 62
     3
100
AcDbCircle
 10
-478.6602239898082
 20
1727.996493908599
 30
0.0
 40
0.9999999999999998
  0
CIRCLE
  5
51929
330
1F
100
AcDbEntity
  8
躯体と製品
  6
Continuous
 62
     3
100
AcDbCircle
 10
-438.6602239898081
 20
1727.996493908599
 30
0.0
 40
0.9999999999999998
  0
CIRCLE
  5
5192A
330
1F
100
AcDbEntity
  8
躯体と製品
  6
Continuous
 62
     3
100
AcDbCircle
 10
-398.6602239898082
 20
1727.996493908599
 30
0.0
 40
0.9999999999999998
  0
CIRCLE
  5
5192B
330
1F
100
AcDbEntity
  8
躯体と製品
  6
Continuous
 62
     3
100
AcDbCircle
 10
-358.2941985860232
 20
1727.630468504815
 30
0.0
 40
0.9999999999999998
  0
CIRCLE
  5
5192C
330
1F
100
AcDbEntity
  8
躯体と製品
  6
Continuous
 62
     3
100
AcDbCircle
 10
-318.2941985860232
 20
1727.630468504815
 30
0.0
 40
0.9999999999999998
  0
CIRCLE
  5
5192D
330
1F
100
AcDbEntity
  8
躯体と製品
  6
Continuous
 62
     3
100
AcDbCircle
 10
-278.2941985860232
 20
1727.630468504815
 30
0.0
 40
0.9999999999999998
  0
CIRCLE
  5
5192E
330
1F
100
AcDbEntity
  8
躯体と製品
  6
Continuous
 62
     3
100
AcDbCircle
 10
-198.2941985860232
 20
1727.630468504815
 30
0.0
 40
0.9999999999999998
  0
CIRCLE
  5
5192F
330
1F
100
AcDbEntity
  8
躯体と製品
  6
Continuous
 62
     3
100
AcDbCircle
 10
-551.1602239898081
 20
1737.9964939086
 30
0.0
 40
0.9999999999999998
  0
CIRCLE
  5
51930
330
1F
100
AcDbEntity
  8
躯体と製品
  6
Continuous
 62
     3
100
AcDbCircle
 10
-531.1602239898081
 20
1737.9964939086
 30
0.0
 40
0.9999999999999998
  0
CIRCLE
  5
51931
330
1F
100
AcDbEntity
  8
躯体と製品
  6
Continuous
 62
     3
100
AcDbCircle
 10
-521.1602239898081
 20
1737.9964939086
 30
0.0
 40
0.9999999999999998
  0
CIRCLE
  5
51932
330
1F
100
AcDbEntity
  8
躯体と製品
  6
Continuous
 62
     3
100
AcDbCircle
 10
-511.1602239898082
 20
1737.9964939086
 30
0.0
 40
0.9999999999999998
  0
CIRCLE
  5
51933
330
1F
100
AcDbEntity
  8
躯体と製品
  6
Continuous
 62
     3
100
AcDbCircle
 10
-491.1602239898082
 20
1737.9964939086
 30
0.0
 40
0.9999999999999998
  0
CIRCLE
  5
51934
330
1F
100
AcDbEntity
  8
躯体と製品
  6
Continuous
 62
     3
100
AcDbCircle
 10
-481.1602239898081
 20
1737.9964939086
 30
0.0
 40
0.9999999999999998
  0
CIRCLE
  5
51935
330
1F
100
AcDbEntity
  8
躯体と製品
  6
Continuous
 62
     3
100
AcDbCircle
 10
-551.1602239898081
 20
1729.996493908599
 30
0.0
 40
0.9999999999999998
  0
CIRCLE
  5
51936
330
1F
100
AcDbEntity
  8
躯体と製品
  6
Continuous
 62
     3
100
AcDbCircle
 10
-541.1602239898082
 20
1729.996493908599
 30
0.0
 40
0.9999999999999998
  0
CIRCLE
  5
51937
330
1F
100
AcDbEntity
  8
躯体と製品
  6
Continuous
 62
     3
100
AcDbCircle
 10
-531.1602239898081
 20
1729.996493908599
 30
0.0
 40
0.9999999999999998
  0
CIRCLE
  5
51938
330
1F
100
AcDbEntity
  8
躯体と製品
  6
Continuous
 62
     3
100
AcDbCircle
 10
-511.1602239898082
 20
1729.996493908599
 30
0.0
 40
0.9999999999999998
  0
CIRCLE
  5
51939
330
1F
100
AcDbEntity
  8
躯体と製品
  6
Continuous
 62
     3
100
AcDbCircle
 10
-501.1602239898081
 20
1729.996493908599
 30
0.0
 40
0.9999999999999998
  0
CIRCLE
  5
5193A
330
1F
100
AcDbEntity
  8
躯体と製品
  6
Continuous
 62
     3
100
AcDbCircle
 10
-491.1602239898082
 20
1729.996493908599
 30
0.0
 40
0.9999999999999998
  0
CIRCLE
  5
5193B
330
1F
100
AcDbEntity
  8
躯体と製品
  6
Continuous
 62
     3
100
AcDbCircle
 10
-451.1602239898081
 20
1737.9964939086
 30
0.0
 40
0.9999999999999998
  0
CIRCLE
  5
5193C
330
1F
100
AcDbEntity
  8
躯体と製品
  6
Continuous
 62
     3
100
AcDbCircle
 10
-441.1602239898082
 20
1737.9964939086
 30
0.0
 40
0.9999999999999998
  0
CIRCLE
  5
5193D
330
1F
100
AcDbEntity
  8
躯体と製品
  6
Continuous
 62
     3
100
AcDbCircle
 10
-431.1602239898081
 20
1737.9964939086
 30
0.0
 40
0.9999999999999998
  0
CIRCLE
  5
5193E
330
1F
100
AcDbEntity
  8
躯体と製品
  6
Continuous
 62
     3
100
AcDbCircle
 10
-411.1602239898081
 20
1737.9964939086
 30
0.0
 40
0.9999999999999998
  0
CIRCLE
  5
5193F
330
1F
100
AcDbEntity
  8
躯体と製品
  6
Continuous
 62
     3
100
AcDbCircle
 10
-401.1602239898081
 20
1737.9964939086
 30
0.0
 40
0.9999999999999998
  0
CIRCLE
  5
51940
330
1F
100
AcDbEntity
  8
躯体と製品
  6
Continuous
 62
     3
100
AcDbCircle
 10
-461.1602239898082
 20
1729.996493908599
 30
0.0
 40
0.9999999999999998
  0
CIRCLE
  5
51941
330
1F
100
AcDbEntity
  8
躯体と製品
  6
Continuous
 62
     3
100
AcDbCircle
 10
-451.1602239898081
 20
1729.996493908599
 30
0.0
 40
0.9999999999999998
  0
CIRCLE
  5
51942
330
1F
100
AcDbEntity
  8
躯体と製品
  6
Continuous
 62
     3
100
AcDbCircle
 10
-431.1602239898081
 20
1729.996493908599
 30
0.0
 40
0.9999999999999998
  0
CIRCLE
  5
51943
330
1F
100
AcDbEntity
  8
躯体と製品
  6
Continuous
 62
     3
100
AcDbCircle
 10
-421.1602239898081
 20
1729.996493908599
 30
0.0
 40
0.9999999999999998
  0
CIRCLE
  5
51944
330
1F
100
AcDbEntity
  8
躯体と製品
  6
Continuous
 62
     3
100
AcDbCircle
 10
-411.1602239898081
 20
1729.996493908599
 30
0.0
 40
0.9999999999999998
  0
CIRCLE
  5
51945
330
1F
100
AcDbEntity
  8
躯体と製品
  6
Continuous
 62
     3
100
AcDbCircle
 10
-391.1602239898082
 20
1737.9964939086
 30
0.0
 40
0.9999999999999998
  0
CIRCLE
  5
51946
330
1F
100
AcDbEntity
  8
躯体と製品
  6
Continuous
 62
     3
100
AcDbCircle
 10
-371.1602239898082
 20
1737.9964939086
 30
0.0
 40
0.9999999999999998
  0
CIRCLE
  5
51947
330
1F
100
AcDbEntity
  8
躯体と製品
  6
Continuous
 62
     3
100
AcDbCircle
 10
-361.1602239898082
 20
1737.9964939086
 30
0.0
 40
0.9999999999999998
  0
CIRCLE
  5
51948
330
1F
100
AcDbEntity
  8
躯体と製品
  6
Continuous
 62
     3
100
AcDbCircle
 10
-351.1602239898082
 20
1737.9964939086
 30
0.0
 40
0.9999999999999998
  0
CIRCLE
  5
51949
330
1F
100
AcDbEntity
  8
躯体と製品
  6
Continuous
 62
     3
100
AcDbCircle
 10
-331.1602239898082
 20
1737.9964939086
 30
0.0
 40
0.9999999999999998
  0
CIRCLE
  5
5194A
330
1F
100
AcDbEntity
  8
躯体と製品
  6
Continuous
 62
     3
100
AcDbCircle
 10
-321.1602239898082
 20
1737.9964939086
 30
0.0
 40
0.9999999999999998
  0
CIRCLE
  5
5194B
330
1F
100
AcDbEntity
  8
躯体と製品
  6
Continuous
 62
     3
100
AcDbCircle
 10
-391.1602239898082
 20
1729.996493908599
 30
0.0
 40
0.9999999999999998
  0
CIRCLE
  5
5194C
330
1F
100
AcDbEntity
  8
躯体と製品
  6
Continuous
 62
     3
100
AcDbCircle
 10
-381.1602239898082
 20
1729.996493908599
 30
0.0
 40
0.9999999999999998
  0
CIRCLE
  5
5194D
330
1F
100
AcDbEntity
  8
躯体と製品
  6
Continuous
 62
     3
100
AcDbCircle
 10
-371.1602239898082
 20
1729.996493908599
 30
0.0
 40
0.9999999999999998
  0
CIRCLE
  5
5194E
330
1F
100
AcDbEntity
  8
躯体と製品
  6
Continuous
 62
     3
100
AcDbCircle
 10
-351.1602239898082
 20
1729.996493908599
 30
0.0
 40
0.9999999999999998
  0
CIRCLE
  5
5194F
330
1F
100
AcDbEntity
  8
躯体と製品
  6
Continuous
 62
     3
100
AcDbCircle
 10
-341.1602239898082
 20
1729.996493908599
 30
0.0
 40
0.9999999999999998
  0
CIRCLE
  5
51950
330
1F
100
AcDbEntity
  8
躯体と製品
  6
Continuous
 62
     3
100
AcDbCircle
 10
-331.1602239898082
 20
1729.996493908599
 30
0.0
 40
0.9999999999999998
  0
CIRCLE
  5
51951
330
1F
100
AcDbEntity
  8
躯体と製品
  6
Continuous
 62
     3
100
AcDbCircle
 10
-312.1602239898082
 20
1737.9964939086
 30
0.0
 40
0.9999999999999998
  0
CIRCLE
  5
51952
330
1F
100
AcDbEntity
  8
躯体と製品
  6
Continuous
 62
     3
100
AcDbCircle
 10
-281.1602239898082
 20
1737.9964939086
 30
0.0
 40
0.9999999999999998
  0
CIRCLE
  5
51953
330
1F
100
AcDbEntity
  8
躯体と製品
  6
Continuous
 62
     3
100
AcDbCircle
 10
-271.1602239898082
 20
1737.9964939086
 30
0.0
 40
0.9999999999999998
  0
CIRCLE
  5
51954
330
1F
100
AcDbEntity
  8
躯体と製品
  6
Continuous
 62
     3
100
AcDbCircle
 10
-251.1602239898082
 20
1737.9964939086
 30
0.0
 40
0.9999999999999998
  0
CIRCLE
  5
51955
330
1F
100
AcDbEntity
  8
躯体と製品
  6
Continuous
 62
     3
100
AcDbCircle
 10
-312.1602239898082
 20
1729.996493908599
 30
0.0
 40
0.9999999999999998
  0
CIRCLE
  5
51956
330
1F
100
AcDbEntity
  8
躯体と製品
  6
Continuous
 62
     3
100
AcDbCircle
 10
-271.1602239898082
 20
1729.996493908599
 30
0.0
 40
0.9999999999999998
  0
CIRCLE
  5
51957
330
1F
100
AcDbEntity
  8
躯体と製品
  6
Continuous
 62
     3
100
AcDbCircle
 10
-261.1602239898082
 20
1729.996493908599
 30
0.0
 40
0.9999999999999998
  0
CIRCLE
  5
51958
330
1F
100
AcDbEntity
  8
躯体と製品
  6
Continuous
 62
     3
100
AcDbCircle
 10
-251.1602239898082
 20
1729.996493908599
 30
0.0
 40
0.9999999999999998
  0
CIRCLE
  5
51959
330
1F
100
AcDbEntity
  8
躯体と製品
  6
Continuous
 62
     3
100
AcDbCircle
 10
-211.1602239898082
 20
1737.9964939086
 30
0.0
 40
0.9999999999999998
  0
CIRCLE
  5
5195A
330
1F
100
AcDbEntity
  8
躯体と製品
  6
Continuous
 62
     3
100
AcDbCircle
 10
-201.1602239898082
 20
1737.9964939086
 30
0.0
 40
0.9999999999999998
  0
CIRCLE
  5
5195B
330
1F
100
AcDbEntity
  8
躯体と製品
  6
Continuous
 62
     3
100
AcDbCircle
 10
-191.1602239898082
 20
1737.9964939086
 30
0.0
 40
0.9999999999999998
  0
CIRCLE
  5
5195C
330
1F
100
AcDbEntity
  8
躯体と製品
  6
Continuous
 62
     3
100
AcDbCircle
 10
-221.1602239898082
 20
1729.996493908599
 30
0.0
 40
0.9999999999999998
  0
CIRCLE
  5
5195D
330
1F
100
AcDbEntity
  8
躯体と製品
  6
Continuous
 62
     3
100
AcDbCircle
 10
-211.1602239898082
 20
1729.996493908599
 30
0.0
 40
0.9999999999999998
  0
CIRCLE
  5
5195E
330
1F
100
AcDbEntity
  8
躯体と製品
  6
Continuous
 62
     3
100
AcDbCircle
 10
-191.1602239898082
 20
1729.996493908599
 30
0.0
 40
0.9999999999999998
  0
CIRCLE
  5
5195F
330
1F
100
AcDbEntity
  8
躯体と製品
  6
Continuous
 62
     3
100
AcDbCircle
 10
-181.1602239898082
 20
1729.996493908599
 30
0.0
 40
0.9999999999999998
  0
CIRCLE
  5
51960
330
1F
100
AcDbEntity
  8
躯体と製品
  6
Continuous
 62
     3
100
AcDbCircle
 10
-566.1602239898082
 20
1733.9964939086
 30
0.0
 40
0.9999999999999998
  0
CIRCLE
  5
51961
330
1F
100
AcDbEntity
  8
躯体と製品
  6
Continuous
 62
     3
100
AcDbCircle
 10
-526.1602239898081
 20
1733.9964939086
 30
0.0
 40
0.9999999999999998
  0
CIRCLE
  5
51962
330
1F
100
AcDbEntity
  8
躯体と製品
  6
Continuous
 62
     3
100
AcDbCircle
 10
-486.1602239898082
 20
1733.9964939086
 30
0.0
 40
0.9999999999999998
  0
CIRCLE
  5
51963
330
1F
100
AcDbEntity
  8
躯体と製品
  6
Continuous
 62
     3
100
AcDbCircle
 10
-446.1602239898081
 20
1733.9964939086
 30
0.0
 40
0.9999999999999998
  0
CIRCLE
  5
51964
330
1F
100
AcDbEntity
  8
躯体と製品
  6
Continuous
 62
     3
100
AcDbCircle
 10
-406.1602239898081
 20
1733.9964939086
 30
0.0
 40
0.9999999999999998
  0
CIRCLE
  5
51965
330
1F
100
AcDbEntity
  8
躯体と製品
  6
Continuous
 62
     3
100
AcDbCircle
 10
-366.1602239898082
 20
1733.9964939086
 30
0.0
 40
0.9999999999999998
  0
CIRCLE
  5
51966
330
1F
100
AcDbEntity
  8
躯体と製品
  6
Continuous
 62
     3
100
AcDbCircle
 10
-326.1602239898082
 20
1733.9964939086
 30
0.0
 40
0.9999999999999998
  0
CIRCLE
  5
51967
330
1F
100
AcDbEntity
  8
躯体と製品
  6
Continuous
 62
     3
100
AcDbCircle
 10
-246.1602239898082
 20
1733.9964939086
 30
0.0
 40
0.9999999999999998
  0
CIRCLE
  5
51968
330
1F
100
AcDbEntity
  8
躯体と製品
  6
Continuous
 62
     3
100
AcDbCircle
 10
-206.1602239898082
 20
1733.9964939086
 30
0.0
 40
0.9999999999999998
  0
CIRCLE
  5
51A14
330
1F
100
AcDbEntity
  8
躯体と製品
  6
Continuous
 62
     3
100
AcDbCircle
 10
-238.2941985860232
 20
1727.630468504815
 30
0.0
 40
0.9999999999999998
  0
CIRCLE
  5
51A15
330
1F
100
AcDbEntity
  8
躯体と製品
  6
Continuous
 62
     3
100
AcDbCircle
 10
-241.1602239898082
 20
1737.9964939086
 30
0.0
 40
0.9999999999999998
  0
CIRCLE
  5
51A16
330
1F
100
AcDbEntity
  8
躯体と製品
  6
Continuous
 62
     3
100
AcDbCircle
 10
-231.1602239898082
 20
1737.9964939086
 30
0.0
 40
0.9999999999999998
  0
CIRCLE
  5
51A17
330
1F
100
AcDbEntity
  8
躯体と製品
  6
Continuous
 62
     3
100
AcDbCircle
 10
-231.1602239898082
 20
1729.996493908599
 30
0.0
 40
0.9999999999999998
  0
CIRCLE
  5
51A18
330
1F
100
AcDbEntity
  8
躯体と製品
  6
Continuous
 62
     3
100
AcDbCircle
 10
-1084.012045987227
 20
1716.9964939086
 30
0.0
 40
0.9999999999999998
  0
CIRCLE
  5
51A19
330
1F
100
AcDbEntity
  8
躯体と製品
  6
Continuous
 62
     3
100
AcDbCircle
 10
-1044.012045987227
 20
1716.9964939086
 30
0.0
 40
0.9999999999999998
  0
CIRCLE
  5
51A1A
330
1F
100
AcDbEntity
  8
躯体と製品
  6
Continuous
 62
     3
100
AcDbCircle
 10
-962.0120459872275
 20
1716.9964939086
 30
0.0
 40
0.9999999999999998
  0
CIRCLE
  5
51A1B
330
1F
100
AcDbEntity
  8
躯体と製品
  6
Continuous
 62
     3
100
AcDbCircle
 10
-882.0120459872276
 20
1716.9964939086
 30
0.0
 40
0.9999999999999998
  0
CIRCLE
  5
51A1C
330
1F
100
AcDbEntity
  8
躯体と製品
  6
Continuous
 62
     3
100
AcDbCircle
 10
-842.0120459872276
 20
1716.9964939086
 30
0.0
 40
0.9999999999999998
  0
CIRCLE
  5
51A1D
330
1F
100
AcDbEntity
  8
躯体と製品
  6
Continuous
 62
     3
100
AcDbCircle
 10
-922.0120459872275
 20
1716.9964939086
 30
0.0
 40
0.9999999999999998
  0
CIRCLE
  5
51A1E
330
1F
100
AcDbEntity
  8
躯体と製品
  6
Continuous
 62
     3
100
AcDbCircle
 10
-802.0120459872275
 20
1716.9964939086
 30
0.0
 40
0.9999999999999998
  0
CIRCLE
  5
51A1F
330
1F
100
AcDbEntity
  8
躯体と製品
  6
Continuous
 62
     3
100
AcDbCircle
 10
-1058.646020583442
 20
1704.630468504815
 30
0.0
 40
0.9999999999999998
  0
CIRCLE
  5
51A20
330
1F
100
AcDbEntity
  8
躯体と製品
  6
Continuous
 62
     3
100
AcDbCircle
 10
-1018.646020583442
 20
1704.630468504815
 30
0.0
 40
0.9999999999999998
  0
CIRCLE
  5
51A21
330
1F
100
AcDbEntity
  8
躯体と製品
  6
Continuous
 62
     3
100
AcDbCircle
 10
-976.6460205834425
 20
1704.630468504815
 30
0.0
 40
0.9999999999999998
  0
CIRCLE
  5
51A22
330
1F
100
AcDbEntity
  8
躯体と製品
  6
Continuous
 62
     3
100
AcDbCircle
 10
-896.6460205834426
 20
1704.630468504815
 30
0.0
 40
0.9999999999999998
  0
CIRCLE
  5
51A23
330
1F
100
AcDbEntity
  8
躯体と製品
  6
Continuous
 62
     3
100
AcDbCircle
 10
-856.6460205834426
 20
1704.630468504815
 30
0.0
 40
0.9999999999999998
  0
CIRCLE
  5
51A24
330
1F
100
AcDbEntity
  8
躯体と製品
  6
Continuous
 62
     3
100
AcDbCircle
 10
-816.6460205834425
 20
1704.630468504815
 30
0.0
 40
0.9999999999999998
  0
CIRCLE
  5
51A25
330
1F
100
AcDbEntity
  8
躯体と製品
  6
Continuous
 62
     3
100
AcDbCircle
 10
-1071.512045987227
 20
1714.996493908599
 30
0.0
 40
0.9999999999999998
  0
CIRCLE
  5
51A26
330
1F
100
AcDbEntity
  8
躯体と製品
  6
Continuous
 62
     3
100
AcDbCircle
 10
-1061.512045987227
 20
1714.996493908599
 30
0.0
 40
0.9999999999999998
  0
CIRCLE
  5
51A27
330
1F
100
AcDbEntity
  8
躯体と製品
  6
Continuous
 62
     3
100
AcDbCircle
 10
-1051.512045987228
 20
1714.996493908599
 30
0.0
 40
0.9999999999999998
  0
CIRCLE
  5
51A28
330
1F
100
AcDbEntity
  8
躯体と製品
  6
Continuous
 62
     3
100
AcDbCircle
 10
-1031.512045987227
 20
1714.996493908599
 30
0.0
 40
0.9999999999999998
  0
CIRCLE
  5
51A29
330
1F
100
AcDbEntity
  8
躯体と製品
  6
Continuous
 62
     3
100
AcDbCircle
 10
-1021.512045987227
 20
1714.996493908599
 30
0.0
 40
0.9999999999999998
  0
CIRCLE
  5
51A2A
330
1F
100
AcDbEntity
  8
躯体と製品
  6
Continuous
 62
     3
100
AcDbCircle
 10
-1081.512045987227
 20
1706.996493908599
 30
0.0
 40
0.9999999999999998
  0
CIRCLE
  5
51A2B
330
1F
100
AcDbEntity
  8
躯体と製品
  6
Continuous
 62
     3
100
AcDbCircle
 10
-1071.512045987227
 20
1706.996493908599
 30
0.0
 40
0.9999999999999998
  0
CIRCLE
  5
51A2C
330
1F
100
AcDbEntity
  8
躯体と製品
  6
Continuous
 62
     3
100
AcDbCircle
 10
-1051.512045987228
 20
1706.996493908599
 30
0.0
 40
0.9999999999999998
  0
CIRCLE
  5
51A2D
330
1F
100
AcDbEntity
  8
躯体と製品
  6
Continuous
 62
     3
100
AcDbCircle
 10
-1041.512045987227
 20
1706.996493908599
 30
0.0
 40
0.9999999999999998
  0
CIRCLE
  5
51A2E
330
1F
100
AcDbEntity
  8
躯体と製品
  6
Continuous
 62
     3
100
AcDbCircle
 10
-1031.512045987227
 20
1706.996493908599
 30
0.0
 40
0.9999999999999998
  0
CIRCLE
  5
51A2F
330
1F
100
AcDbEntity
  8
躯体と製品
  6
Continuous
 62
     3
100
AcDbCircle
 10
-1011.512045987227
 20
1714.996493908599
 30
0.0
 40
0.9999999999999998
  0
CIRCLE
  5
51A30
330
1F
100
AcDbEntity
  8
躯体と製品
  6
Continuous
 62
     3
100
AcDbCircle
 10
-979.5120459872276
 20
1714.996493908599
 30
0.0
 40
0.9999999999999998
  0
CIRCLE
  5
51A31
330
1F
100
AcDbEntity
  8
躯体と製品
  6
Continuous
 62
     3
100
AcDbCircle
 10
-969.5120459872276
 20
1714.996493908599
 30
0.0
 40
0.9999999999999998
  0
CIRCLE
  5
51A32
330
1F
100
AcDbEntity
  8
躯体と製品
  6
Continuous
 62
     3
100
AcDbCircle
 10
-949.5120459872275
 20
1714.996493908599
 30
0.0
 40
0.9999999999999998
  0
CIRCLE
  5
51A33
330
1F
100
AcDbEntity
  8
躯体と製品
  6
Continuous
 62
     3
100
AcDbCircle
 10
-1011.512045987227
 20
1706.996493908599
 30
0.0
 40
0.9999999999999998
  0
CIRCLE
  5
51A34
330
1F
100
AcDbEntity
  8
躯体と製品
  6
Continuous
 62
     3
100
AcDbCircle
 10
-969.5120459872276
 20
1706.996493908599
 30
0.0
 40
0.9999999999999998
  0
CIRCLE
  5
51A35
330
1F
100
AcDbEntity
  8
躯体と製品
  6
Continuous
 62
     3
100
AcDbCircle
 10
-959.5120459872275
 20
1706.996493908599
 30
0.0
 40
0.9999999999999998
  0
CIRCLE
  5
51A36
330
1F
100
AcDbEntity
  8
躯体と製品
  6
Continuous
 62
     3
100
AcDbCircle
 10
-949.5120459872275
 20
1706.996493908599
 30
0.0
 40
0.9999999999999998
  0
CIRCLE
  5
51A37
330
1F
100
AcDbEntity
  8
躯体と製品
  6
Continuous
 62
     3
100
AcDbCircle
 10
-909.5120459872275
 20
1714.996493908599
 30
0.0
 40
0.9999999999999998
  0
CIRCLE
  5
51A39
330
1F
100
AcDbEntity
  8
躯体と製品
  6
Continuous
 62
     3
100
AcDbCircle
 10
-869.5120459872276
 20
1714.996493908599
 30
0.0
 40
0.9999999999999998
  0
CIRCLE
  5
51A3A
330
1F
100
AcDbEntity
  8
躯体と製品
  6
Continuous
 62
     3
100
AcDbCircle
 10
-859.5120459872275
 20
1714.996493908599
 30
0.0
 40
0.9999999999999998
  0
CIRCLE
  5
51A3B
330
1F
100
AcDbEntity
  8
躯体と製品
  6
Continuous
 62
     3
100
AcDbCircle
 10
-919.5120459872276
 20
1706.996493908599
 30
0.0
 40
0.9999999999999998
  0
CIRCLE
  5
51A3C
330
1F
100
AcDbEntity
  8
躯体と製品
  6
Continuous
 62
     3
100
AcDbCircle
 10
-909.5120459872275
 20
1706.996493908599
 30
0.0
 40
0.9999999999999998
  0
CIRCLE
  5
51A3E
330
1F
100
AcDbEntity
  8
躯体と製品
  6
Continuous
 62
     3
100
AcDbCircle
 10
-879.5120459872276
 20
1706.996493908599
 30
0.0
 40
0.9999999999999998
  0
CIRCLE
  5
51A3F
330
1F
100
AcDbEntity
  8
躯体と製品
  6
Continuous
 62
     3
100
AcDbCircle
 10
-869.5120459872276
 20
1706.996493908599
 30
0.0
 40
0.9999999999999998
  0
CIRCLE
  5
51A40
330
1F
100
AcDbEntity
  8
躯体と製品
  6
Continuous
 62
     3
100
AcDbCircle
 10
-849.5120459872275
 20
1714.996493908599
 30
0.0
 40
0.9999999999999998
  0
CIRCLE
  5
51A41
330
1F
100
AcDbEntity
  8
躯体と製品
  6
Continuous
 62
     3
100
AcDbCircle
 10
-829.5120459872276
 20
1714.996493908599
 30
0.0
 40
0.9999999999999998
  0
CIRCLE
  5
51A42
330
1F
100
AcDbEntity
  8
躯体と製品
  6
Continuous
 62
     3
100
AcDbCircle
 10
-819.5120459872276
 20
1714.996493908599
 30
0.0
 40
0.9999999999999998
  0
CIRCLE
  5
51A43
330
1F
100
AcDbEntity
  8
躯体と製品
  6
Continuous
 62
     3
100
AcDbCircle
 10
-809.5120459872275
 20
1714.996493908599
 30
0.0
 40
0.9999999999999998
  0
CIRCLE
  5
51A44
330
1F
100
AcDbEntity
  8
躯体と製品
  6
Continuous
 62
     3
100
AcDbCircle
 10
-789.5120459872275
 20
1714.996493908599
 30
0.0
 40
0.9999999999999998
  0
CIRCLE
  5
51A45
330
1F
100
AcDbEntity
  8
躯体と製品
  6
Continuous
 62
     3
100
AcDbCircle
 10
-849.5120459872275
 20
1706.996493908599
 30
0.0
 40
0.9999999999999998
  0
CIRCLE
  5
51A46
330
1F
100
AcDbEntity
  8
躯体と製品
  6
Continuous
 62
     3
100
AcDbCircle
 10
-839.5120459872275
 20
1706.996493908599
 30
0.0
 40
0.9999999999999998
  0
CIRCLE
  5
51A47
330
1F
100
AcDbEntity
  8
躯体と製品
  6
Continuous
 62
     3
100
AcDbCircle
 10
-829.5120459872276
 20
1706.996493908599
 30
0.0
 40
0.9999999999999998
  0
CIRCLE
  5
51A48
330
1F
100
AcDbEntity
  8
躯体と製品
  6
Continuous
 62
     3
100
AcDbCircle
 10
-809.5120459872275
 20
1706.996493908599
 30
0.0
 40
0.9999999999999998
  0
CIRCLE
  5
51A49
330
1F
100
AcDbEntity
  8
躯体と製品
  6
Continuous
 62
     3
100
AcDbCircle
 10
-799.5120459872276
 20
1706.996493908599
 30
0.0
 40
0.9999999999999998
  0
CIRCLE
  5
51A4A
330
1F
100
AcDbEntity
  8
躯体と製品
  6
Continuous
 62
     3
100
AcDbCircle
 10
-789.5120459872275
 20
1706.996493908599
 30
0.0
 40
0.9999999999999998
  0
CIRCLE
  5
51A4B
330
1F
100
AcDbEntity
  8
躯体と製品
  6
Continuous
 62
     3
100
AcDbCircle
 10
-1066.512045987227
 20
1710.9964939086
 30
0.0
 40
0.9999999999999998
  0
CIRCLE
  5
51A4C
330
1F
100
AcDbEntity
  8
躯体と製品
  6
Continuous
 62
     3
100
AcDbCircle
 10
-1026.512045987227
 20
1710.9964939086
 30
0.0
 40
0.9999999999999998
  0
CIRCLE
  5
51A4D
330
1F
100
AcDbEntity
  8
躯体と製品
  6
Continuous
 62
     3
100
AcDbCircle
 10
-944.5120459872276
 20
1710.9964939086
 30
0.0
 40
0.9999999999999998
  0
CIRCLE
  5
51A4E
330
1F
100
AcDbEntity
  8
躯体と製品
  6
Continuous
 62
     3
100
AcDbCircle
 10
-904.5120459872276
 20
1710.9964939086
 30
0.0
 40
0.9999999999999998
  0
CIRCLE
  5
51A4F
330
1F
100
AcDbEntity
  8
躯体と製品
  6
Continuous
 62
     3
100
AcDbCircle
 10
-864.5120459872275
 20
1710.9964939086
 30
0.0
 40
0.9999999999999998
  0
CIRCLE
  5
51A50
330
1F
100
AcDbEntity
  8
躯体と製品
  6
Continuous
 62
     3
100
AcDbCircle
 10
-824.5120459872275
 20
1710.9964939086
 30
0.0
 40
0.9999999999999998
  0
CIRCLE
  5
51A51
330
1F
100
AcDbEntity
  8
躯体と製品
  6
Continuous
 62
     3
100
AcDbCircle
 10
-784.5120459872275
 20
1710.9964939086
 30
0.0
 40
0.9999999999999998
  0
CIRCLE
  5
51A52
330
1F
100
AcDbEntity
  8
躯体と製品
  6
Continuous
 62
     3
100
AcDbCircle
 10
-936.6460205834426
 20
1704.630468504815
 30
0.0
 40
0.9999999999999998
  0
CIRCLE
  5
51A53
330
1F
100
AcDbEntity
  8
躯体と製品
  6
Continuous
 62
     3
100
AcDbCircle
 10
-939.5120459872275
 20
1714.996493908599
 30
0.0
 40
0.9999999999999998
  0
CIRCLE
  5
51A54
330
1F
100
AcDbEntity
  8
躯体と製品
  6
Continuous
 62
     3
100
AcDbCircle
 10
-929.5120459872276
 20
1714.996493908599
 30
0.0
 40
0.9999999999999998
  0
CIRCLE
  5
51A55
330
1F
100
AcDbEntity
  8
躯体と製品
  6
Continuous
 62
     3
100
AcDbCircle
 10
-929.5120459872276
 20
1706.996493908599
 30
0.0
 40
0.9999999999999998
  0
LINE
  5
5215B
330
1F
100
AcDbEntity
  8
躯体と製品
  6
Continuous
 62
     3
100
AcDbLine
 10
-663.1602239898072
 20
1733.496493908601
 30
0.0
 11
-663.1602239898081
 21
1755.9964939086
 31
0.0
  0
LINE
  5
5215C
330
1F
100
AcDbEntity
  8
躯体と製品
  6
Continuous
 62
     3
100
AcDbLine
 10
-665.6602239898082
 20
1733.496493908599
 30
0.0
 11
-665.6602239898082
 21
1755.4964939086
 31
0.0
  0
LINE
  5
5215D
330
1F
100
AcDbEntity
  8
躯体と製品
  6
Continuous
 62
     3
100
AcDbLine
 10
-665.6602239898082
 20
1755.4964939086
 30
0.0
 11
-666.160223989809
 21
1758.496493908599
 31
0.0
  0
LINE
  5
5215E
330
1F
100
AcDbEntity
  8
躯体と製品
  6
Continuous
 62
     3
100
AcDbLine
 10
-658.1243256049463
 20
1758.496493908601
 30
0.0
 11
-666.160223989809
 21
1758.496493908601
 31
0.0
  0
LINE
  5
5215F
330
1F
100
AcDbEntity
  8
躯体と製品
  6
Continuous
 62
     3
100
AcDbLine
 10
-665.6602239898082
 20
1733.496493908599
 30
0.0
 11
-663.1602239898072
 21
1733.496493908601
 31
0.0
  0
LINE
  5
52160
330
1F
100
AcDbEntity
  8
躯体と製品
  6
Continuous
 62
     3
100
AcDbLine
 10
-654.6602239898081
 20
1756.496493908599
 30
0.0
 11
-654.6602239898081
 21
1755.9964939086
 31
0.0
  0
LINE
  5
52161
330
1F
100
AcDbEntity
  8
躯体と製品
  6
Continuous
 62
     3
100
AcDbLine
 10
-654.6602239898081
 20
1755.9964939086
 30
0.0
 11
-663.1602239898081
 21
1755.9964939086
 31
0.0
  0
ARC
  5
52162
330
1F
100
AcDbEntity
  8
躯体と製品
  6
Continuous
 62
     3
100
AcDbCircle
 10
-658.1243256049463
 20
1754.4964939086
 30
0.0
 40
3.999999999999999
100
AcDbArc
 50
30.00000000000663
 51
90.0
  0
TEXT
  5
5216B
330
1F
100
AcDbEntity
  8
文字-記号
 62
     7
100
AcDbText
 10
-1139.796769723953
 20
1632.944571429699
 30
0.0
 40
9.0
  1
クッションＬＣＢＢゴム
100
AcDbText
  0
LWPOLYLINE
  5
5216C
330
1F
100
AcDbEntity
  8
文字-記号
 62
     7
100
AcDbPolyline
 90
        3
 70
     0
 43
0.0
 10
-1013.354017321546
 20
1616.153677782234
 10
-1020.719375286144
 20
1628.910851992852
 10
-1140.674056888504
 20
1628.910851992852
  0
LINE
  5
5248B
330
1F
100
AcDbEntity
  8
躯体と製品
  6
Continuous
 62
     4
100
AcDbLine
 10
-484.2052433418855
 20
1755.9964939086
 30
0.0
 11
-661.1602239898082
 21
1755.9964939086
 31
0.0
  0
LINE
  5
5248C
330
1F
100
AcDbEntity
  8
躯体と製品
  6
Continuous
 62
     4
100
AcDbLine
 10
-465.7300347278185
 20
1723.9964939086
 30
0.0
 11
-651.1602239898081
 21
1723.9964939086
 31
0.0
  0
LINE
  5
5248D
330
1F
100
AcDbEntity
  8
躯体と製品
  6
Continuous
 62
     4
100
AcDbLine
 10
-477.2770401116111
 20
1743.996493908599
 30
0.0
 11
-661.1602239898082
 21
1743.996493908599
 31
0.0
  0
LINE
  5
5248E
330
1F
100
AcDbEntity
  8
躯体と製品
  6
Continuous
 62
     4
100
AcDbLine
 10
-171.6519724381639
 20
1605.996493908599
 30
0.0
 11
-1088.944528128663
 21
1605.9964939086
 31
0.0
  0
LINE
  5
524B7
330
1F
100
AcDbEntity
  8
躯体と製品
  6
Continuous
 62
     4
100
AcDbLine
 10
-924.6179358442866
 20
1760.06754448981
 30
0.0
 11
-886.902142474458
 21
1694.741874125501
 31
0.0
  0
LINE
  5
524B8
330
1F
100
AcDbEntity
  8
躯体と製品
  6
Continuous
 62
     4
100
AcDbLine
 10
-919.6179358442867
 20
1760.06754448981
 30
0.0
 11
-881.902142474458
 21
1694.741874125501
 31
0.0
  0
LINE
  5
524B9
330
1F
100
AcDbEntity
  8
躯体と製品
  6
Continuous
 62
     4
100
AcDbLine
 10
-781.1602239899218
 20
1698.04785604759
 30
0.0
 11
-778.2115861289128
 21
1700.996493908606
 31
0.0
1001
GradientColor1ACI
1070
     5
1001
GradientColor2ACI
1070
     2
1001
ACAD
1010
0.0
1020
0.0
1030
0.0
  0
LINE
  5
524BA
330
1F
100
AcDbEntity
  8
躯体と製品
  6
Continuous
 62
     4
100
AcDbLine
 10
-781.1602239899291
 20
1693.557727987049
 30
0.0
 11
-773.7214580683792
 21
1700.996493908598
 31
0.0
1001
GradientColor1ACI
1070
     5
1001
GradientColor2ACI
1070
     2
1001
ACAD
1010
0.0
1020
0.0
1030
0.0
  0
LINE
  5
524BB
330
1F
100
AcDbEntity
  8
躯体と製品
  6
Continuous
 62
     4
100
AcDbLine
 10
-781.1602239899218
 20
1689.067599926518
 30
0.0
 11
-769.2313300078455
 21
1700.996493908602
 31
0.0
1001
GradientColor1ACI
1070
     5
1001
GradientColor2ACI
1070
     2
1001
ACAD
1010
0.0
1020
0.0
1030
0.0
  0
LINE
  5
524BC
330
1F
100
AcDbEntity
  8
躯体と製品
  6
Continuous
 62
     4
100
AcDbLine
 10
-781.1602239899291
 20
1684.577471865981
 30
0.0
 11
-766.1602239899291
 21
1699.577471865981
 31
0.0
1001
GradientColor1ACI
1070
     5
1001
GradientColor2ACI
1070
     2
1001
ACAD
1010
0.0
1020
0.0
1030
0.0
  0
LINE
  5
524BD
330
1F
100
AcDbEntity
  8
躯体と製品
  6
Continuous
 62
     4
100
AcDbLine
 10
-781.1602239899291
 20
1680.087343805444
 30
0.0
 11
-766.1602239899218
 21
1695.087343805451
 31
0.0
1001
GradientColor1ACI
1070
     5
1001
GradientColor2ACI
1070
     2
1001
ACAD
1010
0.0
1020
0.0
1030
0.0
  0
LINE
  5
524BE
330
1F
100
AcDbEntity
  8
躯体と製品
  6
Continuous
 62
     4
100
AcDbLine
 10
-781.1602239899218
 20
1675.597215744914
 30
0.0
 11
-766.1602239899218
 21
1690.597215744914
 31
0.0
1001
GradientColor1ACI
1070
     5
1001
GradientColor2ACI
1070
     2
1001
ACAD
1010
0.0
1020
0.0
1030
0.0
  0
LINE
  5
524BF
330
1F
100
AcDbEntity
  8
躯体と製品
  6
Continuous
 62
     4
100
AcDbLine
 10
-781.1602239899291
 20
1671.107087684373
 30
0.0
 11
-766.1602239899291
 21
1686.107087684373
 31
0.0
1001
GradientColor1ACI
1070
     5
1001
GradientColor2ACI
1070
     2
1001
ACAD
1010
0.0
1020
0.0
1030
0.0
  0
LINE
  5
524C0
330
1F
100
AcDbEntity
  8
躯体と製品
  6
Continuous
 62
     4
100
AcDbLine
 10
-776.7806897051776
 20
1670.996493908599
 30
0.0
 11
-766.1602239899364
 21
1681.616959623847
 31
0.0
1001
GradientColor1ACI
1070
     5
1001
GradientColor2ACI
1070
     2
1001
ACAD
1010
0.0
1020
0.0
1030
0.0
  0
LINE
  5
524C1
330
1F
100
AcDbEntity
  8
躯体と製品
  6
Continuous
 62
     4
100
AcDbLine
 10
-772.2905616446439
 20
1670.996493908599
 30
0.0
 11
-766.1602239899291
 21
1677.126831563313
 31
0.0
1001
GradientColor1ACI
1070
     5
1001
GradientColor2ACI
1070
     2
1001
ACAD
1010
0.0
1020
0.0
1030
0.0
  0
LINE
  5
524C2
330
1F
100
AcDbEntity
  8
躯体と製品
  6
Continuous
 62
     4
100
AcDbLine
 10
-767.8004335841031
 20
1670.996493908595
 30
0.0
 11
-766.1602239899218
 21
1672.636703502776
 31
0.0
1001
GradientColor1ACI
1070
     5
1001
GradientColor2ACI
1070
     2
1001
ACAD
1010
0.0
1020
0.0
1030
0.0
  0
LINE
  5
524C3
330
1F
100
AcDbEntity
  8
躯体と製品
  6
Continuous
 62
     4
100
AcDbLine
 10
-781.1602239899245
 20
1670.996493908599
 30
0.0
 11
-766.1602239899245
 21
1670.996493908599
 31
0.0
  0
LINE
  5
524C4
330
1F
100
AcDbEntity
  8
躯体と製品
  6
Continuous
 62
     4
100
AcDbLine
 10
-766.1602239899245
 20
1670.996493908599
 30
0.0
 11
-766.1602239899245
 21
1700.9964939086
 31
0.0
  0
LINE
  5
524C5
330
1F
100
AcDbEntity
  8
躯体と製品
  6
Continuous
 62
     4
100
AcDbLine
 10
-766.1602239899245
 20
1700.9964939086
 30
0.0
 11
-781.1602239899245
 21
1700.9964939086
 31
0.0
  0
LINE
  5
524C6
330
1F
100
AcDbEntity
  8
躯体と製品
  6
Continuous
 62
     4
100
AcDbLine
 10
-781.1602239899245
 20
1700.9964939086
 30
0.0
 11
-781.1602239899245
 21
1670.996493908599
 31
0.0
  0
LINE
  5
524C7
330
1F
100
AcDbEntity
  8
躯体と製品
  6
Continuous
 62
     4
100
AcDbLine
 10
-666.1602239898054
 20
1721.04785604759
 30
0.0
 11
-663.2115861287964
 21
1723.996493908598
 31
0.0
1001
GradientColor1ACI
1070
     5
1001
GradientColor2ACI
1070
     2
1001
ACAD
1010
0.0
1020
0.0
1030
0.0
  0
LINE
  5
524C8
330
1F
100
AcDbEntity
  8
躯体と製品
  6
Continuous
 62
     4
100
AcDbLine
 10
-666.1602239898054
 20
1716.557727987056
 30
0.0
 11
-658.72145806827
 21
1723.996493908598
 31
0.0
1001
GradientColor1ACI
1070
     5
1001
GradientColor2ACI
1070
     2
1001
ACAD
1010
0.0
1020
0.0
1030
0.0
  0
LINE
  5
524C9
330
1F
100
AcDbEntity
  8
躯体と製品
  6
Continuous
 62
     4
100
AcDbLine
 10
-666.1602239898054
 20
1712.067599926519
 30
0.0
 11
-654.2313300077291
 21
1723.996493908595
 31
0.0
1001
GradientColor1ACI
1070
     5
1001
GradientColor2ACI
1070
     2
1001
ACAD
1010
0.0
1020
0.0
1030
0.0
  0
LINE
  5
524CA
330
1F
100
AcDbEntity
  8
躯体と製品
  6
Continuous
 62
     4
100
AcDbLine
 10
-666.1602239898127
 20
1707.577471865981
 30
0.0
 11
-651.1602239898127
 21
1722.577471865982
 31
0.0
1001
GradientColor1ACI
1070
     5
1001
GradientColor2ACI
1070
     2
1001
ACAD
1010
0.0
1020
0.0
1030
0.0
  0
LINE
  5
524CB
330
1F
100
AcDbEntity
  8
躯体と製品
  6
Continuous
 62
     4
100
AcDbLine
 10
-666.1602239898054
 20
1703.087343805451
 30
0.0
 11
-651.1602239898054
 21
1718.087343805451
 31
0.0
1001
GradientColor1ACI
1070
     5
1001
GradientColor2ACI
1070
     2
1001
ACAD
1010
0.0
1020
0.0
1030
0.0
  0
LINE
  5
524CC
330
1F
100
AcDbEntity
  8
躯体と製品
  6
Continuous
 62
     4
100
AcDbLine
 10
-666.1602239898054
 20
1698.597215744914
 30
0.0
 11
-651.1602239898054
 21
1713.597215744914
 31
0.0
1001
GradientColor1ACI
1070
     5
1001
GradientColor2ACI
1070
     2
1001
ACAD
1010
0.0
1020
0.0
1030
0.0
  0
LINE
  5
524CD
330
1F
100
AcDbEntity
  8
躯体と製品
  6
Continuous
 62
     4
100
AcDbLine
 10
-666.1602239898127
 20
1694.107087684373
 30
0.0
 11
-651.1602239898127
 21
1709.107087684373
 31
0.0
1001
GradientColor1ACI
1070
     5
1001
GradientColor2ACI
1070
     2
1001
ACAD
1010
0.0
1020
0.0
1030
0.0
  0
LINE
  5
524CE
330
1F
100
AcDbEntity
  8
躯体と製品
  6
Continuous
 62
     4
100
AcDbLine
 10
-661.7806897050611
 20
1693.996493908599
 30
0.0
 11
-651.1602239898199
 21
1704.616959623847
 31
0.0
1001
GradientColor1ACI
1070
     5
1001
GradientColor2ACI
1070
     2
1001
ACAD
1010
0.0
1020
0.0
1030
0.0
  0
LINE
  5
524CF
330
1F
100
AcDbEntity
  8
躯体と製品
  6
Continuous
 62
     4
100
AcDbLine
 10
-657.2905616445275
 20
1693.996493908599
 30
0.0
 11
-651.1602239898127
 21
1700.126831563314
 31
0.0
1001
GradientColor1ACI
1070
     5
1001
GradientColor2ACI
1070
     2
1001
ACAD
1010
0.0
1020
0.0
1030
0.0
  0
LINE
  5
524D0
330
1F
100
AcDbEntity
  8
躯体と製品
  6
Continuous
 62
     4
100
AcDbLine
 10
-652.8004335839867
 20
1693.996493908595
 30
0.0
 11
-651.1602239898054
 21
1695.636703502776
 31
0.0
1001
GradientColor1ACI
1070
     5
1001
GradientColor2ACI
1070
     2
1001
ACAD
1010
0.0
1020
0.0
1030
0.0
  0
LINE
  5
524D1
330
1F
100
AcDbEntity
  8
躯体と製品
  6
Continuous
 62
     4
100
AcDbLine
 10
-666.1602239898082
 20
1693.996493908599
 30
0.0
 11
-651.1602239898081
 21
1693.996493908599
 31
0.0
  0
LINE
  5
524D2
330
1F
100
AcDbEntity
  8
躯体と製品
  6
Continuous
 62
     4
100
AcDbLine
 10
-651.1602239898081
 20
1693.996493908599
 30
0.0
 11
-651.1602239898081
 21
1723.9964939086
 31
0.0
  0
LINE
  5
524D3
330
1F
100
AcDbEntity
  8
躯体と製品
  6
Continuous
 62
     4
100
AcDbLine
 10
-651.1602239898081
 20
1723.9964939086
 30
0.0
 11
-666.1602239898082
 21
1723.9964939086
 31
0.0
  0
LINE
  5
524D4
330
1F
100
AcDbEntity
  8
躯体と製品
  6
Continuous
 62
     4
100
AcDbLine
 10
-666.1602239898082
 20
1723.9964939086
 30
0.0
 11
-666.1602239898082
 21
1693.996493908599
 31
0.0
  0
LINE
  5
524D5
330
1F
100
AcDbEntity
  8
躯体と製品
  6
Continuous
 62
     4
100
AcDbLine
 10
-661.1602239898082
 20
1743.996493908599
 30
0.0
 11
-661.1602239898082
 21
1755.9964939086
 31
0.0
  0
LINE
  5
524D6
330
1F
100
AcDbEntity
  8
躯体と製品
  6
Continuous
 62
     4
100
AcDbLine
 10
-651.1602239898081
 20
1723.9964939086
 30
0.0
 11
-651.1602239898081
 21
1743.996493908599
 31
0.0
  0
LINE
  5
52501
330
1F
100
AcDbEntity
  8
躯体と製品
  6
Continuous
 62
     4
100
AcDbLine
 10
-479.2052433418855
 20
1755.9964939086
 30
0.0
 11
-171.6519724381639
 21
1755.9964939086
 31
0.0
  0
LINE
  5
52502
330
1F
100
AcDbEntity
  8
躯体と製品
  6
Continuous
 62
     4
100
AcDbLine
 10
-460.7300347278185
 20
1723.9964939086
 30
0.0
 11
-171.6519724381639
 21
1723.9964939086
 31
0.0
  0
LINE
  5
52503
330
1F
100
AcDbEntity
  8
躯体と製品
  6
Continuous
 62
     4
100
AcDbLine
 10
-472.277040111611
 20
1743.996493908599
 30
0.0
 11
-171.6519724381639
 21
1743.996493908599
 31
0.0
  0
LINE
  5
52504
330
1F
100
AcDbEntity
  8
躯体と製品
  6
Continuous
 62
     4
100
AcDbLine
 10
-481.555665490833
 20
1760.06754448981
 30
0.0
 11
-458.379612578871
 21
1719.925443327389
 31
0.0
  0
LINE
  5
52505
330
1F
100
AcDbEntity
  8
躯体と製品
  6
Continuous
 62
     4
100
AcDbLine
 10
-486.555665490833
 20
1760.06754448981
 30
0.0
 11
-463.379612578871
 21
1719.925443327389
 31
0.0
  0
LWPOLYLINE
  5
52705
330
1F
100
AcDbEntity
  8
文字-記号
 62
     7
100
AcDbPolyline
 90
        3
 70
     0
 43
0.0
 10
-662.1422747973777
 20
1758.496493908601
 10
-646.0447844927732
 20
1786.378164990522
 10
-590.278088870421
 20
1786.378164990522
  0
TEXT
  5
52706
330
1F
100
AcDbEntity
  8
文字-記号
 62
     7
100
AcDbText
 10
-643.1630681797362
 20
1789.73017183374
 30
0.0
 40
9.0
  1
オプション
100
AcDbText
  0
CIRCLE
  5
52817
330
1F
100
AcDbEntity
  8
躯体と製品
  6
Continuous
 62
     3
100
AcDbCircle
 10
-886.5821062441634
 20
1710.9964939086
 30
0.0
 40
0.9999999999999998
  0
ENDSEC
  0
SECTION
  2
OBJECTS
  0
DICTIONARY
  5
C
330
0
100
AcDbDictionary
281
     1
  3
ACAD_2007HEADERVARS_RT
350
52A8A
  3
ACAD_BACKGROUND
350
522E8
  3
ACAD_CIP_PREVIOUS_PRODUCT_INFO
350
4BCB7
  3
ACAD_COLOR
350
22756
  3
ACAD_GROUP
350
D
  3
ACAD_LAYOUT
350
1A
  3
ACAD_MATERIAL
350
2272C
  3
ACAD_MLEADERSTYLE
350
2276B
  3
ACAD_MLINESTYLE
350
17
  3
ACAD_PLOTSETTINGS
350
19
  3
ACAD_PLOTSTYLENAME
350
E
  3
ACAD_SCALELIST
350
22759
  3
ACAD_TABLESTYLE
350
22757
  3
ACAD_VISUALSTYLE
350
22745
  3
ACDB_RECOMPOSE_DATA
350
52A89
  3
AcDbVariableDictionary
350
173D
  3
AEC_PROPERTY_SET_DEFS
350
2284D
  3
ASE_INDEX_DICTIONARY
350
22728
  0
DICTIONARY
  5
52616
330
8
100
AcDbDictionary
280
     1
281
     1
  0
DICTIONARY
  5
1562
330
2
100
AcDbDictionary
280
     1
281
     1
  3
ACAD_LAYERFILTERS
360
1574
  3
ACAD_LAYERSTATES
360
1563
  0
DICTIONARY
  5
22778
330
10
100
AcDbDictionary
280
     1
281
     1
  3
ADSK_XREC_LAYER_RECONCILED
360
5259A
  0
DICTIONARY
  5
4BDA6
330
4BDA5
100
AcDbDictionary
280
     1
281
     1
  3
ADSK_XREC_LAYER_RECONCILED
360
5259E
  0
DICTIONARY
  5
4BDA8
330
4BDA7
100
AcDbDictionary
280
     1
281
     1
  3
ADSK_XREC_LAYER_RECONCILED
360
5259F
  0
DICTIONARY
  5
4BDAA
330
4BDA9
100
AcDbDictionary
280
     1
281
     1
  3
ADSK_XREC_LAYER_RECONCILED
360
525A0
  0
DICTIONARY
  5
525A1
330
4BDAB
100
AcDbDictionary
280
     1
281
     1
  3
ADSK_XREC_LAYER_RECONCILED
360
525A2
  0
DICTIONARY
  5
3662
330
1F
100
AcDbDictionary
280
     1
281
     1
  3
ACAD_LAYOUTSELFREF
360
36B2
  3
ACAD_SORTENTS
360
23806
  0
DICTIONARY
  5
52A8A
102
{ACAD_REACTORS
330
C
102
}
330
C
100
AcDbDictionary
281
     1
  3
DIMTFILL
350
52A8B
  3
INTERFEREVPVS
350
52A8C
  0
DICTIONARY
  5
522E8
102
{ACAD_REACTORS
330
C
102
}
330
C
100
AcDbDictionary
281
     1
  0
XRECORD
  5
4BCB7
102
{ACAD_REACTORS
330
C
102
}
330
C
100
AcDbXrecord
280
     1
300
ACD
300
2012
300
ACD_F_S
  0
DICTIONARY
  5
22756
102
{ACAD_REACTORS
330
C
102
}
330
C
100
AcDbDictionary
281
     1
  0
DICTIONARY
  5
D
102
{ACAD_REACTORS
330
C
102
}
330
C
100
AcDbDictionary
281
     1
  0
DICTIONARY
  5
1A
102
{ACAD_REACTORS
330
C
102
}
330
C
100
AcDbDictionary
281
     1
  3
Model
350
22
  3
レイアウト1
350
525BB
  0
DICTIONARY
  5
2272C
102
{ACAD_REACTORS
330
C
102
}
330
C
100
AcDbDictionary
281
     1
  3
ByBlock
350
22735
  3
ByLayer
350
2272D
  3
Global
350
2273D
  0
DICTIONARY
  5
2276B
102
{ACAD_REACTORS
330
C
102
}
330
C
100
AcDbDictionary
281
     1
  3
Standard
350
2276C
  0
DICTIONARY
  5
17
102
{ACAD_REACTORS
330
C
102
}
330
C
100
AcDbDictionary
281
     1
  3
Standard
350
18
  0
DICTIONARY
  5
19
102
{ACAD_REACTORS
330
C
102
}
330
C
100
AcDbDictionary
281
     1
  3
A1横-DocuWide 2051 MF-RT
350
2288E
  3
A1横-PDF_COR
350
4BB79
  3
A1横-PDF_MONO
350
4BB70
  3
A2横-DocuWide 2051 MF-RT
350
228A9
  3
A3横-DocuCentre C4535Ⅰ②
350
2883A
  3
A3横-DocuCentre C4535Ⅰ②_cor
350
4BB56
  3
A4横-DocuCentre C4535Ⅰ②
350
228B2
  3
A4横-DocuCentre C4535Ⅰ②_cor
350
4BB5F
  0
ACDBDICTIONARYWDFLT
  5
E
102
{ACAD_REACTORS
330
C
102
}
330
C
100
AcDbDictionary
281
     1
  3
Normal
350
F
100
AcDbDictionaryWithDefault
340
F
  0
DICTIONARY
  5
22759
102
{ACAD_REACTORS
330
C
102
}
330
C
100
AcDbDictionary
281
     1
  3
A0
350
2275A
  3
A1
350
22924
  3
A2
350
22925
  3
A3
350
22926
  3
A4
350
22927
  3
A5
350
22928
  3
A6
350
22929
  3
A7
350
2292A
  3
A8
350
2292B
  3
A9
350
2292C
  3
B0
350
2292D
  3
B1
350
2292E
  3
B2
350
2292F
  3
B3
350
22930
  3
B4
350
22931
  3
B5
350
22765
  3
B6
350
22932
  3
B7
350
22933
  3
B8
350
22934
  3
B9
350
22935
  3
C0
350
22936
  0
DICTIONARY
  5
22757
102
{ACAD_REACTORS
330
C
102
}
330
C
100
AcDbDictionary
281
     1
  3
Standard
350
22758
  0
DICTIONARY
  5
22745
102
{ACAD_REACTORS
330
C
102
}
330
C
100
AcDbDictionary
281
     1
  3
2dWireframe
350
2274B
  3
3D Hidden
350
2274D
  3
3dWireframe
350
2274C
  3
Basic
350
2274A
  3
Brighten
350
22751
  3
ColorChange
350
22755
  3
Conceptual
350
2274E
  3
Dim
350
22750
  3
EdgeColorOff
350
22A03
  3
Facepattern
350
22754
  3
Flat
350
22746
  3
FlatWithEdges
350
22747
  3
Gouraud
350
22748
  3
GouraudWithEdges
350
22749
  3
Hidden
350
229FB
  3
JitterOff
350
22A01
  3
Linepattern
350
22753
  3
OverhangOff
350
22A02
  3
Realistic
350
2274F
  3
Shaded
350
22A00
  3
Shaded with edges
350
229FF
  3
Shades of Gray
350
229FC
  3
Sketchy
350
229FD
  3
Thicken
350
22752
  3
Wireframe
350
229FA
  3
X-Ray
350
229FE
  0
XRECORD
  5
52A89
102
{ACAD_REACTORS
330
C
102
}
330
C
100
AcDbXrecord
280
     1
 90
        1
330
22758
  0
DICTIONARY
  5
173D
102
{ACAD_REACTORS
330
C
102
}
330
C
100
AcDbDictionary
281
     1
  3
CANNOSCALE
350
22809
  3
CMLEADERSTYLE
350
22807
  3
CTABLESTYLE
350
22806
  3
LAYEREVAL
350
2280B
  3
LAYERNOTIFY
350
2280C
  3
LIGHTINGUNITS
350
2280A
  3
MSLTSCALE
350
22808
  3
SOLIDHIST
350
52650
  3
SORTENTS
350
173E
  0
DICTIONARY
  5
2284D
102
{ACAD_REACTORS
330
C
102
}
330
C
100
AcDbDictionary
281
     1
  0
DICTIONARY
  5
22728
102
{ACAD_REACTORS
330
C
102
}
330
C
100
AcDbDictionary
281
     1
  3
ASEBlockHierarchyIndexRecord
350
2272A
1001
DCO15
1040
1596433040.279
  0
DICTIONARY
  5
1574
102
{ACAD_REACTORS
330
1562
102
}
330
1562
100
AcDbDictionary
280
     1
281
     1
  0
DICTIONARY
  5
1563
102
{ACAD_REACTORS
330
1562
102
}
330
1562
100
AcDbDictionary
281
     1
  3
床画層-1
350
1606
  0
XRECORD
  5
5259A
102
{ACAD_REACTORS
330
22778
102
}
330
22778
100
AcDbXrecord
280
     1
290
     1
  0
XRECORD
  5
5259E
102
{ACAD_REACTORS
330
4BDA6
102
}
330
4BDA6
100
AcDbXrecord
280
     1
290
     1
  0
XRECORD
  5
5259F
102
{ACAD_REACTORS
330
4BDA8
102
}
330
4BDA8
100
AcDbXrecord
280
     1
290
     1
  0
XRECORD
  5
525A0
102
{ACAD_REACTORS
330
4BDAA
102
}
330
4BDAA
100
AcDbXrecord
280
     1
290
     1
  0
XRECORD
  5
525A2
102
{ACAD_REACTORS
330
525A1
102
}
330
525A1
100
AcDbXrecord
280
     1
290
     1
  0
XRECORD
  5
36B2
102
{ACAD_REACTORS
330
3662
102
}
330
3662
100
AcDbXrecord
280
     1
340
1F
  0
SORTENTSTABLE
  5
23806
102
{ACAD_REACTORS
330
3662
102
}
330
3662
100
AcDbSortentsTable
330
1F
331
516E8
  5
518D8
331
51674
  5
51862
331
51693
  5
51881
331
516B2
  5
518A0
331
516D1
  5
518BF
331
51656
  5
51838
331
51637
  5
5181A
331
516E9
  5
518D9
331
51708
  5
518F8
331
51675
  5
51863
331
51694
  5
51882
331
516B3
  5
518A1
331
516D2
  5
518C0
331
51657
  5
51839
331
516EA
  5
518DA
331
51709
  5
518F9
331
51676
  5
51864
331
51695
  5
51883
331
516B4
  5
518A2
331
516D3
  5
518C1
331
516EB
  5
518DB
331
5170A
  5
518FA
331
518C1
  5
51ACB
331
518E0
  5
51AEA
331
51677
  5
51865
331
51696
  5
51884
331
516B5
  5
518A3
331
516D4
  5
518C2
331
516EC
  5
518DC
331
5170B
  5
518FB
331
51918
  5
51B2E
331
51678
  5
51866
331
51697
  5
51885
331
516B6
  5
518A4
331
516D5
  5
518C3
331
516ED
  5
518DD
331
5170C
  5
518FC
331
51919
  5
51B2F
331
51938
  5
51B4E
331
51679
  5
51867
331
51698
  5
51886
331
516B7
  5
518A5
331
516D6
  5
518C4
331
51958
  5
51B6E
331
5191A
  5
51B30
331
516EE
  5
518DE
331
5170D
  5
518FD
331
518C4
  5
51ACE
331
51939
  5
51B4F
331
5167A
  5
51868
331
51699
  5
51887
331
516B8
  5
518A6
331
516D7
  5
518C5
331
51959
  5
51B6F
331
5191B
  5
51B31
331
518C5
  5
51ACF
331
5193A
  5
51B50
331
51A18
  5
51C33
331
516D8
  5
518C6
331
5167B
  5
51869
331
5169A
  5
51888
331
516B9
  5
518A7
331
516EF
  5
518DF
331
5170E
  5
518FE
331
51A30
  5
51C4B
331
5195A
  5
51B70
331
5191C
  5
51B32
331
518C6
  5
51AD0
331
5193B
  5
51B51
331
51A19
  5
51C34
331
516D9
  5
518C7
331
5167C
  5
5186A
331
5169B
  5
51889
331
516BA
  5
518A8
331
516F0
  5
518E0
331
5170F
  5
518FF
331
51A31
  5
51C4C
331
51A50
  5
51C72
331
5191D
  5
51B33
331
518C7
  5
51AD1
331
5193C
  5
51B52
331
5195B
  5
51B71
331
51A1A
  5
51C35
331
516DA
  5
518C8
331
5167D
  5
5186B
331
5169C
  5
5188A
331
516BB
  5
518A9
331
516F1
  5
518E1
331
51710
  5
51900
331
51A51
  5
51C73
331
51A32
  5
51C4E
331
5195C
  5
51B72
331
5191E
  5
51B34
331
518C8
  5
51AD2
331
5193D
  5
51B53
331
51A1B
  5
51C36
331
516DB
  5
518C9
331
5167E
  5
5186C
331
5169D
  5
5188B
331
516BC
  5
518AA
331
516F2
  5
518E2
331
51711
  5
51901
331
524C0
  5
5184D
331
51A52
  5
51C74
331
5195D
  5
51B73
331
5191F
  5
51B35
331
518C9
  5
51AD3
331
5193E
  5
51B54
331
51A1C
  5
51C37
331
516DC
  5
518CA
331
5167F
  5
5186D
331
5169E
  5
5188C
331
516BD
  5
518AB
331
516F3
  5
518E3
331
51712
  5
51902
331
51A33
  5
51C4F
331
524C1
  5
5184E
331
51A53
  5
51C75
331
5195E
  5
51B74
331
51920
  5
51B36
331
518CA
  5
51AD4
331
5193F
  5
51B55
331
51A1D
  5
51C38
331
516DD
  5
518CB
331
51680
  5
5186E
331
5169F
  5
5188D
331
516BE
  5
518AC
331
516F4
  5
518E4
331
51713
  5
51903
331
51A34
  5
51C50
331
524C2
  5
5184F
331
51A54
  5
51C76
331
51940
  5
51B56
331
51921
  5
51B37
331
518CB
  5
51AD5
331
5190A
  5
51B20
331
5195F
  5
51B75
331
51A1E
  5
51C39
331
516DE
  5
518CC
331
51681
  5
5186F
331
516A0
  5
5188E
331
516BF
  5
518AD
331
516F5
  5
518E5
331
51714
  5
51905
331
51A35
  5
51C51
331
524C3
  5
51850
331
51A55
  5
51C77
331
51941
  5
51B57
331
51922
  5
51B38
331
51960
  5
51B76
331
518CC
  5
51AD6
331
5190B
  5
51B21
331
51A1F
  5
51C3A
331
516C0
  5
518AE
331
516DF
  5
518CF
331
51682
  5
51870
331
516A1
  5
5188F
331
516F6
  5
518E6
331
51715
  5
51906
331
51A36
  5
51C52
331
524C4
  5
51851
331
51961
  5
51B77
331
51942
  5
51B58
331
51923
  5
51B39
331
518CD
  5
51AD7
331
5190C
  5
51B22
331
51A20
  5
51C3B
331
516C1
  5
518AF
331
516E0
  5
518D0
331
51683
  5
51871
331
516A2
  5
51890
331
516F7
  5
518E7
331
51716
  5
51907
331
51A37
  5
51C53
331
524C5
  5
51852
331
51962
  5
51B78
331
51943
  5
51B59
331
51924
  5
51B3A
331
518CE
  5
51AD8
331
5190D
  5
51B23
331
51A21
  5
51C3C
331
516C2
  5
518B0
331
516E1
  5
518D1
331
51684
  5
51872
331
516A3
  5
51891
331
516F8
  5
518E8
331
51717
  5
51908
331
524C6
  5
51853
331
51963
  5
51B79
331
51925
  5
51B3B
331
51944
  5
51B5A
331
518CF
  5
51AD9
331
5190E
  5
51B24
331
51A22
  5
51C3D
331
516C3
  5
518B1
331
516E2
  5
518D2
331
51685
  5
51873
331
516A4
  5
51892
331
516F9
  5
518E9
331
51718
  5
51909
331
51A39
  5
51C55
331
514D6
  5
5168C
331
524C7
  5
51754
331
51945
  5
51B5B
331
51926
  5
51B3C
331
51964
  5
51B7A
331
5190F
  5
51B25
331
51A23
  5
51C3E
331
516C4
  5
518B2
331
516E3
  5
518D3
331
51686
  5
51874
331
516A5
  5
51893
331
516FA
  5
518EA
331
51719
  5
5190A
331
51A3A
  5
51C56
331
514D7
  5
5168D
331
524C8
  5
51755
331
51965
  5
51B7B
331
51946
  5
51B5C
331
51927
  5
51B3D
331
51910
  5
51B26
331
51A24
  5
51C3F
331
516C5
  5
518B3
331
516E4
  5
518D4
331
51687
  5
51875
331
516A6
  5
51894
331
516FB
  5
518EB
331
5171A
  5
5190B
331
51A3B
  5
51C57
331
514D8
  5
5168E
331
524C9
  5
51756
331
5215B
  5
52588
331
51966
  5
51B7C
331
51947
  5
51B5D
331
51928
  5
51B3E
331
51911
  5
51B27
331
51A25
  5
51C40
331
516C6
  5
518B4
331
516E5
  5
518D5
331
51688
  5
51876
331
516A7
  5
51895
331
516FC
  5
518EC
331
5171B
  5
5190C
331
51A3C
  5
51C59
331
514D9
  5
5168F
331
5248B
  5
51743
331
524CA
  5
51757
331
5215C
  5
52589
331
51967
  5
51B7D
331
51948
  5
51B5E
331
51929
  5
51B3F
331
51912
  5
51B28
331
51A26
  5
51C41
331
516C7
  5
518B5
331
516E6
  5
518D6
331
51689
  5
51877
331
516A8
  5
51896
331
516FD
  5
518ED
331
5171C
  5
5190D
331
514DA
  5
51690
331
5248C
  5
51744
331
524CB
  5
51758
331
5215D
  5
5258A
331
51968
  5
51B7E
331
5192A
  5
51B40
331
51949
  5
51B5F
331
51913
  5
51B29
331
51A27
  5
51C42
331
516C8
  5
518B6
331
516E7
  5
518D7
331
5168A
  5
51878
331
516A9
  5
51897
331
516FE
  5
518EE
331
5171D
  5
5190E
331
51A3E
  5
51C5B
331
514DB
  5
51691
331
5248D
  5
51748
331
524CC
  5
51759
331
5215E
  5
5258B
331
5194A
  5
51B60
331
5192B
  5
51B41
331
518D5
  5
51ADF
331
51914
  5
51B2A
331
51A28
  5
51C43
331
516C9
  5
518B7
331
5168B
  5
51879
331
516AA
  5
51898
331
516FF
  5
518EF
331
51A3F
  5
51C5D
331
514DC
  5
51692
331
524CD
  5
5175A
331
5248E
  5
5180D
331
5215F
  5
5258C
331
51A29
  5
51C44
331
51A40
  5
51C5F
331
5194B
  5
51B61
331
516CA
  5
518B8
331
5168C
  5
5187A
331
516AB
  5
51899
331
51700
  5
518F0
331
518D6
  5
51AE0
331
51915
  5
51B2B
331
5192C
  5
51B42
331
514DD
  5
51693
331
51508
  5
516C5
331
52160
  5
5258D
331
524CE
  5
5175B
331
51A2A
  5
51C45
331
51A41
  5
51C60
331
5194C
  5
51B62
331
516CB
  5
518B9
331
5168D
  5
5187B
331
516AC
  5
5189A
331
51701
  5
518F1
331
518B8
  5
51AC2
331
518D7
  5
51AE1
331
51916
  5
51B2C
331
5192D
  5
51B43
331
514DE
  5
51694
331
51528
  5
516E5
331
51509
  5
516C6
331
524CF
  5
5175C
331
51A2B
  5
51C46
331
51A42
  5
51C61
331
518D8
  5
51AE2
331
516CC
  5
518BA
331
5168E
  5
5187C
331
516AD
  5
5189B
331
51702
  5
518F2
331
518B9
  5
51AC3
331
51917
  5
51B2D
331
5192E
  5
51B44
331
5194D
  5
51B63
331
52161
  5
5258E
331
514DF
  5
51695
331
51568
  5
51730
331
51529
  5
516E6
331
5150A
  5
516C7
331
524D0
  5
5175D
331
51A2C
  5
51C47
331
51A43
  5
51C62
331
5194E
  5
51B64
331
516CD
  5
518BB
331
5168F
  5
5187D
331
516AE
  5
5189C
331
51703
  5
518F3
331
518BA
  5
51AC4
331
518D9
  5
51AE3
331
5192F
  5
51B45
331
52162
  5
5258F
331
514E0
  5
51696
331
51569
  5
51731
331
51580
  5
5174A
331
5152A
  5
516E7
331
5150B
  5
516C8
331
524D1
  5
5175E
331
51A2D
  5
51C48
331
51A44
  5
51C64
331
5194F
  5
51B65
331
516CE
  5
518BC
331
516AF
  5
5189D
331
51704
  5
518F4
331
518BB
  5
51AC5
331
51930
  5
51B46
331
514E1
  5
51697
331
515A0
  5
51778
331
5156A
  5
51732
331
51581
  5
5174B
331
5152B
  5
516E8
331
5150C
  5
516C9
331
514ED
  5
516A5
331
524D2
  5
5175F
331
51A2E
  5
51C49
331
51A45
  5
51C65
331
51950
  5
51B66
331
516CF
  5
518BD
331
51705
  5
518F5
331
51931
  5
51B47
331
514E2
  5
51699
331
515C0
  5
5179B
331
5156B
  5
51733
331
515A1
  5
51779
331
5152C
  5
516E9
331
5150D
  5
516CA
331
514EE
  5
516A6
331
524D3
  5
51760
331
51A2F
  5
51C4A
331
51A46
  5
51C66
331
51951
  5
51B67
331
51706
  5
518F6
331
518BD
  5
51AC7
331
51932
  5
51B48
331
514E3
  5
5169A
331
515E0
  5
517BE
331
515C1
  5
5179C
331
5156C
  5
51734
331
515A2
  5
5177A
331
5152D
  5
516EA
331
5150E
  5
516CB
331
514EF
  5
516A7
331
524D4
  5
51761
331
51A47
  5
51C67
331
51707
  5
518F7
331
518BE
  5
51AC8
331
51933
  5
51B49
331
51952
  5
51B68
331
514E4
  5
5169B
331
515E1
  5
517BF
331
5156D
  5
51736
331
515A3
  5
5177B
331
515C2
  5
5179D
331
515F8
  5
517D8
331
5150F
  5
516CC
331
514F0
  5
516A8
331
5152E
  5
516EB
331
524D5
  5
51746
331
51A48
  5
51C68
331
51953
  5
51B69
331
518BF
  5
51AC9
331
518DE
  5
51AE8
331
51934
  5
51B4A
331
514E5
  5
5169C
331
515E2
  5
517C0
331
515A4
  5
5177C
331
5156E
  5
51738
331
51585
  5
5174E
331
515C3
  5
5179E
331
515F9
  5
517D9
331
51618
  5
517FB
331
51510
  5
516CD
331
514F1
  5
516A9
331
524D6
  5
51745
331
524B7
  5
51ACC
331
51A49
  5
51C69
331
51954
  5
51B6A
331
518DF
  5
51AE9
331
51935
  5
51B4B
331
514E6
  5
5169D
331
515E3
  5
517C1
331
515A5
  5
5177D
331
5156F
  5
51739
331
51586
  5
5174F
331
515C4
  5
517A0
331
515FA
  5
517DA
331
51619
  5
517FC
331
51638
  5
5181B
331
514F2
  5
516AB
331
51511
  5
516CE
331
524B8
  5
51ACD
331
51540
  5
51709
331
51A4A
  5
51C6A
331
51955
  5
51B6B
331
51936
  5
51B4C
331
51A14
  5
51C2F
331
514E7
  5
5169E
331
51658
  5
5183A
331
515E4
  5
517C2
331
515C5
  5
517A1
331
51570
  5
5173A
331
51587
  5
51750
331
515A6
  5
5177E
331
515FB
  5
517DB
331
5161A
  5
517FD
331
51639
  5
5181C
331
514F3
  5
516AD
331
51512
  5
516CF
331
524B9
  5
51846
331
51541
  5
5170A
331
51A4B
  5
51C6B
331
51937
  5
51B4D
331
51956
  5
51B6C
331
51A15
  5
51C30
331
51659
  5
5183B
331
515E5
  5
517C3
331
51571
  5
5173B
331
51588
  5
51751
331
515A7
  5
51780
331
515C6
  5
517A2
331
515FC
  5
517DD
331
5161B
  5
517FE
331
5163A
  5
5181D
331
51513
  5
516D0
331
514F4
  5
516AE
331
524BA
  5
51847
331
51542
  5
5170B
331
51A4C
  5
51C6C
331
5216B
  5
52598
331
51957
  5
51B6D
331
51A16
  5
51C31
331
5165A
  5
5183C
331
515E6
  5
517C4
331
51572
  5
5173C
331
51589
  5
51752
331
515A8
  5
51781
331
515C7
  5
517A3
331
515FD
  5
517DE
331
5161C
  5
517FF
331
5163B
  5
5181E
331
51514
  5
516D1
331
514F5
  5
516AF
331
524BB
  5
51848
331
51543
  5
5170C
331
51A4D
  5
51C6D
331
5216C
  5
52599
331
51A17
  5
51C32
331
5165B
  5
5183D
331
515E7
  5
517C5
331
515A9
  5
51782
331
51573
  5
5173D
331
5158A
  5
51753
331
515C8
  5
517A4
331
515FE
  5
517E0
331
5161D
  5
51800
331
5163C
  5
5181F
331
514F6
  5
516B0
331
51515
  5
516D2
331
524BC
  5
51849
331
51544
  5
5170D
331
51A4E
  5
51C6E
331
515FF
  5
517E2
331
5161E
  5
51801
331
5163D
  5
51820
331
515AA
  5
51783
331
515C9
  5
517A5
331
514F7
  5
516B1
331
51516
  5
516D3
331
524BD
  5
5184A
331
51A4F
  5
51C70
331
51574
  5
5173E
331
515E8
  5
517C6
331
5165C
  5
5183E
331
51600
  5
517E3
331
5161F
  5
51802
331
5163E
  5
51821
331
515CA
  5
517A6
331
515AB
  5
51784
331
514F8
  5
516B3
331
51517
  5
516D4
331
524BE
  5
5184B
331
51575
  5
5173F
331
515E9
  5
517C7
331
5165D
  5
5183F
331
51601
  5
517E4
331
51620
  5
51803
331
5163F
  5
51822
331
515AC
  5
51785
331
5158D
  5
51763
331
515CB
  5
517A7
331
515EA
  5
517C8
331
51518
  5
516D5
331
514F9
  5
516B4
331
524BF
  5
5184C
331
51547
  5
51710
331
51576
  5
51740
331
5165E
  5
51840
331
51602
  5
517E5
331
51621
  5
51804
331
51640
  5
51823
331
515AD
  5
51786
331
5158E
  5
51764
331
515CC
  5
517A8
331
51519
  5
516D6
331
514FA
  5
516B5
331
51548
  5
51711
331
515EB
  5
517C9
331
5165F
  5
51841
331
51603
  5
517E6
331
51622
  5
51805
331
515AE
  5
51787
331
5158F
  5
51765
331
515CD
  5
517A9
331
514FB
  5
516B6
331
5151A
  5
516D7
331
51549
  5
51712
331
515EC
  5
517CA
331
51660
  5
51842
331
51604
  5
517E7
331
51623
  5
51806
331
51642
  5
51824
331
515CE
  5
517AA
331
51590
  5
51766
331
515AF
  5
51788
331
514FC
  5
516B7
331
5151B
  5
516D8
331
515ED
  5
517CB
331
51661
  5
51843
331
51605
  5
517E8
331
51624
  5
51807
331
51643
  5
51825
331
515CF
  5
517AC
331
51591
  5
51767
331
515B0
  5
51789
331
5151C
  5
516D9
331
514FD
  5
516BA
331
515EE
  5
517CC
331
51662
  5
51844
331
51606
  5
517E9
331
51625
  5
51808
331
51644
  5
51826
331
51592
  5
51768
331
515B1
  5
5178A
331
5151D
  5
516DA
331
514FE
  5
516BB
331
515D0
  5
517AE
331
515EF
  5
517CD
331
51663
  5
51845
331
515D1
  5
517AF
331
515F0
  5
517CE
331
515B2
  5
5178B
331
5151E
  5
516DB
331
514FF
  5
516BC
331
51593
  5
51769
331
51607
  5
517EA
331
51626
  5
51809
331
51645
  5
51827
331
515D2
  5
517B0
331
515F1
  5
517CF
331
515B3
  5
5178C
331
51594
  5
5176A
331
51608
  5
517EB
331
51627
  5
5180A
331
51646
  5
51828
331
51500
  5
516BD
331
5151F
  5
516DC
331
51666
  5
51854
331
515D3
  5
517B1
331
515F2
  5
517D0
331
51501
  5
516BE
331
51520
  5
516DD
331
51595
  5
5176B
331
515B4
  5
5178D
331
51609
  5
517EC
331
51628
  5
5180B
331
51647
  5
51829
331
51648
  5
5182A
331
51667
  5
51855
331
515D4
  5
517B2
331
515F3
  5
517D1
331
5157F
  5
51749
331
51521
  5
516DE
331
51502
  5
516BF
331
51596
  5
5176C
331
515B5
  5
5178E
331
5160A
  5
517ED
331
51629
  5
5180C
331
51649
  5
5182B
331
51668
  5
51856
331
515D5
  5
517B3
331
515F4
  5
517D2
331
51561
  5
51729
331
51522
  5
516DF
331
51503
  5
516C0
331
51597
  5
5176E
331
515B6
  5
5178F
331
5160B
  5
517EE
331
5164A
  5
5182C
331
51669
  5
51857
331
515D6
  5
517B4
331
515F5
  5
517D3
331
51562
  5
5172A
331
51598
  5
5176F
331
51504
  5
516C1
331
51523
  5
516E0
331
515B7
  5
51790
331
5160C
  5
517EF
331
5162B
  5
5180E
331
52501
  5
51741
331
5164B
  5
5182D
331
5166A
  5
51858
331
515D7
  5
517B5
331
515F6
  5
517D5
331
515B8
  5
51791
331
51563
  5
5172B
331
51599
  5
51770
331
51505
  5
516C2
331
51524
  5
516E1
331
5160D
  5
517F0
331
5162C
  5
5180F
331
52502
  5
51742
331
5164C
  5
5182E
331
5166B
  5
51859
331
515D8
  5
517B6
331
515F7
  5
517D7
331
51564
  5
5172C
331
5159A
  5
51771
331
515B9
  5
51792
331
51506
  5
516C3
331
51525
  5
516E2
331
5160E
  5
517F1
331
5162D
  5
51810
331
52503
  5
51747
331
5164D
  5
5182F
331
5166C
  5
5185A
331
515D9
  5
517B7
331
51565
  5
5172D
331
5159B
  5
51772
331
515BA
  5
51793
331
51526
  5
516E3
331
51507
  5
516C4
331
5160F
  5
517F2
331
5162E
  5
51811
331
52504
  5
5174D
331
5164E
  5
51830
331
5166D
  5
5185B
331
515DA
  5
517B8
331
51566
  5
5172E
331
5159C
  5
51773
331
515BB
  5
51794
331
51610
  5
517F3
331
51527
  5
516E4
331
5162F
  5
51812
331
52505
  5
5174C
331
5164F
  5
51831
331
5166E
  5
5185C
331
515DB
  5
517B9
331
515BC
  5
51795
331
51567
  5
5172F
331
5159D
  5
51775
331
51611
  5
517F4
331
51630
  5
51813
331
51650
  5
51832
331
5166F
  5
5185D
331
515DC
  5
517BA
331
5159E
  5
51776
331
515BD
  5
51796
331
51612
  5
517F5
331
51631
  5
51814
331
51651
  5
51833
331
515DD
  5
517BB
331
5159F
  5
51777
331
515BE
  5
51797
331
51613
  5
517F6
331
51632
  5
51815
331
51670
  5
5185E
331
51652
  5
51834
331
515DE
  5
517BC
331
515BF
  5
51799
331
51614
  5
517F7
331
51633
  5
51816
331
51671
  5
5185F
331
51690
  5
5187E
331
51653
  5
51835
331
515DF
  5
517BD
331
51615
  5
517F8
331
51634
  5
51817
331
51672
  5
51860
331
51691
  5
5187F
331
516B0
  5
5189E
331
51654
  5
51836
331
51616
  5
517F9
331
51635
  5
51818
331
51673
  5
51861
331
51692
  5
51880
331
516B1
  5
5189F
331
516D0
  5
518BE
331
51655
  5
51837
331
51617
  5
517FA
331
51636
  5
51819
  0
XRECORD
  5
52A8B
102
{ACAD_REACTORS
330
52A8A
102
}
330
52A8A
100
AcDbXrecord
280
     1
 70
     1
  0
XRECORD
  5
52A8C
102
{ACAD_REACTORS
330
52A8A
102
}
330
52A8A
100
AcDbXrecord
280
     1
340
2274C
  0
LAYOUT
  5
22
102
{ACAD_XDICTIONARY
360
22AE9
102
}
102
{ACAD_REACTORS
330
1A
102
}
330
1A
100
AcDbPlotSettings
  1

  2
Canon iPF600
  4
User4403
  6

 40
3.757083415985107
 41
3.757137775421142
 42
3.757080078125
 43
3.757080078125
 44
840.9939575195313
 45
593.97900390625
 46
-3.785768270522396
 47
-3.785734415075523
 48
0.0
 49
0.0
140
0.0
141
0.0
142
1.0
143
100.0
 70
 28324
 72
     1
 73
     0
 74
     1
  7
monochrome.ctb
 75
     0
147
0.0098725419741991
 76
     0
 77
     2
 78
   300
148
2.566332512709777
149
1.812605841332697
100
AcDbLayout
  1
Model
 70
     1
 71
     0
 10
0.0
 20
0.0
 11
12.0
 21
9.0
 12
0.0
 22
0.0
 32
0.0
 14
0.0
 24
0.0
 34
0.0
 15
0.0
 25
0.0
 35
0.0
146
0.0
 13
0.0
 23
0.0
 33
0.0
 16
1.0
 26
0.0
 36
0.0
 17
0.0
 27
1.0
 37
0.0
 76
     0
330
1F
331
1FF1E
1001
ACAD_PSEXT
1000
Canon iPF600
1000
Canon iPF600
1000
IP_10.81.100.201
1000

1070
     0
  0
LAYOUT
  5
525BB
102
{ACAD_REACTORS
330
1A
102
}
330
1A
100
AcDbPlotSettings
  1

  2
DWG To PDF.pc3
  4

  6

 40
0.0
 41
0.0
 42
0.0
 43
0.0
 44
0.0
 45
0.0
 46
0.0
 47
0.0
 48
0.0
 49
0.0
140
0.0
141
0.0
142
1.0
143
1.0
 70
   688
 72
     0
 73
     0
 74
     5
  7

 75
    16
147
1.0
 76
     0
 77
     2
 78
   300
148
0.0
149
0.0
100
AcDbLayout
  1
レイアウト1
 70
     1
 71
     1
 10
0.0
 20
0.0
 11
12.0
 21
9.0
 12
0.0
 22
0.0
 32
0.0
 14
0.0
 24
0.0
 34
0.0
 15
0.0
 25
0.0
 35
0.0
146
0.0
 13
0.0
 23
0.0
 33
0.0
 16
1.0
 26
0.0
 36
0.0
 17
0.0
 27
1.0
 37
0.0
 76
     0
330
525BA
  0
MATERIAL
  5
22735
102
{ACAD_XDICTIONARY
360
22736
102
}
102
{ACAD_REACTORS
330
2272C
102
}
330
2272C
100
AcDbMaterial
  1
ByBlock
 72
     0
 43
0.0008202099737533
 43
0.0
 43
0.0
 43
0.0
 43
0.0
 43
0.0008202099737533
 43
0.0
 43
0.0
 43
0.0
 43
0.0
 43
1.0
 43
0.0
 43
0.0
 43
0.0
 43
0.0
 43
1.0
 77
     0
 47
0.0008202099737533
 47
0.0
 47
0.0
 47
0.0
 47
0.0
 47
0.0008202099737533
 47
0.0
 47
0.0
 47
0.0
 47
0.0
 47
1.0
 47
0.0
 47
0.0
 47
0.0
 47
0.0
 47
1.0
171
     0
 49
0.0008202099737533
 49
0.0
 49
0.0
 49
0.0
 49
0.0
 49
0.0008202099737533
 49
0.0
 49
0.0
 49
0.0
 49
0.0
 49
1.0
 49
0.0
 49
0.0
 49
0.0
 49
0.0
 49
1.0
175
     0
142
0.0008202099737533
142
0.0
142
0.0
142
0.0
142
0.0
142
0.0008202099737533
142
0.0
142
0.0
142
0.0
142
0.0
142
1.0
142
0.0
142
0.0
142
0.0
142
0.0
142
1.0
179
     0
144
0.0008202099737533
144
0.0
144
0.0
144
0.0
144
0.0
144
0.0008202099737533
144
0.0
144
0.0
144
0.0
144
0.0
144
1.0
144
0.0
144
0.0
144
0.0
144
0.0
144
1.0
147
0.0008202099737533
147
0.0
147
0.0
147
0.0
147
0.0
147
0.0008202099737533
147
0.0
147
0.0
147
0.0
147
0.0
147
1.0
147
0.0
147
0.0
147
0.0
147
0.0
147
1.0
  0
MATERIAL
  5
2272D
102
{ACAD_XDICTIONARY
360
2272E
102
}
102
{ACAD_REACTORS
330
2272C
102
}
330
2272C
100
AcDbMaterial
  1
ByLayer
 72
     0
 43
0.0008202099737533
 43
0.0
 43
0.0
 43
0.0
 43
0.0
 43
0.0008202099737533
 43
0.0
 43
0.0
 43
0.0
 43
0.0
 43
1.0
 43
0.0
 43
0.0
 43
0.0
 43
0.0
 43
1.0
 77
     0
 47
0.0008202099737533
 47
0.0
 47
0.0
 47
0.0
 47
0.0
 47
0.0008202099737533
 47
0.0
 47
0.0
 47
0.0
 47
0.0
 47
1.0
 47
0.0
 47
0.0
 47
0.0
 47
0.0
 47
1.0
171
     0
 49
0.0008202099737533
 49
0.0
 49
0.0
 49
0.0
 49
0.0
 49
0.0008202099737533
 49
0.0
 49
0.0
 49
0.0
 49
0.0
 49
1.0
 49
0.0
 49
0.0
 49
0.0
 49
0.0
 49
1.0
175
     0
142
0.0008202099737533
142
0.0
142
0.0
142
0.0
142
0.0
142
0.0008202099737533
142
0.0
142
0.0
142
0.0
142
0.0
142
1.0
142
0.0
142
0.0
142
0.0
142
0.0
142
1.0
179
     0
144
0.0008202099737533
144
0.0
144
0.0
144
0.0
144
0.0
144
0.0008202099737533
144
0.0
144
0.0
144
0.0
144
0.0
144
1.0
144
0.0
144
0.0
144
0.0
144
0.0
144
1.0
147
0.0008202099737533
147
0.0
147
0.0
147
0.0
147
0.0
147
0.0008202099737533
147
0.0
147
0.0
147
0.0
147
0.0
147
1.0
147
0.0
147
0.0
147
0.0
147
0.0
147
1.0
  0
MATERIAL
  5
2273D
102
{ACAD_XDICTIONARY
360
2273E
102
}
102
{ACAD_REACTORS
330
2272C
102
}
330
2272C
100
AcDbMaterial
  1
Global
 72
     0
 43
0.0008202099737533
 43
0.0
 43
0.0
 43
0.0
 43
0.0
 43
0.0008202099737533
 43
0.0
 43
0.0
 43
0.0
 43
0.0
 43
1.0
 43
0.0
 43
0.0
 43
0.0
 43
0.0
 43
1.0
 77
     0
 47
0.0008202099737533
 47
0.0
 47
0.0
 47
0.0
 47
0.0
 47
0.0008202099737533
 47
0.0
 47
0.0
 47
0.0
 47
0.0
 47
1.0
 47
0.0
 47
0.0
 47
0.0
 47
0.0
 47
1.0
171
     0
 49
0.0008202099737533
 49
0.0
 49
0.0
 49
0.0
 49
0.0
 49
0.0008202099737533
 49
0.0
 49
0.0
 49
0.0
 49
0.0
 49
1.0
 49
0.0
 49
0.0
 49
0.0
 49
0.0
 49
1.0
175
     0
142
0.0008202099737533
142
0.0
142
0.0
142
0.0
142
0.0
142
0.0008202099737533
142
0.0
142
0.0
142
0.0
142
0.0
142
1.0
142
0.0
142
0.0
142
0.0
142
0.0
142
1.0
179
     0
144
0.0008202099737533
144
0.0
144
0.0
144
0.0
144
0.0
144
0.0008202099737533
144
0.0
144
0.0
144
0.0
144
0.0
144
1.0
144
0.0
144
0.0
144
0.0
144
0.0
144
1.0
147
0.0008202099737533
147
0.0
147
0.0
147
0.0
147
0.0
147
0.0008202099737533
147
0.0
147
0.0
147
0.0
147
0.0
147
1.0
147
0.0
147
0.0
147
0.0
147
0.0
147
1.0
  0
MLEADERSTYLE
  5
2276C
102
{ACAD_XDICTIONARY
360
52A87
102
}
102
{ACAD_REACTORS
330
2276B
102
}
330
2276B
100
AcDbMLeaderStyle
170
     2
171
     1
172
     0
 90
        2
 40
0.0
 41
0.0
173
     1
 91
-1056964608
340
14
 92
       -2
290
     1
 42
2.0
291
     1
 43
0.36
  3
Standard
 44
4.0
300

342
11
174
     1
178
     6
175
     1
176
     0
 93
-1056964608
 45
4.0
292
     0
297
     0
 46
4.0
 94
-1056964608
 47
1.0
 49
1.0
140
1.0
293
     1
141
0.0
294
     1
177
     0
142
1.0
295
     0
296
     0
143
0.125
1001
ACAD_MLEADERVER
1070
     2
  0
MLINESTYLE
  5
18
102
{ACAD_REACTORS
330
17
102
}
330
17
100
AcDbMlineStyle
  2
STANDARD
 70
     0
  3

 62
   256
 51
90.0
 52
90.0
 71
     2
 49
0.5
 62
   256
  6
BYLAYER
 49
-0.5
 62
   256
  6
BYLAYER
  0
PLOTSETTINGS
  5
2288E
102
{ACAD_REACTORS
330
19
102
}
330
19
100
AcDbPlotSettings
  1
A1横-DocuWide 2051 MF-RT
  2
DocuWide 2051 MF-RT
  4
User151
  6

 40
3.174999952316284
 41
3.174999952316284
 42
3.17498779296875
 43
3.17498779296875
 44
593.97900390625
 45
840.9939575195313
 46
0.0
 47
0.0
 48
0.0
 49
0.0
140
0.0
141
0.0
142
1.0
143
1.0
 70
  2736
 72
     1
 73
     1
 74
     5
  7
monochrome.ctb
 75
    16
147
1.0
 76
     0
 77
     2
 78
   300
148
17.0220485445252
149
5.136853987673248
1001
ACAD_PSEXT
1000
DocuWide 2051 MF-RT
1000
FX DocuWide 2050/2051
1000
10.100.200.210:plt00t
1000

1070
     0
  0
PLOTSETTINGS
  5
4BB79
102
{ACAD_REACTORS
330
19
102
}
330
19
100
AcDbPlotSettings
  1
A1横-PDF_COR
  2
DWG To PDF.pc3
  4
ISO_full_bleed_A1_(841.00_x_594.00_MM)
  6

 40
0.7937499880790711
 41
0.7937499880790711
 42
0.79376220703125
 43
0.79376220703125
 44
841.0
 45
594.0
 46
0.0
 47
0.0
 48
0.0
 49
0.0
140
0.0
141
0.0
142
1.0
143
1.0
 70
  2736
 72
     1
 73
     0
 74
     5
  7
acad.ctb
 75
    16
147
1.0
 76
     0
 77
     2
 78
   300
148
17.0220485445252
149
5.136853987673248
1001
ACAD_PSEXT
1000
DWG To PDF.pc3
1000
DWG To PDF
1000
ファイル
1000

1070
     0
  0
PLOTSETTINGS
  5
4BB70
102
{ACAD_REACTORS
330
19
102
}
330
19
100
AcDbPlotSettings
  1
A1横-PDF_MONO
  2
DWG To PDF.pc3
  4
ISO_full_bleed_A1_(841.00_x_594.00_MM)
  6

 40
0.7937499880790711
 41
0.7937499880790711
 42
0.79376220703125
 43
0.79376220703125
 44
841.0
 45
594.0
 46
0.0
 47
0.0
 48
0.0
 49
0.0
140
0.0
141
0.0
142
1.0
143
1.0
 70
  2736
 72
     1
 73
     0
 74
     5
  7
monochrome.ctb
 75
    16
147
1.0
 76
     0
 77
     2
 78
   300
148
17.0220485445252
149
5.136853987673248
1001
ACAD_PSEXT
1000
DWG To PDF.pc3
1000
DWG To PDF
1000
ファイル
1000

1070
     0
  0
PLOTSETTINGS
  5
228A9
102
{ACAD_REACTORS
330
19
102
}
330
19
100
AcDbPlotSettings
  1
A2横-DocuWide 2051 MF-RT
  2
DocuWide 2051 MF-RT
  4
User66
  6

 40
3.174999952316284
 41
3.174999952316284
 42
3.17498779296875
 43
3.17498779296875
 44
419.9889831542968
 45
593.97900390625
 46
0.0
 47
0.0
 48
0.0
 49
0.0
140
0.0
141
0.0
142
1.0
143
1.0
 70
  2736
 72
     1
 73
     1
 74
     5
  7
monochrome.ctb
 75
    16
147
1.0
 76
     0
 77
     2
 78
   300
148
-968.6464465543492
149
-10.13499988433659
1001
ACAD_PSEXT
1000
DocuWide 2051 MF-RT
1000
FX DocuWide 2050/2051
1000
10.100.200.210:plt00t
1000

1070
     0
  0
PLOTSETTINGS
  5
2883A
102
{ACAD_REACTORS
330
19
102
}
330
19
100
AcDbPlotSettings
  1
A3横-DocuCentre C4535Ⅰ②
  2
DocuCentre C4535 I ②
  4
A3
  6

 40
4.857749938964843
 41
4.942420959472656
 42
4.9423828125
 43
4.857757568359375
 44
297.0106506347656
 45
420.0313415527343
 46
0.0
 47
0.0
 48
0.0
 49
0.0
140
0.0
141
0.0
142
1.0
143
2.0
 70
  2720
 72
     1
 73
     1
 74
     5
  7
monochrome.ctb
 75
     0
147
0.4835020742459363
 76
     0
 77
     2
 78
   300
148
17.0220485445252
149
5.136853987673248
1001
ACAD_PSEXT
1000
DocuCentre C4535 I ②
1000
FX DocuCentre C4535 I
1000
10.100.200.205
1000

1070
     0
  0
PLOTSETTINGS
  5
4BB56
102
{ACAD_REACTORS
330
19
102
}
330
19
100
AcDbPlotSettings
  1
A3横-DocuCentre C4535Ⅰ②_cor
  2
DocuCentre C4535 I ②
  4
A3
  6

 40
4.857749938964843
 41
4.942420959472656
 42
4.9423828125
 43
4.857757568359375
 44
297.0106506347656
 45
420.0313415527343
 46
0.0
 47
0.0
 48
0.0
 49
0.0
140
0.0
141
0.0
142
1.0
143
2.0
 70
  2720
 72
     1
 73
     1
 74
     5
  7
acad.ctb
 75
     0
147
0.4835020742459363
 76
     0
 77
     2
 78
   300
148
17.0220485445252
149
5.136853987673248
1001
ACAD_PSEXT
1000
DocuCentre C4535 I ②
1000
FX DocuCentre C4535 I
1000
10.100.200.205
1000

1070
     0
  0
PLOTSETTINGS
  5
228B2
102
{ACAD_REACTORS
330
19
102
}
330
19
100
AcDbPlotSettings
  1
A4横-DocuCentre C4535Ⅰ②
  2
DocuCentre C4535 I ②
  4
A4
  6

 40
4.857749938964843
 41
4.942390441894531
 42
4.942413330078125
 43
4.857757568359375
 44
209.9733276367187
 45
297.0106506347656
 46
0.0
 47
0.0
 48
0.0
 49
0.0
140
0.0
141
0.0
142
1.0
143
2.0
 70
  2720
 72
     1
 73
     1
 74
     5
  7
monochrome.ctb
 75
    16
147
1.0
 76
     0
 77
     2
 78
   300
148
-965.432603393638
149
-6.955950538279239
1001
ACAD_PSEXT
1000
DocuCentre C4535 I ②
1000
FX DocuCentre C4535 I
1000
10.100.200.205
1000

1070
     0
  0
PLOTSETTINGS
  5
4BB5F
102
{ACAD_REACTORS
330
19
102
}
330
19
100
AcDbPlotSettings
  1
A4横-DocuCentre C4535Ⅰ②_cor
  2
DocuCentre C4535 I ②
  4
A4
  6

 40
4.857749938964843
 41
4.942390441894531
 42
4.942413330078125
 43
4.857757568359375
 44
209.9733276367187
 45
297.0106506347656
 46
0.0
 47
0.0
 48
0.0
 49
0.0
140
0.0
141
0.0
142
1.0
143
2.0
 70
  2720
 72
     1
 73
     1
 74
     5
  7
acad.ctb
 75
    16
147
1.0
 76
     0
 77
     2
 78
   300
148
-965.432603393638
149
-6.955950538279239
1001
ACAD_PSEXT
1000
DocuCentre C4535 I ②
1000
FX DocuCentre C4535 I
1000
10.100.200.205
1000

1070
     0
  0
ACDBPLACEHOLDER
  5
F
102
{ACAD_REACTORS
330
E
102
}
330
E
  0
SCALE
  5
2275A
102
{ACAD_REACTORS
330
22759
102
}
330
22759
100
AcDbScale
 70
     0
300
1:1
140
1.0
141
1.0
290
     1
  0
SCALE
  5
22924
102
{ACAD_REACTORS
330
22759
102
}
330
22759
100
AcDbScale
 70
     0
300
1:3
140
1.0
141
3.0
290
     0
  0
SCALE
  5
22925
102
{ACAD_REACTORS
330
22759
102
}
330
22759
100
AcDbScale
 70
     0
300
1:60
140
1.0
141
60.0
290
     0
  0
SCALE
  5
22926
102
{ACAD_REACTORS
330
22759
102
}
330
22759
100
AcDbScale
 70
     0
300
1:150
140
1.0
141
150.0
290
     0
  0
SCALE
  5
22927
102
{ACAD_REACTORS
330
22759
102
}
330
22759
100
AcDbScale
 70
     0
300
1:125
140
1.0
141
125.0
290
     0
  0
SCALE
  5
22928
102
{ACAD_REACTORS
330
22759
102
}
330
22759
100
AcDbScale
 70
     0
300
1:2
140
1.0
141
2.0
290
     0
  0
SCALE
  5
22929
102
{ACAD_REACTORS
330
22759
102
}
330
22759
100
AcDbScale
 70
     0
300
1:4
140
1.0
141
4.0
290
     0
  0
SCALE
  5
2292A
102
{ACAD_REACTORS
330
22759
102
}
330
22759
100
AcDbScale
 70
     0
300
1:5
140
1.0
141
5.0
290
     0
  0
SCALE
  5
2292B
102
{ACAD_REACTORS
330
22759
102
}
330
22759
100
AcDbScale
 70
     0
300
1:8
140
1.0
141
8.0
290
     0
  0
SCALE
  5
2292C
102
{ACAD_REACTORS
330
22759
102
}
330
22759
100
AcDbScale
 70
     0
300
1:10
140
1.0
141
10.0
290
     0
  0
SCALE
  5
2292D
102
{ACAD_REACTORS
330
22759
102
}
330
22759
100
AcDbScale
 70
     0
300
1:16
140
1.0
141
16.0
290
     0
  0
SCALE
  5
2292E
102
{ACAD_REACTORS
330
22759
102
}
330
22759
100
AcDbScale
 70
     0
300
1:20
140
1.0
141
20.0
290
     0
  0
SCALE
  5
2292F
102
{ACAD_REACTORS
330
22759
102
}
330
22759
100
AcDbScale
 70
     0
300
1:30
140
1.0
141
30.0
290
     0
  0
SCALE
  5
22930
102
{ACAD_REACTORS
330
22759
102
}
330
22759
100
AcDbScale
 70
     0
300
1:40
140
1.0
141
40.0
290
     0
  0
SCALE
  5
22931
102
{ACAD_REACTORS
330
22759
102
}
330
22759
100
AcDbScale
 70
     0
300
1:50
140
1.0
141
50.0
290
     0
  0
SCALE
  5
22765
102
{ACAD_REACTORS
330
22759
102
}
330
22759
100
AcDbScale
 70
     0
300
1:100
140
1.0
141
100.0
290
     0
  0
SCALE
  5
22932
102
{ACAD_REACTORS
330
22759
102
}
330
22759
100
AcDbScale
 70
     0
300
2:1
140
2.0
141
1.0
290
     0
  0
SCALE
  5
22933
102
{ACAD_REACTORS
330
22759
102
}
330
22759
100
AcDbScale
 70
     0
300
4:1
140
4.0
141
1.0
290
     0
  0
SCALE
  5
22934
102
{ACAD_REACTORS
330
22759
102
}
330
22759
100
AcDbScale
 70
     0
300
8:1
140
8.0
141
1.0
290
     0
  0
SCALE
  5
22935
102
{ACAD_REACTORS
330
22759
102
}
330
22759
100
AcDbScale
 70
     0
300
10:1
140
10.0
141
1.0
290
     0
  0
SCALE
  5
22936
102
{ACAD_REACTORS
330
22759
102
}
330
22759
100
AcDbScale
 70
     0
300
100:1
140
100.0
141
1.0
290
     0
  0
TABLESTYLE
  5
22758
102
{ACAD_XDICTIONARY
360
22803
102
}
102
{ACAD_REACTORS
330
22757
102
}
330
22757
100
AcDbTableStyle
  3
Standard
 70
     0
 71
     0
 40
1.5
 41
1.5
280
     0
281
     0
  7
Standard
140
4.5
170
     2
 62
     0
 63
     7
283
     0
274
    -2
284
     1
 64
     0
275
    -2
285
     1
 65
     0
276
    -2
286
     1
 66
     0
277
    -2
287
     1
 67
     0
278
    -2
288
     1
 68
     0
279
    -2
289
     1
 69
     0
  7
Standard
140
6.0
170
     5
 62
     0
 63
     7
283
     0
274
    -2
284
     1
 64
     0
275
    -2
285
     1
 65
     0
276
    -2
286
     1
 66
     0
277
    -2
287
     1
 67
     0
278
    -2
288
     1
 68
     0
279
    -2
289
     1
 69
     0
  7
Standard
140
4.5
170
     5
 62
     0
 63
     7
283
     0
274
    -2
284
     1
 64
     0
275
    -2
285
     1
 65
     0
276
    -2
286
     1
 66
     0
277
    -2
287
     1
 67
     0
278
    -2
288
     1
 68
     0
279
    -2
289
     1
 69
     0
  0
VISUALSTYLE
  5
2274B
102
{ACAD_XDICTIONARY
360
52A9A
102
}
102
{ACAD_REACTORS
330
22745
102
}
330
22745
100
AcDbVisualStyle
  2
2dWireframe
 70
     4
 71
     0
 72
     2
 73
     0
 90
        0
 40
-0.6
 41
-30.0
 62
     5
 63
     7
421
 16777215
 74
     1
 91
        4
 64
     7
 65
   257
 75
     1
175
     1
 42
1.0
 92
        0
 66
   257
 43
1.0
 76
     1
 77
     6
 78
     2
 67
     7
 79
     5
170
     0
171
     0
290
     0
174
     0
 93
        1
 44
0.0
173
     0
291
     0
 45
0.0
1001
ACAD
1000
AcDbSavedByObjectVersion
1070
     0
  0
VISUALSTYLE
  5
2274D
102
{ACAD_XDICTIONARY
360
52A9E
102
}
102
{ACAD_REACTORS
330
22745
102
}
330
22745
100
AcDbVisualStyle
  2
3D Hidden
 70
     6
 71
     1
 72
     2
 73
     2
 90
        0
 40
-0.6
 41
-30.0
 62
     5
 63
     7
421
 16777215
 74
     2
 91
        2
 64
     7
 65
   257
 75
     2
175
     1
 42
40.0
 92
        0
 66
   257
 43
1.0
 76
     1
 77
     6
 78
     2
 67
     7
 79
     3
170
     0
171
     0
290
     0
174
     0
 93
        1
 44
0.0
173
     0
291
     0
 45
0.0
1001
ACAD
1000
AcDbSavedByObjectVersion
1070
     0
  0
VISUALSTYLE
  5
2274C
102
{ACAD_XDICTIONARY
360
52A9C
102
}
102
{ACAD_REACTORS
330
22745
102
}
330
22745
100
AcDbVisualStyle
  2
3dWireframe
 70
     5
 71
     0
 72
     2
 73
     0
 90
        0
 40
-0.6
 41
-30.0
 62
     5
 63
     7
421
 16777215
 74
     1
 91
        4
 64
     7
 65
   257
 75
     1
175
     1
 42
1.0
 92
        0
 66
   257
 43
1.0
 76
     1
 77
     6
 78
     2
 67
     7
 79
     5
170
     0
171
     0
290
     0
174
     0
 93
        1
 44
0.0
173
     0
291
     0
 45
0.0
1001
ACAD
1000
AcDbSavedByObjectVersion
1070
     0
  0
VISUALSTYLE
  5
2274A
102
{ACAD_XDICTIONARY
360
52A98
102
}
102
{ACAD_REACTORS
330
22745
102
}
330
22745
100
AcDbVisualStyle
  2
Basic
 70
     7
 71
     1
 72
     0
 73
     1
 90
        0
 40
-0.6
 41
-30.0
 62
     5
 63
     7
421
 16777215
 74
     0
 91
        4
 64
     7
 65
   257
 75
     1
175
     1
 42
1.0
 92
        8
 66
     7
 43
1.0
 76
     1
 77
     6
 78
     2
 67
     7
 79
     5
170
     0
171
     0
290
     0
174
     0
 93
        1
 44
0.0
173
     0
291
     1
 45
0.0
1001
ACAD
1000
AcDbSavedByObjectVersion
1070
     0
  0
VISUALSTYLE
  5
22751
102
{ACAD_XDICTIONARY
360
52AA6
102
}
102
{ACAD_REACTORS
330
22745
102
}
330
22745
100
AcDbVisualStyle
  2
Brighten
 70
    12
 71
     2
 72
     2
 73
     0
 90
        0
 40
-0.6
 41
-30.0
 62
     5
 63
     7
421
 16777215
 74
     1
 91
        4
 64
     7
 65
   257
 75
     1
175
     1
 42
1.0
 92
        8
 66
     7
 43
1.0
 76
     1
 77
     6
 78
     2
 67
     7
 79
     5
170
     0
171
     0
290
     0
174
     0
 93
        1
 44
50.0
173
     0
291
     1
 45
0.0
1001
ACAD
1000
AcDbSavedByObjectVersion
1070
     0
  0
VISUALSTYLE
  5
22755
102
{ACAD_XDICTIONARY
360
52AAE
102
}
102
{ACAD_REACTORS
330
22745
102
}
330
22745
100
AcDbVisualStyle
  2
ColorChange
 70
    16
 71
     2
 72
     2
 73
     3
 90
        0
 40
-0.6
 41
-30.0
 62
     5
 63
     8
421
  8421504
 74
     1
 91
        4
 64
     7
 65
   257
 75
     1
175
     1
 42
1.0
 92
        8
 66
     8
424
  8421504
 43
1.0
 76
     1
 77
     6
 78
     2
 67
     7
 79
     5
170
     0
171
     0
290
     0
174
     0
 93
        1
 44
0.0
173
     0
291
     1
 45
0.0
1001
ACAD
1000
AcDbSavedByObjectVersion
1070
     0
  0
VISUALSTYLE
  5
2274E
102
{ACAD_XDICTIONARY
360
52AA0
102
}
102
{ACAD_REACTORS
330
22745
102
}
330
22745
100
AcDbVisualStyle
  2
Conceptual
 70
     9
 71
     3
 72
     2
 73
     0
 90
        0
 40
-0.6
 41
-30.0
 62
     5
 63
     7
421
 16777215
 74
     2
 91
        2
 64
     7
 65
   257
 75
     1
175
     1
 42
40.0
 92
        8
 66
     7
 43
1.0
 76
     1
 77
     6
 78
     2
 67
     7
 79
     3
170
     0
171
     0
290
     0
174
     0
 93
        1
 44
0.0
173
     0
291
     0
 45
0.0
1001
ACAD
1000
AcDbSavedByObjectVersion
1070
     0
  0
VISUALSTYLE
  5
22750
102
{ACAD_XDICTIONARY
360
52AA4
102
}
102
{ACAD_REACTORS
330
22745
102
}
330
22745
100
AcDbVisualStyle
  2
Dim
 70
    11
 71
     2
 72
     2
 73
     0
 90
        0
 40
-0.6
 41
-30.0
 62
     5
 63
     7
421
 16777215
 74
     1
 91
        4
 64
     7
 65
   257
 75
     1
175
     1
 42
1.0
 92
        8
 66
     7
 43
1.0
 76
     1
 77
     6
 78
     2
 67
     7
 79
     5
170
     0
171
     0
290
     0
174
     0
 93
        1
 44
-50.0
173
     0
291
     1
 45
0.0
1001
ACAD
1000
AcDbSavedByObjectVersion
1070
     0
  0
VISUALSTYLE
  5
22A03
102
{ACAD_XDICTIONARY
360
52AC3
102
}
102
{ACAD_REACTORS
330
22745
102
}
330
22745
100
AcDbVisualStyle
  2
EdgeColorOff
 70
    22
 71
     2
 72
     2
 73
     0
 90
        0
 40
-0.6
 41
-30.0
 62
     5
 63
     7
421
 16777215
 74
     1
 91
        4
 64
     7
 65
   257
 75
     1
175
     1
 42
1.0
 92
        8
 66
     7
 43
1.0
 76
     1
 77
     6
 78
     2
 67
     7
 79
     5
170
     0
171
     0
290
     0
174
     0
 93
        1
 44
0.0
173
     0
291
     1
 45
0.0
1001
ACAD
1000
AcDbSavedByObjectVersion
1070
     0
  0
VISUALSTYLE
  5
22754
102
{ACAD_XDICTIONARY
360
52AAC
102
}
102
{ACAD_REACTORS
330
22745
102
}
330
22745
100
AcDbVisualStyle
  2
Facepattern
 70
    15
 71
     2
 72
     2
 73
     0
 90
        0
 40
-0.6
 41
-30.0
 62
     5
 63
     7
421
 16777215
 74
     1
 91
        4
 64
     7
 65
   257
 75
     1
175
     1
 42
1.0
 92
        8
 66
     7
 43
1.0
 76
     1
 77
     6
 78
     2
 67
     7
 79
     5
170
     0
171
     0
290
     0
174
     0
 93
        1
 44
0.0
173
     0
291
     1
 45
0.0
1001
ACAD
1000
AcDbSavedByObjectVersion
1070
     0
  0
VISUALSTYLE
  5
22746
102
{ACAD_XDICTIONARY
360
52A90
102
}
102
{ACAD_REACTORS
330
22745
102
}
330
22745
100
AcDbVisualStyle
  2
Flat
 70
     0
 71
     2
 72
     1
 73
     1
 90
        2
 40
-0.6
 41
30.0
 62
     5
 63
     7
421
 16777215
 74
     0
 91
        4
 64
     7
 65
   257
 75
     1
175
     1
 42
1.0
 92
        8
 66
     7
 43
1.0
 76
     1
 77
     6
 78
     2
 67
     7
 79
     5
170
     0
171
     0
290
     0
174
     0
 93
       13
 44
0.0
173
     0
291
     1
 45
0.0
1001
ACAD
1000
AcDbSavedByObjectVersion
1070
     0
  0
VISUALSTYLE
  5
22747
102
{ACAD_XDICTIONARY
360
52A92
102
}
102
{ACAD_REACTORS
330
22745
102
}
330
22745
100
AcDbVisualStyle
  2
FlatWithEdges
 70
     1
 71
     2
 72
     1
 73
     1
 90
        2
 40
-0.6
 41
30.0
 62
     5
 63
     7
421
 16777215
 74
     1
 91
        4
 64
     7
 65
   257
 75
     1
175
     1
 42
1.0
 92
        0
 66
   257
 43
1.0
 76
     1
 77
     6
 78
     2
 67
     7
 79
     5
170
     0
171
     0
290
     0
174
     0
 93
       13
 44
0.0
173
     0
291
     1
 45
0.0
1001
ACAD
1000
AcDbSavedByObjectVersion
1070
     0
  0
VISUALSTYLE
  5
22748
102
{ACAD_XDICTIONARY
360
52A94
102
}
102
{ACAD_REACTORS
330
22745
102
}
330
22745
100
AcDbVisualStyle
  2
Gouraud
 70
     2
 71
     2
 72
     2
 73
     1
 90
        2
 40
-0.6
 41
30.0
 62
     5
 63
     7
421
 16777215
 74
     0
 91
        4
 64
     7
 65
   257
 75
     1
175
     1
 42
1.0
 92
        0
 66
     7
 43
1.0
 76
     1
 77
     6
 78
     2
 67
     7
 79
     5
170
     0
171
     0
290
     0
174
     0
 93
       13
 44
0.0
173
     0
291
     1
 45
0.0
1001
ACAD
1000
AcDbSavedByObjectVersion
1070
     0
  0
VISUALSTYLE
  5
22749
102
{ACAD_XDICTIONARY
360
52A96
102
}
102
{ACAD_REACTORS
330
22745
102
}
330
22745
100
AcDbVisualStyle
  2
GouraudWithEdges
 70
     3
 71
     2
 72
     2
 73
     1
 90
        2
 40
-0.6
 41
30.0
 62
     5
 63
     7
421
 16777215
 74
     1
 91
        4
 64
     7
 65
   257
 75
     1
175
     1
 42
1.0
 92
        0
 66
   257
 43
1.0
 76
     1
 77
     6
 78
     2
 67
     7
 79
     5
170
     0
171
     0
290
     0
174
     0
 93
       13
 44
0.0
173
     0
291
     1
 45
0.0
1001
ACAD
1000
AcDbSavedByObjectVersion
1070
     0
  0
VISUALSTYLE
  5
229FB
102
{ACAD_XDICTIONARY
360
52AB3
102
}
102
{ACAD_REACTORS
330
22745
102
}
330
22745
100
AcDbVisualStyle
  2
Hidden
 70
     6
 71
     1
 72
     2
 73
     2
 90
        0
 40
-0.6
 41
-30.0
 62
     5
 63
     7
421
 16777215
 74
     2
 91
        2
 64
     7
 65
   257
 75
     2
175
     1
 42
40.0
 92
        0
 66
   257
 43
1.0
 76
     1
 77
     6
 78
     2
 67
     7
 79
     3
170
     0
171
     0
290
     0
174
     0
 93
        1
 44
0.0
173
     0
291
     0
 45
0.0
1001
ACAD
1000
AcDbSavedByObjectVersion
1070
     0
  0
VISUALSTYLE
  5
22A01
102
{ACAD_XDICTIONARY
360
52ABF
102
}
102
{ACAD_REACTORS
330
22745
102
}
330
22745
100
AcDbVisualStyle
  2
JitterOff
 70
    20
 71
     2
 72
     2
 73
     0
 90
        0
 40
-0.6
 41
-30.0
 62
     5
 63
     7
421
 16777215
 74
     1
 91
        4
 64
     7
 65
   257
 75
     1
175
     1
 42
1.0
 92
       10
 66
     7
 43
1.0
 76
     1
 77
     6
 78
     2
 67
     7
 79
     5
170
     0
171
     0
290
     0
174
     0
 93
        1
 44
0.0
173
     0
291
     1
 45
0.0
1001
ACAD
1000
AcDbSavedByObjectVersion
1070
     0
  0
VISUALSTYLE
  5
22753
102
{ACAD_XDICTIONARY
360
52AAA
102
}
102
{ACAD_REACTORS
330
22745
102
}
330
22745
100
AcDbVisualStyle
  2
Linepattern
 70
    14
 71
     2
 72
     2
 73
     0
 90
        0
 40
-0.6
 41
-30.0
 62
     5
 63
     7
421
 16777215
 74
     1
 91
        4
 64
     7
 65
   257
 75
     7
175
     7
 42
1.0
 92
        8
 66
     7
 43
1.0
 76
     1
 77
     6
 78
     2
 67
     7
 79
     5
170
     0
171
     0
290
     0
174
     0
 93
        1
 44
0.0
173
     0
291
     1
 45
0.0
1001
ACAD
1000
AcDbSavedByObjectVersion
1070
     0
  0
VISUALSTYLE
  5
22A02
102
{ACAD_XDICTIONARY
360
52AC1
102
}
102
{ACAD_REACTORS
330
22745
102
}
330
22745
100
AcDbVisualStyle
  2
OverhangOff
 70
    21
 71
     2
 72
     2
 73
     0
 90
        0
 40
-0.6
 41
-30.0
 62
     5
 63
     7
421
 16777215
 74
     1
 91
        4
 64
     7
 65
   257
 75
     1
175
     1
 42
1.0
 92
        9
 66
     7
 43
1.0
 76
     1
 77
     6
 78
     2
 67
     7
 79
     5
170
     0
171
     0
290
     0
174
     0
 93
        1
 44
0.0
173
     0
291
     1
 45
0.0
1001
ACAD
1000
AcDbSavedByObjectVersion
1070
     0
  0
VISUALSTYLE
  5
2274F
102
{ACAD_XDICTIONARY
360
52AA2
102
}
102
{ACAD_REACTORS
330
22745
102
}
330
22745
100
AcDbVisualStyle
  2
Realistic
 70
     8
 71
     2
 72
     2
 73
     0
 90
        0
 40
-0.6
 41
-30.0
 62
     5
 63
     7
421
 16777215
 74
     1
 91
        0
 64
     7
 65
   257
 75
     1
175
     1
 42
1.0
 92
        8
 66
     8
424
  7895160
 43
1.0
 76
     1
 77
     6
 78
     2
 67
     7
 79
     5
170
     0
171
     0
290
     0
174
     0
 93
       13
 44
0.0
173
     0
291
     0
 45
0.0
1001
ACAD
1000
AcDbSavedByObjectVersion
1070
     0
  0
VISUALSTYLE
  5
22A00
102
{ACAD_XDICTIONARY
360
52ABD
102
}
102
{ACAD_REACTORS
330
22745
102
}
330
22745
100
AcDbVisualStyle
  2
Shaded
 70
    27
 71
     2
 72
     2
 73
     1
 90
        2
 40
-0.6
 41
30.0
 62
     5
 63
     7
421
 16777215
 74
     0
 91
        4
 64
     7
 65
   257
 75
     1
175
     1
 42
1.0
 92
        8
 66
   257
 43
1.0
 76
     1
 77
     6
 78
     2
 67
     8
425
  7895160
 79
     3
170
     0
171
     0
290
     0
174
     0
 93
        5
 44
0.0
173
     0
291
     0
 45
0.0
1001
ACAD
1000
AcDbSavedByObjectVersion
1070
     0
  0
VISUALSTYLE
  5
229FF
102
{ACAD_XDICTIONARY
360
52ABB
102
}
102
{ACAD_REACTORS
330
22745
102
}
330
22745
100
AcDbVisualStyle
  2
Shaded with edges
 70
    26
 71
     2
 72
     2
 73
     1
 90
        2
 40
-0.6
 41
30.0
 62
     5
 63
     7
421
 16777215
 74
     1
 91
       10
 64
     7
 65
   257
 75
     2
175
     1
 42
1.0
 92
        8
 66
   257
 43
1.0
 76
     1
 77
     6
 78
     2
 67
     7
 79
     3
170
     0
171
     0
290
     0
174
     0
 93
        5
 44
0.0
173
     0
291
     0
 45
0.0
1001
ACAD
1000
AcDbSavedByObjectVersion
1070
     0
  0
VISUALSTYLE
  5
229FC
102
{ACAD_XDICTIONARY
360
52AB5
102
}
102
{ACAD_REACTORS
330
22745
102
}
330
22745
100
AcDbVisualStyle
  2
Shades of Gray
 70
    23
 71
     2
 72
     2
 73
     3
 90
        0
 40
-0.6
 41
-30.0
 62
     5
 63
     7
421
 16777215
 74
     2
 91
        2
 64
     7
 65
     7
 75
     1
175
     1
 42
40.0
 92
        8
 66
     7
 43
1.0
 76
     1
 77
     6
 78
     2
 67
     7
 79
     3
170
     0
171
     0
290
     0
174
     0
 93
        1
 44
0.0
173
     0
291
     0
 45
0.0
1001
ACAD
1000
AcDbSavedByObjectVersion
1070
     0
  0
VISUALSTYLE
  5
229FD
102
{ACAD_XDICTIONARY
360
52AB7
102
}
102
{ACAD_REACTORS
330
22745
102
}
330
22745
100
AcDbVisualStyle
  2
Sketchy
 70
    24
 71
     1
 72
     2
 73
     2
 90
        0
 40
-0.6
 41
-30.0
 62
     5
 63
     7
421
 16777215
 74
     2
 91
        2
 64
     7
 65
     7
 75
     1
175
     1
 42
40.0
 92
       11
 66
     7
 43
1.0
 76
     1
 77
     6
 78
     2
 67
     7
 79
     6
170
     0
171
     0
290
     0
174
     0
 93
        1
 44
0.0
173
     0
291
     0
 45
0.0
1001
ACAD
1000
AcDbSavedByObjectVersion
1070
     0
  0
VISUALSTYLE
  5
22752
102
{ACAD_XDICTIONARY
360
52AA8
102
}
102
{ACAD_REACTORS
330
22745
102
}
330
22745
100
AcDbVisualStyle
  2
Thicken
 70
    13
 71
     2
 72
     2
 73
     0
 90
        0
 40
-0.6
 41
-30.0
 62
     5
 63
     7
421
 16777215
 74
     1
 91
        4
 64
     7
 65
   257
 75
     1
175
     1
 42
1.0
 92
       12
 66
     7
 43
1.0
 76
     1
 77
     6
 78
     2
 67
     7
 79
     5
170
     0
171
     0
290
     0
174
     0
 93
        1
 44
0.0
173
     0
291
     1
 45
0.0
1001
ACAD
1000
AcDbSavedByObjectVersion
1070
     0
  0
VISUALSTYLE
  5
229FA
102
{ACAD_XDICTIONARY
360
52AB1
102
}
102
{ACAD_REACTORS
330
22745
102
}
330
22745
100
AcDbVisualStyle
  2
Wireframe
 70
     5
 71
     0
 72
     2
 73
     0
 90
        0
 40
-0.6
 41
-30.0
 62
     5
 63
     7
421
 16777215
 74
     1
 91
        4
 64
     7
 65
   257
 75
     1
175
     1
 42
1.0
 92
        0
 66
   257
 43
1.0
 76
     1
 77
     6
 78
     2
 67
     7
 79
     3
170
     0
171
     0
290
     0
174
     0
 93
        1
 44
0.0
173
     0
291
     0
 45
0.0
1001
ACAD
1000
AcDbSavedByObjectVersion
1070
     0
  0
VISUALSTYLE
  5
229FE
102
{ACAD_XDICTIONARY
360
52AB9
102
}
102
{ACAD_REACTORS
330
22745
102
}
330
22745
100
AcDbVisualStyle
  2
X-Ray
 70
    25
 71
     2
 72
     2
 73
     1
 90
        1
 40
0.5
 41
-30.0
 62
     5
 63
     7
421
 16777215
 74
     1
 91
        0
 64
     7
 65
   257
 75
     1
175
     1
 42
1.0
 92
        8
 66
     7
 43
1.0
 76
     1
 77
     6
 78
     2
 67
     7
 79
     3
170
     0
171
     0
290
     0
174
     0
 93
       13
 44
0.0
173
     0
291
     0
 45
0.0
1001
ACAD
1000
AcDbSavedByObjectVersion
1070
     0
  0
DICTIONARYVAR
  5
22809
102
{ACAD_REACTORS
330
173D
102
}
330
173D
100
DictionaryVariables
280
     0
  1
1:1
  0
DICTIONARYVAR
  5
22807
102
{ACAD_REACTORS
330
173D
102
}
330
173D
100
DictionaryVariables
280
     0
  1
STANDARD
  0
DICTIONARYVAR
  5
22806
102
{ACAD_REACTORS
330
173D
102
}
330
173D
100
DictionaryVariables
280
     0
  1
STANDARD
  0
DICTIONARYVAR
  5
2280B
102
{ACAD_REACTORS
330
173D
102
}
330
173D
100
DictionaryVariables
280
     0
  1
1
  0
DICTIONARYVAR
  5
2280C
102
{ACAD_REACTORS
330
173D
102
}
330
173D
100
DictionaryVariables
280
     0
  1
15
  0
DICTIONARYVAR
  5
2280A
102
{ACAD_REACTORS
330
173D
102
}
330
173D
100
DictionaryVariables
280
     0
  1
0
  0
DICTIONARYVAR
  5
22808
102
{ACAD_REACTORS
330
173D
102
}
330
173D
100
DictionaryVariables
280
     0
  1
0
  0
DICTIONARYVAR
  5
52650
102
{ACAD_REACTORS
330
173D
102
}
330
173D
100
DictionaryVariables
280
     0
  1
1
  0
DICTIONARYVAR
  5
173E
102
{ACAD_REACTORS
330
173D
102
}
330
173D
100
DictionaryVariables
280
     0
  1
96
  0
XRECORD
  5
2272A
102
{ACAD_REACTORS
330
22728
102
}
330
22728
100
AcDbXrecord
280
     1
  0
XRECORD
  5
1606
102
{ACAD_REACTORS
330
1563
102
}
330
1563
100
AcDbXrecord
280
     1
 91
      483
330
10
 90
        8
 62
     7
370
    -3
331
16
  1
Color_7
  0
DICTIONARY
  5
22AE9
330
22
100
AcDbDictionary
280
     1
281
     1
  3
ADSK_XREC_LAYOUTTHUMBNAIL
360
22AEA
  0
DICTIONARY
  5
22736
330
22735
100
AcDbDictionary
280
     1
281
     1
  3
ACAD_XREC_ROUNDTRIP
360
52A8E
  3
BUMPTILE
360
22738
  3
DIFFUSETILE
360
22737
  3
OPACITYTILE
360
2273B
  3
REFLECTIONTILE
360
2273A
  3
REFRACTIONTILE
360
2273C
  3
SPECULARTILE
360
22739
  0
DICTIONARY
  5
2272E
330
2272D
100
AcDbDictionary
280
     1
281
     1
  3
ACAD_XREC_ROUNDTRIP
360
52A8D
  3
BUMPTILE
360
22730
  3
DIFFUSETILE
360
2272F
  3
OPACITYTILE
360
22733
  3
REFLECTIONTILE
360
22732
  3
REFRACTIONTILE
360
22734
  3
SPECULARTILE
360
22731
  0
DICTIONARY
  5
2273E
330
2273D
100
AcDbDictionary
280
     1
281
     1
  3
ACAD_XREC_ROUNDTRIP
360
52A8F
  3
BUMPTILE
360
22740
  3
DIFFUSETILE
360
2273F
  3
OPACITYTILE
360
22743
  3
REFLECTIONTILE
360
22742
  3
REFRACTIONTILE
360
22744
  3
SPECULARTILE
360
22741
  0
DICTIONARY
  5
52A87
330
2276C
100
AcDbDictionary
280
     1
281
     1
  3
ACAD_XREC_ROUNDTRIP
360
52A88
  0
DICTIONARY
  5
22803
330
22758
100
AcDbDictionary
280
     1
281
     1
  3
ACAD_ROUNDTRIP_2008_TABLESTYLE_CELLSTYLEMAP
360
52A86
  3
ACAD_XREC_ROUNDTRIP
360
52AB0
  0
DICTIONARY
  5
52A9A
330
2274B
100
AcDbDictionary
280
     1
281
     1
  3
ACAD_XREC_ROUNDTRIP
360
52A9B
  0
DICTIONARY
  5
52A9E
330
2274D
100
AcDbDictionary
280
     1
281
     1
  3
ACAD_XREC_ROUNDTRIP
360
52A9F
  0
DICTIONARY
  5
52A9C
330
2274C
100
AcDbDictionary
280
     1
281
     1
  3
ACAD_XREC_ROUNDTRIP
360
52A9D
  0
DICTIONARY
  5
52A98
330
2274A
100
AcDbDictionary
280
     1
281
     1
  3
ACAD_XREC_ROUNDTRIP
360
52A99
  0
DICTIONARY
  5
52AA6
330
22751
100
AcDbDictionary
280
     1
281
     1
  3
ACAD_XREC_ROUNDTRIP
360
52AA7
  0
DICTIONARY
  5
52AAE
330
22755
100
AcDbDictionary
280
     1
281
     1
  3
ACAD_XREC_ROUNDTRIP
360
52AAF
  0
DICTIONARY
  5
52AA0
330
2274E
100
AcDbDictionary
280
     1
281
     1
  3
ACAD_XREC_ROUNDTRIP
360
52AA1
  0
DICTIONARY
  5
52AA4
330
22750
100
AcDbDictionary
280
     1
281
     1
  3
ACAD_XREC_ROUNDTRIP
360
52AA5
  0
DICTIONARY
  5
52AC3
330
22A03
100
AcDbDictionary
280
     1
281
     1
  3
ACAD_XREC_ROUNDTRIP
360
52AC4
  0
DICTIONARY
  5
52AAC
330
22754
100
AcDbDictionary
280
     1
281
     1
  3
ACAD_XREC_ROUNDTRIP
360
52AAD
  0
DICTIONARY
  5
52A90
330
22746
100
AcDbDictionary
280
     1
281
     1
  3
ACAD_XREC_ROUNDTRIP
360
52A91
  0
DICTIONARY
  5
52A92
330
22747
100
AcDbDictionary
280
     1
281
     1
  3
ACAD_XREC_ROUNDTRIP
360
52A93
  0
DICTIONARY
  5
52A94
330
22748
100
AcDbDictionary
280
     1
281
     1
  3
ACAD_XREC_ROUNDTRIP
360
52A95
  0
DICTIONARY
  5
52A96
330
22749
100
AcDbDictionary
280
     1
281
     1
  3
ACAD_XREC_ROUNDTRIP
360
52A97
  0
DICTIONARY
  5
52AB3
330
229FB
100
AcDbDictionary
280
     1
281
     1
  3
ACAD_XREC_ROUNDTRIP
360
52AB4
  0
DICTIONARY
  5
52ABF
330
22A01
100
AcDbDictionary
280
     1
281
     1
  3
ACAD_XREC_ROUNDTRIP
360
52AC0
  0
DICTIONARY
  5
52AAA
330
22753
100
AcDbDictionary
280
     1
281
     1
  3
ACAD_XREC_ROUNDTRIP
360
52AAB
  0
DICTIONARY
  5
52AC1
330
22A02
100
AcDbDictionary
280
     1
281
     1
  3
ACAD_XREC_ROUNDTRIP
360
52AC2
  0
DICTIONARY
  5
52AA2
330
2274F
100
AcDbDictionary
280
     1
281
     1
  3
ACAD_XREC_ROUNDTRIP
360
52AA3
  0
DICTIONARY
  5
52ABD
330
22A00
100
AcDbDictionary
280
     1
281
     1
  3
ACAD_XREC_ROUNDTRIP
360
52ABE
  0
DICTIONARY
  5
52ABB
330
229FF
100
AcDbDictionary
280
     1
281
     1
  3
ACAD_XREC_ROUNDTRIP
360
52ABC
  0
DICTIONARY
  5
52AB5
330
229FC
100
AcDbDictionary
280
     1
281
     1
  3
ACAD_XREC_ROUNDTRIP
360
52AB6
  0
DICTIONARY
  5
52AB7
330
229FD
100
AcDbDictionary
280
     1
281
     1
  3
ACAD_XREC_ROUNDTRIP
360
52AB8
  0
DICTIONARY
  5
52AA8
330
22752
100
AcDbDictionary
280
     1
281
     1
  3
ACAD_XREC_ROUNDTRIP
360
52AA9
  0
DICTIONARY
  5
52AB1
330
229FA
100
AcDbDictionary
280
     1
281
     1
  3
ACAD_XREC_ROUNDTRIP
360
52AB2
  0
DICTIONARY
  5
52AB9
330
229FE
100
AcDbDictionary
280
     1
281
     1
  3
ACAD_XREC_ROUNDTRIP
360
52ABA
  0
XRECORD
  5
22AEA
102
{ACAD_REACTORS
330
22AE9
102
}
330
22AE9
100
AcDbXrecord
280
     1
310
280000000001000065000000010008000000000000650000000000000000000000010000000000003028210000000000FFFFFF000000000000000000000000000000000000000000000000000000000000000000330000006600000099000000CC000000FF00000000330000333300006633000099330000CC330000FF3300
310
0000660000336600006666000099660000CC660000FF66000000990000339900006699000099990000CC990000FF99000000CC000033CC000066CC000099CC0000CCCC0000FFCC000000FF000033FF000066FF000099FF0000CCFF0000FFFF000000003300330033006600330099003300CC003300FF003300003333003333
310
33006633330099333300CC333300FF33330000663300336633006666330099663300CC663300FF66330000993300339933006699330099993300CC993300FF99330000CC330033CC330066CC330099CC3300CCCC3300FFCC330000FF330033FF330066FF330099FF3300CCFF3300FFFF330000006600330066006600660099
310
006600CC006600FF00660000336600333366006633660099336600CC336600FF33660000666600336666006666660099666600CC666600FF66660000996600339966006699660099996600CC996600FF99660000CC660033CC660066CC660099CC6600CCCC6600FFCC660000FF660033FF660066FF660099FF6600CCFF6600
310
FFFF660000009900330099006600990099009900CC009900FF00990000339900333399006633990099339900CC339900FF33990000669900336699006666990099669900CC669900FF66990000999900339999006699990099999900CC999900FF99990000CC990033CC990066CC990099CC9900CCCC9900FFCC990000FF99
310
0033FF990066FF990099FF9900CCFF9900FFFF99000000CC003300CC006600CC009900CC00CC00CC00FF00CC000033CC003333CC006633CC009933CC00CC33CC00FF33CC000066CC003366CC006666CC009966CC00CC66CC00FF66CC000099CC003399CC006699CC009999CC00CC99CC00FF99CC0000CCCC0033CCCC0066CC
310
CC0099CCCC00CCCCCC00FFCCCC0000FFCC0033FFCC0066FFCC0099FFCC00CCFFCC00FFFFCC000000FF003300FF006600FF009900FF00CC00FF00FF00FF000033FF003333FF006633FF009933FF00CC33FF00FF33FF000066FF003366FF006666FF009966FF00CC66FF00FF66FF000099FF003399FF006699FF009999FF00CC
310
99FF00FF99FF0000CCFF0033CCFF0066CCFF0099CCFF00CCCCFF00FFCCFF0000FFFF0033FFFF0066FFFF0099FFFF00CCFFFF00FFFFFF00000000000D0D0D001A1A1A00282828003535350043434300505050005D5D5D006B6B6B00787878008686860093939300A1A1A100AEAEAE00BBBBBB00C9C9C900D6D6D600E4E4E400
310
F1F1F100FFFFFF000000000000000000000000000000000000000000000000000000000000000000000000000000000000000000000000000000000000000000000000000000000000000000000000000000000000000000000000000000000000000000000000000000000000000000000000000000000000000000000000
310
00000000000000000000000000000000000000000000000000000000000000000000000000000000000000000000000000000000000000000000000000000000000000000000000000000000000000000000000000000000000000000000000000000000000000000000000000000000000000000000000000000000000000
310
00000000000000000000000000000000000000000000000000000000000000000000000000000000000000000000000000000000000000000000000000000000000000000000000000000000000000000000000000000000000000000000000000000000000000000000000000000000000000000000000000000000000000
310
00000000000000000000000000000000000000000000000000000000000000000000000000000000000000000000000000000000000000000000000000000000000000000000000000000000000000000000000000000000000000000000000000000000000000000000000000000000000000000000000000000000000000
310
00000000000000000000000000000000000000000000000000000000000000000000000000000000000000000000000000000000000000000000000000000000000000000000000000000000000000000000000000000000000000000000000000000000000000000000000000000000000000000000000000000000000000
310
00000000000000000000000000000000000000000000000000000000000000000000000000000000000000000000000000000000000000000000000000000000000000000000000000000000000000000000000000000000000000000000000000000000000000000000000000000000000000000000000000000000000000
310
00000000000000000000000000000000000000000000000000000000000000000000000000000000000000000000000000000000000000000000000000000000000000000000000000000000000000000000000000000000000000000000000000000000000000000000000000000000000000000000000000000000000000
310
00000000000000000000000000000000000000000000000000000000000000000000000000000000000000000000000000000000000000000000000000000000000000000000000000000000000000000000000000000000000000000000000000000000000000000000000000000000000000000000000000000000000000
310
00000000000000000000000000000000000000000000000000000000000000000000000000000000000000000000000000000000000000000000000000000000000000000000000000000000000000000000000000000000000000000000000000000000000000000000000000000000000000000000000000000000000000
310
00000000000000000000000000000000000000000000000000000000000000000000000000000000000000000000000000000000000000000000000000000000000000000000000000000000000000000000000000000000000000000000000000000000000000000000000000000000000000000000000000000000000000
310
00000000000000000000000000000000000000000000000000000000000000000000000000000000000000000000000000000000000000000000000000000000000000000000000000000000000000000000000000000000000000000000000000000000000000000000000000000000000000000000000000000000000000
310
00000000000000000000000000000000000000000000000000000000000000000000000000000000000000000000000000000000000000000000000000000000000000000000000000000000000000000000000000000000000000000000000000000000000000000000000000000000000000000000000000000000000000
310
00000000000000000000000000000000000000000000000000000000000000000000000000000000000000000000000000000000000000000000000000000000000000000000000000000000000000000000000000000000000000000000000000000000000000000000000000000000000000000000000000000000000000
310
00000000000000000000000000000000000000000000000000000000000000000000000000000000000000000000000000000000000000000000000000000000000000000000000000000000000000000000000000000000000000000000000000000000000000000000000000000000000000000000000000000000000000
310
00000000000000000000000000000000000000000000000000000000000000000000000000000000000000000000000000000000000000000000000000000000000000000000000000000000000000000000000000000000000000000000000000000000000000000000000000000000000000000000000000000000000000
310
00000000000000000000000000000000000000000000000000000000000000000000000000000000000000000000000000000000000000000000000000000000000000000000000000000000000000000000000000000000000000000000000000000000000000000000000000000000000000000000000000000000000000
310
00000000000000000000000000000000000000000000000000000000000000000000000000000000000000000000000000000000000000000000000000000000000000000000000000000000000000000000000000000000000000000000000000000000000000000000000000000000000000000000000000000000000000
310
00000000000000000000000000000000000000000000000000000000000000000000000000000000000000000000000000000000000000000000000000000000000000000000000000000000000000000000000000000000000000000000000000000000000000000000000000000000000000000000000000000000000000
310
00000000000000000000000000000000000000000000000000000000000000000000000000000000000000000000000000000000000000000000000000000000000000000000000000000000000000000000000000000000000000000000000000000000000000000000000000000000000000000000000000000000000000
310
00000000000000000000000000000000000000000000000000000000000000000000000000000000000000000000000000000000000000000000000000000000000000000000000000000000000000000000000000000000000000000000000000000000000000000000000000000000000000000000000000000000000000
310
00000000000000000000000000000000000000000000000000000000000000000000000000000000000000000000000000000000000000000000000000000000000000000000000000000000000000000000000000000000000000000000000000000000000000000000000000000000000000000000000000000000000000
310
00000000000000000000000000000000000000000000000000000000000000000000000000000000000000000000000000000000000000000000000000000000000000000000000000000000000000000000000000000000000000000000000000000000000000000000000000000000000000000000000000000000000000
310
00000000000000000000000000000000000000000000000000000000000000000000000000000000000000000000000000000000000000000000000000000000000000000000000000000000000000000000000000000000000000000000000000000000000000000000000000000000000000000000000000000000000000
310
00000000000000000000000000000000000000000000000000000000000000000000000000000000000000000000000000000000000000000000000000000000000000000000000000000000000000000000000000000000000000000000000000000000000000000000000000000000000000000000000000000000000000
310
00000000000000000000000000000000000000000000000000000000000000000000000000000000000000000000000000000000000000000000000000000000000000000000000000000000000000000000000000000000000000000000000000000028002800280000000000000000000000000000000000000000000000
310
00000000000000000000000000000000280028280000000000000000000000000000000000000000000000000000000000000000000000000000002800280028000000000000000000000000000000000000000000000000000000000000000000000000000000280028280000000000000000000000000000000000000000
310
00000000000000000000000000000000000000280028002800000000000000000000000000000000000000000000000000000000000000000000000000000000000000000000000000000000000000000000000000000000000000000000000000000000000028002800280000000000000000000000000000000000000000
310
00000000000000000000000000000000000000280028280000000000000000000000000000000000000000000000000000000000000000000000000000002800280028000000000000000000000000000000000000000000000000000000000000000000000000000000280028280000000000000000000000000000000000
310
00000000000000000000000000000000000000000000280028002800000000000000000000000000000000000000000000000000000000000000000000000000000000000000000000000000000000000000000000000000000000000000000000000000000000000028002800280000000000000000000000000000000000
310
00000000000000000000000000000000000000000000280028280000000000000000000000000000000000000000000000000000000000000000000000000000002800280028000000000000000000000000000000000000000000000000000000000000000000000000000000280028280000000000000000000000000000
310
00000000000000000000000000000000000000000000000000280028002800000000000000000000000000000000000000000000000000000000000000000000000000000000000000000000000000000000000000000000000000000000000000000000000000000000000028002800280000000000000000000000000000
310
00000000000000000000000000000000000000000000000000280028280000000000000000000000000000000000000000000000000000000000000000000000000000002800280028000000000000000000000000000000000000000000000000000000000000000000000000000000280028280000000000000000000000
310
0000000000000000000000000000000000000000000000000000000028002800280000000000000000000000000000000000000000000000000000000000000000000000000000000000000000000000000000000000000000000000000000000000000000000000000000000000002800280028000000F500000000000000
310
00000000000000000000000000000000000000000000000000000000280028280000000000000000F5000000000000000000000000000000000000000000000000000000000000280028002800000000000000F500000000000000000000000000000000000000000000000000000000000000280028280000000000000000
310
0000000000000000000000000000000000000000000000000000000000000028002800280000F500000000000000000000000000000000000000000000000000000000000000000000000000000000000000000000000000000000000000000000002D2D2D2D2D2D2D2D2D2D2D2D2D2D2D2D282D282D282D2D2D2D2D2D2D2D
310
2D2D2D2D2D2D2D2D2D2D2D2D2D2D2D2D2D2D2D2D2D2D2D2D2D2D2D2D2D2D2D282D28282D2D2D2D2D2D2DF52D2D2D2D2D2D2D2D2D2D2D2D2D2D2D2D2D2D2D2D2D2D2D2D2D2D2D2D2D2D2D2D2D2D2D2D2D2D2D2D2D2D2D2D2D2D2D2D2D2D2D2D2D2D2D2D2D2D2D2D2D2D2D2D2D2D2D2D2D2D2D2D2D2D2D282D28282D2D2D2D2D
310
2D2D2D2D2D2D2D2D2D2D2D2D2D2D2D2D2D2D2D2D2D2D2D2D2D2D2D2D2D2D2D2D2D2D282D282D282D2D2D2D2D2D2D2D2D2D2D2D2D2D2D2D2D2D2D2D2D2D2D2D2D2D2D2D2D2D2D2D2D2DF52D2D2D2D2D2D2D2D2D2D000000000000000000000000000000000000000000000000000000000000000000002D00000000F5000000
310
002D000000000000000000000000000000000000000000000000000000000000000000000000002D2D2D2D2DF52D2D2D2D000000002D00000000000000000000000000000000000000000000002D2D000000002D2D2D2DF52D2D2D2D2D00000000000000000000000000000000000000000000000000000000000000000000
310
000000000000000000000000000000000000000000000000000000000000000000000000002D2D000000F5000000002D2D00000000000000000000000000000000000000000000000000000000000000000000002D00000000000000000000000000000000000000000000000000000000000000000000002DF52D2D2D2D2D
310
2D2D2D2D000000000000000000000000000000000000000000000000000000000000000000000000002DF5000000F50000002D000000002D000000000000000000000000000000000000000000002D002D000000002D000000F5000000F52D0000000000000000000000000000000000000000000000000000000000000000
310
000000000000000000000000000000000000000000000000000000000000000000000000000000002D2D2D2D2D2D2D2D2D2D0000000000000000000000000000000000000000000000000000000000000000000000002D000000000000000000000000000000000000000000000000000000000000000000000000F5000000
310
F50000002D000000000000000000000000000000000000000000000000000000000000000000000000000000F5000000F500002D00000000002D00000000000000000000000000000000000000002D2D00002D00000000002D0000F50000002DF5000000000000000000000000000000000000000000000000000000000000
310
0000000000000000000000000000000000000000000000000000000000000000000000000000000000002D000000F5000000002D0000000000000000000000000000000000000000000000000000000000000000000000002D0000000000000000000000000000000000000000000000000000000000000000000000F52D00
310
0000F50000002D0000000000000000000000000000000000000000000000000000000000000000000000000000F52D2D2D2DF52D2D2D00000000002D000000000000000000000000000000000000002D000000002D00000000002D2D2DF52D2D2D2DF500000000000000000000000000000000000000000000000000000000
310
00000000000000000000000000000000000000000000000000000000000000000000000000000000000000002D000000F5000000002D0000000000000000000000000000000000000000000000000000000000000000000000002D0000000000000000000000000000000000000000000000000000000000000000000000F5
310
2D000000F50000002D0000000000000000000000000000000000000000000000000000000000000000000000000000F500002D00F5002D0000000000002D0000000000000000000000000000000000002D00000000002D0000000000002D00F5002D000000F500000000000000000000000000000000000000000000000000
310
000000000000000000000000000000000000000000000000000000000000000000000000000000000000000000002D000000F5000000002D0000000000000000000000000000000000000000000000000000000000000000000000002D00000000F5F5F5F5F5F5F5F5F5F5F5F5F5F5F5F5F5F5F5F5F5F5F5F5F5F5F5F5F5F5
310
F5002D000000F50000002D000000000000000000F5F5F5F5F5F5F5F5F5F5F5F5F5F5F5F5F5F5F5F5F5F5F5F5F5F5F5F5F500002D2D2D2D2D2D0000000000002D00000000000000000000000000000000002D0000000000002D0000000000002D00F5002D00000000F500000000000000000000000000000000000000000000
310
000000000000000000000000000000000000000000000000000000000000000000000000000000000000000000000000F52D0000F50000002D000000000000000000000000000000000000000000000000000000000000000000000000002D0000000000F500F5F500F5F500F500F5F500F5F500F5F5F5F5F5F5F500F5F5F5
310
F5F500002D000000F50000002D0000000000000000000000F500F5F500F5F5F5F500F5F500F5F5F500F5F5F5F5F5F500F5F50000002D2D2D2D002D0000000000002D000000000000000000000000000000002D000000000000002D0000000000002D00F5002D00000000F50000000000000000000000000000000000000000
310
00000000000000000000000000000000000000000000000000000000000000000000000000000000000000000000000000F5002D0000F50000002D000000000000000000000000000000000000000000000000000000000000000000000000002D0000000000F5F5F5F500F5F500F500F5F5F5F50000F5F5F5F5F5F5F500F5
310
F500F50000002D2D2D2D2D2D2D2D2D0000000000000000000000F5F5F5F500F5F5F5F500F5F5F5F500F5F500F5F5F5F5F5F5F5000000002D2D2D2D002D0000000000002D00000000000000000000000000002D2D00000000000000002D0000000000002D00F5002D0000000000F5F5F5F5F5F5F5F5F5F5F5F5F5F5F5F5F5F5
310
F5F5F5F5F5F5F5F5F5F50000000000000000000000000000000000000000000000000000000000000000000000000000000000F5002D2D2D2D2D2D2D2D000000000000000000000000000000000000000000000000000000000000000000000000002D0000000000F5000000000000000000000000F50000F5F5F5F5F5F5F5
310
0000F500F500000000002D00F5002D0000000000000000000000000000000000000000000000000000F500F5F5F500F50000F50000000000002D2D2D2D002D0000000000002D000000000000000000000000002D000000000000000000002D0000000000002D00F5002D000000000000000000000000000000000000000000
310
00000000000000000000000000000000000000000000000000000000000000000000000000000000000000000000000000000000F50000002D00F500002D00000000000000000000000000000000000000000000000000000000000000000000000000002D0000000000000000000000000000000000000000000000000000
310
00000000000000000000002D2D2D2D2D2D0000000000000000000000000000000000000000000000000000000000000000000000000000000000002D2D2D2D002D0000000000002D0000000000000000000000002D00000000000000000000002D0000000000002D00F5002D000000000000F5F500F500F5F500F5F5F5F500
310
F5F5F5F5F500F5F5F5F5F5F5F5F500000000000000000000000000000000000000000000000000000000000000000000000000000000F50000002D00F500002D00000000000000000000000000000000000000000000000000000000000000000000000000002D000000000000000000000000000000000000000000000000
310
000000000000000000000000002D2D002D002D0000000000000000000000000000000000000000000000000000000000000000000000000000000000002D2D2D2D002D0000000000002D00000000000000000000002D0000000000000000000000002D0000000000002D2D2D2D2D2D0000000000F5F5F5F500F5F5F5F5F5F5
310
F5F5F50000F50000F5F5F5F5F500F500000000000000000000F5F5F5F5F5F5F5F5F5F5F5F5F5F5F5F5F5F5F5F5F5F5F5F5F5F5F5F5F5F5F5000000002D00F500002D00000000000000000000000000000000000000000000000000000000000000000000000000002D00000000000000000000000000000000000000000000
310
0000000000000000000000000000002D2D002D002D0000000000000000000000000000000000000000000000000000000000000000000000000000000000002D2D2D2D002D0000000000002D000000000000000000002D000000000000000000000000002D0000000000002D002D2D2D2D0000000000F50000000000000000
310
00000000F50000F5F500F5F500F5F500F50000000000000000000000F500F5F500F500F5F500F500000000000000000000000000F5F5F500F500000000002D00F500002D00000000000000000000000000000000000000000000000000000000000000000000000000002D0000000000000000000000000000000000000000
310
00000000000000000000000000000000002D2D002D002D0000000000000000000000000000000000000000000000000000000000000000000000000000000000002D2D2D2D002D0000000000002D00000000000000002D2D00000000000000000000000000002D0000000000002D002D2D2D2D000000000000000000000000
310
000000000000000000000000000000000000000000000000000000000000F5F5F5F500F5F500F50000F500F5F500F5F5F5F5F5F5F50000F500F5F500000000002D00F500002D00000000000000000000000000000000000000000000000000000000000000000000000000002D000000000000000000000000000000000000
310
000000000000000000000000000000000000002D2D002D002D0000000000000000000000000000000000000000000000000000000000000000000000000000002D2D2D2D2D2D2D2D2D2D2D2D0000002D000000000000002D000000000000000000000000000000002D00000000002D2D2D2D2D2D2D00000000000000000000
310
0000000000000000000000000000000000000000000000000000000000000000F5F5000000F5F5F5F500F5F5F5F50000F5F5F5F5F5F5F500F5F500F50000000000002D00F500002D00000000000000000000000000000000000000000000000000000000000000000000000000002D00000000000000000000000000000000
310
0000000000000000000000000000000000000000002D2D002D002D0000000000000000000000000000000000000000000000000000000000000000000000000000002D0000000000F5000000002D0000002D0000000000002D00000000000000000000000000000000002D00000000002D2D002D2D002D0000000000000000
310
00000000000000000000000000000000000000000000000000000000000000000000000000000000000000000000000000000000000000000000000000000000000000002D2D2D2D2D2D00000000000000000000000000000000000000000000000000000000000000000000000000002D0000000000000000000000000000
310
0000F5F5F5F5F5F5F5F5F5F5F5F5F5F5F5F500000000002D2D002D002D0000000000000000000000000000000000000000000000000000000000000000000000000000002D2D2D2D2D2D2D2D2D2D2D2D2D2D2D2D00000000002D0000000000000000000000000000000000002D00000000002D2D002D2D002D000000000000
310
000000000000000000000000000000000000000000000000000000000000000000000000000000000000000000000000000000000000000000000000000000000000000000002D002D2D002D000000000000000000000000000000000000000000000000000000000000000000000028282828000000000000000000000000
310
0000000000F5F500000000F500F5F5F5F5F50000F5000000002D2D2D2D2D2D2D00000000000000000000000000000000000000000000000000000000000000000000000000002D2D2D000000F500002D2D2D2D2D002D000000002D000000000000000000000000000000000000002D000000002D2D2D002D2D002D2D000000
310
0000000000000000000000000000000000000000000000000000000000000000000000000000000000000000000000000000000000000000000000000000000000000000000000002D002D2D002D00000000000000000000000000000000000000000000000000000000000000000000000028282800000000000000000000
310
00000000000000F5F500F5F500F5F5F5F5F5F5F50000F500002D2D2D2D2DF52D2D2D2D2D0000000000000000000000000000000000000000000000000000000000000000000000002D00002D0000F5002D00002D2D2D2D2D00002D2D00000000000000000000000000000000000000002D000000002D2D2D002D2D002D2D00
310
00000000000000000000000000000000000000000000000000000000000000000000000000000000000000000000000000000000000000000000000000000000000000000000000000002D002D2D002D00000000000000000000000000000000000000000000000000000000000000000000000000002D0000000000000000
310
00000000000000000000F5F5000000F5F5F5F5F5F5F5000000F52D00002D2D2DF52D002D00002D2D000000000000000000000000000000000000000000000000000000000000000000002D0000002D2DF52D0000002D2D2D2D2D002D000000000000000000000000000000000000000000002D000000002D2D2D002D2D002D
310
2D2D00000000000000000000000000000000000000000000000000000000000000000000000000000000000000000000000000000000000000000000000000000000000000000000000000002D002D2D002D00000000000000000000000000000000000000000000000000000000000000000000000000002D000000000000
310
000000000000000000000000000000000000000000000000002D2D2D2D2D2D2D2D2DF52D2D2D2D2D2D002D2D00000000000000000000000000000000000000000000000000000000000000002D0000002D2DF52D0000002D2D2D2D2D2D00000000000000000000000000000000000000000000002D0000002D2D2D2D2D2D2D
310
2D2D2D2D2D000000000000000000000000000000000000000000000000000000000000000000000000000000000000000000000000000000000000000000000000000000000000000000000000002D002D2D002D000000000000F5F5F5F5F5F5F5F5F5F5F5F5F5F5F5F5F50000000000000000000000000000002D00000000
310
0000000000000000000000000000000000000000000000002D2D2D2D2D2D2D2D2D2D2D2DF52D2D2D2D2D2D2D2D2D2D2D2D00000000000000000000000000000000000000000000000000000000002D00002D0000F5002D00002D2D2D2D2D2D2D2D2D2D2D2D2D2D2D2D2D2D2D2D2D2D2D2D2D2D2D2D2D2D0000002D00000000
310
F500000000002D000000000000000000000000000000000000000000000000000000000000000000000000000000000000000000000000000000000000000000000000000000000000000000000000002D002D2D002D0000000000F500F5F5F5000000F5F5F5F5F5F5F50000000000000000000000000000000000002D0000
310
00000000000000000000000000000000000000000000000000002D2D2D2D2D2D2D2D2D2D2D2DF52D2D2D2D2D2D2D2D2D2D2D2D00000000000000000000000000002D2D000000000000000000000000002D2D2D000000F500002D2D2D002D2D2D0000002D0000000000000000000000002D2D2D002D0000002D2D2D2D2D2D2D
310
2D2D2D2D2D2D2D2D2D000000000000000000000000000000000000000000000000000000000000000000000000000000000000000000000000000000000000000000000000000000000000000000000000002D002D2D002D0000000000F500F5F5F5F5F5F5F5F5F5F5F5F5F5F500000000000000000000000000000000002D
310
00000000000000000000000000000000002D2D2D2D2D2D2D2D2D2D2D2D2D2D2D2D2D2D2D2D2D2D2DF52D2D2D2D2D2D2D2D2D2D2D2D2D2D2D2D2D2D2D2D2D2D2D2D2D2D2D2D2D2D2D2D2D2D2D2D2D2D2D2D2D2D2D2D2D2D2DF52D2D2D2D2D2D2D2D2D0000002D0000000000000000002D2D2D000000002D0000002D2D2D2D2D
310
2D2D0000F50000002D2D2D0000000000000000000000000000000000000000000000000000000000000000000000000000000000000000000000000000000000000000000000000000000000000000000000002D2D2D2D2D2D2D2D000000F5000000000000000000000000F500000000000000000000000000000000000000
310
002D000000000000000000000000000000000000000000000000282800000000000000002828002D0000F500002D282800000000000000002828000000000000000028282D2D0000000000002828000000000000000028280000F5000000002D0000002D0000002D000000000000002D2D000000000000002D0000002D2D2D
310
2D2D00002D00F500002D0000F5000000000000000000000000000000000000000000000000000000000000000000000000000000000000000000000000000000000000000000000000000000000000000000002D2D2D2D2DF52D2D2D2D2D2D00F5000000000000000000000000000000000000000000000000000000000000
310
0000002D000000000000000000000000000000000000282800280000000028002828002800000000282D00000000002D0000282800280028280000002828002800282800002D2D00002800282800000028280028002828000000282800280028282D0000002D0000002D000000002D2D2D0000000000000000002D0000002D
310
2D2D2D2D0000002DF52D2D0000002DF5000000000000000000000000000000000000000000000000000000000000000000000000000000000000000000000000000000000000000000000000000000000000002D2D2D2D2D2D2DF52D002D2D2D2DF52D00000000000000000000000000000000000000000000000000000000
310
00000000002D000000000000000000000000000000000000000000002828000000000000000028280000002D00000000002D0000000000000000282800000000000000002828002D2D2800000000282800000000000000002828000000000000000028280000002D0000002D002D2D2D0000000000000000000000002D0000
310
002D2D2D002D0000002DF52D2D0000002DF500000000000000000000000000000000000000000000000000000000000000000000000000000000000000000000000000000000000000000000000000000000002D2D2D2D2D002D002DF52D2D002D002D2D2D2D2D000000000000000000000000000000000000000000000000
310
000000000000002D000000000000000000000000000000000000280000280028280028002800002800282800282D00000000002D28002828282800282800280028282828002828002D2D0000282800282800280028282800002828002800282828000028282D0000002D282D282D28282D282D282D282D28282D282D282D28
310
282D282D2D2D2D2D00002D00F500002D00002D00F500000000000000000000000000000000000000000000000000000000000000000000000000000000000000000000000000000000000000000000000000002D2D2D2D2D2D2D2D2D2D2DF52D2D2D2D2D2D2D2D2D2D2D2D0000000000000000000000000000000000000000
310
0000000000000000002D00000000000000000000000000000000002D282D2D2D2D2D2D2D2D2D282D2D2D2D2D2D2D2D2D2D2D2D2D2D2D2D2D2D2D282D2D2DF52D2D2D2D2D282D2D2D2D2D2D2D282D282D2D2D2D2D2D2D2D2D282D2D2D2D2D2D2D2D2D282D2D2D2D2D0000002800280028280028002800280028280028002800
310
28280028002D2D2D2D2D2D2D0000F50000002D2D2D00F500000000000000000000000000000000000000000000000000000000000000002D002D0000000000000000000000000000000000000000000000000000002D2D000000000000000000F5000000000000000000002D2D000000000000000000000000000000000000
310
00000000000000000000002D000000000000000000000000000000000000000028280028000000280028000000280028000000282800280000002800280000F528002800000028280028002D2D2800280000002800280000002828002800000028002800000028002800000028282800282800280028002800282800280028
310
002828002800282D2D2D2D2D2D2D2D2DF52D2D2D2D2D2D2D2DF52D2D2D2D2D2D2D2D2D2D2D2D2D2D2D2D2D2D2D2D2D2D2D2D2D2D2D2D2D2D2D2D2D2D2D2D2D2D2D2D2D2D2D2D2D2D2D2D2D2D2D2D2D2D2D2D2D2D2D2D2D2D2D2D2D2D2D2D2D2D2D2DF52D2D2D2D2D2D2D2D2D2D2D2D2D2D2D2D2D2D2D2D2D2D2D2D2D2D2D2D
310
2D2D2D2D0000000000000000002D000000000000000000000000000000000000000028000028000028000028000000280000280000280000280000280000280000F528000028000028000028002D28000000280000280000280000280000280000280000002800002800002800002828002828002800280028002828002800
310
280028280028002800280000002D00282828280028002828002828282800280028280028282828002800282800282828280028002828002828002D0028002828002828282800280028280028282800282800280000282828002828002800002828282D00F500002D0028282800282800280000280028002828002800002800
310
2800282800000000000000000000002D0000000000000000000000000000000000000000280000280000280000280000002800002800002800002800002800002800F500280000280000280000282D2D2800000028000028000028000028000028000028000000280000280000280000282828280028002800280028280028
310
0028002828002800280028282800002D28000028280028002828280000282800280028282800002828002800282828000028280028002828280000002D2D280028282800002800002800282828F5002800002800282828000028002828002828280000282D000000002D000000280028280028282800002800282800282800
310
00002800282800000000000000000000002D0000000000000000000000000000000000000000280000280000280000280000002800002800002800002800002800002800F5002800002800002800002D2D00280000002800002800002800002800002800002800000028000028000028000028282800280028002800280028
310
28002828282800280028002828282800002D282800282800000028282828002828000000282828280028280000002828282800282800000028282828002D002D00002828282800282800000028282828F52800000000282828280028000000002828282800282D000000002D28280028000000002828282800280000000028
310
282828002800000000000000000000000000002D00000000000000000000000000000000000000002800002800002800002800000028000028000028000028000028000028F500002800002800002800002D2D0028000000280000280000280000280000280000280000002800002800002800002828002800280028002800
310
282800282800280028002800282800282800002D002800282828280028280028002828282800282800280028282828002828002800282828280028280028002D2D2800002828002800280028000028000028F52800280000280000280028002800002800282800282D000000002D2828002800280000280028280028002800
310
0028002828002800280000000000000000000000002D00000000000000000000000000000000000000002800002800002800002800000028000028000028000028000028000028F5000028000028000028002D2800002800000028000028000028000028000028000028000000280000280000280000282828002800280028
310
002828002828002800280028002828002828282D2D2D2D2D2D2D2D2D2D2D2D2D2D2D2D2D2DF52D2D2D2D2D2D2D2D2D2D2D2D2D2D2D2D2D2D2D2D2D2D2D2D2D2D2D2D2D2D2D2D2D2D2D2D2D2D2D2D2D2D2D2D2D2D2DF52D2D2D2D2D2D2D2D2D2D2D2D2D2D2D2D2D2D2D2D2D2D2D2D2D2D2D2D2D2D2D2D2D2D2D2D2D2D2D2D2D
310
2D2D2D2D2D2D2D2D2D2D2D2D2D2DF52D2D2D2D2D2D2D2DF52D0000000000000000000000000000000028000028000028000028000028000000280000280000280000280000280000F500000028000028000028002D280000280000002800002800002800002800002800002800000028000028000028000028280028002800
310
28002828002828002800280028002828002800282800000000000000000000000000000000000000F5000000000000000000000000000000000000000000000000002D2D00000000000000000000000000000000000000F5000000000000000000000000000000000000000000000000000000000000000000000000000000
310
00000000000000000000000000000000000000000000000000000000000000000000000000000000000000280000280000002800280000002800280000002800002800000028002800F500280028000000280028002D2D00280028000000280028000000280000280000002800280000002800280000002800002828280028
310
00282828282D282800282D282D282D28280028002828280000000000000000000000000000000000000000F500000000000000000000000000000000000000000000002D2D000000000000000000000000000000000000000000F5000000000000000000000000000000000000000000000000000000000000000000000000
310
0000000000000000000000000000000000000000000000000000000000000000000000000000000000000000002D2D2D2D2D2D2D2D2D2D2D2D2D2D2D2D2D2D2D2D2D2D2D2D2D2D2D2D2D2DF52D2D2D2D2D2D2DF52D2D2D2D2D2D2D282D2D2D2D2D282D2D2D2D2D2D2D2D2D2D2D2D2D2D2D2D2D2D2D2D2D2D2D2D2D2D2D2D2D
310
282D28282D000000002D282D2D00000000282DF52D282D28F528282D2D2D2D2D2D2D2D2D2D2D2D2D2D2D2D2D2DF52D2D2D2D2D2D2D2D2D2D2D2D2D2D2D2D2D2D2D2D2D2D2D2D2D2D2D2D2D2D2D2D2D2D2D2D2D2DF52D2D2D2D2D2D2DF52D2D2D2D2D2D2D2D2D2D2D2D2D2D2D2D2D2D2D2D2D2D2D2D2D2D2D2D2D2D2D2D2D2D
310
2D2D2D2D2D2D2D2D2D2D2D2D2D2D2D2D2D2D2D2D0000000000000000000000000000000000000000000000000000000000000000000000000000000000000000000000000000000000000000F500000000000000F50000002D2D00000000000000000000000000000000000000000000000000000000000000000000000000
310
2D00000000002D000000002D00002D000000002D0000F500002D00F50000000000000000000000000000000000000000F50000000000000000000000000000000000000000002D2D000000000000000000000000000000F500000000000000F500000000000000000000000000000000000000000000000000000000000000
310
000000000000000000000000000000000000000000000000000000000000000000000000000000000000000000000000000000000000000000000000000000000000000000000000000000000000F500000000000000F500000000000000000000000000000000000000000000000000000000000000000000000000000000
310
00002D00000000002D000000002D00002D000000002D0000F500002D00F50000000000000000000000000000000000000000F50000000000000000000000000000000000000000000000000000000000000000000000000000F500000000000000F50000000000000000000000000000000000000000000000000000000000
310
00000000000000000000000000000000000000000000000000000000000000000000000000000000000000000000000000000000000000000000000000000000000000000000000000000000000000F500000000000000F5000000000000000000000000000000000000000000000000000000000000000000000000000000
310
000000002D00000000002D000000002D00002D000000002D000000F5002D0000F50000000000000000000000000000000000000000F50000000000000000000000000000000000000000000000000000000000000000000000000000F500000000000000F50000000000000000000000000000000000000000000000000000
310
000000000000000000000000000000000000000000000000000000000000000000000000000000000000000000000000000000000000000000000000000000000000000000000000000000000000000000F500000000000000F500000000000000000000000000000000000000000000000000000000000000000000000000
310
0000000000002D00000000002D000000002D00002D000000002D000000F5002D0000F50000000000000000000000000000000000000000F50000000000000000000000000000000000000000000000000000000000000000000000000000F500000000000000F5000000000000000000000000000000000000000000000000
310
00000000000000000000000000000000000000000000000000000000000000000000000000000000000000000000000000000000000000000000000000000000000000000000000000000000000000000000F500000000000000F5000000000000000000000000000000000000000000000000000000000000000000000000
310
00000000000000002D00000000002D000000002D00002D000000002D00000000F52D000000F50000000000000000000000000000000000000000F50000000000000000000000000000000000000000000000000000000000000000000000000000F500000000000000F5000000000000000000000000000000000000000000
310
000000000000000000000000000000000000000000000000000000000000000000000000000000000000000000000000000000000000000000000000000000000000000000000000000000000000000000000000F500000000000000F500000000000000000000000000000000000000000000000000000000000000000000
310
000000000000000000002D00000000002D000000002D00002D000000002D00000000F52D000000F50000000000000000000000000000000000000000F50000000000000000000000000000000000000000000000000000000000000000000000000000F500000000000000F500000000000000000000000000000000000000
310
00000000000000000000000000000000000000000000000000000000000000000000000000000000000000F5F5F5F5F5F5F5F5F5F5F5F5F5F5F5F5F5F5F5F5F5F5F5F5F5F5F5F5F5F5F5F5F5F5F5F5F5F5F5F5F5F5F500000000000000F5000000000000000000000000000000000000000000000000000000000000000000
310
0000000000000000000000002D00000000002D000000002D00002D000000002D0000000000F500000000F5F5F5F5F5F5F5F5F5F5F5F5F5F5F5000000000000F5F5F5F5F5F5F5F5F5F5F5F5F5F5F5F5F5F5F5F5F5F5F5F5F5F5F5000000000000000000000000F500000000000000F5F5F5F5F5F5F5F5F5F5F5F5F5F5F5F5F5
310
F5F5F5F5F5F5F5F5F5F5F5F5F5F5F5F5F5F5F5F5F5F5F5F5F5000000000000000000000000000000000000000000F5F5F5000000F500F5F500F5F500F5F5F5F5F5000000F5F50000F5F5F5F500F5F5F5F5F5F5F500F5F500000000000000F50000000000000000000000000000000000000000000000000000000000000000
310
00000000000000000000000000002D00000000002D000000002D00002D000000002D00000000002DF50000000000F500F500F5F500F5F500F5000000000000000000F5F5F5F5F500F5F5F5F5F5F5F500F5F5F5F5F5F5F5F5F5F5F50000000000000000000000000000F500000000000000F500F5000000F500F5F500F5F5F5
310
F5F5F5F5F5000000F5000000F5F50000F5F5F5F5F5F5F5F500F5F500000000000000000000000000000000000000000000F5F5F5F500F5F500F500F5F500F5F5F5F5F5F5F500F5F500F5F5F5F5F500F5F5F5F5F5F5F500F5F500000000000000F5000000000000000000000000000000000000000000000000000000000000
310
000000000000000000000000000000002D00000000002D000000002D00002D000000002D00000000002DF500000000F5F500F5F5F5F5F5F5F500F5F50000000000000000F5F5F5F5F5F5F5F500F5F5F5F500F5F5F5F5F5F5F5F5F5F5F50000000000000000000000000000F50000000000000000F500F5F5F5F5F500F500F5
310
F500F5F5F5F5F5F5F500F5F500F5F5F5F5F5F5F5F5F500F5F5F500F5F50000000000000000000000000000000000000000000000F5000000000000000000000000000000F5000000F5000000F500000000F50000F5000000000000000000000000F50000000000000000000000000000000000000000000000000000000000
310
0000000000000000000000000000000000002D00000000002D000000002D00002D000000002D00000000002D00F5000000F5F500F5F5F5F5F5000000F5F50000000000000000F5F5F5F5F5F5F500F5F5F5F5F500F500F5F5F5F5F5F5F50000000000000000000000000000000000F500000000000000F5F5000000F5F50000
310
0000F500F50000F5F5000000F5F50000F5000000F5F5F5F5F5F500000000000000000000000000000000000000000000000000000000000000000000000000000000000000000000000000000000000000000000000000000000000000000000000000F5000000000000000000000000000000000000000000000000000000
310
00000000000000000000000000000000000000002D00000000002D000000002D00002D000000002D00000000002D00F500000000000000000000000000000000000000000000000000000000000000000000000000000000000000000000000000000000000000000000000000000000F50000000000000000000000000000
310
00000000000000000000000000000000000000000000000000000000000000000000000000000000000000000000000000000000000000000000000000000000000000000000000000000000000000000000000000000000000000000000000000000000F50000000000000000000000000000000000000000000000000000
310
000000000000000000000000000000000000000000002D00000000002D000000002D00002D000000002D00000000002D0000F500000000000000000000000000000000000000000000000000000000000000000000000000000000000000000000000000000000000000000000000000000000F50000000000000000000000
310
000000000000000000000000000000000000000000000000000000000000000000000000000000000000000000000000000000000000000000000000000000000000000000000000000000000000000000000000000000000000000000000000000000000000F5000000000000000000000000000000000000000000000000
310
0000000000000000000000000000000000000000000000002D00000000002D000000002D00002D000000002D00000000002D0000F500000000000000000000000000000000000000000000000000000000000000000000000000000000000000000000000000000000000000000000000000000000F5000000000000000000
310
000000000000000000000000000000000000000000000000000000000000000000000000000000000000000000000000000000000000000000000000000000000000000000000000000000000000000000000000000000000000F5F5F5F5F5F5F5F5F5F5F5F5F5F50000000000000000000000000000000000000000000000
310
00000000000000000000000000000000000000000000000000002D00000000002D000000002D00002D000000002D00000000002D000000F5F5F5F5F5F5F5F5F50000000000000000000000000000000000000000000000000000000000000000000000000000000000000000000000000000000000000000F5F5F5F5F5F5F5
310
F5F5F5F5F5F5F5F5F5F5F5F5F5F5F5F5F5F5F5F5F5F5F5F5F5F5F5F5F500000000000000000000000000000000000000000000000000000000000000000000000000000000000000000000000000000000000000000000000000000000F5F5F5F5F5F5F5F5F5F5F50000000000000000000000000000000000000000000000
310
000000000000000000000000000000000000000000000000000000002D00000000002D000000002D00002D000000002D00000000002D00000000F5F5F500F5F50000000000000000000000000000000000000000000000000000000000000000000000000000000000000000000000000000000000000000000000F5000000
310
00000000F50000F500F500000000F50000000000000000000000000000000000000000000000000000000000000000000000000000000000000000000000000000000000000000000000000000000000000000000000000000000000000000F5F5F5F5F5F5F5F5F5F500000000000000000000000000000000000000000000
310
0000000000000000000000000000000000000000000000000000000000002D00000000002D000000002D00002D000000002D00000000002D00000000F5F5F500F5F5F500000000000000000000000000000000000000000000000000000000000000000000000000000000000000000000000000000000000000000000F5F5
310
F5F5F5F5F5F5F5F500F5F5F5F5000000F500F5F500F500F5F500F5F5F5F5F5000000000000000000000000000000000000000000000000000000000000000000000000000000000000000000000000000000000000000000000000000000000000F5F5F5F5F500F5F5F5F50000000000000000000000000000000000000000
310
00000000000000000000000000000000000000000000000000000000000000002D00000000002D000000002D00002D000000002D00000000002D00000000F5F50000F5F5F500000000000000000000000000000000000000000000000000000000000000000000000000000000000000000000000000000000000000000000
310
F5F5F5F5F5000000F5F500F5F500F5F500F5F500F5F500F500F5F500F5F5F5F50000000000000000000000000000000000000000000000000000000000000000000000000000000000000000000000000000000000000000000000000000000000000000000000000000000000000000000000000000000000000000000000
310
002828282828282828282828282828000000000000000000000000000000000000002D00000000002D000000002D00002D000000002D00000000002D00000000000000000000000000000000000000000000000000000000000000000000002828282828282828282828282828000000000000000000000000000000000000
310
00000000000000000000000000000000000000000000000000000000000000000000000000000000000000000000000000000000000000000000000000000000000000000000000000000000000000000000000000000000000000000000000000000000000000000000000000000000000000000000000000000000000000
310
0000002800002D0000002D2D2D2D000028000000000000000000000000000000000000002D00000000002D000000002D00002D000000002D00000000002D0000000000000000000000000000000000000000000000000000000000000000000000280000000000000000000000002800000000000000000000000000000000
310
00000000000000000000000000000000000000000000000000000000000000000000000000000000000000000000000000000000000000000000000000000000000000000000000000000000000000000000000000000000000000000000000000000000000000000000000000000000000000000000000000000000000000
310
000000000028002D2D2D2D002D2D2D2D000028000000000000000000000000000000000000002D00000000002D000000002D00002D000000002D00000000002D00000000000000000000000000000000000000000000000000000000000000000000002800002D2D2D002D2D2D000000280000000000000000000000000000
310
00000000000000000000000000000000000000000000000000000000000000000000000000000000000000000000000000000000000000000000000000000000000000000000000000000000000000000000000000000000000000000000000000000000000000000000000000000000000000000000000000000000000000
310
000000000000002800002D2D2D002D2D2D2D000028000000000000000000000000000000000000002D00000000002D000000002D00002D000000002D00000000002D00000000000000000000000000000000000000000000000000000000000000000000002800002D0000002D00002D000028000000000000000000000000
310
00000000000000000000000000000000000000000000000000000000000000000000000000000000000000000000000000000000000000000000000000000000000000000000000000000000000000000000000000000000000000000000000000000000000000000000000000000000000000000000000000000000000000
310
00000000000000000028002D2D2D2D002D2D2D2D000028000000000000000000000000000000000000002D00000000002D000000002D00002D000000002D00000000002D00000000000000000000000000000000000000000000000000000000000000000000002800002D0000002D002D2D00002800000000000000000000
310
00000000000000000000000000000000000000000000000000000000000000000000000000000000000000000000000000000000000000000000000000000000000000000000000000000000000000000000000000000000000000000000000000000000000000000000000000000000000000000000000000000000000000
310
000000000000000000000028002D2D2D2D002D2D2D2D000028000000000000000000000000000000000000002D00000000002D000000002D00002D000000002D00000000002D00000000000000000000000000000000000000000000000000000000000000000000002800002D0000002D2D2D000000280000000000000000
310
00000000000000000000000000000000000000000000000000000000000000000000000000000000000000000000000000000000000000000000000000000000000000000000000000000000000000000000000000000000000000000000000000000000000000000000000000000000000000000000000000000000000000
310
000000000000000000000000002828282828282828282828282828000000000000000000000000000000000000002D00000000002D000000002D00002D000000002D00000000002D00000000000000000000000000000000000000000000000000000000000000000000002828282828282828282828282828000000000000
310
00000000000000000000000000000000000000000000000000000000000000000000000000000000000000000000000000000000000000000000000000000000000000000000000000000000000000000000000000000000000000000000000000000000000000000000000000000000000000000000000000000000000000
310
00000000000000000000000000000000000000000000000000000000000000000000000000000000000000000000000000000000000000000000000000000000000000000000000000000000000000000000000000000000000000000000000000000000000000000000000000000000000000000000000000000000000000
310
00000000000000000000000000000000000000000000000000000000000000000000000000000000000000000000000000000000000000000000000000000000000000000000000000000000000000000000000000000000000000000000000000000000000000000000000000000000000000000000000000000000000000
310
00000000000000000000000000000000000000000000000000000000000000000000000000000000000000000000000000000000000000000000000000000000000000000000000000000000000000000000000000000000000000000000000000000000000000000000000000000000000000000000000000000000000000
310
00000000000000000000000000000000000000000000000000000000000000000000000000000000000000000000000000000000000000000000000000000000000000000000000000000000000000000000000000000000000000000000000000000000000000000000000000000000000000000000000000000000000000
310
00000000000000000000000000000000000000000000000000000000000000000000000000000000000000000000000000000000000000000000000000000000000000000000000000000000000000000000000000000000000000000000000000000000000000000000000000000000000000000000000000000000000000
310
00000000000000000000000000000000000000000000000000000000000000000000000000000000000000000000000000000000000000000000000000000000000000000000000000000000000000000000000000000000000000000000000000000000000000000000000000000000000000000000000000000000000000
310
00000000000000000000000000000000000000000000000000000000000000000000000000000000000000000000000000000000000000000000000000000000000000000000000000000000000000000000000000000000000000000000000000000000000000000000000000000000000000000000000000000000000000
310
00000000000000000000000000000000000000000000000000000000000000000000000000000000000000000000000000000000000000000000000000000000000000000000000000000000000000000000000000000000000000000000000000000000000000000000000000000000000000000000000000000000000000
310
00000000000000000000000000000000000000000000000000000000000000000000000000000000000000000000000000000000000000000000000000000000000000000000000000000000000000000000000000000000000000000000000000000000000000000000000000000000000000000000000000000000000000
310
00000000000000000000000000000000000000000000000000000000000000000000000000000000000000000000000000000000000000000000000000000000000000000000000000000000000000000000000000000000000000000000000000000000000000282800002800000000000028280028000000000000000000
310
00280028000000000000000000000000000000000000000000000000000028000028000000002828282828282828002828282800282800002828280028282828282828282828280000000000000000000000000000000000000000000000000000000000000000000000000000000000000000000000000000000000000000
310
00000000000000000000000000000000000000000000000000000000000000000000000000000000000000000000000000000000000000000000000000000000000000000000000000000000000000000000000000000000000000000000000000000000000000000028282828282800000000000028282800000028000000
310
00000028282800000028282828002828280000282828002828280000000000002800282800280000282828280028282800282828280028282800282828282828282828282828280028000000000000000000000000000000000000000000000000000000000000000000000000000000000000000000000000000000000000
310
00000000000000000000000000000000000000000000000000000000000000000000000000000000000000000000000000000000000000000000000000000000000000000000000000000000000000000000000000000000000000000000000000000000000000000000002800002828000028282800002800000028280000
310
28282828000028000000002800000000280028000028282800282828000028282828280028280028000028282828002828282828282828002800280028282828282828282828282828002800000000000000000000000000000000000000000000000000000000000000000000000000000000000000000000000000000000
310
00000000000000000000000000000000000000000000000000000000000000000000000000000000000000000000000000000000000000000000000000000000000000000000000000000000000000000000000000000000000000000000000000000000000000000000000000280028282828000000000000002800002828
310
28000000000000282828000000280000000028002800002800280028002800000000000028280028002800002828282800282828282828282800280028002828282828282828282828282800280000000000000000000000000000000000000000000000000000000000000000000000000000000000000000000000000000
310
00000000000000000000000000000000000000000000000000000000000000000000000000000000000000000000000000000000000000000000000000000000000000000000000000000000000000000000000000000000000000000000000000000000000000000000000000000028280000000000000000000000000000
310
00000000000000000000000000000028000000000028000000282800002828280000000000002800002800000000002828000028282828282828280028000000282828280028282828282828282828000000000000000000000000000000000000000000000000000000000000000000000000000000000000000000000000
310
00000000000000000000000000000000000000000000000000000000000000000000000000000000000000000000000000000000000000000000000000000000000000000000000000000000000000000000000000000000000000000000000000000000000000000000000000000000000000000000000000000000000000
310
00000000000000000000000000000000000000000000000000000000000000000000000000000000000000000000000000000000000000000000000000000000000000000000000000000000000000000000000000000000000000000000000000000000000000000000000000000000000000000000000000000000000000
310
00000000000000000000000000000000000000000000000000000000000000000000000000000000000000000000000000000000000000000000000000000000000000000000000000000000000000000000000000000000000000000000000000000000000000000000000000000000000000000000000000000000000000
310
00000000000000000000000000000000000000000000000000000000000000000000000000000000000000000000000000000000000000000000000000000000000000000000000000000000000000000000000000000000000000000000000000000000000000000000000000000000000000000000000000000000000000
310
00000000000000000000000000000000000000000000000000000000000000000000000000000000000000000000000000000000000000000000000000000000000000000000000000000000000000000000000000000000000000000000000000000000000000000000000000000000000000000000000000000000000000
310
00000000000000000000000000000000000000000000000000000000000000000000000000000000000000000000000000000000000000000000000000000000000000000000000000000000000000000000000000000000000000000000000000000000000000000000000000000000000000000000000000000000000000
310
00000000000000000000000000000000000000000000000000000000000000000000000000000000000000000000000000000000000000000000000000000000000000000000000000000000000000000000000000000000000000000000000000000000000000000000000000000000000000000000000000000000000000
310
00000000000000000000000000000000000000000000000000000000000000000000000000000000000000000000000000000000000000000000000000000000000000000000000000000000000000000000000000000000000000000000000000000000000000000000000000000000000000000000000000000000000000
310
00000000000000000000000000000000000000000000000000000000000000000000000000000000000000000000000000000000000000000000000000000000000000000000000000000000000000000000000000000000000000000000000000000000000000000000000000000000000000000000000000000000000000
310
00000000000000000000000000000000000000000000000000000000000000000000000000000000000000000000000000000000000000000000000000000000000000000000000000000000000000000000000000000000000000000000000000000000000000000000000000000000000000000000000000000000000000
310
00000000000000000000000000000000000000000000000000000000000000000000000000000000000000000000000000000000000000000000000000000000000000000000000000000000000000000000000000000000000000000000000000000000000000000000000000000000000000000000000000000000000000
310
00000000000000000000000000000000000000000000000000000000000000000000000000000000000000000000000000000000000000000000000000000000000000000000000000000000000000000000000000000000000000000000000000000000000000000000000000000000000000000000000000000000000000
310
00000000000000000000000000000000000000000000000000000000000000000000000000000000000000000000000000000000000000000000000000000000000000000000000000000000000000000000000000000000000000000000000000000000000000000000000000000000000000000000000000000000000000
310
00000000000000000000000000000000000000000000000000000000000000000000000000000000000000000000000000000000000000000000000000000000000000000000000000000000000000000000000000000000000000000000000000000000000000000000000000000000000000000000000000000000000000
310
00000000000000000000000000000000000000000000000000000000000000000000000000000000000000000000000000000000000000000000000000000000000000000000000000000000000000000000000000000000000000000000000000000000000000000000000000000000000000000000000000000000000000
310
00000000000000000000000000000000000000000000000000000000000000000000000000000000000000000000000000000000000000000000000000000000000000000000000000000000000000000000000000000000000000000000000000000000000000000000000000000000000000000000000000000000000000
310
00000000000000000000000000000000000000000000000000000000000000000000000000000000000000000000000000000000000000000000000000000000000000000000000000000000000000000000000000000000000000000000000000000000000000000000000000000000000000000000000000000000000000
310
00000000000000000000000000000000000000000000000000000000000000000000000000000000000000000000000000000000000000000000000000000000000000000000000000000000000000000000000000000000000000000000000000000000000000000000000000000000000000000000000000000000000000
310
00000000000000000000000000000000000000000000000000000000000000000000000000000000000000000000000000000000000000000000000000000000000000000000000000000000000000000000000000000000000000000000000000000000000000000000000000000000000000000000000000000000000000
310
00000000000000000000000000000000000000000000000000000000000000000000000000000000000000000000000000000000000000000000000000000000000000000000000000000000000000000000000000000000000000000000000000000000000000000000000000000000000000000000000000000000000000
310
00000000000000000000000000000000000000000000000000000000000000000000000000000000000000000000000000000000000000000000000000000000000000000000000000000000000000000000000000000000000000000000000000000000000000000000000000000000000000000000000000000000000000
310
00000000000000000000000000000000000000000000000000000000000000000000000000000000000000000000000000000000000000000000000000000000000000000000000000000000000000000000000000000000000000000000000000000000000000000000000000000000000000000000000000000000000000
310
00000000000000000000000000000000000000000000000000000000000000000000000000000000000000000000000000000000000000000000000000000000000000000000000000000000000000000000000000000000000000000000000000000000000000000000000000000000000000000000000000000000000000
310
00000000000000000000000000000000000000000000000000000000000000000000000000000000000000000000000000000000000000000000000000000000000000000000000000000000000000000000000000000000000000000000000000000000000000000000000000000000000000000000000000000000000000
310
000000000000000000000000000000000000000000000000000000000000000000000000000000000000000000000000000000000000000000000000000000000000000000000000000000000000000000000000000000000000000000000000000000000000000000000000000000000000000000000000000000
  0
XRECORD
  5
52A8E
102
{ACAD_REACTORS
330
22736
102
}
330
22736
100
AcDbXrecord
280
     1
102
MATERIAL
148
0.0
149
0.0
149
0.0
 93
        0
 94
      127
282
     0
 72
     0
 77
     0
171
     0
175
     0
179
     0
273
     0
  0
XRECORD
  5
22738
102
{ACAD_REACTORS
330
22736
102
}
330
22736
100
AcDbXrecord
280
     1
270
     1
271
     1
  0
XRECORD
  5
22737
102
{ACAD_REACTORS
330
22736
102
}
330
22736
100
AcDbXrecord
280
     1
270
     1
271
     1
  0
XRECORD
  5
2273B
102
{ACAD_REACTORS
330
22736
102
}
330
22736
100
AcDbXrecord
280
     1
270
     1
271
     1
  0
XRECORD
  5
2273A
102
{ACAD_REACTORS
330
22736
102
}
330
22736
100
AcDbXrecord
280
     1
270
     1
271
     1
  0
XRECORD
  5
2273C
102
{ACAD_REACTORS
330
22736
102
}
330
22736
100
AcDbXrecord
280
     1
270
     1
271
     1
  0
XRECORD
  5
22739
102
{ACAD_REACTORS
330
22736
102
}
330
22736
100
AcDbXrecord
280
     1
270
     1
271
     1
  0
XRECORD
  5
52A8D
102
{ACAD_REACTORS
330
2272E
102
}
330
2272E
100
AcDbXrecord
280
     1
102
MATERIAL
148
0.0
149
0.0
149
0.0
 93
        0
 94
      127
282
     0
 72
     0
 77
     0
171
     0
175
     0
179
     0
273
     0
  0
XRECORD
  5
22730
102
{ACAD_REACTORS
330
2272E
102
}
330
2272E
100
AcDbXrecord
280
     1
270
     1
271
     1
  0
XRECORD
  5
2272F
102
{ACAD_REACTORS
330
2272E
102
}
330
2272E
100
AcDbXrecord
280
     1
270
     1
271
     1
  0
XRECORD
  5
22733
102
{ACAD_REACTORS
330
2272E
102
}
330
2272E
100
AcDbXrecord
280
     1
270
     1
271
     1
  0
XRECORD
  5
22732
102
{ACAD_REACTORS
330
2272E
102
}
330
2272E
100
AcDbXrecord
280
     1
270
     1
271
     1
  0
XRECORD
  5
22734
102
{ACAD_REACTORS
330
2272E
102
}
330
2272E
100
AcDbXrecord
280
     1
270
     1
271
     1
  0
XRECORD
  5
22731
102
{ACAD_REACTORS
330
2272E
102
}
330
2272E
100
AcDbXrecord
280
     1
270
     1
271
     1
  0
XRECORD
  5
52A8F
102
{ACAD_REACTORS
330
2273E
102
}
330
2273E
100
AcDbXrecord
280
     1
102
MATERIAL
148
0.0
149
0.0
149
0.0
 93
        0
 94
      127
282
     0
 72
     0
 77
     0
171
     0
175
     0
179
     0
273
     0
  0
XRECORD
  5
22740
102
{ACAD_REACTORS
330
2273E
102
}
330
2273E
100
AcDbXrecord
280
     1
270
     1
271
     1
  0
XRECORD
  5
2273F
102
{ACAD_REACTORS
330
2273E
102
}
330
2273E
100
AcDbXrecord
280
     1
270
     1
271
     1
  0
XRECORD
  5
22743
102
{ACAD_REACTORS
330
2273E
102
}
330
2273E
100
AcDbXrecord
280
     1
270
     1
271
     1
  0
XRECORD
  5
22742
102
{ACAD_REACTORS
330
2273E
102
}
330
2273E
100
AcDbXrecord
280
     1
270
     1
271
     1
  0
XRECORD
  5
22744
102
{ACAD_REACTORS
330
2273E
102
}
330
2273E
100
AcDbXrecord
280
     1
270
     1
271
     1
  0
XRECORD
  5
22741
102
{ACAD_REACTORS
330
2273E
102
}
330
2273E
100
AcDbXrecord
280
     1
270
     1
271
     1
  0
XRECORD
  5
52A88
102
{ACAD_REACTORS
330
52A87
102
}
330
52A87
100
AcDbXrecord
280
     1
102
ACAD_ROUNDTRIP_2012_MLEADER_STYLE
298
     1
  0
CELLSTYLEMAP
  5
52A86
102
{ACAD_REACTORS
330
22803
102
}
330
22803
100
AcDbCellStyleMap
 90
        3
300
CELLSTYLE
  1
TABLEFORMAT_BEGIN
 90
        5
170
     1
 91
        0
 92
    32768
 62
   257
 93
        1
300
CONTENTFORMAT
  1
CONTENTFORMAT_BEGIN
 90
        0
 91
        0
 92
      512
 93
        0
300

 40
0.0
140
1.0
 94
        5
 62
     0
340
11
144
6.0
309
CONTENTFORMAT_END
171
     1
301
MARGIN
  1
CELLMARGIN_BEGIN
 40
1.5
 40
1.5
 40
1.5
 40
1.5
 40
4.5
 40
4.5
309
CELLMARGIN_END
 94
        6
 95
        1
302
GRIDFORMAT
  1
GRIDFORMAT_BEGIN
 90
        0
 91
        1
 62
     0
 92
       -2
340
0
 93
        0
 40
1.125
309
GRIDFORMAT_END
 95
        2
302
GRIDFORMAT
  1
GRIDFORMAT_BEGIN
 90
        0
 91
        1
 62
     0
 92
       -2
340
0
 93
        0
 40
1.125
309
GRIDFORMAT_END
 95
        4
302
GRIDFORMAT
  1
GRIDFORMAT_BEGIN
 90
        0
 91
        1
 62
     0
 92
       -2
340
0
 93
        0
 40
1.125
309
GRIDFORMAT_END
 95
        8
302
GRIDFORMAT
  1
GRIDFORMAT_BEGIN
 90
        0
 91
        1
 62
     0
 92
       -2
340
0
 93
        0
 40
1.125
309
GRIDFORMAT_END
 95
       16
302
GRIDFORMAT
  1
GRIDFORMAT_BEGIN
 90
        0
 91
        1
 62
     0
 92
       -2
340
0
 93
        0
 40
1.125
309
GRIDFORMAT_END
 95
       32
302
GRIDFORMAT
  1
GRIDFORMAT_BEGIN
 90
        0
 91
        1
 62
     0
 92
       -2
340
0
 93
        0
 40
1.125
309
GRIDFORMAT_END
309
TABLEFORMAT_END
  1
CELLSTYLE_BEGIN
 90
        1
 91
        1
300
_TITLE
309
CELLSTYLE_END
300
CELLSTYLE
  1
TABLEFORMAT_BEGIN
 90
        5
170
     1
 91
        0
 92
        0
 62
   257
 93
        1
300
CONTENTFORMAT
  1
CONTENTFORMAT_BEGIN
 90
        0
 91
        0
 92
      512
 93
        0
300

 40
0.0
140
1.0
 94
        5
 62
     0
340
11
144
4.5
309
CONTENTFORMAT_END
171
     1
301
MARGIN
  1
CELLMARGIN_BEGIN
 40
1.5
 40
1.5
 40
1.5
 40
1.5
 40
4.5
 40
4.5
309
CELLMARGIN_END
 94
        6
 95
        1
302
GRIDFORMAT
  1
GRIDFORMAT_BEGIN
 90
        0
 91
        1
 62
     0
 92
       -2
340
0
 93
        0
 40
1.125
309
GRIDFORMAT_END
 95
        2
302
GRIDFORMAT
  1
GRIDFORMAT_BEGIN
 90
        0
 91
        1
 62
     0
 92
       -2
340
0
 93
        0
 40
1.125
309
GRIDFORMAT_END
 95
        4
302
GRIDFORMAT
  1
GRIDFORMAT_BEGIN
 90
        0
 91
        1
 62
     0
 92
       -2
340
0
 93
        0
 40
1.125
309
GRIDFORMAT_END
 95
        8
302
GRIDFORMAT
  1
GRIDFORMAT_BEGIN
 90
        0
 91
        1
 62
     0
 92
       -2
340
0
 93
        0
 40
1.125
309
GRIDFORMAT_END
 95
       16
302
GRIDFORMAT
  1
GRIDFORMAT_BEGIN
 90
        0
 91
        1
 62
     0
 92
       -2
340
0
 93
        0
 40
1.125
309
GRIDFORMAT_END
 95
       32
302
GRIDFORMAT
  1
GRIDFORMAT_BEGIN
 90
        0
 91
        1
 62
     0
 92
       -2
340
0
 93
        0
 40
1.125
309
GRIDFORMAT_END
309
TABLEFORMAT_END
  1
CELLSTYLE_BEGIN
 90
        2
 91
        1
300
_HEADER
309
CELLSTYLE_END
300
CELLSTYLE
  1
TABLEFORMAT_BEGIN
 90
        5
170
     1
 91
        0
 92
        0
 62
   257
 93
        1
300
CONTENTFORMAT
  1
CONTENTFORMAT_BEGIN
 90
        0
 91
        0
 92
      512
 93
        0
300

 40
0.0
140
1.0
 94
        2
 62
     0
340
11
144
4.5
309
CONTENTFORMAT_END
171
     1
301
MARGIN
  1
CELLMARGIN_BEGIN
 40
1.5
 40
1.5
 40
1.5
 40
1.5
 40
4.5
 40
4.5
309
CELLMARGIN_END
 94
        6
 95
        1
302
GRIDFORMAT
  1
GRIDFORMAT_BEGIN
 90
        0
 91
        1
 62
     0
 92
       -2
340
0
 93
        0
 40
1.125
309
GRIDFORMAT_END
 95
        2
302
GRIDFORMAT
  1
GRIDFORMAT_BEGIN
 90
        0
 91
        1
 62
     0
 92
       -2
340
0
 93
        0
 40
1.125
309
GRIDFORMAT_END
 95
        4
302
GRIDFORMAT
  1
GRIDFORMAT_BEGIN
 90
        0
 91
        1
 62
     0
 92
       -2
340
0
 93
        0
 40
1.125
309
GRIDFORMAT_END
 95
        8
302
GRIDFORMAT
  1
GRIDFORMAT_BEGIN
 90
        0
 91
        1
 62
     0
 92
       -2
340
0
 93
        0
 40
1.125
309
GRIDFORMAT_END
 95
       16
302
GRIDFORMAT
  1
GRIDFORMAT_BEGIN
 90
        0
 91
        1
 62
     0
 92
       -2
340
0
 93
        0
 40
1.125
309
GRIDFORMAT_END
 95
       32
302
GRIDFORMAT
  1
GRIDFORMAT_BEGIN
 90
        0
 91
        1
 62
     0
 92
       -2
340
0
 93
        0
 40
1.125
309
GRIDFORMAT_END
309
TABLEFORMAT_END
  1
CELLSTYLE_BEGIN
 90
        3
 91
        2
300
_DATA
309
CELLSTYLE_END
  0
XRECORD
  5
52AB0
102
{ACAD_REACTORS
330
22803
102
}
330
22803
100
AcDbXrecord
280
     1
102
ACAD_ROUNDTRIP_PRE2007_TABLESTYLE
 90
      512
 91
        0
  1

 92
      512
 93
        0
  2

 94
      512
 95
        0
  3

  0
XRECORD
  5
52A9B
102
{ACAD_REACTORS
330
52A9A
102
}
330
52A9A
100
AcDbXrecord
280
     1
102
RTVSPropertyOp0
 70
     1
102
RTVSPropertyOp1
 70
     1
102
RTVSPropertyOp2
 70
     1
102
RTVSPropertyOp3
 70
     1
102
RTVSPropertyOp4
 70
     1
102
RTVSPropertyOp5
 70
     1
102
RTVSPropertyOp6
 70
     1
102
RTVSPropertyOp7
 70
     1
102
RTVSPropertyOp8
 70
     1
102
RTVSPropertyOp9
 70
     1
102
RTVSPropertyOp10
 70
     1
102
RTVSPropertyOp11
 70
     1
102
RTVSPropertyOp12
 70
     1
102
RTVSPropertyOp13
 70
     1
102
RTVSPropertyOp14
 70
     1
102
RTVSPropertyOp15
 70
     1
102
RTVSPropertyOp16
 70
     1
102
RTVSPropertyOp17
 70
     1
102
RTVSPropertyOp18
 70
     1
102
RTVSPropertyOp19
 70
     1
102
RTVSPropertyOp20
 70
     1
102
RTVSPropertyOp21
 70
     1
102
RTVSPropertyOp22
 70
     1
102
RTVSPropertyOp23
 70
     1
102
RTVSPropertyOp24
 70
     1
102
RTVSPropertyOp25
 70
     1
102
RTVSPropertyOp26
 70
     1
102
RTVSPropertyOp27
 70
     1
102
RTVSPropertyOp28
 70
     1
102
RTVSPropertyOp29
 70
     1
102
RTVSPropertyOp30
 70
     1
102
RTVSPropertyOp31
 70
     1
102
RTVSPropertyOp32
 70
     1
  0
XRECORD
  5
52A9F
102
{ACAD_REACTORS
330
52A9E
102
}
330
52A9E
100
AcDbXrecord
280
     1
102
RTVSPropertyOp0
 70
     1
102
RTVSPropertyOp1
 70
     1
102
RTVSPropertyOp2
 70
     1
102
RTVSPropertyOp3
 70
     1
102
RTVSPropertyOp4
 70
     1
102
RTVSPropertyOp5
 70
     1
102
RTVSPropertyOp6
 70
     1
102
RTVSPropertyOp7
 70
     1
102
RTVSPropertyOp8
 70
     1
102
RTVSPropertyOp9
 70
     1
102
RTVSPropertyOp10
 70
     1
102
RTVSPropertyOp11
 70
     1
102
RTVSPropertyOp12
 70
     1
102
RTVSPropertyOp13
 70
     1
102
RTVSPropertyOp14
 70
     1
102
RTVSPropertyOp15
 70
     1
102
RTVSPropertyOp16
 70
     1
102
RTVSPropertyOp17
 70
     1
102
RTVSPropertyOp18
 70
     1
102
RTVSPropertyOp19
 70
     1
102
RTVSPropertyOp20
 70
     1
102
RTVSPropertyOp21
 70
     1
102
RTVSPropertyOp22
 70
     1
102
RTVSPropertyOp23
 70
     1
102
RTVSPropertyOp24
 70
     1
102
RTVSPropertyOp25
 70
     1
102
RTVSPropertyOp26
 70
     1
102
RTVSPropertyOp27
 70
     1
102
RTVSPropertyOp28
 70
     1
102
RTVSPropertyOp29
 70
     1
102
RTVSPropertyOp30
 70
     1
102
RTVSPropertyOp31
 70
     1
102
RTVSPropertyOp32
 70
     1
  0
XRECORD
  5
52A9D
102
{ACAD_REACTORS
330
52A9C
102
}
330
52A9C
100
AcDbXrecord
280
     1
102
RTVSPropertyOp0
 70
     1
102
RTVSPropertyOp1
 70
     1
102
RTVSPropertyOp2
 70
     1
102
RTVSPropertyOp3
 70
     1
102
RTVSPropertyOp4
 70
     1
102
RTVSPropertyOp5
 70
     1
102
RTVSPropertyOp6
 70
     1
102
RTVSPropertyOp7
 70
     1
102
RTVSPropertyOp8
 70
     1
102
RTVSPropertyOp9
 70
     1
102
RTVSPropertyOp10
 70
     1
102
RTVSPropertyOp11
 70
     1
102
RTVSPropertyOp12
 70
     1
102
RTVSPropertyOp13
 70
     1
102
RTVSPropertyOp14
 70
     1
102
RTVSPropertyOp15
 70
     1
102
RTVSPropertyOp16
 70
     1
102
RTVSPropertyOp17
 70
     1
102
RTVSPropertyOp18
 70
     1
102
RTVSPropertyOp19
 70
     1
102
RTVSPropertyOp20
 70
     1
102
RTVSPropertyOp21
 70
     1
102
RTVSPropertyOp22
 70
     1
102
RTVSPropertyOp23
 70
     1
102
RTVSPropertyOp24
 70
     1
102
RTVSPropertyOp25
 70
     1
102
RTVSPropertyOp26
 70
     1
102
RTVSPropertyOp27
 70
     1
102
RTVSPropertyOp28
 70
     1
102
RTVSPropertyOp29
 70
     1
102
RTVSPropertyOp30
 70
     1
102
RTVSPropertyOp31
 70
     1
102
RTVSPropertyOp32
 70
     1
  0
XRECORD
  5
52A99
102
{ACAD_REACTORS
330
52A98
102
}
330
52A98
100
AcDbXrecord
280
     1
102
RTVSPropertyOp0
 70
     1
102
RTVSPropertyOp1
 70
     1
102
RTVSPropertyOp2
 70
     1
102
RTVSPropertyOp3
 70
     1
102
RTVSPropertyOp4
 70
     1
102
RTVSPropertyOp5
 70
     1
102
RTVSPropertyOp6
 70
     1
102
RTVSPropertyOp7
 70
     1
102
RTVSPropertyOp8
 70
     1
102
RTVSPropertyOp9
 70
     1
102
RTVSPropertyOp10
 70
     1
102
RTVSPropertyOp11
 70
     1
102
RTVSPropertyOp12
 70
     1
102
RTVSPropertyOp13
 70
     1
102
RTVSPropertyOp14
 70
     1
102
RTVSPropertyOp15
 70
     1
102
RTVSPropertyOp16
 70
     1
102
RTVSPropertyOp17
 70
     1
102
RTVSPropertyOp18
 70
     1
102
RTVSPropertyOp19
 70
     1
102
RTVSPropertyOp20
 70
     1
102
RTVSPropertyOp21
 70
     1
102
RTVSPropertyOp22
 70
     1
102
RTVSPropertyOp23
 70
     1
102
RTVSPropertyOp24
 70
     1
102
RTVSPropertyOp25
 70
     1
102
RTVSPropertyOp26
 70
     1
102
RTVSPropertyOp27
 70
     1
102
RTVSPropertyOp28
 70
     1
102
RTVSPropertyOp29
 70
     1
102
RTVSPropertyOp30
 70
     1
102
RTVSPropertyOp31
 70
     1
102
RTVSPropertyOp32
 70
     1
  0
XRECORD
  5
52AA7
102
{ACAD_REACTORS
330
52AA6
102
}
330
52AA6
100
AcDbXrecord
280
     1
102
RTVSPropertyOp0
 70
     1
102
RTVSPropertyOp1
 70
     1
102
RTVSPropertyOp2
 70
     1
102
RTVSPropertyOp3
 70
     1
102
RTVSPropertyOp4
 70
     1
102
RTVSPropertyOp5
 70
     1
102
RTVSPropertyOp6
 70
     1
102
RTVSPropertyOp7
 70
     1
102
RTVSPropertyOp8
 70
     1
102
RTVSPropertyOp9
 70
     1
102
RTVSPropertyOp10
 70
     1
102
RTVSPropertyOp11
 70
     1
102
RTVSPropertyOp12
 70
     1
102
RTVSPropertyOp13
 70
     1
102
RTVSPropertyOp14
 70
     1
102
RTVSPropertyOp15
 70
     1
102
RTVSPropertyOp16
 70
     1
102
RTVSPropertyOp17
 70
     1
102
RTVSPropertyOp18
 70
     1
102
RTVSPropertyOp19
 70
     1
102
RTVSPropertyOp20
 70
     1
102
RTVSPropertyOp21
 70
     1
102
RTVSPropertyOp22
 70
     1
102
RTVSPropertyOp23
 70
     1
102
RTVSPropertyOp24
 70
     1
102
RTVSPropertyOp25
 70
     1
102
RTVSPropertyOp26
 70
     1
102
RTVSPropertyOp27
 70
     1
102
RTVSPropertyOp28
 70
     1
102
RTVSPropertyOp29
 70
     1
102
RTVSPropertyOp30
 70
     1
102
RTVSPropertyOp31
 70
     1
102
RTVSPropertyOp32
 70
     1
  0
XRECORD
  5
52AAF
102
{ACAD_REACTORS
330
52AAE
102
}
330
52AAE
100
AcDbXrecord
280
     1
102
RTVSPropertyOp0
 70
     1
102
RTVSPropertyOp1
 70
     1
102
RTVSPropertyOp2
 70
     1
102
RTVSPropertyOp3
 70
     1
102
RTVSPropertyOp4
 70
     1
102
RTVSPropertyOp5
 70
     1
102
RTVSPropertyOp6
 70
     1
102
RTVSPropertyOp7
 70
     1
102
RTVSPropertyOp8
 70
     1
102
RTVSPropertyOp9
 70
     1
102
RTVSPropertyOp10
 70
     1
102
RTVSPropertyOp11
 70
     1
102
RTVSPropertyOp12
 70
     1
102
RTVSPropertyOp13
 70
     1
102
RTVSPropertyOp14
 70
     1
102
RTVSPropertyOp15
 70
     1
102
RTVSPropertyOp16
 70
     1
102
RTVSPropertyOp17
 70
     1
102
RTVSPropertyOp18
 70
     1
102
RTVSPropertyOp19
 70
     1
102
RTVSPropertyOp20
 70
     1
102
RTVSPropertyOp21
 70
     1
102
RTVSPropertyOp22
 70
     1
102
RTVSPropertyOp23
 70
     1
102
RTVSPropertyOp24
 70
     1
102
RTVSPropertyOp25
 70
     1
102
RTVSPropertyOp26
 70
     1
102
RTVSPropertyOp27
 70
     1
102
RTVSPropertyOp28
 70
     1
102
RTVSPropertyOp29
 70
     1
102
RTVSPropertyOp30
 70
     1
102
RTVSPropertyOp31
 70
     1
102
RTVSPropertyOp32
 70
     1
  0
XRECORD
  5
52AA1
102
{ACAD_REACTORS
330
52AA0
102
}
330
52AA0
100
AcDbXrecord
280
     1
102
RTVSPropertyOp0
 70
     1
102
RTVSPropertyOp1
 70
     1
102
RTVSPropertyOp2
 70
     1
102
RTVSPropertyOp3
 70
     1
102
RTVSPropertyOp4
 70
     1
102
RTVSPropertyOp5
 70
     1
102
RTVSPropertyOp6
 70
     1
102
RTVSPropertyOp7
 70
     1
102
RTVSPropertyOp8
 70
     1
102
RTVSPropertyOp9
 70
     1
102
RTVSPropertyOp10
 70
     1
102
RTVSPropertyOp11
 70
     1
102
RTVSPropertyOp12
 70
     1
102
RTVSPropertyOp13
 70
     1
102
RTVSPropertyOp14
 70
     1
102
RTVSPropertyOp15
 70
     1
102
RTVSPropertyOp16
 70
     1
102
RTVSPropertyOp17
 70
     1
102
RTVSPropertyOp18
 70
     1
102
RTVSPropertyOp19
 70
     1
102
RTVSPropertyOp20
 70
     1
102
RTVSPropertyOp21
 70
     1
102
RTVSPropertyOp22
 70
     1
102
RTVSPropertyOp23
 70
     1
102
RTVSPropertyOp24
 70
     1
102
RTVSPropertyOp25
 70
     1
102
RTVSPropertyOp26
 70
     1
102
RTVSPropertyOp27
 70
     1
102
RTVSPropertyOp28
 70
     1
102
RTVSPropertyOp29
 70
     1
102
RTVSPropertyOp30
 70
     1
102
RTVSPropertyOp31
 70
     1
102
RTVSPropertyOp32
 70
     1
  0
XRECORD
  5
52AA5
102
{ACAD_REACTORS
330
52AA4
102
}
330
52AA4
100
AcDbXrecord
280
     1
102
RTVSPropertyOp0
 70
     1
102
RTVSPropertyOp1
 70
     1
102
RTVSPropertyOp2
 70
     1
102
RTVSPropertyOp3
 70
     1
102
RTVSPropertyOp4
 70
     1
102
RTVSPropertyOp5
 70
     1
102
RTVSPropertyOp6
 70
     1
102
RTVSPropertyOp7
 70
     1
102
RTVSPropertyOp8
 70
     1
102
RTVSPropertyOp9
 70
     1
102
RTVSPropertyOp10
 70
     1
102
RTVSPropertyOp11
 70
     1
102
RTVSPropertyOp12
 70
     1
102
RTVSPropertyOp13
 70
     1
102
RTVSPropertyOp14
 70
     1
102
RTVSPropertyOp15
 70
     1
102
RTVSPropertyOp16
 70
     1
102
RTVSPropertyOp17
 70
     1
102
RTVSPropertyOp18
 70
     1
102
RTVSPropertyOp19
 70
     1
102
RTVSPropertyOp20
 70
     1
102
RTVSPropertyOp21
 70
     1
102
RTVSPropertyOp22
 70
     1
102
RTVSPropertyOp23
 70
     1
102
RTVSPropertyOp24
 70
     1
102
RTVSPropertyOp25
 70
     1
102
RTVSPropertyOp26
 70
     1
102
RTVSPropertyOp27
 70
     1
102
RTVSPropertyOp28
 70
     1
102
RTVSPropertyOp29
 70
     1
102
RTVSPropertyOp30
 70
     1
102
RTVSPropertyOp31
 70
     1
102
RTVSPropertyOp32
 70
     1
  0
XRECORD
  5
52AC4
102
{ACAD_REACTORS
330
52AC3
102
}
330
52AC3
100
AcDbXrecord
280
     1
102
RTVSPropertyOp0
 70
     0
102
RTVSPropertyOp1
 70
     0
102
RTVSPropertyOp2
 70
     0
102
RTVSPropertyOp3
 70
     0
102
RTVSPropertyOp4
 70
     0
102
RTVSPropertyOp5
 70
     0
102
RTVSPropertyOp6
 70
     0
102
RTVSPropertyOp7
 70
     0
102
RTVSPropertyOp8
 70
     0
102
RTVSPropertyOp9
 70
     0
102
RTVSPropertyOp10
 70
     0
102
RTVSPropertyOp11
 70
     0
102
RTVSPropertyOp12
 70
     0
102
RTVSPropertyOp13
 70
     0
102
RTVSPropertyOp14
 70
     2
102
RTVSPropertyOp15
 70
     0
102
RTVSPropertyOp16
 70
     0
102
RTVSPropertyOp17
 70
     0
102
RTVSPropertyOp18
 70
     0
102
RTVSPropertyOp19
 70
     0
102
RTVSPropertyOp20
 70
     0
102
RTVSPropertyOp21
 70
     0
102
RTVSPropertyOp22
 70
     0
102
RTVSPropertyOp23
 70
     0
102
RTVSPropertyOp24
 70
     0
102
RTVSPropertyOp25
 70
     0
102
RTVSPropertyOp26
 70
     0
102
RTVSPropertyOp27
 70
     0
102
RTVSPropertyOp28
 70
     1
102
RTVSPropertyOp29
 70
     1
102
RTVSPropertyOp30
 70
     1
102
RTVSPropertyOp31
 70
     1
102
RTVSPropertyOp32
 70
     1
  0
XRECORD
  5
52AAD
102
{ACAD_REACTORS
330
52AAC
102
}
330
52AAC
100
AcDbXrecord
280
     1
102
RTVSPropertyOp0
 70
     1
102
RTVSPropertyOp1
 70
     1
102
RTVSPropertyOp2
 70
     1
102
RTVSPropertyOp3
 70
     1
102
RTVSPropertyOp4
 70
     1
102
RTVSPropertyOp5
 70
     1
102
RTVSPropertyOp6
 70
     1
102
RTVSPropertyOp7
 70
     1
102
RTVSPropertyOp8
 70
     1
102
RTVSPropertyOp9
 70
     1
102
RTVSPropertyOp10
 70
     1
102
RTVSPropertyOp11
 70
     1
102
RTVSPropertyOp12
 70
     1
102
RTVSPropertyOp13
 70
     1
102
RTVSPropertyOp14
 70
     1
102
RTVSPropertyOp15
 70
     1
102
RTVSPropertyOp16
 70
     1
102
RTVSPropertyOp17
 70
     1
102
RTVSPropertyOp18
 70
     1
102
RTVSPropertyOp19
 70
     1
102
RTVSPropertyOp20
 70
     1
102
RTVSPropertyOp21
 70
     1
102
RTVSPropertyOp22
 70
     1
102
RTVSPropertyOp23
 70
     1
102
RTVSPropertyOp24
 70
     1
102
RTVSPropertyOp25
 70
     1
102
RTVSPropertyOp26
 70
     1
102
RTVSPropertyOp27
 70
     1
102
RTVSPropertyOp28
 70
     1
102
RTVSPropertyOp29
 70
     1
102
RTVSPropertyOp30
 70
     1
102
RTVSPropertyOp31
 70
     1
102
RTVSPropertyOp32
 70
     1
  0
XRECORD
  5
52A91
102
{ACAD_REACTORS
330
52A90
102
}
330
52A90
100
AcDbXrecord
280
     1
102
RTVSPropertyOp0
 70
     1
102
RTVSPropertyOp1
 70
     1
102
RTVSPropertyOp2
 70
     1
102
RTVSPropertyOp3
 70
     1
102
RTVSPropertyOp4
 70
     1
102
RTVSPropertyOp5
 70
     1
102
RTVSPropertyOp6
 70
     1
102
RTVSPropertyOp7
 70
     1
102
RTVSPropertyOp8
 70
     1
102
RTVSPropertyOp9
 70
     1
102
RTVSPropertyOp10
 70
     1
102
RTVSPropertyOp11
 70
     1
102
RTVSPropertyOp12
 70
     1
102
RTVSPropertyOp13
 70
     1
102
RTVSPropertyOp14
 70
     1
102
RTVSPropertyOp15
 70
     1
102
RTVSPropertyOp16
 70
     1
102
RTVSPropertyOp17
 70
     1
102
RTVSPropertyOp18
 70
     1
102
RTVSPropertyOp19
 70
     1
102
RTVSPropertyOp20
 70
     1
102
RTVSPropertyOp21
 70
     1
102
RTVSPropertyOp22
 70
     1
102
RTVSPropertyOp23
 70
     1
102
RTVSPropertyOp24
 70
     1
102
RTVSPropertyOp25
 70
     1
102
RTVSPropertyOp26
 70
     1
102
RTVSPropertyOp27
 70
     1
102
RTVSPropertyOp28
 70
     1
102
RTVSPropertyOp29
 70
     1
102
RTVSPropertyOp30
 70
     1
102
RTVSPropertyOp31
 70
     1
102
RTVSPropertyOp32
 70
     1
  0
XRECORD
  5
52A93
102
{ACAD_REACTORS
330
52A92
102
}
330
52A92
100
AcDbXrecord
280
     1
102
RTVSPropertyOp0
 70
     1
102
RTVSPropertyOp1
 70
     1
102
RTVSPropertyOp2
 70
     1
102
RTVSPropertyOp3
 70
     1
102
RTVSPropertyOp4
 70
     1
102
RTVSPropertyOp5
 70
     1
102
RTVSPropertyOp6
 70
     1
102
RTVSPropertyOp7
 70
     1
102
RTVSPropertyOp8
 70
     1
102
RTVSPropertyOp9
 70
     1
102
RTVSPropertyOp10
 70
     1
102
RTVSPropertyOp11
 70
     1
102
RTVSPropertyOp12
 70
     1
102
RTVSPropertyOp13
 70
     1
102
RTVSPropertyOp14
 70
     1
102
RTVSPropertyOp15
 70
     1
102
RTVSPropertyOp16
 70
     1
102
RTVSPropertyOp17
 70
     1
102
RTVSPropertyOp18
 70
     1
102
RTVSPropertyOp19
 70
     1
102
RTVSPropertyOp20
 70
     1
102
RTVSPropertyOp21
 70
     1
102
RTVSPropertyOp22
 70
     1
102
RTVSPropertyOp23
 70
     1
102
RTVSPropertyOp24
 70
     1
102
RTVSPropertyOp25
 70
     1
102
RTVSPropertyOp26
 70
     1
102
RTVSPropertyOp27
 70
     1
102
RTVSPropertyOp28
 70
     1
102
RTVSPropertyOp29
 70
     1
102
RTVSPropertyOp30
 70
     1
102
RTVSPropertyOp31
 70
     1
102
RTVSPropertyOp32
 70
     1
  0
XRECORD
  5
52A95
102
{ACAD_REACTORS
330
52A94
102
}
330
52A94
100
AcDbXrecord
280
     1
102
RTVSPropertyOp0
 70
     1
102
RTVSPropertyOp1
 70
     1
102
RTVSPropertyOp2
 70
     1
102
RTVSPropertyOp3
 70
     1
102
RTVSPropertyOp4
 70
     1
102
RTVSPropertyOp5
 70
     1
102
RTVSPropertyOp6
 70
     1
102
RTVSPropertyOp7
 70
     1
102
RTVSPropertyOp8
 70
     1
102
RTVSPropertyOp9
 70
     1
102
RTVSPropertyOp10
 70
     1
102
RTVSPropertyOp11
 70
     1
102
RTVSPropertyOp12
 70
     1
102
RTVSPropertyOp13
 70
     1
102
RTVSPropertyOp14
 70
     1
102
RTVSPropertyOp15
 70
     1
102
RTVSPropertyOp16
 70
     1
102
RTVSPropertyOp17
 70
     1
102
RTVSPropertyOp18
 70
     1
102
RTVSPropertyOp19
 70
     1
102
RTVSPropertyOp20
 70
     1
102
RTVSPropertyOp21
 70
     1
102
RTVSPropertyOp22
 70
     1
102
RTVSPropertyOp23
 70
     1
102
RTVSPropertyOp24
 70
     1
102
RTVSPropertyOp25
 70
     1
102
RTVSPropertyOp26
 70
     1
102
RTVSPropertyOp27
 70
     1
102
RTVSPropertyOp28
 70
     1
102
RTVSPropertyOp29
 70
     1
102
RTVSPropertyOp30
 70
     1
102
RTVSPropertyOp31
 70
     1
102
RTVSPropertyOp32
 70
     1
  0
XRECORD
  5
52A97
102
{ACAD_REACTORS
330
52A96
102
}
330
52A96
100
AcDbXrecord
280
     1
102
RTVSPropertyOp0
 70
     1
102
RTVSPropertyOp1
 70
     1
102
RTVSPropertyOp2
 70
     1
102
RTVSPropertyOp3
 70
     1
102
RTVSPropertyOp4
 70
     1
102
RTVSPropertyOp5
 70
     1
102
RTVSPropertyOp6
 70
     1
102
RTVSPropertyOp7
 70
     1
102
RTVSPropertyOp8
 70
     1
102
RTVSPropertyOp9
 70
     1
102
RTVSPropertyOp10
 70
     1
102
RTVSPropertyOp11
 70
     1
102
RTVSPropertyOp12
 70
     1
102
RTVSPropertyOp13
 70
     1
102
RTVSPropertyOp14
 70
     1
102
RTVSPropertyOp15
 70
     1
102
RTVSPropertyOp16
 70
     1
102
RTVSPropertyOp17
 70
     1
102
RTVSPropertyOp18
 70
     1
102
RTVSPropertyOp19
 70
     1
102
RTVSPropertyOp20
 70
     1
102
RTVSPropertyOp21
 70
     1
102
RTVSPropertyOp22
 70
     1
102
RTVSPropertyOp23
 70
     1
102
RTVSPropertyOp24
 70
     1
102
RTVSPropertyOp25
 70
     1
102
RTVSPropertyOp26
 70
     1
102
RTVSPropertyOp27
 70
     1
102
RTVSPropertyOp28
 70
     1
102
RTVSPropertyOp29
 70
     1
102
RTVSPropertyOp30
 70
     1
102
RTVSPropertyOp31
 70
     1
102
RTVSPropertyOp32
 70
     1
  0
XRECORD
  5
52AB4
102
{ACAD_REACTORS
330
52AB3
102
}
330
52AB3
100
AcDbXrecord
280
     1
102
RTVSPropertyOp0
 70
     1
102
RTVSPropertyOp1
 70
     1
102
RTVSPropertyOp2
 70
     1
102
RTVSPropertyOp3
 70
     1
102
RTVSPropertyOp4
 70
     1
102
RTVSPropertyOp5
 70
     1
102
RTVSPropertyOp6
 70
     1
102
RTVSPropertyOp7
 70
     1
102
RTVSPropertyOp8
 70
     1
102
RTVSPropertyOp9
 70
     1
102
RTVSPropertyOp10
 70
     1
102
RTVSPropertyOp11
 70
     1
102
RTVSPropertyOp12
 70
     1
102
RTVSPropertyOp13
 70
     1
102
RTVSPropertyOp14
 70
     1
102
RTVSPropertyOp15
 70
     1
102
RTVSPropertyOp16
 70
     1
102
RTVSPropertyOp17
 70
     1
102
RTVSPropertyOp18
 70
     1
102
RTVSPropertyOp19
 70
     1
102
RTVSPropertyOp20
 70
     1
102
RTVSPropertyOp21
 70
     1
102
RTVSPropertyOp22
 70
     1
102
RTVSPropertyOp23
 70
     1
102
RTVSPropertyOp24
 70
     1
102
RTVSPropertyOp25
 70
     1
102
RTVSPropertyOp26
 70
     1
102
RTVSPropertyOp27
 70
     1
102
RTVSPropertyOp28
 70
     1
102
RTVSPropertyOp29
 70
     1
102
RTVSPropertyOp30
 70
     1
102
RTVSPropertyOp31
 70
     1
102
RTVSPropertyOp32
 70
     1
  0
XRECORD
  5
52AC0
102
{ACAD_REACTORS
330
52ABF
102
}
330
52ABF
100
AcDbXrecord
280
     1
102
RTVSPropertyOp0
 70
     0
102
RTVSPropertyOp1
 70
     0
102
RTVSPropertyOp2
 70
     0
102
RTVSPropertyOp3
 70
     0
102
RTVSPropertyOp4
 70
     0
102
RTVSPropertyOp5
 70
     0
102
RTVSPropertyOp6
 70
     0
102
RTVSPropertyOp7
 70
     0
102
RTVSPropertyOp8
 70
     0
102
RTVSPropertyOp9
 70
     0
102
RTVSPropertyOp10
 70
     0
102
RTVSPropertyOp11
 70
     0
102
RTVSPropertyOp12
 70
     0
102
RTVSPropertyOp13
 70
     0
102
RTVSPropertyOp14
 70
     2
102
RTVSPropertyOp15
 70
     0
102
RTVSPropertyOp16
 70
     0
102
RTVSPropertyOp17
 70
     0
102
RTVSPropertyOp18
 70
     0
102
RTVSPropertyOp19
 70
     0
102
RTVSPropertyOp20
 70
     0
102
RTVSPropertyOp21
 70
     0
102
RTVSPropertyOp22
 70
     0
102
RTVSPropertyOp23
 70
     0
102
RTVSPropertyOp24
 70
     0
102
RTVSPropertyOp25
 70
     0
102
RTVSPropertyOp26
 70
     0
102
RTVSPropertyOp27
 70
     0
102
RTVSPropertyOp28
 70
     1
102
RTVSPropertyOp29
 70
     1
102
RTVSPropertyOp30
 70
     1
102
RTVSPropertyOp31
 70
     1
102
RTVSPropertyOp32
 70
     1
  0
XRECORD
  5
52AAB
102
{ACAD_REACTORS
330
52AAA
102
}
330
52AAA
100
AcDbXrecord
280
     1
102
RTVSPropertyOp0
 70
     1
102
RTVSPropertyOp1
 70
     1
102
RTVSPropertyOp2
 70
     1
102
RTVSPropertyOp3
 70
     1
102
RTVSPropertyOp4
 70
     1
102
RTVSPropertyOp5
 70
     1
102
RTVSPropertyOp6
 70
     1
102
RTVSPropertyOp7
 70
     1
102
RTVSPropertyOp8
 70
     1
102
RTVSPropertyOp9
 70
     1
102
RTVSPropertyOp10
 70
     1
102
RTVSPropertyOp11
 70
     1
102
RTVSPropertyOp12
 70
     1
102
RTVSPropertyOp13
 70
     1
102
RTVSPropertyOp14
 70
     1
102
RTVSPropertyOp15
 70
     1
102
RTVSPropertyOp16
 70
     1
102
RTVSPropertyOp17
 70
     1
102
RTVSPropertyOp18
 70
     1
102
RTVSPropertyOp19
 70
     1
102
RTVSPropertyOp20
 70
     1
102
RTVSPropertyOp21
 70
     1
102
RTVSPropertyOp22
 70
     1
102
RTVSPropertyOp23
 70
     1
102
RTVSPropertyOp24
 70
     1
102
RTVSPropertyOp25
 70
     1
102
RTVSPropertyOp26
 70
     1
102
RTVSPropertyOp27
 70
     1
102
RTVSPropertyOp28
 70
     1
102
RTVSPropertyOp29
 70
     1
102
RTVSPropertyOp30
 70
     1
102
RTVSPropertyOp31
 70
     1
102
RTVSPropertyOp32
 70
     1
  0
XRECORD
  5
52AC2
102
{ACAD_REACTORS
330
52AC1
102
}
330
52AC1
100
AcDbXrecord
280
     1
102
RTVSPropertyOp0
 70
     0
102
RTVSPropertyOp1
 70
     0
102
RTVSPropertyOp2
 70
     0
102
RTVSPropertyOp3
 70
     0
102
RTVSPropertyOp4
 70
     0
102
RTVSPropertyOp5
 70
     0
102
RTVSPropertyOp6
 70
     0
102
RTVSPropertyOp7
 70
     0
102
RTVSPropertyOp8
 70
     0
102
RTVSPropertyOp9
 70
     0
102
RTVSPropertyOp10
 70
     0
102
RTVSPropertyOp11
 70
     0
102
RTVSPropertyOp12
 70
     0
102
RTVSPropertyOp13
 70
     0
102
RTVSPropertyOp14
 70
     2
102
RTVSPropertyOp15
 70
     0
102
RTVSPropertyOp16
 70
     0
102
RTVSPropertyOp17
 70
     0
102
RTVSPropertyOp18
 70
     0
102
RTVSPropertyOp19
 70
     0
102
RTVSPropertyOp20
 70
     0
102
RTVSPropertyOp21
 70
     0
102
RTVSPropertyOp22
 70
     0
102
RTVSPropertyOp23
 70
     0
102
RTVSPropertyOp24
 70
     0
102
RTVSPropertyOp25
 70
     0
102
RTVSPropertyOp26
 70
     0
102
RTVSPropertyOp27
 70
     0
102
RTVSPropertyOp28
 70
     1
102
RTVSPropertyOp29
 70
     1
102
RTVSPropertyOp30
 70
     1
102
RTVSPropertyOp31
 70
     1
102
RTVSPropertyOp32
 70
     1
  0
XRECORD
  5
52AA3
102
{ACAD_REACTORS
330
52AA2
102
}
330
52AA2
100
AcDbXrecord
280
     1
102
RTVSPropertyOp0
 70
     1
102
RTVSPropertyOp1
 70
     1
102
RTVSPropertyOp2
 70
     1
102
RTVSPropertyOp3
 70
     1
102
RTVSPropertyOp4
 70
     1
102
RTVSPropertyOp5
 70
     1
102
RTVSPropertyOp6
 70
     1
102
RTVSPropertyOp7
 70
     1
102
RTVSPropertyOp8
 70
     1
102
RTVSPropertyOp9
 70
     1
102
RTVSPropertyOp10
 70
     1
102
RTVSPropertyOp11
 70
     1
102
RTVSPropertyOp12
 70
     1
102
RTVSPropertyOp13
 70
     1
102
RTVSPropertyOp14
 70
     1
102
RTVSPropertyOp15
 70
     1
102
RTVSPropertyOp16
 70
     1
102
RTVSPropertyOp17
 70
     1
102
RTVSPropertyOp18
 70
     1
102
RTVSPropertyOp19
 70
     1
102
RTVSPropertyOp20
 70
     1
102
RTVSPropertyOp21
 70
     1
102
RTVSPropertyOp22
 70
     1
102
RTVSPropertyOp23
 70
     1
102
RTVSPropertyOp24
 70
     1
102
RTVSPropertyOp25
 70
     1
102
RTVSPropertyOp26
 70
     1
102
RTVSPropertyOp27
 70
     1
102
RTVSPropertyOp28
 70
     1
102
RTVSPropertyOp29
 70
     1
102
RTVSPropertyOp30
 70
     1
102
RTVSPropertyOp31
 70
     1
102
RTVSPropertyOp32
 70
     1
  0
XRECORD
  5
52ABE
102
{ACAD_REACTORS
330
52ABD
102
}
330
52ABD
100
AcDbXrecord
280
     1
102
RTVSPropertyOp0
 70
     1
102
RTVSPropertyOp1
 70
     1
102
RTVSPropertyOp2
 70
     1
102
RTVSPropertyOp3
 70
     1
102
RTVSPropertyOp4
 70
     1
102
RTVSPropertyOp5
 70
     1
102
RTVSPropertyOp6
 70
     1
102
RTVSPropertyOp7
 70
     1
102
RTVSPropertyOp8
 70
     1
102
RTVSPropertyOp9
 70
     1
102
RTVSPropertyOp10
 70
     1
102
RTVSPropertyOp11
 70
     1
102
RTVSPropertyOp12
 70
     1
102
RTVSPropertyOp13
 70
     1
102
RTVSPropertyOp14
 70
     1
102
RTVSPropertyOp15
 70
     1
102
RTVSPropertyOp16
 70
     1
102
RTVSPropertyOp17
 70
     1
102
RTVSPropertyOp18
 70
     1
102
RTVSPropertyOp19
 70
     1
102
RTVSPropertyOp20
 70
     1
102
RTVSPropertyOp21
 70
     1
102
RTVSPropertyOp22
 70
     1
102
RTVSPropertyOp23
 70
     1
102
RTVSPropertyOp24
 70
     1
102
RTVSPropertyOp25
 70
     1
102
RTVSPropertyOp26
 70
     1
102
RTVSPropertyOp27
 70
     1
102
RTVSPropertyOp28
 70
     1
102
RTVSPropertyOp29
 70
     1
102
RTVSPropertyOp30
 70
     1
102
RTVSPropertyOp31
 70
     1
102
RTVSPropertyOp32
 70
     1
  0
XRECORD
  5
52ABC
102
{ACAD_REACTORS
330
52ABB
102
}
330
52ABB
100
AcDbXrecord
280
     1
102
RTVSPropertyOp0
 70
     1
102
RTVSPropertyOp1
 70
     1
102
RTVSPropertyOp2
 70
     1
102
RTVSPropertyOp3
 70
     1
102
RTVSPropertyOp4
 70
     1
102
RTVSPropertyOp5
 70
     1
102
RTVSPropertyOp6
 70
     1
102
RTVSPropertyOp7
 70
     1
102
RTVSPropertyOp8
 70
     1
102
RTVSPropertyOp9
 70
     1
102
RTVSPropertyOp10
 70
     1
102
RTVSPropertyOp11
 70
     1
102
RTVSPropertyOp12
 70
     1
102
RTVSPropertyOp13
 70
     1
102
RTVSPropertyOp14
 70
     1
102
RTVSPropertyOp15
 70
     1
102
RTVSPropertyOp16
 70
     1
102
RTVSPropertyOp17
 70
     1
102
RTVSPropertyOp18
 70
     1
102
RTVSPropertyOp19
 70
     1
102
RTVSPropertyOp20
 70
     1
102
RTVSPropertyOp21
 70
     1
102
RTVSPropertyOp22
 70
     1
102
RTVSPropertyOp23
 70
     1
102
RTVSPropertyOp24
 70
     1
102
RTVSPropertyOp25
 70
     1
102
RTVSPropertyOp26
 70
     1
102
RTVSPropertyOp27
 70
     1
102
RTVSPropertyOp28
 70
     1
102
RTVSPropertyOp29
 70
     1
102
RTVSPropertyOp30
 70
     1
102
RTVSPropertyOp31
 70
     1
102
RTVSPropertyOp32
 70
     1
  0
XRECORD
  5
52AB6
102
{ACAD_REACTORS
330
52AB5
102
}
330
52AB5
100
AcDbXrecord
280
     1
102
RTVSPropertyOp0
 70
     1
102
RTVSPropertyOp1
 70
     1
102
RTVSPropertyOp2
 70
     1
102
RTVSPropertyOp3
 70
     1
102
RTVSPropertyOp4
 70
     1
102
RTVSPropertyOp5
 70
     1
102
RTVSPropertyOp6
 70
     1
102
RTVSPropertyOp7
 70
     1
102
RTVSPropertyOp8
 70
     1
102
RTVSPropertyOp9
 70
     1
102
RTVSPropertyOp10
 70
     1
102
RTVSPropertyOp11
 70
     1
102
RTVSPropertyOp12
 70
     1
102
RTVSPropertyOp13
 70
     1
102
RTVSPropertyOp14
 70
     1
102
RTVSPropertyOp15
 70
     1
102
RTVSPropertyOp16
 70
     1
102
RTVSPropertyOp17
 70
     1
102
RTVSPropertyOp18
 70
     1
102
RTVSPropertyOp19
 70
     1
102
RTVSPropertyOp20
 70
     1
102
RTVSPropertyOp21
 70
     1
102
RTVSPropertyOp22
 70
     1
102
RTVSPropertyOp23
 70
     1
102
RTVSPropertyOp24
 70
     1
102
RTVSPropertyOp25
 70
     1
102
RTVSPropertyOp26
 70
     1
102
RTVSPropertyOp27
 70
     1
102
RTVSPropertyOp28
 70
     1
102
RTVSPropertyOp29
 70
     1
102
RTVSPropertyOp30
 70
     1
102
RTVSPropertyOp31
 70
     1
102
RTVSPropertyOp32
 70
     1
  0
XRECORD
  5
52AB8
102
{ACAD_REACTORS
330
52AB7
102
}
330
52AB7
100
AcDbXrecord
280
     1
102
RTVSPropertyOp0
 70
     1
102
RTVSPropertyOp1
 70
     1
102
RTVSPropertyOp2
 70
     1
102
RTVSPropertyOp3
 70
     1
102
RTVSPropertyOp4
 70
     1
102
RTVSPropertyOp5
 70
     1
102
RTVSPropertyOp6
 70
     1
102
RTVSPropertyOp7
 70
     1
102
RTVSPropertyOp8
 70
     1
102
RTVSPropertyOp9
 70
     1
102
RTVSPropertyOp10
 70
     1
102
RTVSPropertyOp11
 70
     1
102
RTVSPropertyOp12
 70
     1
102
RTVSPropertyOp13
 70
     1
102
RTVSPropertyOp14
 70
     1
102
RTVSPropertyOp15
 70
     1
102
RTVSPropertyOp16
 70
     1
102
RTVSPropertyOp17
 70
     1
102
RTVSPropertyOp18
 70
     1
102
RTVSPropertyOp19
 70
     1
102
RTVSPropertyOp20
 70
     1
102
RTVSPropertyOp21
 70
     1
102
RTVSPropertyOp22
 70
     1
102
RTVSPropertyOp23
 70
     1
102
RTVSPropertyOp24
 70
     1
102
RTVSPropertyOp25
 70
     1
102
RTVSPropertyOp26
 70
     1
102
RTVSPropertyOp27
 70
     1
102
RTVSPropertyOp28
 70
     1
102
RTVSPropertyOp29
 70
     1
102
RTVSPropertyOp30
 70
     1
102
RTVSPropertyOp31
 70
     1
102
RTVSPropertyOp32
 70
     1
  0
XRECORD
  5
52AA9
102
{ACAD_REACTORS
330
52AA8
102
}
330
52AA8
100
AcDbXrecord
280
     1
102
RTVSPropertyOp0
 70
     1
102
RTVSPropertyOp1
 70
     1
102
RTVSPropertyOp2
 70
     1
102
RTVSPropertyOp3
 70
     1
102
RTVSPropertyOp4
 70
     1
102
RTVSPropertyOp5
 70
     1
102
RTVSPropertyOp6
 70
     1
102
RTVSPropertyOp7
 70
     1
102
RTVSPropertyOp8
 70
     1
102
RTVSPropertyOp9
 70
     1
102
RTVSPropertyOp10
 70
     1
102
RTVSPropertyOp11
 70
     1
102
RTVSPropertyOp12
 70
     1
102
RTVSPropertyOp13
 70
     1
102
RTVSPropertyOp14
 70
     1
102
RTVSPropertyOp15
 70
     1
102
RTVSPropertyOp16
 70
     1
102
RTVSPropertyOp17
 70
     1
102
RTVSPropertyOp18
 70
     1
102
RTVSPropertyOp19
 70
     1
102
RTVSPropertyOp20
 70
     1
102
RTVSPropertyOp21
 70
     1
102
RTVSPropertyOp22
 70
     1
102
RTVSPropertyOp23
 70
     1
102
RTVSPropertyOp24
 70
     1
102
RTVSPropertyOp25
 70
     1
102
RTVSPropertyOp26
 70
     1
102
RTVSPropertyOp27
 70
     1
102
RTVSPropertyOp28
 70
     1
102
RTVSPropertyOp29
 70
     1
102
RTVSPropertyOp30
 70
     1
102
RTVSPropertyOp31
 70
     1
102
RTVSPropertyOp32
 70
     1
  0
XRECORD
  5
52AB2
102
{ACAD_REACTORS
330
52AB1
102
}
330
52AB1
100
AcDbXrecord
280
     1
102
RTVSPropertyOp0
 70
     1
102
RTVSPropertyOp1
 70
     1
102
RTVSPropertyOp2
 70
     1
102
RTVSPropertyOp3
 70
     1
102
RTVSPropertyOp4
 70
     1
102
RTVSPropertyOp5
 70
     1
102
RTVSPropertyOp6
 70
     1
102
RTVSPropertyOp7
 70
     1
102
RTVSPropertyOp8
 70
     1
102
RTVSPropertyOp9
 70
     1
102
RTVSPropertyOp10
 70
     1
102
RTVSPropertyOp11
 70
     1
102
RTVSPropertyOp12
 70
     1
102
RTVSPropertyOp13
 70
     1
102
RTVSPropertyOp14
 70
     1
102
RTVSPropertyOp15
 70
     1
102
RTVSPropertyOp16
 70
     1
102
RTVSPropertyOp17
 70
     1
102
RTVSPropertyOp18
 70
     1
102
RTVSPropertyOp19
 70
     1
102
RTVSPropertyOp20
 70
     1
102
RTVSPropertyOp21
 70
     1
102
RTVSPropertyOp22
 70
     1
102
RTVSPropertyOp23
 70
     1
102
RTVSPropertyOp24
 70
     1
102
RTVSPropertyOp25
 70
     1
102
RTVSPropertyOp26
 70
     1
102
RTVSPropertyOp27
 70
     1
102
RTVSPropertyOp28
 70
     1
102
RTVSPropertyOp29
 70
     1
102
RTVSPropertyOp30
 70
     1
102
RTVSPropertyOp31
 70
     1
102
RTVSPropertyOp32
 70
     1
  0
XRECORD
  5
52ABA
102
{ACAD_REACTORS
330
52AB9
102
}
330
52AB9
100
AcDbXrecord
280
     1
102
RTVSPropertyOp0
 70
     1
102
RTVSPropertyOp1
 70
     1
102
RTVSPropertyOp2
 70
     1
102
RTVSPropertyOp3
 70
     1
102
RTVSPropertyOp4
 70
     1
102
RTVSPropertyOp5
 70
     1
102
RTVSPropertyOp6
 70
     1
102
RTVSPropertyOp7
 70
     1
102
RTVSPropertyOp8
 70
     1
102
RTVSPropertyOp9
 70
     1
102
RTVSPropertyOp10
 70
     1
102
RTVSPropertyOp11
 70
     1
102
RTVSPropertyOp12
 70
     1
102
RTVSPropertyOp13
 70
     1
102
RTVSPropertyOp14
 70
     1
102
RTVSPropertyOp15
 70
     1
102
RTVSPropertyOp16
 70
     1
102
RTVSPropertyOp17
 70
     1
102
RTVSPropertyOp18
 70
     1
102
RTVSPropertyOp19
 70
     1
102
RTVSPropertyOp20
 70
     1
102
RTVSPropertyOp21
 70
     1
102
RTVSPropertyOp22
 70
     1
102
RTVSPropertyOp23
 70
     1
102
RTVSPropertyOp24
 70
     1
102
RTVSPropertyOp25
 70
     1
102
RTVSPropertyOp26
 70
     1
102
RTVSPropertyOp27
 70
     1
102
RTVSPropertyOp28
 70
     1
102
RTVSPropertyOp29
 70
     1
102
RTVSPropertyOp30
 70
     1
102
RTVSPropertyOp31
 70
     1
102
RTVSPropertyOp32
 70
     1
  0
ENDSEC
  0
EOF
