  0
SECTION
  2
HEADER
  9
$ACADVER
  1
AC1018
  9
$ACADMAINTVER
 70
   104
  9
$DWGCODEPAGE
  3
ANSI_932
  9
$LASTSAVEDBY
  1
HON1000CV
  9
$INSBASE
 10
0.0
 20
0.0
 30
0.0
  9
$EXTMIN
 10
-550.3542626070339
 20
1985.996493908599
 30
0.0
  9
$EXTMAX
 10
219.51086994461
 20
2294.785472788309
 30
0.0
  9
$LIMMIN
 10
0.0
 20
0.0
  9
$LIMMAX
 10
841.0
 20
594.0
  9
$ORTHOMODE
 70
     0
  9
$REGENMODE
 70
     1
  9
$FILLMODE
 70
     1
  9
$QTEXTMODE
 70
     0
  9
$MIRRTEXT
 70
     1
  9
$LTSCALE
 40
1.0
  9
$ATTMODE
 70
     1
  9
$TEXTSIZE
 40
2.5
  9
$TRACEWID
 40
1.0
  9
$TEXTSTYLE
  7
Standard
  9
$CLAYER
  8
0
  9
$CELTYPE
  6
ByLayer
  9
$CECOLOR
 62
   256
  9
$CELTSCALE
 40
1.0
  9
$DISPSILH
 70
     0
  9
$DIMSCALE
 40
1.0
  9
$DIMASZ
 40
4.5
  9
$DIMEXO
 40
0.0
  9
$DIMDLI
 40
0.38
  9
$DIMRND
 40
0.0
  9
$DIMDLE
 40
0.0
  9
$DIMEXE
 40
0.0
  9
$DIMTP
 40
0.0
  9
$DIMTM
 40
0.0
  9
$DIMTXT
 40
9.0
  9
$DIMCEN
 40
0.09
  9
$DIMTSZ
 40
0.0
  9
$DIMTOL
 70
     0
  9
$DIMLIM
 70
     0
  9
$DIMTIH
 70
     0
  9
$DIMTOH
 70
     1
  9
$DIMSE1
 70
     0
  9
$DIMSE2
 70
     0
  9
$DIMTAD
 70
     1
  9
$DIMZIN
 70
     0
  9
$DIMBLK
  1
Small
  9
$DIMASO
 70
     1
  9
$DIMSHO
 70
     1
  9
$DIMPOST
  1

  9
$DIMAPOST
  1

  9
$DIMALT
 70
     0
  9
$DIMALTD
 70
     2
  9
$DIMALTF
 40
25.4
  9
$DIMLFAC
 40
1.0
  9
$DIMTOFL
 70
     0
  9
$DIMTVP
 40
0.0
  9
$DIMTIX
 70
     1
  9
$DIMSOXD
 70
     0
  9
$DIMSAH
 70
     0
  9
$DIMBLK1
  1

  9
$DIMBLK2
  1

  9
$DIMSTYLE
  2
AutoCAD
  9
$DIMCLRD
 70
     4
  9
$DIMCLRE
 70
     4
  9
$DIMCLRT
 70
     3
  9
$DIMTFAC
 40
1.0
  9
$DIMGAP
 40
3.0
  9
$DIMJUST
 70
     0
  9
$DIMSD1
 70
     0
  9
$DIMSD2
 70
     0
  9
$DIMTOLJ
 70
     1
  9
$DIMTZIN
 70
     0
  9
$DIMALTZ
 70
     0
  9
$DIMALTTZ
 70
     0
  9
$DIMUPT
 70
     0
  9
$DIMDEC
 70
     0
  9
$DIMTDEC
 70
     0
  9
$DIMALTU
 70
     2
  9
$DIMALTTD
 70
     2
  9
$DIMTXSTY
  7
ACAD
  9
$DIMAUNIT
 70
     0
  9
$DIMADEC
 70
     0
  9
$DIMALTRND
 40
0.0
  9
$DIMAZIN
 70
     0
  9
$DIMDSEP
 70
    46
  9
$DIMATFIT
 70
     0
  9
$DIMFRAC
 70
     0
  9
$DIMLDRBLK
  1
None
  9
$DIMLUNIT
 70
     2
  9
$DIMLWD
 70
    -2
  9
$DIMLWE
 70
    -2
  9
$DIMTMOVE
 70
     0
  9
$LUNITS
 70
     2
  9
$LUPREC
 70
     2
  9
$SKETCHINC
 40
1.0
  9
$FILLETRAD
 40
0.0
  9
$AUNITS
 70
     0
  9
$AUPREC
 70
     2
  9
$MENU
  1
.
  9
$ELEVATION
 40
0.0
  9
$PELEVATION
 40
0.0
  9
$THICKNESS
 40
0.0
  9
$LIMCHECK
 70
     0
  9
$CHAMFERA
 40
10.0
  9
$CHAMFERB
 40
10.0
  9
$CHAMFERC
 40
20.0
  9
$CHAMFERD
 40
0.0
  9
$SKPOLY
 70
     0
  9
$TDCREATE
 40
2455748.681291193
  9
$TDUCREATE
 40
2455748.306291193
  9
$TDUPDATE
 40
2455961.471665544
  9
$TDUUPDATE
 40
2455961.096665544
  9
$TDINDWG
 40
0.0797970255
  9
$TDUSRTIMER
 40
0.0797970255
  9
$USRTIMER
 70
     1
  9
$ANGBASE
 50
0.0
  9
$ANGDIR
 70
     0
  9
$PDMODE
 70
     0
  9
$PDSIZE
 40
10.0
  9
$PLINEWID
 40
0.0
  9
$SPLFRAME
 70
     0
  9
$SPLINETYPE
 70
     6
  9
$SPLINESEGS
 70
     8
  9
$HANDSEED
  5
52A8B
  9
$SURFTAB1
 70
     6
  9
$SURFTAB2
 70
     6
  9
$SURFTYPE
 70
     6
  9
$SURFU
 70
     6
  9
$SURFV
 70
     6
  9
$UCSBASE
  2

  9
$UCSNAME
  2

  9
$UCSORG
 10
0.0
 20
0.0
 30
0.0
  9
$UCSXDIR
 10
1.0
 20
0.0
 30
0.0
  9
$UCSYDIR
 10
0.0
 20
1.0
 30
0.0
  9
$UCSORTHOREF
  2

  9
$UCSORTHOVIEW
 70
     0
  9
$UCSORGTOP
 10
0.0
 20
0.0
 30
0.0
  9
$UCSORGBOTTOM
 10
0.0
 20
0.0
 30
0.0
  9
$UCSORGLEFT
 10
0.0
 20
0.0
 30
0.0
  9
$UCSORGRIGHT
 10
0.0
 20
0.0
 30
0.0
  9
$UCSORGFRONT
 10
0.0
 20
0.0
 30
0.0
  9
$UCSORGBACK
 10
0.0
 20
0.0
 30
0.0
  9
$PUCSBASE
  2

  9
$PUCSNAME
  2

  9
$PUCSORG
 10
0.0
 20
0.0
 30
0.0
  9
$PUCSXDIR
 10
1.0
 20
0.0
 30
0.0
  9
$PUCSYDIR
 10
0.0
 20
1.0
 30
0.0
  9
$PUCSORTHOREF
  2

  9
$PUCSORTHOVIEW
 70
     0
  9
$PUCSORGTOP
 10
0.0
 20
0.0
 30
0.0
  9
$PUCSORGBOTTOM
 10
0.0
 20
0.0
 30
0.0
  9
$PUCSORGLEFT
 10
0.0
 20
0.0
 30
0.0
  9
$PUCSORGRIGHT
 10
0.0
 20
0.0
 30
0.0
  9
$PUCSORGFRONT
 10
0.0
 20
0.0
 30
0.0
  9
$PUCSORGBACK
 10
0.0
 20
0.0
 30
0.0
  9
$USERI1
 70
     0
  9
$USERI2
 70
     0
  9
$USERI3
 70
     0
  9
$USERI4
 70
     0
  9
$USERI5
 70
     0
  9
$USERR1
 40
0.0
  9
$USERR2
 40
0.0
  9
$USERR3
 40
0.0
  9
$USERR4
 40
0.0
  9
$USERR5
 40
0.0
  9
$WORLDVIEW
 70
     1
  9
$SHADEDGE
 70
     3
  9
$SHADEDIF
 70
    70
  9
$TILEMODE
 70
     1
  9
$MAXACTVP
 70
    48
  9
$PINSBASE
 10
0.0
 20
0.0
 30
0.0
  9
$PLIMCHECK
 70
     0
  9
$PEXTMIN
 10
0.0
 20
0.0
 30
0.0
  9
$PEXTMAX
 10
0.0
 20
0.0
 30
0.0
  9
$PLIMMIN
 10
0.0
 20
0.0
  9
$PLIMMAX
 10
12.0
 20
9.0
  9
$UNITMODE
 70
     0
  9
$VISRETAIN
 70
     1
  9
$PLINEGEN
 70
     0
  9
$PSLTSCALE
 70
     1
  9
$TREEDEPTH
 70
  3020
  9
$CMLSTYLE
  2
Standard
  9
$CMLJUST
 70
     1
  9
$CMLSCALE
 40
3.5
  9
$PROXYGRAPHICS
 70
     1
  9
$MEASUREMENT
 70
     1
  9
$CELWEIGHT
370
    -1
  9
$ENDCAPS
280
     0
  9
$JOINSTYLE
280
     0
  9
$LWDISPLAY
290
     0
  9
$INSUNITS
 70
     4
  9
$HYPERLINKBASE
  1

  9
$STYLESHEET
  1
monochrome.ctb
  9
$XEDIT
290
     1
  9
$CEPSNTYPE
380
     0
  9
$PSTYLEMODE
290
     1
  9
$FINGERPRINTGUID
  2
{75253CF9-08B3-4660-9A51-F564FBA57CE0}
  9
$VERSIONGUID
  2
{E020F7C7-9B2D-4BF5-A107-2558EA89D9D7}
  9
$EXTNAMES
290
     1
  9
$PSVPSCALE
 40
0.0
  9
$OLESTARTUP
290
     0
  9
$SORTENTS
280
    96
  9
$INDEXCTL
280
     0
  9
$HIDETEXT
280
     0
  9
$XCLIPFRAME
290
     0
  9
$HALOGAP
280
     0
  9
$OBSCOLOR
 70
   257
  9
$OBSLTYPE
280
     0
  9
$INTERSECTIONDISPLAY
280
     0
  9
$INTERSECTIONCOLOR
 70
   257
  9
$DIMASSOC
280
     1
  9
$PROJECTNAME
  1

  0
ENDSEC
  0
SECTION
  2
CLASSES
  0
CLASS
  1
ACDBDICTIONARYWDFLT
  2
AcDbDictionaryWithDefault
  3
ObjectDBX Classes
 90
        0
 91
        1
280
     0
281
     0
  0
CLASS
  1
DICTIONARYVAR
  2
AcDbDictionaryVar
  3
ObjectDBX Classes
 90
        0
 91
        9
280
     0
281
     0
  0
CLASS
  1
MATERIAL
  2
AcDbMaterial
  3
ObjectDBX Classes
 90
     1153
 91
        3
280
     0
281
     0
  0
CLASS
  1
VISUALSTYLE
  2
AcDbVisualStyle
  3
ObjectDBX Classes
 90
     4095
 91
       26
280
     0
281
     0
  0
CLASS
  1
TABLESTYLE
  2
AcDbTableStyle
  3
ObjectDBX Classes
 90
     4095
 91
        1
280
     0
281
     0
  0
CLASS
  1
SCALE
  2
AcDbScale
  3
ObjectDBX Classes
 90
     1153
 91
       21
280
     0
281
     0
  0
CLASS
  1
MLEADERSTYLE
  2
AcDbMLeaderStyle
  3
ACDB_MLEADERSTYLE_CLASS
 90
     4095
 91
        1
280
     0
281
     0
  0
CLASS
  1
CELLSTYLEMAP
  2
AcDbCellStyleMap
  3
ObjectDBX Classes
 90
     1152
 91
        2
280
     0
281
     0
  0
CLASS
  1
AEC_REFEDIT_STATUS_TRACKER
  2
AecDbRefEditStatusTracker
  3
AecArchBase60|Product Desc: Autodesk Architectural Desktop 2007 |Company: Autodesk,Inc. |WEB Address: www.autodesk.com
 90
      129
 91
        0
280
     0
281
     0
  0
CLASS
  1
NPOCOLLECTION
  2
AcDbImpNonPersistentObjectsCollection
  3
ObjectDBX Classes
 90
     1153
 91
        0
280
     0
281
     0
  0
CLASS
  1
PLOTSETTINGS
  2
AcDbPlotSettings
  3
ObjectDBX Classes
 90
        0
 91
        8
280
     0
281
     0
  0
CLASS
  1
SORTENTSTABLE
  2
AcDbSortentsTable
  3
ObjectDBX Classes
 90
        0
 91
        1
280
     0
281
     0
  0
CLASS
  1
ACAD_EVALUATION_GRAPH
  2
AcDbEvalGraph
  3
ObjectDBX Classes
 90
     1153
 91
        0
280
     0
281
     0
  0
CLASS
  1
ACAECUSTOBJ
  2
AcAeEditorObj
  3
AcAeEditorObj
 90
     1024
 91
        0
280
     0
281
     0
  0
CLASS
  1
ACDB_DYNAMICBLOCKPURGEPREVENTER_VERSION
  2
AcDbDynamicBlockPurgePreventer
  3
ObjectDBX Classes
 90
     1153
 91
        0
280
     0
281
     0
  0
CLASS
  1
SOLID_BACKGROUND
  2
AcDbSolidBackground
  3
SCENEOE
 90
     4095
 91
        0
280
     0
281
     0
  0
ENDSEC
  0
SECTION
  2
TABLES
  0
TABLE
  2
VPORT
  5
8
102
{ACAD_XDICTIONARY
360
52616
102
}
330
0
100
AcDbSymbolTable
 70
     1
  0
VPORT
  5
1FF1E
330
8
100
AcDbSymbolTableRecord
100
AcDbViewportTableRecord
  2
*Active
 70
     0
 10
0.0
 20
0.0
 11
1.0
 21
1.0
 12
-679.9673875768796
 22
-1408.457604515317
 13
0.0
 23
0.0
 14
10.0
 24
10.0
 15
10.0
 25
10.0
 16
0.0
 26
0.0
 36
2120.973378360774
 17
514.5358060702892
 27
3548.809190640961
 37
0.0
 40
311.5463949856315
 41
2.519736842105263
 42
50.0
 43
0.0
 44
0.0
 50
0.0
 51
0.0
 71
     0
 72
   100
 73
     1
 74
     3
 75
     0
 76
     0
 77
     0
 78
     0
281
     0
 65
     1
110
0.0
120
0.0
130
0.0
111
1.0
121
0.0
131
0.0
112
0.0
122
1.0
132
0.0
 79
     0
146
0.0
1001
ACAD_NAV_VCDISPLAY
1070
     3
  0
ENDTAB
  0
TABLE
  2
LTYPE
  5
5
330
0
100
AcDbSymbolTable
 70
     2
  0
LTYPE
  5
14
330
5
100
AcDbSymbolTableRecord
100
AcDbLinetypeTableRecord
  2
ByBlock
 70
     0
  3

 72
    65
 73
     0
 40
0.0
  0
LTYPE
  5
15
330
5
100
AcDbSymbolTableRecord
100
AcDbLinetypeTableRecord
  2
ByLayer
 70
     0
  3

 72
    65
 73
     0
 40
0.0
  0
LTYPE
  5
16
330
5
100
AcDbSymbolTableRecord
100
AcDbLinetypeTableRecord
  2
Continuous
 70
     0
  3
Solid line
 72
    65
 73
     0
 40
0.0
  0
LTYPE
  5
4BDA4
330
5
100
AcDbSymbolTableRecord
100
AcDbLinetypeTableRecord
  2
CENTER1
 70
     0
  3
----- - ----- - ----- - ----- - 
 72
    65
 73
     4
 40
10.0
 49
6.25
 74
     0
 49
-1.25
 74
     0
 49
1.25
 74
     0
 49
-1.25
 74
     0
  0
ENDTAB
  0
TABLE
  2
LAYER
  5
2
102
{ACAD_XDICTIONARY
360
1562
102
}
330
0
100
AcDbSymbolTable
 70
     6
  0
LAYER
  5
10
102
{ACAD_XDICTIONARY
360
22778
102
}
330
2
100
AcDbSymbolTableRecord
100
AcDbLayerTableRecord
  2
0
 70
     0
 62
     7
  6
Continuous
370
    -3
390
F
  0
LAYER
  5
16F1
330
2
100
AcDbSymbolTableRecord
100
AcDbLayerTableRecord
  2
Defpoints
 70
     0
 62
    20
  6
Continuous
290
     0
370
    -3
390
F
  0
LAYER
  5
4BDA5
102
{ACAD_XDICTIONARY
360
4BDA6
102
}
330
2
100
AcDbSymbolTableRecord
100
AcDbLayerTableRecord
  2
寸法
 70
     0
 62
     7
  6
Continuous
370
    -3
390
F
  0
LAYER
  5
4BDA7
102
{ACAD_XDICTIONARY
360
4BDA8
102
}
330
2
100
AcDbSymbolTableRecord
100
AcDbLayerTableRecord
  2
躯体と製品
 70
     0
 62
     7
  6
Continuous
370
    -3
390
F
  0
LAYER
  5
4BDA9
102
{ACAD_XDICTIONARY
360
4BDAA
102
}
330
2
100
AcDbSymbolTableRecord
100
AcDbLayerTableRecord
  2
文字-記号
 70
     0
 62
     7
  6
Continuous
370
    -3
390
F
  0
LAYER
  5
4BDAB
102
{ACAD_XDICTIONARY
360
525A1
102
}
330
2
100
AcDbSymbolTableRecord
100
AcDbLayerTableRecord
  2
中心線
 70
     0
 62
     7
  6
Continuous
370
    -3
390
F
1001
AcAecLayerStandard
1000

1000

1001
AcCmTransparency
1071
        0
  0
ENDTAB
  0
TABLE
  2
STYLE
  5
3
330
0
100
AcDbSymbolTable
 70
     2
  0
STYLE
  5
11
330
3
100
AcDbSymbolTableRecord
100
AcDbTextStyleTableRecord
  2
Standard
 70
     0
 40
0.0
 41
0.8
 50
0.0
 71
     0
 42
2.5
  3
txt.shx
  4
extfont.shx
  0
STYLE
  5
4BDAD
330
3
100
AcDbSymbolTableRecord
100
AcDbTextStyleTableRecord
  2
ACAD
 70
     0
 40
9.0
 41
0.8
 50
0.0
 71
     0
 42
5.0
  3
romans.shx
  4
extfont.shx
  0
ENDTAB
  0
TABLE
  2
VIEW
  5
6
330
0
100
AcDbSymbolTable
 70
     0
  0
ENDTAB
  0
TABLE
  2
UCS
  5
7
330
0
100
AcDbSymbolTable
 70
     0
  0
ENDTAB
  0
TABLE
  2
APPID
  5
9
330
0
100
AcDbSymbolTable
 70
    23
  0
APPID
  5
12
330
9
100
AcDbSymbolTableRecord
100
AcDbRegAppTableRecord
  2
ACAD
 70
     0
  0
APPID
  5
22729
330
9
100
AcDbSymbolTableRecord
100
AcDbRegAppTableRecord
  2
DCO15
 70
     0
  0
APPID
  5
2276D
330
9
100
AcDbSymbolTableRecord
100
AcDbRegAppTableRecord
  2
ACAD_MLEADERVER
 70
     0
  0
APPID
  5
22776
330
9
100
AcDbSymbolTableRecord
100
AcDbRegAppTableRecord
  2
AcAecLayerStandard
 70
     0
  0
APPID
  5
227C1
330
9
100
AcDbSymbolTableRecord
100
AcDbRegAppTableRecord
  2
ACAD_DSTYLE_DIMJAG
 70
     0
  0
APPID
  5
227C2
330
9
100
AcDbSymbolTableRecord
100
AcDbRegAppTableRecord
  2
ACAD_DSTYLE_DIMTALN
 70
     0
  0
APPID
  5
22821
330
9
100
AcDbSymbolTableRecord
100
AcDbRegAppTableRecord
  2
ACAD_PSEXT
 70
     0
  0
APPID
  5
2282A
330
9
100
AcDbSymbolTableRecord
100
AcDbRegAppTableRecord
  2
ACAD_EXEMPT_FROM_CAD_STANDARDS
 70
     0
  0
APPID
  5
229A9
330
9
100
AcDbSymbolTableRecord
100
AcDbRegAppTableRecord
  2
AcadAnnoPO
 70
     0
  0
APPID
  5
23673
330
9
100
AcDbSymbolTableRecord
100
AcDbRegAppTableRecord
  2
ACAD_DSTYLE_DIMTEXT_FILL
 70
     0
  0
APPID
  5
23674
330
9
100
AcDbSymbolTableRecord
100
AcDbRegAppTableRecord
  2
ACAD_DSTYLE_DIMBREAK
 70
     0
  0
APPID
  5
25752
330
9
100
AcDbSymbolTableRecord
100
AcDbRegAppTableRecord
  2
AcLayerTools
 70
     0
  0
APPID
  5
262DB
330
9
100
AcDbSymbolTableRecord
100
AcDbRegAppTableRecord
  2
ACAUTHENVIRON
 70
     0
  0
APPID
  5
27EF5
330
9
100
AcDbSymbolTableRecord
100
AcDbRegAppTableRecord
  2
AcDbDynamicBlockTrueName
 70
     0
  0
APPID
  5
27EF6
330
9
100
AcDbSymbolTableRecord
100
AcDbRegAppTableRecord
  2
AcDbDynamicBlockGUID
 70
     0
  0
APPID
  5
30E17
330
9
100
AcDbSymbolTableRecord
100
AcDbRegAppTableRecord
  2
AcadAnnoAV
 70
     0
  0
APPID
  5
47910
330
9
100
AcDbSymbolTableRecord
100
AcDbRegAppTableRecord
  2
ACAD_DSTYLE_DIMJOGGED_JOGANGLE_SYMBOL
 70
     0
  0
APPID
  5
47911
330
9
100
AcDbSymbolTableRecord
100
AcDbRegAppTableRecord
  2
AcDbBlockRepETag
 70
     0
  0
APPID
  5
4A789
330
9
100
AcDbSymbolTableRecord
100
AcDbRegAppTableRecord
  2
AcadAnnotative
 70
     0
  0
APPID
  5
4A78A
330
9
100
AcDbSymbolTableRecord
100
AcDbRegAppTableRecord
  2
AcCmTransparency
 70
     0
  0
APPID
  5
4BCBF
330
9
100
AcDbSymbolTableRecord
100
AcDbRegAppTableRecord
  2
ACAD_NAV_VCDISPLAY
 70
     0
  0
APPID
  5
4BDAF
330
9
100
AcDbSymbolTableRecord
100
AcDbRegAppTableRecord
  2
GradientColor1ACI
 70
     0
  0
APPID
  5
4BDB0
330
9
100
AcDbSymbolTableRecord
100
AcDbRegAppTableRecord
  2
GradientColor2ACI
 70
     0
  0
ENDTAB
  0
TABLE
  2
DIMSTYLE
  5
A
330
0
100
AcDbSymbolTable
 70
     2
100
AcDbDimStyleTable
 71
     2
340
4BDAE
340
3B
  0
DIMSTYLE
105
3B
330
A
100
AcDbSymbolTableRecord
100
AcDbDimStyleTableRecord
  2
Standard
 70
     0
178
   256
277
     6
340
11
1001
ACAD_DSTYLE_DIMJAG
1070
   388
1040
1.5
1001
ACAD_DSTYLE_DIMTALN
1070
   392
1070
     0
1001
ACAD_DSTYLE_DIMTEXT_FILL
1070
   376
1070
     1
1070
   377
1004
1800000001000000000000C1000000000000000000000000
  0
DIMSTYLE
105
4BDAE
102
{ACAD_REACTORS
330
517CC
102
}
330
A
100
AcDbSymbolTableRecord
100
AcDbDimStyleTableRecord
  2
AutoCAD
 70
     0
 41
4.5
 42
0.0
 44
0.0
 73
     0
 77
     1
140
9.0
147
3.0
174
     1
176
     4
177
     4
178
     3
271
     0
272
     0
289
     0
340
4BDAD
341
4BCC4
342
527A3
1001
ACAD_DSTYLE_DIMJAG
1070
   388
1040
1.5
1001
ACAD_DSTYLE_DIMTALN
1070
   392
1070
     0
  0
ENDTAB
  0
TABLE
  2
BLOCK_RECORD
  5
1
330
0
100
AcDbSymbolTable
 70
     3
  0
BLOCK_RECORD
  5
1F
102
{ACAD_XDICTIONARY
360
3662
102
}
330
1
100
AcDbSymbolTableRecord
100
AcDbBlockTableRecord
  2
*Model_Space
340
22
  0
BLOCK_RECORD
  5
525BA
330
1
100
AcDbSymbolTableRecord
100
AcDbBlockTableRecord
  2
*Paper_Space
340
525BB
  0
BLOCK_RECORD
  5
4BCC4
330
1
100
AcDbSymbolTableRecord
100
AcDbBlockTableRecord
  2
_None
340
0
  0
BLOCK_RECORD
  5
521D9
330
1
100
AcDbSymbolTableRecord
100
AcDbBlockTableRecord
  2
*D1
340
0
  0
BLOCK_RECORD
  5
527A3
330
1
100
AcDbSymbolTableRecord
100
AcDbBlockTableRecord
  2
_Small
340
0
102
{BLKREFS
331
52915
331
52916
102
}
  0
ENDTAB
  0
ENDSEC
  0
SECTION
  2
BLOCKS
  0
BLOCK
  5
20
330
1F
100
AcDbEntity
  8
0
100
AcDbBlockBegin
  2
*Model_Space
 70
     0
 10
0.0
 20
0.0
 30
0.0
  3
*Model_Space
  1

  0
ENDBLK
  5
21
330
1F
100
AcDbEntity
  8
0
100
AcDbBlockEnd
  0
BLOCK
  5
525BC
330
525BA
100
AcDbEntity
 67
     1
  8
0
100
AcDbBlockBegin
  2
*Paper_Space
 70
     0
 10
0.0
 20
0.0
 30
0.0
  3
*Paper_Space
  1

  0
ENDBLK
  5
525BD
330
525BA
100
AcDbEntity
 67
     1
  8
0
100
AcDbBlockEnd
  0
BLOCK
  5
4BCC5
330
4BCC4
100
AcDbEntity
  8
0
100
AcDbBlockBegin
  2
_None
 70
     0
 10
0.0
 20
0.0
 30
0.0
  3
_None
  1

  0
ENDBLK
  5
4BCC6
330
4BCC4
100
AcDbEntity
  8
0
100
AcDbBlockEnd
  0
BLOCK
  5
521DA
330
521D9
100
AcDbEntity
  8
0
100
AcDbBlockBegin
  2
*D1
 70
     1
 10
0.0
 20
0.0
 30
0.0
  3
*D1
  1

  0
LINE
  5
52912
330
521D9
100
AcDbEntity
  8
寸法
  6
Continuous
 62
     4
440
 16777216
370
    -2
100
AcDbLine
 10
179.1539889446103
 20
2005.9964939086
 30
0.0
 11
218.38586994461
 21
2005.9964939086
 31
0.0
  0
LINE
  5
52913
330
521D9
100
AcDbEntity
  8
寸法
  6
Continuous
 62
     4
440
 16777216
370
    -2
100
AcDbLine
 10
179.1539889446103
 20
2143.9964939086
 30
0.0
 11
218.38586994461
 21
2143.9964939086
 31
0.0
  0
LINE
  5
52914
330
521D9
100
AcDbEntity
  8
寸法
  6
Continuous
 62
     4
440
 16777216
370
    -2
100
AcDbLine
 10
218.38586994461
 20
2005.9964939086
 30
0.0
 11
218.38586994461
 21
2143.9964939086
 31
0.0
  0
INSERT
  5
52915
330
521D9
100
AcDbEntity
  8
寸法
  6
Continuous
 62
     4
440
 16777216
370
    -2
100
AcDbBlockReference
  2
_Small
 10
218.38586994461
 20
2005.9964939086
 30
0.0
 41
4.5
 42
4.5
 43
4.5
 50
270.0
  0
INSERT
  5
52916
330
521D9
100
AcDbEntity
  8
寸法
  6
Continuous
 62
     4
440
 16777216
370
    -2
100
AcDbBlockReference
  2
_Small
 10
218.38586994461
 20
2143.9964939086
 30
0.0
 41
4.5
 42
4.5
 43
4.5
 50
90.0
  0
MTEXT
  5
52917
330
521D9
100
AcDbEntity
  8
寸法
  6
Continuous
 62
     3
440
 16777216
100
AcDbMText
 10
210.8858699446097
 20
2074.9964939086
 30
0.0
 40
9.0
 41
0.0
 71
     5
 72
     1
  1
\A1;h
  7
ACAD
 11
0.0000000000000001
 21
1.0
 31
0.0
 73
     1
 44
1.0
  0
POINT
  5
52918
330
521D9
100
AcDbEntity
  8
Defpoints
  6
Continuous
 62
     0
440
 16777216
100
AcDbPoint
 10
179.1539889446103
 20
2005.9964939086
 30
0.0
  0
POINT
  5
52919
330
521D9
100
AcDbEntity
  8
Defpoints
  6
Continuous
 62
     0
440
 16777216
100
AcDbPoint
 10
179.1539889446103
 20
2143.9964939086
 30
0.0
  0
POINT
  5
5291A
330
521D9
100
AcDbEntity
  8
Defpoints
  6
Continuous
 62
     0
440
 16777216
100
AcDbPoint
 10
218.38586994461
 20
2143.9964939086
 30
0.0
  0
ENDBLK
  5
521DB
330
521D9
100
AcDbEntity
  8
0
100
AcDbBlockEnd
  0
BLOCK
  5
527A5
330
527A3
100
AcDbEntity
  8
0
100
AcDbBlockBegin
  2
_Small
 70
     0
 10
0.0
 20
0.0
 30
0.0
  3
_Small
  1

  0
CIRCLE
  5
527A4
330
527A3
100
AcDbEntity
  8
0
  6
ByBlock
 62
     0
370
    -2
100
AcDbCircle
 10
0.0
 20
0.0
 30
0.0
 40
0.25
  0
ENDBLK
  5
527A6
330
527A3
100
AcDbEntity
  8
0
100
AcDbBlockEnd
  0
ENDSEC
  0
SECTION
  2
ENTITIES
  0
LINE
  5
513E6
330
1F
100
AcDbEntity
  8
躯体と製品
  6
Continuous
 62
     3
100
AcDbLine
 10
-427.9242626070408
 20
2137.9964939086
 30
0.0
 11
-429.9242626070408
 21
2137.9964939086
 31
0.0
  0
LINE
  5
513E7
330
1F
100
AcDbEntity
  8
躯体と製品
  6
Continuous
 62
     3
100
AcDbLine
 10
-429.9242626070408
 20
2137.9964939086
 30
0.0
 11
-429.9242626070408
 21
2135.996493908599
 31
0.0
  0
LINE
  5
513E8
330
1F
100
AcDbEntity
  8
躯体と製品
  6
Continuous
 62
     3
100
AcDbLine
 10
-429.9242626070408
 20
2135.996493908599
 30
0.0
 11
-427.9242626070408
 21
2135.996493908599
 31
0.0
  0
LINE
  5
513E9
330
1F
100
AcDbEntity
  8
躯体と製品
  6
Continuous
 62
     3
100
AcDbLine
 10
-400.6914536070325
 20
2051.468393908604
 30
0.0
 11
-380.6914536070326
 21
2071.468393908604
 31
0.0
  0
LINE
  5
513EA
330
1F
100
AcDbEntity
  8
躯体と製品
  6
Continuous
 62
     3
100
AcDbLine
 10
-416.5168956070337
 20
2065.341436908603
 30
0.0
 11
-402.1995576070403
 21
2079.658773908589
 31
0.0
  0
LINE
  5
513EB
330
1F
100
AcDbEntity
  8
躯体と製品
  6
Continuous
 62
     3
100
AcDbLine
 10
-425.3542626070339
 20
2086.202553908596
 30
0.0
 11
-405.3542626070338
 21
2106.202553908596
 31
0.0
  0
LINE
  5
513EC
330
1F
100
AcDbEntity
  8
躯体と製品
  6
Continuous
 62
     3
100
AcDbLine
 10
-407.2588086070391
 20
2133.9964939086
 30
0.0
 11
-421.3542626070339
 21
2119.901038908597
 31
0.0
  0
LINE
  5
513ED
330
1F
100
AcDbEntity
  8
躯体と製品
  6
Continuous
 62
     3
100
AcDbLine
 10
-370.3542626070339
 20
2052.107099908601
 30
0.0
 11
-350.3542626070339
 21
2072.107099908601
 31
0.0
  0
CIRCLE
  5
513EE
330
1F
100
AcDbEntity
  8
躯体と製品
  6
Continuous
 62
     3
100
AcDbCircle
 10
-430.2819736070595
 20
2104.476648908597
 30
0.0
 40
0.9999999999999998
  0
CIRCLE
  5
513EF
330
1F
100
AcDbEntity
  8
躯体と製品
  6
Continuous
 62
     3
100
AcDbCircle
 10
-431.2139276070301
 20
2116.856530908605
 30
0.0
 40
0.5
  0
LINE
  5
513F0
330
1F
100
AcDbEntity
  8
躯体と製品
  6
Continuous
 62
     3
100
AcDbLine
 10
-532.9155446070144
 20
2068.996493908599
 30
0.0
 11
-537.4242626070408
 21
2064.487774908595
 31
0.0
  0
LINE
  5
513F1
330
1F
100
AcDbEntity
  8
躯体と製品
  6
Continuous
 62
     3
100
AcDbLine
 10
-537.1581846070257
 20
2068.996493908599
 30
0.0
 11
-537.4242626070408
 21
2068.730415908599
 31
0.0
  0
LINE
  5
513F2
330
1F
100
AcDbEntity
  8
躯体と製品
  6
Continuous
 62
     3
100
AcDbLine
 10
-537.4242626070408
 20
2051.753852908595
 30
0.0
 11
-524.4242626070408
 21
2064.753852908595
 31
0.0
  0
LINE
  5
513F3
330
1F
100
AcDbEntity
  8
躯体と製品
  6
Continuous
 62
     3
100
AcDbLine
 10
-537.4242626070408
 20
2047.511211908591
 30
0.0
 11
-524.4242626070408
 21
2060.511211908591
 31
0.0
  0
LINE
  5
513F4
330
1F
100
AcDbEntity
  8
躯体と製品
  6
Continuous
 62
     3
100
AcDbLine
 10
-537.4242626070408
 20
2043.268571908594
 30
0.0
 11
-524.4242626070408
 21
2056.268571908594
 31
0.0
  0
LINE
  5
513F5
330
1F
100
AcDbEntity
  8
躯体と製品
  6
Continuous
 62
     3
100
AcDbLine
 10
-536.2809216070236
 20
2040.169271908607
 30
0.0
 11
-524.4242626070408
 21
2052.02593090859
 31
0.0
  0
LINE
  5
513F6
330
1F
100
AcDbEntity
  8
躯体と製品
  6
Continuous
 62
     3
100
AcDbLine
 10
-531.652586607066
 20
2040.554966908597
 30
0.0
 11
-524.4242626070408
 21
2047.7832899086
 31
0.0
  0
LINE
  5
513F7
330
1F
100
AcDbEntity
  8
躯体と製品
  6
Continuous
 62
     3
100
AcDbLine
 10
-527.0242516070502
 20
2040.940660908594
 30
0.0
 11
-524.4242626070408
 21
2043.540648908595
 31
0.0
  0
LINE
  5
513F8
330
1F
100
AcDbEntity
  8
躯体と製品
  6
Continuous
 62
     3
100
AcDbLine
 10
-514.4242626070409
 20
2068.996493908599
 30
0.0
 11
-524.4242626070408
 21
2041.157326908601
 31
0.0
  0
LINE
  5
513F9
330
1F
100
AcDbEntity
  8
躯体と製品
  6
Continuous
 62
     3
100
AcDbLine
 10
-495.4242626070408
 20
2043.573993908599
 30
0.0
 11
-495.4242626070408
 21
2068.996493908599
 31
0.0
  0
LINE
  5
513FA
330
1F
100
AcDbEntity
  8
躯体と製品
  6
Continuous
 62
     3
100
AcDbLine
 10
-495.4242626070408
 20
2068.996493908599
 30
0.0
 11
-501.4242626070409
 21
2043.073993908599
 31
0.0
  0
LINE
  5
513FB
330
1F
100
AcDbEntity
  8
躯体と製品
  6
Continuous
 62
     3
100
AcDbLine
 10
-495.4242626070408
 20
2054.496493908599
 30
0.0
 11
-442.9242626070409
 21
2054.496493908599
 31
0.0
  0
LINE
  5
513FC
330
1F
100
AcDbEntity
  8
躯体と製品
  6
Continuous
 62
     3
100
AcDbLine
 10
-442.9242626070409
 20
2094.4964939086
 30
0.0
 11
-442.9242626070409
 21
2054.496493908599
 31
0.0
  0
CIRCLE
  5
513FD
330
1F
100
AcDbEntity
  8
躯体と製品
  6
Continuous
 62
     3
100
AcDbCircle
 10
-436.8472696070457
 20
2081.820484908597
 30
0.0
 40
0.5
  0
CIRCLE
  5
513FE
330
1F
100
AcDbEntity
  8
躯体と製品
  6
Continuous
 62
     3
100
AcDbCircle
 10
-434.2024336069953
 20
2107.891013908601
 30
0.0
 40
0.5
  0
CIRCLE
  5
513FF
330
1F
100
AcDbEntity
  8
躯体と製品
  6
Continuous
 62
     3
100
AcDbCircle
 10
-431.5575966070537
 20
2061.039627908606
 30
0.0
 40
0.5
  0
CIRCLE
  5
51400
330
1F
100
AcDbEntity
  8
躯体と製品
  6
Continuous
 62
     3
100
AcDbCircle
 10
-418.787720607048
 20
2055.741016908601
 30
0.0
 40
0.5
  0
CIRCLE
  5
51401
330
1F
100
AcDbEntity
  8
躯体と製品
  6
Continuous
 62
     3
100
AcDbCircle
 10
-482.2359966070289
 20
2048.614579908602
 30
0.0
 40
0.5
  0
CIRCLE
  5
51402
330
1F
100
AcDbEntity
  8
躯体と製品
  6
Continuous
 62
     3
100
AcDbCircle
 10
-468.9026636070121
 20
2051.832970908604
 30
0.0
 40
0.5
  0
CIRCLE
  5
51403
330
1F
100
AcDbEntity
  8
躯体と製品
  6
Continuous
 62
     3
100
AcDbCircle
 10
-436.258985607048
 20
2053.442165908601
 30
0.0
 40
0.5
  0
CIRCLE
  5
51404
330
1F
100
AcDbEntity
  8
躯体と製品
  6
Continuous
 62
     3
100
AcDbCircle
 10
-430.0520886070225
 20
2091.832970908604
 30
0.0
 40
0.5
  0
CIRCLE
  5
51405
330
1F
100
AcDbEntity
  8
躯体と製品
  6
Continuous
 62
     3
100
AcDbCircle
 10
-438.3279506070321
 20
2118.039866908592
 30
0.0
 40
0.9999999999999998
  0
CIRCLE
  5
51406
330
1F
100
AcDbEntity
  8
躯体と製品
  6
Continuous
 62
     3
100
AcDbCircle
 10
-435.3394446070669
 20
2092.9823959086
 30
0.0
 40
0.9999999999999998
  0
CIRCLE
  5
51407
330
1F
100
AcDbEntity
  8
躯体と製品
  6
Continuous
 62
     3
100
AcDbCircle
 10
-431.6612846070565
 20
2075.281245908606
 30
0.0
 40
0.9999999999999998
  0
CIRCLE
  5
51408
330
1F
100
AcDbEntity
  8
躯体と製品
  6
Continuous
 62
     3
100
AcDbCircle
 10
-435.3394446070669
 20
2066.545613908596
 30
0.0
 40
0.9999999999999998
  0
CIRCLE
  5
51409
330
1F
100
AcDbEntity
  8
躯体と製品
  6
Continuous
 62
     3
100
AcDbCircle
 10
-425.2245026070522
 20
2055.970901908594
 30
0.0
 40
0.9999999999999998
  0
CIRCLE
  5
5140A
330
1F
100
AcDbEntity
  8
躯体と製品
  6
Continuous
 62
     3
100
AcDbCircle
 10
-420.1670316070448
 20
2064.476648908597
 30
0.0
 40
0.9999999999999998
  0
CIRCLE
  5
5140B
330
1F
100
AcDbEntity
  8
躯体と製品
  6
Continuous
 62
     3
100
AcDbCircle
 10
-451.4313996070195
 20
2050.6835449086
 30
0.0
 40
0.9999999999999998
  0
CIRCLE
  5
5140C
330
1F
100
AcDbEntity
  8
躯体と製品
  6
Continuous
 62
     3
100
AcDbCircle
 10
-472.58082460703
 20
2048.844464908595
 30
0.0
 40
0.9999999999999998
  0
CIRCLE
  5
5140D
330
1F
100
AcDbEntity
  8
躯体と製品
  6
Continuous
 62
     3
100
AcDbCircle
 10
-488.902663607012
 20
2051.603085908596
 30
0.0
 40
0.9999999999999998
  0
CIRCLE
  5
5140E
330
1F
100
AcDbEntity
  8
躯体と製品
  6
Continuous
 62
     3
100
AcDbCircle
 10
-490.9716286070542
 20
2047.005383908597
 30
0.0
 40
0.9999999999999998
  0
LINE
  5
5140F
330
1F
100
AcDbEntity
  8
躯体と製品
  6
Continuous
 62
     3
100
AcDbLine
 10
-545.4242626070408
 20
2255.996493908599
 30
0.0
 11
-545.4242626070408
 21
2083.9964939086
 31
0.0
  0
LINE
  5
51410
330
1F
100
AcDbEntity
  8
躯体と製品
  6
Continuous
 62
     3
100
AcDbLine
 10
-543.4242626070409
 20
2255.996493908599
 30
0.0
 11
-543.4242626070409
 21
2083.9964939086
 31
0.0
  0
LINE
  5
51411
330
1F
100
AcDbEntity
  8
躯体と製品
  6
Continuous
 62
     3
100
AcDbLine
 10
-473.9242626070408
 20
2255.996493908599
 30
0.0
 11
-473.9242626070408
 21
2153.9964939086
 31
0.0
  0
LINE
  5
51412
330
1F
100
AcDbEntity
  8
躯体と製品
  6
Continuous
 62
     3
100
AcDbLine
 10
-533.4242626070408
 20
2077.996493908599
 30
0.0
 11
-506.2937986069955
 21
2080.643367908598
 31
0.0
  0
LINE
  5
51413
330
1F
100
AcDbEntity
  8
躯体と製品
  6
Continuous
 62
     3
100
AcDbLine
 10
-471.9242626070409
 20
2083.9964939086
 30
0.0
 11
-502.2937986069955
 21
2081.033611908607
 31
0.0
  0
LINE
  5
51414
330
1F
100
AcDbEntity
  8
躯体と製品
  6
Continuous
 62
     3
100
AcDbLine
 10
-490.4242626070408
 20
2080.182119908591
 30
0.0
 11
-469.9242626070408
 21
2082.182119908591
 31
0.0
  0
LINE
  5
51415
330
1F
100
AcDbEntity
  8
躯体と製品
  6
Continuous
 62
     3
100
AcDbLine
 10
-492.4242626070408
 20
2079.986997908601
 30
0.0
 11
-531.4242626070408
 21
2076.182119908591
 31
0.0
  0
LINE
  5
51416
330
1F
100
AcDbEntity
  8
躯体と製品
  6
Continuous
 62
     3
100
AcDbLine
 10
-531.4242626070408
 20
2070.9964939086
 30
0.0
 11
-531.4242626070408
 21
2076.182119908591
 31
0.0
  0
LINE
  5
51417
330
1F
100
AcDbEntity
  8
躯体と製品
  6
Continuous
 62
     3
100
AcDbLine
 10
-502.2937986069955
 20
2081.033611908607
 30
0.0
 11
-502.2937986069955
 21
2094.338489908603
 31
0.0
  0
ARC
  5
51418
330
1F
100
AcDbEntity
  8
躯体と製品
  6
Continuous
 62
     3
100
AcDbCircle
 10
-503.7937986069955
 20
2094.338489908603
 30
0.0
 40
1.5
100
AcDbArc
 50
0.0
 51
90.0
  0
ARC
  5
51419
330
1F
100
AcDbEntity
  8
躯体と製品
  6
Continuous
 62
     3
100
AcDbCircle
 10
-504.7937986069955
 20
2094.338489908603
 30
0.0
 40
1.5
100
AcDbArc
 50
90.0
 51
180.0
  0
LINE
  5
5141A
330
1F
100
AcDbEntity
  8
躯体と製品
  6
Continuous
 62
     3
100
AcDbLine
 10
-503.7937986069955
 20
2095.838489908603
 30
0.0
 11
-504.7937986069955
 21
2095.838489908603
 31
0.0
  0
LINE
  5
5141B
330
1F
100
AcDbEntity
  8
躯体と製品
  6
Continuous
 62
     3
100
AcDbLine
 10
-506.2937986069955
 20
2094.338489908603
 30
0.0
 11
-506.2937986069955
 21
2080.643367908598
 31
0.0
  0
LINE
  5
5141C
330
1F
100
AcDbEntity
  8
躯体と製品
  6
Continuous
 62
     3
100
AcDbLine
 10
-421.3542626070339
 20
2119.901038908597
 30
0.0
 11
-405.3542626070338
 21
2103.901038908597
 31
0.0
  0
LINE
  5
5141D
330
1F
100
AcDbEntity
  8
躯体と製品
  6
Continuous
 62
     3
100
AcDbLine
 10
-350.3542626070339
 20
2048.901038908597
 30
0.0
 11
-373.5192976070466
 21
2072.066073908596
 31
0.0
  0
LINE
  5
5141E
330
1F
100
AcDbEntity
  8
躯体と製品
  6
Continuous
 62
     3
100
AcDbLine
 10
-405.7512326070354
 20
2133.9964939086
 30
0.0
 11
-405.3542626070338
 21
2133.599523908598
 31
0.0
  0
LINE
  5
5141F
330
1F
100
AcDbEntity
  8
躯体と製品
  6
Continuous
 62
     3
100
AcDbLine
 10
-425.3542626070339
 20
2094.202553908596
 30
0.0
 11
-384.010207222419
 21
2052.858498523983
 31
0.0
  0
LINE
  5
51420
330
1F
100
AcDbEntity
  8
躯体と製品
  6
Continuous
 62
     3
100
AcDbLine
 10
-370.3542626070339
 20
2039.202553908597
 30
0.0
 11
-350.3542626070339
 21
2019.202553908598
 31
0.0
  0
LINE
  5
51421
330
1F
100
AcDbEntity
  8
躯体と製品
  6
Continuous
 62
     3
100
AcDbLine
 10
-537.4242626070408
 20
2040.073993908599
 30
0.0
 11
-537.4242626070408
 21
2068.996493908599
 31
0.0
  0
LINE
  5
51422
330
1F
100
AcDbEntity
  8
躯体と製品
  6
Continuous
 62
     3
100
AcDbLine
 10
-524.4242626070408
 20
2068.996493908599
 30
0.0
 11
-524.4242626070408
 21
2041.157326908601
 31
0.0
  0
LINE
  5
51423
330
1F
100
AcDbEntity
  8
躯体と製品
  6
Continuous
 62
     3
100
AcDbLine
 10
-514.4242626070409
 20
2068.996493908599
 30
0.0
 11
-514.4242626070409
 21
2041.990659908589
 31
0.0
  0
LINE
  5
51424
330
1F
100
AcDbEntity
  8
躯体と製品
  6
Continuous
 62
     3
100
AcDbLine
 10
-501.4242626070409
 20
2043.073993908599
 30
0.0
 11
-501.4242626070409
 21
2068.996493908599
 31
0.0
  0
LINE
  5
51425
330
1F
100
AcDbEntity
  8
躯体と製品
  6
Continuous
 62
     3
100
AcDbLine
 10
-524.4242626070408
 20
2064.753852908595
 30
0.0
 11
-528.6669036070016
 21
2068.996493908599
 31
0.0
  0
LINE
  5
51426
330
1F
100
AcDbEntity
  8
躯体と製品
  6
Continuous
 62
     3
100
AcDbLine
 10
-524.4242626070408
 20
2060.511211908591
 30
0.0
 11
-532.9095446070205
 21
2068.996493908599
 31
0.0
  0
LINE
  5
51427
330
1F
100
AcDbEntity
  8
躯体と製品
  6
Continuous
 62
     3
100
AcDbLine
 10
-524.4242626070408
 20
2056.268571908594
 30
0.0
 11
-537.1521846070318
 21
2068.996493908599
 31
0.0
  0
LINE
  5
51428
330
1F
100
AcDbEntity
  8
躯体と製品
  6
Continuous
 62
     3
100
AcDbLine
 10
-537.4242626070408
 20
2065.02593090859
 30
0.0
 11
-524.4242626070408
 21
2052.02593090859
 31
0.0
  0
LINE
  5
51429
330
1F
100
AcDbEntity
  8
躯体と製品
  6
Continuous
 62
     3
100
AcDbLine
 10
-537.4242626070408
 20
2060.7832899086
 30
0.0
 11
-524.4242626070408
 21
2047.7832899086
 31
0.0
  0
LINE
  5
5142A
330
1F
100
AcDbEntity
  8
躯体と製品
  6
Continuous
 62
     3
100
AcDbLine
 10
-537.4242626070408
 20
2056.540648908596
 30
0.0
 11
-524.4242626070408
 21
2043.540648908595
 31
0.0
  0
LINE
  5
5142B
330
1F
100
AcDbEntity
  8
躯体と製品
  6
Continuous
 62
     3
100
AcDbLine
 10
-537.4242626070408
 20
2052.298008908599
 30
0.0
 11
-526.1405566070243
 21
2041.014301908604
 31
0.0
  0
LINE
  5
5142C
330
1F
100
AcDbEntity
  8
躯体と製品
  6
Continuous
 62
     3
100
AcDbLine
 10
-537.4242626070408
 20
2048.055367908594
 30
0.0
 11
-530.0568406070015
 21
2040.687944908591
 31
0.0
  0
LINE
  5
5142D
330
1F
100
AcDbEntity
  8
躯体と製品
  6
Continuous
 62
     3
100
AcDbLine
 10
-537.4242626070408
 20
2043.81272690859
 30
0.0
 11
-533.9731236070292
 21
2040.3615889086
 31
0.0
  0
LINE
  5
5142E
330
1F
100
AcDbEntity
  8
躯体と製品
  6
Continuous
 62
     3
100
AcDbLine
 10
-514.4242626070409
 20
2068.990493908605
 30
0.0
 11
-501.4242626070409
 21
2055.990493908605
 31
0.0
  0
LINE
  5
5142F
330
1F
100
AcDbEntity
  8
躯体と製品
  6
Continuous
 62
     3
100
AcDbLine
 10
-501.4242626070409
 20
2060.233133908587
 30
0.0
 11
-510.1876226070235
 21
2068.996493908599
 31
0.0
  0
LINE
  5
51430
330
1F
100
AcDbEntity
  8
躯体と製品
  6
Continuous
 62
     3
100
AcDbLine
 10
-501.4242626070409
 20
2064.475774908606
 30
0.0
 11
-505.9449816070627
 21
2068.996493908599
 31
0.0
  0
LINE
  5
51431
330
1F
100
AcDbEntity
  8
躯体と製品
  6
Continuous
 62
     3
100
AcDbLine
 10
-501.4242626070409
 20
2068.718415908596
 30
0.0
 11
-501.7023406070438
 21
2068.996493908599
 31
0.0
  0
LINE
  5
51432
330
1F
100
AcDbEntity
  8
躯体と製品
  6
Continuous
 62
     3
100
AcDbLine
 10
-514.4242626070409
 20
2064.753852908595
 30
0.0
 11
-501.4242626070409
 21
2051.753852908595
 31
0.0
  0
LINE
  5
51433
330
1F
100
AcDbEntity
  8
躯体と製品
  6
Continuous
 62
     3
100
AcDbLine
 10
-514.4242626070409
 20
2060.511211908591
 30
0.0
 11
-501.4242626070409
 21
2047.511211908591
 31
0.0
  0
LINE
  5
51434
330
1F
100
AcDbEntity
  8
躯体と製品
  6
Continuous
 62
     3
100
AcDbLine
 10
-514.4242626070409
 20
2056.268571908594
 30
0.0
 11
-501.4242626070409
 21
2043.268571908594
 31
0.0
  0
LINE
  5
51435
330
1F
100
AcDbEntity
  8
躯体と製品
  6
Continuous
 62
     3
100
AcDbLine
 10
-514.4242626070409
 20
2052.02593090859
 30
0.0
 11
-505.1609366070261
 21
2042.762603908596
 31
0.0
  0
LINE
  5
51436
330
1F
100
AcDbEntity
  8
躯体と製品
  6
Continuous
 62
     3
100
AcDbLine
 10
-514.4242626070409
 20
2047.7832899086
 30
0.0
 11
-509.0772196069956
 21
2042.436246908598
 31
0.0
  0
LINE
  5
51437
330
1F
100
AcDbEntity
  8
躯体と製品
  6
Continuous
 62
     3
100
AcDbLine
 10
-514.4242626070409
 20
2043.540648908595
 30
0.0
 11
-512.9935036070309
 21
2042.1098899086
 31
0.0
  0
LINE
  5
51438
330
1F
100
AcDbEntity
  8
躯体と製品
  6
Continuous
 62
     3
100
AcDbLine
 10
-501.4302626070348
 20
2068.996493908599
 30
0.0
 11
-514.4242626070409
 21
2056.002493908593
 31
0.0
  0
LINE
  5
51439
330
1F
100
AcDbEntity
  8
躯体と製品
  6
Continuous
 62
     3
100
AcDbLine
 10
-505.6729036070537
 20
2068.996493908599
 30
0.0
 11
-514.4242626070409
 21
2060.245133908605
 31
0.0
  0
LINE
  5
5143A
330
1F
100
AcDbEntity
  8
躯体と製品
  6
Continuous
 62
     3
100
AcDbLine
 10
-509.9155446070144
 20
2068.996493908599
 30
0.0
 11
-514.4242626070409
 21
2064.487774908595
 31
0.0
  0
LINE
  5
5143B
330
1F
100
AcDbEntity
  8
躯体と製品
  6
Continuous
 62
     3
100
AcDbLine
 10
-514.1581846070257
 20
2068.996493908599
 30
0.0
 11
-514.4242626070409
 21
2068.730415908599
 31
0.0
  0
LINE
  5
5143C
330
1F
100
AcDbEntity
  8
躯体と製品
  6
Continuous
 62
     3
100
AcDbLine
 10
-514.4242626070409
 20
2051.753852908595
 30
0.0
 11
-501.4242626070409
 21
2064.753852908595
 31
0.0
  0
LINE
  5
5143D
330
1F
100
AcDbEntity
  8
躯体と製品
  6
Continuous
 62
     3
100
AcDbLine
 10
-514.4242626070409
 20
2047.511211908591
 30
0.0
 11
-501.4242626070409
 21
2060.511211908591
 31
0.0
  0
LINE
  5
5143E
330
1F
100
AcDbEntity
  8
躯体と製品
  6
Continuous
 62
     3
100
AcDbLine
 10
-514.4242626070409
 20
2043.268571908594
 30
0.0
 11
-501.4242626070409
 21
2056.268571908594
 31
0.0
  0
LINE
  5
5143F
330
1F
100
AcDbEntity
  8
躯体と製品
  6
Continuous
 62
     3
100
AcDbLine
 10
-511.1900126070613
 20
2042.260180908598
 30
0.0
 11
-501.4242626070409
 21
2052.02593090859
 31
0.0
  0
LINE
  5
51440
330
1F
100
AcDbEntity
  8
躯体と製品
  6
Continuous
 62
     3
100
AcDbLine
 10
-506.5616776070455
 20
2042.645875908603
 30
0.0
 11
-501.4242626070409
 21
2047.7832899086
 31
0.0
  0
LINE
  5
51441
330
1F
100
AcDbEntity
  8
躯体と製品
  6
Continuous
 62
     3
100
AcDbLine
 10
-501.9333416070221
 20
2043.031569908599
 30
0.0
 11
-501.4242626070409
 21
2043.540648908595
 31
0.0
  0
LINE
  5
51442
330
1F
100
AcDbEntity
  8
躯体と製品
  6
Continuous
 62
     3
100
AcDbLine
 10
-524.4302626070348
 20
2068.996493908599
 30
0.0
 11
-537.4242626070408
 21
2056.002493908593
 31
0.0
  0
LINE
  5
51443
330
1F
100
AcDbEntity
  8
躯体と製品
  6
Continuous
 62
     3
100
AcDbLine
 10
-528.6729036070537
 20
2068.996493908599
 30
0.0
 11
-537.4242626070408
 21
2060.245133908605
 31
0.0
  0
LINE
  5
51444
330
1F
100
AcDbEntity
  8
躯体と製品
  6
Continuous
 62
     3
100
AcDbLine
 10
-453.9242626070408
 20
2139.245133908605
 30
0.0
 11
-452.1729036070537
 21
2140.9964939086
 31
0.0
  0
LINE
  5
51445
330
1F
100
AcDbEntity
  8
躯体と製品
  6
Continuous
 62
     3
100
AcDbLine
 10
-448.6816226070295
 20
2135.996493908599
 30
0.0
 11
-447.9242626070409
 21
2136.753852908595
 31
0.0
  0
LINE
  5
51446
330
1F
100
AcDbEntity
  8
躯体と製品
  6
Continuous
 62
     3
100
AcDbLine
 10
-453.9242626070408
 20
2140.990493908605
 30
0.0
 11
-448.9302626070347
 21
2135.996493908599
 31
0.0
  0
LINE
  5
51447
330
1F
100
AcDbEntity
  8
躯体と製品
  6
Continuous
 62
     3
100
AcDbLine
 10
-447.9242626070409
 20
2139.233133908588
 30
0.0
 11
-449.6876226070234
 21
2140.9964939086
 31
0.0
  0
LINE
  5
51448
330
1F
100
AcDbEntity
  8
躯体と製品
  6
Continuous
 62
     3
100
AcDbLine
 10
-453.9242626070408
 20
2136.753852908595
 30
0.0
 11
-453.1669036070016
 21
2135.996493908599
 31
0.0
  0
LINE
  5
51449
330
1F
100
AcDbEntity
  8
躯体と製品
  6
Continuous
 62
     3
100
AcDbLine
 10
-427.9242626070408
 20
2126.4964939086
 30
0.0
 11
-448.9242626070408
 21
2126.4964939086
 31
0.0
  0
LINE
  5
5144A
330
1F
100
AcDbEntity
  8
躯体と製品
  6
Continuous
 62
     3
100
AcDbLine
 10
-456.9242626070408
 20
2126.4964939086
 30
0.0
 11
-466.9242626070408
 21
2126.4964939086
 31
0.0
  0
LINE
  5
5144B
330
1F
100
AcDbEntity
  8
躯体と製品
  6
Continuous
 62
     3
100
AcDbLine
 10
-465.9242626070408
 20
2126.4964939086
 30
0.0
 11
-465.9242626070408
 21
2135.996493908599
 31
0.0
  0
LINE
  5
5144C
330
1F
100
AcDbEntity
  8
躯体と製品
  6
Continuous
 62
     3
100
AcDbLine
 10
-465.9242626070408
 20
2135.996493908599
 30
0.0
 11
-430.9242626070409
 21
2135.996493908599
 31
0.0
  0
LINE
  5
5144D
330
1F
100
AcDbEntity
  8
躯体と製品
  6
Continuous
 62
     3
100
AcDbLine
 10
-430.9242626070409
 20
2135.996493908599
 30
0.0
 11
-430.9242626070409
 21
2126.4964939086
 31
0.0
  0
LINE
  5
5144E
330
1F
100
AcDbEntity
  8
躯体と製品
  6
Continuous
 62
     3
100
AcDbLine
 10
-430.9242626070409
 20
2135.996493908599
 30
0.0
 11
-465.9242626070408
 21
2126.4964939086
 31
0.0
  0
LINE
  5
5144F
330
1F
100
AcDbEntity
  8
躯体と製品
  6
Continuous
 62
     3
100
AcDbLine
 10
-466.9242626070408
 20
2128.496493908599
 30
0.0
 11
-471.9242626070409
 21
2128.496493908599
 31
0.0
  0
LINE
  5
51450
330
1F
100
AcDbEntity
  8
躯体と製品
  6
Continuous
 62
     3
100
AcDbLine
 10
-468.9242626070408
 20
2124.496493908599
 30
0.0
 11
-471.9242626070409
 21
2124.496493908599
 31
0.0
  0
LINE
  5
51451
330
1F
100
AcDbEntity
  8
躯体と製品
  6
Continuous
 62
     3
100
AcDbLine
 10
-471.9242626070409
 20
2124.496493908599
 30
0.0
 11
-471.9242626070409
 21
2115.9964939086
 31
0.0
  0
LINE
  5
51452
330
1F
100
AcDbEntity
  8
躯体と製品
  6
Continuous
 62
     3
100
AcDbLine
 10
-470.9242626070408
 20
2124.496493908599
 30
0.0
 11
-470.9242626070408
 21
2122.496493908599
 31
0.0
  0
LINE
  5
51453
330
1F
100
AcDbEntity
  8
躯体と製品
  6
Continuous
 62
     3
100
AcDbLine
 10
-470.9242626070408
 20
2122.496493908599
 30
0.0
 11
-466.9242626070408
 21
2122.496493908599
 31
0.0
  0
LINE
  5
51454
330
1F
100
AcDbEntity
  8
躯体と製品
  6
Continuous
 62
     3
100
AcDbLine
 10
-466.9242626070408
 20
2122.496493908599
 30
0.0
 11
-466.9242626070408
 21
2124.496493908599
 31
0.0
  0
LINE
  5
51455
330
1F
100
AcDbEntity
  8
躯体と製品
  6
Continuous
 62
     3
100
AcDbLine
 10
-466.9242626070408
 20
2128.496493908599
 30
0.0
 11
-466.9242626070408
 21
2126.4964939086
 31
0.0
  0
LINE
  5
51456
330
1F
100
AcDbEntity
  8
躯体と製品
  6
Continuous
 62
     3
100
AcDbLine
 10
-456.9242626070408
 20
2126.4964939086
 30
0.0
 11
-456.9242626070408
 21
2124.496493908599
 31
0.0
  0
LINE
  5
51457
330
1F
100
AcDbEntity
  8
躯体と製品
  6
Continuous
 62
     3
100
AcDbLine
 10
-427.9242626070408
 20
2124.496493908599
 30
0.0
 11
-440.9242626070408
 21
2124.496493908599
 31
0.0
  0
LINE
  5
51458
330
1F
100
AcDbEntity
  8
躯体と製品
  6
Continuous
 62
     3
100
AcDbLine
 10
-442.9242626070409
 20
2124.496493908599
 30
0.0
 11
-456.9242626070408
 21
2124.496493908599
 31
0.0
  0
LINE
  5
51459
330
1F
100
AcDbEntity
  8
躯体と製品
  6
Continuous
 62
     3
100
AcDbLine
 10
-446.9242626070409
 20
2124.496493908599
 30
0.0
 11
-446.9242626070409
 21
2122.496493908599
 31
0.0
  0
LINE
  5
5145A
330
1F
100
AcDbEntity
  8
躯体と製品
  6
Continuous
 62
     3
100
AcDbLine
 10
-446.9242626070409
 20
2122.496493908599
 30
0.0
 11
-458.9242626070408
 21
2122.496493908599
 31
0.0
  0
LINE
  5
5145B
330
1F
100
AcDbEntity
  8
躯体と製品
  6
Continuous
 62
     3
100
AcDbLine
 10
-458.9242626070408
 20
2122.496493908599
 30
0.0
 11
-458.9242626070408
 21
2124.496493908599
 31
0.0
  0
LINE
  5
5145C
330
1F
100
AcDbEntity
  8
躯体と製品
  6
Continuous
 62
     3
100
AcDbLine
 10
-458.9242626070408
 20
2124.496493908599
 30
0.0
 11
-466.9242626070408
 21
2124.496493908599
 31
0.0
  0
LINE
  5
5145D
330
1F
100
AcDbEntity
  8
躯体と製品
  6
Continuous
 62
     3
100
AcDbLine
 10
-468.9242626070408
 20
2124.496493908599
 30
0.0
 11
-468.9242626070408
 21
2126.4964939086
 31
0.0
  0
LINE
  5
5145E
330
1F
100
AcDbEntity
  8
躯体と製品
  6
Continuous
 62
     3
100
AcDbLine
 10
-448.9242626070408
 20
2126.4964939086
 30
0.0
 11
-448.9242626070408
 21
2124.496493908599
 31
0.0
  0
LINE
  5
5145F
330
1F
100
AcDbEntity
  8
躯体と製品
  6
Continuous
 62
     3
100
AcDbLine
 10
-473.9242626070408
 20
2113.9964939086
 30
0.0
 11
-471.9242626070409
 21
2113.9964939086
 31
0.0
  0
LINE
  5
51460
330
1F
100
AcDbEntity
  8
躯体と製品
  6
Continuous
 62
     3
100
AcDbLine
 10
-471.9242626070409
 20
2113.9964939086
 30
0.0
 11
-471.9242626070409
 21
2083.9964939086
 31
0.0
  0
LINE
  5
51461
330
1F
100
AcDbEntity
  8
躯体と製品
  6
Continuous
 62
     3
100
AcDbLine
 10
-469.9242626070408
 20
2113.9964939086
 30
0.0
 11
-469.9242626070408
 21
2082.182119908591
 31
0.0
  0
LINE
  5
51462
330
1F
100
AcDbEntity
  8
躯体と製品
  6
Continuous
 62
     3
100
AcDbLine
 10
-471.9242626070409
 20
2115.9964939086
 30
0.0
 11
-457.9242626070408
 21
2115.9964939086
 31
0.0
  0
LINE
  5
51463
330
1F
100
AcDbEntity
  8
躯体と製品
  6
Continuous
 62
     3
100
AcDbLine
 10
-469.9242626070408
 20
2113.9964939086
 30
0.0
 11
-455.9242626070409
 21
2113.9964939086
 31
0.0
  0
LINE
  5
51464
330
1F
100
AcDbEntity
  8
躯体と製品
  6
Continuous
 62
     3
100
AcDbLine
 10
-457.9242626070408
 20
2115.9964939086
 30
0.0
 11
-457.9242626070408
 21
2121.496493908599
 31
0.0
  0
LINE
  5
51465
330
1F
100
AcDbEntity
  8
躯体と製品
  6
Continuous
 62
     3
100
AcDbLine
 10
-457.9242626070408
 20
2121.496493908599
 30
0.0
 11
-442.9242626070409
 21
2121.496493908599
 31
0.0
  0
LINE
  5
51466
330
1F
100
AcDbEntity
  8
躯体と製品
  6
Continuous
 62
     3
100
AcDbLine
 10
-455.9242626070409
 20
2119.4964939086
 30
0.0
 11
-442.9242626070409
 21
2119.4964939086
 31
0.0
  0
LINE
  5
51467
330
1F
100
AcDbEntity
  8
躯体と製品
  6
Continuous
 62
     3
100
AcDbLine
 10
-455.9242626070409
 20
2113.9964939086
 30
0.0
 11
-455.9242626070409
 21
2119.4964939086
 31
0.0
  0
LINE
  5
51468
330
1F
100
AcDbEntity
  8
躯体と製品
  6
Continuous
 62
     3
100
AcDbLine
 10
-442.9242626070409
 20
2121.496493908599
 30
0.0
 11
-442.9242626070409
 21
2124.496493908599
 31
0.0
  0
LINE
  5
51469
330
1F
100
AcDbEntity
  8
躯体と製品
  6
Continuous
 62
     3
100
AcDbLine
 10
-440.9242626070408
 20
2094.4964939086
 30
0.0
 11
-440.9242626070408
 21
2124.496493908599
 31
0.0
  0
LINE
  5
5146A
330
1F
100
AcDbEntity
  8
躯体と製品
  6
Continuous
 62
     3
100
AcDbLine
 10
-442.9242626070409
 20
2096.496493908599
 30
0.0
 11
-442.9242626070409
 21
2119.4964939086
 31
0.0
  0
LINE
  5
5146B
330
1F
100
AcDbEntity
  8
躯体と製品
  6
Continuous
 62
     3
100
AcDbLine
 10
-440.9242626070408
 20
2094.4964939086
 30
0.0
 11
-448.9242626070408
 21
2094.4964939086
 31
0.0
  0
LINE
  5
5146C
330
1F
100
AcDbEntity
  8
躯体と製品
  6
Continuous
 62
     3
100
AcDbLine
 10
-448.9242626070408
 20
2096.496493908599
 30
0.0
 11
-442.9242626070409
 21
2096.496493908599
 31
0.0
  0
LINE
  5
5146D
330
1F
100
AcDbEntity
  8
躯体と製品
  6
Continuous
 62
     3
100
AcDbLine
 10
-448.9242626070408
 20
2094.4964939086
 30
0.0
 11
-448.9242626070408
 21
2096.496493908599
 31
0.0
  0
LINE
  5
5146E
330
1F
100
AcDbEntity
  8
躯体と製品
  6
Continuous
 62
     3
100
AcDbLine
 10
-545.4242626070408
 20
2068.996493908599
 30
0.0
 11
-545.4242626070408
 21
2083.9964939086
 31
0.0
  0
LINE
  5
5146F
330
1F
100
AcDbEntity
  8
躯体と製品
  6
Continuous
 62
     3
100
AcDbLine
 10
-545.4242626070408
 20
2083.9964939086
 30
0.0
 11
-543.4242626070409
 21
2083.9964939086
 31
0.0
  0
LINE
  5
51470
330
1F
100
AcDbEntity
  8
躯体と製品
  6
Continuous
 62
     3
100
AcDbLine
 10
-545.4242626070408
 20
2068.996493908599
 30
0.0
 11
-490.4242626070408
 21
2068.996493908599
 31
0.0
  0
LINE
  5
51471
330
1F
100
AcDbEntity
  8
躯体と製品
  6
Continuous
 62
     3
100
AcDbLine
 10
-490.4242626070408
 20
2080.182119908591
 30
0.0
 11
-490.4242626070408
 21
2068.996493908599
 31
0.0
  0
LINE
  5
51472
330
1F
100
AcDbEntity
  8
躯体と製品
  6
Continuous
 62
     3
100
AcDbLine
 10
-543.4242626070409
 20
2083.9964939086
 30
0.0
 11
-543.4242626070409
 21
2070.9964939086
 31
0.0
  0
LINE
  5
51473
330
1F
100
AcDbEntity
  8
躯体と製品
  6
Continuous
 62
     3
100
AcDbLine
 10
-543.4242626070409
 20
2070.9964939086
 30
0.0
 11
-533.4242626070408
 21
2070.9964939086
 31
0.0
  0
LINE
  5
51474
330
1F
100
AcDbEntity
  8
躯体と製品
  6
Continuous
 62
     3
100
AcDbLine
 10
-531.4242626070408
 20
2070.9964939086
 30
0.0
 11
-492.4242626070408
 21
2070.9964939086
 31
0.0
  0
LINE
  5
51475
330
1F
100
AcDbEntity
  8
躯体と製品
  6
Continuous
 62
     3
100
AcDbLine
 10
-492.4242626070408
 20
2079.986997908601
 30
0.0
 11
-492.4242626070408
 21
2070.9964939086
 31
0.0
  0
LINE
  5
51476
330
1F
100
AcDbEntity
  8
躯体と製品
  6
Continuous
 62
     3
100
AcDbLine
 10
-533.4242626070408
 20
2070.9964939086
 30
0.0
 11
-533.4242626070408
 21
2077.996493908599
 31
0.0
  0
LINE
  5
51477
330
1F
100
AcDbEntity
  8
躯体と製品
  6
Continuous
 62
     3
100
AcDbLine
 10
-423.3542626070338
 20
2133.9964939086
 30
0.0
 11
-423.3542626070338
 21
2141.9964939086
 31
0.0
  0
LINE
  5
51478
330
1F
100
AcDbEntity
  8
躯体と製品
  6
Continuous
 62
     3
100
AcDbLine
 10
-421.3542626070339
 20
2141.9964939086
 30
0.0
 11
-421.3542626070339
 21
2135.996493908599
 31
0.0
  0
LINE
  5
51479
330
1F
100
AcDbEntity
  8
躯体と製品
  6
Continuous
 62
     3
100
AcDbLine
 10
-425.3542626070339
 20
2141.9964939086
 30
0.0
 11
-423.3542626070338
 21
2141.9964939086
 31
0.0
  0
LINE
  5
5147A
330
1F
100
AcDbEntity
  8
躯体と製品
  6
Continuous
 62
     3
100
AcDbLine
 10
-421.3542626070339
 20
2141.9964939086
 30
0.0
 11
-416.3542626070339
 21
2141.9964939086
 31
0.0
  0
LINE
  5
5147B
330
1F
100
AcDbEntity
  8
躯体と製品
  6
Continuous
 62
     3
100
AcDbLine
 10
-425.3542626070339
 20
2143.996493908599
 30
0.0
 11
-418.3542626070338
 21
2143.996493908599
 31
0.0
  0
LINE
  5
5147C
330
1F
100
AcDbEntity
  8
躯体と製品
  6
Continuous
 62
     3
100
AcDbLine
 10
-425.3542626070339
 20
2153.9964939086
 30
0.0
 11
-427.9242626070408
 21
2153.9964939086
 31
0.0
  0
LINE
  5
5147D
330
1F
100
AcDbEntity
  8
躯体と製品
  6
Continuous
 62
     3
100
AcDbLine
 10
-421.3542626070339
 20
2133.9964939086
 30
0.0
 11
-421.3542626070339
 21
2108.9964939086
 31
0.0
  0
LINE
  5
5147E
330
1F
100
AcDbEntity
  8
躯体と製品
  6
Continuous
 62
     3
100
AcDbLine
 10
-423.3542626070338
 20
2133.9964939086
 30
0.0
 11
-423.3542626070338
 21
2110.996493908599
 31
0.0
  0
LINE
  5
5147F
330
1F
100
AcDbEntity
  8
躯体と製品
  6
Continuous
 62
     3
100
AcDbLine
 10
-425.3542626070339
 20
2108.9964939086
 30
0.0
 11
-421.3542626070339
 21
2108.9964939086
 31
0.0
  0
LINE
  5
51480
330
1F
100
AcDbEntity
  8
躯体と製品
  6
Continuous
 62
     3
100
AcDbLine
 10
-425.3542626070339
 20
2110.996493908599
 30
0.0
 11
-423.3542626070338
 21
2110.996493908599
 31
0.0
  0
LINE
  5
51481
330
1F
100
AcDbEntity
  8
躯体と製品
  6
Continuous
 62
     3
100
AcDbLine
 10
-427.9242626070408
 20
2108.9964939086
 30
0.0
 11
-425.3542626070339
 21
2108.9964939086
 31
0.0
  0
LINE
  5
51482
330
1F
100
AcDbEntity
  8
躯体と製品
  6
Continuous
 62
     3
100
AcDbLine
 10
-471.9242626070409
 20
2147.9964939086
 30
0.0
 11
-461.9242626070408
 21
2147.9964939086
 31
0.0
  0
LINE
  5
51483
330
1F
100
AcDbEntity
  8
躯体と製品
  6
Continuous
 62
     3
100
AcDbLine
 10
-461.9242626070408
 20
2147.9964939086
 30
0.0
 11
-471.9242626070409
 21
2137.9964939086
 31
0.0
  0
LINE
  5
51484
330
1F
100
AcDbEntity
  8
躯体と製品
  6
Continuous
 62
     3
100
AcDbLine
 10
-437.9242626070408
 20
2147.9964939086
 30
0.0
 11
-427.9242626070408
 21
2147.9964939086
 31
0.0
  0
LINE
  5
51485
330
1F
100
AcDbEntity
  8
躯体と製品
  6
Continuous
 62
     3
100
AcDbLine
 10
-471.9242626070409
 20
2137.9964939086
 30
0.0
 11
-461.9242626070408
 21
2137.9964939086
 31
0.0
  0
LINE
  5
51486
330
1F
100
AcDbEntity
  8
躯体と製品
  6
Continuous
 62
     3
100
AcDbLine
 10
-427.9242626070408
 20
2137.9964939086
 30
0.0
 11
-437.9242626070408
 21
2137.9964939086
 31
0.0
  0
LINE
  5
51487
330
1F
100
AcDbEntity
  8
躯体と製品
  6
Continuous
 62
     3
100
AcDbLine
 10
-437.9242626070408
 20
2137.9964939086
 30
0.0
 11
-427.9242626070408
 21
2147.9964939086
 31
0.0
  0
LINE
  5
51488
330
1F
100
AcDbEntity
  8
躯体と製品
  6
Continuous
 62
     3
100
AcDbLine
 10
-437.9242626070408
 20
2147.9964939086
 30
0.0
 11
-427.9242626070408
 21
2137.9964939086
 31
0.0
  0
LINE
  5
51489
330
1F
100
AcDbEntity
  8
躯体と製品
  6
Continuous
 62
     3
100
AcDbLine
 10
-461.9242626070408
 20
2137.9964939086
 30
0.0
 11
-471.9242626070409
 21
2147.9964939086
 31
0.0
  0
LINE
  5
5148A
330
1F
100
AcDbEntity
  8
躯体と製品
  6
Continuous
 62
     3
100
AcDbLine
 10
-425.3542626070339
 20
2145.9964939086
 30
0.0
 11
-418.3542626070338
 21
2145.9964939086
 31
0.0
  0
LINE
  5
5148B
330
1F
100
AcDbEntity
  8
躯体と製品
  6
Continuous
 62
     3
100
AcDbLine
 10
-425.3542626070339
 20
2145.9964939086
 30
0.0
 11
-418.3542626070338
 21
2143.996493908599
 31
0.0
  0
LINE
  5
5148C
330
1F
100
AcDbEntity
  8
躯体と製品
  6
Continuous
 62
     3
100
AcDbLine
 10
-425.3542626070339
 20
2153.9964939086
 30
0.0
 11
-418.3542626070338
 21
2153.9964939086
 31
0.0
  0
LINE
  5
5148D
330
1F
100
AcDbEntity
  8
躯体と製品
  6
Continuous
 62
     3
100
AcDbLine
 10
-425.3542626070339
 20
2147.002493908594
 30
0.0
 11
-418.3602626070278
 21
2153.9964939086
 31
0.0
  0
LINE
  5
5148E
330
1F
100
AcDbEntity
  8
躯体と製品
  6
Continuous
 62
     3
100
AcDbLine
 10
-425.3542626070339
 20
2151.245133908605
 30
0.0
 11
-422.6029036070467
 21
2153.9964939086
 31
0.0
  0
LINE
  5
5148F
330
1F
100
AcDbEntity
  8
躯体と製品
  6
Continuous
 62
     3
100
AcDbLine
 10
-422.1116226070225
 20
2145.9964939086
 30
0.0
 11
-418.3542626070338
 21
2149.753852908595
 31
0.0
  0
LINE
  5
51490
330
1F
100
AcDbEntity
  8
躯体と製品
  6
Continuous
 62
     3
100
AcDbLine
 10
-422.5969036070527
 20
2153.9964939086
 30
0.0
 11
-418.3542626070338
 21
2149.753852908595
 31
0.0
  0
LINE
  5
51491
330
1F
100
AcDbEntity
  8
躯体と製品
  6
Continuous
 62
     3
100
AcDbLine
 10
-425.3542626070339
 20
2152.511211908591
 30
0.0
 11
-418.8395446070135
 21
2145.9964939086
 31
0.0
  0
LINE
  5
51492
330
1F
100
AcDbEntity
  8
躯体と製品
  6
Continuous
 62
     3
100
AcDbLine
 10
-425.3542626070339
 20
2148.268571908594
 30
0.0
 11
-423.0821846070248
 21
2145.9964939086
 31
0.0
  0
LINE
  5
51493
330
1F
100
AcDbEntity
  8
躯体と製品
  6
Continuous
 62
     3
100
AcDbLine
 10
-437.9242626070408
 20
2158.996493908599
 30
0.0
 11
-427.9242626070408
 21
2153.9964939086
 31
0.0
  0
LINE
  5
51494
330
1F
100
AcDbEntity
  8
躯体と製品
  6
Continuous
 62
     3
100
AcDbLine
 10
-461.9242626070408
 20
2158.996493908599
 30
0.0
 11
-471.9242626070409
 21
2153.9964939086
 31
0.0
  0
LINE
  5
51495
330
1F
100
AcDbEntity
  8
躯体と製品
  6
Continuous
 62
     3
100
AcDbLine
 10
-437.9242626070408
 20
2158.990493908605
 30
0.0
 11
-427.9242626070408
 21
2148.990493908605
 31
0.0
  0
LINE
  5
51496
330
1F
100
AcDbEntity
  8
躯体と製品
  6
Continuous
 62
     3
100
AcDbLine
 10
-427.9242626070408
 20
2153.233133908588
 30
0.0
 11
-429.4509816069985
 21
2154.759852908604
 31
0.0
  0
LINE
  5
51497
330
1F
100
AcDbEntity
  8
躯体と製品
  6
Continuous
 62
     3
100
AcDbLine
 10
-437.9242626070408
 20
2154.753852908595
 30
0.0
 11
-431.1669036070015
 21
2147.9964939086
 31
0.0
  0
LINE
  5
51498
330
1F
100
AcDbEntity
  8
躯体と製品
  6
Continuous
 62
     3
100
AcDbLine
 10
-437.9242626070408
 20
2150.511211908591
 30
0.0
 11
-435.4095446070204
 21
2147.9964939086
 31
0.0
  0
LINE
  5
51499
330
1F
100
AcDbEntity
  8
躯体と製品
  6
Continuous
 62
     3
100
AcDbLine
 10
-471.9242626070409
 20
2153.990493908605
 30
0.0
 11
-465.9302626070348
 21
2147.9964939086
 31
0.0
  0
LINE
  5
5149A
330
1F
100
AcDbEntity
  8
躯体と製品
  6
Continuous
 62
     3
100
AcDbLine
 10
-469.0998356070267
 20
2155.408706908603
 30
0.0
 11
-461.9242626070408
 21
2148.233133908588
 31
0.0
  0
LINE
  5
5149B
330
1F
100
AcDbEntity
  8
躯体と製品
  6
Continuous
 62
     3
100
AcDbLine
 10
-466.2714086070555
 20
2156.822920908592
 30
0.0
 11
-461.9242626070408
 21
2152.475774908607
 31
0.0
  0
LINE
  5
5149C
330
1F
100
AcDbEntity
  8
躯体と製品
  6
Continuous
 62
     3
100
AcDbLine
 10
-463.442981607026
 20
2158.237133908603
 30
0.0
 11
-461.9242626070408
 21
2156.718415908597
 31
0.0
  0
LINE
  5
5149D
330
1F
100
AcDbEntity
  8
躯体と製品
  6
Continuous
 62
     3
100
AcDbLine
 10
-471.9242626070409
 20
2149.753852908595
 30
0.0
 11
-470.1669036070016
 21
2147.9964939086
 31
0.0
  0
LINE
  5
5149E
330
1F
100
AcDbEntity
  8
躯体と製品
  6
Continuous
 62
     3
100
AcDbLine
 10
-471.9242626070409
 20
2149.002493908593
 30
0.0
 11
-461.9362626070287
 21
2158.990493908605
 31
0.0
  0
LINE
  5
5149F
330
1F
100
AcDbEntity
  8
躯体と製品
  6
Continuous
 62
     3
100
AcDbLine
 10
-471.9242626070409
 20
2153.245133908605
 30
0.0
 11
-470.4215446070666
 21
2154.747852908601
 31
0.0
  0
LINE
  5
514A0
330
1F
100
AcDbEntity
  8
躯体と製品
  6
Continuous
 62
     3
100
AcDbLine
 10
-468.6816226070296
 20
2147.9964939086
 30
0.0
 11
-461.9242626070408
 21
2154.753852908595
 31
0.0
  0
LINE
  5
514A1
330
1F
100
AcDbEntity
  8
躯体と製品
  6
Continuous
 62
     3
100
AcDbLine
 10
-464.4389816070106
 20
2147.9964939086
 30
0.0
 11
-461.9242626070408
 21
2150.511211908591
 31
0.0
  0
LINE
  5
514A2
330
1F
100
AcDbEntity
  8
躯体と製品
  6
Continuous
 62
     3
100
AcDbLine
 10
-433.9302626070348
 20
2147.9964939086
 30
0.0
 11
-427.928262606998
 21
2153.998493908607
 31
0.0
  0
LINE
  5
514A3
330
1F
100
AcDbEntity
  8
躯体と製品
  6
Continuous
 62
     3
100
AcDbLine
 10
-437.9242626070408
 20
2148.245133908605
 30
0.0
 11
-430.7566896070275
 21
2155.412706908589
 31
0.0
  0
LINE
  5
514A4
330
1F
100
AcDbEntity
  8
躯体と製品
  6
Continuous
 62
     3
100
AcDbLine
 10
-437.9242626070408
 20
2152.487774908594
 30
0.0
 11
-433.5851176070645
 21
2156.826920908593
 31
0.0
  0
LINE
  5
514A5
330
1F
100
AcDbEntity
  8
躯体と製品
  6
Continuous
 62
     3
100
AcDbLine
 10
-437.9242626070408
 20
2156.730415908599
 30
0.0
 11
-436.4135446070358
 21
2158.241133908589
 31
0.0
  0
LINE
  5
514A6
330
1F
100
AcDbEntity
  8
躯体と製品
  6
Continuous
 62
     3
100
AcDbLine
 10
-429.6816226070295
 20
2147.9964939086
 30
0.0
 11
-427.9242626070408
 21
2149.753852908595
 31
0.0
  0
LINE
  5
514A7
330
1F
100
AcDbEntity
  8
躯体と製品
  6
Continuous
 62
     3
100
AcDbLine
 10
-453.9242626070408
 20
2147.9964939086
 30
0.0
 11
-447.9242626070409
 21
2147.9964939086
 31
0.0
  0
LINE
  5
514A8
330
1F
100
AcDbEntity
  8
躯体と製品
  6
Continuous
 62
     3
100
AcDbLine
 10
-447.9242626070409
 20
2140.9964939086
 30
0.0
 11
-453.9242626070408
 21
2140.9964939086
 31
0.0
  0
LINE
  5
514A9
330
1F
100
AcDbEntity
  8
躯体と製品
  6
Continuous
 62
     3
100
AcDbLine
 10
-452.9302626070347
 20
2135.996493908599
 30
0.0
 11
-447.9302626070348
 21
2140.9964939086
 31
0.0
  0
LINE
  5
514AA
330
1F
100
AcDbEntity
  8
躯体と製品
  6
Continuous
 62
     3
100
AcDbLine
 10
-350.3542626070339
 20
2005.996493908599
 30
0.0
 11
-350.3542626070339
 21
2073.996493908599
 31
0.0
  0
LINE
  5
514AB
330
1F
100
AcDbEntity
  8
躯体と製品
  6
Continuous
 62
     4
100
AcDbLine
 10
-370.3542626070339
 20
2053.996493908599
 30
0.0
 11
-370.3542626070339
 21
2005.996493908599
 31
0.0
  0
LINE
  5
514AC
330
1F
100
AcDbEntity
  8
躯体と製品
  6
Continuous
 62
     3
100
AcDbLine
 10
-357.8542626070339
 20
2157.9964939086
 30
0.0
 11
-357.8542626070339
 21
2148.996493908599
 31
0.0
  0
LINE
  5
514AD
330
1F
100
AcDbEntity
  8
躯体と製品
  6
Continuous
 62
     3
100
AcDbLine
 10
-357.8542626070339
 20
2148.996493908599
 30
0.0
 11
-359.8542626070339
 21
2148.9964939086
 31
0.0
  0
LINE
  5
514AE
330
1F
100
AcDbEntity
  8
躯体と製品
  6
Continuous
 62
     4
100
AcDbLine
 10
176.1539889446103
 20
2005.996493908599
 30
0.0
 11
-370.3542626070339
 21
2005.996493908599
 31
0.0
  0
LINE
  5
514AF
330
1F
100
AcDbEntity
  8
躯体と製品
  6
Continuous
 62
     4
100
AcDbLine
 10
-550.3542626070339
 20
2038.9964939086
 30
0.0
 11
-370.3542626070339
 21
2053.996493908599
 31
0.0
  0
LINE
  5
514B0
330
1F
100
AcDbEntity
  8
躯体と製品
  6
Continuous
 62
     3
100
AcDbLine
 10
-350.3542626070339
 20
2073.996493908599
 30
0.0
 11
-395.3542626070339
 21
2070.2464939086
 31
0.0
  0
LINE
  5
514B1
330
1F
100
AcDbEntity
  8
躯体と製品
  6
Continuous
 62
     3
100
AcDbLine
 10
-405.3542626070338
 20
2133.9964939086
 30
0.0
 11
-405.3542626070338
 21
2083.9964939086
 31
0.0
  0
LINE
  5
514B2
330
1F
100
AcDbEntity
  8
躯体と製品
  6
Continuous
 62
     4
100
AcDbLine
 10
-425.3542626070339
 20
2108.996493908599
 30
0.0
 11
-425.3542626070339
 21
2077.492816908599
 31
0.0
  0
LINE
  5
514B3
330
1F
100
AcDbEntity
  8
躯体と製品
  6
Continuous
 62
     3
100
AcDbLine
 10
-405.3542626070338
 20
2083.9964939086
 30
0.0
 11
-395.3542626070339
 21
2070.2464939086
 31
0.0
  0
LINE
  5
514B4
330
1F
100
AcDbEntity
  8
躯体と製品
  6
Continuous
 62
     4
100
AcDbLine
 10
-406.0996406070553
 20
2051.017711908594
 30
0.0
 11
-425.3542626070339
 21
2077.492816908599
 31
0.0
  0
LINE
  5
514B5
330
1F
100
AcDbEntity
  8
躯体と製品
  6
Continuous
 62
     4
100
AcDbLine
 10
-550.3542626070339
 20
2038.9964939086
 30
0.0
 11
-550.3542626070339
 21
1985.996493908599
 31
0.0
  0
LINE
  5
514B6
330
1F
100
AcDbEntity
  8
躯体と製品
  6
Continuous
 62
     3
100
AcDbLine
 10
-427.9242626070408
 20
2255.996493908599
 30
0.0
 11
-427.9242626070408
 21
2137.9964939086
 31
0.0
  0
LINE
  5
514B7
330
1F
100
AcDbEntity
  8
躯体と製品
  6
Continuous
 62
     3
100
AcDbLine
 10
-427.9242626070408
 20
2108.9964939086
 30
0.0
 11
-427.9242626070408
 21
2124.496493908599
 31
0.0
  0
LINE
  5
514B8
330
1F
100
AcDbEntity
  8
躯体と製品
  6
Continuous
 62
     3
100
AcDbLine
 10
-427.9242626070408
 20
2126.4964939086
 30
0.0
 11
-427.9242626070408
 21
2135.996493908599
 31
0.0
  0
LINE
  5
514B9
330
1F
100
AcDbEntity
  8
躯体と製品
  6
Continuous
 62
     3
100
AcDbLine
 10
-437.9242626070408
 20
2255.996493908599
 30
0.0
 11
-437.9242626070408
 21
2135.996493908599
 31
0.0
  0
LINE
  5
514BA
330
1F
100
AcDbEntity
  8
躯体と製品
  6
Continuous
 62
     3
100
AcDbLine
 10
-447.9242626070409
 20
2255.996493908599
 30
0.0
 11
-447.9242626070409
 21
2135.996493908599
 31
0.0
  0
LINE
  5
514BB
330
1F
100
AcDbEntity
  8
躯体と製品
  6
Continuous
 62
     3
100
AcDbLine
 10
-453.9242626070408
 20
2255.996493908599
 30
0.0
 11
-453.9242626070408
 21
2135.996493908599
 31
0.0
  0
LINE
  5
514BC
330
1F
100
AcDbEntity
  8
躯体と製品
  6
Continuous
 62
     3
100
AcDbLine
 10
-461.9242626070408
 20
2255.996493908599
 30
0.0
 11
-461.9242626070408
 21
2135.996493908599
 31
0.0
  0
LINE
  5
514BD
330
1F
100
AcDbEntity
  8
躯体と製品
  6
Continuous
 62
     3
100
AcDbLine
 10
-471.9242626070409
 20
2255.996493908599
 30
0.0
 11
-471.9242626070409
 21
2137.9964939086
 31
0.0
  0
LINE
  5
514BE
330
1F
100
AcDbEntity
  8
躯体と製品
  6
Continuous
 62
     3
100
AcDbLine
 10
-471.9242626070409
 20
2135.996493908599
 30
0.0
 11
-471.9242626070409
 21
2128.496493908599
 31
0.0
  0
LINE
  5
514BF
330
1F
100
AcDbEntity
  8
躯体と製品
  6
Continuous
 62
     3
100
AcDbLine
 10
-471.9242626070409
 20
2153.9964939086
 30
0.0
 11
-473.9242626070408
 21
2153.9964939086
 31
0.0
  0
LINE
  5
514C0
330
1F
100
AcDbEntity
  8
躯体と製品
  6
Continuous
 62
     3
100
AcDbLine
 10
-473.9242626070408
 20
2153.9964939086
 30
0.0
 11
-473.9242626070408
 21
2126.4964939086
 31
0.0
  0
LINE
  5
514C1
330
1F
100
AcDbEntity
  8
躯体と製品
  6
Continuous
 62
     3
100
AcDbLine
 10
-468.9242626070408
 20
2126.4964939086
 30
0.0
 11
-473.9242626070408
 21
2126.4964939086
 31
0.0
  0
LINE
  5
514C2
330
1F
100
AcDbEntity
  8
躯体と製品
  6
Continuous
 62
     3
100
AcDbLine
 10
-473.9242626070408
 20
2126.4964939086
 30
0.0
 11
-473.9242626070408
 21
2113.9964939086
 31
0.0
  0
LINE
  5
514C3
330
1F
100
AcDbEntity
  8
躯体と製品
  6
Continuous
 62
     3
100
AcDbLine
 10
-471.9242626070409
 20
2137.9964939086
 30
0.0
 11
-469.9242626070408
 21
2137.9964939086
 31
0.0
  0
LINE
  5
514C4
330
1F
100
AcDbEntity
  8
躯体と製品
  6
Continuous
 62
     3
100
AcDbLine
 10
-469.9242626070408
 20
2137.9964939086
 30
0.0
 11
-469.9242626070408
 21
2135.996493908599
 31
0.0
  0
LINE
  5
514C5
330
1F
100
AcDbEntity
  8
躯体と製品
  6
Continuous
 62
     3
100
AcDbLine
 10
-469.9242626070408
 20
2135.996493908599
 30
0.0
 11
-471.9242626070409
 21
2135.996493908599
 31
0.0
  0
LINE
  5
514C6
330
1F
100
AcDbEntity
  8
躯体と製品
  6
Continuous
 62
     3
100
AcDbLine
 10
-377.3542626070339
 20
2151.996493908599
 30
0.0
 11
-359.8542626070339
 21
2151.996493908599
 31
0.0
  0
LINE
  5
514C7
330
1F
100
AcDbEntity
  8
躯体と製品
  6
Continuous
 62
     3
100
AcDbLine
 10
-379.3542626070339
 20
2151.996493908599
 30
0.0
 11
-416.3542626070339
 21
2151.996493908599
 31
0.0
  0
LINE
  5
514C8
330
1F
100
AcDbEntity
  8
躯体と製品
  6
Continuous
 62
     3
100
AcDbLine
 10
-418.3542626070338
 20
2153.9964939086
 30
0.0
 11
-418.3542626070338
 21
2143.996493908599
 31
0.0
  0
LINE
  5
514C9
330
1F
100
AcDbEntity
  8
躯体と製品
  6
Continuous
 62
     3
100
AcDbLine
 10
-416.3542626070339
 20
2151.996493908599
 30
0.0
 11
-416.3542626070339
 21
2141.9964939086
 31
0.0
  0
LINE
  5
514CA
330
1F
100
AcDbEntity
  8
躯体と製品
  6
Continuous
 62
     3
100
AcDbLine
 10
-418.3542626070338
 20
2153.9964939086
 30
0.0
 11
-359.8542626070339
 21
2153.9964939086
 31
0.0
  0
LINE
  5
514CB
330
1F
100
AcDbEntity
  8
躯体と製品
  6
Continuous
 62
     3
100
AcDbLine
 10
-359.8542626070339
 20
2157.9964939086
 30
0.0
 11
-359.8542626070339
 21
2153.9964939086
 31
0.0
  0
LINE
  5
514CC
330
1F
100
AcDbEntity
  8
躯体と製品
  6
Continuous
 62
     3
100
AcDbLine
 10
-359.8542626070339
 20
2151.996493908599
 30
0.0
 11
-359.8542626070339
 21
2148.996493908599
 31
0.0
  0
LINE
  5
514CD
330
1F
100
AcDbEntity
  8
躯体と製品
  6
Continuous
 62
     3
100
AcDbLine
 10
-377.3542626070339
 20
2151.996493908599
 30
0.0
 11
-377.3542626070339
 21
2133.9964939086
 31
0.0
  0
LINE
  5
514CE
330
1F
100
AcDbEntity
  8
躯体と製品
  6
Continuous
 62
     3
100
AcDbLine
 10
-423.3542626070338
 20
2133.9964939086
 30
0.0
 11
-377.3542626070339
 21
2133.9964939086
 31
0.0
  0
LINE
  5
514CF
330
1F
100
AcDbEntity
  8
躯体と製品
  6
Continuous
 62
     3
100
AcDbLine
 10
-379.3542626070339
 20
2151.996493908599
 30
0.0
 11
-379.3542626070339
 21
2135.996493908599
 31
0.0
  0
LINE
  5
514D0
330
1F
100
AcDbEntity
  8
躯体と製品
  6
Continuous
 62
     3
100
AcDbLine
 10
-379.3542626070339
 20
2135.996493908599
 30
0.0
 11
-421.3542626070339
 21
2135.996493908599
 31
0.0
  0
LINE
  5
514D1
330
1F
100
AcDbEntity
  8
躯体と製品
  6
Continuous
 62
     3
100
AcDbLine
 10
-357.854262607033
 20
2157.9964939086
 30
0.0
 11
-359.8542626070339
 21
2157.9964939086
 31
0.0
  0
LINE
  5
514D2
330
1F
100
AcDbEntity
  8
躯体と製品
  6
Continuous
 62
     4
100
AcDbLine
 10
-283.3542626070339
 20
2005.996493908599
 30
0.0
 11
-283.3542626070339
 21
2138.996493908599
 31
0.0
  0
LINE
  5
514D3
330
1F
100
AcDbEntity
  8
躯体と製品
  6
Continuous
 62
     4
100
AcDbLine
 10
-342.8542626070339
 20
2005.996493908599
 30
0.0
 11
-342.8542626070339
 21
2138.996493908599
 31
0.0
  0
LINE
  5
514D4
330
1F
100
AcDbEntity
  8
躯体と製品
  6
Continuous
 62
     4
100
AcDbLine
 10
-268.3542626070339
 20
2005.996493908599
 30
0.0
 11
-268.3542626070339
 21
2138.996493908599
 31
0.0
  0
LINE
  5
514D5
330
1F
100
AcDbEntity
  8
躯体と製品
  6
Continuous
 62
     3
100
AcDbLine
 10
-370.3542626070348
 20
2015.538557413728
 30
0.0
 11
-350.3542626070339
 21
2035.538557413668
 31
0.0
  0
LINE
  5
51720
330
1F
100
AcDbEntity
  8
躯体と製品
  6
Continuous
 62
     3
100
AcDbLine
 10
-370.3542626070339
 20
2009.504068908598
 30
0.0
 11
-366.8466876070352
 21
2005.996493908599
 31
0.0
  0
LINE
  5
51721
330
1F
100
AcDbEntity
  8
躯体と製品
  6
Continuous
 62
     4
100
AcDbLine
 10
-213.3542554784144
 20
2009.996512525505
 30
0.0
 11
-248.3542697356607
 21
2009.996512525505
 31
0.0
  0
LINE
  5
51722
330
1F
100
AcDbEntity
  8
躯体と製品
  6
Continuous
 62
     4
100
AcDbLine
 10
-216.3542694410862
 20
2021.296495752621
 30
0.0
 11
-245.3542557729816
 21
2021.296495752621
 31
0.0
  0
LINE
  5
51723
330
1F
100
AcDbEntity
  8
躯体と製品
  6
Continuous
 62
     4
100
AcDbLine
 10
-213.6201240298979
 20
2007.996503217052
 30
0.0
 11
-216.8542469947642
 21
2007.996503217052
 31
0.0
  0
LINE
  5
51724
330
1F
100
AcDbEntity
  8
躯体と製品
  6
Continuous
 62
     4
100
AcDbLine
 10
-233.2853297607871
 20
2005.996493908599
 30
0.0
 11
-231.8093282422196
 21
2005.996493908599
 31
0.0
  0
LINE
  5
51725
330
1F
100
AcDbEntity
  8
躯体と製品
  6
Continuous
 62
     4
100
AcDbLine
 10
-231.8093282422196
 20
2006.996498562826
 30
0.0
 11
-229.8991969718554
 21
2006.996498562826
 31
0.0
  0
LINE
  5
51726
330
1F
100
AcDbEntity
  8
躯体と製品
  6
Continuous
 62
     4
100
AcDbLine
 10
-245.3542557729816
 20
2021.296495752621
 30
0.0
 11
-248.3542697356607
 21
2009.996512525505
 31
0.0
  0
LINE
  5
51727
330
1F
100
AcDbEntity
  8
躯体と製品
  6
Continuous
 62
     4
100
AcDbLine
 10
-244.6415734687471
 20
2005.996493908599
 30
0.0
 11
-233.2853297607871
 21
2005.996493908599
 31
0.0
  0
LINE
  5
51728
330
1F
100
AcDbEntity
  8
躯体と製品
  6
Continuous
 62
     4
100
AcDbLine
 10
-244.8542286724332
 20
2007.996503217052
 30
0.0
 11
-248.0884011841772
 21
2007.996503217052
 31
0.0
  0
LINE
  5
51729
330
1F
100
AcDbEntity
  8
躯体と製品
  6
Continuous
 62
     4
100
AcDbLine
 10
-248.3542697356607
 20
2009.996512525505
 30
0.0
 11
-248.0884011841772
 21
2009.996512525505
 31
0.0
  0
LINE
  5
5172A
330
1F
100
AcDbEntity
  8
躯体と製品
  6
Continuous
 62
     4
100
AcDbLine
 10
-248.0884011841772
 20
2009.996512525505
 30
0.0
 11
-248.0884011841772
 21
2007.996503217052
 31
0.0
  0
LINE
  5
5172B
330
1F
100
AcDbEntity
  8
躯体と製品
  6
Continuous
 62
     4
100
AcDbLine
 10
-244.8542286724332
 20
2006.996498562826
 30
0.0
 11
-244.6415734687471
 21
2006.996498562826
 31
0.0
  0
LINE
  5
5172C
330
1F
100
AcDbEntity
  8
躯体と製品
  6
Continuous
 62
     4
100
AcDbLine
 10
-244.6415734687471
 20
2005.996493908599
 30
0.0
 11
-244.6415734687471
 21
2006.996498562826
 31
0.0
  0
LINE
  5
5172D
330
1F
100
AcDbEntity
  8
躯体と製品
  6
Continuous
 62
     4
100
AcDbLine
 10
-244.8542286724332
 20
2007.996503217052
 30
0.0
 11
-244.8542286724332
 21
2006.996498562826
 31
0.0
  0
LINE
  5
5172E
330
1F
100
AcDbEntity
  8
躯体と製品
  6
Continuous
 62
     4
100
AcDbLine
 10
-217.0669517453207
 20
2005.996493908599
 30
0.0
 11
-228.4231954532806
 21
2005.996493908599
 31
0.0
  0
LINE
  5
5172F
330
1F
100
AcDbEntity
  8
躯体と製品
  6
Continuous
 62
     4
100
AcDbLine
 10
-228.4231954532806
 20
2005.996493908599
 30
0.0
 11
-229.8991969718554
 21
2005.996493908599
 31
0.0
  0
LINE
  5
51730
330
1F
100
AcDbEntity
  8
躯体と製品
  6
Continuous
 62
     4
100
AcDbLine
 10
-229.8991969718554
 20
2005.996493908599
 30
0.0
 11
-229.8991969718554
 21
2006.996498562826
 31
0.0
  0
LINE
  5
51731
330
1F
100
AcDbEntity
  8
躯体と製品
  6
Continuous
 62
     4
100
AcDbLine
 10
-231.8093282422196
 20
2005.996493908599
 30
0.0
 11
-231.8093282422196
 21
2006.996498562826
 31
0.0
  0
LINE
  5
51732
330
1F
100
AcDbEntity
  8
躯体と製品
  6
Continuous
 62
     4
100
AcDbLine
 10
-217.0669517453207
 20
2005.996493908599
 30
0.0
 11
-217.0669517453207
 21
2006.996498562826
 31
0.0
  0
LINE
  5
51733
330
1F
100
AcDbEntity
  8
躯体と製品
  6
Continuous
 62
     4
100
AcDbLine
 10
-217.0669517453207
 20
2006.996498562826
 30
0.0
 11
-216.8542469947642
 21
2006.996498562826
 31
0.0
  0
LINE
  5
51734
330
1F
100
AcDbEntity
  8
躯体と製品
  6
Continuous
 62
     4
100
AcDbLine
 10
-216.8542469947642
 20
2006.996498562826
 30
0.0
 11
-216.8542469947642
 21
2007.996503217052
 31
0.0
  0
LINE
  5
51735
330
1F
100
AcDbEntity
  8
躯体と製品
  6
Continuous
 62
     4
100
AcDbLine
 10
-216.3542694410862
 20
2021.296495752621
 30
0.0
 11
-213.3542554784144
 21
2009.996512525505
 31
0.0
  0
LINE
  5
51736
330
1F
100
AcDbEntity
  8
躯体と製品
  6
Continuous
 62
     4
100
AcDbLine
 10
-213.6201240298979
 20
2009.996512525505
 30
0.0
 11
-213.6201240298979
 21
2007.996503217052
 31
0.0
  0
LINE
  5
51738
330
1F
100
AcDbEntity
  8
躯体と製品
  6
Continuous
 62
     4
100
AcDbLine
 10
-253.3542626070339
 20
2123.996493908599
 30
0.0
 11
-208.3542626070339
 21
2123.996493908599
 31
0.0
  0
LINE
  5
51739
330
1F
100
AcDbEntity
  8
躯体と製品
  6
Continuous
 62
     4
100
AcDbLine
 10
-208.3542626070339
 20
2123.996493908599
 30
0.0
 11
-208.3542626070339
 21
2093.996493908599
 31
0.0
  0
LINE
  5
5173A
330
1F
100
AcDbEntity
  8
躯体と製品
  6
Continuous
 62
     4
100
AcDbLine
 10
-208.3542626070339
 20
2093.996493908599
 30
0.0
 11
-253.3542626070339
 21
2093.996493908599
 31
0.0
  0
LINE
  5
5173B
330
1F
100
AcDbEntity
  8
躯体と製品
  6
Continuous
 62
     4
100
AcDbLine
 10
-253.3542626070339
 20
2093.996493908599
 30
0.0
 11
-253.3542626070339
 21
2123.996493908599
 31
0.0
  0
LINE
  5
5173C
330
1F
100
AcDbEntity
  8
躯体と製品
  6
Continuous
 62
     4
100
AcDbLine
 10
-253.3542626070339
 20
2123.996493908599
 30
0.0
 11
-208.3542626070339
 21
2093.996493908599
 31
0.0
  0
LINE
  5
5173D
330
1F
100
AcDbEntity
  8
躯体と製品
  6
Continuous
 62
     4
100
AcDbLine
 10
-208.3542626070339
 20
2123.996493908599
 30
0.0
 11
-253.3542626070339
 21
2093.996493908599
 31
0.0
  0
LINE
  5
51740
330
1F
100
AcDbEntity
  8
中心線
  6
CENTER1
 62
     7
100
AcDbLine
 10
-230.8542626070339
 20
2127.507899631457
 30
0.0
 11
-230.8542626070339
 21
2001.238001927354
 31
0.0
  0
LINE
  5
51741
330
1F
100
AcDbEntity
  8
躯体と製品
  6
Continuous
 62
     4
100
AcDbLine
 10
-229.3542626070394
 20
2063.9964939086
 30
0.0
 11
-229.3542626070375
 21
2049.996512525505
 31
0.0
  0
LINE
  5
51742
330
1F
100
AcDbEntity
  8
躯体と製品
  6
Continuous
 62
     4
100
AcDbLine
 10
-240.8542626070393
 20
2063.9964939086
 30
0.0
 11
-240.8542626070375
 21
2049.996512525505
 31
0.0
  0
LINE
  5
51743
330
1F
100
AcDbEntity
  8
躯体と製品
  6
Continuous
 62
     4
100
AcDbLine
 10
-232.3542626070375
 20
2063.9964939086
 30
0.0
 11
-232.3542626070375
 21
2049.996512525505
 31
0.0
  0
LINE
  5
51744
330
1F
100
AcDbEntity
  8
躯体と製品
  6
Continuous
 62
     4
100
AcDbLine
 10
-239.5012626070347
 20
2063.9964939086
 30
0.0
 11
-239.5012626070347
 21
2049.996512525505
 31
0.0
  0
LINE
  5
51745
330
1F
100
AcDbEntity
  8
躯体と製品
  6
Continuous
 62
     4
100
AcDbLine
 10
-220.8542626070393
 20
2063.9964939086
 30
0.0
 11
-220.8542626070375
 21
2049.996512525505
 31
0.0
  0
LINE
  5
51746
330
1F
100
AcDbEntity
  8
躯体と製品
  6
Continuous
 62
     4
100
AcDbLine
 10
-240.8542626070375
 20
2049.996512525505
 30
0.0
 11
-220.8542626070375
 21
2049.996512525505
 31
0.0
  0
LINE
  5
51747
330
1F
100
AcDbEntity
  8
躯体と製品
  6
Continuous
 62
     4
100
AcDbLine
 10
-222.2072626070367
 20
2063.9964939086
 30
0.0
 11
-222.2072626070367
 21
2049.996512525505
 31
0.0
  0
LINE
  5
51748
330
1F
100
AcDbEntity
  8
躯体と製品
  6
Continuous
 62
     4
100
AcDbLine
 10
-239.3542626070375
 20
2021.296495752621
 30
0.0
 11
-239.3542626070375
 21
2049.996512525505
 31
0.0
  0
LINE
  5
51749
330
1F
100
AcDbEntity
  8
躯体と製品
  6
Continuous
 62
     4
100
AcDbLine
 10
-222.3542626070375
 20
2021.296495752621
 30
0.0
 11
-222.3542626070375
 21
2049.996512525505
 31
0.0
  0
LWPOLYLINE
  5
5174A
330
1F
100
AcDbEntity
  8
文字-記号
 62
     7
100
AcDbPolyline
 90
        3
 70
     0
 43
0.0
 10
-214.8542624597503
 20
2015.646504139064
 10
-204.42517936902
 20
2033.710205928564
 10
-94.5402892161219
 20
2033.710205928564
  0
TEXT
  5
5174B
330
1F
100
AcDbEntity
  8
文字-記号
 62
     7
100
AcDbText
 10
-201.543463055983
 20
2038.848362355861
 30
0.0
 40
9.0
  1
クッションＬＫＧゴム
100
AcDbText
  0
LINE
  5
5174C
330
1F
100
AcDbEntity
  8
躯体と製品
  6
Continuous
 62
     4
100
AcDbLine
 10
-243.3542626070848
 20
2063.9964939086
 30
0.0
 11
-218.3542626070848
 21
2063.9964939086
 31
0.0
  0
LINE
  5
5174D
330
1F
100
AcDbEntity
  8
躯体と製品
  6
Continuous
 62
     4
100
AcDbLine
 10
-252.8542626070848
 20
2088.9964939086
 30
0.0
 11
-208.8542626070848
 21
2088.9964939086
 31
0.0
  0
LINE
  5
5174E
330
1F
100
AcDbEntity
  8
躯体と製品
  6
Continuous
 62
     4
100
AcDbLine
 10
-252.8542626070848
 20
2093.996493908599
 30
0.0
 11
-208.8542626070848
 21
2093.996493908599
 31
0.0
  0
LINE
  5
5174F
330
1F
100
AcDbEntity
  8
躯体と製品
  6
Continuous
 62
     4
100
AcDbLine
 10
-246.8871296978832
 20
2081.365726742698
 30
0.0
 11
-242.3513552371842
 21
2063.9964939086
 31
0.0
  0
LINE
  5
51750
330
1F
100
AcDbEntity
  8
躯体と製品
  6
Continuous
 62
     4
100
AcDbLine
 10
-219.3571699769818
 20
2063.9964939086
 30
0.0
 11
-214.8213955162864
 21
2081.365726742698
 31
0.0
  0
LINE
  5
51751
330
1F
100
AcDbEntity
  8
躯体と製品
  6
Continuous
 62
     4
100
AcDbLine
 10
-249.617175208281
 20
2087.600402626203
 30
0.0
 11
-250.6124852317807
 21
2088.996494281099
 31
0.0
  0
LINE
  5
51752
330
1F
100
AcDbEntity
  8
躯体と製品
  6
Continuous
 62
     4
100
AcDbLine
 10
-248.7435815947829
 20
2086.1224849699
 30
0.0
 11
-249.617175208281
 21
2087.600402626203
 31
0.0
  0
LINE
  5
51753
330
1F
100
AcDbEntity
  8
躯体と製品
  6
Continuous
 62
     4
100
AcDbLine
 10
-247.9932839142821
 20
2084.573062228898
 30
0.0
 11
-248.7435815947829
 21
2086.1224849699
 31
0.0
  0
LINE
  5
51754
330
1F
100
AcDbEntity
  8
躯体と製品
  6
Continuous
 62
     4
100
AcDbLine
 10
-247.3780224191833
 20
2082.991013395601
 30
0.0
 11
-247.9932839142821
 21
2084.573062228898
 31
0.0
  0
LINE
  5
51755
330
1F
100
AcDbEntity
  8
躯体と製品
  6
Continuous
 62
     4
100
AcDbLine
 10
-246.887129740684
 20
2081.365726980396
 30
0.0
 11
-247.3780224191833
 21
2082.991013395601
 31
0.0
  0
LINE
  5
51756
330
1F
100
AcDbEntity
  8
躯体と製品
  6
Continuous
 62
     4
100
AcDbLine
 10
-245.3871296978832
 20
2081.365726742698
 30
0.0
 11
-246.8871296978832
 21
2081.365726742698
 31
0.0
  0
LINE
  5
51757
330
1F
100
AcDbEntity
  8
躯体と製品
  6
Continuous
 62
     4
100
AcDbLine
 10
-240.8513552371842
 20
2063.9964939086
 30
0.0
 11
-245.3871296978832
 21
2081.365726742698
 31
0.0
  0
LINE
  5
51758
330
1F
100
AcDbEntity
  8
躯体と製品
  6
Continuous
 62
     4
100
AcDbLine
 10
-240.8513547944822
 20
2088.996494281099
 30
0.0
 11
-240.8513552371842
 21
2063.9964939086
 31
0.0
  0
LINE
  5
51759
330
1F
100
AcDbEntity
  8
躯体と製品
  6
Continuous
 62
     4
100
AcDbLine
 10
-246.0069432946839
 20
2083.354707899504
 30
0.0
 11
-245.387129494884
 21
2081.365726980396
 31
0.0
  0
LINE
  5
5175A
330
1F
100
AcDbEntity
  8
躯体と製品
  6
Continuous
 62
     4
100
AcDbLine
 10
-246.6386454271851
 20
2084.899727347301
 30
0.0
 11
-246.0069432946839
 21
2083.354707899504
 31
0.0
  0
LINE
  5
5175B
330
1F
100
AcDbEntity
  8
躯体と製品
  6
Continuous
 62
     4
100
AcDbLine
 10
-247.3764596598849
 20
2086.366448643603
 30
0.0
 11
-246.6386454271851
 21
2084.899727347301
 31
0.0
  0
LINE
  5
5175C
330
1F
100
AcDbEntity
  8
躯体と製品
  6
Continuous
 62
     4
100
AcDbLine
 10
-248.2003672140854
 20
2087.727403360398
 30
0.0
 11
-247.3764596598849
 21
2086.366448643603
 31
0.0
  0
LINE
  5
5175D
330
1F
100
AcDbEntity
  8
躯体と製品
  6
Continuous
 62
     4
100
AcDbLine
 10
-249.1124840545817
 20
2088.996494281099
 30
0.0
 11
-248.2003672140854
 21
2087.727403360398
 31
0.0
  0
LINE
  5
5175E
330
1F
100
AcDbEntity
  8
躯体と製品
  6
Continuous
 62
     4
100
AcDbLine
 10
-216.3213955162828
 20
2081.365726742698
 30
0.0
 11
-220.8571699769855
 21
2063.9964939086
 31
0.0
  0
LINE
  5
5175F
330
1F
100
AcDbEntity
  8
躯体と製品
  6
Continuous
 62
     4
100
AcDbLine
 10
-220.8571704196838
 20
2088.996494281099
 30
0.0
 11
-220.8571699769855
 21
2063.9964939086
 31
0.0
  0
LINE
  5
51760
330
1F
100
AcDbEntity
  8
躯体と製品
  6
Continuous
 62
     4
100
AcDbLine
 10
-213.591351183084
 20
2087.600402626203
 30
0.0
 11
-212.5960411595806
 21
2088.996494281099
 31
0.0
  0
LINE
  5
51761
330
1F
100
AcDbEntity
  8
躯体と製品
  6
Continuous
 62
     4
100
AcDbLine
 10
-214.4649429338824
 20
2086.1224849699
 30
0.0
 11
-213.591351183084
 21
2087.600402626203
 31
0.0
  0
LINE
  5
51762
330
1F
100
AcDbEntity
  8
躯体と製品
  6
Continuous
 62
     4
100
AcDbLine
 10
-215.2152406143832
 20
2084.573062228898
 30
0.0
 11
-214.4649429338824
 21
2086.1224849699
 31
0.0
  0
LINE
  5
51763
330
1F
100
AcDbEntity
  8
躯体と製品
  6
Continuous
 62
     4
100
AcDbLine
 10
-215.830503040881
 20
2082.991013395601
 30
0.0
 11
-215.2152406143832
 21
2084.573062228898
 31
0.0
  0
LINE
  5
51764
330
1F
100
AcDbEntity
  8
躯体と製品
  6
Continuous
 62
     4
100
AcDbLine
 10
-216.3213957193839
 20
2081.365726980396
 30
0.0
 11
-215.830503040881
 21
2082.991013395601
 31
0.0
  0
LINE
  5
51765
330
1F
100
AcDbEntity
  8
躯体と製品
  6
Continuous
 62
     4
100
AcDbLine
 10
-214.8213955162864
 20
2081.365726742698
 30
0.0
 11
-216.3213955162828
 21
2081.365726742698
 31
0.0
  0
LINE
  5
51766
330
1F
100
AcDbEntity
  8
躯体と製品
  6
Continuous
 62
     4
100
AcDbLine
 10
-214.2015816735839
 20
2083.354707899504
 30
0.0
 11
-214.821395473482
 21
2081.365726980396
 31
0.0
  0
LINE
  5
51767
330
1F
100
AcDbEntity
  8
躯体と製品
  6
Continuous
 62
     4
100
AcDbLine
 10
-213.5698804723834
 20
2084.899727347301
 30
0.0
 11
-214.2015816735839
 21
2083.354707899504
 31
0.0
  0
LINE
  5
51768
330
1F
100
AcDbEntity
  8
躯体と製品
  6
Continuous
 62
     4
100
AcDbLine
 10
-212.8320662396836
 20
2086.366448643603
 30
0.0
 11
-213.5698804723834
 21
2084.899727347301
 31
0.0
  0
LINE
  5
51769
330
1F
100
AcDbEntity
  8
躯体と製品
  6
Continuous
 62
     4
100
AcDbLine
 10
-212.0081586855849
 20
2087.727403360398
 30
0.0
 11
-212.8320662396836
 21
2086.366448643603
 31
0.0
  0
LINE
  5
5176A
330
1F
100
AcDbEntity
  8
躯体と製品
  6
Continuous
 62
     4
100
AcDbLine
 10
-211.0960399823816
 20
2088.996494281099
 30
0.0
 11
-212.0081586855849
 21
2087.727403360398
 31
0.0
  0
LINE
  5
5176B
330
1F
100
AcDbEntity
  8
躯体と製品
  6
Continuous
 62
     4
100
AcDbLine
 10
-229.3542626070848
 20
2081.365726742698
 30
0.0
 11
-232.3542626070848
 21
2081.365726742698
 31
0.0
  0
LINE
  5
5176C
330
1F
100
AcDbEntity
  8
躯体と製品
  6
Continuous
 62
     4
100
AcDbLine
 10
-243.3542627933857
 20
2067.837013722398
 30
0.0
 11
-243.3542626070848
 21
2063.9964939086
 31
0.0
  0
LINE
  5
5176D
330
1F
100
AcDbEntity
  8
躯体と製品
  6
Continuous
 62
     4
100
AcDbLine
 10
-218.3542626070848
 20
2063.9964939086
 30
0.0
 11
-218.3542624207839
 21
2067.837013722398
 31
0.0
  0
LINE
  5
5176E
330
1F
100
AcDbEntity
  8
躯体と製品
  6
Continuous
 62
     4
100
AcDbLine
 10
-208.8542626070848
 20
2088.9964939086
 30
0.0
 11
-208.8542626070848
 21
2093.996493908599
 31
0.0
  0
LINE
  5
5176F
330
1F
100
AcDbEntity
  8
躯体と製品
  6
Continuous
 62
     4
100
AcDbLine
 10
-252.8542626070848
 20
2093.996493908599
 30
0.0
 11
-252.8542626070848
 21
2088.9964939086
 31
0.0
  0
LINE
  5
51770
330
1F
100
AcDbEntity
  8
躯体と製品
  6
Continuous
 62
     4
100
AcDbLine
 10
-232.3542626070848
 20
2088.9964939086
 30
0.0
 11
-232.3542626070848
 21
2063.9964939086
 31
0.0
  0
LINE
  5
51771
330
1F
100
AcDbEntity
  8
躯体と製品
  6
Continuous
 62
     4
100
AcDbLine
 10
-229.3542626070848
 20
2063.9964939086
 30
0.0
 11
-229.3542626070848
 21
2088.9964939086
 31
0.0
  0
LINE
  5
5177C
330
1F
100
AcDbEntity
  8
躯体と製品
  6
Continuous
 62
     4
100
AcDbLine
 10
37.07905941492027
 20
2098.9964939086
 30
0.0
 11
63.07905941492027
 21
2098.9964939086
 31
0.0
  0
LINE
  5
5177D
330
1F
100
AcDbEntity
  8
躯体と製品
  6
Continuous
 62
     4
100
AcDbLine
 10
2.079059414920266
 20
2123.9964939086
 30
0.0
 11
2.079059414920266
 21
2116.9964939086
 31
0.0
  0
LINE
  5
5177E
330
1F
100
AcDbEntity
  8
躯体と製品
  6
Continuous
 62
     4
100
AcDbLine
 10
39.57905941492027
 20
2123.9964939086
 30
0.0
 11
60.57905941492027
 21
2123.9964939086
 31
0.0
  0
LINE
  5
5177F
330
1F
100
AcDbEntity
  8
躯体と製品
  6
Continuous
 62
     4
100
AcDbLine
 10
37.07905941492027
 20
2099.778911844799
 30
0.0
 11
37.07905941492027
 21
2098.9964939086
 31
0.0
  0
LINE
  5
51780
330
1F
100
AcDbEntity
  8
躯体と製品
  6
Continuous
 62
     4
100
AcDbLine
 10
63.07905941492027
 20
2098.9964939086
 30
0.0
 11
63.07905941492027
 21
2099.778911844799
 31
0.0
  0
LINE
  5
51781
330
1F
100
AcDbEntity
  8
躯体と製品
  6
Continuous
 62
     4
100
AcDbLine
 10
39.07905941492027
 20
2124.296493908603
 30
0.0
 11
38.57905941492027
 21
2123.9964939086
 31
0.0
  0
LINE
  5
51782
330
1F
100
AcDbEntity
  8
躯体と製品
  6
Continuous
 62
     4
100
AcDbLine
 10
39.57905941492027
 20
2123.9964939086
 30
0.0
 11
39.07905941492027
 21
2124.296493908603
 31
0.0
  0
LINE
  5
51783
330
1F
100
AcDbEntity
  8
躯体と製品
  6
Continuous
 62
     4
100
AcDbLine
 10
61.07905941492027
 20
2124.296493908603
 30
0.0
 11
60.57905941492027
 21
2123.9964939086
 31
0.0
  0
LINE
  5
51784
330
1F
100
AcDbEntity
  8
躯体と製品
  6
Continuous
 62
     4
100
AcDbLine
 10
61.57905941492026
 20
2123.9964939086
 30
0.0
 11
61.07905941492027
 21
2124.296493908603
 31
0.0
  0
ARC
  5
51785
330
1F
100
AcDbEntity
  8
躯体と製品
  6
Continuous
 62
     4
100
AcDbCircle
 10
97.07905941492027
 20
2116.9964939086
 30
0.0
 40
1.0
100
AcDbArc
 50
270.0
 51
0.0
  0
LINE
  5
51786
330
1F
100
AcDbEntity
  8
躯体と製品
  6
Continuous
 62
     4
100
AcDbLine
 10
98.07905941492027
 20
2123.9964939086
 30
0.0
 11
98.07905941492027
 21
2116.9964939086
 31
0.0
  0
ARC
  5
51787
330
1F
100
AcDbEntity
  8
躯体と製品
  6
Continuous
 62
     4
100
AcDbCircle
 10
3.079059414920266
 20
2116.9964939086
 30
0.0
 40
1.0
100
AcDbArc
 50
180.0
 51
270.0
  0
LINE
  5
51788
330
1F
100
AcDbEntity
  8
躯体と製品
  6
Continuous
 62
     4
100
AcDbLine
 10
49.32905941492027
 20
2108.2201161606
 30
0.0
 11
49.32905941492027
 21
2115.9964939086
 31
0.0
  0
LINE
  5
51789
330
1F
100
AcDbEntity
  8
躯体と製品
  6
Continuous
 62
     4
100
AcDbLine
 10
50.82905941492026
 20
2108.2201161606
 30
0.0
 11
50.32918287172106
 21
2108.224515292999
 31
0.0
  0
LINE
  5
5178A
330
1F
100
AcDbEntity
  8
躯体と製品
  6
Continuous
 62
     4
100
AcDbLine
 10
50.32918287172106
 20
2108.224515292999
 30
0.0
 11
49.82893595791939
 21
2108.224515292999
 31
0.0
  0
LINE
  5
5178B
330
1F
100
AcDbEntity
  8
躯体と製品
  6
Continuous
 62
     4
100
AcDbLine
 10
49.82893595791939
 20
2108.224515292999
 30
0.0
 11
49.32905941492027
 21
2108.2201161606
 31
0.0
  0
LINE
  5
5178C
330
1F
100
AcDbEntity
  8
躯体と製品
  6
Continuous
 62
     4
100
AcDbLine
 10
50.82905941492026
 20
2108.2201161606
 30
0.0
 11
50.82905941492026
 21
2115.9964939086
 31
0.0
  0
LINE
  5
5178D
330
1F
100
AcDbEntity
  8
躯体と製品
  6
Continuous
 62
     4
100
AcDbLine
 10
63.9302477223191
 20
2109.281817740602
 30
0.0
 11
94.73285264671904
 21
2115.9964939086
 31
0.0
  0
LINE
  5
5178E
330
1F
100
AcDbEntity
  8
躯体と製品
  6
Continuous
 62
     4
100
AcDbLine
 10
63.70267178812174
 20
2109.000994469201
 30
0.0
 11
95.79351281851813
 21
2115.9964939086
 31
0.0
  0
LINE
  5
5178F
330
1F
100
AcDbEntity
  8
躯体と製品
  6
Continuous
 62
     4
100
AcDbLine
 10
65.4340606129208
 20
2111.137486956797
 30
0.0
 11
65.4340606129208
 21
2110.9964939086
 31
0.0
  0
LINE
  5
51790
330
1F
100
AcDbEntity
  8
躯体と製品
  6
Continuous
 62
     4
100
AcDbLine
 10
36.45544704152235
 20
2109.000994469201
 30
0.0
 11
4.364606011118667
 21
2115.9964939086
 31
0.0
  0
LINE
  5
51791
330
1F
100
AcDbEntity
  8
躯体と製品
  6
Continuous
 62
     4
100
AcDbLine
 10
36.22787110752142
 20
2109.281817740602
 30
0.0
 11
5.425266182921404
 21
2115.9964939086
 31
0.0
  0
LINE
  5
51792
330
1F
100
AcDbEntity
  8
躯体と製品
  6
Continuous
 62
     4
100
AcDbLine
 10
34.72405821691973
 20
2110.9964939086
 30
0.0
 11
34.72405821691973
 21
2111.137486956797
 31
0.0
  0
LINE
  5
51793
330
1F
100
AcDbEntity
  8
躯体と製品
  6
Continuous
 62
     4
100
AcDbLine
 10
67.50485046431823
 20
2115.9964939086
 30
0.0
 11
67.50485046431823
 21
2115.972882797601
 31
0.0
  0
LINE
  5
51794
330
1F
100
AcDbEntity
  8
躯体と製品
  6
Continuous
 62
     4
100
AcDbLine
 10
69.35260952931821
 20
2115.9964939086
 30
0.0
 11
69.35260952931821
 21
2115.972882797601
 31
0.0
  0
LINE
  5
51795
330
1F
100
AcDbEntity
  8
躯体と製品
  6
Continuous
 62
     4
100
AcDbLine
 10
69.35260952931821
 20
2115.972882797601
 30
0.0
 11
67.50485046431823
 21
2115.972882797601
 31
0.0
  0
LINE
  5
51796
330
1F
100
AcDbEntity
  8
躯体と製品
  6
Continuous
 62
     4
100
AcDbLine
 10
69.35260952931821
 20
2115.972882797601
 30
0.0
 11
55.96308313691952
 21
2099.450526790404
 31
0.0
  0
LINE
  5
51797
330
1F
100
AcDbEntity
  8
躯体と製品
  6
Continuous
 62
     4
100
AcDbLine
 10
54.11532407191953
 20
2099.450526790404
 30
0.0
 11
54.74407497112224
 21
2099.4666942052
 31
0.0
  0
LINE
  5
51798
330
1F
100
AcDbEntity
  8
躯体と製品
  6
Continuous
 62
     4
100
AcDbLine
 10
54.74407497112224
 20
2099.4666942052
 30
0.0
 11
55.360536009719
 21
2099.4666942052
 31
0.0
  0
LINE
  5
51799
330
1F
100
AcDbEntity
  8
躯体と製品
  6
Continuous
 62
     4
100
AcDbLine
 10
55.360536009719
 20
2099.4666942052
 30
0.0
 11
55.96308313691952
 21
2099.450526790404
 31
0.0
  0
LINE
  5
5179A
330
1F
100
AcDbEntity
  8
躯体と製品
  6
Continuous
 62
     4
100
AcDbLine
 10
67.50485046431823
 20
2115.972882797601
 30
0.0
 11
54.11532407191953
 21
2099.450526790404
 31
0.0
  0
LINE
  5
5179B
330
1F
100
AcDbEntity
  8
躯体と製品
  6
Continuous
 62
     4
100
AcDbLine
 10
54.11532407191953
 20
2099.450526790404
 30
0.0
 11
54.11532407191953
 21
2110.9964939086
 31
0.0
  0
LINE
  5
5179C
330
1F
100
AcDbEntity
  8
躯体と製品
  6
Continuous
 62
     4
100
AcDbLine
 10
57.74640163132244
 20
2115.9964939086
 30
0.0
 11
57.74640163132244
 21
2110.9964939086
 31
0.0
  0
LINE
  5
5179D
330
1F
100
AcDbEntity
  8
躯体と製品
  6
Continuous
 62
     4
100
AcDbLine
 10
32.65326836552231
 20
2115.972882797601
 30
0.0
 11
30.80550930052232
 21
2115.972882797601
 31
0.0
  0
LINE
  5
5179E
330
1F
100
AcDbEntity
  8
躯体と製品
  6
Continuous
 62
     4
100
AcDbLine
 10
32.65326836552231
 20
2115.972882797601
 30
0.0
 11
46.04279475792099
 21
2099.450526790404
 31
0.0
  0
LINE
  5
5179F
330
1F
100
AcDbEntity
  8
躯体と製品
  6
Continuous
 62
     4
100
AcDbLine
 10
44.19503569292101
 20
2099.450526790404
 30
0.0
 11
44.79758282012153
 21
2099.4666942052
 31
0.0
  0
LINE
  5
517A0
330
1F
100
AcDbEntity
  8
躯体と製品
  6
Continuous
 62
     4
100
AcDbLine
 10
44.79758282012153
 20
2099.4666942052
 30
0.0
 11
45.41404385852183
 21
2099.4666942052
 31
0.0
  0
LINE
  5
517A1
330
1F
100
AcDbEntity
  8
躯体と製品
  6
Continuous
 62
     4
100
AcDbLine
 10
45.41404385852183
 20
2099.4666942052
 30
0.0
 11
46.04279475792099
 21
2099.450526790404
 31
0.0
  0
LINE
  5
517A2
330
1F
100
AcDbEntity
  8
躯体と製品
  6
Continuous
 62
     4
100
AcDbLine
 10
30.80550930052232
 20
2115.972882797601
 30
0.0
 11
44.19503569292101
 21
2099.450526790404
 31
0.0
  0
LINE
  5
517A3
330
1F
100
AcDbEntity
  8
躯体と製品
  6
Continuous
 62
     4
100
AcDbLine
 10
42.41171719832164
 20
2110.9964939086
 30
0.0
 11
42.41171719832164
 21
2115.9964939086
 31
0.0
  0
LINE
  5
517A4
330
1F
100
AcDbEntity
  8
躯体と製品
  6
Continuous
 62
     4
100
AcDbLine
 10
46.04279475792099
 20
2099.450526790404
 30
0.0
 11
46.04279475792099
 21
2110.9964939086
 31
0.0
  0
LINE
  5
517A5
330
1F
100
AcDbEntity
  8
躯体と製品
  6
Continuous
 62
     4
100
AcDbLine
 10
32.65326836552231
 20
2115.9964939086
 30
0.0
 11
32.65326836552231
 21
2115.972882797601
 31
0.0
  0
LINE
  5
517A6
330
1F
100
AcDbEntity
  8
躯体と製品
  6
Continuous
 62
     4
100
AcDbLine
 10
30.80550930052232
 20
2115.9964939086
 30
0.0
 11
30.80550930052232
 21
2115.972882797601
 31
0.0
  0
LINE
  5
517A7
330
1F
100
AcDbEntity
  8
躯体と製品
  6
Continuous
 62
     4
100
AcDbLine
 10
51.30128163712107
 20
2115.9964939086
 30
0.0
 11
51.30128163712107
 21
2110.9964939086
 31
0.0
  0
LINE
  5
517A8
330
1F
100
AcDbEntity
  8
躯体と製品
  6
Continuous
 62
     4
100
AcDbLine
 10
48.85683719271947
 20
2110.9964939086
 30
0.0
 11
48.85683719271947
 21
2115.9964939086
 31
0.0
  0
LINE
  5
517A9
330
1F
100
AcDbEntity
  8
躯体と製品
  6
Continuous
 62
     4
100
AcDbLine
 10
57.12434181072058
 20
2110.9964939086
 30
0.0
 11
57.12434181072058
 21
2115.9964939086
 31
0.0
  0
LINE
  5
517AA
330
1F
100
AcDbEntity
  8
躯体と製品
  6
Continuous
 62
     4
100
AcDbLine
 10
43.03377701911995
 20
2115.9964939086
 30
0.0
 11
43.03377701911995
 21
2110.9964939086
 31
0.0
  0
LINE
  5
517AB
330
1F
100
AcDbEntity
  8
躯体と製品
  6
Continuous
 62
     4
100
AcDbLine
 10
94.07506234892025
 20
2115.621887980205
 30
0.0
 11
62.43659022071915
 21
2099.450526790404
 31
0.0
  0
LINE
  5
517AC
330
1F
100
AcDbEntity
  8
躯体と製品
  6
Continuous
 62
     4
100
AcDbLine
 10
61.67122335612112
 20
2099.450526790404
 30
0.0
 11
61.95786427812163
 21
2099.4666942052
 31
0.0
  0
LINE
  5
517AD
330
1F
100
AcDbEntity
  8
躯体と製品
  6
Continuous
 62
     4
100
AcDbLine
 10
61.95786427812163
 20
2099.4666942052
 30
0.0
 11
62.21321080091911
 21
2099.4666942052
 31
0.0
  0
LINE
  5
517AE
330
1F
100
AcDbEntity
  8
躯体と製品
  6
Continuous
 62
     4
100
AcDbLine
 10
62.21321080091911
 20
2099.4666942052
 30
0.0
 11
62.43659022071915
 21
2099.450526790404
 31
0.0
  0
LINE
  5
517AF
330
1F
100
AcDbEntity
  8
躯体と製品
  6
Continuous
 62
     4
100
AcDbLine
 10
92.74053662131882
 20
2115.330974009799
 30
0.0
 11
61.67122335612112
 21
2099.450526790404
 31
0.0
  0
LINE
  5
517B0
330
1F
100
AcDbEntity
  8
躯体と製品
  6
Continuous
 62
     4
100
AcDbLine
 10
61.67122335612112
 20
2099.450526790404
 30
0.0
 11
61.67122335612112
 21
2106.494235587599
 31
0.0
  0
LINE
  5
517B1
330
1F
100
AcDbEntity
  8
躯体と製品
  6
Continuous
 62
     4
100
AcDbLine
 10
38.48689547371942
 20
2099.450526790404
 30
0.0
 11
38.48689547371942
 21
2106.494235587599
 31
0.0
  0
LINE
  5
517B2
330
1F
100
AcDbEntity
  8
躯体と製品
  6
Continuous
 62
     4
100
AcDbLine
 10
7.41758220831798
 20
2115.330974009799
 30
0.0
 11
38.48689547371942
 21
2099.450526790404
 31
0.0
  0
LINE
  5
517B3
330
1F
100
AcDbEntity
  8
躯体と製品
  6
Continuous
 62
     4
100
AcDbLine
 10
37.72152860892129
 20
2099.450526790404
 30
0.0
 11
37.94490802891778
 21
2099.4666942052
 31
0.0
  0
LINE
  5
517B4
330
1F
100
AcDbEntity
  8
躯体と製品
  6
Continuous
 62
     4
100
AcDbLine
 10
37.94490802891778
 20
2099.4666942052
 30
0.0
 11
38.20025455172254
 21
2099.4666942052
 31
0.0
  0
LINE
  5
517B5
330
1F
100
AcDbEntity
  8
躯体と製品
  6
Continuous
 62
     4
100
AcDbLine
 10
38.20025455172254
 20
2099.4666942052
 30
0.0
 11
38.48689547371942
 21
2099.450526790404
 31
0.0
  0
LINE
  5
517B6
330
1F
100
AcDbEntity
  8
躯体と製品
  6
Continuous
 62
     4
100
AcDbLine
 10
6.083056480720188
 20
2115.621887980205
 30
0.0
 11
37.72152860892129
 21
2099.450526790404
 31
0.0
  0
LINE
  5
517B7
330
1F
100
AcDbEntity
  8
躯体と製品
  6
Continuous
 62
     4
100
AcDbLine
 10
65.4340606129208
 20
2110.9964939086
 30
0.0
 11
65.31980147592003
 21
2110.9964939086
 31
0.0
  0
LINE
  5
517B8
330
1F
100
AcDbEntity
  8
躯体と製品
  6
Continuous
 62
     4
100
AcDbLine
 10
34.8383173539205
 20
2110.9964939086
 30
0.0
 11
34.72405821691973
 21
2110.9964939086
 31
0.0
  0
LINE
  5
517B9
330
1F
100
AcDbEntity
  8
躯体と製品
  6
Continuous
 62
     4
100
AcDbLine
 10
92.97078737632
 20
2115.057460299803
 30
0.0
 11
97.07905941492027
 21
2115.9964939086
 31
0.0
  0
LINE
  5
517BA
330
1F
100
AcDbEntity
  8
躯体と製品
  6
Continuous
 62
     4
100
AcDbLine
 10
7.187331453320439
 20
2115.057460299803
 30
0.0
 11
3.079059414920266
 21
2115.9964939086
 31
0.0
  0
LINE
  5
517BB
330
1F
100
AcDbEntity
  8
躯体と製品
  6
Continuous
 62
     4
100
AcDbLine
 10
2.079059414920266
 20
2123.9964939086
 30
0.0
 11
38.57905941492027
 21
2123.9964939086
 31
0.0
  0
LINE
  5
517BC
330
1F
100
AcDbEntity
  8
躯体と製品
  6
Continuous
 62
     4
100
AcDbLine
 10
2.079059414920266
 20
2116.9964939086
 30
0.0
 11
98.07905941492027
 21
2116.9964939086
 31
0.0
  0
LINE
  5
517BD
330
1F
100
AcDbEntity
  8
躯体と製品
  6
Continuous
 62
     4
100
AcDbLine
 10
93.07905941492027
 20
2123.9964939086
 30
0.0
 11
93.07905941492027
 21
2115.9964939086
 31
0.0
  0
LINE
  5
517BE
330
1F
100
AcDbEntity
  8
躯体と製品
  6
Continuous
 62
     4
100
AcDbLine
 10
61.57905941492026
 20
2123.9964939086
 30
0.0
 11
98.07905941492027
 21
2123.9964939086
 31
0.0
  0
LINE
  5
517BF
330
1F
100
AcDbEntity
  8
躯体と製品
  6
Continuous
 62
     4
100
AcDbLine
 10
7.079059414920266
 20
2123.9964939086
 30
0.0
 11
7.079059414920266
 21
2115.9964939086
 31
0.0
  0
LINE
  5
517C0
330
1F
100
AcDbEntity
  8
躯体と製品
  6
Continuous
 62
     4
100
AcDbLine
 10
97.07905941492027
 20
2115.9964939086
 30
0.0
 11
3.079059414920266
 21
2115.9964939086
 31
0.0
  0
LINE
  5
517C1
330
1F
100
AcDbEntity
  8
躯体と製品
  6
Continuous
 62
     4
100
AcDbLine
 10
49.32905941492027
 20
2110.9964939086
 30
0.0
 11
42.41171719832164
 21
2110.9964939086
 31
0.0
  0
LINE
  5
517C2
330
1F
100
AcDbEntity
  8
躯体と製品
  6
Continuous
 62
     4
100
AcDbLine
 10
57.74640163132244
 20
2110.9964939086
 30
0.0
 11
50.82905941492026
 21
2110.9964939086
 31
0.0
  0
LINE
  5
517C3
330
1F
100
AcDbEntity
  8
中心線
  6
CENTER1
 62
     7
100
AcDbLine
 10
50.07905941492026
 20
2129.478909041159
 30
0.0
 11
50.07905941492026
 21
2001.238001927355
 31
0.0
  0
LINE
  5
517C4
330
1F
100
AcDbEntity
  8
躯体と製品
  6
Continuous
 62
     4
100
AcDbLine
 10
61.57905941492026
 20
2143.9964939086
 30
0.0
 11
61.57905941492026
 21
2123.9964939086
 31
0.0
  0
LINE
  5
517C5
330
1F
100
AcDbEntity
  8
躯体と製品
  6
Continuous
 62
     4
100
AcDbLine
 10
38.57905941492027
 20
2143.9964939086
 30
0.0
 11
38.57905941492027
 21
2123.9964939086
 31
0.0
  0
LWPOLYLINE
  5
517C6
330
1F
100
AcDbEntity
  8
文字-記号
 62
     7
100
AcDbPolyline
 90
        3
 70
     0
 43
0.0
 10
77.11868198901356
 20
2107.541781765912
 10
89.1533395481456
 20
2086.697143421802
 10
151.6194121822809
 20
2086.697143421802
  0
TEXT
  5
517C7
330
1F
100
AcDbEntity
  8
文字-記号
 62
     7
100
AcDbText
 10
92.59287680553461
 20
2089.175796906071
 30
0.0
 40
9.0
  1
ボード受け
100
AcDbText
  0
LWPOLYLINE
  5
517C8
330
1F
100
AcDbEntity
  8
文字-記号
 62
     7
100
AcDbPolyline
 90
        3
 70
     0
 43
0.0
 10
-41.91051102381334
 20
2155.9964939086
 10
-8.713271509476726
 20
2213.495799418462
 10
131.1301184400518
 20
2213.495799418462
  0
TEXT
  5
517C9
330
1F
100
AcDbEntity
  8
文字-記号
 62
     7
100
AcDbText
 10
-5.831555196439694
 20
2218.633955845759
 30
0.0
 40
9.0
  1
フローリング t＝１２ｍｍ
100
AcDbText
  0
LWPOLYLINE
  5
517CA
330
1F
100
AcDbEntity
  8
文字-記号
 62
     7
100
AcDbPolyline
 90
        3
 70
     0
 43
0.0
 10
-20.01653122369589
 20
2134.109392409505
 10
8.551980361721689
 20
2183.59150597207
 10
175.2675472331439
 20
2183.59150597207
  0
TEXT
  5
517CB
330
1F
100
AcDbEntity
  8
文字-記号
 62
     7
100
AcDbText
 10
11.43369667476054
 20
2188.729662399367
 30
0.0
 40
9.0
  1
パーティクルボード t＝２０ｍｍ
100
AcDbText
  0
DIMENSION
  5
517CC
330
1F
100
AcDbEntity
  8
寸法
  6
Continuous
100
AcDbDimension
  2
*D1
 10
218.38586994461
 20
2143.9964939086
 30
0.0
 11
210.8858699446097
 21
2074.9964939086
 31
0.0
 70
    32
  1
h
 71
     5
 42
138.0
  3
AutoCAD
100
AcDbAlignedDimension
 13
179.1539889446103
 23
2005.9964939086
 33
0.0
 14
179.1539889446103
 24
2143.9964939086
 34
0.0
 50
90.0
100
AcDbRotatedDimension
1001
ACAD
1000
DSTYLE
1002
{
1070
   140
1040
9.0
1002
}
  0
LINE
  5
517CD
330
1F
100
AcDbEntity
  8
躯体と製品
  6
Continuous
 62
     4
100
AcDbLine
 10
51.57905941492026
 20
2098.9964939086
 30
0.0
 11
51.57905941492209
 21
2067.996494003551
 31
0.0
  0
LINE
  5
517CE
330
1F
100
AcDbEntity
  8
躯体と製品
  6
Continuous
 62
     4
100
AcDbLine
 10
40.07905941492026
 20
2098.9964939086
 30
0.0
 11
40.07905941492208
 21
2067.996494003551
 31
0.0
  0
LINE
  5
517CF
330
1F
100
AcDbEntity
  8
躯体と製品
  6
Continuous
 62
     4
100
AcDbLine
 10
48.57905941492027
 20
2098.9964939086
 30
0.0
 11
48.57905941492209
 21
2067.996494003551
 31
0.0
  0
LINE
  5
517D0
330
1F
100
AcDbEntity
  8
躯体と製品
  6
Continuous
 62
     4
100
AcDbLine
 10
41.43205941492306
 20
2098.9964939086
 30
0.0
 11
41.43205941492488
 21
2067.996494003551
 31
0.0
  0
LINE
  5
517D1
330
1F
100
AcDbEntity
  8
躯体と製品
  6
Continuous
 62
     4
100
AcDbLine
 10
60.07905941492026
 20
2098.9964939086
 30
0.0
 11
60.07905941492208
 21
2067.996494003551
 31
0.0
  0
LINE
  5
517D2
330
1F
100
AcDbEntity
  8
躯体と製品
  6
Continuous
 62
     4
100
AcDbLine
 10
58.72605941492111
 20
2098.9964939086
 30
0.0
 11
58.72605941492293
 21
2067.996494003551
 31
0.0
  0
LINE
  5
517D3
330
1F
100
AcDbEntity
  8
躯体と製品
  6
Continuous
 62
     4
100
AcDbLine
 10
41.57905941492209
 20
2037.996494003551
 30
0.0
 11
41.57905941492209
 21
2067.996494003551
 31
0.0
  0
LINE
  5
517D4
330
1F
100
AcDbEntity
  8
躯体と製品
  6
Continuous
 62
     4
100
AcDbLine
 10
58.57905941492209
 20
2037.996494003551
 30
0.0
 11
58.57905941492209
 21
2067.996494003551
 31
0.0
  0
TEXT
  5
517D5
330
1F
100
AcDbEntity
  8
文字-記号
 62
     7
100
AcDbText
 10
-101.3356911397886
 20
2061.52015785886
 30
0.0
 40
9.0
  1
クッションＬＣＢＢゴム
100
AcDbText
  0
LWPOLYLINE
  5
517D6
330
1F
100
AcDbEntity
  8
文字-記号
 62
     7
100
AcDbPolyline
 90
        3
 70
     0
 43
0.0
 10
33.82905941491845
 20
2025.996494003551
 10
16.28597852189432
 20
2056.382001431563
 10
-103.7140214781056
 20
2056.382001431563
  0
ARC
  5
517D7
330
1F
100
AcDbEntity
  8
躯体と製品
  6
Continuous
 62
     4
100
AcDbCircle
 10
32.57905941491845
 20
2010.996494003551
 30
0.0
 40
3.0
100
AcDbArc
 50
90.0
 51
270.0
  0
LINE
  5
517D8
330
1F
100
AcDbEntity
  8
躯体と製品
  6
Continuous
 62
     4
100
AcDbLine
 10
38.49327340757009
 20
2005.9964939086
 30
0.0
 11
61.66484542227045
 21
2005.9964939086
 31
0.0
  0
LINE
  5
517D9
330
1F
100
AcDbEntity
  8
躯体と製品
  6
Continuous
 62
     4
100
AcDbLine
 10
36.13968342576845
 20
2007.170142193348
 30
0.0
 11
36.49327307977001
 21
2006.996493956105
 31
0.0
  0
LINE
  5
517DA
330
1F
100
AcDbEntity
  8
躯体と製品
  6
Continuous
 62
     4
100
AcDbLine
 10
35.78425254706599
 20
2007.338514138953
 30
0.0
 11
36.13968342576845
 21
2007.170142193348
 31
0.0
  0
LINE
  5
517DB
330
1F
100
AcDbEntity
  8
躯体と製品
  6
Continuous
 62
     4
100
AcDbLine
 10
35.43777912891892
 20
2007.496493979803
 30
0.0
 11
35.78425254706599
 21
2007.338514138953
 31
0.0
  0
LINE
  5
517DC
330
1F
100
AcDbEntity
  8
躯体と製品
  6
Continuous
 62
     4
100
AcDbLine
 10
35.110789910319
 20
2007.639281621204
 30
0.0
 11
35.43777912891892
 21
2007.496493979803
 31
0.0
  0
LINE
  5
517DD
330
1F
100
AcDbEntity
  8
躯体と製品
  6
Continuous
 62
     4
100
AcDbLine
 10
34.81322210317012
 20
2007.762538453202
 30
0.0
 11
35.110789910319
 21
2007.639281621204
 31
0.0
  0
LINE
  5
517DE
330
1F
100
AcDbEntity
  8
躯体と製品
  6
Continuous
 62
     4
100
AcDbLine
 10
34.55411512441788
 20
2007.862519409502
 30
0.0
 11
34.81322210317012
 21
2007.762538453202
 31
0.0
  0
LINE
  5
517DF
330
1F
100
AcDbEntity
  8
躯体と製品
  6
Continuous
 62
     4
100
AcDbLine
 10
34.3413433063688
 20
2007.936186625005
 30
0.0
 11
34.55411512441788
 21
2007.862519409502
 31
0.0
  0
LINE
  5
517E0
330
1F
100
AcDbEntity
  8
躯体と製品
  6
Continuous
 62
     4
100
AcDbLine
 10
34.18137189036861
 20
2007.981301756803
 30
0.0
 11
34.3413433063688
 21
2007.936186625005
 31
0.0
  0
LINE
  5
517E1
330
1F
100
AcDbEntity
  8
躯体と製品
  6
Continuous
 62
     4
100
AcDbLine
 10
34.0790586549665
 20
2007.996494003551
 30
0.0
 11
34.18137189036861
 21
2007.981301756803
 31
0.0
  0
LINE
  5
517E2
330
1F
100
AcDbEntity
  8
躯体と製品
  6
Continuous
 62
     4
100
AcDbLine
 10
36.49327307977001
 20
2006.996493956105
 30
0.0
 11
38.49327340757009
 21
2005.9964939086
 31
0.0
  0
LINE
  5
517E3
330
1F
100
AcDbEntity
  8
躯体と製品
  6
Continuous
 62
     4
100
AcDbLine
 10
61.66484542227045
 20
2005.9964939086
 30
0.0
 11
63.66484575006689
 21
2006.996493956105
 31
0.0
  0
LINE
  5
517E4
330
1F
100
AcDbEntity
  8
躯体と製品
  6
Continuous
 62
     4
100
AcDbLine
 10
65.97674693946828
 20
2007.981301756803
 30
0.0
 11
66.07906017487039
 21
2007.996494003551
 31
0.0
  0
LINE
  5
517E5
330
1F
100
AcDbEntity
  8
躯体と製品
  6
Continuous
 62
     4
100
AcDbLine
 10
65.81677552347173
 20
2007.936186625005
 30
0.0
 11
65.97674693946828
 21
2007.981301756803
 31
0.0
  0
LINE
  5
517E6
330
1F
100
AcDbEntity
  8
躯体と製品
  6
Continuous
 62
     4
100
AcDbLine
 10
65.60400370541902
 20
2007.862519409502
 30
0.0
 11
65.81677552347173
 21
2007.936186625005
 31
0.0
  0
LINE
  5
517E7
330
1F
100
AcDbEntity
  8
躯体と製品
  6
Continuous
 62
     4
100
AcDbLine
 10
65.34489672667041
 20
2007.762538453202
 30
0.0
 11
65.60400370541902
 21
2007.862519409502
 31
0.0
  0
LINE
  5
517E8
330
1F
100
AcDbEntity
  8
躯体と製品
  6
Continuous
 62
     4
100
AcDbLine
 10
65.04732891951789
 20
2007.639281621204
 30
0.0
 11
65.34489672667041
 21
2007.762538453202
 31
0.0
  0
LINE
  5
517E9
330
1F
100
AcDbEntity
  8
躯体と製品
  6
Continuous
 62
     4
100
AcDbLine
 10
64.72033970091797
 20
2007.496493979803
 30
0.0
 11
65.04732891951789
 21
2007.639281621204
 31
0.0
  0
LINE
  5
517EA
330
1F
100
AcDbEntity
  8
躯体と製品
  6
Continuous
 62
     4
100
AcDbLine
 10
64.37386628276726
 20
2007.338514138953
 30
0.0
 11
64.72033970091797
 21
2007.496493979803
 31
0.0
  0
LINE
  5
517EB
330
1F
100
AcDbEntity
  8
躯体と製品
  6
Continuous
 62
     4
100
AcDbLine
 10
64.01843540406844
 20
2007.170142193348
 30
0.0
 11
64.37386628276726
 21
2007.338514138953
 31
0.0
  0
LINE
  5
517EC
330
1F
100
AcDbEntity
  8
躯体と製品
  6
Continuous
 62
     4
100
AcDbLine
 10
63.66484575006689
 20
2006.996493956105
 30
0.0
 11
64.01843540406844
 21
2007.170142193348
 31
0.0
  0
LINE
  5
517ED
330
1F
100
AcDbEntity
  8
躯体と製品
  6
Continuous
 62
     4
100
AcDbLine
 10
51.06386714651671
 20
2007.170142193348
 30
0.0
 11
51.07905946241953
 21
2006.996493956105
 31
0.0
  0
LINE
  5
517EE
330
1F
100
AcDbEntity
  8
躯体と製品
  6
Continuous
 62
     4
100
AcDbLine
 10
51.01875201831717
 20
2007.338514138953
 30
0.0
 11
51.06386714651671
 21
2007.170142193348
 31
0.0
  0
LINE
  5
517EF
330
1F
100
AcDbEntity
  8
躯体と製品
  6
Continuous
 62
     4
100
AcDbLine
 10
50.94508481016601
 20
2007.496493979803
 30
0.0
 11
51.01875201831717
 21
2007.338514138953
 31
0.0
  0
LINE
  5
517F0
330
1F
100
AcDbEntity
  8
躯体と製品
  6
Continuous
 62
     4
100
AcDbLine
 10
50.84510383931775
 20
2007.639281621204
 30
0.0
 11
50.94508481016601
 21
2007.496493979803
 31
0.0
  0
LINE
  5
517F1
330
1F
100
AcDbEntity
  8
躯体と製品
  6
Continuous
 62
     4
100
AcDbLine
 10
50.72184702181766
 20
2007.762538453202
 30
0.0
 11
50.84510383931775
 21
2007.639281621204
 31
0.0
  0
LINE
  5
517F2
330
1F
100
AcDbEntity
  8
躯体と製品
  6
Continuous
 62
     4
100
AcDbLine
 10
50.57905943866717
 20
2007.862519409502
 30
0.0
 11
50.72184702181766
 21
2007.762538453202
 31
0.0
  0
LINE
  5
517F3
330
1F
100
AcDbEntity
  8
躯体と製品
  6
Continuous
 62
     4
100
AcDbLine
 10
50.42107956867039
 20
2007.936186625005
 30
0.0
 11
50.57905943866717
 21
2007.862519409502
 31
0.0
  0
LINE
  5
517F4
330
1F
100
AcDbEntity
  8
躯体と製品
  6
Continuous
 62
     4
100
AcDbLine
 10
50.25270759396881
 20
2007.981301756803
 30
0.0
 11
50.42107956867039
 21
2007.936186625005
 31
0.0
  0
LINE
  5
517F5
330
1F
100
AcDbEntity
  8
躯体と製品
  6
Continuous
 62
     4
100
AcDbLine
 10
50.07905941491845
 20
2007.996494003551
 30
0.0
 11
50.25270759396881
 21
2007.981301756803
 31
0.0
  0
LINE
  5
517F6
330
1F
100
AcDbEntity
  8
躯体と製品
  6
Continuous
 62
     4
100
AcDbLine
 10
51.07905946241953
 20
2006.996493956105
 30
0.0
 11
51.07905946241953
 21
2005.9964939086
 31
0.0
  0
LINE
  5
517F7
330
1F
100
AcDbEntity
  8
躯体と製品
  6
Continuous
 62
     4
100
AcDbLine
 10
58.56434032356992
 20
2005.9964939086
 30
0.0
 11
61.3927679139706
 21
2007.996494003551
 31
0.0
  0
LINE
  5
517F8
330
1F
100
AcDbEntity
  8
躯体と製品
  6
Continuous
 62
     4
100
AcDbLine
 10
49.079059367421
 20
2005.9964939086
 30
0.0
 11
49.079059367421
 21
2006.996493956105
 31
0.0
  0
LINE
  5
517F9
330
1F
100
AcDbEntity
  8
躯体と製品
  6
Continuous
 62
     4
100
AcDbLine
 10
49.90541123586808
 20
2007.981301756803
 30
0.0
 11
50.07905941491845
 21
2007.996494003551
 31
0.0
  0
LINE
  5
517FA
330
1F
100
AcDbEntity
  8
躯体と製品
  6
Continuous
 62
     4
100
AcDbLine
 10
49.7370392611665
 20
2007.936186625005
 30
0.0
 11
49.90541123586808
 21
2007.981301756803
 31
0.0
  0
LINE
  5
517FB
330
1F
100
AcDbEntity
  8
躯体と製品
  6
Continuous
 62
     4
100
AcDbLine
 10
49.57905939116972
 20
2007.862519409502
 30
0.0
 11
49.7370392611665
 21
2007.936186625005
 31
0.0
  0
LINE
  5
517FC
330
1F
100
AcDbEntity
  8
躯体と製品
  6
Continuous
 62
     4
100
AcDbLine
 10
49.43627180801922
 20
2007.762538453202
 30
0.0
 11
49.57905939116972
 21
2007.862519409502
 31
0.0
  0
LINE
  5
517FD
330
1F
100
AcDbEntity
  8
躯体と製品
  6
Continuous
 62
     4
100
AcDbLine
 10
49.31301499051915
 20
2007.639281621204
 30
0.0
 11
49.43627180801922
 21
2007.762538453202
 31
0.0
  0
LINE
  5
517FE
330
1F
100
AcDbEntity
  8
躯体と製品
  6
Continuous
 62
     4
100
AcDbLine
 10
49.21303401966724
 20
2007.496493979803
 30
0.0
 11
49.31301499051915
 21
2007.639281621204
 31
0.0
  0
LINE
  5
517FF
330
1F
100
AcDbEntity
  8
躯体と製品
  6
Continuous
 62
     4
100
AcDbLine
 10
49.13936681151608
 20
2007.338514138953
 30
0.0
 11
49.21303401966724
 21
2007.496493979803
 31
0.0
  0
LINE
  5
51800
330
1F
100
AcDbEntity
  8
躯体と製品
  6
Continuous
 62
     4
100
AcDbLine
 10
49.09425168332018
 20
2007.170142193348
 30
0.0
 11
49.13936681151608
 21
2007.338514138953
 31
0.0
  0
LINE
  5
51801
330
1F
100
AcDbEntity
  8
躯体と製品
  6
Continuous
 62
     4
100
AcDbLine
 10
49.079059367421
 20
2006.996493956105
 30
0.0
 11
49.09425168332018
 21
2007.170142193348
 31
0.0
  0
LINE
  5
51802
330
1F
100
AcDbEntity
  8
躯体と製品
  6
Continuous
 62
     4
100
AcDbLine
 10
35.07905941491845
 20
2037.996494003551
 30
0.0
 11
65.07905941491845
 21
2037.996494003551
 31
0.0
  0
LINE
  5
51803
330
1F
100
AcDbEntity
  8
躯体と製品
  6
Continuous
 62
     4
100
AcDbLine
 10
32.57905941491845
 20
2013.996494003551
 30
0.0
 11
50.07905941491845
 21
2013.996494003551
 31
0.0
  0
LINE
  5
51804
330
1F
100
AcDbEntity
  8
躯体と製品
  6
Continuous
 62
     4
100
AcDbLine
 10
50.07905941491845
 20
2013.996494003551
 30
0.0
 11
67.57905941491845
 21
2013.996494003551
 31
0.0
  0
LINE
  5
51805
330
1F
100
AcDbEntity
  8
躯体と製品
  6
Continuous
 62
     4
100
AcDbLine
 10
35.07905941491845
 20
2037.996494003551
 30
0.0
 11
32.57905941491845
 21
2013.996494003551
 31
0.0
  0
LINE
  5
51806
330
1F
100
AcDbEntity
  8
躯体と製品
  6
Continuous
 62
     4
100
AcDbLine
 10
67.57905941491845
 20
2013.996494003551
 30
0.0
 11
65.07905941491845
 21
2037.996494003551
 31
0.0
  0
ARC
  5
51807
330
1F
100
AcDbEntity
  8
躯体と製品
  6
Continuous
 62
     4
100
AcDbCircle
 10
67.57905941491845
 20
2010.996494003551
 30
0.0
 40
3.0
100
AcDbArc
 50
270.0
 51
90.0
  0
LINE
  5
51808
330
1F
100
AcDbEntity
  8
躯体と製品
  6
Continuous
 62
     4
100
AcDbLine
 10
41.59377850626697
 20
2005.9964939086
 30
0.0
 11
38.76535091586629
 21
2007.996494003551
 31
0.0
  0
LINE
  5
51809
330
1F
100
AcDbEntity
  8
躯体と製品
  6
Continuous
 62
     4
100
AcDbLine
 10
32.57905941491845
 20
2007.996494003551
 30
0.0
 11
67.57905941491845
 21
2007.996494003551
 31
0.0
  0
LINE
  5
5180A
330
1F
100
AcDbEntity
  8
躯体と製品
  6
Continuous
 62
     4
100
AcDbLine
 10
40.07905941492208
 20
2067.996494003551
 30
0.0
 11
60.07905941492208
 21
2067.996494003551
 31
0.0
  0
LINE
  5
5180B
330
1F
100
AcDbEntity
  8
躯体と製品
 62
     3
100
AcDbLine
 10
-221.5124272489847
 20
2005.9964939086
 30
0.0
 11
-241.5124272489848
 21
1985.9964939086
 31
0.0
  0
LINE
  5
5180C
330
1F
100
AcDbEntity
  8
躯体と製品
 62
     3
100
AcDbLine
 10
-214.4413594371217
 20
2005.9964939086
 30
0.0
 11
-234.4413594371217
 21
1985.9964939086
 31
0.0
  0
LINE
  5
5180D
330
1F
100
AcDbEntity
  8
躯体と製品
 62
     3
100
AcDbLine
 10
-207.3702916252514
 20
2005.9964939086
 30
0.0
 11
-227.3702916252514
 21
1985.9964939086
 31
0.0
  0
LINE
  5
5180E
330
1F
100
AcDbEntity
  8
躯体と製品
 62
     3
100
AcDbLine
 10
-46.51242724898475
 20
2005.9964939086
 30
0.0
 11
-66.51242724898475
 21
1985.9964939086
 31
0.0
  0
LINE
  5
5180F
330
1F
100
AcDbEntity
  8
躯体と製品
 62
     3
100
AcDbLine
 10
-39.44135943712172
 20
2005.9964939086
 30
0.0
 11
-59.44135943712172
 21
1985.9964939086
 31
0.0
  0
LINE
  5
51810
330
1F
100
AcDbEntity
  8
躯体と製品
 62
     3
100
AcDbLine
 10
-32.37029162525141
 20
2005.9964939086
 30
0.0
 11
-52.37029162525141
 21
1985.9964939086
 31
0.0
  0
LINE
  5
51811
330
1F
100
AcDbEntity
  8
躯体と製品
 62
     3
100
AcDbLine
 10
-370.3542626070339
 20
2032.154658550551
 30
0.0
 11
-416.5124272489847
 21
1985.9964939086
 31
0.0
  0
LINE
  5
51812
330
1F
100
AcDbEntity
  8
躯体と製品
 62
     3
100
AcDbLine
 10
-370.3542626070339
 20
2025.083590738688
 30
0.0
 11
-409.4413594371217
 21
1985.9964939086
 31
0.0
  0
LINE
  5
51813
330
1F
100
AcDbEntity
  8
躯体と製品
 62
     3
100
AcDbLine
 10
-370.3542626070339
 20
2018.012522926818
 30
0.0
 11
-402.3702916252513
 21
1985.9964939086
 31
0.0
  0
LINE
  5
51814
330
1F
100
AcDbEntity
  8
躯体と製品
 62
     3
100
AcDbLine
 10
-537.4358967618909
 20
2040.073024395694
 30
0.0
 11
-550.3542626070339
 21
2027.15465855055
 31
0.0
  0
LINE
  5
51815
330
1F
100
AcDbEntity
  8
躯体と製品
 62
     3
100
AcDbLine
 10
-529.7220046034945
 20
2040.715848742228
 30
0.0
 11
-550.354262607033
 21
2020.083590738688
 31
0.0
  0
LINE
  5
51816
330
1F
100
AcDbEntity
  8
躯体と製品
 62
     3
100
AcDbLine
 10
-522.0081124450907
 20
2041.358673088762
 30
0.0
 11
-550.3542626070339
 21
2013.012522926818
 31
0.0
  0
LINE
  5
51817
330
1F
100
AcDbEntity
  8
躯体と製品
 62
     3
100
AcDbLine
 10
128.4875727510152
 20
2005.9964939086
 30
0.0
 11
108.4875727510152
 21
1985.9964939086
 31
0.0
  0
LINE
  5
51818
330
1F
100
AcDbEntity
  8
躯体と製品
 62
     3
100
AcDbLine
 10
135.5586405628782
 20
2005.9964939086
 30
0.0
 11
115.5586405628783
 21
1985.9964939086
 31
0.0
  0
LINE
  5
51819
330
1F
100
AcDbEntity
  8
躯体と製品
 62
     3
100
AcDbLine
 10
142.6297083747486
 20
2005.9964939086
 30
0.0
 11
122.6297083747486
 21
1985.9964939086
 31
0.0
  0
LINE
  5
518D0
330
1F
100
AcDbEntity
  8
文字-記号
  6
Continuous
 62
     3
100
AcDbLine
 10
-191.7521192298091
 20
2229.817248908599
 30
0.0
 11
-191.7521192298091
 21
2255.996493908599
 31
0.0
  0
LINE
  5
518D1
330
1F
100
AcDbEntity
  8
文字-記号
  6
Continuous
 62
     3
100
AcDbLine
 10
-140.8087232298103
 20
2229.817248908599
 30
0.0
 11
-191.7521192298091
 21
2229.817248908599
 31
0.0
  0
LINE
  5
518D2
330
1F
100
AcDbEntity
  8
文字-記号
  6
Continuous
 62
     3
100
AcDbLine
 10
-140.8087232298103
 20
2255.996493908599
 30
0.0
 11
-140.8087232298103
 21
2229.817248908599
 31
0.0
  0
LINE
  5
518D3
330
1F
100
AcDbEntity
  8
文字-記号
  6
Continuous
 62
     3
100
AcDbLine
 10
-191.7521192298091
 20
2255.996493908599
 30
0.0
 11
-140.8087232298103
 21
2255.996493908599
 31
0.0
  0
TEXT
  5
518D4
330
1F
100
AcDbEntity
  8
文字-記号
  6
Continuous
 62
     4
100
AcDbText
 10
-182.1522772227663
 20
2234.496773625582
 30
0.0
 40
15.0
  1
ＬＤ
  7
ACAD
100
AcDbText
  0
LWPOLYLINE
  5
518DA
330
1F
100
AcDbEntity
  8
文字-記号
 62
     7
100
AcDbPolyline
 90
        3
 70
     0
 43
0.0
 10
-222.5488777187357
 20
2118.312003761785
 10
-184.8597395450633
 20
2183.591505972069
 10
-80.96208805127753
 20
2183.591505972069
  0
TEXT
  5
518DB
330
1F
100
AcDbEntity
  8
文字-記号
 62
     7
100
AcDbText
 10
-181.9780232320263
 20
2188.729662399366
 30
0.0
 40
9.0
  1
防音システム際根太
100
AcDbText
  0
TEXT
  5
518E1
330
1F
100
AcDbEntity
  8
文字-記号
  6
Continuous
 62
     3
100
AcDbText
 10
-552.7345864031622
 20
2279.785472788308
 30
0.0
 40
15.0
  1
【ホームベース ＬＣＢＢ-N：掃出し詳細図】
  7
ACAD
100
AcDbText
  0
LINE
  5
518ED
330
1F
100
AcDbEntity
  8
躯体と製品
  6
Continuous
 62
     3
100
AcDbLine
 10
-425.3542626070339
 20
2153.9964939086
 30
0.0
 11
-425.3542626070339
 21
2110.996493908599
 31
0.0
  0
CIRCLE
  5
51969
330
1F
100
AcDbEntity
  8
躯体と製品
  6
Continuous
 62
     3
100
AcDbCircle
 10
-243.3542626070339
 20
2137.9964939086
 30
0.0
 40
0.9999999999999998
  0
CIRCLE
  5
5196A
330
1F
100
AcDbEntity
  8
躯体と製品
  6
Continuous
 62
     3
100
AcDbCircle
 10
-233.3542626070339
 20
2137.9964939086
 30
0.0
 40
0.9999999999999998
  0
CIRCLE
  5
5196B
330
1F
100
AcDbEntity
  8
躯体と製品
  6
Continuous
 62
     3
100
AcDbCircle
 10
-213.3542626070339
 20
2137.9964939086
 30
0.0
 40
0.9999999999999998
  0
CIRCLE
  5
5196C
330
1F
100
AcDbEntity
  8
躯体と製品
  6
Continuous
 62
     3
100
AcDbCircle
 10
-203.3542626070339
 20
2137.9964939086
 30
0.0
 40
0.9999999999999998
  0
CIRCLE
  5
5196D
330
1F
100
AcDbEntity
  8
躯体と製品
  6
Continuous
 62
     3
100
AcDbCircle
 10
-193.3542626070339
 20
2137.9964939086
 30
0.0
 40
0.9999999999999998
  0
CIRCLE
  5
5196E
330
1F
100
AcDbEntity
  8
躯体と製品
  6
Continuous
 62
     3
100
AcDbCircle
 10
-173.3542626070339
 20
2137.9964939086
 30
0.0
 40
0.9999999999999998
  0
CIRCLE
  5
5196F
330
1F
100
AcDbEntity
  8
躯体と製品
  6
Continuous
 62
     3
100
AcDbCircle
 10
-163.3542626070339
 20
2137.9964939086
 30
0.0
 40
0.9999999999999998
  0
CIRCLE
  5
51970
330
1F
100
AcDbEntity
  8
躯体と製品
  6
Continuous
 62
     3
100
AcDbCircle
 10
-233.3542626070339
 20
2129.9964939086
 30
0.0
 40
0.9999999999999998
  0
CIRCLE
  5
51971
330
1F
100
AcDbEntity
  8
躯体と製品
  6
Continuous
 62
     3
100
AcDbCircle
 10
-223.3542626070339
 20
2129.9964939086
 30
0.0
 40
0.9999999999999998
  0
CIRCLE
  5
51972
330
1F
100
AcDbEntity
  8
躯体と製品
  6
Continuous
 62
     3
100
AcDbCircle
 10
-213.3542626070339
 20
2129.9964939086
 30
0.0
 40
0.9999999999999998
  0
CIRCLE
  5
51973
330
1F
100
AcDbEntity
  8
躯体と製品
  6
Continuous
 62
     3
100
AcDbCircle
 10
-193.3542626070339
 20
2129.9964939086
 30
0.0
 40
0.9999999999999998
  0
CIRCLE
  5
51974
330
1F
100
AcDbEntity
  8
躯体と製品
  6
Continuous
 62
     3
100
AcDbCircle
 10
-183.3542626070339
 20
2129.9964939086
 30
0.0
 40
0.9999999999999998
  0
CIRCLE
  5
51975
330
1F
100
AcDbEntity
  8
躯体と製品
  6
Continuous
 62
     3
100
AcDbCircle
 10
-173.3542626070339
 20
2129.9964939086
 30
0.0
 40
0.9999999999999998
  0
CIRCLE
  5
51976
330
1F
100
AcDbEntity
  8
躯体と製品
  6
Continuous
 62
     3
100
AcDbCircle
 10
-248.3542626070339
 20
2133.9964939086
 30
0.0
 40
0.9999999999999998
  0
CIRCLE
  5
51977
330
1F
100
AcDbEntity
  8
躯体と製品
  6
Continuous
 62
     3
100
AcDbCircle
 10
-208.3542626070339
 20
2133.9964939086
 30
0.0
 40
0.9999999999999998
  0
CIRCLE
  5
51978
330
1F
100
AcDbEntity
  8
躯体と製品
  6
Continuous
 62
     3
100
AcDbCircle
 10
-240.8542626070339
 20
2127.9964939086
 30
0.0
 40
0.9999999999999998
  0
CIRCLE
  5
51979
330
1F
100
AcDbEntity
  8
躯体と製品
  6
Continuous
 62
     3
100
AcDbCircle
 10
-200.8542626070339
 20
2127.9964939086
 30
0.0
 40
0.9999999999999998
  0
CIRCLE
  5
5197A
330
1F
100
AcDbEntity
  8
躯体と製品
  6
Continuous
 62
     3
100
AcDbCircle
 10
-225.8542626070339
 20
2139.9964939086
 30
0.0
 40
0.9999999999999998
  0
CIRCLE
  5
5197B
330
1F
100
AcDbEntity
  8
躯体と製品
  6
Continuous
 62
     3
100
AcDbCircle
 10
-185.8542626070338
 20
2139.9964939086
 30
0.0
 40
0.9999999999999998
  0
CIRCLE
  5
5197C
330
1F
100
AcDbEntity
  8
躯体と製品
  6
Continuous
 62
     3
100
AcDbCircle
 10
-160.8542626070339
 20
2127.9964939086
 30
0.0
 40
0.9999999999999998
  0
CIRCLE
  5
5197D
330
1F
100
AcDbEntity
  8
躯体と製品
  6
Continuous
 62
     3
100
AcDbCircle
 10
-145.8542626070339
 20
2139.9964939086
 30
0.0
 40
0.9999999999999998
  0
CIRCLE
  5
5197E
330
1F
100
AcDbEntity
  8
躯体と製品
  6
Continuous
 62
     3
100
AcDbCircle
 10
-105.8542626070339
 20
2139.9964939086
 30
0.0
 40
0.9999999999999998
  0
CIRCLE
  5
5197F
330
1F
100
AcDbEntity
  8
躯体と製品
  6
Continuous
 62
     3
100
AcDbCircle
 10
-65.85426260703389
 20
2139.9964939086
 30
0.0
 40
0.9999999999999998
  0
CIRCLE
  5
51980
330
1F
100
AcDbEntity
  8
躯体と製品
  6
Continuous
 62
     3
100
AcDbCircle
 10
-25.85426260703389
 20
2139.9964939086
 30
0.0
 40
0.9999999999999998
  0
CIRCLE
  5
51981
330
1F
100
AcDbEntity
  8
躯体と製品
  6
Continuous
 62
     3
100
AcDbCircle
 10
14.14573739296611
 20
2139.9964939086
 30
0.0
 40
0.9999999999999998
  0
CIRCLE
  5
51982
330
1F
100
AcDbEntity
  8
躯体と製品
  6
Continuous
 62
     3
100
AcDbCircle
 10
94.14573739296612
 20
2139.9964939086
 30
0.0
 40
0.9999999999999998
  0
CIRCLE
  5
51983
330
1F
100
AcDbEntity
  8
躯体と製品
  6
Continuous
 62
     3
100
AcDbCircle
 10
134.1457373929661
 20
2139.9964939086
 30
0.0
 40
0.9999999999999998
  0
CIRCLE
  5
51984
330
1F
100
AcDbEntity
  8
躯体と製品
  6
Continuous
 62
     3
100
AcDbCircle
 10
174.1457373929661
 20
2139.9964939086
 30
0.0
 40
0.9999999999999998
  0
CIRCLE
  5
51985
330
1F
100
AcDbEntity
  8
躯体と製品
  6
Continuous
 62
     3
100
AcDbCircle
 10
-80.85426260703389
 20
2127.9964939086
 30
0.0
 40
0.9999999999999998
  0
CIRCLE
  5
51986
330
1F
100
AcDbEntity
  8
躯体と製品
  6
Continuous
 62
     3
100
AcDbCircle
 10
-40.85426260703388
 20
2127.9964939086
 30
0.0
 40
0.9999999999999998
  0
CIRCLE
  5
51987
330
1F
100
AcDbEntity
  8
躯体と製品
  6
Continuous
 62
     3
100
AcDbCircle
 10
-0.8542626070338883
 20
2127.9964939086
 30
0.0
 40
0.9999999999999998
  0
CIRCLE
  5
51988
330
1F
100
AcDbEntity
  8
躯体と製品
  6
Continuous
 62
     3
100
AcDbCircle
 10
79.51176279675109
 20
2127.630468504815
 30
0.0
 40
0.9999999999999998
  0
CIRCLE
  5
51989
330
1F
100
AcDbEntity
  8
躯体と製品
  6
Continuous
 62
     3
100
AcDbCircle
 10
119.5117627967511
 20
2127.630468504815
 30
0.0
 40
0.9999999999999998
  0
CIRCLE
  5
5198A
330
1F
100
AcDbEntity
  8
躯体と製品
  6
Continuous
 62
     3
100
AcDbCircle
 10
-153.3542626070339
 20
2137.9964939086
 30
0.0
 40
0.9999999999999998
  0
CIRCLE
  5
5198B
330
1F
100
AcDbEntity
  8
躯体と製品
  6
Continuous
 62
     3
100
AcDbCircle
 10
-133.3542626070339
 20
2137.9964939086
 30
0.0
 40
0.9999999999999998
  0
CIRCLE
  5
5198C
330
1F
100
AcDbEntity
  8
躯体と製品
  6
Continuous
 62
     3
100
AcDbCircle
 10
-113.3542626070339
 20
2137.9964939086
 30
0.0
 40
0.9999999999999998
  0
CIRCLE
  5
5198D
330
1F
100
AcDbEntity
  8
躯体と製品
  6
Continuous
 62
     3
100
AcDbCircle
 10
-93.35426260703389
 20
2137.9964939086
 30
0.0
 40
0.9999999999999998
  0
CIRCLE
  5
5198E
330
1F
100
AcDbEntity
  8
躯体と製品
  6
Continuous
 62
     3
100
AcDbCircle
 10
-83.35426260703389
 20
2137.9964939086
 30
0.0
 40
0.9999999999999998
  0
CIRCLE
  5
5198F
330
1F
100
AcDbEntity
  8
躯体と製品
  6
Continuous
 62
     3
100
AcDbCircle
 10
-153.3542626070339
 20
2129.9964939086
 30
0.0
 40
0.9999999999999998
  0
CIRCLE
  5
51990
330
1F
100
AcDbEntity
  8
躯体と製品
  6
Continuous
 62
     3
100
AcDbCircle
 10
-143.3542626070339
 20
2129.9964939086
 30
0.0
 40
0.9999999999999998
  0
CIRCLE
  5
51991
330
1F
100
AcDbEntity
  8
躯体と製品
  6
Continuous
 62
     3
100
AcDbCircle
 10
-133.3542626070339
 20
2129.9964939086
 30
0.0
 40
0.9999999999999998
  0
CIRCLE
  5
51992
330
1F
100
AcDbEntity
  8
躯体と製品
  6
Continuous
 62
     3
100
AcDbCircle
 10
-113.3542626070339
 20
2129.9964939086
 30
0.0
 40
0.9999999999999998
  0
CIRCLE
  5
51993
330
1F
100
AcDbEntity
  8
躯体と製品
  6
Continuous
 62
     3
100
AcDbCircle
 10
-103.3542626070339
 20
2129.9964939086
 30
0.0
 40
0.9999999999999998
  0
CIRCLE
  5
51994
330
1F
100
AcDbEntity
  8
躯体と製品
  6
Continuous
 62
     3
100
AcDbCircle
 10
-93.35426260703389
 20
2129.9964939086
 30
0.0
 40
0.9999999999999998
  0
CIRCLE
  5
51995
330
1F
100
AcDbEntity
  8
躯体と製品
  6
Continuous
 62
     3
100
AcDbCircle
 10
-53.35426260703389
 20
2137.9964939086
 30
0.0
 40
0.9999999999999998
  0
CIRCLE
  5
51996
330
1F
100
AcDbEntity
  8
躯体と製品
  6
Continuous
 62
     3
100
AcDbCircle
 10
-43.35426260703388
 20
2137.9964939086
 30
0.0
 40
0.9999999999999998
  0
CIRCLE
  5
51997
330
1F
100
AcDbEntity
  8
躯体と製品
  6
Continuous
 62
     3
100
AcDbCircle
 10
-33.35426260703389
 20
2137.9964939086
 30
0.0
 40
0.9999999999999998
  0
CIRCLE
  5
51998
330
1F
100
AcDbEntity
  8
躯体と製品
  6
Continuous
 62
     3
100
AcDbCircle
 10
-13.35426260703389
 20
2137.9964939086
 30
0.0
 40
0.9999999999999998
  0
CIRCLE
  5
51999
330
1F
100
AcDbEntity
  8
躯体と製品
  6
Continuous
 62
     3
100
AcDbCircle
 10
-3.354262607033888
 20
2137.9964939086
 30
0.0
 40
0.9999999999999998
  0
CIRCLE
  5
5199A
330
1F
100
AcDbEntity
  8
躯体と製品
  6
Continuous
 62
     3
100
AcDbCircle
 10
-63.35426260703389
 20
2129.9964939086
 30
0.0
 40
0.9999999999999998
  0
CIRCLE
  5
5199B
330
1F
100
AcDbEntity
  8
躯体と製品
  6
Continuous
 62
     3
100
AcDbCircle
 10
-53.35426260703389
 20
2129.9964939086
 30
0.0
 40
0.9999999999999998
  0
CIRCLE
  5
5199C
330
1F
100
AcDbEntity
  8
躯体と製品
  6
Continuous
 62
     3
100
AcDbCircle
 10
-33.35426260703389
 20
2129.9964939086
 30
0.0
 40
0.9999999999999998
  0
CIRCLE
  5
5199D
330
1F
100
AcDbEntity
  8
躯体と製品
  6
Continuous
 62
     3
100
AcDbCircle
 10
-23.35426260703389
 20
2129.9964939086
 30
0.0
 40
0.9999999999999998
  0
CIRCLE
  5
5199E
330
1F
100
AcDbEntity
  8
躯体と製品
  6
Continuous
 62
     3
100
AcDbCircle
 10
-13.35426260703389
 20
2129.9964939086
 30
0.0
 40
0.9999999999999998
  0
CIRCLE
  5
5199F
330
1F
100
AcDbEntity
  8
躯体と製品
  6
Continuous
 62
     3
100
AcDbCircle
 10
6.645737392966111
 20
2137.9964939086
 30
0.0
 40
0.9999999999999998
  0
CIRCLE
  5
519A0
330
1F
100
AcDbEntity
  8
躯体と製品
  6
Continuous
 62
     3
100
AcDbCircle
 10
26.64573739296611
 20
2137.9964939086
 30
0.0
 40
0.9999999999999998
  0
CIRCLE
  5
519A1
330
1F
100
AcDbEntity
  8
躯体と製品
  6
Continuous
 62
     3
100
AcDbCircle
 10
36.64573739296611
 20
2137.9964939086
 30
0.0
 40
0.9999999999999998
  0
CIRCLE
  5
519A2
330
1F
100
AcDbEntity
  8
躯体と製品
  6
Continuous
 62
     3
100
AcDbCircle
 10
66.64573739296611
 20
2137.9964939086
 30
0.0
 40
0.9999999999999998
  0
CIRCLE
  5
519A3
330
1F
100
AcDbEntity
  8
躯体と製品
  6
Continuous
 62
     3
100
AcDbCircle
 10
76.64573739296611
 20
2137.9964939086
 30
0.0
 40
0.9999999999999998
  0
CIRCLE
  5
519A4
330
1F
100
AcDbEntity
  8
躯体と製品
  6
Continuous
 62
     3
100
AcDbCircle
 10
6.645737392966111
 20
2129.9964939086
 30
0.0
 40
0.9999999999999998
  0
CIRCLE
  5
519A5
330
1F
100
AcDbEntity
  8
躯体と製品
  6
Continuous
 62
     3
100
AcDbCircle
 10
16.64573739296611
 20
2129.9964939086
 30
0.0
 40
0.9999999999999998
  0
CIRCLE
  5
519A6
330
1F
100
AcDbEntity
  8
躯体と製品
  6
Continuous
 62
     3
100
AcDbCircle
 10
26.64573739296611
 20
2129.9964939086
 30
0.0
 40
0.9999999999999998
  0
CIRCLE
  5
519A7
330
1F
100
AcDbEntity
  8
躯体と製品
  6
Continuous
 62
     3
100
AcDbCircle
 10
66.64573739296611
 20
2129.9964939086
 30
0.0
 40
0.9999999999999998
  0
CIRCLE
  5
519A8
330
1F
100
AcDbEntity
  8
躯体と製品
  6
Continuous
 62
     3
100
AcDbCircle
 10
86.64573739296612
 20
2137.9964939086
 30
0.0
 40
0.9999999999999998
  0
CIRCLE
  5
519A9
330
1F
100
AcDbEntity
  8
躯体と製品
  6
Continuous
 62
     3
100
AcDbCircle
 10
106.6457373929661
 20
2137.9964939086
 30
0.0
 40
0.9999999999999998
  0
CIRCLE
  5
519AA
330
1F
100
AcDbEntity
  8
躯体と製品
  6
Continuous
 62
     3
100
AcDbCircle
 10
116.6457373929661
 20
2137.9964939086
 30
0.0
 40
0.9999999999999998
  0
CIRCLE
  5
519AB
330
1F
100
AcDbEntity
  8
躯体と製品
  6
Continuous
 62
     3
100
AcDbCircle
 10
126.6457373929661
 20
2137.9964939086
 30
0.0
 40
0.9999999999999998
  0
CIRCLE
  5
519AC
330
1F
100
AcDbEntity
  8
躯体と製品
  6
Continuous
 62
     3
100
AcDbCircle
 10
146.6457373929661
 20
2137.9964939086
 30
0.0
 40
0.9999999999999998
  0
CIRCLE
  5
519AD
330
1F
100
AcDbEntity
  8
躯体と製品
  6
Continuous
 62
     3
100
AcDbCircle
 10
86.64573739296612
 20
2129.9964939086
 30
0.0
 40
0.9999999999999998
  0
CIRCLE
  5
519AE
330
1F
100
AcDbEntity
  8
躯体と製品
  6
Continuous
 62
     3
100
AcDbCircle
 10
96.64573739296612
 20
2129.9964939086
 30
0.0
 40
0.9999999999999998
  0
CIRCLE
  5
519AF
330
1F
100
AcDbEntity
  8
躯体と製品
  6
Continuous
 62
     3
100
AcDbCircle
 10
106.6457373929661
 20
2129.9964939086
 30
0.0
 40
0.9999999999999998
  0
CIRCLE
  5
519B0
330
1F
100
AcDbEntity
  8
躯体と製品
  6
Continuous
 62
     3
100
AcDbCircle
 10
126.6457373929661
 20
2129.9964939086
 30
0.0
 40
0.9999999999999998
  0
CIRCLE
  5
519B1
330
1F
100
AcDbEntity
  8
躯体と製品
  6
Continuous
 62
     3
100
AcDbCircle
 10
136.6457373929661
 20
2129.9964939086
 30
0.0
 40
0.9999999999999998
  0
CIRCLE
  5
519B2
330
1F
100
AcDbEntity
  8
躯体と製品
  6
Continuous
 62
     3
100
AcDbCircle
 10
146.6457373929661
 20
2129.9964939086
 30
0.0
 40
0.9999999999999998
  0
CIRCLE
  5
519B3
330
1F
100
AcDbEntity
  8
躯体と製品
  6
Continuous
 62
     3
100
AcDbCircle
 10
-168.3542626070339
 20
2133.9964939086
 30
0.0
 40
0.9999999999999998
  0
CIRCLE
  5
519B4
330
1F
100
AcDbEntity
  8
躯体と製品
  6
Continuous
 62
     3
100
AcDbCircle
 10
-88.35426260703389
 20
2133.9964939086
 30
0.0
 40
0.9999999999999998
  0
CIRCLE
  5
519B5
330
1F
100
AcDbEntity
  8
躯体と製品
  6
Continuous
 62
     3
100
AcDbCircle
 10
-48.35426260703389
 20
2133.9964939086
 30
0.0
 40
0.9999999999999998
  0
CIRCLE
  5
519B6
330
1F
100
AcDbEntity
  8
躯体と製品
  6
Continuous
 62
     3
100
AcDbCircle
 10
-8.354262607033888
 20
2133.9964939086
 30
0.0
 40
0.9999999999999998
  0
CIRCLE
  5
519B7
330
1F
100
AcDbEntity
  8
躯体と製品
  6
Continuous
 62
     3
100
AcDbCircle
 10
31.64573739296611
 20
2133.9964939086
 30
0.0
 40
0.9999999999999998
  0
CIRCLE
  5
519B8
330
1F
100
AcDbEntity
  8
躯体と製品
  6
Continuous
 62
     3
100
AcDbCircle
 10
71.64573739296611
 20
2133.9964939086
 30
0.0
 40
0.9999999999999998
  0
CIRCLE
  5
519B9
330
1F
100
AcDbEntity
  8
躯体と製品
  6
Continuous
 62
     3
100
AcDbCircle
 10
111.6457373929661
 20
2133.9964939086
 30
0.0
 40
0.9999999999999998
  0
CIRCLE
  5
519BA
330
1F
100
AcDbEntity
  8
躯体と製品
  6
Continuous
 62
     3
100
AcDbCircle
 10
151.6457373929661
 20
2133.9964939086
 30
0.0
 40
0.9999999999999998
  0
CIRCLE
  5
51A0E
330
1F
100
AcDbEntity
  8
躯体と製品
  6
Continuous
 62
     3
100
AcDbCircle
 10
-73.35426260703389
 20
2137.9964939086
 30
0.0
 40
0.9999999999999998
  0
CIRCLE
  5
51A0F
330
1F
100
AcDbEntity
  8
躯体と製品
  6
Continuous
 62
     3
100
AcDbCircle
 10
-73.35426260703389
 20
2129.9964939086
 30
0.0
 40
0.9999999999999998
  0
CIRCLE
  5
51A10
330
1F
100
AcDbEntity
  8
躯体と製品
  6
Continuous
 62
     3
100
AcDbCircle
 10
159.5117627967511
 20
2127.630468504815
 30
0.0
 40
0.9999999999999998
  0
CIRCLE
  5
51A11
330
1F
100
AcDbEntity
  8
躯体と製品
  6
Continuous
 62
     3
100
AcDbCircle
 10
156.6457373929661
 20
2137.9964939086
 30
0.0
 40
0.9999999999999998
  0
CIRCLE
  5
51A12
330
1F
100
AcDbEntity
  8
躯体と製品
  6
Continuous
 62
     3
100
AcDbCircle
 10
166.6457373929661
 20
2137.9964939086
 30
0.0
 40
0.9999999999999998
  0
CIRCLE
  5
51A13
330
1F
100
AcDbEntity
  8
躯体と製品
  6
Continuous
 62
     3
100
AcDbCircle
 10
166.6457373929661
 20
2129.9964939086
 30
0.0
 40
0.9999999999999998
  0
LINE
  5
52341
330
1F
100
AcDbEntity
  8
躯体と製品
  6
Continuous
 62
     4
100
AcDbLine
 10
-136.3992819591112
 20
2155.9964939086
 30
0.0
 11
-261.3542626070339
 21
2155.9964939086
 31
0.0
  0
LINE
  5
52342
330
1F
100
AcDbEntity
  8
躯体と製品
  6
Continuous
 62
     4
100
AcDbLine
 10
-117.9240733450442
 20
2123.9964939086
 30
0.0
 11
-253.3542626070339
 21
2123.9964939086
 31
0.0
  0
LINE
  5
52343
330
1F
100
AcDbEntity
  8
躯体と製品
  6
Continuous
 62
     4
100
AcDbLine
 10
-129.4710787288368
 20
2143.9964939086
 30
0.0
 11
-261.3542626070339
 21
2143.9964939086
 31
0.0
  0
LINE
  5
52373
330
1F
100
AcDbEntity
  8
躯体と製品
  6
Continuous
 62
     4
100
AcDbLine
 10
-357.8542626070339
 20
2157.9964939086
 30
0.0
 11
-357.8542626070339
 21
2148.996493908599
 31
0.0
  0
LINE
  5
52374
330
1F
100
AcDbEntity
  8
躯体と製品
  6
Continuous
 62
     4
100
AcDbLine
 10
-357.8542626070339
 20
2148.996493908599
 30
0.0
 11
-375.3542626070339
 21
2148.996493908599
 31
0.0
  0
LINE
  5
52375
330
1F
100
AcDbEntity
  8
躯体と製品
  6
Continuous
 62
     4
100
AcDbLine
 10
-375.3542626070339
 20
2148.996493908599
 30
0.0
 11
-375.3542626070339
 21
2138.996493908599
 31
0.0
  0
LINE
  5
52376
330
1F
100
AcDbEntity
  8
躯体と製品
  6
Continuous
 62
     4
100
AcDbLine
 10
-375.3542626070339
 20
2138.996493908599
 30
0.0
 11
-265.3542626070339
 21
2138.996493908599
 31
0.0
  0
LINE
  5
52377
330
1F
100
AcDbEntity
  8
躯体と製品
  6
Continuous
 62
     4
100
AcDbLine
 10
-265.3542626070339
 20
2138.996493908599
 30
0.0
 11
-265.3542626070339
 21
2157.9964939086
 31
0.0
  0
LINE
  5
52378
330
1F
100
AcDbEntity
  8
躯体と製品
  6
Continuous
 62
     4
100
AcDbLine
 10
-265.3542626070339
 20
2157.9964939086
 30
0.0
 11
-357.854262607033
 21
2157.9964939086
 31
0.0
  0
LINE
  5
52379
330
1F
100
AcDbEntity
  8
躯体と製品
  6
Continuous
 62
     4
100
AcDbLine
 10
-357.854262607033
 20
2157.9964939086
 30
0.0
 11
-357.854262607033
 21
2148.996493908599
 31
0.0
  0
LINE
  5
5237A
330
1F
100
AcDbEntity
  8
躯体と製品
  6
Continuous
 62
     4
100
AcDbLine
 10
-357.854262607033
 20
2148.996493908599
 30
0.0
 11
-375.3542626070339
 21
2148.996493908599
 31
0.0
  0
LINE
  5
5237B
330
1F
100
AcDbEntity
  8
躯体と製品
  6
Continuous
 62
     3
100
AcDbLine
 10
-342.3722616070081
 20
2138.996493908599
 30
0.0
 11
-323.3722616070081
 21
2157.9964939086
 31
0.0
  0
LINE
  5
5237C
330
1F
100
AcDbEntity
  8
躯体と製品
  6
Continuous
 62
     3
100
AcDbLine
 10
-354.3722616070081
 20
2138.996493908599
 30
0.0
 11
-335.3722616070081
 21
2157.9964939086
 31
0.0
  0
LINE
  5
5237D
330
1F
100
AcDbEntity
  8
躯体と製品
  6
Continuous
 62
     3
100
AcDbLine
 10
-366.3722616070081
 20
2138.996493908599
 30
0.0
 11
-347.3722616070081
 21
2157.9964939086
 31
0.0
  0
LINE
  5
5237E
330
1F
100
AcDbEntity
  8
躯体と製品
  6
Continuous
 62
     3
100
AcDbLine
 10
-375.3542626070339
 20
2142.014492908574
 30
0.0
 11
-368.3722616070081
 21
2148.996493908599
 31
0.0
  0
LINE
  5
5237F
330
1F
100
AcDbEntity
  8
躯体と製品
  6
Continuous
 62
     4
100
AcDbLine
 10
-268.3542626070339
 20
2121.04785604759
 30
0.0
 11
-265.4056247460248
 21
2123.996493908606
 31
0.0
1001
GradientColor1ACI
1070
     5
1001
GradientColor2ACI
1070
     2
1001
ACAD
1010
0.0
1020
0.0
1030
0.0
  0
LINE
  5
52380
330
1F
100
AcDbEntity
  8
躯体と製品
  6
Continuous
 62
     4
100
AcDbLine
 10
-268.3542626070339
 20
2116.557727987049
 30
0.0
 11
-260.9154966854912
 21
2123.996493908599
 31
0.0
1001
GradientColor1ACI
1070
     5
1001
GradientColor2ACI
1070
     2
1001
ACAD
1010
0.0
1020
0.0
1030
0.0
  0
LINE
  5
52381
330
1F
100
AcDbEntity
  8
躯体と製品
  6
Continuous
 62
     4
100
AcDbLine
 10
-268.3542626070339
 20
2112.067599926518
 30
0.0
 11
-256.4253686249576
 21
2123.996493908595
 31
0.0
1001
GradientColor1ACI
1070
     5
1001
GradientColor2ACI
1070
     2
1001
ACAD
1010
0.0
1020
0.0
1030
0.0
  0
LINE
  5
52382
330
1F
100
AcDbEntity
  8
躯体と製品
  6
Continuous
 62
     4
100
AcDbLine
 10
-268.3542626070339
 20
2107.577471865981
 30
0.0
 11
-253.3542626070339
 21
2122.577471865982
 31
0.0
1001
GradientColor1ACI
1070
     5
1001
GradientColor2ACI
1070
     2
1001
ACAD
1010
0.0
1020
0.0
1030
0.0
  0
LINE
  5
52383
330
1F
100
AcDbEntity
  8
躯体と製品
  6
Continuous
 62
     4
100
AcDbLine
 10
-268.3542626070412
 20
2103.087343805444
 30
0.0
 11
-253.3542626070339
 21
2118.087343805452
 31
0.0
1001
GradientColor1ACI
1070
     5
1001
GradientColor2ACI
1070
     2
1001
ACAD
1010
0.0
1020
0.0
1030
0.0
  0
LINE
  5
52384
330
1F
100
AcDbEntity
  8
躯体と製品
  6
Continuous
 62
     4
100
AcDbLine
 10
-268.3542626070339
 20
2098.597215744914
 30
0.0
 11
-253.3542626070339
 21
2113.597215744914
 31
0.0
1001
GradientColor1ACI
1070
     5
1001
GradientColor2ACI
1070
     2
1001
ACAD
1010
0.0
1020
0.0
1030
0.0
  0
LINE
  5
52385
330
1F
100
AcDbEntity
  8
躯体と製品
  6
Continuous
 62
     4
100
AcDbLine
 10
-268.3542626070412
 20
2094.107087684373
 30
0.0
 11
-253.3542626070412
 21
2109.107087684373
 31
0.0
1001
GradientColor1ACI
1070
     5
1001
GradientColor2ACI
1070
     2
1001
ACAD
1010
0.0
1020
0.0
1030
0.0
  0
LINE
  5
52386
330
1F
100
AcDbEntity
  8
躯体と製品
  6
Continuous
 62
     4
100
AcDbLine
 10
-263.9747283222823
 20
2093.996493908599
 30
0.0
 11
-253.3542626070412
 21
2104.616959623847
 31
0.0
1001
GradientColor1ACI
1070
     5
1001
GradientColor2ACI
1070
     2
1001
ACAD
1010
0.0
1020
0.0
1030
0.0
  0
LINE
  5
52387
330
1F
100
AcDbEntity
  8
躯体と製品
  6
Continuous
 62
     4
100
AcDbLine
 10
-259.4846002617487
 20
2093.996493908599
 30
0.0
 11
-253.3542626070339
 21
2100.126831563313
 31
0.0
1001
GradientColor1ACI
1070
     5
1001
GradientColor2ACI
1070
     2
1001
ACAD
1010
0.0
1020
0.0
1030
0.0
  0
LINE
  5
52388
330
1F
100
AcDbEntity
  8
躯体と製品
  6
Continuous
 62
     4
100
AcDbLine
 10
-254.9944722012151
 20
2093.996493908595
 30
0.0
 11
-253.3542626070339
 21
2095.636703502776
 31
0.0
1001
GradientColor1ACI
1070
     5
1001
GradientColor2ACI
1070
     2
1001
ACAD
1010
0.0
1020
0.0
1030
0.0
  0
LINE
  5
52389
330
1F
100
AcDbEntity
  8
躯体と製品
  6
Continuous
 62
     4
100
AcDbLine
 10
-268.3542626070339
 20
2093.996493908599
 30
0.0
 11
-253.3542626070339
 21
2093.996493908599
 31
0.0
  0
LINE
  5
5238A
330
1F
100
AcDbEntity
  8
躯体と製品
  6
Continuous
 62
     4
100
AcDbLine
 10
-253.3542626070339
 20
2093.996493908599
 30
0.0
 11
-253.3542626070339
 21
2123.996493908599
 31
0.0
  0
LINE
  5
5238B
330
1F
100
AcDbEntity
  8
躯体と製品
  6
Continuous
 62
     4
100
AcDbLine
 10
-253.3542626070339
 20
2123.996493908599
 30
0.0
 11
-268.3542626070339
 21
2123.996493908599
 31
0.0
  0
LINE
  5
5238C
330
1F
100
AcDbEntity
  8
躯体と製品
  6
Continuous
 62
     4
100
AcDbLine
 10
-268.3542626070339
 20
2123.996493908599
 30
0.0
 11
-268.3542626070339
 21
2093.996493908599
 31
0.0
  0
LINE
  5
5238D
330
1F
100
AcDbEntity
  8
躯体と製品
  6
Continuous
 62
     3
100
AcDbLine
 10
-265.3542626070339
 20
2157.9964939086
 30
0.0
 11
-258.3542626070339
 21
2157.9964939086
 31
0.0
  0
LINE
  5
5238E
330
1F
100
AcDbEntity
  8
躯体と製品
  6
Continuous
 62
     3
100
AcDbLine
 10
-258.3542626070339
 20
2157.9964939086
 30
0.0
 11
-254.8901609919048
 21
2155.996493908599
 31
0.0
  0
LINE
  5
5238F
330
1F
100
AcDbEntity
  8
躯体と製品
  6
Continuous
 62
     3
100
AcDbLine
 10
-254.8901609919048
 20
2155.996493908599
 30
0.0
 11
-263.3542626070339
 21
2155.9964939086
 31
0.0
  0
LINE
  5
52390
330
1F
100
AcDbEntity
  8
躯体と製品
  6
Continuous
 62
     3
100
AcDbLine
 10
-263.3542626070339
 20
2155.9964939086
 30
0.0
 11
-263.3542626070339
 21
2138.996493908599
 31
0.0
  0
LINE
  5
52391
330
1F
100
AcDbEntity
  8
躯体と製品
  6
Continuous
 62
     3
100
AcDbLine
 10
-263.3542626070339
 20
2138.996493908599
 30
0.0
 11
-265.3542626070339
 21
2138.996493908599
 31
0.0
  0
LINE
  5
52392
330
1F
100
AcDbEntity
  8
躯体と製品
  6
Continuous
 62
     3
100
AcDbLine
 10
-265.3542626070339
 20
2138.996493908599
 30
0.0
 11
-265.3542626070339
 21
2157.9964939086
 31
0.0
  0
LINE
  5
52393
330
1F
100
AcDbEntity
  8
躯体と製品
  6
Continuous
 62
     3
100
AcDbLine
 10
-306.3722616070081
 20
2138.996493908599
 30
0.0
 11
-287.3722616070081
 21
2157.9964939086
 31
0.0
  0
LINE
  5
52394
330
1F
100
AcDbEntity
  8
躯体と製品
  6
Continuous
 62
     3
100
AcDbLine
 10
-318.3722616070081
 20
2138.996493908599
 30
0.0
 11
-299.3722616070081
 21
2157.9964939086
 31
0.0
  0
LINE
  5
52395
330
1F
100
AcDbEntity
  8
躯体と製品
  6
Continuous
 62
     3
100
AcDbLine
 10
-330.3722616070081
 20
2138.996493908599
 30
0.0
 11
-311.3722616070081
 21
2157.9964939086
 31
0.0
  0
LINE
  5
52396
330
1F
100
AcDbEntity
  8
躯体と製品
  6
Continuous
 62
     3
100
AcDbLine
 10
-270.3722616070081
 20
2138.996493908599
 30
0.0
 11
-265.3542626070339
 21
2144.014492908574
 31
0.0
  0
LINE
  5
52397
330
1F
100
AcDbEntity
  8
躯体と製品
  6
Continuous
 62
     3
100
AcDbLine
 10
-282.3722616070081
 20
2138.996493908599
 30
0.0
 11
-265.3542626070339
 21
2156.014492908574
 31
0.0
  0
LINE
  5
52398
330
1F
100
AcDbEntity
  8
躯体と製品
  6
Continuous
 62
     3
100
AcDbLine
 10
-294.3722616070081
 20
2138.996493908599
 30
0.0
 11
-275.3722616070081
 21
2157.9964939086
 31
0.0
  0
LINE
  5
52399
330
1F
100
AcDbEntity
  8
躯体と製品
  6
Continuous
 62
     4
100
AcDbLine
 10
-253.3542626070339
 20
2123.9964939086
 30
0.0
 11
-253.3542626070339
 21
2143.9964939086
 31
0.0
  0
LINE
  5
5239A
330
1F
100
AcDbEntity
  8
躯体と製品
  6
Continuous
 62
     4
100
AcDbLine
 10
-261.3542626070339
 20
2143.9964939086
 30
0.0
 11
-261.3542626070339
 21
2155.9964939086
 31
0.0
  0
LINE
  5
523CE
330
1F
100
AcDbEntity
  8
躯体と製品
  6
Continuous
 62
     4
100
AcDbLine
 10
-131.3992819591112
 20
2155.9964939086
 30
0.0
 11
176.1539889446103
 21
2155.9964939086
 31
0.0
  0
LINE
  5
523CF
330
1F
100
AcDbEntity
  8
躯体と製品
  6
Continuous
 62
     4
100
AcDbLine
 10
-112.9240733450442
 20
2123.9964939086
 30
0.0
 11
176.1539889446103
 21
2123.9964939086
 31
0.0
  0
LINE
  5
523D0
330
1F
100
AcDbEntity
  8
躯体と製品
  6
Continuous
 62
     4
100
AcDbLine
 10
-124.4710787288368
 20
2143.9964939086
 30
0.0
 11
176.1539889446103
 21
2143.9964939086
 31
0.0
  0
LINE
  5
523D1
330
1F
100
AcDbEntity
  8
躯体と製品
  6
Continuous
 62
     4
100
AcDbLine
 10
-138.7497041080587
 20
2160.06754448981
 30
0.0
 11
-115.5736511960967
 21
2119.92544332739
 31
0.0
  0
LINE
  5
523D2
330
1F
100
AcDbEntity
  8
躯体と製品
  6
Continuous
 62
     4
100
AcDbLine
 10
-133.7497041080587
 20
2160.06754448981
 30
0.0
 11
-110.5736511960967
 21
2119.92544332739
 31
0.0
  0
TEXT
  5
5270F
330
1F
100
AcDbEntity
  8
文字-記号
 62
     7
100
AcDbText
 10
-332.2019294588344
 20
2189.230171833739
 30
0.0
 40
9.0
  1
オプション
100
AcDbText
  0
LWPOLYLINE
  5
52710
330
1F
100
AcDbEntity
  8
文字-記号
 62
     7
100
AcDbPolyline
 90
        3
 70
     0
 43
0.0
 10
-261.8542626070339
 20
2157.9964939086
 10
-277.9517529116383
 20
2185.878164990521
 10
-333.7184485339906
 20
2185.878164990521
  0
ENDSEC
  0
SECTION
  2
OBJECTS
  0
DICTIONARY
  5
C
330
0
100
AcDbDictionary
281
     1
  3
ACAD_2007HEADERVARS_RT
350
52A50
  3
ACAD_BACKGROUND
350
522E8
  3
ACAD_CIP_PREVIOUS_PRODUCT_INFO
350
4BCB7
  3
ACAD_COLOR
350
22756
  3
ACAD_GROUP
350
D
  3
ACAD_LAYOUT
350
1A
  3
ACAD_MATERIAL
350
2272C
  3
ACAD_MLEADERSTYLE
350
2276B
  3
ACAD_MLINESTYLE
350
17
  3
ACAD_PLOTSETTINGS
350
19
  3
ACAD_PLOTSTYLENAME
350
E
  3
ACAD_SCALELIST
350
22759
  3
ACAD_TABLESTYLE
350
22757
  3
ACAD_VISUALSTYLE
350
22745
  3
ACDB_RECOMPOSE_DATA
350
52A4F
  3
AcDbVariableDictionary
350
173D
  3
AEC_PROPERTY_SET_DEFS
350
2284D
  3
ASE_INDEX_DICTIONARY
350
22728
  0
DICTIONARY
  5
52616
330
8
100
AcDbDictionary
280
     1
281
     1
  0
DICTIONARY
  5
1562
330
2
100
AcDbDictionary
280
     1
281
     1
  3
ACAD_LAYERFILTERS
360
1574
  3
ACAD_LAYERSTATES
360
1563
  0
DICTIONARY
  5
22778
330
10
100
AcDbDictionary
280
     1
281
     1
  3
ADSK_XREC_LAYER_RECONCILED
360
5259A
  0
DICTIONARY
  5
4BDA6
330
4BDA5
100
AcDbDictionary
280
     1
281
     1
  3
ADSK_XREC_LAYER_RECONCILED
360
5259E
  0
DICTIONARY
  5
4BDA8
330
4BDA7
100
AcDbDictionary
280
     1
281
     1
  3
ADSK_XREC_LAYER_RECONCILED
360
5259F
  0
DICTIONARY
  5
4BDAA
330
4BDA9
100
AcDbDictionary
280
     1
281
     1
  3
ADSK_XREC_LAYER_RECONCILED
360
525A0
  0
DICTIONARY
  5
525A1
330
4BDAB
100
AcDbDictionary
280
     1
281
     1
  3
ADSK_XREC_LAYER_RECONCILED
360
525A2
  0
DICTIONARY
  5
3662
330
1F
100
AcDbDictionary
280
     1
281
     1
  3
ACAD_LAYOUTSELFREF
360
36B2
  3
ACAD_SORTENTS
360
23806
  0
DICTIONARY
  5
52A50
102
{ACAD_REACTORS
330
C
102
}
330
C
100
AcDbDictionary
281
     1
  3
DIMTFILL
350
52A51
  3
INTERFEREVPVS
350
52A52
  0
DICTIONARY
  5
522E8
102
{ACAD_REACTORS
330
C
102
}
330
C
100
AcDbDictionary
281
     1
  0
XRECORD
  5
4BCB7
102
{ACAD_REACTORS
330
C
102
}
330
C
100
AcDbXrecord
280
     1
300
ACD
300
2012
300
ACD_F_S
  0
DICTIONARY
  5
22756
102
{ACAD_REACTORS
330
C
102
}
330
C
100
AcDbDictionary
281
     1
  0
DICTIONARY
  5
D
102
{ACAD_REACTORS
330
C
102
}
330
C
100
AcDbDictionary
281
     1
  0
DICTIONARY
  5
1A
102
{ACAD_REACTORS
330
C
102
}
330
C
100
AcDbDictionary
281
     1
  3
Model
350
22
  3
レイアウト1
350
525BB
  0
DICTIONARY
  5
2272C
102
{ACAD_REACTORS
330
C
102
}
330
C
100
AcDbDictionary
281
     1
  3
ByBlock
350
22735
  3
ByLayer
350
2272D
  3
Global
350
2273D
  0
DICTIONARY
  5
2276B
102
{ACAD_REACTORS
330
C
102
}
330
C
100
AcDbDictionary
281
     1
  3
Standard
350
2276C
  0
DICTIONARY
  5
17
102
{ACAD_REACTORS
330
C
102
}
330
C
100
AcDbDictionary
281
     1
  3
Standard
350
18
  0
DICTIONARY
  5
19
102
{ACAD_REACTORS
330
C
102
}
330
C
100
AcDbDictionary
281
     1
  3
A1横-DocuWide 2051 MF-RT
350
2288E
  3
A1横-PDF_COR
350
4BB79
  3
A1横-PDF_MONO
350
4BB70
  3
A2横-DocuWide 2051 MF-RT
350
228A9
  3
A3横-DocuCentre C4535Ⅰ②
350
2883A
  3
A3横-DocuCentre C4535Ⅰ②_cor
350
4BB56
  3
A4横-DocuCentre C4535Ⅰ②
350
228B2
  3
A4横-DocuCentre C4535Ⅰ②_cor
350
4BB5F
  0
ACDBDICTIONARYWDFLT
  5
E
102
{ACAD_REACTORS
330
C
102
}
330
C
100
AcDbDictionary
281
     1
  3
Normal
350
F
100
AcDbDictionaryWithDefault
340
F
  0
DICTIONARY
  5
22759
102
{ACAD_REACTORS
330
C
102
}
330
C
100
AcDbDictionary
281
     1
  3
A0
350
2275A
  3
A1
350
22924
  3
A2
350
22925
  3
A3
350
22926
  3
A4
350
22927
  3
A5
350
22928
  3
A6
350
22929
  3
A7
350
2292A
  3
A8
350
2292B
  3
A9
350
2292C
  3
B0
350
2292D
  3
B1
350
2292E
  3
B2
350
2292F
  3
B3
350
22930
  3
B4
350
22931
  3
B5
350
22765
  3
B6
350
22932
  3
B7
350
22933
  3
B8
350
22934
  3
B9
350
22935
  3
C0
350
22936
  0
DICTIONARY
  5
22757
102
{ACAD_REACTORS
330
C
102
}
330
C
100
AcDbDictionary
281
     1
  3
Standard
350
22758
  0
DICTIONARY
  5
22745
102
{ACAD_REACTORS
330
C
102
}
330
C
100
AcDbDictionary
281
     1
  3
2dWireframe
350
2274B
  3
3D Hidden
350
2274D
  3
3dWireframe
350
2274C
  3
Basic
350
2274A
  3
Brighten
350
22751
  3
ColorChange
350
22755
  3
Conceptual
350
2274E
  3
Dim
350
22750
  3
EdgeColorOff
350
22A03
  3
Facepattern
350
22754
  3
Flat
350
22746
  3
FlatWithEdges
350
22747
  3
Gouraud
350
22748
  3
GouraudWithEdges
350
22749
  3
Hidden
350
229FB
  3
JitterOff
350
22A01
  3
Linepattern
350
22753
  3
OverhangOff
350
22A02
  3
Realistic
350
2274F
  3
Shaded
350
22A00
  3
Shaded with edges
350
229FF
  3
Shades of Gray
350
229FC
  3
Sketchy
350
229FD
  3
Thicken
350
22752
  3
Wireframe
350
229FA
  3
X-Ray
350
229FE
  0
XRECORD
  5
52A4F
102
{ACAD_REACTORS
330
C
102
}
330
C
100
AcDbXrecord
280
     1
 90
        1
330
22758
  0
DICTIONARY
  5
173D
102
{ACAD_REACTORS
330
C
102
}
330
C
100
AcDbDictionary
281
     1
  3
CANNOSCALE
350
22809
  3
CMLEADERSTYLE
350
22807
  3
CTABLESTYLE
350
22806
  3
LAYEREVAL
350
2280B
  3
LAYERNOTIFY
350
2280C
  3
LIGHTINGUNITS
350
2280A
  3
MSLTSCALE
350
22808
  3
SOLIDHIST
350
52650
  3
SORTENTS
350
173E
  0
DICTIONARY
  5
2284D
102
{ACAD_REACTORS
330
C
102
}
330
C
100
AcDbDictionary
281
     1
  0
DICTIONARY
  5
22728
102
{ACAD_REACTORS
330
C
102
}
330
C
100
AcDbDictionary
281
     1
  3
ASEBlockHierarchyIndexRecord
350
2272A
1001
DCO15
1040
1596433040.279
  0
DICTIONARY
  5
1574
102
{ACAD_REACTORS
330
1562
102
}
330
1562
100
AcDbDictionary
280
     1
281
     1
  0
DICTIONARY
  5
1563
102
{ACAD_REACTORS
330
1562
102
}
330
1562
100
AcDbDictionary
281
     1
  3
床画層-1
350
1606
  0
XRECORD
  5
5259A
102
{ACAD_REACTORS
330
22778
102
}
330
22778
100
AcDbXrecord
280
     1
290
     1
  0
XRECORD
  5
5259E
102
{ACAD_REACTORS
330
4BDA6
102
}
330
4BDA6
100
AcDbXrecord
280
     1
290
     1
  0
XRECORD
  5
5259F
102
{ACAD_REACTORS
330
4BDA8
102
}
330
4BDA8
100
AcDbXrecord
280
     1
290
     1
  0
XRECORD
  5
525A0
102
{ACAD_REACTORS
330
4BDAA
102
}
330
4BDAA
100
AcDbXrecord
280
     1
290
     1
  0
XRECORD
  5
525A2
102
{ACAD_REACTORS
330
525A1
102
}
330
525A1
100
AcDbXrecord
280
     1
290
     1
  0
XRECORD
  5
36B2
102
{ACAD_REACTORS
330
3662
102
}
330
3662
100
AcDbXrecord
280
     1
340
1F
  0
SORTENTSTABLE
  5
23806
102
{ACAD_REACTORS
330
3662
102
}
330
3662
100
AcDbSortentsTable
330
1F
331
513F8
  5
515A8
331
513F9
  5
515A9
331
51418
  5
515C8
331
51419
  5
515C9
331
513FA
  5
515AA
331
51438
  5
515E8
331
51458
  5
51608
331
5141A
  5
515CA
331
513FB
  5
515AB
331
51439
  5
515E9
331
517A8
  5
519B0
331
5143A
  5
515EA
331
5141B
  5
515CB
331
513FC
  5
515AC
331
51459
  5
51609
331
51470
  5
51620
331
51490
  5
51640
331
517C8
  5
519D0
331
5145A
  5
5160A
331
5143B
  5
515EB
331
5141C
  5
515CC
331
513FD
  5
515AD
331
51471
  5
51621
331
517A9
  5
519B1
331
514B0
  5
51661
331
51491
  5
51642
331
517C9
  5
519D1
331
517E8
  5
519F0
331
5145B
  5
5160B
331
5143C
  5
515EC
331
513FE
  5
515AE
331
5141D
  5
515CD
331
51472
  5
51622
331
517AA
  5
519B2
331
514D0
  5
51681
331
514B1
  5
51662
331
51492
  5
51643
331
517CA
  5
519D2
331
517E9
  5
519F1
331
51808
  5
51A12
331
51473
  5
51623
331
5145C
  5
5160C
331
5141E
  5
515CE
331
513FF
  5
515AF
331
5143D
  5
515ED
331
517AB
  5
519B3
331
51730
  5
51922
331
514D1
  5
51683
331
514B2
  5
51663
331
51493
  5
51644
331
517CB
  5
519D3
331
517EA
  5
519F2
331
51809
  5
51A13
331
518D0
  5
51ADA
331
5143E
  5
515EE
331
5141F
  5
515CF
331
51400
  5
515B0
331
5145D
  5
5160D
331
51474
  5
51624
331
517AC
  5
519B4
331
51731
  5
51923
331
514D2
  5
51685
331
514B3
  5
51664
331
51494
  5
51645
331
517CC
  5
519D4
331
517EB
  5
519F3
331
5180A
  5
51A14
331
518D1
  5
51ADB
331
51750
  5
51958
331
513E6
  5
51596
331
5143F
  5
515EF
331
51420
  5
515D0
331
51401
  5
515B1
331
5145E
  5
5160E
331
51475
  5
51625
331
517AD
  5
519B5
331
51988
  5
51B9E
331
51969
  5
51B7F
331
51732
  5
51924
331
514D3
  5
51686
331
514B4
  5
51665
331
51495
  5
51646
331
517CD
  5
519D5
331
517EC
  5
519F4
331
5180B
  5
51A15
331
518D2
  5
51ADC
331
51751
  5
51959
331
51770
  5
51978
331
513E7
  5
51597
331
5145F
  5
5160F
331
51440
  5
515F0
331
51402
  5
515B2
331
51421
  5
515D1
331
51476
  5
51626
331
517AE
  5
519B6
331
519A8
  5
51BC1
331
51989
  5
51B9F
331
5196A
  5
51B80
331
51733
  5
51925
331
514D4
  5
51687
331
514B5
  5
51666
331
51496
  5
51647
331
517CE
  5
519D6
331
517ED
  5
519F5
331
5180C
  5
51A16
331
518D3
  5
51ADD
331
51752
  5
5195A
331
51771
  5
51979
331
51790
  5
51998
331
513E8
  5
51598
331
51460
  5
51610
331
51441
  5
515F1
331
51403
  5
515B3
331
51422
  5
515D2
331
51477
  5
51627
331
517AF
  5
519B7
331
519A9
  5
51BC2
331
5196B
  5
51B81
331
5198A
  5
51BA0
331
51734
  5
51926
331
514D5
  5
5168B
331
514B6
  5
51667
331
517B0
  5
519B8
331
513E9
  5
51599
331
51461
  5
51611
331
51423
  5
515D3
331
51404
  5
515B4
331
51442
  5
515F2
331
51478
  5
51628
331
51497
  5
51648
331
517CF
  5
519D7
331
517EE
  5
519F7
331
5180D
  5
51A17
331
518D4
  5
51ADE
331
51753
  5
5195B
331
51791
  5
51999
331
519AA
  5
51BC3
331
5196C
  5
51B82
331
5198B
  5
51BA1
331
51735
  5
51927
331
517D0
  5
519D8
331
517B1
  5
519B9
331
513EA
  5
5159A
331
51443
  5
515F3
331
51424
  5
515D4
331
51405
  5
515B5
331
51462
  5
51612
331
51479
  5
51629
331
51498
  5
51649
331
514B7
  5
51668
331
517EF
  5
519F9
331
5180E
  5
51A18
331
51754
  5
5195C
331
51792
  5
5199A
331
52341
  5
5197C
331
52388
  5
51943
331
519AB
  5
51BC4
331
5196D
  5
51B83
331
5198C
  5
51BA2
331
51736
  5
51929
331
517F0
  5
519FA
331
517D1
  5
519D9
331
517B2
  5
519BA
331
513EB
  5
5159B
331
51463
  5
51613
331
51444
  5
515F4
331
51425
  5
515D5
331
51406
  5
515B6
331
5147A
  5
5162A
331
51499
  5
5164A
331
514B8
  5
51669
331
5180F
  5
51A19
331
51755
  5
5195D
331
51793
  5
5199B
331
52342
  5
5197D
331
52389
  5
51944
331
519AC
  5
51BC5
331
523D0
  5
51980
331
5196E
  5
51B84
331
5198D
  5
51BA3
331
51810
  5
51A1A
331
517F1
  5
519FB
331
517D2
  5
519DA
331
517B3
  5
519BB
331
513EC
  5
5159C
331
51464
  5
51614
331
51445
  5
515F5
331
51407
  5
515B7
331
51426
  5
515D6
331
5147B
  5
5162B
331
5149A
  5
5164B
331
514B9
  5
5166A
331
51720
  5
51911
331
51756
  5
5195E
331
51794
  5
5199C
331
52343
  5
51981
331
5238A
  5
51945
331
519AD
  5
51BC6
331
523D1
  5
51982
331
5198E
  5
51BA4
331
5196F
  5
51B85
331
51811
  5
51A1B
331
51738
  5
5192B
331
517F2
  5
519FC
331
517D3
  5
519DB
331
517B4
  5
519BC
331
513ED
  5
5159D
331
5147C
  5
5162C
331
51465
  5
51615
331
51427
  5
515D7
331
51408
  5
515B8
331
51446
  5
515F6
331
5149B
  5
5164C
331
514BA
  5
5166B
331
51721
  5
51912
331
51757
  5
5195F
331
51795
  5
5199D
331
5238B
  5
51946
331
519AE
  5
51BC7
331
523D2
  5
51983
331
51812
  5
51A1C
331
51739
  5
5192D
331
51758
  5
51960
331
517F3
  5
519FD
331
517D4
  5
519DC
331
517B5
  5
519BD
331
5149C
  5
5164D
331
513EE
  5
5159E
331
5147D
  5
5162D
331
51466
  5
51616
331
51428
  5
515D8
331
51409
  5
515B9
331
51447
  5
515F7
331
514BB
  5
5166C
331
51722
  5
51913
331
51970
  5
51B86
331
5198F
  5
51BA5
331
51796
  5
5199E
331
5238C
  5
51947
331
51A0E
  5
51C29
331
519AF
  5
51BC8
331
51759
  5
51961
331
51813
  5
51A1D
331
5173A
  5
5192F
331
517F4
  5
519FE
331
517D5
  5
519DD
331
514BC
  5
5166D
331
517B6
  5
519BE
331
5149D
  5
5164E
331
513EF
  5
5159F
331
51448
  5
515F8
331
51429
  5
515D9
331
5140A
  5
515BA
331
51467
  5
51617
331
5147E
  5
5162E
331
51723
  5
51914
331
518DA
  5
51AE4
331
51971
  5
51B87
331
51990
  5
51BA6
331
51797
  5
5199F
331
5238D
  5
51B00
331
51A0F
  5
51C2A
331
51798
  5
519A0
331
519B0
  5
51BC9
331
5175A
  5
51962
331
51814
  5
51A1E
331
5173B
  5
51930
331
517F5
  5
519FF
331
517D6
  5
519DE
331
514BD
  5
5166E
331
517B7
  5
519BF
331
5147F
  5
5162F
331
5149E
  5
5164F
331
51724
  5
51915
331
518DB
  5
51AE5
331
51972
  5
51B88
331
51991
  5
51BA9
331
51449
  5
515F9
331
5140B
  5
515BB
331
5142A
  5
515DA
331
51468
  5
51618
331
513F0
  5
515A0
331
5238E
  5
51B01
331
51799
  5
519A1
331
519B1
  5
51BCA
331
51815
  5
51A1F
331
5173C
  5
51931
331
5175B
  5
51963
331
517F6
  5
51A00
331
517D7
  5
519DF
331
514BE
  5
5166F
331
517B8
  5
519C0
331
51480
  5
51630
331
5149F
  5
51650
331
51725
  5
51916
331
51973
  5
51B89
331
51992
  5
51BAA
331
5144A
  5
515FA
331
5140C
  5
515BC
331
5142B
  5
515DB
331
51469
  5
51619
331
513F1
  5
515A1
331
51A10
  5
51C2B
331
5238F
  5
51B02
331
5179A
  5
519A2
331
519B2
  5
51BCB
331
51816
  5
51A20
331
5173D
  5
51932
331
5175C
  5
51964
331
517F7
  5
51A01
331
517D8
  5
519E0
331
517B9
  5
519C1
331
51481
  5
51631
331
514A0
  5
51651
331
514BF
  5
51670
331
51726
  5
51917
331
51974
  5
51B8A
331
51993
  5
51BAB
331
5142C
  5
515DC
331
5140D
  5
515BD
331
5144B
  5
515FB
331
5146A
  5
5161A
331
513F2
  5
515A2
331
51A11
  5
51C2C
331
52390
  5
51B03
331
5179B
  5
519A3
331
519B3
  5
51BCC
331
5177C
  5
51984
331
51817
  5
51A21
331
5175D
  5
51965
331
517F8
  5
51A02
331
517D9
  5
519E1
331
517BA
  5
519C2
331
514A1
  5
51652
331
51482
  5
51632
331
514C0
  5
51671
331
51727
  5
51919
331
51975
  5
51B8B
331
51994
  5
51BAC
331
5144C
  5
515FC
331
5142D
  5
515DD
331
5140E
  5
515BE
331
5146B
  5
5161B
331
513F3
  5
515A3
331
51A12
  5
51C2D
331
52391
  5
51B04
331
5179C
  5
519A4
331
519B4
  5
51BCD
331
5177D
  5
51985
331
51818
  5
51A22
331
5175E
  5
51966
331
517F9
  5
51A03
331
517DA
  5
519E2
331
514C1
  5
51672
331
517BB
  5
519C3
331
514A2
  5
51653
331
51483
  5
51633
331
51728
  5
5191A
331
51976
  5
51B8C
331
51995
  5
51BAD
331
5144D
  5
515FD
331
5142E
  5
515DE
331
5140F
  5
515BF
331
5146C
  5
5161C
331
513F4
  5
515A4
331
51A13
  5
51C2E
331
5179D
  5
519A5
331
519B5
  5
51BCE
331
5177E
  5
51986
331
51819
  5
51A23
331
51740
  5
51948
331
5175F
  5
51967
331
517FA
  5
51A04
331
517DB
  5
519E3
331
514C2
  5
51673
331
517BC
  5
519C4
331
51484
  5
51634
331
514A3
  5
51654
331
51729
  5
5191B
331
51977
  5
51B8D
331
51996
  5
51BAE
331
5144E
  5
515FE
331
5142F
  5
515DF
331
5146D
  5
5161D
331
513F5
  5
515A5
331
51410
  5
515C0
331
52373
  5
51AF8
331
52392
  5
51B05
331
5179E
  5
519A6
331
519B6
  5
51BCF
331
5177F
  5
51987
331
51997
  5
51BAF
331
518E1
  5
51AEB
331
51741
  5
51949
331
51760
  5
51968
331
517FB
  5
51A05
331
517DC
  5
519E4
331
517BD
  5
519C5
331
51485
  5
51635
331
514A4
  5
51655
331
514C3
  5
51674
331
5172A
  5
5191C
331
51978
  5
51B8E
331
5144F
  5
515FF
331
5146E
  5
5161E
331
513F6
  5
515A6
331
51411
  5
515C1
331
51430
  5
515E0
331
52374
  5
51AF9
331
52393
  5
51B09
331
5179F
  5
519A7
331
519B7
  5
51BD0
331
52375
  5
51AFA
331
52394
  5
51B0A
331
51780
  5
51988
331
51742
  5
5194A
331
51761
  5
51969
331
517FC
  5
51A06
331
517DD
  5
519E5
331
517BE
  5
519C6
331
514A5
  5
51656
331
51486
  5
51636
331
514C4
  5
51675
331
5172B
  5
5191D
331
51979
  5
51B8F
331
5146F
  5
5161F
331
513F7
  5
515A7
331
51412
  5
515C2
331
51431
  5
515E1
331
51450
  5
51600
331
51998
  5
51BB0
331
52376
  5
51AFB
331
52395
  5
51B0B
331
517A0
  5
519A8
331
51781
  5
51989
331
51743
  5
5194B
331
51762
  5
5196A
331
517FD
  5
51A07
331
517DE
  5
519E6
331
514C5
  5
51676
331
517BF
  5
519C7
331
514A6
  5
51657
331
51487
  5
51637
331
5172C
  5
5191E
331
5197A
  5
51B90
331
51413
  5
515C3
331
51432
  5
515E2
331
51451
  5
51601
331
51999
  5
51BB1
331
519B8
  5
51BD1
331
52377
  5
51AFC
331
52396
  5
51B06
331
517A1
  5
519A9
331
519B9
  5
51BD2
331
51782
  5
5198A
331
51744
  5
5194C
331
51763
  5
5196B
331
5172D
  5
5191F
331
5197B
  5
51B91
331
5199A
  5
51BB2
331
514C6
  5
51677
331
514A7
  5
51658
331
51414
  5
515C4
331
51433
  5
515E3
331
51452
  5
51602
331
51488
  5
51638
331
517C0
  5
519C8
331
517DF
  5
519E7
331
517FE
  5
51A08
331
52378
  5
51AFD
331
52397
  5
51B07
331
517A2
  5
519AA
331
51783
  5
5198B
331
51764
  5
5196C
331
51745
  5
5194D
331
5172E
  5
51920
331
5197C
  5
51B92
331
5199B
  5
51BB3
331
519BA
  5
51BD3
331
514C7
  5
51678
331
514A8
  5
51659
331
51415
  5
515C5
331
51434
  5
515E4
331
51453
  5
51603
331
51489
  5
51639
331
517C1
  5
519C9
331
517E0
  5
519E8
331
517FF
  5
51A09
331
517A3
  5
519AB
331
52379
  5
51AFE
331
52398
  5
51B08
331
51784
  5
5198C
331
51765
  5
5196D
331
51746
  5
5194E
331
5172F
  5
51921
331
5197D
  5
51B93
331
5199C
  5
51BB4
331
514C8
  5
51679
331
514A9
  5
5165A
331
51416
  5
515C6
331
51435
  5
515E5
331
51454
  5
51604
331
5148A
  5
5163A
331
517C2
  5
519CA
331
517E1
  5
519E9
331
51800
  5
51A0A
331
517A4
  5
519AC
331
5237A
  5
51AFF
331
52399
  5
5197E
331
51785
  5
5198D
331
51766
  5
5196E
331
51747
  5
5194F
331
5197E
  5
51B94
331
5199D
  5
51BB5
331
514C9
  5
5167A
331
514AA
  5
5165B
331
5148B
  5
5163B
331
51436
  5
515E6
331
51417
  5
515C7
331
51455
  5
51605
331
517C3
  5
519CB
331
517E2
  5
519EA
331
51801
  5
51A0B
331
517A5
  5
519AD
331
5237B
  5
51B0C
331
5239A
  5
5197F
331
51786
  5
5198E
331
51748
  5
51950
331
51767
  5
5196F
331
5197F
  5
51B95
331
5199E
  5
51BB6
331
514CA
  5
5167B
331
514AB
  5
5165C
331
51456
  5
51606
331
51437
  5
515E7
331
5148C
  5
5163C
331
517C4
  5
519CC
331
517E3
  5
519EB
331
51802
  5
51A0C
331
517A6
  5
519AE
331
5237C
  5
51B0D
331
51787
  5
5198F
331
5199F
  5
51BB7
331
51768
  5
51970
331
51749
  5
51951
331
514CB
  5
5167C
331
514AC
  5
5165D
331
51457
  5
51607
331
5148D
  5
5163D
331
517C5
  5
519CD
331
517E4
  5
519EC
331
51803
  5
51A0D
331
51980
  5
51B96
331
517A7
  5
519AF
331
5237D
  5
51B0E
331
51788
  5
51990
331
519A0
  5
51BB8
331
51769
  5
51971
331
5174A
  5
51952
331
514CC
  5
5167D
331
514AD
  5
5165E
331
5148E
  5
5163E
331
517C6
  5
519CE
331
517E5
  5
519ED
331
51804
  5
51A0E
331
51981
  5
51B97
331
5237E
  5
51B0F
331
51789
  5
51991
331
519A1
  5
51BBA
331
5176A
  5
51972
331
5174B
  5
51953
331
514CD
  5
5167E
331
514AE
  5
5165F
331
5148F
  5
5163F
331
517C7
  5
519CF
331
517E6
  5
519EE
331
51805
  5
51A0F
331
51982
  5
51B98
331
5237F
  5
51934
331
519A2
  5
51BBB
331
51983
  5
51B99
331
514CE
  5
5167F
331
514AF
  5
51660
331
517E7
  5
519EF
331
51806
  5
51A10
331
5174C
  5
51954
331
5176B
  5
51973
331
5178A
  5
51992
331
52380
  5
51935
331
519A3
  5
51BBC
331
51984
  5
51B9A
331
518ED
  5
51AF7
331
514CF
  5
51680
331
51807
  5
51A11
331
5174D
  5
51955
331
5176C
  5
51974
331
5178B
  5
51993
331
52381
  5
51936
331
519A4
  5
51BBD
331
51985
  5
51B9B
331
5174E
  5
51956
331
5176D
  5
51975
331
5178C
  5
51994
331
52382
  5
51937
331
519A5
  5
51BBE
331
51986
  5
51B9C
331
5174F
  5
51957
331
5176E
  5
51976
331
5178D
  5
51995
331
52383
  5
51938
331
519A6
  5
51BBF
331
51987
  5
51B9D
331
5176F
  5
51977
331
5178E
  5
51996
331
52384
  5
51939
331
519A7
  5
51BC0
331
5178F
  5
51997
331
52385
  5
5193B
331
52386
  5
5193E
331
52387
  5
51942
331
523CE
  5
5197A
331
523CF
  5
5197B
  0
XRECORD
  5
52A51
102
{ACAD_REACTORS
330
52A50
102
}
330
52A50
100
AcDbXrecord
280
     1
 70
     1
  0
XRECORD
  5
52A52
102
{ACAD_REACTORS
330
52A50
102
}
330
52A50
100
AcDbXrecord
280
     1
340
2274C
  0
LAYOUT
  5
22
102
{ACAD_XDICTIONARY
360
22AE9
102
}
102
{ACAD_REACTORS
330
1A
102
}
330
1A
100
AcDbPlotSettings
  1

  2
Canon iPF600
  4
User4403
  6

 40
3.757083415985107
 41
3.757137775421142
 42
3.757080078125
 43
3.757080078125
 44
840.9939575195313
 45
593.97900390625
 46
-3.785768270522396
 47
-3.785734415075523
 48
0.0
 49
0.0
140
0.0
141
0.0
142
1.0
143
100.0
 70
 28324
 72
     1
 73
     0
 74
     1
  7
monochrome.ctb
 75
     0
147
0.0098725419741991
 76
     0
 77
     2
 78
   300
148
2.566332512709777
149
1.812605841332697
100
AcDbLayout
  1
Model
 70
     1
 71
     0
 10
0.0
 20
0.0
 11
12.0
 21
9.0
 12
0.0
 22
0.0
 32
0.0
 14
0.0
 24
0.0
 34
0.0
 15
0.0
 25
0.0
 35
0.0
146
0.0
 13
0.0
 23
0.0
 33
0.0
 16
1.0
 26
0.0
 36
0.0
 17
0.0
 27
1.0
 37
0.0
 76
     0
330
1F
331
1FF1E
1001
ACAD_PSEXT
1000
Canon iPF600
1000
Canon iPF600
1000
IP_10.81.100.201
1000

1070
     0
  0
LAYOUT
  5
525BB
102
{ACAD_REACTORS
330
1A
102
}
330
1A
100
AcDbPlotSettings
  1

  2
DWG To PDF.pc3
  4

  6

 40
0.0
 41
0.0
 42
0.0
 43
0.0
 44
0.0
 45
0.0
 46
0.0
 47
0.0
 48
0.0
 49
0.0
140
0.0
141
0.0
142
1.0
143
1.0
 70
   688
 72
     0
 73
     0
 74
     5
  7

 75
    16
147
1.0
 76
     0
 77
     2
 78
   300
148
0.0
149
0.0
100
AcDbLayout
  1
レイアウト1
 70
     1
 71
     1
 10
0.0
 20
0.0
 11
12.0
 21
9.0
 12
0.0
 22
0.0
 32
0.0
 14
0.0
 24
0.0
 34
0.0
 15
0.0
 25
0.0
 35
0.0
146
0.0
 13
0.0
 23
0.0
 33
0.0
 16
1.0
 26
0.0
 36
0.0
 17
0.0
 27
1.0
 37
0.0
 76
     0
330
525BA
  0
MATERIAL
  5
22735
102
{ACAD_XDICTIONARY
360
22736
102
}
102
{ACAD_REACTORS
330
2272C
102
}
330
2272C
100
AcDbMaterial
  1
ByBlock
 72
     0
 43
0.0008202099737533
 43
0.0
 43
0.0
 43
0.0
 43
0.0
 43
0.0008202099737533
 43
0.0
 43
0.0
 43
0.0
 43
0.0
 43
1.0
 43
0.0
 43
0.0
 43
0.0
 43
0.0
 43
1.0
 77
     0
 47
0.0008202099737533
 47
0.0
 47
0.0
 47
0.0
 47
0.0
 47
0.0008202099737533
 47
0.0
 47
0.0
 47
0.0
 47
0.0
 47
1.0
 47
0.0
 47
0.0
 47
0.0
 47
0.0
 47
1.0
171
     0
 49
0.0008202099737533
 49
0.0
 49
0.0
 49
0.0
 49
0.0
 49
0.0008202099737533
 49
0.0
 49
0.0
 49
0.0
 49
0.0
 49
1.0
 49
0.0
 49
0.0
 49
0.0
 49
0.0
 49
1.0
175
     0
142
0.0008202099737533
142
0.0
142
0.0
142
0.0
142
0.0
142
0.0008202099737533
142
0.0
142
0.0
142
0.0
142
0.0
142
1.0
142
0.0
142
0.0
142
0.0
142
0.0
142
1.0
179
     0
144
0.0008202099737533
144
0.0
144
0.0
144
0.0
144
0.0
144
0.0008202099737533
144
0.0
144
0.0
144
0.0
144
0.0
144
1.0
144
0.0
144
0.0
144
0.0
144
0.0
144
1.0
147
0.0008202099737533
147
0.0
147
0.0
147
0.0
147
0.0
147
0.0008202099737533
147
0.0
147
0.0
147
0.0
147
0.0
147
1.0
147
0.0
147
0.0
147
0.0
147
0.0
147
1.0
  0
MATERIAL
  5
2272D
102
{ACAD_XDICTIONARY
360
2272E
102
}
102
{ACAD_REACTORS
330
2272C
102
}
330
2272C
100
AcDbMaterial
  1
ByLayer
 72
     0
 43
0.0008202099737533
 43
0.0
 43
0.0
 43
0.0
 43
0.0
 43
0.0008202099737533
 43
0.0
 43
0.0
 43
0.0
 43
0.0
 43
1.0
 43
0.0
 43
0.0
 43
0.0
 43
0.0
 43
1.0
 77
     0
 47
0.0008202099737533
 47
0.0
 47
0.0
 47
0.0
 47
0.0
 47
0.0008202099737533
 47
0.0
 47
0.0
 47
0.0
 47
0.0
 47
1.0
 47
0.0
 47
0.0
 47
0.0
 47
0.0
 47
1.0
171
     0
 49
0.0008202099737533
 49
0.0
 49
0.0
 49
0.0
 49
0.0
 49
0.0008202099737533
 49
0.0
 49
0.0
 49
0.0
 49
0.0
 49
1.0
 49
0.0
 49
0.0
 49
0.0
 49
0.0
 49
1.0
175
     0
142
0.0008202099737533
142
0.0
142
0.0
142
0.0
142
0.0
142
0.0008202099737533
142
0.0
142
0.0
142
0.0
142
0.0
142
1.0
142
0.0
142
0.0
142
0.0
142
0.0
142
1.0
179
     0
144
0.0008202099737533
144
0.0
144
0.0
144
0.0
144
0.0
144
0.0008202099737533
144
0.0
144
0.0
144
0.0
144
0.0
144
1.0
144
0.0
144
0.0
144
0.0
144
0.0
144
1.0
147
0.0008202099737533
147
0.0
147
0.0
147
0.0
147
0.0
147
0.0008202099737533
147
0.0
147
0.0
147
0.0
147
0.0
147
1.0
147
0.0
147
0.0
147
0.0
147
0.0
147
1.0
  0
MATERIAL
  5
2273D
102
{ACAD_XDICTIONARY
360
2273E
102
}
102
{ACAD_REACTORS
330
2272C
102
}
330
2272C
100
AcDbMaterial
  1
Global
 72
     0
 43
0.0008202099737533
 43
0.0
 43
0.0
 43
0.0
 43
0.0
 43
0.0008202099737533
 43
0.0
 43
0.0
 43
0.0
 43
0.0
 43
1.0
 43
0.0
 43
0.0
 43
0.0
 43
0.0
 43
1.0
 77
     0
 47
0.0008202099737533
 47
0.0
 47
0.0
 47
0.0
 47
0.0
 47
0.0008202099737533
 47
0.0
 47
0.0
 47
0.0
 47
0.0
 47
1.0
 47
0.0
 47
0.0
 47
0.0
 47
0.0
 47
1.0
171
     0
 49
0.0008202099737533
 49
0.0
 49
0.0
 49
0.0
 49
0.0
 49
0.0008202099737533
 49
0.0
 49
0.0
 49
0.0
 49
0.0
 49
1.0
 49
0.0
 49
0.0
 49
0.0
 49
0.0
 49
1.0
175
     0
142
0.0008202099737533
142
0.0
142
0.0
142
0.0
142
0.0
142
0.0008202099737533
142
0.0
142
0.0
142
0.0
142
0.0
142
1.0
142
0.0
142
0.0
142
0.0
142
0.0
142
1.0
179
     0
144
0.0008202099737533
144
0.0
144
0.0
144
0.0
144
0.0
144
0.0008202099737533
144
0.0
144
0.0
144
0.0
144
0.0
144
1.0
144
0.0
144
0.0
144
0.0
144
0.0
144
1.0
147
0.0008202099737533
147
0.0
147
0.0
147
0.0
147
0.0
147
0.0008202099737533
147
0.0
147
0.0
147
0.0
147
0.0
147
1.0
147
0.0
147
0.0
147
0.0
147
0.0
147
1.0
  0
MLEADERSTYLE
  5
2276C
102
{ACAD_XDICTIONARY
360
52A4D
102
}
102
{ACAD_REACTORS
330
2276B
102
}
330
2276B
100
AcDbMLeaderStyle
170
     2
171
     1
172
     0
 90
        2
 40
0.0
 41
0.0
173
     1
 91
-1056964608
340
14
 92
       -2
290
     1
 42
2.0
291
     1
 43
0.36
  3
Standard
 44
4.0
300

342
11
174
     1
178
     6
175
     1
176
     0
 93
-1056964608
 45
4.0
292
     0
297
     0
 46
4.0
 94
-1056964608
 47
1.0
 49
1.0
140
1.0
293
     1
141
0.0
294
     1
177
     0
142
1.0
295
     0
296
     0
143
0.125
1001
ACAD_MLEADERVER
1070
     2
  0
MLINESTYLE
  5
18
102
{ACAD_REACTORS
330
17
102
}
330
17
100
AcDbMlineStyle
  2
STANDARD
 70
     0
  3

 62
   256
 51
90.0
 52
90.0
 71
     2
 49
0.5
 62
   256
  6
BYLAYER
 49
-0.5
 62
   256
  6
BYLAYER
  0
PLOTSETTINGS
  5
2288E
102
{ACAD_REACTORS
330
19
102
}
330
19
100
AcDbPlotSettings
  1
A1横-DocuWide 2051 MF-RT
  2
DocuWide 2051 MF-RT
  4
User151
  6

 40
3.174999952316284
 41
3.174999952316284
 42
3.17498779296875
 43
3.17498779296875
 44
593.97900390625
 45
840.9939575195313
 46
0.0
 47
0.0
 48
0.0
 49
0.0
140
0.0
141
0.0
142
1.0
143
1.0
 70
  2736
 72
     1
 73
     1
 74
     5
  7
monochrome.ctb
 75
    16
147
1.0
 76
     0
 77
     2
 78
   300
148
17.0220485445252
149
5.136853987673248
1001
ACAD_PSEXT
1000
DocuWide 2051 MF-RT
1000
FX DocuWide 2050/2051
1000
10.100.200.210:plt00t
1000

1070
     0
  0
PLOTSETTINGS
  5
4BB79
102
{ACAD_REACTORS
330
19
102
}
330
19
100
AcDbPlotSettings
  1
A1横-PDF_COR
  2
DWG To PDF.pc3
  4
ISO_full_bleed_A1_(841.00_x_594.00_MM)
  6

 40
0.7937499880790711
 41
0.7937499880790711
 42
0.79376220703125
 43
0.79376220703125
 44
841.0
 45
594.0
 46
0.0
 47
0.0
 48
0.0
 49
0.0
140
0.0
141
0.0
142
1.0
143
1.0
 70
  2736
 72
     1
 73
     0
 74
     5
  7
acad.ctb
 75
    16
147
1.0
 76
     0
 77
     2
 78
   300
148
17.0220485445252
149
5.136853987673248
1001
ACAD_PSEXT
1000
DWG To PDF.pc3
1000
DWG To PDF
1000
ファイル
1000

1070
     0
  0
PLOTSETTINGS
  5
4BB70
102
{ACAD_REACTORS
330
19
102
}
330
19
100
AcDbPlotSettings
  1
A1横-PDF_MONO
  2
DWG To PDF.pc3
  4
ISO_full_bleed_A1_(841.00_x_594.00_MM)
  6

 40
0.7937499880790711
 41
0.7937499880790711
 42
0.79376220703125
 43
0.79376220703125
 44
841.0
 45
594.0
 46
0.0
 47
0.0
 48
0.0
 49
0.0
140
0.0
141
0.0
142
1.0
143
1.0
 70
  2736
 72
     1
 73
     0
 74
     5
  7
monochrome.ctb
 75
    16
147
1.0
 76
     0
 77
     2
 78
   300
148
17.0220485445252
149
5.136853987673248
1001
ACAD_PSEXT
1000
DWG To PDF.pc3
1000
DWG To PDF
1000
ファイル
1000

1070
     0
  0
PLOTSETTINGS
  5
228A9
102
{ACAD_REACTORS
330
19
102
}
330
19
100
AcDbPlotSettings
  1
A2横-DocuWide 2051 MF-RT
  2
DocuWide 2051 MF-RT
  4
User66
  6

 40
3.174999952316284
 41
3.174999952316284
 42
3.17498779296875
 43
3.17498779296875
 44
419.9889831542968
 45
593.97900390625
 46
0.0
 47
0.0
 48
0.0
 49
0.0
140
0.0
141
0.0
142
1.0
143
1.0
 70
  2736
 72
     1
 73
     1
 74
     5
  7
monochrome.ctb
 75
    16
147
1.0
 76
     0
 77
     2
 78
   300
148
-968.6464465543492
149
-10.13499988433659
1001
ACAD_PSEXT
1000
DocuWide 2051 MF-RT
1000
FX DocuWide 2050/2051
1000
10.100.200.210:plt00t
1000

1070
     0
  0
PLOTSETTINGS
  5
2883A
102
{ACAD_REACTORS
330
19
102
}
330
19
100
AcDbPlotSettings
  1
A3横-DocuCentre C4535Ⅰ②
  2
DocuCentre C4535 I ②
  4
A3
  6

 40
4.857749938964843
 41
4.942420959472656
 42
4.9423828125
 43
4.857757568359375
 44
297.0106506347656
 45
420.0313415527343
 46
0.0
 47
0.0
 48
0.0
 49
0.0
140
0.0
141
0.0
142
1.0
143
2.0
 70
  2720
 72
     1
 73
     1
 74
     5
  7
monochrome.ctb
 75
     0
147
0.4835020742459363
 76
     0
 77
     2
 78
   300
148
17.0220485445252
149
5.136853987673248
1001
ACAD_PSEXT
1000
DocuCentre C4535 I ②
1000
FX DocuCentre C4535 I
1000
10.100.200.205
1000

1070
     0
  0
PLOTSETTINGS
  5
4BB56
102
{ACAD_REACTORS
330
19
102
}
330
19
100
AcDbPlotSettings
  1
A3横-DocuCentre C4535Ⅰ②_cor
  2
DocuCentre C4535 I ②
  4
A3
  6

 40
4.857749938964843
 41
4.942420959472656
 42
4.9423828125
 43
4.857757568359375
 44
297.0106506347656
 45
420.0313415527343
 46
0.0
 47
0.0
 48
0.0
 49
0.0
140
0.0
141
0.0
142
1.0
143
2.0
 70
  2720
 72
     1
 73
     1
 74
     5
  7
acad.ctb
 75
     0
147
0.4835020742459363
 76
     0
 77
     2
 78
   300
148
17.0220485445252
149
5.136853987673248
1001
ACAD_PSEXT
1000
DocuCentre C4535 I ②
1000
FX DocuCentre C4535 I
1000
10.100.200.205
1000

1070
     0
  0
PLOTSETTINGS
  5
228B2
102
{ACAD_REACTORS
330
19
102
}
330
19
100
AcDbPlotSettings
  1
A4横-DocuCentre C4535Ⅰ②
  2
DocuCentre C4535 I ②
  4
A4
  6

 40
4.857749938964843
 41
4.942390441894531
 42
4.942413330078125
 43
4.857757568359375
 44
209.9733276367187
 45
297.0106506347656
 46
0.0
 47
0.0
 48
0.0
 49
0.0
140
0.0
141
0.0
142
1.0
143
2.0
 70
  2720
 72
     1
 73
     1
 74
     5
  7
monochrome.ctb
 75
    16
147
1.0
 76
     0
 77
     2
 78
   300
148
-965.432603393638
149
-6.955950538279239
1001
ACAD_PSEXT
1000
DocuCentre C4535 I ②
1000
FX DocuCentre C4535 I
1000
10.100.200.205
1000

1070
     0
  0
PLOTSETTINGS
  5
4BB5F
102
{ACAD_REACTORS
330
19
102
}
330
19
100
AcDbPlotSettings
  1
A4横-DocuCentre C4535Ⅰ②_cor
  2
DocuCentre C4535 I ②
  4
A4
  6

 40
4.857749938964843
 41
4.942390441894531
 42
4.942413330078125
 43
4.857757568359375
 44
209.9733276367187
 45
297.0106506347656
 46
0.0
 47
0.0
 48
0.0
 49
0.0
140
0.0
141
0.0
142
1.0
143
2.0
 70
  2720
 72
     1
 73
     1
 74
     5
  7
acad.ctb
 75
    16
147
1.0
 76
     0
 77
     2
 78
   300
148
-965.432603393638
149
-6.955950538279239
1001
ACAD_PSEXT
1000
DocuCentre C4535 I ②
1000
FX DocuCentre C4535 I
1000
10.100.200.205
1000

1070
     0
  0
ACDBPLACEHOLDER
  5
F
102
{ACAD_REACTORS
330
E
102
}
330
E
  0
SCALE
  5
2275A
102
{ACAD_REACTORS
330
22759
102
}
330
22759
100
AcDbScale
 70
     0
300
1:1
140
1.0
141
1.0
290
     1
  0
SCALE
  5
22924
102
{ACAD_REACTORS
330
22759
102
}
330
22759
100
AcDbScale
 70
     0
300
1:3
140
1.0
141
3.0
290
     0
  0
SCALE
  5
22925
102
{ACAD_REACTORS
330
22759
102
}
330
22759
100
AcDbScale
 70
     0
300
1:60
140
1.0
141
60.0
290
     0
  0
SCALE
  5
22926
102
{ACAD_REACTORS
330
22759
102
}
330
22759
100
AcDbScale
 70
     0
300
1:150
140
1.0
141
150.0
290
     0
  0
SCALE
  5
22927
102
{ACAD_REACTORS
330
22759
102
}
330
22759
100
AcDbScale
 70
     0
300
1:125
140
1.0
141
125.0
290
     0
  0
SCALE
  5
22928
102
{ACAD_REACTORS
330
22759
102
}
330
22759
100
AcDbScale
 70
     0
300
1:2
140
1.0
141
2.0
290
     0
  0
SCALE
  5
22929
102
{ACAD_REACTORS
330
22759
102
}
330
22759
100
AcDbScale
 70
     0
300
1:4
140
1.0
141
4.0
290
     0
  0
SCALE
  5
2292A
102
{ACAD_REACTORS
330
22759
102
}
330
22759
100
AcDbScale
 70
     0
300
1:5
140
1.0
141
5.0
290
     0
  0
SCALE
  5
2292B
102
{ACAD_REACTORS
330
22759
102
}
330
22759
100
AcDbScale
 70
     0
300
1:8
140
1.0
141
8.0
290
     0
  0
SCALE
  5
2292C
102
{ACAD_REACTORS
330
22759
102
}
330
22759
100
AcDbScale
 70
     0
300
1:10
140
1.0
141
10.0
290
     0
  0
SCALE
  5
2292D
102
{ACAD_REACTORS
330
22759
102
}
330
22759
100
AcDbScale
 70
     0
300
1:16
140
1.0
141
16.0
290
     0
  0
SCALE
  5
2292E
102
{ACAD_REACTORS
330
22759
102
}
330
22759
100
AcDbScale
 70
     0
300
1:20
140
1.0
141
20.0
290
     0
  0
SCALE
  5
2292F
102
{ACAD_REACTORS
330
22759
102
}
330
22759
100
AcDbScale
 70
     0
300
1:30
140
1.0
141
30.0
290
     0
  0
SCALE
  5
22930
102
{ACAD_REACTORS
330
22759
102
}
330
22759
100
AcDbScale
 70
     0
300
1:40
140
1.0
141
40.0
290
     0
  0
SCALE
  5
22931
102
{ACAD_REACTORS
330
22759
102
}
330
22759
100
AcDbScale
 70
     0
300
1:50
140
1.0
141
50.0
290
     0
  0
SCALE
  5
22765
102
{ACAD_REACTORS
330
22759
102
}
330
22759
100
AcDbScale
 70
     0
300
1:100
140
1.0
141
100.0
290
     0
  0
SCALE
  5
22932
102
{ACAD_REACTORS
330
22759
102
}
330
22759
100
AcDbScale
 70
     0
300
2:1
140
2.0
141
1.0
290
     0
  0
SCALE
  5
22933
102
{ACAD_REACTORS
330
22759
102
}
330
22759
100
AcDbScale
 70
     0
300
4:1
140
4.0
141
1.0
290
     0
  0
SCALE
  5
22934
102
{ACAD_REACTORS
330
22759
102
}
330
22759
100
AcDbScale
 70
     0
300
8:1
140
8.0
141
1.0
290
     0
  0
SCALE
  5
22935
102
{ACAD_REACTORS
330
22759
102
}
330
22759
100
AcDbScale
 70
     0
300
10:1
140
10.0
141
1.0
290
     0
  0
SCALE
  5
22936
102
{ACAD_REACTORS
330
22759
102
}
330
22759
100
AcDbScale
 70
     0
300
100:1
140
100.0
141
1.0
290
     0
  0
TABLESTYLE
  5
22758
102
{ACAD_XDICTIONARY
360
22803
102
}
102
{ACAD_REACTORS
330
22757
102
}
330
22757
100
AcDbTableStyle
  3
Standard
 70
     0
 71
     0
 40
1.5
 41
1.5
280
     0
281
     0
  7
Standard
140
4.5
170
     2
 62
     0
 63
     7
283
     0
274
    -2
284
     1
 64
     0
275
    -2
285
     1
 65
     0
276
    -2
286
     1
 66
     0
277
    -2
287
     1
 67
     0
278
    -2
288
     1
 68
     0
279
    -2
289
     1
 69
     0
  7
Standard
140
6.0
170
     5
 62
     0
 63
     7
283
     0
274
    -2
284
     1
 64
     0
275
    -2
285
     1
 65
     0
276
    -2
286
     1
 66
     0
277
    -2
287
     1
 67
     0
278
    -2
288
     1
 68
     0
279
    -2
289
     1
 69
     0
  7
Standard
140
4.5
170
     5
 62
     0
 63
     7
283
     0
274
    -2
284
     1
 64
     0
275
    -2
285
     1
 65
     0
276
    -2
286
     1
 66
     0
277
    -2
287
     1
 67
     0
278
    -2
288
     1
 68
     0
279
    -2
289
     1
 69
     0
  0
VISUALSTYLE
  5
2274B
102
{ACAD_XDICTIONARY
360
52A60
102
}
102
{ACAD_REACTORS
330
22745
102
}
330
22745
100
AcDbVisualStyle
  2
2dWireframe
 70
     4
 71
     0
 72
     2
 73
     0
 90
        0
 40
-0.6
 41
-30.0
 62
     5
 63
     7
421
 16777215
 74
     1
 91
        4
 64
     7
 65
   257
 75
     1
175
     1
 42
1.0
 92
        0
 66
   257
 43
1.0
 76
     1
 77
     6
 78
     2
 67
     7
 79
     5
170
     0
171
     0
290
     0
174
     0
 93
        1
 44
0.0
173
     0
291
     0
 45
0.0
1001
ACAD
1000
AcDbSavedByObjectVersion
1070
     0
  0
VISUALSTYLE
  5
2274D
102
{ACAD_XDICTIONARY
360
52A64
102
}
102
{ACAD_REACTORS
330
22745
102
}
330
22745
100
AcDbVisualStyle
  2
3D Hidden
 70
     6
 71
     1
 72
     2
 73
     2
 90
        0
 40
-0.6
 41
-30.0
 62
     5
 63
     7
421
 16777215
 74
     2
 91
        2
 64
     7
 65
   257
 75
     2
175
     1
 42
40.0
 92
        0
 66
   257
 43
1.0
 76
     1
 77
     6
 78
     2
 67
     7
 79
     3
170
     0
171
     0
290
     0
174
     0
 93
        1
 44
0.0
173
     0
291
     0
 45
0.0
1001
ACAD
1000
AcDbSavedByObjectVersion
1070
     0
  0
VISUALSTYLE
  5
2274C
102
{ACAD_XDICTIONARY
360
52A62
102
}
102
{ACAD_REACTORS
330
22745
102
}
330
22745
100
AcDbVisualStyle
  2
3dWireframe
 70
     5
 71
     0
 72
     2
 73
     0
 90
        0
 40
-0.6
 41
-30.0
 62
     5
 63
     7
421
 16777215
 74
     1
 91
        4
 64
     7
 65
   257
 75
     1
175
     1
 42
1.0
 92
        0
 66
   257
 43
1.0
 76
     1
 77
     6
 78
     2
 67
     7
 79
     5
170
     0
171
     0
290
     0
174
     0
 93
        1
 44
0.0
173
     0
291
     0
 45
0.0
1001
ACAD
1000
AcDbSavedByObjectVersion
1070
     0
  0
VISUALSTYLE
  5
2274A
102
{ACAD_XDICTIONARY
360
52A5E
102
}
102
{ACAD_REACTORS
330
22745
102
}
330
22745
100
AcDbVisualStyle
  2
Basic
 70
     7
 71
     1
 72
     0
 73
     1
 90
        0
 40
-0.6
 41
-30.0
 62
     5
 63
     7
421
 16777215
 74
     0
 91
        4
 64
     7
 65
   257
 75
     1
175
     1
 42
1.0
 92
        8
 66
     7
 43
1.0
 76
     1
 77
     6
 78
     2
 67
     7
 79
     5
170
     0
171
     0
290
     0
174
     0
 93
        1
 44
0.0
173
     0
291
     1
 45
0.0
1001
ACAD
1000
AcDbSavedByObjectVersion
1070
     0
  0
VISUALSTYLE
  5
22751
102
{ACAD_XDICTIONARY
360
52A6C
102
}
102
{ACAD_REACTORS
330
22745
102
}
330
22745
100
AcDbVisualStyle
  2
Brighten
 70
    12
 71
     2
 72
     2
 73
     0
 90
        0
 40
-0.6
 41
-30.0
 62
     5
 63
     7
421
 16777215
 74
     1
 91
        4
 64
     7
 65
   257
 75
     1
175
     1
 42
1.0
 92
        8
 66
     7
 43
1.0
 76
     1
 77
     6
 78
     2
 67
     7
 79
     5
170
     0
171
     0
290
     0
174
     0
 93
        1
 44
50.0
173
     0
291
     1
 45
0.0
1001
ACAD
1000
AcDbSavedByObjectVersion
1070
     0
  0
VISUALSTYLE
  5
22755
102
{ACAD_XDICTIONARY
360
52A74
102
}
102
{ACAD_REACTORS
330
22745
102
}
330
22745
100
AcDbVisualStyle
  2
ColorChange
 70
    16
 71
     2
 72
     2
 73
     3
 90
        0
 40
-0.6
 41
-30.0
 62
     5
 63
     8
421
  8421504
 74
     1
 91
        4
 64
     7
 65
   257
 75
     1
175
     1
 42
1.0
 92
        8
 66
     8
424
  8421504
 43
1.0
 76
     1
 77
     6
 78
     2
 67
     7
 79
     5
170
     0
171
     0
290
     0
174
     0
 93
        1
 44
0.0
173
     0
291
     1
 45
0.0
1001
ACAD
1000
AcDbSavedByObjectVersion
1070
     0
  0
VISUALSTYLE
  5
2274E
102
{ACAD_XDICTIONARY
360
52A66
102
}
102
{ACAD_REACTORS
330
22745
102
}
330
22745
100
AcDbVisualStyle
  2
Conceptual
 70
     9
 71
     3
 72
     2
 73
     0
 90
        0
 40
-0.6
 41
-30.0
 62
     5
 63
     7
421
 16777215
 74
     2
 91
        2
 64
     7
 65
   257
 75
     1
175
     1
 42
40.0
 92
        8
 66
     7
 43
1.0
 76
     1
 77
     6
 78
     2
 67
     7
 79
     3
170
     0
171
     0
290
     0
174
     0
 93
        1
 44
0.0
173
     0
291
     0
 45
0.0
1001
ACAD
1000
AcDbSavedByObjectVersion
1070
     0
  0
VISUALSTYLE
  5
22750
102
{ACAD_XDICTIONARY
360
52A6A
102
}
102
{ACAD_REACTORS
330
22745
102
}
330
22745
100
AcDbVisualStyle
  2
Dim
 70
    11
 71
     2
 72
     2
 73
     0
 90
        0
 40
-0.6
 41
-30.0
 62
     5
 63
     7
421
 16777215
 74
     1
 91
        4
 64
     7
 65
   257
 75
     1
175
     1
 42
1.0
 92
        8
 66
     7
 43
1.0
 76
     1
 77
     6
 78
     2
 67
     7
 79
     5
170
     0
171
     0
290
     0
174
     0
 93
        1
 44
-50.0
173
     0
291
     1
 45
0.0
1001
ACAD
1000
AcDbSavedByObjectVersion
1070
     0
  0
VISUALSTYLE
  5
22A03
102
{ACAD_XDICTIONARY
360
52A89
102
}
102
{ACAD_REACTORS
330
22745
102
}
330
22745
100
AcDbVisualStyle
  2
EdgeColorOff
 70
    22
 71
     2
 72
     2
 73
     0
 90
        0
 40
-0.6
 41
-30.0
 62
     5
 63
     7
421
 16777215
 74
     1
 91
        4
 64
     7
 65
   257
 75
     1
175
     1
 42
1.0
 92
        8
 66
     7
 43
1.0
 76
     1
 77
     6
 78
     2
 67
     7
 79
     5
170
     0
171
     0
290
     0
174
     0
 93
        1
 44
0.0
173
     0
291
     1
 45
0.0
1001
ACAD
1000
AcDbSavedByObjectVersion
1070
     0
  0
VISUALSTYLE
  5
22754
102
{ACAD_XDICTIONARY
360
52A72
102
}
102
{ACAD_REACTORS
330
22745
102
}
330
22745
100
AcDbVisualStyle
  2
Facepattern
 70
    15
 71
     2
 72
     2
 73
     0
 90
        0
 40
-0.6
 41
-30.0
 62
     5
 63
     7
421
 16777215
 74
     1
 91
        4
 64
     7
 65
   257
 75
     1
175
     1
 42
1.0
 92
        8
 66
     7
 43
1.0
 76
     1
 77
     6
 78
     2
 67
     7
 79
     5
170
     0
171
     0
290
     0
174
     0
 93
        1
 44
0.0
173
     0
291
     1
 45
0.0
1001
ACAD
1000
AcDbSavedByObjectVersion
1070
     0
  0
VISUALSTYLE
  5
22746
102
{ACAD_XDICTIONARY
360
52A56
102
}
102
{ACAD_REACTORS
330
22745
102
}
330
22745
100
AcDbVisualStyle
  2
Flat
 70
     0
 71
     2
 72
     1
 73
     1
 90
        2
 40
-0.6
 41
30.0
 62
     5
 63
     7
421
 16777215
 74
     0
 91
        4
 64
     7
 65
   257
 75
     1
175
     1
 42
1.0
 92
        8
 66
     7
 43
1.0
 76
     1
 77
     6
 78
     2
 67
     7
 79
     5
170
     0
171
     0
290
     0
174
     0
 93
       13
 44
0.0
173
     0
291
     1
 45
0.0
1001
ACAD
1000
AcDbSavedByObjectVersion
1070
     0
  0
VISUALSTYLE
  5
22747
102
{ACAD_XDICTIONARY
360
52A58
102
}
102
{ACAD_REACTORS
330
22745
102
}
330
22745
100
AcDbVisualStyle
  2
FlatWithEdges
 70
     1
 71
     2
 72
     1
 73
     1
 90
        2
 40
-0.6
 41
30.0
 62
     5
 63
     7
421
 16777215
 74
     1
 91
        4
 64
     7
 65
   257
 75
     1
175
     1
 42
1.0
 92
        0
 66
   257
 43
1.0
 76
     1
 77
     6
 78
     2
 67
     7
 79
     5
170
     0
171
     0
290
     0
174
     0
 93
       13
 44
0.0
173
     0
291
     1
 45
0.0
1001
ACAD
1000
AcDbSavedByObjectVersion
1070
     0
  0
VISUALSTYLE
  5
22748
102
{ACAD_XDICTIONARY
360
52A5A
102
}
102
{ACAD_REACTORS
330
22745
102
}
330
22745
100
AcDbVisualStyle
  2
Gouraud
 70
     2
 71
     2
 72
     2
 73
     1
 90
        2
 40
-0.6
 41
30.0
 62
     5
 63
     7
421
 16777215
 74
     0
 91
        4
 64
     7
 65
   257
 75
     1
175
     1
 42
1.0
 92
        0
 66
     7
 43
1.0
 76
     1
 77
     6
 78
     2
 67
     7
 79
     5
170
     0
171
     0
290
     0
174
     0
 93
       13
 44
0.0
173
     0
291
     1
 45
0.0
1001
ACAD
1000
AcDbSavedByObjectVersion
1070
     0
  0
VISUALSTYLE
  5
22749
102
{ACAD_XDICTIONARY
360
52A5C
102
}
102
{ACAD_REACTORS
330
22745
102
}
330
22745
100
AcDbVisualStyle
  2
GouraudWithEdges
 70
     3
 71
     2
 72
     2
 73
     1
 90
        2
 40
-0.6
 41
30.0
 62
     5
 63
     7
421
 16777215
 74
     1
 91
        4
 64
     7
 65
   257
 75
     1
175
     1
 42
1.0
 92
        0
 66
   257
 43
1.0
 76
     1
 77
     6
 78
     2
 67
     7
 79
     5
170
     0
171
     0
290
     0
174
     0
 93
       13
 44
0.0
173
     0
291
     1
 45
0.0
1001
ACAD
1000
AcDbSavedByObjectVersion
1070
     0
  0
VISUALSTYLE
  5
229FB
102
{ACAD_XDICTIONARY
360
52A79
102
}
102
{ACAD_REACTORS
330
22745
102
}
330
22745
100
AcDbVisualStyle
  2
Hidden
 70
     6
 71
     1
 72
     2
 73
     2
 90
        0
 40
-0.6
 41
-30.0
 62
     5
 63
     7
421
 16777215
 74
     2
 91
        2
 64
     7
 65
   257
 75
     2
175
     1
 42
40.0
 92
        0
 66
   257
 43
1.0
 76
     1
 77
     6
 78
     2
 67
     7
 79
     3
170
     0
171
     0
290
     0
174
     0
 93
        1
 44
0.0
173
     0
291
     0
 45
0.0
1001
ACAD
1000
AcDbSavedByObjectVersion
1070
     0
  0
VISUALSTYLE
  5
22A01
102
{ACAD_XDICTIONARY
360
52A85
102
}
102
{ACAD_REACTORS
330
22745
102
}
330
22745
100
AcDbVisualStyle
  2
JitterOff
 70
    20
 71
     2
 72
     2
 73
     0
 90
        0
 40
-0.6
 41
-30.0
 62
     5
 63
     7
421
 16777215
 74
     1
 91
        4
 64
     7
 65
   257
 75
     1
175
     1
 42
1.0
 92
       10
 66
     7
 43
1.0
 76
     1
 77
     6
 78
     2
 67
     7
 79
     5
170
     0
171
     0
290
     0
174
     0
 93
        1
 44
0.0
173
     0
291
     1
 45
0.0
1001
ACAD
1000
AcDbSavedByObjectVersion
1070
     0
  0
VISUALSTYLE
  5
22753
102
{ACAD_XDICTIONARY
360
52A70
102
}
102
{ACAD_REACTORS
330
22745
102
}
330
22745
100
AcDbVisualStyle
  2
Linepattern
 70
    14
 71
     2
 72
     2
 73
     0
 90
        0
 40
-0.6
 41
-30.0
 62
     5
 63
     7
421
 16777215
 74
     1
 91
        4
 64
     7
 65
   257
 75
     7
175
     7
 42
1.0
 92
        8
 66
     7
 43
1.0
 76
     1
 77
     6
 78
     2
 67
     7
 79
     5
170
     0
171
     0
290
     0
174
     0
 93
        1
 44
0.0
173
     0
291
     1
 45
0.0
1001
ACAD
1000
AcDbSavedByObjectVersion
1070
     0
  0
VISUALSTYLE
  5
22A02
102
{ACAD_XDICTIONARY
360
52A87
102
}
102
{ACAD_REACTORS
330
22745
102
}
330
22745
100
AcDbVisualStyle
  2
OverhangOff
 70
    21
 71
     2
 72
     2
 73
     0
 90
        0
 40
-0.6
 41
-30.0
 62
     5
 63
     7
421
 16777215
 74
     1
 91
        4
 64
     7
 65
   257
 75
     1
175
     1
 42
1.0
 92
        9
 66
     7
 43
1.0
 76
     1
 77
     6
 78
     2
 67
     7
 79
     5
170
     0
171
     0
290
     0
174
     0
 93
        1
 44
0.0
173
     0
291
     1
 45
0.0
1001
ACAD
1000
AcDbSavedByObjectVersion
1070
     0
  0
VISUALSTYLE
  5
2274F
102
{ACAD_XDICTIONARY
360
52A68
102
}
102
{ACAD_REACTORS
330
22745
102
}
330
22745
100
AcDbVisualStyle
  2
Realistic
 70
     8
 71
     2
 72
     2
 73
     0
 90
        0
 40
-0.6
 41
-30.0
 62
     5
 63
     7
421
 16777215
 74
     1
 91
        0
 64
     7
 65
   257
 75
     1
175
     1
 42
1.0
 92
        8
 66
     8
424
  7895160
 43
1.0
 76
     1
 77
     6
 78
     2
 67
     7
 79
     5
170
     0
171
     0
290
     0
174
     0
 93
       13
 44
0.0
173
     0
291
     0
 45
0.0
1001
ACAD
1000
AcDbSavedByObjectVersion
1070
     0
  0
VISUALSTYLE
  5
22A00
102
{ACAD_XDICTIONARY
360
52A83
102
}
102
{ACAD_REACTORS
330
22745
102
}
330
22745
100
AcDbVisualStyle
  2
Shaded
 70
    27
 71
     2
 72
     2
 73
     1
 90
        2
 40
-0.6
 41
30.0
 62
     5
 63
     7
421
 16777215
 74
     0
 91
        4
 64
     7
 65
   257
 75
     1
175
     1
 42
1.0
 92
        8
 66
   257
 43
1.0
 76
     1
 77
     6
 78
     2
 67
     8
425
  7895160
 79
     3
170
     0
171
     0
290
     0
174
     0
 93
        5
 44
0.0
173
     0
291
     0
 45
0.0
1001
ACAD
1000
AcDbSavedByObjectVersion
1070
     0
  0
VISUALSTYLE
  5
229FF
102
{ACAD_XDICTIONARY
360
52A81
102
}
102
{ACAD_REACTORS
330
22745
102
}
330
22745
100
AcDbVisualStyle
  2
Shaded with edges
 70
    26
 71
     2
 72
     2
 73
     1
 90
        2
 40
-0.6
 41
30.0
 62
     5
 63
     7
421
 16777215
 74
     1
 91
       10
 64
     7
 65
   257
 75
     2
175
     1
 42
1.0
 92
        8
 66
   257
 43
1.0
 76
     1
 77
     6
 78
     2
 67
     7
 79
     3
170
     0
171
     0
290
     0
174
     0
 93
        5
 44
0.0
173
     0
291
     0
 45
0.0
1001
ACAD
1000
AcDbSavedByObjectVersion
1070
     0
  0
VISUALSTYLE
  5
229FC
102
{ACAD_XDICTIONARY
360
52A7B
102
}
102
{ACAD_REACTORS
330
22745
102
}
330
22745
100
AcDbVisualStyle
  2
Shades of Gray
 70
    23
 71
     2
 72
     2
 73
     3
 90
        0
 40
-0.6
 41
-30.0
 62
     5
 63
     7
421
 16777215
 74
     2
 91
        2
 64
     7
 65
     7
 75
     1
175
     1
 42
40.0
 92
        8
 66
     7
 43
1.0
 76
     1
 77
     6
 78
     2
 67
     7
 79
     3
170
     0
171
     0
290
     0
174
     0
 93
        1
 44
0.0
173
     0
291
     0
 45
0.0
1001
ACAD
1000
AcDbSavedByObjectVersion
1070
     0
  0
VISUALSTYLE
  5
229FD
102
{ACAD_XDICTIONARY
360
52A7D
102
}
102
{ACAD_REACTORS
330
22745
102
}
330
22745
100
AcDbVisualStyle
  2
Sketchy
 70
    24
 71
     1
 72
     2
 73
     2
 90
        0
 40
-0.6
 41
-30.0
 62
     5
 63
     7
421
 16777215
 74
     2
 91
        2
 64
     7
 65
     7
 75
     1
175
     1
 42
40.0
 92
       11
 66
     7
 43
1.0
 76
     1
 77
     6
 78
     2
 67
     7
 79
     6
170
     0
171
     0
290
     0
174
     0
 93
        1
 44
0.0
173
     0
291
     0
 45
0.0
1001
ACAD
1000
AcDbSavedByObjectVersion
1070
     0
  0
VISUALSTYLE
  5
22752
102
{ACAD_XDICTIONARY
360
52A6E
102
}
102
{ACAD_REACTORS
330
22745
102
}
330
22745
100
AcDbVisualStyle
  2
Thicken
 70
    13
 71
     2
 72
     2
 73
     0
 90
        0
 40
-0.6
 41
-30.0
 62
     5
 63
     7
421
 16777215
 74
     1
 91
        4
 64
     7
 65
   257
 75
     1
175
     1
 42
1.0
 92
       12
 66
     7
 43
1.0
 76
     1
 77
     6
 78
     2
 67
     7
 79
     5
170
     0
171
     0
290
     0
174
     0
 93
        1
 44
0.0
173
     0
291
     1
 45
0.0
1001
ACAD
1000
AcDbSavedByObjectVersion
1070
     0
  0
VISUALSTYLE
  5
229FA
102
{ACAD_XDICTIONARY
360
52A77
102
}
102
{ACAD_REACTORS
330
22745
102
}
330
22745
100
AcDbVisualStyle
  2
Wireframe
 70
     5
 71
     0
 72
     2
 73
     0
 90
        0
 40
-0.6
 41
-30.0
 62
     5
 63
     7
421
 16777215
 74
     1
 91
        4
 64
     7
 65
   257
 75
     1
175
     1
 42
1.0
 92
        0
 66
   257
 43
1.0
 76
     1
 77
     6
 78
     2
 67
     7
 79
     3
170
     0
171
     0
290
     0
174
     0
 93
        1
 44
0.0
173
     0
291
     0
 45
0.0
1001
ACAD
1000
AcDbSavedByObjectVersion
1070
     0
  0
VISUALSTYLE
  5
229FE
102
{ACAD_XDICTIONARY
360
52A7F
102
}
102
{ACAD_REACTORS
330
22745
102
}
330
22745
100
AcDbVisualStyle
  2
X-Ray
 70
    25
 71
     2
 72
     2
 73
     1
 90
        1
 40
0.5
 41
-30.0
 62
     5
 63
     7
421
 16777215
 74
     1
 91
        0
 64
     7
 65
   257
 75
     1
175
     1
 42
1.0
 92
        8
 66
     7
 43
1.0
 76
     1
 77
     6
 78
     2
 67
     7
 79
     3
170
     0
171
     0
290
     0
174
     0
 93
       13
 44
0.0
173
     0
291
     0
 45
0.0
1001
ACAD
1000
AcDbSavedByObjectVersion
1070
     0
  0
DICTIONARYVAR
  5
22809
102
{ACAD_REACTORS
330
173D
102
}
330
173D
100
DictionaryVariables
280
     0
  1
1:1
  0
DICTIONARYVAR
  5
22807
102
{ACAD_REACTORS
330
173D
102
}
330
173D
100
DictionaryVariables
280
     0
  1
STANDARD
  0
DICTIONARYVAR
  5
22806
102
{ACAD_REACTORS
330
173D
102
}
330
173D
100
DictionaryVariables
280
     0
  1
STANDARD
  0
DICTIONARYVAR
  5
2280B
102
{ACAD_REACTORS
330
173D
102
}
330
173D
100
DictionaryVariables
280
     0
  1
1
  0
DICTIONARYVAR
  5
2280C
102
{ACAD_REACTORS
330
173D
102
}
330
173D
100
DictionaryVariables
280
     0
  1
15
  0
DICTIONARYVAR
  5
2280A
102
{ACAD_REACTORS
330
173D
102
}
330
173D
100
DictionaryVariables
280
     0
  1
0
  0
DICTIONARYVAR
  5
22808
102
{ACAD_REACTORS
330
173D
102
}
330
173D
100
DictionaryVariables
280
     0
  1
0
  0
DICTIONARYVAR
  5
52650
102
{ACAD_REACTORS
330
173D
102
}
330
173D
100
DictionaryVariables
280
     0
  1
1
  0
DICTIONARYVAR
  5
173E
102
{ACAD_REACTORS
330
173D
102
}
330
173D
100
DictionaryVariables
280
     0
  1
96
  0
XRECORD
  5
2272A
102
{ACAD_REACTORS
330
22728
102
}
330
22728
100
AcDbXrecord
280
     1
  0
XRECORD
  5
1606
102
{ACAD_REACTORS
330
1563
102
}
330
1563
100
AcDbXrecord
280
     1
 91
      483
330
10
 90
        8
 62
     7
370
    -3
331
16
  1
Color_7
  0
DICTIONARY
  5
22AE9
330
22
100
AcDbDictionary
280
     1
281
     1
  3
ADSK_XREC_LAYOUTTHUMBNAIL
360
22AEA
  0
DICTIONARY
  5
22736
330
22735
100
AcDbDictionary
280
     1
281
     1
  3
ACAD_XREC_ROUNDTRIP
360
52A54
  3
BUMPTILE
360
22738
  3
DIFFUSETILE
360
22737
  3
OPACITYTILE
360
2273B
  3
REFLECTIONTILE
360
2273A
  3
REFRACTIONTILE
360
2273C
  3
SPECULARTILE
360
22739
  0
DICTIONARY
  5
2272E
330
2272D
100
AcDbDictionary
280
     1
281
     1
  3
ACAD_XREC_ROUNDTRIP
360
52A53
  3
BUMPTILE
360
22730
  3
DIFFUSETILE
360
2272F
  3
OPACITYTILE
360
22733
  3
REFLECTIONTILE
360
22732
  3
REFRACTIONTILE
360
22734
  3
SPECULARTILE
360
22731
  0
DICTIONARY
  5
2273E
330
2273D
100
AcDbDictionary
280
     1
281
     1
  3
ACAD_XREC_ROUNDTRIP
360
52A55
  3
BUMPTILE
360
22740
  3
DIFFUSETILE
360
2273F
  3
OPACITYTILE
360
22743
  3
REFLECTIONTILE
360
22742
  3
REFRACTIONTILE
360
22744
  3
SPECULARTILE
360
22741
  0
DICTIONARY
  5
52A4D
330
2276C
100
AcDbDictionary
280
     1
281
     1
  3
ACAD_XREC_ROUNDTRIP
360
52A4E
  0
DICTIONARY
  5
22803
330
22758
100
AcDbDictionary
280
     1
281
     1
  3
ACAD_ROUNDTRIP_2008_TABLESTYLE_CELLSTYLEMAP
360
52A4C
  3
ACAD_XREC_ROUNDTRIP
360
52A76
  0
DICTIONARY
  5
52A60
330
2274B
100
AcDbDictionary
280
     1
281
     1
  3
ACAD_XREC_ROUNDTRIP
360
52A61
  0
DICTIONARY
  5
52A64
330
2274D
100
AcDbDictionary
280
     1
281
     1
  3
ACAD_XREC_ROUNDTRIP
360
52A65
  0
DICTIONARY
  5
52A62
330
2274C
100
AcDbDictionary
280
     1
281
     1
  3
ACAD_XREC_ROUNDTRIP
360
52A63
  0
DICTIONARY
  5
52A5E
330
2274A
100
AcDbDictionary
280
     1
281
     1
  3
ACAD_XREC_ROUNDTRIP
360
52A5F
  0
DICTIONARY
  5
52A6C
330
22751
100
AcDbDictionary
280
     1
281
     1
  3
ACAD_XREC_ROUNDTRIP
360
52A6D
  0
DICTIONARY
  5
52A74
330
22755
100
AcDbDictionary
280
     1
281
     1
  3
ACAD_XREC_ROUNDTRIP
360
52A75
  0
DICTIONARY
  5
52A66
330
2274E
100
AcDbDictionary
280
     1
281
     1
  3
ACAD_XREC_ROUNDTRIP
360
52A67
  0
DICTIONARY
  5
52A6A
330
22750
100
AcDbDictionary
280
     1
281
     1
  3
ACAD_XREC_ROUNDTRIP
360
52A6B
  0
DICTIONARY
  5
52A89
330
22A03
100
AcDbDictionary
280
     1
281
     1
  3
ACAD_XREC_ROUNDTRIP
360
52A8A
  0
DICTIONARY
  5
52A72
330
22754
100
AcDbDictionary
280
     1
281
     1
  3
ACAD_XREC_ROUNDTRIP
360
52A73
  0
DICTIONARY
  5
52A56
330
22746
100
AcDbDictionary
280
     1
281
     1
  3
ACAD_XREC_ROUNDTRIP
360
52A57
  0
DICTIONARY
  5
52A58
330
22747
100
AcDbDictionary
280
     1
281
     1
  3
ACAD_XREC_ROUNDTRIP
360
52A59
  0
DICTIONARY
  5
52A5A
330
22748
100
AcDbDictionary
280
     1
281
     1
  3
ACAD_XREC_ROUNDTRIP
360
52A5B
  0
DICTIONARY
  5
52A5C
330
22749
100
AcDbDictionary
280
     1
281
     1
  3
ACAD_XREC_ROUNDTRIP
360
52A5D
  0
DICTIONARY
  5
52A79
330
229FB
100
AcDbDictionary
280
     1
281
     1
  3
ACAD_XREC_ROUNDTRIP
360
52A7A
  0
DICTIONARY
  5
52A85
330
22A01
100
AcDbDictionary
280
     1
281
     1
  3
ACAD_XREC_ROUNDTRIP
360
52A86
  0
DICTIONARY
  5
52A70
330
22753
100
AcDbDictionary
280
     1
281
     1
  3
ACAD_XREC_ROUNDTRIP
360
52A71
  0
DICTIONARY
  5
52A87
330
22A02
100
AcDbDictionary
280
     1
281
     1
  3
ACAD_XREC_ROUNDTRIP
360
52A88
  0
DICTIONARY
  5
52A68
330
2274F
100
AcDbDictionary
280
     1
281
     1
  3
ACAD_XREC_ROUNDTRIP
360
52A69
  0
DICTIONARY
  5
52A83
330
22A00
100
AcDbDictionary
280
     1
281
     1
  3
ACAD_XREC_ROUNDTRIP
360
52A84
  0
DICTIONARY
  5
52A81
330
229FF
100
AcDbDictionary
280
     1
281
     1
  3
ACAD_XREC_ROUNDTRIP
360
52A82
  0
DICTIONARY
  5
52A7B
330
229FC
100
AcDbDictionary
280
     1
281
     1
  3
ACAD_XREC_ROUNDTRIP
360
52A7C
  0
DICTIONARY
  5
52A7D
330
229FD
100
AcDbDictionary
280
     1
281
     1
  3
ACAD_XREC_ROUNDTRIP
360
52A7E
  0
DICTIONARY
  5
52A6E
330
22752
100
AcDbDictionary
280
     1
281
     1
  3
ACAD_XREC_ROUNDTRIP
360
52A6F
  0
DICTIONARY
  5
52A77
330
229FA
100
AcDbDictionary
280
     1
281
     1
  3
ACAD_XREC_ROUNDTRIP
360
52A78
  0
DICTIONARY
  5
52A7F
330
229FE
100
AcDbDictionary
280
     1
281
     1
  3
ACAD_XREC_ROUNDTRIP
360
52A80
  0
XRECORD
  5
22AEA
102
{ACAD_REACTORS
330
22AE9
102
}
330
22AE9
100
AcDbXrecord
280
     1
310
280000000001000065000000010008000000000000650000000000000000000000010000000000003028210000000000FFFFFF000000000000000000000000000000000000000000000000000000000000000000330000006600000099000000CC000000FF00000000330000333300006633000099330000CC330000FF3300
310
0000660000336600006666000099660000CC660000FF66000000990000339900006699000099990000CC990000FF99000000CC000033CC000066CC000099CC0000CCCC0000FFCC000000FF000033FF000066FF000099FF0000CCFF0000FFFF000000003300330033006600330099003300CC003300FF003300003333003333
310
33006633330099333300CC333300FF33330000663300336633006666330099663300CC663300FF66330000993300339933006699330099993300CC993300FF99330000CC330033CC330066CC330099CC3300CCCC3300FFCC330000FF330033FF330066FF330099FF3300CCFF3300FFFF330000006600330066006600660099
310
006600CC006600FF00660000336600333366006633660099336600CC336600FF33660000666600336666006666660099666600CC666600FF66660000996600339966006699660099996600CC996600FF99660000CC660033CC660066CC660099CC6600CCCC6600FFCC660000FF660033FF660066FF660099FF6600CCFF6600
310
FFFF660000009900330099006600990099009900CC009900FF00990000339900333399006633990099339900CC339900FF33990000669900336699006666990099669900CC669900FF66990000999900339999006699990099999900CC999900FF99990000CC990033CC990066CC990099CC9900CCCC9900FFCC990000FF99
310
0033FF990066FF990099FF9900CCFF9900FFFF99000000CC003300CC006600CC009900CC00CC00CC00FF00CC000033CC003333CC006633CC009933CC00CC33CC00FF33CC000066CC003366CC006666CC009966CC00CC66CC00FF66CC000099CC003399CC006699CC009999CC00CC99CC00FF99CC0000CCCC0033CCCC0066CC
310
CC0099CCCC00CCCCCC00FFCCCC0000FFCC0033FFCC0066FFCC0099FFCC00CCFFCC00FFFFCC000000FF003300FF006600FF009900FF00CC00FF00FF00FF000033FF003333FF006633FF009933FF00CC33FF00FF33FF000066FF003366FF006666FF009966FF00CC66FF00FF66FF000099FF003399FF006699FF009999FF00CC
310
99FF00FF99FF0000CCFF0033CCFF0066CCFF0099CCFF00CCCCFF00FFCCFF0000FFFF0033FFFF0066FFFF0099FFFF00CCFFFF00FFFFFF00000000000D0D0D001A1A1A00282828003535350043434300505050005D5D5D006B6B6B00787878008686860093939300A1A1A100AEAEAE00BBBBBB00C9C9C900D6D6D600E4E4E400
310
F1F1F100FFFFFF000000000000000000000000000000000000000000000000000000000000000000000000000000000000002D00000000000000000000000000000000000000000000000000000000000000000000000000000000000000280028000028000000000000000000000000000000000000000000000000000000
310
00000000000000000000000000000000000000000000000028002800280000000000000000000000000000000000000000000000000000000000000000000000000000000000000000000000000000000028002800280000000000000000000000000000000000000000000000000000000000000000000000000000000000
310
000000000000000000000028002800280000000000000000000000000000000000000000000000000000000000000000000000002D0000000000000000000000000000000000000000000000000000000000000000000000000000000000000000280028000028000000000000000000000000000000000000000000000000
310
00000000000000000000000000000000000000000000000000000028002800280000000000000000000000000000000000000000000000000000000000000000000000000000000000000000000000000000000028002800280000000000000000000000000000000000000000000000000000000000000000000000000000
310
0000000000000000000000000000280028002800000000000000000000000000000000000000000000000000000000000000000000002D000000000000000000000000000000000000000000000000000000000000000000000000000000000000000000280028000028000000000000000000000000000000000000000000
310
00000000000000000000000000000000000000000000000000000000000028002800280000000000000000000000000000000000000000000000000000000000000000000000000000000000000000000000000000000028002800280000000000000000000000000000000000000000000000000000000000000000000000
310
00000000000000000000000000000000002800280028000000000000000000000000000000000000000000000000000000000000000000002D00000000000000000000000000000000000000000000000000000000000000000000000000000000000000000000280028000028000000000000000000000000000000000000
310
00000000000000000000000000000000000000000000000000000000000000000028002800280000000000000000000000000000000000000000000000000000000000000000000000000000000000000000000000000000000028002800280000000000000000000000000000000000000000000000000000000000000000
310
000000000000000000000000000000000000000028002800280000000000000000000000000000000000000000000000000000000000000000002D0000000000000000000000000000000000000000000000000000000000000000000000000000000000000000000000280028000028000000000000000000000000000000
310
00000000000000000000000000000000000000000000000000000000000000000000002800002800280000000000000000000000000000000000000000000000000000000000000000000000000000000000000000000000000000002800280000280000000000000000000000000000000000000000000000000000000000
310
0000000000000000000000000000000000000000000028002800002800000000000000000000000000000000000000000000000000000000000000002D000000000000000000000000000000000000000000000000000000000000000000000000000000000000000000000000280028000028000000000000000000000000
310
00000000000000000000000000000000000000000000000000000000000000000000000000F52800002800280000000000000000000000000000000000000000000000000000000000000000000000000000000000000000000000000000002800280000280000000000000000000000000000000000000000000000000000
310
0000F500000000000000000000000000000000000000000000280028000028000000000000000000000000000000000000000000000000000000000000002D00000000000000000000000000000000000000000000000000000000000000000000000000000000000000000000000000280028002800000000000000000000
310
000000000000000000000000000000000000000000000000000000000000000000000000000000F5002800002800280000000000000000000000000000000000000000000000000000000000000000000000000000000000000000000000000000002800280000280000000000000000000000000000000000000000000000
310
00000000F500000000000000000000000000000000000000000000002800280000280000000000000000000000000000000000000000000000000000000000002D000000000000000000000000000000000000000000000000000000000000000000000000000000000000000000000000000028002800280000002D282D2D
310
2D2D2D2D2D2D2D2D2D2D2D2D2D2D2D2D2D2D2D2D2D2D2D2D2D2D2D2D2D2D2D2D2D2D2D2D2D2D2D2D2DF52D2D282D2D282D282D2D2D2D2D2D2D2D2D2D2D2D2D2D2D2D2D2D2D2D2D2D2D2D2D2D2D2D2D2D2D2D2D2D2D2D2D2D2D2D2D2D2D2D2D2D2D2D2D2D2D282D282D2D282D2D2D2D2D2D2D2D2D2D2D2D2D2D2D2D2D2D2D2D
310
2D2D2D2D2D2D2D2D2D2D2D2D2D2D2D2D2D2D2D2D2D2D2D2D2D2D2D2D2D2D2D282D282D2D282D2D2D2D2D2D2D2D2D2DF52D2D2D2D2D2D2D2D2D2D2D2D2D2D000000002D000000000000000000000000000000000000000000000000000000000000000000000000000000000000000000000000000000280028002800002800
310
000000002800002D0000000000000000000000000000000000002D000000002D0000000000002D2D2D2D2DF52D2D2D2D2D2D0000000000000000000000000000000000000000000000000000000000000000000000000000000000000000000000000000000000000000000000000000000000000000000000000000000000
310
002D2D2D2D2D2D2D2D2D2D2D2D2D2D00000000000000000000000000000000000000000000000000000000000000000000000000000000000000000000002D00000000002800000000000000000000000000000000000000000000000000000000000000000000000000000000000000000000000000000000280028002800
310
2D00000000002800002D0000000000000000000000000000000000002D000000002D0000000000002D00000000F500000000002D000000000000000000000000000000000000000000000000000000000000000000000000000000000000000000000000000000000000000000000000000000000000000000000000000000
310
0000002D2D2D2D2D2D2D2D2D2D2D2D2D2D00000000000000000000000000000000000000000000000000000000000000000000000000000000000000000000002D00000000002D2800000000000000000000000000000000000000000000000000000000000000000000000000000000000000000000000000000000280028
310
00282800000000002800002D0000000000000000000000000000000000002D000000002D000000000000002D000000F500000000F52D00000000000000000000000000000000000000000000000000000000000000000000000000000000000000000000000000000000000000000000000000000000000000000000000000
310
0000000000002D0000000000F5000000002D0000000000000000000000000000000000000000000000000000000000000000000000000000000000000000000000002D000000000028002800000000000000000000000000000000000000000000000000000000000000000000000000000000000000000000000000000000
310
280028002828000000002800002D0000000000000000000000000000000000002D000000002D000000000000002D000000F5000000002DF50000000000000000000000000000000000000000000000000000000000000000000000000000000000000000000000000000000000000000000000000000000000000000000000
310
00000000000000002D0000000000F5000000002D0000000000000000000000000000000000000000000000000000000000000000000000000000000000000000000000002D00000000002D28002800000000000000000000000000000000000000000000000000000000000000000000000000000000000000000000000000
310
0000002800282D00280000282800002D0000000000000000000000000000000000002D000000002D000000000000002D2D2D2DF52D2D2D2D2DF5000000000000000000000000000000000000000000000000000000000000000000000000000000000000000000000000000000000000000000000000000000000000000000
310
000000000000000000002D0000000000F5000000002D0000000000000000000000000000000000000000000000000000000000000000000000000000000000000000000000002D00000000002D0028002828000000000000000000000000000000000000000000000000000000000000000000000000000000000000000000
310
00000000000028002800002828002800002D0000000000000000000000000000000000002D000000002D00000000000000002D0000F500002D000000F5000000000000000000000000000000000000000000000000000000000000000000000000000000000000000000000000000000000000000000000000000000000000
310
000000000000000000000000F52D00000000F5000000002D0000000000000000000000000000000000000000000000000000000000000000000000000000000000000000000000002D000000000028000028000028000000000000000000000000000000000000000000000000000000000000000000000000000000000000
310
000000000000000000282D00002828002800002D0000000000000000000000000000000000002D000000002D00000000000000002D0000F500002D00000000F5000000000000000000000000000000000000000000000000000000000000000000000000000000000000000000000000000000000000000000000000000000
310
0000000000000000000000000000F52D00000000F50000002D000000000000000000000000000000000000000000000000000000000000000000000000000000000000000000000000002D00000000002D28000028000028000000000000000000000000000000000000000000000000000000000000000000000000000000
310
0000000000000000000000002800002800282800002D0000000000000000000000000000000000002D000000002D00000000000000002D0000F500002D00000000F500000000000000000000000000000000000000000000000000000000000000000000000000000000000000000000000000000000000000000000000000
310
000000000000000000000000000000F5002D00000000F50000002D000000000000000000000000000000000000000000000000000000000000000000000000000000000000000000000000002D00000000002D0028280028000028000000000000000000000000000000000000000000000000000000000000000000000000
310
00000000000000000000000000002D00280000002800002D0000000000000000000000000000000000002D000000002D00000000000000002D0000F500002D0000000000F5F5F5F5F5F5F5F5F5F5F5F5F5F5F5F5F5F5F5F5F5F5F5F5F5F5F5F5F5F5F5F5F5F5F5F5F500000000000000000000000000000000000000000000
310
0000000000000000000000000000000000F5002D00000000F50000002D000000000000000000000000000000000000000000000000000000000000000000000000000000000000000000000000002D00000000002D2D2D2D282D28000028000000000000000000000000000000000000000000000000000000000000000000
310
000000000000000000000000000000002D28000000002800002D0000000000000000000000000000000000002D000000002D00000000000000002D0000F500002D00000000000000000000F5000000000000000000000000000000000000000000000000000000000000000000000000000000000000000000000000000000
310
000000000000000000000000000000000000F500002D2D2D2D2D2D2D2D2D2D000000000000000000000000000000000000000000000000000000000000000000000000000000000000000000000000002D00000000000000000000282D282D2D282D2D2D2D2D2D2D0000000000000000000000000000000000000000000000
310
0000000000000000000000000000000000002D00000000002800002D0000000000000000000000000000000000002D000000002D00000000000000002D0000F500002D00000000000000F50000F5F500F5F5F500F5F500F5F50000F5F5F5F500F500F5F5F5F5F5F500F5F5F500000000000000000000000000000000000000
310
0000000000000000000000000000000000000000F5000000002D0000F5002D0000000000000000000000000000000000000000000000000000000000000000000000000000000000000000000000000000002D00000000000000000000282828282800002828282828002D2D2D2D2D2D2D2D2D2D2D2D000000000000000000
310
00000000000000000000000000000000000000002D00000000002800002D0000000000000000000000000000000000002D000000002D00000000000000002D0000F500002D000000000000F5F5F500F5F500F5F5F500F5F50000F5F500F50000F5F50000F5F5F50000F50000F5000000000000000000000000000000000000
310
000000000000000000000000000000000000000000F500000000002D0000F5002D0000000000000000000000000000000000000000000000000000000000000000000000000000000000000000000000000000002D00000000000000000000282828282828002828282828002828280028280028280000002D2D2D2D2D2D2D
310
2D2D2D2D2D00000000000000000000000000000000002D00000000002800002D0000000000000000000000000000000000002D000000002D00000000000000002D0000F500002D00000000000000F5F500000000F500F500000000F500F500F50000F5F5F500F5F500F5F5F5F500F500000000000000000000000000000000
310
0000000000000000000000000000000000000000000000F500000000002D0000F5002D0000000000000000000000000000000000000000000000000000000000000000000000000000000000000000000000000000002D00000000000000000000282828282828002828282828282800282828280028282800000000282800
310
000000000000002D2D2D2D2D2D2D2D2D2D2D2D00000000002D00000000002800002D0000000000000000000000000000000000002D000000002D00000000000000002D2D2D2D2D2D2D000000000000000000000000000000000000000000000000000000000000000000000000000000000000000000000000000000000000
310
000000000000000000000000000000000000000000000000F50000000000002D0000F5002D0000000000000000000000000000000000000000000000000000000000000000000000000000000000000000000000000000002D0000000000000000000028282828282800282828282828282828282828282828282828282828
310
282828002828000000000000002D000000280000002D2D2D2D2D2D00000000282800002D0000000000000000000000000000000000002D000000002D00000000000000002D00002D2D002D00000000000000000000000000000000000000000000000000000000000000000000000000000000000000000000000000000000
310
0000000000000000000000000000000000000000000000000000F50000000000002D0000F5002D0000000000000000000000000000000000000000000000000000000000000000000000000000000000000000000000000000002D000000000000000000002828002828002828280028282828000000000000000000000000
310
0000000028000000000028002800002D0000000028002800000000000028000028002800002D0000000000000000000000000000000000002D000000002D00000000000000002D00002D2D002D0000000000000000000000000000000000000000000000000000000000000000000000000000F5F5F5F5F5F5F5F5F5F5F5F5
310
F5F5F5F5F5F5F5F5F5F5F5F5F5F5F5F5F5F5F5F5F5F5F5F5F5F5F5F5000000000000002D0000F5002D0000000000000000000000000000000000000000000000000000000000000000000000000000000000000000000000000000002D00000000000000000000282828282800282828282828282800000000000000000000
310
000000000000280000002800000000002D000000000000280000000000000000282800002800002D0000000000000000000000000000000000002D000000002D00000000000000002D00002D2D002D000000000000000000000000000000000000000000000000000000000000000000000000000000000000000000000000
310
000000000000000000000000000000000000000000000000000000000000000000000000002D0000F5002D0000000000000000000000000000000000000000000000000000000000000000000000000000000000000000000000000000002D0000000000000000000028282828280028282828282800280000000000000000
310
00000000000000002800000028000028282D00000000000028002800000000000000282800002800002D0000000000000000000000000000000000002D000000002D000000000000002D2D2D2D2D2D2D2D2D0000000000000000000000000000000000000000000000000000000000000000000000000000F5F500F5F50000
310
F5F500F5F50000F5F500F5F5F500F5F5F5F5F5F500F5F5F5F5F5F500F5F5F500000000000000002D0000F5002D0000000000000000000000000000000000000000000000000000000000000000000000000000000000000000000000000000002D000000000000000000002828282828000028282828280028000000000000
310
000000000000000000002800282800000028282D00000000002800000028000000000028000028002800002D0000000000000000000000000000000000002D000000002D000000000000002D2D00002D2D002D2D0000000000000000000000000000000000000000000000000000000000000000000000000000F5F500F5F5
310
F500F5F500F5F50000F500F5F5000000F500F5F5F5F500F5F5F50000F50000F5F500000000000000002D0000F5002D0000000000000000000000000000000000000000000000000000000000000000000000000000000000000000000000000000002D00000000000000282828282828282828282828282828282828280000
310
00000000000000000000000028000028000000002D0028000000280028282828280000002800000000282800002D0000000000000000000000000000000000002D000000002D000000000000002D2D00002D2D002D2D0000000000000000000000000000000000000000000000000000000000000000000000000000F5F5F5
310
00000000F5F5F500000000F500F5F5000000F5F5F5F5F5F500F5F5F5F5F5F5F500F500000000000000002D2D2D2D2D2D2D2D00000000000000000000000000000000000000000000000000000000000000000000000000000000000000000000000000002D0000000000000028282828282828282828282828282828282828
310
0000000000000000000000000000280000000000002D000000280028002800000000282828282828280000002800002D0000000000000000000000000000000000002D000000002D000000000000002D2D00002D2D002D2D000000000000000000000000000000000000000000000000000000000000000000000000000000
310
00000000000000000000000000000000000000000000000000000000000000000000000000000000000000002D2D002D2D002D2D00000000000000000000000000000000000000000000000000000000000000000000000000000000000000000000282828282D000000000000002828000028282828000000000000000000
310
28280000000000000000000000000000280000002800002D000000002800002800000000000000000000002828282800002D0000000000000000000000000000000000002D000000002D000000000000002D2D00002D2D002D2D2D000000000000000000000000000000000000000000000000000000000000000000000000
310
000000000000000000000000000000000000000000000000000000000000000000000000000000000000000000002D2D002D2D002D2D00000000000000000000000000000000000000000000000000000000000000000000000000000000000000000000002800002D00000000000000282800002828282828282828282800
310
0000282800000000000000000000000000002800000000002D00000000280028280000000000000000000000000000000000002D0000000000000000000000000000000000002D000000002D0000000000002D2D2D00002D2D002D002D00000000000000000000000000000000000000000000000000000000000000000000
310
0000000000000000000000000000000000000000000000000000000000000000000000000000000000000000000000002D2D002D2D002D2D00000000000000000000000000000000000000000000000000000000000000000000000000000000000000000000002828282D0000000000000028280000000000000028282828
310
28282828282828282828282828000000000000002800280000002D00000028000000280000000000000000000000000000000000002D0000000000000000000000000000000000002D000000002D0000000000002D2D2D00002D2D002D002D0000000000000000000000000000000000000000000000000000000000000000
310
00000000000000000000000000000000000000000000000000000000000000000000000000000000000000000000000000002D2D002D2D002D2D00000000000000000000000000000000000000000000000000000000000000000000000000000000000000000000000000002D000000000000002828000000000000000000
310
000028280000000028282828282828000000000000002800000000002D00002800000028000000000000000000000000000000000000002D0000000000000000000000000000000000002D000000002D0000000000002D002D00002D2D002D002D2D0000000000000000000000000000000000000000000000000000000000
310
000000000000000000000000000000000000000000000000000000000000000000000000000000000000000000000000000000002D2D002D2D002D2D00000000000000000000000000000000000000000000000000000000000000000000000000000000000000000000000000002D00000000000000282800000000000000
310
0000000028280000000000000000002828000000000000002800000000002D00280000000028000000000000000000000000000000000000002D0000000000000000000000000000000000002D000000002D00000000002D2D002D00002D2D002D00002D000000000000000000000000000000000000000000000000000000
310
0000000000000000000000000000000000000000000000000000000000000000000000000000000000000000000000000000000000002D2D002D2D002D2D0000000000000000F5F5F5F5F5F5F5F5F5F5F5F5F5F5F5F5F5F5F5F5F5F500000000000000000000000000000000000000002D0000000000000028280000000000
310
00000000000028280000000000000000002828000000000000002800002828282D28000000000028000000000000000000000000000000000000002D0000000000000000000000000000000000002D000000002D000000002D2D2D2D2D2D2D2D2D2D2D2D2D2D2D000000000000000000000000000000000000000000000000
310
00000000000000000000000000000000000000000000000000000000000000000000000000000000000000000000000000000000000000002D2D002D2D002D2D00000000000000F50000F5F5F50000000000F500F5F5F5F5F5F50000000000000000000000000000000000000000000000002D000000000000002828000000
310
000000000000000028280000000000000000002828000000000028282828282828282D00280000000028000000000000000000000000000000000000002D0000000000000000000000000000000000002D000000002D2D2D2D2D2D2D2D2D2D2D2D2D2D2D2D2D2D2D2D2D000000000000000000000000000000000000000000
310
000000000000000000000000000000000000000000000000000000000000000000000000000000000000000000000000000000000000000000002D2D002D2D002D2D00000000000000F50000F5F5F5F5F5F50000F5F5F5F5F5F5F5F5F500000000000000000000000000000000000000000000002D00000000000000282800
310
0000000000000000000028280000000000000000002828000000000028282828000000002D00002828000028000000000000000000000000000000000000002D0000000000000000000000000000000000002D000000002D2D2D002D2D2D2D00000000F500000000002D2D2D00000000000000000000000000000000000000
310
0000000000000000000000000000000000000000000000000000000000000000000000000000000000000000000000000000000000000000000000002D2D002D2D002D2D000000000000F500000000F5F50000000000F5F5F5F5F500F5F5F500000000000000000000000000000000000000000000002D0000000000000028
310
28000000000000000000000000000000000000000000002828000000000000002828000000002D00000000280028000000000000000000000000000000000000002D0000000000000000000000000000000000002D000000002D002D2D002D00002D000000F5000000002D00002D0000000000000000000000000000000000
310
000000000000000000000000000000000000000000000000000000000000000000000000000000000000000000000000000000000000000000000000002D2D2D2D2D2D2D2D2D2D00000000F500000000000000000000000000000000000000000000000000000000000000000000000000000000000000002D000000000000
310
002828000000000000000000000000000000000000000000002828000000000000002828000028282D00000000002828000000000000000000000000000000000000002D0000000000000000000000000000000000002D000000002D2D002D2D2D0000002D2D00F500002D2D0000002D000000000000000000000000000000
310
000000000000000000000000000000000000000000000000000000000000000000000000000000000000000000000000000000000000000000000000002D2D2D2D2D2D00F52D2D2D2D2D2D0000F500000000000000000000000000000000000000000000000000000000000000000000000000000000000000002D00000000
310
0000002828000000000000000000000000000000000000000000002828000000000000002828002828282D00000000002828000000000000000000000000000000000000002D0000000000000000000000000000000000002D000000002D2D2D2D2D2D00000000002DF5002D00000000002D00000000000000000000000000
310
000000000000000000000000000000000000000000000000000000000000000000000000000000000000000000000000000000000000000000000000002D2D2D00002D002D00F52D002D00002D2DF50000000000000000000000000000000000000000000000000000000000000000000000000000000000000000002D0000
310
00000000002828000000000000000000000000000000000000000000002828000000000000002828002800282D28000028280028000000000000000000000000000000000000002D0000000000000000000000000000000000002D000000002D2D2D002D2D000000000000F52D0000000000002D0000000000000000000000
310
000000000000000000000000000000000000000000000000000000000000000000000000000000000000000000000000000000000000000000000000002D2D2D002D2D2D2D002D2DF52D002D2D2D2D002D2D2D000000000000000000000000000000000000000000000000000000000000000000000000000000000000002D
310
000000000000002828000000000000000000000000000000000000000000002828000000000000002828000000282828002800000028000000000000000000000000000000000000002D0000000000000000000000000000000000002D000000002D002D2D002D00000000002DF5002D00000000002D000000000000000000
310
000000000000000000000000000000000000000000000000000000000000000000000000000000000000000000000000000000000000000000000000002D2D2D2D2D2D002D2D002D2D2DF52D2D002D2D002D2D2D2D2D2D00000000000000000000000000000000000000000000000000000000000000000000000000000000
310
002D000000000000002828000000000000000000000000000000000000000000282828282828280000002828000028282828280000000028000000000000000000000000000000000000002D0000000000000000000000000000000000002D000000002D2D002D2D2D0000002D2D00F500002D2D0000002D00000000000000
310
0000000000000000000000000000000000000000000000000000000000000000000000000000000000000000000000000000000000000000000000002D2D2D2D2D2D2D2D2D2D2D2D2D2D2D2DF52D2D2D2D2D2D2D2D2D2D2D2D2D2D2D0000000000000000000000000000000000000000000000000000000000000000000000
310
0000002D000000000000002828000000000000000000000000000000000000000000282800000028282828282828280028282828000000000028000000000000000000000000000000000000002D0000000000000000000000000000000000002D000000002D2D2D002D2D00002D000000F50000F5002D00002D0000000000
310
0000000000000000000000000000000000000000000000002D2D0000000000000000000000000000000000000000000000000000000000000000000000002D2D2D2D2D2D2D2D2D2D2D2D2D2D2D2DF52D2D2D2D2D2D2D2D2D2D2D2D2D2D2D000000000000000000000000000000000000000000000000000000000000000000
310
00000000002D000000000000002828000000000000000000000000000000000000000000282828280028282828282828000000282828280000000028000000000000000000000000000000000000002D0000000000000000000000000000000000002D000000002D2D002D002D2D2D00000000F5000000F5002D2D2D000000
310
000000000000000000000000000000000000000000000000002D2D000000000000000000000000000000000000000000000000000000000000000000000000002D002D00000000000000000000000000F50000000000000000000000002D002D00000000000000000000000000000000000000000000000000000000000000
310
000000000000002D000000000000002828000000000000000000000000000000000000000000282828282828282828282828282828282828002800000028000000000000000000000000000000000000002D0000000000000000000000000000000000002D000000002D2D2D2D2D2D2D2D2D2D2D2D2D2D2D2DF52D2D2D2D2D
310
2D2D2D2D2D2D2D2D2D2D2D2D2D2D2D2D2D2D2D2D2D2D2D2D2D2D2D2D2D2D2D2D2D2D2D2D2D2D2D2D2D2D2D2D2D2D2D2D2D2D2D2D2D2D2D2D2D2D2D2D2D2D2D2D2D2D2D2D2D2D2D2D2D2D2D2D2D2D2D2D2D2DF52D2D2D2D2D2D2D2D2D2D2D2D2D2D2D2D2D2D2D2D2D2D2D2D2D2D2D2D2D2D2D2D2D2D2D2D2D2D2D2D00000000
310
0000000000000000002D000000000000002828000000000000000000000000000000000000000000282828282828280028282828282828282828000028000028000000000000000000000000000000000000002D0000000000000000000000000000000000002D000000002D000000002D0000002800282800282800F52800
310
000028002828002828000028000000280028280028280000280000002D2D28280028280000280000002800282800282800002800000028002828002828000028000000280028280028280000280000002D000000F500002D002800000028002828002828000028000000280028280028280000280000002800282800000000
310
00000000000000000000002D000000000000002828000000000000000000000000000000000000000000282800280028282828000000000028282828000000280028000000000000000000000000000000000000002D0000000000000000000000000000000000002D000000002D000000002D0000000000282800282800F5
310
2800000000002828002828000028000000000028280028280000280000002D2D28280028280000280000000000282800282800002800000000002828002828000028000000000028280028280000280000002D000000F500002D00280000000000282800282800002800000000002828002828000028000000000028280000
310
000000000000000000000000002D000000000000002828000000000000000000000000000000000000000000282800280000000000282828280028282828282828282828282828282828282828000000000000000000002D0000000000000000000000000000000000002D000000002D000000002D28280000000000000000
310
0000F5282800000000000000000000002828000000000000000000000000002D2D0000000000000000002828000000000000000000000028280000000000000000F50000282800000000000000000000002828002D0000000000002D0000282800000000000000000000002828000000000000000000000028280000000000
310
0000000000000000000000000000002D000000000000002828000000000000000000000000000000000000000000282828282828282828282828282828282828282828282828282828282828282828000000000000000000002D0000000000000000000000000000000000002D000000002D000000002D0000282800282800
310
00000000280000282800282800000000002800002800002828000000000028002D002D002828000000000028000028000028280000000000280000280000282800000000F528000028000028280000000000280000282D0000000000002D002800002800002828000000000028000028000028280000000000280000280000
310
28280000000000000000000000000000002D00000000000000282800000000000000000000000000000000000000000028282828280000282828000028282828282800000000000000000000000000282D2D2D282D2D2D282D2D2D282D2D2D282D2D2D282D2D2D282D2D2D282D2D2D282D2D282D282800002D000028000028
310
00002800000028F500280000280000280000002800002800002800002800000028002D2D00002800002800000028000028000028000028000000280000280000280000280000F528000028000028000028000000280000282D0000000000002D00280000280000280000280000002800002800002800002800000028000028
310
000028000028000000000000000000000000002D000000000000002828000000000000000000000000000000000000000000282828282800002800280000282828282828282800000000000000000000002828000000280000002800000028000000280000002800000028000000280000002800002828282D2D2D2D2D2D2D
310
2D2D2D2D2D2D2D2D2D2DF52D2D2D2D2D2D2D2D2D2D2D2D2D2D2D2D2D2D2D2D2D2D2D2D2D002D2D2D2D2D2D2D2D2D2D2D2D2D2D2D2D2D2D2D2D2D2D2D2D2D2D2D2D2D2D2D2D2D2D2D2DF52D2D2D2D2D2D2D2D2D2D2D2D2D2D2D2D2D2D2D2D2D2D2D2D2D2D2D2D2D2D2D2D2D2D2D2D2D2D2D2D2D2D2D2D2D2D2D2D2D2D2D2D2D
310
2D2D2D2D2D2D2D2DF52D2D2D2D2D2D2D2D2D2D2D2DF52D000000000000282800000000000000000000000000000000000000000028282828280000282828000028282828282828280000000000000000000000282D282800002800000028000000280000002800000028000000280000002800000028000028280000000000
310
000000000000000000000000F500000000000000000000000000000000000000000000002D002D000000000000000000000000000000000000000000000000000000000000000000000000F5000000000000000000000000000000000000000000000000000000000000000000000000000000000000000000000000000000
310
00000000000000000000000000000000000000000000002D00000000000000282800000000000000000000000000000000000000000028282828280000280028000028282828282828280000000000000000000000282D2D2D282D2D2800000028000000280000002800000028000000280000002800000028002828000000
310
000000000000000000000000000000F5000000000000000000000000000000000000000000002D002D00000000000000000000000000000000000000000000000000000000000000000000000000F5000000000000000000000000000000000000000000000000000000000000000000000000000000000000000000000000
310
000000000000000000000000000000000000000000000000000000000000000000282800000000000000000000000000000000000000000028282828280000280028000028282828282828282828282828282828282828282828282828282D2800000028000000280000002800000028000000280000002800000028282800
310
0000000000000000000000000000000000F50000000000000000000000000000000000000000002D002D0000000000000000000000000000000000000000000000000000000000000000000000000000F500000000000000000000000000000000000000000000000000000000000000000000000000000000000000000000
310
0000000000000000000000000000000000000000000000000000000000000000000000282800000000000000000000000000000000000000000028282828280000280028000028282828000000000000000000000000000000000000000000282D002800000028000000280000002800000028000000280000002800000028
310
2828282D2D2D2D2D2D2D2D2D2D2D2D2D2D2D2D2DF52D2D2D2D2D2D2D2D2D2D2D2D2D2D2D2D2D2D2D2D2D002D2D2D2D2D2D2D2D2D2D2D2D2D2D2D2D2D2D2D2D2D2D2D2D2D2D2D2D2DF52D2D2D2D2D2D2D2D2D2DF52D2D2D2D2D2D2D2D2D2D2D2D2D2D2D2D2D2D2D2D2D2D2D2D2D2D2D2D2D2D2D2D2D2D2D2D2D2D2D2D2D2D2D
310
2D2D2D2D2D2D2D2D2D2D2D2D2D2D2D2D000000000000000000000000000000000000000000282800000000000000000000000000000000000000000028280000280000280028000028000028000000000000000000000000000000000000000000282D2D2D282D2D2D282D2D2D282D2D2D282D2D2D282D2D2D282D2D2D282D
310
2D28F528000000000000000000000000000000000000F5000000000000000000000000000000000000002D002D000000000000000000000000000000000000000000000000000000000000F500000000000000000000F500000000000000000000000000000000000000000000000000000000000000000000000000000000
310
00000000000000000000000000000000000000000000000000000000000000000000000000000028280000000000000000000000000000000000000000002828000028000028002800002800002800000000000000000000000000000000000000000000000000000000000000000000000000000000000000000000000000
310
000000F5000000000000000000000000000000000000000000F5000000000000000000000000000000000000000000000000000000000000000000000000000000000000000000000000000000F500000000000000000000F50000000000000000000000000000000000000000000000000000000000000000000000000000
310
00000000000000000000000000000000000000000000000000000000000000000000000000000000002828000000000000000000000000000000000000000000282800002800002800280000280000280000000000000000000000000000000000000000000000000000000000000000000000000000000000000000000000
310
0000000000F500000000000000000000000000000000000000000000F5000000000000000000000000000000000000000000000000000000000000000000000000000000000000000000000000000000F500000000000000000000F50000000000000000000000000000000000000000000000000000000000000000000000
310
00000000000000000000000000000000000000000000000000000000000000000000000000000000000000282800000000000000000000000000000000000000000028280000280000280028000028000028000000000000000000000000000000000000000000000000000000000000000000000000000000000000000000
310
000000000000F50000000000000000000000000000000000000000000000F5000000000000000000000000000000000000000000000000000000000000000000000000000000000000000000000000000000F500000000000000000000F5000000000000000000000000000000000000000000000000000000000000000000
310
00000000000000000000000000000000000000000000000000000000000000000000000000000000000000000028280000000000000000000000000000000000000000002828000028000028002800002800002800000000000000000000000000000000000000000000000000000000000000000000000000000000000000
310
0000000000000000F5000000000000000000000000000000000000000000000000F5000000000000000000000000000000000000000000000000000000000000000000000000000000000000000000000000000000F500000000000000000000F5000000000000000000000000000000000000000000000000000000000000
310
00000000000000000000000000000000000000000000000000000000000000000000000000000000000000000000002828000000000000000000000000000000000000000000282800002800002800280000280000280000000000000000000000000000000000000000000000000000000000000000000000000000000000
310
000000000000000000F500000000000000000000000000000000000000000000000000F5000000000000000000000000000000000000000000000000000000000000000000000000000000000000000000000000000000F500000000000000000000F500000000000000000000000000000000000000000000000000000000
310
00000000000000000000000000000000000000000000000000000000000000000000000000000000000000000000000000282800000000000000000000000000000000000000000028280000280000280028000028000028000000000000000000000000000000000000000000000000000000000000000000000000000000
310
0000000000000000000000F50000000000000000000000000000000000000000000000000000F5000000000000000000000000000000000000000000000000000000000000000000000000000000000000000000000000000000F500000000000000000000F500000000000000000000000000000000000000000000000000
310
00000000000000000000000000000000000000000000000000000000000000000000000000000000000000000000000000000028280000000000000000000000000000000000000000002828000028000028002800002800002800000000000000000000000000000000000000000000000000000000000000000000000000
310
000000000000000000000000F5000000000000000000000000000000000000000000000000000000F5000000000000000000000000000000000000000000000000000000000000000000000000000000000000000000000000000000F500000000000000000000F50000000000000000000000000000000000000000000000
310
00000000000000000000000000000000000000000000000000000000000000000000000000000000000000000000000000000000002828000000000000000000000000000000000000000000282800002800002800280000280000280000000000000000000000000000000000000000000000000000000000000000000000
310
0000000000000000000000000000F500000000000000000000000000000000000000000000000000000000F5F5F5F5F5F5F5F5F5F5F5F5F5F5F5F5F5F5F5F5F5F5F5F5F5F5F5F5F5F5F5F5F5F5F50000000000000000000000000000000000F500000000000000000000F5F5F5F5F5F5F5F5F5F5F5F5F5F5F5F5F5F5F5F5F5
310
F5F5F5F5F5F5F5F5F5F5F5F5F5F5F5F5F5F5F5F5F5F5F5F5F5F5F5F5F5F5F5F5F5F5000000000000000000000000000000000000000000282800000000000000000000000000000000000000000028280000280000280028000028000028000000000000000000000000000000000000000000000000000000000000F5F5F5
310
F5F5F5F5F5F5F5F5F5F5F5F5F5F5F5F500000000000000000000000000000000000000000000000000000000000000000000000000000000000000000000000000000000000000000000000000000000000000000000000000000000000000000000F500000000000000000000000000000000000000000000000000000000
310
00000000000000000000000000000000000000000000000000000000000000000000000000000000000000000000000000000000000000000028280000000000000000000000000000000000000000002828000028000028002800002800002800000000000000000000000000000000000000000000000000000000000000
310
F5F50000F50000F5F500F5F50000F5F50000000000000000000000000000000000000000000000000000000000000000F5F5F5F5F5F5F500F5F500F5F5F500F5F500F5F5F5F5F5F5F5F5F5F5F5F5F5F50000000000000000000000000000000000000000F500000000000000000000F500F50000000000F50000F5000000F5
310
F500F5F5F5F5F5F50000000000F500000000F5F500F5F500F5F5F500F5F500F5F5F500F5F5000000000000000000000000000000000000000000002828000000000000000000000000000000000000000000282800002800002800280000280000280000000000000000000000000000000000000000000000000000000000
310
000000F5000000F500F5F500F5F50000F5F50000000000000000000000000000000000000000000000000000000000000000F5F5F5F5F5F5F500F5F50000F50000F5F5F500F500F5F5F5F5F5F5F5F5F5F5F5000000000000000000000000000000000000000000F500000000000000000000F5F500F5F5F5F5F5F50000F500
310
00F5F500F5F5F5F5F5F500F5F5F500F5F50000F5F5F500F5F50000F5F500F5F500F5F5F500F5F500000000000000000000000000000000000000000000282800000000000000000000000000000000000000000028280000280000280028000028000028000000000000000000000000000000000000000000000000000000
310
00000000F5F5F5F5F5F5F5F500F500000000F500F500000000000000000000000000000000000000000000000000000000000000F5F5F5F5F5F5F500F5F500F5F5F500F5F50000F500F5F5F5F5F5F5F50000F500000000000000000000000000000000000000000000F500000000000000000000F5F5F500000000F5F50000
310
000000F5F500F5F50000F5F5F500000000F5F5F50000F50000000000F5F5F500F5F5000000000000000000000000000000000000000000000000000000000028280000000000000000000000000000000000000000002828000028000028002800002800002800000000000000000000000000000000000000000000000000
310
0000000000000000000000F5000000000000000000000000000000000000000000000000000000000000000000000000000000000000000000000000000000000000000000000000000000000000000000000000000000000000000000000000000000000000000000000000F5000000000000000000000000000000000000
310
00000000000000000000000000000000000000000000000000000000000000000000000000000000000000000000000000000000000000000000000000000000002828000000000000000000000000000000000000000000282800002800002800280000280000280000000000000000000000000000000000000000000000
310
0000000000000000000000000000000000000000000000000000000000000000000000000000000000000000000000000000000000000000000000000000000000000000000000000000000000000000000000000000000000000000000000000000000000000000000000000000F500000000000000000000000000000000
310
00000000000000000000000000000000000000000000000000000000000000000000000000000000000000000000000000000000000000000000000000000000000000282800000000000000000000000000000000000000000028280000280000280028000028000028000000000000000000000000000000000000000000
310
0000000000000000000000000000000000000000000000000000000000000000000000000000000000000000000000000000000000000000000000000000000000000000000000000000000000000000000000000000000000000000000000000000000000000000000000000000000000F500000000000000000000000000
310
00000000000000000000000000000000000000000000000000000000000000000000000000000000000000000000000000000000000000000000000000000000000000000028280000000000000000000000000000000000000000002828000028000028002800002800002800000000000000000000000000000000000000
310
00000000000000000000000000000000000000000000000000000000000000000000000000000000000000000000000000000000000000000000000000000000000000000000000000000000000000000000000000000000000000000000000000000000000000000000000000000000000000F50000000000000000000000
310
00000000000000000000000000000000000000000000000000000000000000000000000000000000000000000000000000000000000000000000000000000000000000000000002828000000000000000000000000000000000000000000282800002800002800280000280000280000000000000000000000000000000000
310
00000000000000000000000000000000000000000000000000000000000000000000000000000000000000000000000000000000000000000000000000000000000000000000000000000000000000000000000000000000000000000000000000000000000000000000000000000000000000000000F5F5F5F5F5F5F5F5F5
310
F5F5F5F5F5F5F5F5F5F5F5F5F5F5F5F5F5F5F5F5F5F5F5F5F5F5F5F5F5F5F5F5F5F5F5F5F5F50000000000000000000000000000000000000000000000000000000000000000000000282800000000000000000000000000000000000000000028280000280000280028000028000028000000000000000000000000000000
310
00000000000000000000000000000000000000000000000000000000000000000000000000000000000000000000000000000000000000000000000000000000000000000000000000000000000000000000000000000000000000000000000000000000000000000000000000000000000000000000000000000000000000
310
00000000000000000000000000000000000000000000000000000000000000000000000000000000000000000000000000000000000000000000000000000000000000000000000000000028280000000000000000000000000000000000000000002828000028000028002800002800002800000000000000000000000000
310
00000000000000000000000000000000000000000000000000000000000000000000000000000000000000000000000000000000000000000000000000000000000000000000000000000000000000000000000000000000000000000000000000000000000000000000000000000000000000000000000000000000F50000
310
0000000000000000F50000F5000000F50000000000F5000000000000000000000000000000000000000000000000000000000000000000000000000000000000000000000000000000000000002828000000000000000000000000000000000000000000282800002800002800280000280000280000000000000000000000
310
00000000000000000000000000000000000000000000000000000000000000000000000000000000000000000000000000000000000000000000000000000000000000000000000000000000000000000000000000000000000000000000000000000000000000000000000000000000000000000000000000000000000000
310
F500F5F5F50000000000F5F50000F500F5F5F5000000F5F500F5F50000F50000F5F500F5F5F500F5F50000000000000000000000000000000000000000000000000000000000000000000000000000282800000000000000000000000000000000000000000028280000280000280028000028000028000000000000000000
310
00000000000000000000000000000000000000000000000000000000000000000000000000000000000000000000000000000000000000000000000000000000000000000000000000000000000000000000000000000000000000000000000000000000000000000000000000000000000000000000000000000000000000
310
00F5F500F5F5F500F5F5F500F5F500F500F500F5F50000F5F5F500F5F50000F50000F5F500F5F5F500F5F5000000000000000000000000000000000000000000000000000000000000000000000000000028280000000000000000000000000000000000000000002828000028000028002800002800002800000000000000
310
00000000000000000000000000000000000000000000000000000000000000000000000000000000000000000000000000000000000000000000000000000000000000000000000000000000000000000000000000000000000000000000000000000000000000000000000000000000000000000000000000000000000000
310
0000000000000000000000000000F5F50000000000F5F5F50000F5000000000000F50000F5F50000000000000000000000000000000000000000000000000000000000000000000000000000000000000000002828000000000000000000000000000000000000000000282800002800002800280000280000280000000000
310
00000000000000000000000000000000000000000000000000000000000000000000000000000000000000000000000000000000000000000000000000000000000000000000002828282828282828282828282828282828280000000000000000000000000000000000000000000000000000000000000000000000000000
310
00000000000000000000000000000000000000000000000000000000000000000000000000000000000000000000000000000000000000000000000000000000000000000000000000000000000000000000000000282800000000000000000000000000000000000000000028280000280000280028000028000028000000
310
00000000000000000000000000000000000000000000000000000000000000000000000000000000000000000000000000000000000000000000000000000000000000000000000000280000000000000000000000000000000028000000000000000000000000000000000000000000000000000000000000000000000000
310
00000000000000000000000000000000000000000000000000000000000000000000000000000000000000000000000000000000000000000000000000000000000000000000000000000000000000000000000000000028280000000000000000000000000000000000000000002828000028000028002800002800002800
310
000000000000000000000000000000000000000000000000000000000000000000000000000000000000000000000000000000000000000000000000000000000000000000000000000000280000002D2D2D2D00002D2D2D000000002800000000000000000000000000000000000000000000000000000000000000000000
310
00000000000000000000000000000000000000000000000000000000000000000000000000000000000000000000000000000000000000000000000000000000000000000000000000000000000000000000000000000000002828000000000000000000000000000000000000000000282800002800002800280000280000
310
2800000000000000000000000000000000000000000000000000000000000000000000000000000000000000000000000000000000000000000000000000000000000000000000000000000000280000002D00000000002D002D2D000000280000000000000000000000000000000000000000000000000000000000000000
310
00000000000000000000000000000000000000000000000000000000000000000000000000000000000000000000000000000000000000000000000000000000000000000000000000000000000000000000000000000000000000282800000000000000000000000000000000000000000028280000280000280028000028
310
00002800000000000000000000000000000000000000000000000000000000000000000000000000000000000000000000000000000000000000000000000000000000000000000000000000000000280000002D00000000002D00002D00000028000000000000000000000000000000000000000000000000000000000000
310
00000000000000000000000000000000000000000000000000000000000000000000000000000000000000000000000000000000000000000000000000000000000000000000000000000000000000000000000000000000000000000028280000000000000000000000000000000000000000002828000028000028002800
310
002800002800000000000000000000000000000000000000000000000000000000000000000000000000000000000000000000000000000000000000000000000000000000000000000000000000000000280000002D00000000002D002D000000002800000000000000000000000000000000000000000000000000000000
310
00000000000000000000000000000000000000000000000000000000000000000000000000000000000000000000000000000000000000000000000000000000000000000000000000000000000000000000000000000000000000000000002828000000000000000000000000000000000000000000282800002800002800
310
2800002800002800000000000000000000000000000000000000000000000000000000000000000000000000000000000000000000000000000000000000000000000000000000000000000000000000000000280000002D00000000002D2D2D00000000280000000000000000000000000000000000000000000000000000
310
00000000000000000000000000000000000000000000000000000000000000000000000000000000000000000000000000000000000000000000000000000000000000000000000000000000000000000000000000000000000000000000000000282800000000000000000000000000000000000000000028280000280000
310
28002800002800002800000000000000000000000000000000000000000000000000000000000000000000000000000000000000000000000000000000000000000000000000000000000000000000000000000000280000000000000000000000000000000028000000000000000000000000000000000000000000000000
310
00000000000000000000000000000000000000000000000000000000000000000000000000000000000000000000000000000000000000000000000000000000000000000000000000000000000000000000000000000000000000000000000000000028280000000000000000000000000000000000000000002828000028
310
00002800280000280000280000000000000000000000000000000000000000000000000000000000000000000000000000000000000000000000000000000000000000000000000000000000000000000000000000000028282828282828282828282828282828282800000000000000000000000000000000000000000000
310
00000000000000000000000000000000000000000000000000000000000000000000000000000000000000000000000000000000000000000000000000000000000000000000000000000000000000000000000000000000000000000000000000000000000000000000000000000000000000000000000000000000000000
310
00000000000000000000000000000000000000000000000000000000000000000000000000000000000000000000000000000000000000000000000000000000000000000000000000000000000000000000000000000000000000000000000000000000000000000000000000000000000000000000000000000000000000
310
00000000000000000000000000000000000000000000000000000000000000000000000000000000000000000000000000000000000000000000000000000000000000000000000000000000000000000000000000000000000000000000000000000000000000000000000000000000000000000000000000000000000000
310
00000000000000000000000000000000000000000000000000000000000000000000000000000000000000000000000000000000000000000000000000000000000000000000000000000000000000000000000000000000000000000000000000000000000000000000000000000000000000000000000000000000000000
310
00000000000000000000000000000000000000000000000000000000000000000000000000000000000000000000000000000000000000000000000000000000000000000000000000000000000000000000000000000000000000000000000000000000000000000000000000000000000000000000000000000000000000
310
00000000000000000000000000000000000000000000000000000000000000000000000000000000000000000000000000000000000000000000000000000000000000000000000000000000000000000000000000000000000000000000000000000000000000000000000000000000000000000000000000000000000000
310
00000000000000000000000000000000000000000000000000000000000000000000000000000000000000000000000000000000000000000000000000000000000000000000000000000000000000000000000000000000000000000000000000000000000000000000000000000000000000000000000000000000000000
310
00000000000000000000000000000000000000000000000000000000000000000000000000000000000000000000000000000000000000000000000000000000000000000000000000000000000000000000000000000000000000000000000000000000000000000000000000000000000000000000000000000000000000
310
00000000000000000000000000000000000000000000000000000000000000000000000000000000000000000000000000000000000000000000000000000000000000000000000000000000000000000000000000000000000000000000000000000000000000000000000000000000000000000000000000000000000000
310
00000000000000000000000000000000000000000000000000000000000000000000000000000000000000000000000000000000000000000000000000000000000000000000000000000000000000000000000000000000000000000000000000000000000000000000000000000000000000000000000000000000000000
310
00000000000000000000000000000000000000000000000000000000000000000000000000000000000000000000000000000000000000000000000000000000000000000000000000000000000000000000000000000000000000000000000000000000000000000000000000000000000000000000000000000000000000
310
00000000000000000000000000000000000000000000000000000000000000000000000000000000000000000000000000000000000000000000000000000000000000000000000000000000000000000000000000000000000000000000000000000000000000000000000000000000000000000000000000000000000000
310
00000000000000000000000000000000000000000000000000000000000000000000000000000000000000000000000000000000000000000000000000000000000000000000000000000000000000000000000000000000000000000000000000000000000000000000000000000000000000000000000000000000000000
310
00000000000000000000000000000000000000000000000000000000000000000000000000000000000000000000000000000000000000000000000000000000000000000000000000000000000000000000000000000000000000000000000000000000000000000000000000000000000000000000000000000000000000
310
00000000000000000000000000000000000000000000000000000000000000000000000000000000000000000000000000000000000000000000000000000000000000000000000000000000000000000000000000000000000000000000000000000000000000000000000000000000000000002828000028280000000000
310
00000000282800280000000000000000000000000028280000280000000028282828000000282800000028282800000028282800000000000000000028000028000028000000282828282800282828282800002828280000282800280028282828282828282828280028280000000000000000000000000000000000000000
310
00000000000000000000000000000000000000000000000000000000000000000000000000000000000000000000000000000000000000000000000000000000000000000000000000000000000000000000000000000000000000000000000000000000000000000000000000000000000000000000282800280028280000
310
00000000000028002828000000002828000000000000000000282800000000002800000000002828002800002800002800002800002800000000000000002800282800002828000028282828280028002800280000280028000028282828280028282828282800282828000028000000000000000000000000000000000000
310
00000000000000000000000000000000000000000000000000000000000000000000000000000000000000000000000000000000000000000000000000000000000000000000000000000000000000000000000000000000000000000000000000000000000000000000000000000000000000000000000028000000282828
310
00002828282800000028000000002828000000002828282800000028000000000000280000000000280000280000282828280000282828280000282828282800280028280000000000000028282828002828282828000028002800002828282828282828282828282828282800002800000000000000000000000000000000
310
00000000000000000000000000000000000000000000000000000000000000000000000000000000000000000000000000000000000000000000000000000000000000000000000000000000000000000000000000000000000000000000000000000000000000000000000000000000000000000000000000002800002828
310
28280000000000000000002800000000280028000000000000000000000028000000000028000000000028000028000028000028000028000028000000000000000028280028000028280000282828282800280028280000002800000000282800280000280028282828282828280000280000000000000000000000000000
310
00000000000000000000000000000000000000000000000000000000000000000000000000000000000000000000000000000000000000000000000000000000000000000000000000000000000000000000000000000000000000000000000000000000000000000000000000000000000000000000000000000000282800
310
00002800000000000000000000280000000000002828000000000000000028282800000000002800000000002828282800002828282800002828282800000000000000002828002800000000000000282828280028002828000000280000002828282828280028282828282828282828002828000000000000000000000000
310
00000000000000000000000000000000000000000000000000000000000000000000000000000000000000000000000000000000000000000000000000000000000000000000000000000000000000000000000000000000000000000000000000000000000000000000000000000000000000000000000000000000000000
310
00000000000000000000000000000000000000000000000000000000000000000000000000000000000000000000000000000000000000000000000000000000000000000000280000280000000000000028000000000000280000000000000000002828280028002800000000000000000000000000000000000000000000
310
000000000000000000000000000000000000000000000000000000000000000000000000000000000000000000000000000000000000000000000000000000000000000000000000000000000000000000000000000000000000000000000000000000000000000000000000000000000000000000000000000000
  0
XRECORD
  5
52A54
102
{ACAD_REACTORS
330
22736
102
}
330
22736
100
AcDbXrecord
280
     1
102
MATERIAL
148
0.0
149
0.0
149
0.0
 93
        0
 94
      127
282
     0
 72
     0
 77
     0
171
     0
175
     0
179
     0
273
     0
  0
XRECORD
  5
22738
102
{ACAD_REACTORS
330
22736
102
}
330
22736
100
AcDbXrecord
280
     1
270
     1
271
     1
  0
XRECORD
  5
22737
102
{ACAD_REACTORS
330
22736
102
}
330
22736
100
AcDbXrecord
280
     1
270
     1
271
     1
  0
XRECORD
  5
2273B
102
{ACAD_REACTORS
330
22736
102
}
330
22736
100
AcDbXrecord
280
     1
270
     1
271
     1
  0
XRECORD
  5
2273A
102
{ACAD_REACTORS
330
22736
102
}
330
22736
100
AcDbXrecord
280
     1
270
     1
271
     1
  0
XRECORD
  5
2273C
102
{ACAD_REACTORS
330
22736
102
}
330
22736
100
AcDbXrecord
280
     1
270
     1
271
     1
  0
XRECORD
  5
22739
102
{ACAD_REACTORS
330
22736
102
}
330
22736
100
AcDbXrecord
280
     1
270
     1
271
     1
  0
XRECORD
  5
52A53
102
{ACAD_REACTORS
330
2272E
102
}
330
2272E
100
AcDbXrecord
280
     1
102
MATERIAL
148
0.0
149
0.0
149
0.0
 93
        0
 94
      127
282
     0
 72
     0
 77
     0
171
     0
175
     0
179
     0
273
     0
  0
XRECORD
  5
22730
102
{ACAD_REACTORS
330
2272E
102
}
330
2272E
100
AcDbXrecord
280
     1
270
     1
271
     1
  0
XRECORD
  5
2272F
102
{ACAD_REACTORS
330
2272E
102
}
330
2272E
100
AcDbXrecord
280
     1
270
     1
271
     1
  0
XRECORD
  5
22733
102
{ACAD_REACTORS
330
2272E
102
}
330
2272E
100
AcDbXrecord
280
     1
270
     1
271
     1
  0
XRECORD
  5
22732
102
{ACAD_REACTORS
330
2272E
102
}
330
2272E
100
AcDbXrecord
280
     1
270
     1
271
     1
  0
XRECORD
  5
22734
102
{ACAD_REACTORS
330
2272E
102
}
330
2272E
100
AcDbXrecord
280
     1
270
     1
271
     1
  0
XRECORD
  5
22731
102
{ACAD_REACTORS
330
2272E
102
}
330
2272E
100
AcDbXrecord
280
     1
270
     1
271
     1
  0
XRECORD
  5
52A55
102
{ACAD_REACTORS
330
2273E
102
}
330
2273E
100
AcDbXrecord
280
     1
102
MATERIAL
148
0.0
149
0.0
149
0.0
 93
        0
 94
      127
282
     0
 72
     0
 77
     0
171
     0
175
     0
179
     0
273
     0
  0
XRECORD
  5
22740
102
{ACAD_REACTORS
330
2273E
102
}
330
2273E
100
AcDbXrecord
280
     1
270
     1
271
     1
  0
XRECORD
  5
2273F
102
{ACAD_REACTORS
330
2273E
102
}
330
2273E
100
AcDbXrecord
280
     1
270
     1
271
     1
  0
XRECORD
  5
22743
102
{ACAD_REACTORS
330
2273E
102
}
330
2273E
100
AcDbXrecord
280
     1
270
     1
271
     1
  0
XRECORD
  5
22742
102
{ACAD_REACTORS
330
2273E
102
}
330
2273E
100
AcDbXrecord
280
     1
270
     1
271
     1
  0
XRECORD
  5
22744
102
{ACAD_REACTORS
330
2273E
102
}
330
2273E
100
AcDbXrecord
280
     1
270
     1
271
     1
  0
XRECORD
  5
22741
102
{ACAD_REACTORS
330
2273E
102
}
330
2273E
100
AcDbXrecord
280
     1
270
     1
271
     1
  0
XRECORD
  5
52A4E
102
{ACAD_REACTORS
330
52A4D
102
}
330
52A4D
100
AcDbXrecord
280
     1
102
ACAD_ROUNDTRIP_2012_MLEADER_STYLE
298
     1
  0
CELLSTYLEMAP
  5
52A4C
102
{ACAD_REACTORS
330
22803
102
}
330
22803
100
AcDbCellStyleMap
 90
        3
300
CELLSTYLE
  1
TABLEFORMAT_BEGIN
 90
        5
170
     1
 91
        0
 92
    32768
 62
   257
 93
        1
300
CONTENTFORMAT
  1
CONTENTFORMAT_BEGIN
 90
        0
 91
        0
 92
      512
 93
        0
300

 40
0.0
140
1.0
 94
        5
 62
     0
340
11
144
6.0
309
CONTENTFORMAT_END
171
     1
301
MARGIN
  1
CELLMARGIN_BEGIN
 40
1.5
 40
1.5
 40
1.5
 40
1.5
 40
4.5
 40
4.5
309
CELLMARGIN_END
 94
        6
 95
        1
302
GRIDFORMAT
  1
GRIDFORMAT_BEGIN
 90
        0
 91
        1
 62
     0
 92
       -2
340
0
 93
        0
 40
1.125
309
GRIDFORMAT_END
 95
        2
302
GRIDFORMAT
  1
GRIDFORMAT_BEGIN
 90
        0
 91
        1
 62
     0
 92
       -2
340
0
 93
        0
 40
1.125
309
GRIDFORMAT_END
 95
        4
302
GRIDFORMAT
  1
GRIDFORMAT_BEGIN
 90
        0
 91
        1
 62
     0
 92
       -2
340
0
 93
        0
 40
1.125
309
GRIDFORMAT_END
 95
        8
302
GRIDFORMAT
  1
GRIDFORMAT_BEGIN
 90
        0
 91
        1
 62
     0
 92
       -2
340
0
 93
        0
 40
1.125
309
GRIDFORMAT_END
 95
       16
302
GRIDFORMAT
  1
GRIDFORMAT_BEGIN
 90
        0
 91
        1
 62
     0
 92
       -2
340
0
 93
        0
 40
1.125
309
GRIDFORMAT_END
 95
       32
302
GRIDFORMAT
  1
GRIDFORMAT_BEGIN
 90
        0
 91
        1
 62
     0
 92
       -2
340
0
 93
        0
 40
1.125
309
GRIDFORMAT_END
309
TABLEFORMAT_END
  1
CELLSTYLE_BEGIN
 90
        1
 91
        1
300
_TITLE
309
CELLSTYLE_END
300
CELLSTYLE
  1
TABLEFORMAT_BEGIN
 90
        5
170
     1
 91
        0
 92
        0
 62
   257
 93
        1
300
CONTENTFORMAT
  1
CONTENTFORMAT_BEGIN
 90
        0
 91
        0
 92
      512
 93
        0
300

 40
0.0
140
1.0
 94
        5
 62
     0
340
11
144
4.5
309
CONTENTFORMAT_END
171
     1
301
MARGIN
  1
CELLMARGIN_BEGIN
 40
1.5
 40
1.5
 40
1.5
 40
1.5
 40
4.5
 40
4.5
309
CELLMARGIN_END
 94
        6
 95
        1
302
GRIDFORMAT
  1
GRIDFORMAT_BEGIN
 90
        0
 91
        1
 62
     0
 92
       -2
340
0
 93
        0
 40
1.125
309
GRIDFORMAT_END
 95
        2
302
GRIDFORMAT
  1
GRIDFORMAT_BEGIN
 90
        0
 91
        1
 62
     0
 92
       -2
340
0
 93
        0
 40
1.125
309
GRIDFORMAT_END
 95
        4
302
GRIDFORMAT
  1
GRIDFORMAT_BEGIN
 90
        0
 91
        1
 62
     0
 92
       -2
340
0
 93
        0
 40
1.125
309
GRIDFORMAT_END
 95
        8
302
GRIDFORMAT
  1
GRIDFORMAT_BEGIN
 90
        0
 91
        1
 62
     0
 92
       -2
340
0
 93
        0
 40
1.125
309
GRIDFORMAT_END
 95
       16
302
GRIDFORMAT
  1
GRIDFORMAT_BEGIN
 90
        0
 91
        1
 62
     0
 92
       -2
340
0
 93
        0
 40
1.125
309
GRIDFORMAT_END
 95
       32
302
GRIDFORMAT
  1
GRIDFORMAT_BEGIN
 90
        0
 91
        1
 62
     0
 92
       -2
340
0
 93
        0
 40
1.125
309
GRIDFORMAT_END
309
TABLEFORMAT_END
  1
CELLSTYLE_BEGIN
 90
        2
 91
        1
300
_HEADER
309
CELLSTYLE_END
300
CELLSTYLE
  1
TABLEFORMAT_BEGIN
 90
        5
170
     1
 91
        0
 92
        0
 62
   257
 93
        1
300
CONTENTFORMAT
  1
CONTENTFORMAT_BEGIN
 90
        0
 91
        0
 92
      512
 93
        0
300

 40
0.0
140
1.0
 94
        2
 62
     0
340
11
144
4.5
309
CONTENTFORMAT_END
171
     1
301
MARGIN
  1
CELLMARGIN_BEGIN
 40
1.5
 40
1.5
 40
1.5
 40
1.5
 40
4.5
 40
4.5
309
CELLMARGIN_END
 94
        6
 95
        1
302
GRIDFORMAT
  1
GRIDFORMAT_BEGIN
 90
        0
 91
        1
 62
     0
 92
       -2
340
0
 93
        0
 40
1.125
309
GRIDFORMAT_END
 95
        2
302
GRIDFORMAT
  1
GRIDFORMAT_BEGIN
 90
        0
 91
        1
 62
     0
 92
       -2
340
0
 93
        0
 40
1.125
309
GRIDFORMAT_END
 95
        4
302
GRIDFORMAT
  1
GRIDFORMAT_BEGIN
 90
        0
 91
        1
 62
     0
 92
       -2
340
0
 93
        0
 40
1.125
309
GRIDFORMAT_END
 95
        8
302
GRIDFORMAT
  1
GRIDFORMAT_BEGIN
 90
        0
 91
        1
 62
     0
 92
       -2
340
0
 93
        0
 40
1.125
309
GRIDFORMAT_END
 95
       16
302
GRIDFORMAT
  1
GRIDFORMAT_BEGIN
 90
        0
 91
        1
 62
     0
 92
       -2
340
0
 93
        0
 40
1.125
309
GRIDFORMAT_END
 95
       32
302
GRIDFORMAT
  1
GRIDFORMAT_BEGIN
 90
        0
 91
        1
 62
     0
 92
       -2
340
0
 93
        0
 40
1.125
309
GRIDFORMAT_END
309
TABLEFORMAT_END
  1
CELLSTYLE_BEGIN
 90
        3
 91
        2
300
_DATA
309
CELLSTYLE_END
  0
XRECORD
  5
52A76
102
{ACAD_REACTORS
330
22803
102
}
330
22803
100
AcDbXrecord
280
     1
102
ACAD_ROUNDTRIP_PRE2007_TABLESTYLE
 90
      512
 91
        0
  1

 92
      512
 93
        0
  2

 94
      512
 95
        0
  3

  0
XRECORD
  5
52A61
102
{ACAD_REACTORS
330
52A60
102
}
330
52A60
100
AcDbXrecord
280
     1
102
RTVSPropertyOp0
 70
     1
102
RTVSPropertyOp1
 70
     1
102
RTVSPropertyOp2
 70
     1
102
RTVSPropertyOp3
 70
     1
102
RTVSPropertyOp4
 70
     1
102
RTVSPropertyOp5
 70
     1
102
RTVSPropertyOp6
 70
     1
102
RTVSPropertyOp7
 70
     1
102
RTVSPropertyOp8
 70
     1
102
RTVSPropertyOp9
 70
     1
102
RTVSPropertyOp10
 70
     1
102
RTVSPropertyOp11
 70
     1
102
RTVSPropertyOp12
 70
     1
102
RTVSPropertyOp13
 70
     1
102
RTVSPropertyOp14
 70
     1
102
RTVSPropertyOp15
 70
     1
102
RTVSPropertyOp16
 70
     1
102
RTVSPropertyOp17
 70
     1
102
RTVSPropertyOp18
 70
     1
102
RTVSPropertyOp19
 70
     1
102
RTVSPropertyOp20
 70
     1
102
RTVSPropertyOp21
 70
     1
102
RTVSPropertyOp22
 70
     1
102
RTVSPropertyOp23
 70
     1
102
RTVSPropertyOp24
 70
     1
102
RTVSPropertyOp25
 70
     1
102
RTVSPropertyOp26
 70
     1
102
RTVSPropertyOp27
 70
     1
102
RTVSPropertyOp28
 70
     1
102
RTVSPropertyOp29
 70
     1
102
RTVSPropertyOp30
 70
     1
102
RTVSPropertyOp31
 70
     1
102
RTVSPropertyOp32
 70
     1
  0
XRECORD
  5
52A65
102
{ACAD_REACTORS
330
52A64
102
}
330
52A64
100
AcDbXrecord
280
     1
102
RTVSPropertyOp0
 70
     1
102
RTVSPropertyOp1
 70
     1
102
RTVSPropertyOp2
 70
     1
102
RTVSPropertyOp3
 70
     1
102
RTVSPropertyOp4
 70
     1
102
RTVSPropertyOp5
 70
     1
102
RTVSPropertyOp6
 70
     1
102
RTVSPropertyOp7
 70
     1
102
RTVSPropertyOp8
 70
     1
102
RTVSPropertyOp9
 70
     1
102
RTVSPropertyOp10
 70
     1
102
RTVSPropertyOp11
 70
     1
102
RTVSPropertyOp12
 70
     1
102
RTVSPropertyOp13
 70
     1
102
RTVSPropertyOp14
 70
     1
102
RTVSPropertyOp15
 70
     1
102
RTVSPropertyOp16
 70
     1
102
RTVSPropertyOp17
 70
     1
102
RTVSPropertyOp18
 70
     1
102
RTVSPropertyOp19
 70
     1
102
RTVSPropertyOp20
 70
     1
102
RTVSPropertyOp21
 70
     1
102
RTVSPropertyOp22
 70
     1
102
RTVSPropertyOp23
 70
     1
102
RTVSPropertyOp24
 70
     1
102
RTVSPropertyOp25
 70
     1
102
RTVSPropertyOp26
 70
     1
102
RTVSPropertyOp27
 70
     1
102
RTVSPropertyOp28
 70
     1
102
RTVSPropertyOp29
 70
     1
102
RTVSPropertyOp30
 70
     1
102
RTVSPropertyOp31
 70
     1
102
RTVSPropertyOp32
 70
     1
  0
XRECORD
  5
52A63
102
{ACAD_REACTORS
330
52A62
102
}
330
52A62
100
AcDbXrecord
280
     1
102
RTVSPropertyOp0
 70
     1
102
RTVSPropertyOp1
 70
     1
102
RTVSPropertyOp2
 70
     1
102
RTVSPropertyOp3
 70
     1
102
RTVSPropertyOp4
 70
     1
102
RTVSPropertyOp5
 70
     1
102
RTVSPropertyOp6
 70
     1
102
RTVSPropertyOp7
 70
     1
102
RTVSPropertyOp8
 70
     1
102
RTVSPropertyOp9
 70
     1
102
RTVSPropertyOp10
 70
     1
102
RTVSPropertyOp11
 70
     1
102
RTVSPropertyOp12
 70
     1
102
RTVSPropertyOp13
 70
     1
102
RTVSPropertyOp14
 70
     1
102
RTVSPropertyOp15
 70
     1
102
RTVSPropertyOp16
 70
     1
102
RTVSPropertyOp17
 70
     1
102
RTVSPropertyOp18
 70
     1
102
RTVSPropertyOp19
 70
     1
102
RTVSPropertyOp20
 70
     1
102
RTVSPropertyOp21
 70
     1
102
RTVSPropertyOp22
 70
     1
102
RTVSPropertyOp23
 70
     1
102
RTVSPropertyOp24
 70
     1
102
RTVSPropertyOp25
 70
     1
102
RTVSPropertyOp26
 70
     1
102
RTVSPropertyOp27
 70
     1
102
RTVSPropertyOp28
 70
     1
102
RTVSPropertyOp29
 70
     1
102
RTVSPropertyOp30
 70
     1
102
RTVSPropertyOp31
 70
     1
102
RTVSPropertyOp32
 70
     1
  0
XRECORD
  5
52A5F
102
{ACAD_REACTORS
330
52A5E
102
}
330
52A5E
100
AcDbXrecord
280
     1
102
RTVSPropertyOp0
 70
     1
102
RTVSPropertyOp1
 70
     1
102
RTVSPropertyOp2
 70
     1
102
RTVSPropertyOp3
 70
     1
102
RTVSPropertyOp4
 70
     1
102
RTVSPropertyOp5
 70
     1
102
RTVSPropertyOp6
 70
     1
102
RTVSPropertyOp7
 70
     1
102
RTVSPropertyOp8
 70
     1
102
RTVSPropertyOp9
 70
     1
102
RTVSPropertyOp10
 70
     1
102
RTVSPropertyOp11
 70
     1
102
RTVSPropertyOp12
 70
     1
102
RTVSPropertyOp13
 70
     1
102
RTVSPropertyOp14
 70
     1
102
RTVSPropertyOp15
 70
     1
102
RTVSPropertyOp16
 70
     1
102
RTVSPropertyOp17
 70
     1
102
RTVSPropertyOp18
 70
     1
102
RTVSPropertyOp19
 70
     1
102
RTVSPropertyOp20
 70
     1
102
RTVSPropertyOp21
 70
     1
102
RTVSPropertyOp22
 70
     1
102
RTVSPropertyOp23
 70
     1
102
RTVSPropertyOp24
 70
     1
102
RTVSPropertyOp25
 70
     1
102
RTVSPropertyOp26
 70
     1
102
RTVSPropertyOp27
 70
     1
102
RTVSPropertyOp28
 70
     1
102
RTVSPropertyOp29
 70
     1
102
RTVSPropertyOp30
 70
     1
102
RTVSPropertyOp31
 70
     1
102
RTVSPropertyOp32
 70
     1
  0
XRECORD
  5
52A6D
102
{ACAD_REACTORS
330
52A6C
102
}
330
52A6C
100
AcDbXrecord
280
     1
102
RTVSPropertyOp0
 70
     1
102
RTVSPropertyOp1
 70
     1
102
RTVSPropertyOp2
 70
     1
102
RTVSPropertyOp3
 70
     1
102
RTVSPropertyOp4
 70
     1
102
RTVSPropertyOp5
 70
     1
102
RTVSPropertyOp6
 70
     1
102
RTVSPropertyOp7
 70
     1
102
RTVSPropertyOp8
 70
     1
102
RTVSPropertyOp9
 70
     1
102
RTVSPropertyOp10
 70
     1
102
RTVSPropertyOp11
 70
     1
102
RTVSPropertyOp12
 70
     1
102
RTVSPropertyOp13
 70
     1
102
RTVSPropertyOp14
 70
     1
102
RTVSPropertyOp15
 70
     1
102
RTVSPropertyOp16
 70
     1
102
RTVSPropertyOp17
 70
     1
102
RTVSPropertyOp18
 70
     1
102
RTVSPropertyOp19
 70
     1
102
RTVSPropertyOp20
 70
     1
102
RTVSPropertyOp21
 70
     1
102
RTVSPropertyOp22
 70
     1
102
RTVSPropertyOp23
 70
     1
102
RTVSPropertyOp24
 70
     1
102
RTVSPropertyOp25
 70
     1
102
RTVSPropertyOp26
 70
     1
102
RTVSPropertyOp27
 70
     1
102
RTVSPropertyOp28
 70
     1
102
RTVSPropertyOp29
 70
     1
102
RTVSPropertyOp30
 70
     1
102
RTVSPropertyOp31
 70
     1
102
RTVSPropertyOp32
 70
     1
  0
XRECORD
  5
52A75
102
{ACAD_REACTORS
330
52A74
102
}
330
52A74
100
AcDbXrecord
280
     1
102
RTVSPropertyOp0
 70
     1
102
RTVSPropertyOp1
 70
     1
102
RTVSPropertyOp2
 70
     1
102
RTVSPropertyOp3
 70
     1
102
RTVSPropertyOp4
 70
     1
102
RTVSPropertyOp5
 70
     1
102
RTVSPropertyOp6
 70
     1
102
RTVSPropertyOp7
 70
     1
102
RTVSPropertyOp8
 70
     1
102
RTVSPropertyOp9
 70
     1
102
RTVSPropertyOp10
 70
     1
102
RTVSPropertyOp11
 70
     1
102
RTVSPropertyOp12
 70
     1
102
RTVSPropertyOp13
 70
     1
102
RTVSPropertyOp14
 70
     1
102
RTVSPropertyOp15
 70
     1
102
RTVSPropertyOp16
 70
     1
102
RTVSPropertyOp17
 70
     1
102
RTVSPropertyOp18
 70
     1
102
RTVSPropertyOp19
 70
     1
102
RTVSPropertyOp20
 70
     1
102
RTVSPropertyOp21
 70
     1
102
RTVSPropertyOp22
 70
     1
102
RTVSPropertyOp23
 70
     1
102
RTVSPropertyOp24
 70
     1
102
RTVSPropertyOp25
 70
     1
102
RTVSPropertyOp26
 70
     1
102
RTVSPropertyOp27
 70
     1
102
RTVSPropertyOp28
 70
     1
102
RTVSPropertyOp29
 70
     1
102
RTVSPropertyOp30
 70
     1
102
RTVSPropertyOp31
 70
     1
102
RTVSPropertyOp32
 70
     1
  0
XRECORD
  5
52A67
102
{ACAD_REACTORS
330
52A66
102
}
330
52A66
100
AcDbXrecord
280
     1
102
RTVSPropertyOp0
 70
     1
102
RTVSPropertyOp1
 70
     1
102
RTVSPropertyOp2
 70
     1
102
RTVSPropertyOp3
 70
     1
102
RTVSPropertyOp4
 70
     1
102
RTVSPropertyOp5
 70
     1
102
RTVSPropertyOp6
 70
     1
102
RTVSPropertyOp7
 70
     1
102
RTVSPropertyOp8
 70
     1
102
RTVSPropertyOp9
 70
     1
102
RTVSPropertyOp10
 70
     1
102
RTVSPropertyOp11
 70
     1
102
RTVSPropertyOp12
 70
     1
102
RTVSPropertyOp13
 70
     1
102
RTVSPropertyOp14
 70
     1
102
RTVSPropertyOp15
 70
     1
102
RTVSPropertyOp16
 70
     1
102
RTVSPropertyOp17
 70
     1
102
RTVSPropertyOp18
 70
     1
102
RTVSPropertyOp19
 70
     1
102
RTVSPropertyOp20
 70
     1
102
RTVSPropertyOp21
 70
     1
102
RTVSPropertyOp22
 70
     1
102
RTVSPropertyOp23
 70
     1
102
RTVSPropertyOp24
 70
     1
102
RTVSPropertyOp25
 70
     1
102
RTVSPropertyOp26
 70
     1
102
RTVSPropertyOp27
 70
     1
102
RTVSPropertyOp28
 70
     1
102
RTVSPropertyOp29
 70
     1
102
RTVSPropertyOp30
 70
     1
102
RTVSPropertyOp31
 70
     1
102
RTVSPropertyOp32
 70
     1
  0
XRECORD
  5
52A6B
102
{ACAD_REACTORS
330
52A6A
102
}
330
52A6A
100
AcDbXrecord
280
     1
102
RTVSPropertyOp0
 70
     1
102
RTVSPropertyOp1
 70
     1
102
RTVSPropertyOp2
 70
     1
102
RTVSPropertyOp3
 70
     1
102
RTVSPropertyOp4
 70
     1
102
RTVSPropertyOp5
 70
     1
102
RTVSPropertyOp6
 70
     1
102
RTVSPropertyOp7
 70
     1
102
RTVSPropertyOp8
 70
     1
102
RTVSPropertyOp9
 70
     1
102
RTVSPropertyOp10
 70
     1
102
RTVSPropertyOp11
 70
     1
102
RTVSPropertyOp12
 70
     1
102
RTVSPropertyOp13
 70
     1
102
RTVSPropertyOp14
 70
     1
102
RTVSPropertyOp15
 70
     1
102
RTVSPropertyOp16
 70
     1
102
RTVSPropertyOp17
 70
     1
102
RTVSPropertyOp18
 70
     1
102
RTVSPropertyOp19
 70
     1
102
RTVSPropertyOp20
 70
     1
102
RTVSPropertyOp21
 70
     1
102
RTVSPropertyOp22
 70
     1
102
RTVSPropertyOp23
 70
     1
102
RTVSPropertyOp24
 70
     1
102
RTVSPropertyOp25
 70
     1
102
RTVSPropertyOp26
 70
     1
102
RTVSPropertyOp27
 70
     1
102
RTVSPropertyOp28
 70
     1
102
RTVSPropertyOp29
 70
     1
102
RTVSPropertyOp30
 70
     1
102
RTVSPropertyOp31
 70
     1
102
RTVSPropertyOp32
 70
     1
  0
XRECORD
  5
52A8A
102
{ACAD_REACTORS
330
52A89
102
}
330
52A89
100
AcDbXrecord
280
     1
102
RTVSPropertyOp0
 70
     0
102
RTVSPropertyOp1
 70
     0
102
RTVSPropertyOp2
 70
     0
102
RTVSPropertyOp3
 70
     0
102
RTVSPropertyOp4
 70
     0
102
RTVSPropertyOp5
 70
     0
102
RTVSPropertyOp6
 70
     0
102
RTVSPropertyOp7
 70
     0
102
RTVSPropertyOp8
 70
     0
102
RTVSPropertyOp9
 70
     0
102
RTVSPropertyOp10
 70
     0
102
RTVSPropertyOp11
 70
     0
102
RTVSPropertyOp12
 70
     0
102
RTVSPropertyOp13
 70
     0
102
RTVSPropertyOp14
 70
     2
102
RTVSPropertyOp15
 70
     0
102
RTVSPropertyOp16
 70
     0
102
RTVSPropertyOp17
 70
     0
102
RTVSPropertyOp18
 70
     0
102
RTVSPropertyOp19
 70
     0
102
RTVSPropertyOp20
 70
     0
102
RTVSPropertyOp21
 70
     0
102
RTVSPropertyOp22
 70
     0
102
RTVSPropertyOp23
 70
     0
102
RTVSPropertyOp24
 70
     0
102
RTVSPropertyOp25
 70
     0
102
RTVSPropertyOp26
 70
     0
102
RTVSPropertyOp27
 70
     0
102
RTVSPropertyOp28
 70
     1
102
RTVSPropertyOp29
 70
     1
102
RTVSPropertyOp30
 70
     1
102
RTVSPropertyOp31
 70
     1
102
RTVSPropertyOp32
 70
     1
  0
XRECORD
  5
52A73
102
{ACAD_REACTORS
330
52A72
102
}
330
52A72
100
AcDbXrecord
280
     1
102
RTVSPropertyOp0
 70
     1
102
RTVSPropertyOp1
 70
     1
102
RTVSPropertyOp2
 70
     1
102
RTVSPropertyOp3
 70
     1
102
RTVSPropertyOp4
 70
     1
102
RTVSPropertyOp5
 70
     1
102
RTVSPropertyOp6
 70
     1
102
RTVSPropertyOp7
 70
     1
102
RTVSPropertyOp8
 70
     1
102
RTVSPropertyOp9
 70
     1
102
RTVSPropertyOp10
 70
     1
102
RTVSPropertyOp11
 70
     1
102
RTVSPropertyOp12
 70
     1
102
RTVSPropertyOp13
 70
     1
102
RTVSPropertyOp14
 70
     1
102
RTVSPropertyOp15
 70
     1
102
RTVSPropertyOp16
 70
     1
102
RTVSPropertyOp17
 70
     1
102
RTVSPropertyOp18
 70
     1
102
RTVSPropertyOp19
 70
     1
102
RTVSPropertyOp20
 70
     1
102
RTVSPropertyOp21
 70
     1
102
RTVSPropertyOp22
 70
     1
102
RTVSPropertyOp23
 70
     1
102
RTVSPropertyOp24
 70
     1
102
RTVSPropertyOp25
 70
     1
102
RTVSPropertyOp26
 70
     1
102
RTVSPropertyOp27
 70
     1
102
RTVSPropertyOp28
 70
     1
102
RTVSPropertyOp29
 70
     1
102
RTVSPropertyOp30
 70
     1
102
RTVSPropertyOp31
 70
     1
102
RTVSPropertyOp32
 70
     1
  0
XRECORD
  5
52A57
102
{ACAD_REACTORS
330
52A56
102
}
330
52A56
100
AcDbXrecord
280
     1
102
RTVSPropertyOp0
 70
     1
102
RTVSPropertyOp1
 70
     1
102
RTVSPropertyOp2
 70
     1
102
RTVSPropertyOp3
 70
     1
102
RTVSPropertyOp4
 70
     1
102
RTVSPropertyOp5
 70
     1
102
RTVSPropertyOp6
 70
     1
102
RTVSPropertyOp7
 70
     1
102
RTVSPropertyOp8
 70
     1
102
RTVSPropertyOp9
 70
     1
102
RTVSPropertyOp10
 70
     1
102
RTVSPropertyOp11
 70
     1
102
RTVSPropertyOp12
 70
     1
102
RTVSPropertyOp13
 70
     1
102
RTVSPropertyOp14
 70
     1
102
RTVSPropertyOp15
 70
     1
102
RTVSPropertyOp16
 70
     1
102
RTVSPropertyOp17
 70
     1
102
RTVSPropertyOp18
 70
     1
102
RTVSPropertyOp19
 70
     1
102
RTVSPropertyOp20
 70
     1
102
RTVSPropertyOp21
 70
     1
102
RTVSPropertyOp22
 70
     1
102
RTVSPropertyOp23
 70
     1
102
RTVSPropertyOp24
 70
     1
102
RTVSPropertyOp25
 70
     1
102
RTVSPropertyOp26
 70
     1
102
RTVSPropertyOp27
 70
     1
102
RTVSPropertyOp28
 70
     1
102
RTVSPropertyOp29
 70
     1
102
RTVSPropertyOp30
 70
     1
102
RTVSPropertyOp31
 70
     1
102
RTVSPropertyOp32
 70
     1
  0
XRECORD
  5
52A59
102
{ACAD_REACTORS
330
52A58
102
}
330
52A58
100
AcDbXrecord
280
     1
102
RTVSPropertyOp0
 70
     1
102
RTVSPropertyOp1
 70
     1
102
RTVSPropertyOp2
 70
     1
102
RTVSPropertyOp3
 70
     1
102
RTVSPropertyOp4
 70
     1
102
RTVSPropertyOp5
 70
     1
102
RTVSPropertyOp6
 70
     1
102
RTVSPropertyOp7
 70
     1
102
RTVSPropertyOp8
 70
     1
102
RTVSPropertyOp9
 70
     1
102
RTVSPropertyOp10
 70
     1
102
RTVSPropertyOp11
 70
     1
102
RTVSPropertyOp12
 70
     1
102
RTVSPropertyOp13
 70
     1
102
RTVSPropertyOp14
 70
     1
102
RTVSPropertyOp15
 70
     1
102
RTVSPropertyOp16
 70
     1
102
RTVSPropertyOp17
 70
     1
102
RTVSPropertyOp18
 70
     1
102
RTVSPropertyOp19
 70
     1
102
RTVSPropertyOp20
 70
     1
102
RTVSPropertyOp21
 70
     1
102
RTVSPropertyOp22
 70
     1
102
RTVSPropertyOp23
 70
     1
102
RTVSPropertyOp24
 70
     1
102
RTVSPropertyOp25
 70
     1
102
RTVSPropertyOp26
 70
     1
102
RTVSPropertyOp27
 70
     1
102
RTVSPropertyOp28
 70
     1
102
RTVSPropertyOp29
 70
     1
102
RTVSPropertyOp30
 70
     1
102
RTVSPropertyOp31
 70
     1
102
RTVSPropertyOp32
 70
     1
  0
XRECORD
  5
52A5B
102
{ACAD_REACTORS
330
52A5A
102
}
330
52A5A
100
AcDbXrecord
280
     1
102
RTVSPropertyOp0
 70
     1
102
RTVSPropertyOp1
 70
     1
102
RTVSPropertyOp2
 70
     1
102
RTVSPropertyOp3
 70
     1
102
RTVSPropertyOp4
 70
     1
102
RTVSPropertyOp5
 70
     1
102
RTVSPropertyOp6
 70
     1
102
RTVSPropertyOp7
 70
     1
102
RTVSPropertyOp8
 70
     1
102
RTVSPropertyOp9
 70
     1
102
RTVSPropertyOp10
 70
     1
102
RTVSPropertyOp11
 70
     1
102
RTVSPropertyOp12
 70
     1
102
RTVSPropertyOp13
 70
     1
102
RTVSPropertyOp14
 70
     1
102
RTVSPropertyOp15
 70
     1
102
RTVSPropertyOp16
 70
     1
102
RTVSPropertyOp17
 70
     1
102
RTVSPropertyOp18
 70
     1
102
RTVSPropertyOp19
 70
     1
102
RTVSPropertyOp20
 70
     1
102
RTVSPropertyOp21
 70
     1
102
RTVSPropertyOp22
 70
     1
102
RTVSPropertyOp23
 70
     1
102
RTVSPropertyOp24
 70
     1
102
RTVSPropertyOp25
 70
     1
102
RTVSPropertyOp26
 70
     1
102
RTVSPropertyOp27
 70
     1
102
RTVSPropertyOp28
 70
     1
102
RTVSPropertyOp29
 70
     1
102
RTVSPropertyOp30
 70
     1
102
RTVSPropertyOp31
 70
     1
102
RTVSPropertyOp32
 70
     1
  0
XRECORD
  5
52A5D
102
{ACAD_REACTORS
330
52A5C
102
}
330
52A5C
100
AcDbXrecord
280
     1
102
RTVSPropertyOp0
 70
     1
102
RTVSPropertyOp1
 70
     1
102
RTVSPropertyOp2
 70
     1
102
RTVSPropertyOp3
 70
     1
102
RTVSPropertyOp4
 70
     1
102
RTVSPropertyOp5
 70
     1
102
RTVSPropertyOp6
 70
     1
102
RTVSPropertyOp7
 70
     1
102
RTVSPropertyOp8
 70
     1
102
RTVSPropertyOp9
 70
     1
102
RTVSPropertyOp10
 70
     1
102
RTVSPropertyOp11
 70
     1
102
RTVSPropertyOp12
 70
     1
102
RTVSPropertyOp13
 70
     1
102
RTVSPropertyOp14
 70
     1
102
RTVSPropertyOp15
 70
     1
102
RTVSPropertyOp16
 70
     1
102
RTVSPropertyOp17
 70
     1
102
RTVSPropertyOp18
 70
     1
102
RTVSPropertyOp19
 70
     1
102
RTVSPropertyOp20
 70
     1
102
RTVSPropertyOp21
 70
     1
102
RTVSPropertyOp22
 70
     1
102
RTVSPropertyOp23
 70
     1
102
RTVSPropertyOp24
 70
     1
102
RTVSPropertyOp25
 70
     1
102
RTVSPropertyOp26
 70
     1
102
RTVSPropertyOp27
 70
     1
102
RTVSPropertyOp28
 70
     1
102
RTVSPropertyOp29
 70
     1
102
RTVSPropertyOp30
 70
     1
102
RTVSPropertyOp31
 70
     1
102
RTVSPropertyOp32
 70
     1
  0
XRECORD
  5
52A7A
102
{ACAD_REACTORS
330
52A79
102
}
330
52A79
100
AcDbXrecord
280
     1
102
RTVSPropertyOp0
 70
     1
102
RTVSPropertyOp1
 70
     1
102
RTVSPropertyOp2
 70
     1
102
RTVSPropertyOp3
 70
     1
102
RTVSPropertyOp4
 70
     1
102
RTVSPropertyOp5
 70
     1
102
RTVSPropertyOp6
 70
     1
102
RTVSPropertyOp7
 70
     1
102
RTVSPropertyOp8
 70
     1
102
RTVSPropertyOp9
 70
     1
102
RTVSPropertyOp10
 70
     1
102
RTVSPropertyOp11
 70
     1
102
RTVSPropertyOp12
 70
     1
102
RTVSPropertyOp13
 70
     1
102
RTVSPropertyOp14
 70
     1
102
RTVSPropertyOp15
 70
     1
102
RTVSPropertyOp16
 70
     1
102
RTVSPropertyOp17
 70
     1
102
RTVSPropertyOp18
 70
     1
102
RTVSPropertyOp19
 70
     1
102
RTVSPropertyOp20
 70
     1
102
RTVSPropertyOp21
 70
     1
102
RTVSPropertyOp22
 70
     1
102
RTVSPropertyOp23
 70
     1
102
RTVSPropertyOp24
 70
     1
102
RTVSPropertyOp25
 70
     1
102
RTVSPropertyOp26
 70
     1
102
RTVSPropertyOp27
 70
     1
102
RTVSPropertyOp28
 70
     1
102
RTVSPropertyOp29
 70
     1
102
RTVSPropertyOp30
 70
     1
102
RTVSPropertyOp31
 70
     1
102
RTVSPropertyOp32
 70
     1
  0
XRECORD
  5
52A86
102
{ACAD_REACTORS
330
52A85
102
}
330
52A85
100
AcDbXrecord
280
     1
102
RTVSPropertyOp0
 70
     0
102
RTVSPropertyOp1
 70
     0
102
RTVSPropertyOp2
 70
     0
102
RTVSPropertyOp3
 70
     0
102
RTVSPropertyOp4
 70
     0
102
RTVSPropertyOp5
 70
     0
102
RTVSPropertyOp6
 70
     0
102
RTVSPropertyOp7
 70
     0
102
RTVSPropertyOp8
 70
     0
102
RTVSPropertyOp9
 70
     0
102
RTVSPropertyOp10
 70
     0
102
RTVSPropertyOp11
 70
     0
102
RTVSPropertyOp12
 70
     0
102
RTVSPropertyOp13
 70
     0
102
RTVSPropertyOp14
 70
     2
102
RTVSPropertyOp15
 70
     0
102
RTVSPropertyOp16
 70
     0
102
RTVSPropertyOp17
 70
     0
102
RTVSPropertyOp18
 70
     0
102
RTVSPropertyOp19
 70
     0
102
RTVSPropertyOp20
 70
     0
102
RTVSPropertyOp21
 70
     0
102
RTVSPropertyOp22
 70
     0
102
RTVSPropertyOp23
 70
     0
102
RTVSPropertyOp24
 70
     0
102
RTVSPropertyOp25
 70
     0
102
RTVSPropertyOp26
 70
     0
102
RTVSPropertyOp27
 70
     0
102
RTVSPropertyOp28
 70
     1
102
RTVSPropertyOp29
 70
     1
102
RTVSPropertyOp30
 70
     1
102
RTVSPropertyOp31
 70
     1
102
RTVSPropertyOp32
 70
     1
  0
XRECORD
  5
52A71
102
{ACAD_REACTORS
330
52A70
102
}
330
52A70
100
AcDbXrecord
280
     1
102
RTVSPropertyOp0
 70
     1
102
RTVSPropertyOp1
 70
     1
102
RTVSPropertyOp2
 70
     1
102
RTVSPropertyOp3
 70
     1
102
RTVSPropertyOp4
 70
     1
102
RTVSPropertyOp5
 70
     1
102
RTVSPropertyOp6
 70
     1
102
RTVSPropertyOp7
 70
     1
102
RTVSPropertyOp8
 70
     1
102
RTVSPropertyOp9
 70
     1
102
RTVSPropertyOp10
 70
     1
102
RTVSPropertyOp11
 70
     1
102
RTVSPropertyOp12
 70
     1
102
RTVSPropertyOp13
 70
     1
102
RTVSPropertyOp14
 70
     1
102
RTVSPropertyOp15
 70
     1
102
RTVSPropertyOp16
 70
     1
102
RTVSPropertyOp17
 70
     1
102
RTVSPropertyOp18
 70
     1
102
RTVSPropertyOp19
 70
     1
102
RTVSPropertyOp20
 70
     1
102
RTVSPropertyOp21
 70
     1
102
RTVSPropertyOp22
 70
     1
102
RTVSPropertyOp23
 70
     1
102
RTVSPropertyOp24
 70
     1
102
RTVSPropertyOp25
 70
     1
102
RTVSPropertyOp26
 70
     1
102
RTVSPropertyOp27
 70
     1
102
RTVSPropertyOp28
 70
     1
102
RTVSPropertyOp29
 70
     1
102
RTVSPropertyOp30
 70
     1
102
RTVSPropertyOp31
 70
     1
102
RTVSPropertyOp32
 70
     1
  0
XRECORD
  5
52A88
102
{ACAD_REACTORS
330
52A87
102
}
330
52A87
100
AcDbXrecord
280
     1
102
RTVSPropertyOp0
 70
     0
102
RTVSPropertyOp1
 70
     0
102
RTVSPropertyOp2
 70
     0
102
RTVSPropertyOp3
 70
     0
102
RTVSPropertyOp4
 70
     0
102
RTVSPropertyOp5
 70
     0
102
RTVSPropertyOp6
 70
     0
102
RTVSPropertyOp7
 70
     0
102
RTVSPropertyOp8
 70
     0
102
RTVSPropertyOp9
 70
     0
102
RTVSPropertyOp10
 70
     0
102
RTVSPropertyOp11
 70
     0
102
RTVSPropertyOp12
 70
     0
102
RTVSPropertyOp13
 70
     0
102
RTVSPropertyOp14
 70
     2
102
RTVSPropertyOp15
 70
     0
102
RTVSPropertyOp16
 70
     0
102
RTVSPropertyOp17
 70
     0
102
RTVSPropertyOp18
 70
     0
102
RTVSPropertyOp19
 70
     0
102
RTVSPropertyOp20
 70
     0
102
RTVSPropertyOp21
 70
     0
102
RTVSPropertyOp22
 70
     0
102
RTVSPropertyOp23
 70
     0
102
RTVSPropertyOp24
 70
     0
102
RTVSPropertyOp25
 70
     0
102
RTVSPropertyOp26
 70
     0
102
RTVSPropertyOp27
 70
     0
102
RTVSPropertyOp28
 70
     1
102
RTVSPropertyOp29
 70
     1
102
RTVSPropertyOp30
 70
     1
102
RTVSPropertyOp31
 70
     1
102
RTVSPropertyOp32
 70
     1
  0
XRECORD
  5
52A69
102
{ACAD_REACTORS
330
52A68
102
}
330
52A68
100
AcDbXrecord
280
     1
102
RTVSPropertyOp0
 70
     1
102
RTVSPropertyOp1
 70
     1
102
RTVSPropertyOp2
 70
     1
102
RTVSPropertyOp3
 70
     1
102
RTVSPropertyOp4
 70
     1
102
RTVSPropertyOp5
 70
     1
102
RTVSPropertyOp6
 70
     1
102
RTVSPropertyOp7
 70
     1
102
RTVSPropertyOp8
 70
     1
102
RTVSPropertyOp9
 70
     1
102
RTVSPropertyOp10
 70
     1
102
RTVSPropertyOp11
 70
     1
102
RTVSPropertyOp12
 70
     1
102
RTVSPropertyOp13
 70
     1
102
RTVSPropertyOp14
 70
     1
102
RTVSPropertyOp15
 70
     1
102
RTVSPropertyOp16
 70
     1
102
RTVSPropertyOp17
 70
     1
102
RTVSPropertyOp18
 70
     1
102
RTVSPropertyOp19
 70
     1
102
RTVSPropertyOp20
 70
     1
102
RTVSPropertyOp21
 70
     1
102
RTVSPropertyOp22
 70
     1
102
RTVSPropertyOp23
 70
     1
102
RTVSPropertyOp24
 70
     1
102
RTVSPropertyOp25
 70
     1
102
RTVSPropertyOp26
 70
     1
102
RTVSPropertyOp27
 70
     1
102
RTVSPropertyOp28
 70
     1
102
RTVSPropertyOp29
 70
     1
102
RTVSPropertyOp30
 70
     1
102
RTVSPropertyOp31
 70
     1
102
RTVSPropertyOp32
 70
     1
  0
XRECORD
  5
52A84
102
{ACAD_REACTORS
330
52A83
102
}
330
52A83
100
AcDbXrecord
280
     1
102
RTVSPropertyOp0
 70
     1
102
RTVSPropertyOp1
 70
     1
102
RTVSPropertyOp2
 70
     1
102
RTVSPropertyOp3
 70
     1
102
RTVSPropertyOp4
 70
     1
102
RTVSPropertyOp5
 70
     1
102
RTVSPropertyOp6
 70
     1
102
RTVSPropertyOp7
 70
     1
102
RTVSPropertyOp8
 70
     1
102
RTVSPropertyOp9
 70
     1
102
RTVSPropertyOp10
 70
     1
102
RTVSPropertyOp11
 70
     1
102
RTVSPropertyOp12
 70
     1
102
RTVSPropertyOp13
 70
     1
102
RTVSPropertyOp14
 70
     1
102
RTVSPropertyOp15
 70
     1
102
RTVSPropertyOp16
 70
     1
102
RTVSPropertyOp17
 70
     1
102
RTVSPropertyOp18
 70
     1
102
RTVSPropertyOp19
 70
     1
102
RTVSPropertyOp20
 70
     1
102
RTVSPropertyOp21
 70
     1
102
RTVSPropertyOp22
 70
     1
102
RTVSPropertyOp23
 70
     1
102
RTVSPropertyOp24
 70
     1
102
RTVSPropertyOp25
 70
     1
102
RTVSPropertyOp26
 70
     1
102
RTVSPropertyOp27
 70
     1
102
RTVSPropertyOp28
 70
     1
102
RTVSPropertyOp29
 70
     1
102
RTVSPropertyOp30
 70
     1
102
RTVSPropertyOp31
 70
     1
102
RTVSPropertyOp32
 70
     1
  0
XRECORD
  5
52A82
102
{ACAD_REACTORS
330
52A81
102
}
330
52A81
100
AcDbXrecord
280
     1
102
RTVSPropertyOp0
 70
     1
102
RTVSPropertyOp1
 70
     1
102
RTVSPropertyOp2
 70
     1
102
RTVSPropertyOp3
 70
     1
102
RTVSPropertyOp4
 70
     1
102
RTVSPropertyOp5
 70
     1
102
RTVSPropertyOp6
 70
     1
102
RTVSPropertyOp7
 70
     1
102
RTVSPropertyOp8
 70
     1
102
RTVSPropertyOp9
 70
     1
102
RTVSPropertyOp10
 70
     1
102
RTVSPropertyOp11
 70
     1
102
RTVSPropertyOp12
 70
     1
102
RTVSPropertyOp13
 70
     1
102
RTVSPropertyOp14
 70
     1
102
RTVSPropertyOp15
 70
     1
102
RTVSPropertyOp16
 70
     1
102
RTVSPropertyOp17
 70
     1
102
RTVSPropertyOp18
 70
     1
102
RTVSPropertyOp19
 70
     1
102
RTVSPropertyOp20
 70
     1
102
RTVSPropertyOp21
 70
     1
102
RTVSPropertyOp22
 70
     1
102
RTVSPropertyOp23
 70
     1
102
RTVSPropertyOp24
 70
     1
102
RTVSPropertyOp25
 70
     1
102
RTVSPropertyOp26
 70
     1
102
RTVSPropertyOp27
 70
     1
102
RTVSPropertyOp28
 70
     1
102
RTVSPropertyOp29
 70
     1
102
RTVSPropertyOp30
 70
     1
102
RTVSPropertyOp31
 70
     1
102
RTVSPropertyOp32
 70
     1
  0
XRECORD
  5
52A7C
102
{ACAD_REACTORS
330
52A7B
102
}
330
52A7B
100
AcDbXrecord
280
     1
102
RTVSPropertyOp0
 70
     1
102
RTVSPropertyOp1
 70
     1
102
RTVSPropertyOp2
 70
     1
102
RTVSPropertyOp3
 70
     1
102
RTVSPropertyOp4
 70
     1
102
RTVSPropertyOp5
 70
     1
102
RTVSPropertyOp6
 70
     1
102
RTVSPropertyOp7
 70
     1
102
RTVSPropertyOp8
 70
     1
102
RTVSPropertyOp9
 70
     1
102
RTVSPropertyOp10
 70
     1
102
RTVSPropertyOp11
 70
     1
102
RTVSPropertyOp12
 70
     1
102
RTVSPropertyOp13
 70
     1
102
RTVSPropertyOp14
 70
     1
102
RTVSPropertyOp15
 70
     1
102
RTVSPropertyOp16
 70
     1
102
RTVSPropertyOp17
 70
     1
102
RTVSPropertyOp18
 70
     1
102
RTVSPropertyOp19
 70
     1
102
RTVSPropertyOp20
 70
     1
102
RTVSPropertyOp21
 70
     1
102
RTVSPropertyOp22
 70
     1
102
RTVSPropertyOp23
 70
     1
102
RTVSPropertyOp24
 70
     1
102
RTVSPropertyOp25
 70
     1
102
RTVSPropertyOp26
 70
     1
102
RTVSPropertyOp27
 70
     1
102
RTVSPropertyOp28
 70
     1
102
RTVSPropertyOp29
 70
     1
102
RTVSPropertyOp30
 70
     1
102
RTVSPropertyOp31
 70
     1
102
RTVSPropertyOp32
 70
     1
  0
XRECORD
  5
52A7E
102
{ACAD_REACTORS
330
52A7D
102
}
330
52A7D
100
AcDbXrecord
280
     1
102
RTVSPropertyOp0
 70
     1
102
RTVSPropertyOp1
 70
     1
102
RTVSPropertyOp2
 70
     1
102
RTVSPropertyOp3
 70
     1
102
RTVSPropertyOp4
 70
     1
102
RTVSPropertyOp5
 70
     1
102
RTVSPropertyOp6
 70
     1
102
RTVSPropertyOp7
 70
     1
102
RTVSPropertyOp8
 70
     1
102
RTVSPropertyOp9
 70
     1
102
RTVSPropertyOp10
 70
     1
102
RTVSPropertyOp11
 70
     1
102
RTVSPropertyOp12
 70
     1
102
RTVSPropertyOp13
 70
     1
102
RTVSPropertyOp14
 70
     1
102
RTVSPropertyOp15
 70
     1
102
RTVSPropertyOp16
 70
     1
102
RTVSPropertyOp17
 70
     1
102
RTVSPropertyOp18
 70
     1
102
RTVSPropertyOp19
 70
     1
102
RTVSPropertyOp20
 70
     1
102
RTVSPropertyOp21
 70
     1
102
RTVSPropertyOp22
 70
     1
102
RTVSPropertyOp23
 70
     1
102
RTVSPropertyOp24
 70
     1
102
RTVSPropertyOp25
 70
     1
102
RTVSPropertyOp26
 70
     1
102
RTVSPropertyOp27
 70
     1
102
RTVSPropertyOp28
 70
     1
102
RTVSPropertyOp29
 70
     1
102
RTVSPropertyOp30
 70
     1
102
RTVSPropertyOp31
 70
     1
102
RTVSPropertyOp32
 70
     1
  0
XRECORD
  5
52A6F
102
{ACAD_REACTORS
330
52A6E
102
}
330
52A6E
100
AcDbXrecord
280
     1
102
RTVSPropertyOp0
 70
     1
102
RTVSPropertyOp1
 70
     1
102
RTVSPropertyOp2
 70
     1
102
RTVSPropertyOp3
 70
     1
102
RTVSPropertyOp4
 70
     1
102
RTVSPropertyOp5
 70
     1
102
RTVSPropertyOp6
 70
     1
102
RTVSPropertyOp7
 70
     1
102
RTVSPropertyOp8
 70
     1
102
RTVSPropertyOp9
 70
     1
102
RTVSPropertyOp10
 70
     1
102
RTVSPropertyOp11
 70
     1
102
RTVSPropertyOp12
 70
     1
102
RTVSPropertyOp13
 70
     1
102
RTVSPropertyOp14
 70
     1
102
RTVSPropertyOp15
 70
     1
102
RTVSPropertyOp16
 70
     1
102
RTVSPropertyOp17
 70
     1
102
RTVSPropertyOp18
 70
     1
102
RTVSPropertyOp19
 70
     1
102
RTVSPropertyOp20
 70
     1
102
RTVSPropertyOp21
 70
     1
102
RTVSPropertyOp22
 70
     1
102
RTVSPropertyOp23
 70
     1
102
RTVSPropertyOp24
 70
     1
102
RTVSPropertyOp25
 70
     1
102
RTVSPropertyOp26
 70
     1
102
RTVSPropertyOp27
 70
     1
102
RTVSPropertyOp28
 70
     1
102
RTVSPropertyOp29
 70
     1
102
RTVSPropertyOp30
 70
     1
102
RTVSPropertyOp31
 70
     1
102
RTVSPropertyOp32
 70
     1
  0
XRECORD
  5
52A78
102
{ACAD_REACTORS
330
52A77
102
}
330
52A77
100
AcDbXrecord
280
     1
102
RTVSPropertyOp0
 70
     1
102
RTVSPropertyOp1
 70
     1
102
RTVSPropertyOp2
 70
     1
102
RTVSPropertyOp3
 70
     1
102
RTVSPropertyOp4
 70
     1
102
RTVSPropertyOp5
 70
     1
102
RTVSPropertyOp6
 70
     1
102
RTVSPropertyOp7
 70
     1
102
RTVSPropertyOp8
 70
     1
102
RTVSPropertyOp9
 70
     1
102
RTVSPropertyOp10
 70
     1
102
RTVSPropertyOp11
 70
     1
102
RTVSPropertyOp12
 70
     1
102
RTVSPropertyOp13
 70
     1
102
RTVSPropertyOp14
 70
     1
102
RTVSPropertyOp15
 70
     1
102
RTVSPropertyOp16
 70
     1
102
RTVSPropertyOp17
 70
     1
102
RTVSPropertyOp18
 70
     1
102
RTVSPropertyOp19
 70
     1
102
RTVSPropertyOp20
 70
     1
102
RTVSPropertyOp21
 70
     1
102
RTVSPropertyOp22
 70
     1
102
RTVSPropertyOp23
 70
     1
102
RTVSPropertyOp24
 70
     1
102
RTVSPropertyOp25
 70
     1
102
RTVSPropertyOp26
 70
     1
102
RTVSPropertyOp27
 70
     1
102
RTVSPropertyOp28
 70
     1
102
RTVSPropertyOp29
 70
     1
102
RTVSPropertyOp30
 70
     1
102
RTVSPropertyOp31
 70
     1
102
RTVSPropertyOp32
 70
     1
  0
XRECORD
  5
52A80
102
{ACAD_REACTORS
330
52A7F
102
}
330
52A7F
100
AcDbXrecord
280
     1
102
RTVSPropertyOp0
 70
     1
102
RTVSPropertyOp1
 70
     1
102
RTVSPropertyOp2
 70
     1
102
RTVSPropertyOp3
 70
     1
102
RTVSPropertyOp4
 70
     1
102
RTVSPropertyOp5
 70
     1
102
RTVSPropertyOp6
 70
     1
102
RTVSPropertyOp7
 70
     1
102
RTVSPropertyOp8
 70
     1
102
RTVSPropertyOp9
 70
     1
102
RTVSPropertyOp10
 70
     1
102
RTVSPropertyOp11
 70
     1
102
RTVSPropertyOp12
 70
     1
102
RTVSPropertyOp13
 70
     1
102
RTVSPropertyOp14
 70
     1
102
RTVSPropertyOp15
 70
     1
102
RTVSPropertyOp16
 70
     1
102
RTVSPropertyOp17
 70
     1
102
RTVSPropertyOp18
 70
     1
102
RTVSPropertyOp19
 70
     1
102
RTVSPropertyOp20
 70
     1
102
RTVSPropertyOp21
 70
     1
102
RTVSPropertyOp22
 70
     1
102
RTVSPropertyOp23
 70
     1
102
RTVSPropertyOp24
 70
     1
102
RTVSPropertyOp25
 70
     1
102
RTVSPropertyOp26
 70
     1
102
RTVSPropertyOp27
 70
     1
102
RTVSPropertyOp28
 70
     1
102
RTVSPropertyOp29
 70
     1
102
RTVSPropertyOp30
 70
     1
102
RTVSPropertyOp31
 70
     1
102
RTVSPropertyOp32
 70
     1
  0
ENDSEC
  0
EOF
