  0
SECTION
  2
HEADER
  9
$ACADVER
  1
AC1018
  9
$ACADMAINTVER
 70
   104
  9
$DWGCODEPAGE
  3
ANSI_932
  9
$LASTSAVEDBY
  1
HON1000CV
  9
$INSBASE
 10
0.0
 20
0.0
 30
0.0
  9
$EXTMIN
 10
-1427.465704701314
 20
2005.99558840527
 30
0.0
  9
$EXTMAX
 10
-743.4757902507953
 20
2294.785472788309
 30
0.0
  9
$LIMMIN
 10
0.0
 20
0.0
  9
$LIMMAX
 10
841.0
 20
594.0
  9
$ORTHOMODE
 70
     0
  9
$REGENMODE
 70
     1
  9
$FILLMODE
 70
     1
  9
$QTEXTMODE
 70
     0
  9
$MIRRTEXT
 70
     1
  9
$LTSCALE
 40
1.0
  9
$ATTMODE
 70
     1
  9
$TEXTSIZE
 40
2.5
  9
$TRACEWID
 40
1.0
  9
$TEXTSTYLE
  7
Standard
  9
$CLAYER
  8
0
  9
$CELTYPE
  6
ByLayer
  9
$CECOLOR
 62
   256
  9
$CELTSCALE
 40
1.0
  9
$DISPSILH
 70
     0
  9
$DIMSCALE
 40
1.0
  9
$DIMASZ
 40
4.5
  9
$DIMEXO
 40
0.0
  9
$DIMDLI
 40
0.38
  9
$DIMRND
 40
0.0
  9
$DIMDLE
 40
0.0
  9
$DIMEXE
 40
0.0
  9
$DIMTP
 40
0.0
  9
$DIMTM
 40
0.0
  9
$DIMTXT
 40
9.0
  9
$DIMCEN
 40
0.09
  9
$DIMTSZ
 40
0.0
  9
$DIMTOL
 70
     0
  9
$DIMLIM
 70
     0
  9
$DIMTIH
 70
     0
  9
$DIMTOH
 70
     1
  9
$DIMSE1
 70
     0
  9
$DIMSE2
 70
     0
  9
$DIMTAD
 70
     1
  9
$DIMZIN
 70
     0
  9
$DIMBLK
  1
Small
  9
$DIMASO
 70
     1
  9
$DIMSHO
 70
     1
  9
$DIMPOST
  1

  9
$DIMAPOST
  1

  9
$DIMALT
 70
     0
  9
$DIMALTD
 70
     2
  9
$DIMALTF
 40
25.4
  9
$DIMLFAC
 40
1.0
  9
$DIMTOFL
 70
     0
  9
$DIMTVP
 40
0.0
  9
$DIMTIX
 70
     1
  9
$DIMSOXD
 70
     0
  9
$DIMSAH
 70
     0
  9
$DIMBLK1
  1

  9
$DIMBLK2
  1

  9
$DIMSTYLE
  2
AutoCAD
  9
$DIMCLRD
 70
     4
  9
$DIMCLRE
 70
     4
  9
$DIMCLRT
 70
     3
  9
$DIMTFAC
 40
1.0
  9
$DIMGAP
 40
3.0
  9
$DIMJUST
 70
     0
  9
$DIMSD1
 70
     0
  9
$DIMSD2
 70
     0
  9
$DIMTOLJ
 70
     1
  9
$DIMTZIN
 70
     0
  9
$DIMALTZ
 70
     0
  9
$DIMALTTZ
 70
     0
  9
$DIMUPT
 70
     0
  9
$DIMDEC
 70
     0
  9
$DIMTDEC
 70
     0
  9
$DIMALTU
 70
     2
  9
$DIMALTTD
 70
     2
  9
$DIMTXSTY
  7
ACAD
  9
$DIMAUNIT
 70
     0
  9
$DIMADEC
 70
     0
  9
$DIMALTRND
 40
0.0
  9
$DIMAZIN
 70
     0
  9
$DIMDSEP
 70
    46
  9
$DIMATFIT
 70
     0
  9
$DIMFRAC
 70
     0
  9
$DIMLDRBLK
  1
None
  9
$DIMLUNIT
 70
     2
  9
$DIMLWD
 70
    -2
  9
$DIMLWE
 70
    -2
  9
$DIMTMOVE
 70
     0
  9
$LUNITS
 70
     2
  9
$LUPREC
 70
     2
  9
$SKETCHINC
 40
1.0
  9
$FILLETRAD
 40
0.0
  9
$AUNITS
 70
     0
  9
$AUPREC
 70
     2
  9
$MENU
  1
.
  9
$ELEVATION
 40
0.0
  9
$PELEVATION
 40
0.0
  9
$THICKNESS
 40
0.0
  9
$LIMCHECK
 70
     0
  9
$CHAMFERA
 40
10.0
  9
$CHAMFERB
 40
10.0
  9
$CHAMFERC
 40
20.0
  9
$CHAMFERD
 40
0.0
  9
$SKPOLY
 70
     0
  9
$TDCREATE
 40
2455748.681291193
  9
$TDUCREATE
 40
2455748.306291193
  9
$TDUPDATE
 40
2455961.471759341
  9
$TDUUPDATE
 40
2455961.096759340
  9
$TDINDWG
 40
0.0798613657
  9
$TDUSRTIMER
 40
0.0798613657
  9
$USRTIMER
 70
     1
  9
$ANGBASE
 50
0.0
  9
$ANGDIR
 70
     0
  9
$PDMODE
 70
     0
  9
$PDSIZE
 40
10.0
  9
$PLINEWID
 40
0.0
  9
$SPLFRAME
 70
     0
  9
$SPLINETYPE
 70
     6
  9
$SPLINESEGS
 70
     8
  9
$HANDSEED
  5
52A4B
  9
$SURFTAB1
 70
     6
  9
$SURFTAB2
 70
     6
  9
$SURFTYPE
 70
     6
  9
$SURFU
 70
     6
  9
$SURFV
 70
     6
  9
$UCSBASE
  2

  9
$UCSNAME
  2

  9
$UCSORG
 10
0.0
 20
0.0
 30
0.0
  9
$UCSXDIR
 10
1.0
 20
0.0
 30
0.0
  9
$UCSYDIR
 10
0.0
 20
1.0
 30
0.0
  9
$UCSORTHOREF
  2

  9
$UCSORTHOVIEW
 70
     0
  9
$UCSORGTOP
 10
0.0
 20
0.0
 30
0.0
  9
$UCSORGBOTTOM
 10
0.0
 20
0.0
 30
0.0
  9
$UCSORGLEFT
 10
0.0
 20
0.0
 30
0.0
  9
$UCSORGRIGHT
 10
0.0
 20
0.0
 30
0.0
  9
$UCSORGFRONT
 10
0.0
 20
0.0
 30
0.0
  9
$UCSORGBACK
 10
0.0
 20
0.0
 30
0.0
  9
$PUCSBASE
  2

  9
$PUCSNAME
  2

  9
$PUCSORG
 10
0.0
 20
0.0
 30
0.0
  9
$PUCSXDIR
 10
1.0
 20
0.0
 30
0.0
  9
$PUCSYDIR
 10
0.0
 20
1.0
 30
0.0
  9
$PUCSORTHOREF
  2

  9
$PUCSORTHOVIEW
 70
     0
  9
$PUCSORGTOP
 10
0.0
 20
0.0
 30
0.0
  9
$PUCSORGBOTTOM
 10
0.0
 20
0.0
 30
0.0
  9
$PUCSORGLEFT
 10
0.0
 20
0.0
 30
0.0
  9
$PUCSORGRIGHT
 10
0.0
 20
0.0
 30
0.0
  9
$PUCSORGFRONT
 10
0.0
 20
0.0
 30
0.0
  9
$PUCSORGBACK
 10
0.0
 20
0.0
 30
0.0
  9
$USERI1
 70
     0
  9
$USERI2
 70
     0
  9
$USERI3
 70
     0
  9
$USERI4
 70
     0
  9
$USERI5
 70
     0
  9
$USERR1
 40
0.0
  9
$USERR2
 40
0.0
  9
$USERR3
 40
0.0
  9
$USERR4
 40
0.0
  9
$USERR5
 40
0.0
  9
$WORLDVIEW
 70
     1
  9
$SHADEDGE
 70
     3
  9
$SHADEDIF
 70
    70
  9
$TILEMODE
 70
     1
  9
$MAXACTVP
 70
    48
  9
$PINSBASE
 10
0.0
 20
0.0
 30
0.0
  9
$PLIMCHECK
 70
     0
  9
$PEXTMIN
 10
0.0
 20
0.0
 30
0.0
  9
$PEXTMAX
 10
0.0
 20
0.0
 30
0.0
  9
$PLIMMIN
 10
0.0
 20
0.0
  9
$PLIMMAX
 10
12.0
 20
9.0
  9
$UNITMODE
 70
     0
  9
$VISRETAIN
 70
     1
  9
$PLINEGEN
 70
     0
  9
$PSLTSCALE
 70
     1
  9
$TREEDEPTH
 70
  3020
  9
$CMLSTYLE
  2
Standard
  9
$CMLJUST
 70
     1
  9
$CMLSCALE
 40
3.5
  9
$PROXYGRAPHICS
 70
     1
  9
$MEASUREMENT
 70
     1
  9
$CELWEIGHT
370
    -1
  9
$ENDCAPS
280
     0
  9
$JOINSTYLE
280
     0
  9
$LWDISPLAY
290
     0
  9
$INSUNITS
 70
     4
  9
$HYPERLINKBASE
  1

  9
$STYLESHEET
  1
monochrome.ctb
  9
$XEDIT
290
     1
  9
$CEPSNTYPE
380
     0
  9
$PSTYLEMODE
290
     1
  9
$FINGERPRINTGUID
  2
{75253CF9-08B3-4660-9A51-F564FBA57CE0}
  9
$VERSIONGUID
  2
{438165AA-C594-406C-BF70-E682F8F792B0}
  9
$EXTNAMES
290
     1
  9
$PSVPSCALE
 40
0.0
  9
$OLESTARTUP
290
     0
  9
$SORTENTS
280
    96
  9
$INDEXCTL
280
     0
  9
$HIDETEXT
280
     0
  9
$XCLIPFRAME
290
     0
  9
$HALOGAP
280
     0
  9
$OBSCOLOR
 70
   257
  9
$OBSLTYPE
280
     0
  9
$INTERSECTIONDISPLAY
280
     0
  9
$INTERSECTIONCOLOR
 70
   257
  9
$DIMASSOC
280
     1
  9
$PROJECTNAME
  1

  0
ENDSEC
  0
SECTION
  2
CLASSES
  0
CLASS
  1
ACDBDICTIONARYWDFLT
  2
AcDbDictionaryWithDefault
  3
ObjectDBX Classes
 90
        0
 91
        1
280
     0
281
     0
  0
CLASS
  1
DICTIONARYVAR
  2
AcDbDictionaryVar
  3
ObjectDBX Classes
 90
        0
 91
        9
280
     0
281
     0
  0
CLASS
  1
MATERIAL
  2
AcDbMaterial
  3
ObjectDBX Classes
 90
     1153
 91
        3
280
     0
281
     0
  0
CLASS
  1
VISUALSTYLE
  2
AcDbVisualStyle
  3
ObjectDBX Classes
 90
     4095
 91
       26
280
     0
281
     0
  0
CLASS
  1
TABLESTYLE
  2
AcDbTableStyle
  3
ObjectDBX Classes
 90
     4095
 91
        1
280
     0
281
     0
  0
CLASS
  1
SCALE
  2
AcDbScale
  3
ObjectDBX Classes
 90
     1153
 91
       21
280
     0
281
     0
  0
CLASS
  1
MLEADERSTYLE
  2
AcDbMLeaderStyle
  3
ACDB_MLEADERSTYLE_CLASS
 90
     4095
 91
        1
280
     0
281
     0
  0
CLASS
  1
CELLSTYLEMAP
  2
AcDbCellStyleMap
  3
ObjectDBX Classes
 90
     1152
 91
        2
280
     0
281
     0
  0
CLASS
  1
AEC_REFEDIT_STATUS_TRACKER
  2
AecDbRefEditStatusTracker
  3
AecArchBase60|Product Desc: Autodesk Architectural Desktop 2007 |Company: Autodesk,Inc. |WEB Address: www.autodesk.com
 90
      129
 91
        0
280
     0
281
     0
  0
CLASS
  1
NPOCOLLECTION
  2
AcDbImpNonPersistentObjectsCollection
  3
ObjectDBX Classes
 90
     1153
 91
        0
280
     0
281
     0
  0
CLASS
  1
PLOTSETTINGS
  2
AcDbPlotSettings
  3
ObjectDBX Classes
 90
        0
 91
        8
280
     0
281
     0
  0
CLASS
  1
SORTENTSTABLE
  2
AcDbSortentsTable
  3
ObjectDBX Classes
 90
        0
 91
        1
280
     0
281
     0
  0
CLASS
  1
ACAD_EVALUATION_GRAPH
  2
AcDbEvalGraph
  3
ObjectDBX Classes
 90
     1153
 91
        0
280
     0
281
     0
  0
CLASS
  1
ACAECUSTOBJ
  2
AcAeEditorObj
  3
AcAeEditorObj
 90
     1024
 91
        0
280
     0
281
     0
  0
CLASS
  1
ACDB_DYNAMICBLOCKPURGEPREVENTER_VERSION
  2
AcDbDynamicBlockPurgePreventer
  3
ObjectDBX Classes
 90
     1153
 91
        0
280
     0
281
     0
  0
CLASS
  1
SOLID_BACKGROUND
  2
AcDbSolidBackground
  3
SCENEOE
 90
     4095
 91
        0
280
     0
281
     0
  0
ENDSEC
  0
SECTION
  2
TABLES
  0
TABLE
  2
VPORT
  5
8
102
{ACAD_XDICTIONARY
360
52616
102
}
330
0
100
AcDbSymbolTable
 70
     1
  0
VPORT
  5
1FF1E
330
8
100
AcDbSymbolTableRecord
100
AcDbViewportTableRecord
  2
*Active
 70
     0
 10
0.0
 20
0.0
 11
1.0
 21
1.0
 12
-1600.018688910683
 22
-1398.390593532028
 13
0.0
 23
0.0
 14
10.0
 24
10.0
 15
10.0
 25
10.0
 16
0.0
 26
0.0
 36
2120.973378360774
 17
514.5358060702892
 27
3548.809190640961
 37
0.0
 40
291.2272080079167
 41
2.519736842105263
 42
50.0
 43
0.0
 44
0.0
 50
0.0
 51
0.0
 71
     0
 72
   100
 73
     1
 74
     3
 75
     0
 76
     0
 77
     0
 78
     0
281
     0
 65
     1
110
0.0
120
0.0
130
0.0
111
1.0
121
0.0
131
0.0
112
0.0
122
1.0
132
0.0
 79
     0
146
0.0
1001
ACAD_NAV_VCDISPLAY
1070
     3
  0
ENDTAB
  0
TABLE
  2
LTYPE
  5
5
330
0
100
AcDbSymbolTable
 70
     2
  0
LTYPE
  5
14
330
5
100
AcDbSymbolTableRecord
100
AcDbLinetypeTableRecord
  2
ByBlock
 70
     0
  3

 72
    65
 73
     0
 40
0.0
  0
LTYPE
  5
15
330
5
100
AcDbSymbolTableRecord
100
AcDbLinetypeTableRecord
  2
ByLayer
 70
     0
  3

 72
    65
 73
     0
 40
0.0
  0
LTYPE
  5
16
330
5
100
AcDbSymbolTableRecord
100
AcDbLinetypeTableRecord
  2
Continuous
 70
     0
  3
Solid line
 72
    65
 73
     0
 40
0.0
  0
LTYPE
  5
4BDA4
330
5
100
AcDbSymbolTableRecord
100
AcDbLinetypeTableRecord
  2
CENTER1
 70
     0
  3
----- - ----- - ----- - ----- - 
 72
    65
 73
     4
 40
10.0
 49
6.25
 74
     0
 49
-1.25
 74
     0
 49
1.25
 74
     0
 49
-1.25
 74
     0
  0
ENDTAB
  0
TABLE
  2
LAYER
  5
2
102
{ACAD_XDICTIONARY
360
1562
102
}
330
0
100
AcDbSymbolTable
 70
     6
  0
LAYER
  5
10
102
{ACAD_XDICTIONARY
360
22778
102
}
330
2
100
AcDbSymbolTableRecord
100
AcDbLayerTableRecord
  2
0
 70
     0
 62
     7
  6
Continuous
370
    -3
390
F
  0
LAYER
  5
16F1
330
2
100
AcDbSymbolTableRecord
100
AcDbLayerTableRecord
  2
Defpoints
 70
     0
 62
    20
  6
Continuous
290
     0
370
    -3
390
F
  0
LAYER
  5
4BDA5
102
{ACAD_XDICTIONARY
360
4BDA6
102
}
330
2
100
AcDbSymbolTableRecord
100
AcDbLayerTableRecord
  2
寸法
 70
     0
 62
     7
  6
Continuous
370
    -3
390
F
  0
LAYER
  5
4BDA7
102
{ACAD_XDICTIONARY
360
4BDA8
102
}
330
2
100
AcDbSymbolTableRecord
100
AcDbLayerTableRecord
  2
躯体と製品
 70
     0
 62
     7
  6
Continuous
370
    -3
390
F
  0
LAYER
  5
4BDA9
102
{ACAD_XDICTIONARY
360
4BDAA
102
}
330
2
100
AcDbSymbolTableRecord
100
AcDbLayerTableRecord
  2
文字-記号
 70
     0
 62
     7
  6
Continuous
370
    -3
390
F
  0
LAYER
  5
4BDAB
102
{ACAD_XDICTIONARY
360
525A1
102
}
330
2
100
AcDbSymbolTableRecord
100
AcDbLayerTableRecord
  2
中心線
 70
     0
 62
     7
  6
Continuous
370
    -3
390
F
1001
AcAecLayerStandard
1000

1000

1001
AcCmTransparency
1071
        0
  0
ENDTAB
  0
TABLE
  2
STYLE
  5
3
330
0
100
AcDbSymbolTable
 70
     2
  0
STYLE
  5
11
330
3
100
AcDbSymbolTableRecord
100
AcDbTextStyleTableRecord
  2
Standard
 70
     0
 40
0.0
 41
0.8
 50
0.0
 71
     0
 42
2.5
  3
txt.shx
  4
extfont.shx
  0
STYLE
  5
4BDAD
330
3
100
AcDbSymbolTableRecord
100
AcDbTextStyleTableRecord
  2
ACAD
 70
     0
 40
9.0
 41
0.8
 50
0.0
 71
     0
 42
5.0
  3
romans.shx
  4
extfont.shx
  0
ENDTAB
  0
TABLE
  2
VIEW
  5
6
330
0
100
AcDbSymbolTable
 70
     0
  0
ENDTAB
  0
TABLE
  2
UCS
  5
7
330
0
100
AcDbSymbolTable
 70
     0
  0
ENDTAB
  0
TABLE
  2
APPID
  5
9
330
0
100
AcDbSymbolTable
 70
    23
  0
APPID
  5
12
330
9
100
AcDbSymbolTableRecord
100
AcDbRegAppTableRecord
  2
ACAD
 70
     0
  0
APPID
  5
22729
330
9
100
AcDbSymbolTableRecord
100
AcDbRegAppTableRecord
  2
DCO15
 70
     0
  0
APPID
  5
2276D
330
9
100
AcDbSymbolTableRecord
100
AcDbRegAppTableRecord
  2
ACAD_MLEADERVER
 70
     0
  0
APPID
  5
22776
330
9
100
AcDbSymbolTableRecord
100
AcDbRegAppTableRecord
  2
AcAecLayerStandard
 70
     0
  0
APPID
  5
227C1
330
9
100
AcDbSymbolTableRecord
100
AcDbRegAppTableRecord
  2
ACAD_DSTYLE_DIMJAG
 70
     0
  0
APPID
  5
227C2
330
9
100
AcDbSymbolTableRecord
100
AcDbRegAppTableRecord
  2
ACAD_DSTYLE_DIMTALN
 70
     0
  0
APPID
  5
22821
330
9
100
AcDbSymbolTableRecord
100
AcDbRegAppTableRecord
  2
ACAD_PSEXT
 70
     0
  0
APPID
  5
2282A
330
9
100
AcDbSymbolTableRecord
100
AcDbRegAppTableRecord
  2
ACAD_EXEMPT_FROM_CAD_STANDARDS
 70
     0
  0
APPID
  5
229A9
330
9
100
AcDbSymbolTableRecord
100
AcDbRegAppTableRecord
  2
AcadAnnoPO
 70
     0
  0
APPID
  5
23673
330
9
100
AcDbSymbolTableRecord
100
AcDbRegAppTableRecord
  2
ACAD_DSTYLE_DIMTEXT_FILL
 70
     0
  0
APPID
  5
23674
330
9
100
AcDbSymbolTableRecord
100
AcDbRegAppTableRecord
  2
ACAD_DSTYLE_DIMBREAK
 70
     0
  0
APPID
  5
25752
330
9
100
AcDbSymbolTableRecord
100
AcDbRegAppTableRecord
  2
AcLayerTools
 70
     0
  0
APPID
  5
262DB
330
9
100
AcDbSymbolTableRecord
100
AcDbRegAppTableRecord
  2
ACAUTHENVIRON
 70
     0
  0
APPID
  5
27EF5
330
9
100
AcDbSymbolTableRecord
100
AcDbRegAppTableRecord
  2
AcDbDynamicBlockTrueName
 70
     0
  0
APPID
  5
27EF6
330
9
100
AcDbSymbolTableRecord
100
AcDbRegAppTableRecord
  2
AcDbDynamicBlockGUID
 70
     0
  0
APPID
  5
30E17
330
9
100
AcDbSymbolTableRecord
100
AcDbRegAppTableRecord
  2
AcadAnnoAV
 70
     0
  0
APPID
  5
47910
330
9
100
AcDbSymbolTableRecord
100
AcDbRegAppTableRecord
  2
ACAD_DSTYLE_DIMJOGGED_JOGANGLE_SYMBOL
 70
     0
  0
APPID
  5
47911
330
9
100
AcDbSymbolTableRecord
100
AcDbRegAppTableRecord
  2
AcDbBlockRepETag
 70
     0
  0
APPID
  5
4A789
330
9
100
AcDbSymbolTableRecord
100
AcDbRegAppTableRecord
  2
AcadAnnotative
 70
     0
  0
APPID
  5
4A78A
330
9
100
AcDbSymbolTableRecord
100
AcDbRegAppTableRecord
  2
AcCmTransparency
 70
     0
  0
APPID
  5
4BCBF
330
9
100
AcDbSymbolTableRecord
100
AcDbRegAppTableRecord
  2
ACAD_NAV_VCDISPLAY
 70
     0
  0
APPID
  5
4BDAF
330
9
100
AcDbSymbolTableRecord
100
AcDbRegAppTableRecord
  2
GradientColor1ACI
 70
     0
  0
APPID
  5
4BDB0
330
9
100
AcDbSymbolTableRecord
100
AcDbRegAppTableRecord
  2
GradientColor2ACI
 70
     0
  0
ENDTAB
  0
TABLE
  2
DIMSTYLE
  5
A
330
0
100
AcDbSymbolTable
 70
     2
100
AcDbDimStyleTable
 71
     2
340
4BDAE
340
3B
  0
DIMSTYLE
105
3B
330
A
100
AcDbSymbolTableRecord
100
AcDbDimStyleTableRecord
  2
Standard
 70
     0
178
   256
277
     6
340
11
1001
ACAD_DSTYLE_DIMJAG
1070
   388
1040
1.5
1001
ACAD_DSTYLE_DIMTALN
1070
   392
1070
     0
1001
ACAD_DSTYLE_DIMTEXT_FILL
1070
   376
1070
     1
1070
   377
1004
1800000001000000000000C1000000000000000000000000
  0
DIMSTYLE
105
4BDAE
102
{ACAD_REACTORS
330
518A4
102
}
330
A
100
AcDbSymbolTableRecord
100
AcDbDimStyleTableRecord
  2
AutoCAD
 70
     0
 41
4.5
 42
0.0
 44
0.0
 73
     0
 77
     1
140
9.0
147
3.0
174
     1
176
     4
177
     4
178
     3
271
     0
272
     0
289
     0
340
4BDAD
341
4BCC4
342
527A3
1001
ACAD_DSTYLE_DIMJAG
1070
   388
1040
1.5
1001
ACAD_DSTYLE_DIMTALN
1070
   392
1070
     0
  0
ENDTAB
  0
TABLE
  2
BLOCK_RECORD
  5
1
330
0
100
AcDbSymbolTable
 70
     3
  0
BLOCK_RECORD
  5
1F
102
{ACAD_XDICTIONARY
360
3662
102
}
330
1
100
AcDbSymbolTableRecord
100
AcDbBlockTableRecord
  2
*Model_Space
340
22
  0
BLOCK_RECORD
  5
525BA
330
1
100
AcDbSymbolTableRecord
100
AcDbBlockTableRecord
  2
*Paper_Space
340
525BB
  0
BLOCK_RECORD
  5
4BCC4
330
1
100
AcDbSymbolTableRecord
100
AcDbBlockTableRecord
  2
_None
340
0
  0
BLOCK_RECORD
  5
521E5
330
1
100
AcDbSymbolTableRecord
100
AcDbBlockTableRecord
  2
*D1
340
0
  0
BLOCK_RECORD
  5
527A3
330
1
100
AcDbSymbolTableRecord
100
AcDbBlockTableRecord
  2
_Small
340
0
102
{BLKREFS
331
5291E
331
5291F
102
}
  0
ENDTAB
  0
ENDSEC
  0
SECTION
  2
BLOCKS
  0
BLOCK
  5
20
330
1F
100
AcDbEntity
  8
0
100
AcDbBlockBegin
  2
*Model_Space
 70
     0
 10
0.0
 20
0.0
 30
0.0
  3
*Model_Space
  1

  0
ENDBLK
  5
21
330
1F
100
AcDbEntity
  8
0
100
AcDbBlockEnd
  0
BLOCK
  5
525BC
330
525BA
100
AcDbEntity
 67
     1
  8
0
100
AcDbBlockBegin
  2
*Paper_Space
 70
     0
 10
0.0
 20
0.0
 30
0.0
  3
*Paper_Space
  1

  0
ENDBLK
  5
525BD
330
525BA
100
AcDbEntity
 67
     1
  8
0
100
AcDbBlockEnd
  0
BLOCK
  5
4BCC5
330
4BCC4
100
AcDbEntity
  8
0
100
AcDbBlockBegin
  2
_None
 70
     0
 10
0.0
 20
0.0
 30
0.0
  3
_None
  1

  0
ENDBLK
  5
4BCC6
330
4BCC4
100
AcDbEntity
  8
0
100
AcDbBlockEnd
  0
BLOCK
  5
521E6
330
521E5
100
AcDbEntity
  8
0
100
AcDbBlockBegin
  2
*D1
 70
     1
 10
0.0
 20
0.0
 30
0.0
  3
*D1
  1

  0
LINE
  5
5291B
330
521E5
100
AcDbEntity
  8
寸法
  6
Continuous
 62
     4
440
 16777216
370
    -2
100
AcDbLine
 10
-783.832671250795
 20
2025.9964939086
 30
0.0
 11
-744.6007902507954
 21
2025.9964939086
 31
0.0
  0
LINE
  5
5291C
330
521E5
100
AcDbEntity
  8
寸法
  6
Continuous
 62
     4
440
 16777216
370
    -2
100
AcDbLine
 10
-783.832671250795
 20
2143.99558840527
 30
0.0
 11
-744.6007902507954
 21
2143.99558840527
 31
0.0
  0
LINE
  5
5291D
330
521E5
100
AcDbEntity
  8
寸法
  6
Continuous
 62
     4
440
 16777216
370
    -2
100
AcDbLine
 10
-744.6007902507954
 20
2025.9964939086
 30
0.0
 11
-744.6007902507954
 21
2143.99558840527
 31
0.0
  0
INSERT
  5
5291E
330
521E5
100
AcDbEntity
  8
寸法
  6
Continuous
 62
     4
440
 16777216
370
    -2
100
AcDbBlockReference
  2
_Small
 10
-744.6007902507954
 20
2025.9964939086
 30
0.0
 41
4.5
 42
4.5
 43
4.5
 50
270.0
  0
INSERT
  5
5291F
330
521E5
100
AcDbEntity
  8
寸法
  6
Continuous
 62
     4
440
 16777216
370
    -2
100
AcDbBlockReference
  2
_Small
 10
-744.6007902507954
 20
2143.99558840527
 30
0.0
 41
4.5
 42
4.5
 43
4.5
 50
90.0
  0
MTEXT
  5
52920
330
521E5
100
AcDbEntity
  8
寸法
  6
Continuous
 62
     3
440
 16777216
100
AcDbMText
 10
-752.1007902507957
 20
2084.996041156935
 30
0.0
 40
9.0
 41
0.0
 71
     5
 72
     1
  1
\A1;h
  7
ACAD
 11
0.0000000000000001
 21
1.0
 31
0.0
 73
     1
 44
1.0
  0
POINT
  5
52921
330
521E5
100
AcDbEntity
  8
Defpoints
  6
Continuous
 62
     0
440
 16777216
100
AcDbPoint
 10
-783.832671250795
 20
2025.9964939086
 30
0.0
  0
POINT
  5
52922
330
521E5
100
AcDbEntity
  8
Defpoints
  6
Continuous
 62
     0
440
 16777216
100
AcDbPoint
 10
-783.832671250795
 20
2143.99558840527
 30
0.0
  0
POINT
  5
52923
330
521E5
100
AcDbEntity
  8
Defpoints
  6
Continuous
 62
     0
440
 16777216
100
AcDbPoint
 10
-744.6007902507954
 20
2143.99558840527
 30
0.0
  0
ENDBLK
  5
521E7
330
521E5
100
AcDbEntity
  8
0
100
AcDbBlockEnd
  0
BLOCK
  5
527A5
330
527A3
100
AcDbEntity
  8
0
100
AcDbBlockBegin
  2
_Small
 70
     0
 10
0.0
 20
0.0
 30
0.0
  3
_Small
  1

  0
CIRCLE
  5
527A4
330
527A3
100
AcDbEntity
  8
0
  6
ByBlock
 62
     0
370
    -2
100
AcDbCircle
 10
0.0
 20
0.0
 30
0.0
 40
0.25
  0
ENDBLK
  5
527A6
330
527A3
100
AcDbEntity
  8
0
100
AcDbBlockEnd
  0
ENDSEC
  0
SECTION
  2
ENTITIES
  0
LINE
  5
514E8
330
1F
100
AcDbEntity
  8
躯体と製品
  6
Continuous
 62
     4
100
AcDbLine
 10
-1427.465704701314
 20
2025.996493908599
 30
0.0
 11
-786.8326712507951
 21
2025.9964939086
 31
0.0
  0
CIRCLE
  5
51530
330
1F
100
AcDbEntity
  8
躯体と製品
  6
Continuous
 62
     3
100
AcDbCircle
 10
-1340.595149815112
 20
2051.453051696699
 30
0.0
 40
1.366120218579283
  0
CIRCLE
  5
51531
330
1F
100
AcDbEntity
  8
躯体と製品
  6
Continuous
 62
     3
100
AcDbCircle
 10
-1341.028808053792
 20
2033.574017472968
 30
0.0
 40
1.366120218579283
  0
CIRCLE
  5
51532
330
1F
100
AcDbEntity
  8
躯体と製品
  6
Continuous
 62
     3
100
AcDbCircle
 10
-1235.820483114045
 20
2050.39751587036
 30
0.0
 40
1.366120218579283
  0
CIRCLE
  5
51533
330
1F
100
AcDbEntity
  8
躯体と製品
  6
Continuous
 62
     3
100
AcDbCircle
 10
-1253.744045920715
 20
2062.983971278621
 30
0.0
 40
1.366120218579283
  0
CIRCLE
  5
51534
330
1F
100
AcDbEntity
  8
躯体と製品
  6
Continuous
 62
     3
100
AcDbCircle
 10
-1279.244956667522
 20
2052.510382936178
 30
0.0
 40
1.366120218579283
  0
CIRCLE
  5
51535
330
1F
100
AcDbEntity
  8
躯体と製品
  6
Continuous
 62
     3
100
AcDbCircle
 10
-1305.035613010099
 20
2059.350593811098
 30
0.0
 40
1.366120218579283
  0
CIRCLE
  5
51536
330
1F
100
AcDbEntity
  8
躯体と製品
  6
Continuous
 62
     3
100
AcDbCircle
 10
-1319.971997369999
 20
2058.189784193283
 30
0.0
 40
1.366120218579283
  0
CIRCLE
  5
51537
330
1F
100
AcDbEntity
  8
躯体と製品
  6
Continuous
 62
     3
100
AcDbCircle
 10
-1300.390940903731
 20
2035.635417913185
 30
0.0
 40
1.366120218579283
  0
CIRCLE
  5
51538
330
1F
100
AcDbEntity
  8
躯体と製品
  6
Continuous
 62
     3
100
AcDbCircle
 10
-1248.933746003882
 20
2035.180044506993
 30
0.0
 40
1.366120218579283
  0
CIRCLE
  5
51539
330
1F
100
AcDbEntity
  8
躯体と製品
  6
Continuous
 62
     3
100
AcDbCircle
 10
-1218.879101195185
 20
2054.546796943732
 30
0.0
 40
1.366120218579283
  0
CIRCLE
  5
5153A
330
1F
100
AcDbEntity
  8
躯体と製品
  6
Continuous
 62
     3
100
AcDbCircle
 10
-1316.114634781303
 20
2038.844305468234
 30
0.0
 40
1.366120218579283
  0
CIRCLE
  5
5153B
330
1F
100
AcDbEntity
  8
躯体と製品
  6
Continuous
 62
     3
100
AcDbCircle
 10
-1271.247042907389
 20
2042.010645599887
 30
0.0
 40
1.366120218579283
  0
CIRCLE
  5
5153C
330
1F
100
AcDbEntity
  8
躯体と製品
  6
Continuous
 62
     3
100
AcDbCircle
 10
-1350.956397451606
 20
2054.555786645295
 30
0.0
 40
1.366120218579283
  0
LINE
  5
5154A
330
1F
100
AcDbEntity
  8
躯体と製品
  6
Continuous
 62
     4
100
AcDbLine
 10
-1327.465704701313
 20
2150.99558840527
 30
0.0
 11
-1322.465704701313
 21
2155.99558840527
 31
0.0
  0
LINE
  5
5154B
330
1F
100
AcDbEntity
  8
躯体と製品
  6
Continuous
 62
     4
100
AcDbLine
 10
-1327.465704701313
 20
2075.99558840527
 30
0.0
 11
-1327.465704701313
 21
2150.99558840527
 31
0.0
  0
LINE
  5
5154C
330
1F
100
AcDbEntity
  8
躯体と製品
  6
Continuous
 62
     4
100
AcDbLine
 10
-1227.465704701313
 20
2155.99558840527
 30
0.0
 11
-1322.465704701312
 21
2155.99558840527
 31
0.0
  0
LINE
  5
5154D
330
1F
100
AcDbEntity
  8
躯体と製品
  6
Continuous
 62
     4
100
AcDbLine
 10
-1207.465704701315
 20
2143.995588405269
 30
0.0
 11
-1207.465704701313
 21
2075.99558840527
 31
0.0
  0
LINE
  5
5154E
330
1F
100
AcDbEntity
  8
躯体と製品
  6
Continuous
 62
     4
100
AcDbLine
 10
-1207.465704701313
 20
2075.99558840527
 30
0.0
 11
-1327.465704701313
 21
2075.99558840527
 31
0.0
  0
LINE
  5
5154F
330
1F
100
AcDbEntity
  8
躯体と製品
  6
Continuous
 62
     4
100
AcDbLine
 10
-1197.465704701313
 20
2143.99558840527
 30
0.0
 11
-1197.465704701313
 21
2123.99558840527
 31
0.0
  0
LINE
  5
51550
330
1F
100
AcDbEntity
  8
躯体と製品
  6
Continuous
 62
     4
100
AcDbLine
 10
-1177.465704701313
 20
2083.99558840527
 30
0.0
 11
-1207.465704701314
 21
2025.9964939086
 31
0.0
  0
LINE
  5
51551
330
1F
100
AcDbEntity
  8
躯体と製品
  6
Continuous
 62
     4
100
AcDbLine
 10
-786.8326712508533
 20
2155.99558840527
 30
0.0
 11
-1094.385942154576
 21
2155.99558840527
 31
0.0
  0
LINE
  5
51552
330
1F
100
AcDbEntity
  8
躯体と製品
  6
Continuous
 62
     4
100
AcDbLine
 10
-1099.385942154576
 20
2155.99558840527
 30
0.0
 11
-1227.465704701313
 21
2155.99558840527
 31
0.0
  0
LINE
  5
51553
330
1F
100
AcDbEntity
  8
躯体と製品
  6
Continuous
 62
     4
100
AcDbLine
 10
-786.8326712507951
 20
2143.99558840527
 30
0.0
 11
-1087.4577389243
 21
2143.99558840527
 31
0.0
  0
LINE
  5
51554
330
1F
100
AcDbEntity
  8
躯体と製品
  6
Continuous
 62
     4
100
AcDbLine
 10
-1092.4577389243
 20
2143.99558840527
 30
0.0
 11
-1227.465704701313
 21
2143.99558840527
 31
0.0
  0
LINE
  5
51555
330
1F
100
AcDbEntity
  8
躯体と製品
  6
Continuous
 62
     4
100
AcDbLine
 10
-786.8326712507951
 20
2123.99558840527
 30
0.0
 11
-1075.910733540507
 21
2123.99558840527
 31
0.0
  0
LINE
  5
51556
330
1F
100
AcDbEntity
  8
躯体と製品
  6
Continuous
 62
     4
100
AcDbLine
 10
-1080.910733540507
 20
2123.99558840527
 30
0.0
 11
-1197.465704701313
 21
2123.99558840527
 31
0.0
  0
LINE
  5
51557
330
1F
100
AcDbEntity
  8
躯体と製品
  6
Continuous
 62
     4
100
AcDbLine
 10
-1227.465704701313
 20
2143.99558840527
 30
0.0
 11
-1227.465704701313
 21
2155.99558840527
 31
0.0
  0
LINE
  5
51559
330
1F
100
AcDbEntity
  8
躯体と製品
  6
Continuous
 62
     4
100
AcDbLine
 10
-1177.465704701313
 20
2123.99558840527
 30
0.0
 11
-1207.465704701315
 21
2083.99558840527
 31
0.0
  0
LINE
  5
5155A
330
1F
100
AcDbEntity
  8
躯体と製品
  6
Continuous
 62
     4
100
AcDbLine
 10
-1207.465704701313
 20
2123.99558840527
 30
0.0
 11
-1177.465704701315
 21
2083.99558840527
 31
0.0
  0
LINE
  5
5155B
330
1F
100
AcDbEntity
  8
躯体と製品
  6
Continuous
 62
     4
100
AcDbLine
 10
-1207.465704701313
 20
2123.99558840527
 30
0.0
 11
-1207.465704701315
 21
2083.99558840527
 31
0.0
  0
LINE
  5
5155C
330
1F
100
AcDbEntity
  8
躯体と製品
  6
Continuous
 62
     4
100
AcDbLine
 10
-1207.465704701315
 20
2083.99558840527
 30
0.0
 11
-1177.465704701315
 21
2083.99558840527
 31
0.0
  0
LINE
  5
5155D
330
1F
100
AcDbEntity
  8
躯体と製品
  6
Continuous
 62
     4
100
AcDbLine
 10
-1207.465704701313
 20
2123.99558840527
 30
0.0
 11
-1177.465704701313
 21
2123.99558840527
 31
0.0
  0
LINE
  5
5155E
330
1F
100
AcDbEntity
  8
躯体と製品
  6
Continuous
 62
     4
100
AcDbLine
 10
-1177.465704701313
 20
2123.995588405268
 30
0.0
 11
-1177.465704701315
 21
2083.995588405269
 31
0.0
  0
LINE
  5
5155F
330
1F
100
AcDbEntity
  8
躯体と製品
  6
Continuous
 62
     4
100
AcDbLine
 10
-1177.465704701313
 20
2083.99558840527
 30
0.0
 11
-1177.465704701314
 21
2025.9964939086
 31
0.0
  0
LINE
  5
51560
330
1F
100
AcDbEntity
  8
躯体と製品
  6
Continuous
 62
     4
100
AcDbLine
 10
-1207.465704701313
 20
2075.99558840527
 30
0.0
 11
-1207.465704701314
 21
2025.9964939086
 31
0.0
  0
CIRCLE
  5
5171E
330
1F
100
AcDbEntity
  8
躯体と製品
  6
Continuous
 62
     3
100
AcDbCircle
 10
-1358.253321678014
 20
2033.417229071367
 30
0.0
 40
1.366120218579283
  0
CIRCLE
  5
5171F
330
1F
100
AcDbEntity
  8
躯体と製品
  6
Continuous
 62
     3
100
AcDbCircle
 10
-1284.235564010825
 20
2065.970278043315
 30
0.0
 40
1.366120218579283
  0
LINE
  5
5181A
330
1F
100
AcDbEntity
  8
躯体と製品
  6
Continuous
 62
     4
100
AcDbLine
 10
-882.3326712507951
 20
2098.9964939086
 30
0.0
 11
-856.3326712507951
 21
2098.9964939086
 31
0.0
  0
LINE
  5
5181B
330
1F
100
AcDbEntity
  8
躯体と製品
  6
Continuous
 62
     4
100
AcDbLine
 10
-917.332671250795
 20
2123.996493908601
 30
0.0
 11
-917.332671250795
 21
2116.996493908601
 31
0.0
  0
LINE
  5
5181C
330
1F
100
AcDbEntity
  8
躯体と製品
  6
Continuous
 62
     4
100
AcDbLine
 10
-879.832671250795
 20
2123.996493908601
 30
0.0
 11
-858.8326712507951
 21
2123.996493908601
 31
0.0
  0
LINE
  5
5181D
330
1F
100
AcDbEntity
  8
躯体と製品
  6
Continuous
 62
     4
100
AcDbLine
 10
-882.3326712507951
 20
2099.7789118448
 30
0.0
 11
-882.3326712507951
 21
2098.9964939086
 31
0.0
  0
LINE
  5
5181E
330
1F
100
AcDbEntity
  8
躯体と製品
  6
Continuous
 62
     4
100
AcDbLine
 10
-856.3326712507951
 20
2098.9964939086
 30
0.0
 11
-856.3326712507951
 21
2099.7789118448
 31
0.0
  0
LINE
  5
5181F
330
1F
100
AcDbEntity
  8
躯体と製品
  6
Continuous
 62
     4
100
AcDbLine
 10
-880.3326712507951
 20
2124.296493908603
 30
0.0
 11
-880.832671250795
 21
2123.996493908601
 31
0.0
  0
LINE
  5
51820
330
1F
100
AcDbEntity
  8
躯体と製品
  6
Continuous
 62
     4
100
AcDbLine
 10
-879.832671250795
 20
2123.996493908601
 30
0.0
 11
-880.3326712507951
 21
2124.296493908603
 31
0.0
  0
LINE
  5
51821
330
1F
100
AcDbEntity
  8
躯体と製品
  6
Continuous
 62
     4
100
AcDbLine
 10
-858.332671250795
 20
2124.296493908603
 30
0.0
 11
-858.8326712507951
 21
2123.996493908601
 31
0.0
  0
LINE
  5
51822
330
1F
100
AcDbEntity
  8
躯体と製品
  6
Continuous
 62
     4
100
AcDbLine
 10
-857.8326712507951
 20
2123.996493908601
 30
0.0
 11
-858.332671250795
 21
2124.296493908603
 31
0.0
  0
ARC
  5
51823
330
1F
100
AcDbEntity
  8
躯体と製品
  6
Continuous
 62
     4
100
AcDbCircle
 10
-822.3326712507951
 20
2116.996493908601
 30
0.0
 40
1.0
100
AcDbArc
 50
270.0
 51
0.0
  0
LINE
  5
51824
330
1F
100
AcDbEntity
  8
躯体と製品
  6
Continuous
 62
     4
100
AcDbLine
 10
-821.3326712507951
 20
2123.996493908601
 30
0.0
 11
-821.3326712507951
 21
2116.996493908601
 31
0.0
  0
ARC
  5
51825
330
1F
100
AcDbEntity
  8
躯体と製品
  6
Continuous
 62
     4
100
AcDbCircle
 10
-916.332671250795
 20
2116.996493908601
 30
0.0
 40
1.0
100
AcDbArc
 50
180.0
 51
270.0
  0
LINE
  5
51826
330
1F
100
AcDbEntity
  8
躯体と製品
  6
Continuous
 62
     4
100
AcDbLine
 10
-870.082671250795
 20
2108.220116160601
 30
0.0
 11
-870.082671250795
 21
2115.9964939086
 31
0.0
  0
LINE
  5
51827
330
1F
100
AcDbEntity
  8
躯体と製品
  6
Continuous
 62
     4
100
AcDbLine
 10
-868.5826712507951
 20
2108.220116160601
 30
0.0
 11
-869.0825477939943
 21
2108.224515292999
 31
0.0
  0
LINE
  5
51828
330
1F
100
AcDbEntity
  8
躯体と製品
  6
Continuous
 62
     4
100
AcDbLine
 10
-869.0825477939943
 20
2108.224515292999
 30
0.0
 11
-869.582794707796
 21
2108.224515292999
 31
0.0
  0
LINE
  5
51829
330
1F
100
AcDbEntity
  8
躯体と製品
  6
Continuous
 62
     4
100
AcDbLine
 10
-869.582794707796
 20
2108.224515292999
 30
0.0
 11
-870.082671250795
 21
2108.220116160601
 31
0.0
  0
LINE
  5
5182A
330
1F
100
AcDbEntity
  8
躯体と製品
  6
Continuous
 62
     4
100
AcDbLine
 10
-868.5826712507951
 20
2108.220116160601
 30
0.0
 11
-868.5826712507951
 21
2115.9964939086
 31
0.0
  0
LINE
  5
5182B
330
1F
100
AcDbEntity
  8
躯体と製品
  6
Continuous
 62
     4
100
AcDbLine
 10
-855.4814829433963
 20
2109.281817740603
 30
0.0
 11
-824.6788780189962
 21
2115.9964939086
 31
0.0
  0
LINE
  5
5182C
330
1F
100
AcDbEntity
  8
躯体と製品
  6
Continuous
 62
     4
100
AcDbLine
 10
-855.7090588775936
 20
2109.000994469201
 30
0.0
 11
-823.6182178471972
 21
2115.9964939086
 31
0.0
  0
LINE
  5
5182D
330
1F
100
AcDbEntity
  8
躯体と製品
  6
Continuous
 62
     4
100
AcDbLine
 10
-853.9776700527946
 20
2111.137486956797
 30
0.0
 11
-853.9776700527946
 21
2110.996493908601
 31
0.0
  0
LINE
  5
5182E
330
1F
100
AcDbEntity
  8
躯体と製品
  6
Continuous
 62
     4
100
AcDbLine
 10
-882.956283624193
 20
2109.000994469201
 30
0.0
 11
-915.0471246545967
 21
2115.9964939086
 31
0.0
  0
LINE
  5
5182F
330
1F
100
AcDbEntity
  8
躯体と製品
  6
Continuous
 62
     4
100
AcDbLine
 10
-883.183859558194
 20
2109.281817740603
 30
0.0
 11
-913.9864644827939
 21
2115.9964939086
 31
0.0
  0
LINE
  5
51830
330
1F
100
AcDbEntity
  8
躯体と製品
  6
Continuous
 62
     4
100
AcDbLine
 10
-884.6876724487955
 20
2110.996493908601
 30
0.0
 11
-884.6876724487955
 21
2111.137486956797
 31
0.0
  0
LINE
  5
51831
330
1F
100
AcDbEntity
  8
躯体と製品
  6
Continuous
 62
     4
100
AcDbLine
 10
-851.9068802013972
 20
2115.9964939086
 30
0.0
 11
-851.9068802013972
 21
2115.972882797601
 31
0.0
  0
LINE
  5
51832
330
1F
100
AcDbEntity
  8
躯体と製品
  6
Continuous
 62
     4
100
AcDbLine
 10
-850.0591211363971
 20
2115.9964939086
 30
0.0
 11
-850.0591211363971
 21
2115.972882797601
 31
0.0
  0
LINE
  5
51833
330
1F
100
AcDbEntity
  8
躯体と製品
  6
Continuous
 62
     4
100
AcDbLine
 10
-850.0591211363971
 20
2115.972882797601
 30
0.0
 11
-851.9068802013972
 21
2115.972882797601
 31
0.0
  0
LINE
  5
51834
330
1F
100
AcDbEntity
  8
躯体と製品
  6
Continuous
 62
     4
100
AcDbLine
 10
-850.0591211363971
 20
2115.972882797601
 30
0.0
 11
-863.4486475287959
 21
2099.450526790404
 31
0.0
  0
LINE
  5
51835
330
1F
100
AcDbEntity
  8
躯体と製品
  6
Continuous
 62
     4
100
AcDbLine
 10
-865.2964065937958
 20
2099.450526790404
 30
0.0
 11
-864.6676556945932
 21
2099.466694205201
 31
0.0
  0
LINE
  5
51836
330
1F
100
AcDbEntity
  8
躯体と製品
  6
Continuous
 62
     4
100
AcDbLine
 10
-864.6676556945932
 20
2099.466694205201
 30
0.0
 11
-864.0511946559964
 21
2099.466694205201
 31
0.0
  0
LINE
  5
51837
330
1F
100
AcDbEntity
  8
躯体と製品
  6
Continuous
 62
     4
100
AcDbLine
 10
-864.0511946559964
 20
2099.466694205201
 30
0.0
 11
-863.4486475287959
 21
2099.450526790404
 31
0.0
  0
LINE
  5
51838
330
1F
100
AcDbEntity
  8
躯体と製品
  6
Continuous
 62
     4
100
AcDbLine
 10
-851.9068802013972
 20
2115.972882797601
 30
0.0
 11
-865.2964065937958
 21
2099.450526790404
 31
0.0
  0
LINE
  5
51839
330
1F
100
AcDbEntity
  8
躯体と製品
  6
Continuous
 62
     4
100
AcDbLine
 10
-865.2964065937958
 20
2099.450526790404
 30
0.0
 11
-865.2964065937958
 21
2110.996493908601
 31
0.0
  0
LINE
  5
5183A
330
1F
100
AcDbEntity
  8
躯体と製品
  6
Continuous
 62
     4
100
AcDbLine
 10
-861.6653290343929
 20
2115.9964939086
 30
0.0
 11
-861.6653290343929
 21
2110.996493908601
 31
0.0
  0
LINE
  5
5183B
330
1F
100
AcDbEntity
  8
躯体と製品
  6
Continuous
 62
     4
100
AcDbLine
 10
-886.7584623001929
 20
2115.972882797601
 30
0.0
 11
-888.606221365193
 21
2115.972882797601
 31
0.0
  0
LINE
  5
5183C
330
1F
100
AcDbEntity
  8
躯体と製品
  6
Continuous
 62
     4
100
AcDbLine
 10
-886.7584623001929
 20
2115.972882797601
 30
0.0
 11
-873.3689359077944
 21
2099.450526790404
 31
0.0
  0
LINE
  5
5183D
330
1F
100
AcDbEntity
  8
躯体と製品
  6
Continuous
 62
     4
100
AcDbLine
 10
-875.2166949727943
 20
2099.450526790404
 30
0.0
 11
-874.6141478455937
 21
2099.466694205201
 31
0.0
  0
LINE
  5
5183E
330
1F
100
AcDbEntity
  8
躯体と製品
  6
Continuous
 62
     4
100
AcDbLine
 10
-874.6141478455937
 20
2099.466694205201
 30
0.0
 11
-873.9976868071934
 21
2099.466694205201
 31
0.0
  0
LINE
  5
5183F
330
1F
100
AcDbEntity
  8
躯体と製品
  6
Continuous
 62
     4
100
AcDbLine
 10
-873.9976868071934
 20
2099.466694205201
 30
0.0
 11
-873.3689359077944
 21
2099.450526790404
 31
0.0
  0
LINE
  5
51840
330
1F
100
AcDbEntity
  8
躯体と製品
  6
Continuous
 62
     4
100
AcDbLine
 10
-888.606221365193
 20
2115.972882797601
 30
0.0
 11
-875.2166949727943
 21
2099.450526790404
 31
0.0
  0
LINE
  5
51841
330
1F
100
AcDbEntity
  8
躯体と製品
  6
Continuous
 62
     4
100
AcDbLine
 10
-877.0000134673937
 20
2110.996493908601
 30
0.0
 11
-877.0000134673937
 21
2115.9964939086
 31
0.0
  0
LINE
  5
51842
330
1F
100
AcDbEntity
  8
躯体と製品
  6
Continuous
 62
     4
100
AcDbLine
 10
-873.3689359077944
 20
2099.450526790404
 30
0.0
 11
-873.3689359077944
 21
2110.996493908601
 31
0.0
  0
LINE
  5
51843
330
1F
100
AcDbEntity
  8
躯体と製品
  6
Continuous
 62
     4
100
AcDbLine
 10
-886.7584623001929
 20
2115.9964939086
 30
0.0
 11
-886.7584623001929
 21
2115.972882797601
 31
0.0
  0
LINE
  5
51844
330
1F
100
AcDbEntity
  8
躯体と製品
  6
Continuous
 62
     4
100
AcDbLine
 10
-888.606221365193
 20
2115.9964939086
 30
0.0
 11
-888.606221365193
 21
2115.972882797601
 31
0.0
  0
LINE
  5
51845
330
1F
100
AcDbEntity
  8
躯体と製品
  6
Continuous
 62
     4
100
AcDbLine
 10
-868.1104490285942
 20
2115.9964939086
 30
0.0
 11
-868.1104490285942
 21
2110.996493908601
 31
0.0
  0
LINE
  5
51846
330
1F
100
AcDbEntity
  8
躯体と製品
  6
Continuous
 62
     4
100
AcDbLine
 10
-870.5548934729959
 20
2110.996493908601
 30
0.0
 11
-870.5548934729959
 21
2115.9964939086
 31
0.0
  0
LINE
  5
51847
330
1F
100
AcDbEntity
  8
躯体と製品
  6
Continuous
 62
     4
100
AcDbLine
 10
-862.2873888549948
 20
2110.996493908601
 30
0.0
 11
-862.2873888549948
 21
2115.9964939086
 31
0.0
  0
LINE
  5
51848
330
1F
100
AcDbEntity
  8
躯体と製品
  6
Continuous
 62
     4
100
AcDbLine
 10
-876.3779536465953
 20
2115.9964939086
 30
0.0
 11
-876.3779536465953
 21
2110.996493908601
 31
0.0
  0
LINE
  5
51849
330
1F
100
AcDbEntity
  8
躯体と製品
  6
Continuous
 62
     4
100
AcDbLine
 10
-825.336668316795
 20
2115.621887980205
 30
0.0
 11
-856.9751404449961
 21
2099.450526790404
 31
0.0
  0
LINE
  5
5184A
330
1F
100
AcDbEntity
  8
躯体と製品
  6
Continuous
 62
     4
100
AcDbLine
 10
-857.7405073095942
 20
2099.450526790404
 30
0.0
 11
-857.4538663875937
 21
2099.466694205201
 31
0.0
  0
LINE
  5
5184B
330
1F
100
AcDbEntity
  8
躯体と製品
  6
Continuous
 62
     4
100
AcDbLine
 10
-857.4538663875937
 20
2099.466694205201
 30
0.0
 11
-857.1985198647963
 21
2099.466694205201
 31
0.0
  0
LINE
  5
5184C
330
1F
100
AcDbEntity
  8
躯体と製品
  6
Continuous
 62
     4
100
AcDbLine
 10
-857.1985198647963
 20
2099.466694205201
 30
0.0
 11
-856.9751404449961
 21
2099.450526790404
 31
0.0
  0
LINE
  5
5184D
330
1F
100
AcDbEntity
  8
躯体と製品
  6
Continuous
 62
     4
100
AcDbLine
 10
-826.6711940443965
 20
2115.330974009799
 30
0.0
 11
-857.7405073095942
 21
2099.450526790404
 31
0.0
  0
LINE
  5
5184E
330
1F
100
AcDbEntity
  8
躯体と製品
  6
Continuous
 62
     4
100
AcDbLine
 10
-857.7405073095942
 20
2099.450526790404
 30
0.0
 11
-857.7405073095942
 21
2106.494235587599
 31
0.0
  0
LINE
  5
5184F
330
1F
100
AcDbEntity
  8
躯体と製品
  6
Continuous
 62
     4
100
AcDbLine
 10
-880.924835191996
 20
2099.450526790404
 30
0.0
 11
-880.924835191996
 21
2106.494235587599
 31
0.0
  0
LINE
  5
51850
330
1F
100
AcDbEntity
  8
躯体と製品
  6
Continuous
 62
     4
100
AcDbLine
 10
-911.9941484573974
 20
2115.330974009799
 30
0.0
 11
-880.924835191996
 21
2099.450526790404
 31
0.0
  0
LINE
  5
51851
330
1F
100
AcDbEntity
  8
躯体と製品
  6
Continuous
 62
     4
100
AcDbLine
 10
-881.690202056794
 20
2099.450526790404
 30
0.0
 11
-881.4668226367976
 21
2099.466694205201
 31
0.0
  0
LINE
  5
51852
330
1F
100
AcDbEntity
  8
躯体と製品
  6
Continuous
 62
     4
100
AcDbLine
 10
-881.4668226367976
 20
2099.466694205201
 30
0.0
 11
-881.2114761139929
 21
2099.466694205201
 31
0.0
  0
LINE
  5
51853
330
1F
100
AcDbEntity
  8
躯体と製品
  6
Continuous
 62
     4
100
AcDbLine
 10
-881.2114761139929
 20
2099.466694205201
 30
0.0
 11
-880.924835191996
 21
2099.450526790404
 31
0.0
  0
LINE
  5
51854
330
1F
100
AcDbEntity
  8
躯体と製品
  6
Continuous
 62
     4
100
AcDbLine
 10
-913.3286741849952
 20
2115.621887980205
 30
0.0
 11
-881.690202056794
 21
2099.450526790404
 31
0.0
  0
LINE
  5
51855
330
1F
100
AcDbEntity
  8
躯体と製品
  6
Continuous
 62
     4
100
AcDbLine
 10
-853.9776700527946
 20
2110.996493908601
 30
0.0
 11
-854.0919291897953
 21
2110.996493908601
 31
0.0
  0
LINE
  5
51856
330
1F
100
AcDbEntity
  8
躯体と製品
  6
Continuous
 62
     4
100
AcDbLine
 10
-884.5734133117948
 20
2110.996493908601
 30
0.0
 11
-884.6876724487955
 21
2110.996493908601
 31
0.0
  0
LINE
  5
51857
330
1F
100
AcDbEntity
  8
躯体と製品
  6
Continuous
 62
     4
100
AcDbLine
 10
-826.4409432893954
 20
2115.057460299804
 30
0.0
 11
-822.3326712507951
 21
2115.9964939086
 31
0.0
  0
LINE
  5
51858
330
1F
100
AcDbEntity
  8
躯体と製品
  6
Continuous
 62
     4
100
AcDbLine
 10
-912.224399212395
 20
2115.057460299804
 30
0.0
 11
-916.332671250795
 21
2115.9964939086
 31
0.0
  0
LINE
  5
51859
330
1F
100
AcDbEntity
  8
躯体と製品
  6
Continuous
 62
     4
100
AcDbLine
 10
-917.332671250795
 20
2123.996493908601
 30
0.0
 11
-880.832671250795
 21
2123.996493908601
 31
0.0
  0
LINE
  5
5185A
330
1F
100
AcDbEntity
  8
躯体と製品
  6
Continuous
 62
     4
100
AcDbLine
 10
-917.332671250795
 20
2116.996493908601
 30
0.0
 11
-821.3326712507951
 21
2116.996493908601
 31
0.0
  0
LINE
  5
5185B
330
1F
100
AcDbEntity
  8
躯体と製品
  6
Continuous
 62
     4
100
AcDbLine
 10
-826.332671250795
 20
2123.996493908601
 30
0.0
 11
-826.332671250795
 21
2115.9964939086
 31
0.0
  0
LINE
  5
5185C
330
1F
100
AcDbEntity
  8
躯体と製品
  6
Continuous
 62
     4
100
AcDbLine
 10
-857.8326712507951
 20
2123.996493908601
 30
0.0
 11
-821.3326712507951
 21
2123.996493908601
 31
0.0
  0
LINE
  5
5185D
330
1F
100
AcDbEntity
  8
躯体と製品
  6
Continuous
 62
     4
100
AcDbLine
 10
-912.3326712507951
 20
2123.996493908601
 30
0.0
 11
-912.3326712507951
 21
2115.9964939086
 31
0.0
  0
LINE
  5
5185E
330
1F
100
AcDbEntity
  8
躯体と製品
  6
Continuous
 62
     4
100
AcDbLine
 10
-822.3326712507951
 20
2115.9964939086
 30
0.0
 11
-916.332671250795
 21
2115.9964939086
 31
0.0
  0
LINE
  5
5185F
330
1F
100
AcDbEntity
  8
躯体と製品
  6
Continuous
 62
     4
100
AcDbLine
 10
-870.082671250795
 20
2110.996493908601
 30
0.0
 11
-877.0000134673937
 21
2110.996493908601
 31
0.0
  0
LINE
  5
51860
330
1F
100
AcDbEntity
  8
躯体と製品
  6
Continuous
 62
     4
100
AcDbLine
 10
-861.6653290343929
 20
2110.996493908601
 30
0.0
 11
-868.5826712507951
 21
2110.996493908601
 31
0.0
  0
LINE
  5
51861
330
1F
100
AcDbEntity
  8
中心線
  6
CENTER1
 62
     7
100
AcDbLine
 10
-869.3326712507952
 20
2129.478909041159
 30
0.0
 11
-869.3326712507941
 21
2021.238001927355
 31
0.0
  0
LINE
  5
51862
330
1F
100
AcDbEntity
  8
躯体と製品
  6
Continuous
 62
     4
100
AcDbLine
 10
-857.8326712507951
 20
2143.9964939086
 30
0.0
 11
-857.8326712507951
 21
2123.996493908601
 31
0.0
  0
LINE
  5
51863
330
1F
100
AcDbEntity
  8
躯体と製品
  6
Continuous
 62
     4
100
AcDbLine
 10
-880.832671250795
 20
2143.9964939086
 30
0.0
 11
-880.832671250795
 21
2123.996493908601
 31
0.0
  0
LWPOLYLINE
  5
51864
330
1F
100
AcDbEntity
  8
文字-記号
 62
     7
100
AcDbPolyline
 90
        3
 70
     0
 43
0.0
 10
-842.2930486767018
 20
2107.541781765912
 10
-830.2583911175698
 20
2086.697143421803
 10
-767.7923184834344
 20
2086.697143421803
  0
TEXT
  5
51865
330
1F
100
AcDbEntity
  8
文字-記号
 62
     7
100
AcDbText
 10
-826.8188538601807
 20
2089.175796906071
 30
0.0
 40
9.0
  1
ボード受け
100
AcDbText
  0
LINE
  5
51866
330
1F
100
AcDbEntity
  8
躯体と製品
  6
Continuous
 62
     4
100
AcDbLine
 10
-867.8326712507951
 20
2098.9964939086
 30
0.0
 11
-867.8326712507933
 21
2067.996494003551
 31
0.0
  0
LINE
  5
51867
330
1F
100
AcDbEntity
  8
躯体と製品
  6
Continuous
 62
     4
100
AcDbLine
 10
-879.3326712507951
 20
2098.9964939086
 30
0.0
 11
-879.3326712507932
 21
2067.996494003551
 31
0.0
  0
LINE
  5
51868
330
1F
100
AcDbEntity
  8
躯体と製品
  6
Continuous
 62
     4
100
AcDbLine
 10
-870.832671250795
 20
2098.9964939086
 30
0.0
 11
-870.8326712507933
 21
2067.996494003551
 31
0.0
  0
LINE
  5
51869
330
1F
100
AcDbEntity
  8
躯体と製品
  6
Continuous
 62
     4
100
AcDbLine
 10
-877.9796712507923
 20
2098.9964939086
 30
0.0
 11
-877.9796712507904
 21
2067.996494003551
 31
0.0
  0
LINE
  5
5186A
330
1F
100
AcDbEntity
  8
躯体と製品
  6
Continuous
 62
     4
100
AcDbLine
 10
-859.332671250795
 20
2098.9964939086
 30
0.0
 11
-859.3326712507932
 21
2067.996494003551
 31
0.0
  0
LINE
  5
5186B
330
1F
100
AcDbEntity
  8
躯体と製品
  6
Continuous
 62
     4
100
AcDbLine
 10
-860.6856712507942
 20
2098.9964939086
 30
0.0
 11
-860.6856712507925
 21
2067.996494003551
 31
0.0
  0
LINE
  5
5186C
330
1F
100
AcDbEntity
  8
躯体と製品
  6
Continuous
 62
     4
100
AcDbLine
 10
-877.8326712507933
 20
2057.996494003552
 30
0.0
 11
-877.8326712507933
 21
2067.996494003551
 31
0.0
  0
LINE
  5
5186D
330
1F
100
AcDbEntity
  8
躯体と製品
  6
Continuous
 62
     4
100
AcDbLine
 10
-860.8326712507933
 20
2057.996494003552
 30
0.0
 11
-860.8326712507933
 21
2067.996494003551
 31
0.0
  0
TEXT
  5
5186E
330
1F
100
AcDbEntity
  8
文字-記号
 62
     7
100
AcDbText
 10
-1020.56512558239
 20
2075.729753754414
 30
0.0
 40
9.0
  1
クッションＬＣＢＢゴム
100
AcDbText
  0
LWPOLYLINE
  5
5186F
330
1F
100
AcDbEntity
  8
文字-記号
 62
     7
100
AcDbPolyline
 90
        3
 70
     0
 43
0.0
 10
-885.5826712507969
 20
2045.996494003551
 10
-899.7826607754031
 20
2070.591597327117
 10
-1024.418098234682
 20
2070.591597327117
  0
ARC
  5
51870
330
1F
100
AcDbEntity
  8
躯体と製品
  6
Continuous
 62
     4
100
AcDbCircle
 10
-886.8326712507968
 20
2030.996494003551
 30
0.0
 40
3.0
100
AcDbArc
 50
90.0
 51
270.0
  0
LINE
  5
51871
330
1F
100
AcDbEntity
  8
躯体と製品
  6
Continuous
 62
     4
100
AcDbLine
 10
-880.9184572581452
 20
2025.9964939086
 30
0.0
 11
-857.7468852434449
 21
2025.9964939086
 31
0.0
  0
LINE
  5
51872
330
1F
100
AcDbEntity
  8
躯体と製品
  6
Continuous
 62
     4
100
AcDbLine
 10
-883.2720472399469
 20
2027.170142193348
 30
0.0
 11
-882.9184575859454
 21
2026.996493956104
 31
0.0
  0
LINE
  5
51873
330
1F
100
AcDbEntity
  8
躯体と製品
  6
Continuous
 62
     4
100
AcDbLine
 10
-883.6274781186494
 20
2027.338514138953
 30
0.0
 11
-883.2720472399469
 21
2027.170142193348
 31
0.0
  0
LINE
  5
51874
330
1F
100
AcDbEntity
  8
躯体と製品
  6
Continuous
 62
     4
100
AcDbLine
 10
-883.9739515367964
 20
2027.496493979803
 30
0.0
 11
-883.6274781186494
 21
2027.338514138953
 31
0.0
  0
LINE
  5
51875
330
1F
100
AcDbEntity
  8
躯体と製品
  6
Continuous
 62
     4
100
AcDbLine
 10
-884.3009407553964
 20
2027.639281621204
 30
0.0
 11
-883.9739515367964
 21
2027.496493979803
 31
0.0
  0
LINE
  5
51876
330
1F
100
AcDbEntity
  8
躯体と製品
  6
Continuous
 62
     4
100
AcDbLine
 10
-884.5985085625452
 20
2027.762538453202
 30
0.0
 11
-884.3009407553964
 21
2027.639281621204
 31
0.0
  0
LINE
  5
51877
330
1F
100
AcDbEntity
  8
躯体と製品
  6
Continuous
 62
     4
100
AcDbLine
 10
-884.8576155412974
 20
2027.862519409502
 30
0.0
 11
-884.5985085625452
 21
2027.762538453202
 31
0.0
  0
LINE
  5
51878
330
1F
100
AcDbEntity
  8
躯体と製品
  6
Continuous
 62
     4
100
AcDbLine
 10
-885.0703873593465
 20
2027.936186625005
 30
0.0
 11
-884.8576155412974
 21
2027.862519409502
 31
0.0
  0
LINE
  5
51879
330
1F
100
AcDbEntity
  8
躯体と製品
  6
Continuous
 62
     4
100
AcDbLine
 10
-885.2303587753468
 20
2027.981301756803
 30
0.0
 11
-885.0703873593465
 21
2027.936186625005
 31
0.0
  0
LINE
  5
5187A
330
1F
100
AcDbEntity
  8
躯体と製品
  6
Continuous
 62
     4
100
AcDbLine
 10
-885.3326720107489
 20
2027.996494003551
 30
0.0
 11
-885.2303587753468
 21
2027.981301756803
 31
0.0
  0
LINE
  5
5187B
330
1F
100
AcDbEntity
  8
躯体と製品
  6
Continuous
 62
     4
100
AcDbLine
 10
-882.9184575859454
 20
2026.996493956104
 30
0.0
 11
-880.9184572581452
 21
2025.9964939086
 31
0.0
  0
LINE
  5
5187C
330
1F
100
AcDbEntity
  8
躯体と製品
  6
Continuous
 62
     4
100
AcDbLine
 10
-857.7468852434449
 20
2025.9964939086
 30
0.0
 11
-855.7468849156485
 21
2026.996493956104
 31
0.0
  0
LINE
  5
5187D
330
1F
100
AcDbEntity
  8
躯体と製品
  6
Continuous
 62
     4
100
AcDbLine
 10
-853.4349837262471
 20
2027.981301756803
 30
0.0
 11
-853.332670490845
 21
2027.996494003551
 31
0.0
  0
LINE
  5
5187E
330
1F
100
AcDbEntity
  8
躯体と製品
  6
Continuous
 62
     4
100
AcDbLine
 10
-853.5949551422437
 20
2027.936186625005
 30
0.0
 11
-853.4349837262471
 21
2027.981301756803
 31
0.0
  0
LINE
  5
5187F
330
1F
100
AcDbEntity
  8
躯体と製品
  6
Continuous
 62
     4
100
AcDbLine
 10
-853.8077269602963
 20
2027.862519409502
 30
0.0
 11
-853.5949551422437
 21
2027.936186625005
 31
0.0
  0
LINE
  5
51880
330
1F
100
AcDbEntity
  8
躯体と製品
  6
Continuous
 62
     4
100
AcDbLine
 10
-854.066833939045
 20
2027.762538453202
 30
0.0
 11
-853.8077269602963
 21
2027.862519409502
 31
0.0
  0
LINE
  5
51881
330
1F
100
AcDbEntity
  8
躯体と製品
  6
Continuous
 62
     4
100
AcDbLine
 10
-854.3644017461975
 20
2027.639281621204
 30
0.0
 11
-854.066833939045
 21
2027.762538453202
 31
0.0
  0
LINE
  5
51882
330
1F
100
AcDbEntity
  8
躯体と製品
  6
Continuous
 62
     4
100
AcDbLine
 10
-854.6913909647974
 20
2027.496493979803
 30
0.0
 11
-854.3644017461975
 21
2027.639281621204
 31
0.0
  0
LINE
  5
51883
330
1F
100
AcDbEntity
  8
躯体と製品
  6
Continuous
 62
     4
100
AcDbLine
 10
-855.037864382948
 20
2027.338514138953
 30
0.0
 11
-854.6913909647974
 21
2027.496493979803
 31
0.0
  0
LINE
  5
51884
330
1F
100
AcDbEntity
  8
躯体と製品
  6
Continuous
 62
     4
100
AcDbLine
 10
-855.3932952616468
 20
2027.170142193348
 30
0.0
 11
-855.037864382948
 21
2027.338514138953
 31
0.0
  0
LINE
  5
51885
330
1F
100
AcDbEntity
  8
躯体と製品
  6
Continuous
 62
     4
100
AcDbLine
 10
-855.7468849156485
 20
2026.996493956104
 30
0.0
 11
-855.3932952616468
 21
2027.170142193348
 31
0.0
  0
LINE
  5
51886
330
1F
100
AcDbEntity
  8
躯体と製品
  6
Continuous
 62
     4
100
AcDbLine
 10
-868.3478635191987
 20
2027.170142193348
 30
0.0
 11
-868.3326712032958
 21
2026.996493956104
 31
0.0
  0
LINE
  5
51887
330
1F
100
AcDbEntity
  8
躯体と製品
  6
Continuous
 62
     4
100
AcDbLine
 10
-868.3929786473981
 20
2027.338514138953
 30
0.0
 11
-868.3478635191987
 21
2027.170142193348
 31
0.0
  0
LINE
  5
51888
330
1F
100
AcDbEntity
  8
躯体と製品
  6
Continuous
 62
     4
100
AcDbLine
 10
-868.4666458555494
 20
2027.496493979803
 30
0.0
 11
-868.3929786473981
 21
2027.338514138953
 31
0.0
  0
LINE
  5
51889
330
1F
100
AcDbEntity
  8
躯体と製品
  6
Continuous
 62
     4
100
AcDbLine
 10
-868.5666268263975
 20
2027.639281621204
 30
0.0
 11
-868.4666458555494
 21
2027.496493979803
 31
0.0
  0
LINE
  5
5188A
330
1F
100
AcDbEntity
  8
躯体と製品
  6
Continuous
 62
     4
100
AcDbLine
 10
-868.6898836438977
 20
2027.762538453202
 30
0.0
 11
-868.5666268263975
 21
2027.639281621204
 31
0.0
  0
LINE
  5
5188B
330
1F
100
AcDbEntity
  8
躯体と製品
  6
Continuous
 62
     4
100
AcDbLine
 10
-868.8326712270482
 20
2027.862519409502
 30
0.0
 11
-868.6898836438977
 21
2027.762538453202
 31
0.0
  0
LINE
  5
5188C
330
1F
100
AcDbEntity
  8
躯体と製品
  6
Continuous
 62
     4
100
AcDbLine
 10
-868.990651097045
 20
2027.936186625005
 30
0.0
 11
-868.8326712270482
 21
2027.862519409502
 31
0.0
  0
LINE
  5
5188D
330
1F
100
AcDbEntity
  8
躯体と製品
  6
Continuous
 62
     4
100
AcDbLine
 10
-869.1590230717466
 20
2027.981301756803
 30
0.0
 11
-868.990651097045
 21
2027.936186625005
 31
0.0
  0
LINE
  5
5188E
330
1F
100
AcDbEntity
  8
躯体と製品
  6
Continuous
 62
     4
100
AcDbLine
 10
-869.3326712507969
 20
2027.996494003551
 30
0.0
 11
-869.1590230717466
 21
2027.981301756803
 31
0.0
  0
LINE
  5
5188F
330
1F
100
AcDbEntity
  8
躯体と製品
  6
Continuous
 62
     4
100
AcDbLine
 10
-868.3326712032958
 20
2026.996493956104
 30
0.0
 11
-868.3326712032958
 21
2025.9964939086
 31
0.0
  0
LINE
  5
51890
330
1F
100
AcDbEntity
  8
躯体と製品
  6
Continuous
 62
     4
100
AcDbLine
 10
-860.8473903421455
 20
2025.9964939086
 30
0.0
 11
-858.0189627517448
 21
2027.996494003551
 31
0.0
  0
LINE
  5
51891
330
1F
100
AcDbEntity
  8
躯体と製品
  6
Continuous
 62
     4
100
AcDbLine
 10
-870.3326712982944
 20
2025.9964939086
 30
0.0
 11
-870.3326712982944
 21
2026.996493956104
 31
0.0
  0
LINE
  5
51892
330
1F
100
AcDbEntity
  8
躯体と製品
  6
Continuous
 62
     4
100
AcDbLine
 10
-869.5063194298473
 20
2027.981301756803
 30
0.0
 11
-869.3326712507969
 21
2027.996494003551
 31
0.0
  0
LINE
  5
51893
330
1F
100
AcDbEntity
  8
躯体と製品
  6
Continuous
 62
     4
100
AcDbLine
 10
-869.6746914045489
 20
2027.936186625005
 30
0.0
 11
-869.5063194298473
 21
2027.981301756803
 31
0.0
  0
LINE
  5
51894
330
1F
100
AcDbEntity
  8
躯体と製品
  6
Continuous
 62
     4
100
AcDbLine
 10
-869.8326712745457
 20
2027.862519409502
 30
0.0
 11
-869.6746914045489
 21
2027.936186625005
 31
0.0
  0
LINE
  5
51895
330
1F
100
AcDbEntity
  8
躯体と製品
  6
Continuous
 62
     4
100
AcDbLine
 10
-869.9754588576961
 20
2027.762538453202
 30
0.0
 11
-869.8326712745457
 21
2027.862519409502
 31
0.0
  0
LINE
  5
51896
330
1F
100
AcDbEntity
  8
躯体と製品
  6
Continuous
 62
     4
100
AcDbLine
 10
-870.0987156751962
 20
2027.639281621204
 30
0.0
 11
-869.9754588576961
 21
2027.762538453202
 31
0.0
  0
LINE
  5
51897
330
1F
100
AcDbEntity
  8
躯体と製品
  6
Continuous
 62
     4
100
AcDbLine
 10
-870.1986966460481
 20
2027.496493979803
 30
0.0
 11
-870.0987156751962
 21
2027.639281621204
 31
0.0
  0
LINE
  5
51898
330
1F
100
AcDbEntity
  8
躯体と製品
  6
Continuous
 62
     4
100
AcDbLine
 10
-870.2723638541993
 20
2027.338514138953
 30
0.0
 11
-870.1986966460481
 21
2027.496493979803
 31
0.0
  0
LINE
  5
51899
330
1F
100
AcDbEntity
  8
躯体と製品
  6
Continuous
 62
     4
100
AcDbLine
 10
-870.3174789823952
 20
2027.170142193348
 30
0.0
 11
-870.2723638541993
 21
2027.338514138953
 31
0.0
  0
LINE
  5
5189A
330
1F
100
AcDbEntity
  8
躯体と製品
  6
Continuous
 62
     4
100
AcDbLine
 10
-870.3326712982944
 20
2026.996493956104
 30
0.0
 11
-870.3174789823952
 21
2027.170142193348
 31
0.0
  0
LINE
  5
5189B
330
1F
100
AcDbEntity
  8
躯体と製品
  6
Continuous
 62
     4
100
AcDbLine
 10
-884.332671250797
 20
2057.996494003552
 30
0.0
 11
-854.3326712507969
 21
2057.996494003552
 31
0.0
  0
LINE
  5
5189C
330
1F
100
AcDbEntity
  8
躯体と製品
  6
Continuous
 62
     4
100
AcDbLine
 10
-886.8326712507968
 20
2033.996494003551
 30
0.0
 11
-869.3326712507969
 21
2033.996494003551
 31
0.0
  0
LINE
  5
5189D
330
1F
100
AcDbEntity
  8
躯体と製品
  6
Continuous
 62
     4
100
AcDbLine
 10
-869.3326712507969
 20
2033.996494003551
 30
0.0
 11
-851.8326712507969
 21
2033.996494003551
 31
0.0
  0
LINE
  5
5189E
330
1F
100
AcDbEntity
  8
躯体と製品
  6
Continuous
 62
     4
100
AcDbLine
 10
-884.332671250797
 20
2057.996494003552
 30
0.0
 11
-886.8326712507968
 21
2033.996494003551
 31
0.0
  0
LINE
  5
5189F
330
1F
100
AcDbEntity
  8
躯体と製品
  6
Continuous
 62
     4
100
AcDbLine
 10
-851.8326712507969
 20
2033.996494003551
 30
0.0
 11
-854.3326712507969
 21
2057.996494003552
 31
0.0
  0
ARC
  5
518A0
330
1F
100
AcDbEntity
  8
躯体と製品
  6
Continuous
 62
     4
100
AcDbCircle
 10
-851.8326712507969
 20
2030.996494003551
 30
0.0
 40
3.0
100
AcDbArc
 50
270.0
 51
90.0
  0
LINE
  5
518A1
330
1F
100
AcDbEntity
  8
躯体と製品
  6
Continuous
 62
     4
100
AcDbLine
 10
-877.8179521594484
 20
2025.9964939086
 30
0.0
 11
-880.6463797498491
 21
2027.996494003551
 31
0.0
  0
LINE
  5
518A2
330
1F
100
AcDbEntity
  8
躯体と製品
  6
Continuous
 62
     4
100
AcDbLine
 10
-886.8326712507968
 20
2027.996494003551
 30
0.0
 11
-851.8326712507969
 21
2027.996494003551
 31
0.0
  0
LINE
  5
518A3
330
1F
100
AcDbEntity
  8
躯体と製品
  6
Continuous
 62
     4
100
AcDbLine
 10
-879.3326712507932
 20
2067.996494003551
 30
0.0
 11
-859.3326712507932
 21
2067.996494003551
 31
0.0
  0
DIMENSION
  5
518A4
330
1F
100
AcDbEntity
  8
寸法
  6
Continuous
100
AcDbDimension
  2
*D1
 10
-744.6007902507954
 20
2143.99558840527
 30
0.0
 11
-752.1007902507957
 21
2084.996041156935
 31
0.0
 70
    32
  1
h
 71
     5
 42
117.99909449667
  3
AutoCAD
100
AcDbAlignedDimension
 13
-783.832671250795
 23
2025.9964939086
 33
0.0
 14
-783.832671250795
 24
2143.99558840527
 34
0.0
 50
90.0
100
AcDbRotatedDimension
1001
ACAD
1000
DSTYLE
1002
{
1070
   140
1040
9.0
1002
}
  0
LINE
  5
518A5
330
1F
100
AcDbEntity
  8
躯体と製品
 62
     3
100
AcDbLine
 10
-1184.49908744439
 20
2025.99558840527
 30
0.0
 11
-1204.49908744439
 21
2005.99558840527
 31
0.0
  0
LINE
  5
518A6
330
1F
100
AcDbEntity
  8
躯体と製品
 62
     3
100
AcDbLine
 10
-1177.428019632527
 20
2025.99558840527
 30
0.0
 11
-1197.428019632527
 21
2005.99558840527
 31
0.0
  0
LINE
  5
518A7
330
1F
100
AcDbEntity
  8
躯体と製品
 62
     3
100
AcDbLine
 10
-1170.356951820657
 20
2025.99558840527
 30
0.0
 11
-1190.356951820657
 21
2005.99558840527
 31
0.0
  0
LINE
  5
518A8
330
1F
100
AcDbEntity
  8
躯体と製品
 62
     3
100
AcDbLine
 10
-1009.49908744439
 20
2025.99558840527
 30
0.0
 11
-1029.49908744439
 21
2005.99558840527
 31
0.0
  0
LINE
  5
518A9
330
1F
100
AcDbEntity
  8
躯体と製品
 62
     3
100
AcDbLine
 10
-1002.428019632527
 20
2025.99558840527
 30
0.0
 11
-1022.428019632527
 21
2005.99558840527
 31
0.0
  0
LINE
  5
518AA
330
1F
100
AcDbEntity
  8
躯体と製品
 62
     3
100
AcDbLine
 10
-995.3569518206569
 20
2025.99558840527
 30
0.0
 11
-1015.356951820657
 21
2005.99558840527
 31
0.0
  0
LINE
  5
518AB
330
1F
100
AcDbEntity
  8
躯体と製品
 62
     3
100
AcDbLine
 10
-834.4990874443901
 20
2025.99558840527
 30
0.0
 11
-854.4990874443902
 21
2005.99558840527
 31
0.0
  0
LINE
  5
518AC
330
1F
100
AcDbEntity
  8
躯体と製品
 62
     3
100
AcDbLine
 10
-827.4280196325271
 20
2025.99558840527
 30
0.0
 11
-847.428019632527
 21
2005.99558840527
 31
0.0
  0
LINE
  5
518AD
330
1F
100
AcDbEntity
  8
躯体と製品
 62
     3
100
AcDbLine
 10
-820.3569518206569
 20
2025.99558840527
 30
0.0
 11
-840.3569518206568
 21
2005.99558840527
 31
0.0
  0
LWPOLYLINE
  5
518B0
330
1F
100
AcDbEntity
  8
文字-記号
 62
     7
100
AcDbPolyline
 90
        3
 70
     0
 43
0.0
 10
-1037.480478922125
 20
2155.99558840527
 10
-1004.283239407788
 20
2213.494893915132
 10
-864.4398494582601
 20
2213.494893915132
  0
TEXT
  5
518B1
330
1F
100
AcDbEntity
  8
文字-記号
 62
     7
100
AcDbText
 10
-1001.401523094751
 20
2218.633050342429
 30
0.0
 40
9.0
  1
フローリング t＝１２ｍｍ
100
AcDbText
  0
LWPOLYLINE
  5
518B2
330
1F
100
AcDbEntity
  8
文字-記号
 62
     7
100
AcDbPolyline
 90
        3
 70
     0
 43
0.0
 10
-1015.586499122008
 20
2134.108486906175
 10
-987.0179875365902
 20
2183.59060046874
 10
-820.3024206651679
 20
2183.59060046874
  0
TEXT
  5
518B3
330
1F
100
AcDbEntity
  8
文字-記号
 62
     7
100
AcDbText
 10
-984.1362712235513
 20
2188.728756896036
 30
0.0
 40
9.0
  1
パーティクルボード t＝２０ｍｍ
100
AcDbText
  0
LWPOLYLINE
  5
518B4
330
1F
100
AcDbEntity
  8
文字-記号
 62
     7
100
AcDbPolyline
 90
        3
 70
     0
 43
0.0
 10
-1284.399155206372
 20
2155.99558840527
 10
-1268.467167563238
 20
2183.59060046874
 10
-1230.202084687782
 20
2183.59060046874
  0
TEXT
  5
518B5
330
1F
100
AcDbEntity
  8
文字-記号
 62
     7
100
AcDbText
 10
-1265.585451250199
 20
2188.728756896036
 30
0.0
 40
9.0
  1
上り框
100
AcDbText
  0
LINE
  5
518B6
330
1F
100
AcDbEntity
  8
躯体と製品
  6
Continuous
 62
     4
100
AcDbLine
 10
-1207.465704701313
 20
2143.99558840527
 30
0.0
 11
-1227.465704701313
 21
2143.995588405269
 31
0.0
  0
LINE
  5
518B7
330
1F
100
AcDbEntity
  8
躯体と製品
  6
Continuous
 62
     4
100
AcDbLine
 10
-1227.465704701313
 20
2155.99558840527
 30
0.0
 11
-1227.465704701313
 21
2143.995588405269
 31
0.0
  0
TEXT
  5
518DC
330
1F
100
AcDbEntity
  8
文字-記号
 62
     7
100
AcDbText
 10
-1160.307265426439
 20
2082.957164571156
 30
0.0
 40
9.0
  1
防音システム際根太
100
AcDbText
  0
LWPOLYLINE
  5
518DD
330
1F
100
AcDbEntity
  8
文字-記号
 62
     7
100
AcDbPolyline
 90
        3
 70
     0
 43
0.0
 10
-1177.465704701312
 20
2104.064521651594
 10
-1163.188981739476
 20
2079.336512116107
 10
-1063.000656424524
 20
2079.336512116107
  0
TEXT
  5
518E2
330
1F
100
AcDbEntity
  8
文字-記号
  6
Continuous
 62
     3
100
AcDbText
 10
-1345.71287307695
 20
2279.785472788309
 30
0.0
 40
15.0
  1
【ホームベース ＬＣＢＢ-N：上り框取り合い図】
  7
ACAD
100
AcDbText
  0
LINE
  5
518E3
330
1F
100
AcDbEntity
  8
躯体と製品
  6
Continuous
 62
     4
100
AcDbLine
 10
-1427.465704701314
 20
2075.99558840527
 30
0.0
 11
-1333.465704701328
 21
2075.99558840527
 31
0.0
  0
LINE
  5
518E4
330
1F
100
AcDbEntity
  8
躯体と製品
  6
Continuous
 62
     4
100
AcDbLine
 10
-1333.465704701328
 20
2075.99558840527
 30
0.0
 11
-1333.465704701328
 21
2060.99558840527
 31
0.0
  0
LINE
  5
518E5
330
1F
100
AcDbEntity
  8
躯体と製品
  6
Continuous
 62
     4
100
AcDbLine
 10
-1427.465704701314
 20
2060.995588405269
 30
0.0
 11
-1333.465704701328
 21
2060.99558840527
 31
0.0
  0
CIRCLE
  5
518E7
330
1F
100
AcDbEntity
  8
躯体と製品
  6
Continuous
 62
     3
100
AcDbCircle
 10
-1378.784155388812
 20
2052.510382936178
 30
0.0
 40
1.366120218579283
  0
CIRCLE
  5
518E8
330
1F
100
AcDbEntity
  8
躯体と製品
  6
Continuous
 62
     3
100
AcDbCircle
 10
-1399.930139625021
 20
2035.635417913185
 30
0.0
 40
1.366120218579283
  0
CIRCLE
  5
518E9
330
1F
100
AcDbEntity
  8
躯体と製品
  6
Continuous
 62
     3
100
AcDbCircle
 10
-1415.653833502592
 20
2038.844305468233
 30
0.0
 40
1.366120218579283
  0
CIRCLE
  5
518EA
330
1F
100
AcDbEntity
  8
躯体と製品
  6
Continuous
 62
     3
100
AcDbCircle
 10
-1370.786241628679
 20
2042.010645599886
 30
0.0
 40
1.366120218579283
  0
CIRCLE
  5
518EB
330
1F
100
AcDbEntity
  8
躯体と製品
  6
Continuous
 62
     3
100
AcDbCircle
 10
-1381.67438611348
 20
2036.595767159899
 30
0.0
 40
1.366120218579283
  0
CIRCLE
  5
518EC
330
1F
100
AcDbEntity
  8
躯体と製品
  6
Continuous
 62
     3
100
AcDbCircle
 10
-1404.964821792937
 20
2052.102444512259
 30
0.0
 40
1.366120218579283
  0
CIRCLE
  5
518FA
330
1F
100
AcDbEntity
  8
躯体と製品
  6
Continuous
 62
     3
100
AcDbCircle
 10
-1215.656403106099
 20
2032.731360760505
 30
0.0
 40
1.366120218579283
  0
CIRCLE
  5
518FB
330
1F
100
AcDbEntity
  8
躯体と製品
  6
Continuous
 62
     3
100
AcDbCircle
 10
-1231.380096983671
 20
2035.940248315554
 30
0.0
 40
1.366120218579283
  0
CIRCLE
  5
518FC
330
1F
100
AcDbEntity
  8
躯体と製品
  6
Continuous
 62
     3
100
AcDbCircle
 10
-1252.935273984827
 20
2054.394754221032
 30
0.0
 40
1.366120218579283
  0
CIRCLE
  5
518FD
330
1F
100
AcDbEntity
  8
躯体と製品
  6
Continuous
 62
     3
100
AcDbCircle
 10
-1268.658967862398
 20
2057.603641776081
 30
0.0
 40
1.366120218579283
  0
CIRCLE
  5
518FE
330
1F
100
AcDbEntity
  8
躯体と製品
  6
Continuous
 62
     3
100
AcDbCircle
 10
-1297.167891871692
 20
2050.016927192235
 30
0.0
 40
1.366120218579283
  0
CIRCLE
  5
518FF
330
1F
100
AcDbEntity
  8
躯体と製品
  6
Continuous
 62
     3
100
AcDbCircle
 10
-1312.891585749263
 20
2053.225814747284
 30
0.0
 40
1.366120218579283
  0
CIRCLE
  5
51900
330
1F
100
AcDbEntity
  8
躯体と製品
  6
Continuous
 62
     3
100
AcDbCircle
 10
-1330.826630855701
 20
2039.436905445414
 30
0.0
 40
1.366120218579283
  0
CIRCLE
  5
51901
330
1F
100
AcDbEntity
  8
躯体と製品
  6
Continuous
 62
     3
100
AcDbCircle
 10
-1346.550324733273
 20
2042.645793000463
 30
0.0
 40
1.366120218579283
  0
CIRCLE
  5
51902
330
1F
100
AcDbEntity
  8
躯体と製品
  6
Continuous
 62
     3
100
AcDbCircle
 10
-1397.905302437199
 20
2044.038699406136
 30
0.0
 40
1.366120218579283
  0
CIRCLE
  5
51903
330
1F
100
AcDbEntity
  8
躯体と製品
  6
Continuous
 62
     3
100
AcDbCircle
 10
-1413.62899631477
 20
2049.600513497377
 30
0.0
 40
1.366120218579283
  0
CIRCLE
  5
51904
330
1F
100
AcDbEntity
  8
躯体と製品
  6
Continuous
 62
     3
100
AcDbCircle
 10
-1221.097959888446
 20
2068.200146768828
 30
0.0
 40
1.366120218579283
  0
CIRCLE
  5
51905
330
1F
100
AcDbEntity
  8
躯体と製品
  6
Continuous
 62
     3
100
AcDbCircle
 10
-1236.821653766017
 20
2071.409034323877
 30
0.0
 40
1.366120218579283
  0
CIRCLE
  5
51906
330
1F
100
AcDbEntity
  8
躯体と製品
  6
Continuous
 62
     3
100
AcDbCircle
 10
-1308.507246500749
 20
2068.278809307203
 30
0.0
 40
1.366120218579283
  0
CIRCLE
  5
51907
330
1F
100
AcDbEntity
  8
躯体と製品
  6
Continuous
 62
     3
100
AcDbCircle
 10
-1324.23094037832
 20
2071.487696862252
 30
0.0
 40
1.366120218579283
  0
CIRCLE
  5
51908
330
1F
100
AcDbEntity
  8
躯体と製品
  6
Continuous
 62
     3
100
AcDbCircle
 10
-1271.156654503009
 20
2032.731360760505
 30
0.0
 40
1.366120218579283
  0
CIRCLE
  5
51909
330
1F
100
AcDbEntity
  8
躯体と製品
  6
Continuous
 62
     3
100
AcDbCircle
 10
-1286.88034838058
 20
2035.940248315554
 30
0.0
 40
1.366120218579283
  0
CIRCLE
  5
519BB
330
1F
100
AcDbEntity
  8
躯体と製品
  6
Continuous
 62
     3
100
AcDbCircle
 10
-1187.465704701313
 20
2137.99558840527
 30
0.0
 40
0.9999999999999998
  0
CIRCLE
  5
519BC
330
1F
100
AcDbEntity
  8
躯体と製品
  6
Continuous
 62
     3
100
AcDbCircle
 10
-1177.465704701313
 20
2137.99558840527
 30
0.0
 40
0.9999999999999998
  0
CIRCLE
  5
519BD
330
1F
100
AcDbEntity
  8
躯体と製品
  6
Continuous
 62
     3
100
AcDbCircle
 10
-1157.465704701313
 20
2137.99558840527
 30
0.0
 40
0.9999999999999998
  0
CIRCLE
  5
519BE
330
1F
100
AcDbEntity
  8
躯体と製品
  6
Continuous
 62
     3
100
AcDbCircle
 10
-1147.465704701313
 20
2137.99558840527
 30
0.0
 40
0.9999999999999998
  0
CIRCLE
  5
519BF
330
1F
100
AcDbEntity
  8
躯体と製品
  6
Continuous
 62
     3
100
AcDbCircle
 10
-1137.465704701313
 20
2137.99558840527
 30
0.0
 40
0.9999999999999998
  0
CIRCLE
  5
519C0
330
1F
100
AcDbEntity
  8
躯体と製品
  6
Continuous
 62
     3
100
AcDbCircle
 10
-1117.465704701313
 20
2137.99558840527
 30
0.0
 40
0.9999999999999998
  0
CIRCLE
  5
519C1
330
1F
100
AcDbEntity
  8
躯体と製品
  6
Continuous
 62
     3
100
AcDbCircle
 10
-1107.465704701313
 20
2137.99558840527
 30
0.0
 40
0.9999999999999998
  0
CIRCLE
  5
519C2
330
1F
100
AcDbEntity
  8
躯体と製品
  6
Continuous
 62
     3
100
AcDbCircle
 10
-1177.465704701313
 20
2129.99558840527
 30
0.0
 40
0.9999999999999998
  0
CIRCLE
  5
519C3
330
1F
100
AcDbEntity
  8
躯体と製品
  6
Continuous
 62
     3
100
AcDbCircle
 10
-1167.465704701313
 20
2129.99558840527
 30
0.0
 40
0.9999999999999998
  0
CIRCLE
  5
519C4
330
1F
100
AcDbEntity
  8
躯体と製品
  6
Continuous
 62
     3
100
AcDbCircle
 10
-1157.465704701313
 20
2129.99558840527
 30
0.0
 40
0.9999999999999998
  0
CIRCLE
  5
519C5
330
1F
100
AcDbEntity
  8
躯体と製品
  6
Continuous
 62
     3
100
AcDbCircle
 10
-1137.465704701313
 20
2129.99558840527
 30
0.0
 40
0.9999999999999998
  0
CIRCLE
  5
519C6
330
1F
100
AcDbEntity
  8
躯体と製品
  6
Continuous
 62
     3
100
AcDbCircle
 10
-1127.465704701313
 20
2129.99558840527
 30
0.0
 40
0.9999999999999998
  0
CIRCLE
  5
519C7
330
1F
100
AcDbEntity
  8
躯体と製品
  6
Continuous
 62
     3
100
AcDbCircle
 10
-1117.465704701313
 20
2129.99558840527
 30
0.0
 40
0.9999999999999998
  0
CIRCLE
  5
519C8
330
1F
100
AcDbEntity
  8
躯体と製品
  6
Continuous
 62
     3
100
AcDbCircle
 10
-1192.465704701313
 20
2133.995588405269
 30
0.0
 40
0.9999999999999998
  0
CIRCLE
  5
519C9
330
1F
100
AcDbEntity
  8
躯体と製品
  6
Continuous
 62
     3
100
AcDbCircle
 10
-1152.465704701313
 20
2133.995588405269
 30
0.0
 40
0.9999999999999998
  0
CIRCLE
  5
519CA
330
1F
100
AcDbEntity
  8
躯体と製品
  6
Continuous
 62
     3
100
AcDbCircle
 10
-1184.965704701313
 20
2127.99558840527
 30
0.0
 40
0.9999999999999998
  0
CIRCLE
  5
519CB
330
1F
100
AcDbEntity
  8
躯体と製品
  6
Continuous
 62
     3
100
AcDbCircle
 10
-1144.965704701313
 20
2127.99558840527
 30
0.0
 40
0.9999999999999998
  0
CIRCLE
  5
519CC
330
1F
100
AcDbEntity
  8
躯体と製品
  6
Continuous
 62
     3
100
AcDbCircle
 10
-1169.965704701313
 20
2139.99558840527
 30
0.0
 40
0.9999999999999998
  0
CIRCLE
  5
519CD
330
1F
100
AcDbEntity
  8
躯体と製品
  6
Continuous
 62
     3
100
AcDbCircle
 10
-1129.965704701313
 20
2139.99558840527
 30
0.0
 40
0.9999999999999998
  0
CIRCLE
  5
519CE
330
1F
100
AcDbEntity
  8
躯体と製品
  6
Continuous
 62
     3
100
AcDbCircle
 10
-1104.965704701313
 20
2127.99558840527
 30
0.0
 40
0.9999999999999998
  0
CIRCLE
  5
519CF
330
1F
100
AcDbEntity
  8
躯体と製品
  6
Continuous
 62
     3
100
AcDbCircle
 10
-1049.965704701313
 20
2139.99558840527
 30
0.0
 40
0.9999999999999998
  0
CIRCLE
  5
519D0
330
1F
100
AcDbEntity
  8
躯体と製品
  6
Continuous
 62
     3
100
AcDbCircle
 10
-1009.965704701313
 20
2139.99558840527
 30
0.0
 40
0.9999999999999998
  0
CIRCLE
  5
519D1
330
1F
100
AcDbEntity
  8
躯体と製品
  6
Continuous
 62
     3
100
AcDbCircle
 10
-969.9657047013133
 20
2139.99558840527
 30
0.0
 40
0.9999999999999998
  0
CIRCLE
  5
519D2
330
1F
100
AcDbEntity
  8
躯体と製品
  6
Continuous
 62
     3
100
AcDbCircle
 10
-929.9657047013134
 20
2139.99558840527
 30
0.0
 40
0.9999999999999998
  0
CIRCLE
  5
519D3
330
1F
100
AcDbEntity
  8
躯体と製品
  6
Continuous
 62
     3
100
AcDbCircle
 10
-889.9657047013134
 20
2139.99558840527
 30
0.0
 40
0.9999999999999998
  0
CIRCLE
  5
519D4
330
1F
100
AcDbEntity
  8
躯体と製品
  6
Continuous
 62
     3
100
AcDbCircle
 10
-849.9657047013133
 20
2139.99558840527
 30
0.0
 40
0.9999999999999998
  0
CIRCLE
  5
519D5
330
1F
100
AcDbEntity
  8
躯体と製品
  6
Continuous
 62
     3
100
AcDbCircle
 10
-809.9657047013133
 20
2139.99558840527
 30
0.0
 40
0.9999999999999998
  0
CIRCLE
  5
519D6
330
1F
100
AcDbEntity
  8
躯体と製品
  6
Continuous
 62
     3
100
AcDbCircle
 10
-1064.965704701313
 20
2127.99558840527
 30
0.0
 40
0.9999999999999998
  0
CIRCLE
  5
519D7
330
1F
100
AcDbEntity
  8
躯体と製品
  6
Continuous
 62
     3
100
AcDbCircle
 10
-1024.965704701313
 20
2127.99558840527
 30
0.0
 40
0.9999999999999998
  0
CIRCLE
  5
519D8
330
1F
100
AcDbEntity
  8
躯体と製品
  6
Continuous
 62
     3
100
AcDbCircle
 10
-984.9657047013133
 20
2127.99558840527
 30
0.0
 40
0.9999999999999998
  0
CIRCLE
  5
519D9
330
1F
100
AcDbEntity
  8
躯体と製品
  6
Continuous
 62
     3
100
AcDbCircle
 10
-944.9657047013133
 20
2127.99558840527
 30
0.0
 40
0.9999999999999998
  0
CIRCLE
  5
519DA
330
1F
100
AcDbEntity
  8
躯体と製品
  6
Continuous
 62
     3
100
AcDbCircle
 10
-904.5996792975284
 20
2127.629563001486
 30
0.0
 40
0.9999999999999998
  0
CIRCLE
  5
519DB
330
1F
100
AcDbEntity
  8
躯体と製品
  6
Continuous
 62
     3
100
AcDbCircle
 10
-824.5996792975283
 20
2127.629563001486
 30
0.0
 40
0.9999999999999998
  0
CIRCLE
  5
519DC
330
1F
100
AcDbEntity
  8
躯体と製品
  6
Continuous
 62
     3
100
AcDbCircle
 10
-1097.465704701313
 20
2137.99558840527
 30
0.0
 40
0.9999999999999998
  0
CIRCLE
  5
519DD
330
1F
100
AcDbEntity
  8
躯体と製品
  6
Continuous
 62
     3
100
AcDbCircle
 10
-1077.465704701313
 20
2137.99558840527
 30
0.0
 40
0.9999999999999998
  0
CIRCLE
  5
519DE
330
1F
100
AcDbEntity
  8
躯体と製品
  6
Continuous
 62
     3
100
AcDbCircle
 10
-1067.465704701313
 20
2137.99558840527
 30
0.0
 40
0.9999999999999998
  0
CIRCLE
  5
519DF
330
1F
100
AcDbEntity
  8
躯体と製品
  6
Continuous
 62
     3
100
AcDbCircle
 10
-1057.465704701313
 20
2137.99558840527
 30
0.0
 40
0.9999999999999998
  0
CIRCLE
  5
519E0
330
1F
100
AcDbEntity
  8
躯体と製品
  6
Continuous
 62
     3
100
AcDbCircle
 10
-1037.465704701313
 20
2137.99558840527
 30
0.0
 40
0.9999999999999998
  0
CIRCLE
  5
519E1
330
1F
100
AcDbEntity
  8
躯体と製品
  6
Continuous
 62
     3
100
AcDbCircle
 10
-1027.465704701313
 20
2137.99558840527
 30
0.0
 40
0.9999999999999998
  0
CIRCLE
  5
519E2
330
1F
100
AcDbEntity
  8
躯体と製品
  6
Continuous
 62
     3
100
AcDbCircle
 10
-1097.465704701313
 20
2129.99558840527
 30
0.0
 40
0.9999999999999998
  0
CIRCLE
  5
519E3
330
1F
100
AcDbEntity
  8
躯体と製品
  6
Continuous
 62
     3
100
AcDbCircle
 10
-1087.465704701313
 20
2129.99558840527
 30
0.0
 40
0.9999999999999998
  0
CIRCLE
  5
519E4
330
1F
100
AcDbEntity
  8
躯体と製品
  6
Continuous
 62
     3
100
AcDbCircle
 10
-1077.465704701313
 20
2129.99558840527
 30
0.0
 40
0.9999999999999998
  0
CIRCLE
  5
519E5
330
1F
100
AcDbEntity
  8
躯体と製品
  6
Continuous
 62
     3
100
AcDbCircle
 10
-1057.465704701313
 20
2129.99558840527
 30
0.0
 40
0.9999999999999998
  0
CIRCLE
  5
519E6
330
1F
100
AcDbEntity
  8
躯体と製品
  6
Continuous
 62
     3
100
AcDbCircle
 10
-1047.465704701313
 20
2129.99558840527
 30
0.0
 40
0.9999999999999998
  0
CIRCLE
  5
519E7
330
1F
100
AcDbEntity
  8
躯体と製品
  6
Continuous
 62
     3
100
AcDbCircle
 10
-1037.465704701313
 20
2129.99558840527
 30
0.0
 40
0.9999999999999998
  0
CIRCLE
  5
519E8
330
1F
100
AcDbEntity
  8
躯体と製品
  6
Continuous
 62
     3
100
AcDbCircle
 10
-997.4657047013133
 20
2137.99558840527
 30
0.0
 40
0.9999999999999998
  0
CIRCLE
  5
519E9
330
1F
100
AcDbEntity
  8
躯体と製品
  6
Continuous
 62
     3
100
AcDbCircle
 10
-987.4657047013133
 20
2137.99558840527
 30
0.0
 40
0.9999999999999998
  0
CIRCLE
  5
519EA
330
1F
100
AcDbEntity
  8
躯体と製品
  6
Continuous
 62
     3
100
AcDbCircle
 10
-977.4657047013134
 20
2137.99558840527
 30
0.0
 40
0.9999999999999998
  0
CIRCLE
  5
519EB
330
1F
100
AcDbEntity
  8
躯体と製品
  6
Continuous
 62
     3
100
AcDbCircle
 10
-957.4657047013133
 20
2137.99558840527
 30
0.0
 40
0.9999999999999998
  0
CIRCLE
  5
519EC
330
1F
100
AcDbEntity
  8
躯体と製品
  6
Continuous
 62
     3
100
AcDbCircle
 10
-947.4657047013133
 20
2137.99558840527
 30
0.0
 40
0.9999999999999998
  0
CIRCLE
  5
519ED
330
1F
100
AcDbEntity
  8
躯体と製品
  6
Continuous
 62
     3
100
AcDbCircle
 10
-1007.465704701313
 20
2129.99558840527
 30
0.0
 40
0.9999999999999998
  0
CIRCLE
  5
519EE
330
1F
100
AcDbEntity
  8
躯体と製品
  6
Continuous
 62
     3
100
AcDbCircle
 10
-997.4657047013133
 20
2129.99558840527
 30
0.0
 40
0.9999999999999998
  0
CIRCLE
  5
519EF
330
1F
100
AcDbEntity
  8
躯体と製品
  6
Continuous
 62
     3
100
AcDbCircle
 10
-977.4657047013134
 20
2129.99558840527
 30
0.0
 40
0.9999999999999998
  0
CIRCLE
  5
519F0
330
1F
100
AcDbEntity
  8
躯体と製品
  6
Continuous
 62
     3
100
AcDbCircle
 10
-967.4657047013134
 20
2129.99558840527
 30
0.0
 40
0.9999999999999998
  0
CIRCLE
  5
519F1
330
1F
100
AcDbEntity
  8
躯体と製品
  6
Continuous
 62
     3
100
AcDbCircle
 10
-957.4657047013133
 20
2129.99558840527
 30
0.0
 40
0.9999999999999998
  0
CIRCLE
  5
519F2
330
1F
100
AcDbEntity
  8
躯体と製品
  6
Continuous
 62
     3
100
AcDbCircle
 10
-937.4657047013133
 20
2137.99558840527
 30
0.0
 40
0.9999999999999998
  0
CIRCLE
  5
519F3
330
1F
100
AcDbEntity
  8
躯体と製品
  6
Continuous
 62
     3
100
AcDbCircle
 10
-917.4657047013134
 20
2137.99558840527
 30
0.0
 40
0.9999999999999998
  0
CIRCLE
  5
519F4
330
1F
100
AcDbEntity
  8
躯体と製品
  6
Continuous
 62
     3
100
AcDbCircle
 10
-907.4657047013133
 20
2137.99558840527
 30
0.0
 40
0.9999999999999998
  0
CIRCLE
  5
519F5
330
1F
100
AcDbEntity
  8
躯体と製品
  6
Continuous
 62
     3
100
AcDbCircle
 10
-897.4657047013133
 20
2137.99558840527
 30
0.0
 40
0.9999999999999998
  0
CIRCLE
  5
519F6
330
1F
100
AcDbEntity
  8
躯体と製品
  6
Continuous
 62
     3
100
AcDbCircle
 10
-937.4657047013133
 20
2129.99558840527
 30
0.0
 40
0.9999999999999998
  0
CIRCLE
  5
519F7
330
1F
100
AcDbEntity
  8
躯体と製品
  6
Continuous
 62
     3
100
AcDbCircle
 10
-927.4657047013134
 20
2129.99558840527
 30
0.0
 40
0.9999999999999998
  0
CIRCLE
  5
519F8
330
1F
100
AcDbEntity
  8
躯体と製品
  6
Continuous
 62
     3
100
AcDbCircle
 10
-917.4657047013134
 20
2129.99558840527
 30
0.0
 40
0.9999999999999998
  0
CIRCLE
  5
519F9
330
1F
100
AcDbEntity
  8
躯体と製品
  6
Continuous
 62
     3
100
AcDbCircle
 10
-897.4657047013133
 20
2129.99558840527
 30
0.0
 40
0.9999999999999998
  0
CIRCLE
  5
519FA
330
1F
100
AcDbEntity
  8
躯体と製品
  6
Continuous
 62
     3
100
AcDbCircle
 10
-887.4657047013133
 20
2129.99558840527
 30
0.0
 40
0.9999999999999998
  0
CIRCLE
  5
519FB
330
1F
100
AcDbEntity
  8
躯体と製品
  6
Continuous
 62
     3
100
AcDbCircle
 10
-837.4657047013133
 20
2137.99558840527
 30
0.0
 40
0.9999999999999998
  0
CIRCLE
  5
519FC
330
1F
100
AcDbEntity
  8
躯体と製品
  6
Continuous
 62
     3
100
AcDbCircle
 10
-827.4657047013134
 20
2137.99558840527
 30
0.0
 40
0.9999999999999998
  0
CIRCLE
  5
519FD
330
1F
100
AcDbEntity
  8
躯体と製品
  6
Continuous
 62
     3
100
AcDbCircle
 10
-817.4657047013134
 20
2137.99558840527
 30
0.0
 40
0.9999999999999998
  0
CIRCLE
  5
519FE
330
1F
100
AcDbEntity
  8
躯体と製品
  6
Continuous
 62
     3
100
AcDbCircle
 10
-797.4657047013133
 20
2137.99558840527
 30
0.0
 40
0.9999999999999998
  0
CIRCLE
  5
519FF
330
1F
100
AcDbEntity
  8
躯体と製品
  6
Continuous
 62
     3
100
AcDbCircle
 10
-847.4657047013133
 20
2129.99558840527
 30
0.0
 40
0.9999999999999998
  0
CIRCLE
  5
51A00
330
1F
100
AcDbEntity
  8
躯体と製品
  6
Continuous
 62
     3
100
AcDbCircle
 10
-837.4657047013133
 20
2129.99558840527
 30
0.0
 40
0.9999999999999998
  0
CIRCLE
  5
51A01
330
1F
100
AcDbEntity
  8
躯体と製品
  6
Continuous
 62
     3
100
AcDbCircle
 10
-817.4657047013134
 20
2129.99558840527
 30
0.0
 40
0.9999999999999998
  0
CIRCLE
  5
51A02
330
1F
100
AcDbEntity
  8
躯体と製品
  6
Continuous
 62
     3
100
AcDbCircle
 10
-807.4657047013133
 20
2129.99558840527
 30
0.0
 40
0.9999999999999998
  0
CIRCLE
  5
51A03
330
1F
100
AcDbEntity
  8
躯体と製品
  6
Continuous
 62
     3
100
AcDbCircle
 10
-797.4657047013133
 20
2129.99558840527
 30
0.0
 40
0.9999999999999998
  0
CIRCLE
  5
51A04
330
1F
100
AcDbEntity
  8
躯体と製品
  6
Continuous
 62
     3
100
AcDbCircle
 10
-1112.465704701313
 20
2133.995588405269
 30
0.0
 40
0.9999999999999998
  0
CIRCLE
  5
51A05
330
1F
100
AcDbEntity
  8
躯体と製品
  6
Continuous
 62
     3
100
AcDbCircle
 10
-1072.465704701313
 20
2133.995588405269
 30
0.0
 40
0.9999999999999998
  0
CIRCLE
  5
51A06
330
1F
100
AcDbEntity
  8
躯体と製品
  6
Continuous
 62
     3
100
AcDbCircle
 10
-1032.465704701313
 20
2133.995588405269
 30
0.0
 40
0.9999999999999998
  0
CIRCLE
  5
51A07
330
1F
100
AcDbEntity
  8
躯体と製品
  6
Continuous
 62
     3
100
AcDbCircle
 10
-992.4657047013134
 20
2133.995588405269
 30
0.0
 40
0.9999999999999998
  0
CIRCLE
  5
51A08
330
1F
100
AcDbEntity
  8
躯体と製品
  6
Continuous
 62
     3
100
AcDbCircle
 10
-952.4657047013134
 20
2133.995588405269
 30
0.0
 40
0.9999999999999998
  0
CIRCLE
  5
51A09
330
1F
100
AcDbEntity
  8
躯体と製品
  6
Continuous
 62
     3
100
AcDbCircle
 10
-912.4657047013133
 20
2133.995588405269
 30
0.0
 40
0.9999999999999998
  0
CIRCLE
  5
51A0A
330
1F
100
AcDbEntity
  8
躯体と製品
  6
Continuous
 62
     3
100
AcDbCircle
 10
-832.4657047013133
 20
2133.995588405269
 30
0.0
 40
0.9999999999999998
  0
CIRCLE
  5
51A0B
330
1F
100
AcDbEntity
  8
躯体と製品
  6
Continuous
 62
     3
100
AcDbCircle
 10
-792.4657047013133
 20
2133.995588405269
 30
0.0
 40
0.9999999999999998
  0
CIRCLE
  5
51A0C
330
1F
100
AcDbEntity
  8
躯体と製品
  6
Continuous
 62
     3
100
AcDbCircle
 10
-1017.465704701313
 20
2137.99558840527
 30
0.0
 40
0.9999999999999998
  0
CIRCLE
  5
51A0D
330
1F
100
AcDbEntity
  8
躯体と製品
  6
Continuous
 62
     3
100
AcDbCircle
 10
-1017.465704701313
 20
2129.99558840527
 30
0.0
 40
0.9999999999999998
  0
LINE
  5
520FF
330
1F
100
AcDbEntity
  8
躯体と製品
 62
     3
100
AcDbLine
 10
-1359.49908744439
 20
2025.99558840527
 30
0.0
 11
-1379.49908744439
 21
2005.99558840527
 31
0.0
  0
LINE
  5
52100
330
1F
100
AcDbEntity
  8
躯体と製品
 62
     3
100
AcDbLine
 10
-1352.428019632527
 20
2025.99558840527
 30
0.0
 11
-1372.428019632527
 21
2005.99558840527
 31
0.0
  0
LINE
  5
52101
330
1F
100
AcDbEntity
  8
躯体と製品
 62
     3
100
AcDbLine
 10
-1345.356951820657
 20
2025.99558840527
 30
0.0
 11
-1365.356951820657
 21
2005.99558840527
 31
0.0
  0
LINE
  5
522FB
330
1F
100
AcDbEntity
  8
躯体と製品
  6
Continuous
 62
     3
100
AcDbLine
 10
-1327.465704701313
 20
2146.073847929168
 30
0.0
 11
-1317.543964225211
 21
2155.99558840527
 31
0.0
1001
ACAD
1010
0.0
1020
0.0
1030
0.0
  0
LINE
  5
522FC
330
1F
100
AcDbEntity
  8
躯体と製品
  6
Continuous
 62
     3
100
AcDbLine
 10
-1327.465704701313
 20
2132.603463747565
 30
0.0
 11
-1304.073580043608
 21
2155.99558840527
 31
0.0
1001
ACAD
1010
0.0
1020
0.0
1030
0.0
  0
LINE
  5
522FD
330
1F
100
AcDbEntity
  8
躯体と製品
  6
Continuous
 62
     3
100
AcDbLine
 10
-1327.465704701314
 20
2119.133079565961
 30
0.0
 11
-1290.603195862005
 21
2155.99558840527
 31
0.0
1001
ACAD
1010
0.0
1020
0.0
1030
0.0
  0
LINE
  5
522FE
330
1F
100
AcDbEntity
  8
躯体と製品
  6
Continuous
 62
     3
100
AcDbLine
 10
-1327.465704701313
 20
2105.662695384358
 30
0.0
 11
-1277.132811680401
 21
2155.99558840527
 31
0.0
1001
ACAD
1010
0.0
1020
0.0
1030
0.0
  0
LINE
  5
522FF
330
1F
100
AcDbEntity
  8
躯体と製品
  6
Continuous
 62
     3
100
AcDbLine
 10
-1327.465704701313
 20
2092.192311202754
 30
0.0
 11
-1263.662427498799
 21
2155.995588405268
 31
0.0
1001
ACAD
1010
0.0
1020
0.0
1030
0.0
  0
LINE
  5
52300
330
1F
100
AcDbEntity
  8
躯体と製品
  6
Continuous
 62
     3
100
AcDbLine
 10
-1327.465704701313
 20
2078.721927021149
 30
0.0
 11
-1250.192043317194
 21
2155.995588405268
 31
0.0
1001
ACAD
1010
0.0
1020
0.0
1030
0.0
  0
LINE
  5
52301
330
1F
100
AcDbEntity
  8
躯体と製品
  6
Continuous
 62
     3
100
AcDbLine
 10
-1316.72165913559
 20
2075.99558840527
 30
0.0
 11
-1236.721659135591
 21
2155.995588405269
 31
0.0
1001
ACAD
1010
0.0
1020
0.0
1030
0.0
  0
LINE
  5
52302
330
1F
100
AcDbEntity
  8
躯体と製品
  6
Continuous
 62
     3
100
AcDbLine
 10
-1303.251274953986
 20
2075.99558840527
 30
0.0
 11
-1227.465704701313
 21
2151.781158657943
 31
0.0
1001
ACAD
1010
0.0
1020
0.0
1030
0.0
  0
LINE
  5
52303
330
1F
100
AcDbEntity
  8
躯体と製品
  6
Continuous
 62
     3
100
AcDbLine
 10
-1289.780890772382
 20
2075.99558840527
 30
0.0
 11
-1221.780890772383
 21
2143.995588405269
 31
0.0
1001
ACAD
1010
0.0
1020
0.0
1030
0.0
  0
LINE
  5
52304
330
1F
100
AcDbEntity
  8
躯体と製品
  6
Continuous
 62
     3
100
AcDbLine
 10
-1276.310506590778
 20
2075.99558840527
 30
0.0
 11
-1208.310506590778
 21
2143.99558840527
 31
0.0
1001
ACAD
1010
0.0
1020
0.0
1030
0.0
  0
LINE
  5
52305
330
1F
100
AcDbEntity
  8
躯体と製品
  6
Continuous
 62
     3
100
AcDbLine
 10
-1262.840122409174
 20
2075.99558840527
 30
0.0
 11
-1207.465704701313
 21
2131.370006113131
 31
0.0
1001
ACAD
1010
0.0
1020
0.0
1030
0.0
  0
LINE
  5
52306
330
1F
100
AcDbEntity
  8
躯体と製品
  6
Continuous
 62
     3
100
AcDbLine
 10
-1249.369738227571
 20
2075.99558840527
 30
0.0
 11
-1207.465704701313
 21
2117.899621931528
 31
0.0
1001
ACAD
1010
0.0
1020
0.0
1030
0.0
  0
LINE
  5
52307
330
1F
100
AcDbEntity
  8
躯体と製品
  6
Continuous
 62
     3
100
AcDbLine
 10
-1235.899354045968
 20
2075.99558840527
 30
0.0
 11
-1207.465704701314
 21
2104.429237749924
 31
0.0
1001
ACAD
1010
0.0
1020
0.0
1030
0.0
  0
LINE
  5
52308
330
1F
100
AcDbEntity
  8
躯体と製品
  6
Continuous
 62
     3
100
AcDbLine
 10
-1222.428969864363
 20
2075.99558840527
 30
0.0
 11
-1207.465704701314
 21
2090.958853568319
 31
0.0
1001
ACAD
1010
0.0
1020
0.0
1030
0.0
  0
LINE
  5
52309
330
1F
100
AcDbEntity
  8
躯体と製品
  6
Continuous
 62
     3
100
AcDbLine
 10
-1208.958585682759
 20
2075.995588405271
 30
0.0
 11
-1207.465704701314
 21
2077.488469386715
 31
0.0
1001
ACAD
1010
0.0
1020
0.0
1030
0.0
  0
LINE
  5
5231A
330
1F
100
AcDbEntity
  8
躯体と製品
  6
Continuous
 62
     4
100
AcDbLine
 10
-1327.465704701313
 20
2075.99558840527
 30
0.0
 11
-1333.465704701328
 21
2075.99558840527
 31
0.0
  0
LINE
  5
5233A
330
1F
100
AcDbEntity
  8
躯体と製品
  6
Continuous
 62
     4
100
AcDbLine
 10
-1096.736364303522
 20
2160.06663898648
 30
0.0
 11
-1073.56031139156
 21
2119.92453782406
 31
0.0
  0
LINE
  5
5233B
330
1F
100
AcDbEntity
  8
躯体と製品
  6
Continuous
 62
     4
100
AcDbLine
 10
-1101.736364303522
 20
2160.06663898648
 30
0.0
 11
-1078.56031139156
 21
2119.92453782406
 31
0.0
  0
TEXT
  5
52866
330
1F
100
AcDbEntity
  8
文字-記号
 62
     7
100
AcDbText
 10
-1160.307265426439
 20
2095.379686089493
 30
0.0
 40
9.0
  1
在来際根太または
100
AcDbText
  0
ENDSEC
  0
SECTION
  2
OBJECTS
  0
DICTIONARY
  5
C
330
0
100
AcDbDictionary
281
     1
  3
ACAD_2007HEADERVARS_RT
350
52A10
  3
ACAD_BACKGROUND
350
522E8
  3
ACAD_CIP_PREVIOUS_PRODUCT_INFO
350
4BCB7
  3
ACAD_COLOR
350
22756
  3
ACAD_GROUP
350
D
  3
ACAD_LAYOUT
350
1A
  3
ACAD_MATERIAL
350
2272C
  3
ACAD_MLEADERSTYLE
350
2276B
  3
ACAD_MLINESTYLE
350
17
  3
ACAD_PLOTSETTINGS
350
19
  3
ACAD_PLOTSTYLENAME
350
E
  3
ACAD_SCALELIST
350
22759
  3
ACAD_TABLESTYLE
350
22757
  3
ACAD_VISUALSTYLE
350
22745
  3
ACDB_RECOMPOSE_DATA
350
52A0F
  3
AcDbVariableDictionary
350
173D
  3
AEC_PROPERTY_SET_DEFS
350
2284D
  3
ASE_INDEX_DICTIONARY
350
22728
  0
DICTIONARY
  5
52616
330
8
100
AcDbDictionary
280
     1
281
     1
  0
DICTIONARY
  5
1562
330
2
100
AcDbDictionary
280
     1
281
     1
  3
ACAD_LAYERFILTERS
360
1574
  3
ACAD_LAYERSTATES
360
1563
  0
DICTIONARY
  5
22778
330
10
100
AcDbDictionary
280
     1
281
     1
  3
ADSK_XREC_LAYER_RECONCILED
360
5259A
  0
DICTIONARY
  5
4BDA6
330
4BDA5
100
AcDbDictionary
280
     1
281
     1
  3
ADSK_XREC_LAYER_RECONCILED
360
5259E
  0
DICTIONARY
  5
4BDA8
330
4BDA7
100
AcDbDictionary
280
     1
281
     1
  3
ADSK_XREC_LAYER_RECONCILED
360
5259F
  0
DICTIONARY
  5
4BDAA
330
4BDA9
100
AcDbDictionary
280
     1
281
     1
  3
ADSK_XREC_LAYER_RECONCILED
360
525A0
  0
DICTIONARY
  5
525A1
330
4BDAB
100
AcDbDictionary
280
     1
281
     1
  3
ADSK_XREC_LAYER_RECONCILED
360
525A2
  0
DICTIONARY
  5
3662
330
1F
100
AcDbDictionary
280
     1
281
     1
  3
ACAD_LAYOUTSELFREF
360
36B2
  3
ACAD_SORTENTS
360
23806
  0
DICTIONARY
  5
52A10
102
{ACAD_REACTORS
330
C
102
}
330
C
100
AcDbDictionary
281
     1
  3
DIMTFILL
350
52A11
  3
INTERFEREVPVS
350
52A12
  0
DICTIONARY
  5
522E8
102
{ACAD_REACTORS
330
C
102
}
330
C
100
AcDbDictionary
281
     1
  0
XRECORD
  5
4BCB7
102
{ACAD_REACTORS
330
C
102
}
330
C
100
AcDbXrecord
280
     1
300
ACD
300
2012
300
ACD_F_S
  0
DICTIONARY
  5
22756
102
{ACAD_REACTORS
330
C
102
}
330
C
100
AcDbDictionary
281
     1
  0
DICTIONARY
  5
D
102
{ACAD_REACTORS
330
C
102
}
330
C
100
AcDbDictionary
281
     1
  0
DICTIONARY
  5
1A
102
{ACAD_REACTORS
330
C
102
}
330
C
100
AcDbDictionary
281
     1
  3
Model
350
22
  3
レイアウト1
350
525BB
  0
DICTIONARY
  5
2272C
102
{ACAD_REACTORS
330
C
102
}
330
C
100
AcDbDictionary
281
     1
  3
ByBlock
350
22735
  3
ByLayer
350
2272D
  3
Global
350
2273D
  0
DICTIONARY
  5
2276B
102
{ACAD_REACTORS
330
C
102
}
330
C
100
AcDbDictionary
281
     1
  3
Standard
350
2276C
  0
DICTIONARY
  5
17
102
{ACAD_REACTORS
330
C
102
}
330
C
100
AcDbDictionary
281
     1
  3
Standard
350
18
  0
DICTIONARY
  5
19
102
{ACAD_REACTORS
330
C
102
}
330
C
100
AcDbDictionary
281
     1
  3
A1横-DocuWide 2051 MF-RT
350
2288E
  3
A1横-PDF_COR
350
4BB79
  3
A1横-PDF_MONO
350
4BB70
  3
A2横-DocuWide 2051 MF-RT
350
228A9
  3
A3横-DocuCentre C4535Ⅰ②
350
2883A
  3
A3横-DocuCentre C4535Ⅰ②_cor
350
4BB56
  3
A4横-DocuCentre C4535Ⅰ②
350
228B2
  3
A4横-DocuCentre C4535Ⅰ②_cor
350
4BB5F
  0
ACDBDICTIONARYWDFLT
  5
E
102
{ACAD_REACTORS
330
C
102
}
330
C
100
AcDbDictionary
281
     1
  3
Normal
350
F
100
AcDbDictionaryWithDefault
340
F
  0
DICTIONARY
  5
22759
102
{ACAD_REACTORS
330
C
102
}
330
C
100
AcDbDictionary
281
     1
  3
A0
350
2275A
  3
A1
350
22924
  3
A2
350
22925
  3
A3
350
22926
  3
A4
350
22927
  3
A5
350
22928
  3
A6
350
22929
  3
A7
350
2292A
  3
A8
350
2292B
  3
A9
350
2292C
  3
B0
350
2292D
  3
B1
350
2292E
  3
B2
350
2292F
  3
B3
350
22930
  3
B4
350
22931
  3
B5
350
22765
  3
B6
350
22932
  3
B7
350
22933
  3
B8
350
22934
  3
B9
350
22935
  3
C0
350
22936
  0
DICTIONARY
  5
22757
102
{ACAD_REACTORS
330
C
102
}
330
C
100
AcDbDictionary
281
     1
  3
Standard
350
22758
  0
DICTIONARY
  5
22745
102
{ACAD_REACTORS
330
C
102
}
330
C
100
AcDbDictionary
281
     1
  3
2dWireframe
350
2274B
  3
3D Hidden
350
2274D
  3
3dWireframe
350
2274C
  3
Basic
350
2274A
  3
Brighten
350
22751
  3
ColorChange
350
22755
  3
Conceptual
350
2274E
  3
Dim
350
22750
  3
EdgeColorOff
350
22A03
  3
Facepattern
350
22754
  3
Flat
350
22746
  3
FlatWithEdges
350
22747
  3
Gouraud
350
22748
  3
GouraudWithEdges
350
22749
  3
Hidden
350
229FB
  3
JitterOff
350
22A01
  3
Linepattern
350
22753
  3
OverhangOff
350
22A02
  3
Realistic
350
2274F
  3
Shaded
350
22A00
  3
Shaded with edges
350
229FF
  3
Shades of Gray
350
229FC
  3
Sketchy
350
229FD
  3
Thicken
350
22752
  3
Wireframe
350
229FA
  3
X-Ray
350
229FE
  0
XRECORD
  5
52A0F
102
{ACAD_REACTORS
330
C
102
}
330
C
100
AcDbXrecord
280
     1
 90
        1
330
22758
  0
DICTIONARY
  5
173D
102
{ACAD_REACTORS
330
C
102
}
330
C
100
AcDbDictionary
281
     1
  3
CANNOSCALE
350
22809
  3
CMLEADERSTYLE
350
22807
  3
CTABLESTYLE
350
22806
  3
LAYEREVAL
350
2280B
  3
LAYERNOTIFY
350
2280C
  3
LIGHTINGUNITS
350
2280A
  3
MSLTSCALE
350
22808
  3
SOLIDHIST
350
52650
  3
SORTENTS
350
173E
  0
DICTIONARY
  5
2284D
102
{ACAD_REACTORS
330
C
102
}
330
C
100
AcDbDictionary
281
     1
  0
DICTIONARY
  5
22728
102
{ACAD_REACTORS
330
C
102
}
330
C
100
AcDbDictionary
281
     1
  3
ASEBlockHierarchyIndexRecord
350
2272A
1001
DCO15
1040
1596433040.279
  0
DICTIONARY
  5
1574
102
{ACAD_REACTORS
330
1562
102
}
330
1562
100
AcDbDictionary
280
     1
281
     1
  0
DICTIONARY
  5
1563
102
{ACAD_REACTORS
330
1562
102
}
330
1562
100
AcDbDictionary
281
     1
  3
床画層-1
350
1606
  0
XRECORD
  5
5259A
102
{ACAD_REACTORS
330
22778
102
}
330
22778
100
AcDbXrecord
280
     1
290
     1
  0
XRECORD
  5
5259E
102
{ACAD_REACTORS
330
4BDA6
102
}
330
4BDA6
100
AcDbXrecord
280
     1
290
     1
  0
XRECORD
  5
5259F
102
{ACAD_REACTORS
330
4BDA8
102
}
330
4BDA8
100
AcDbXrecord
280
     1
290
     1
  0
XRECORD
  5
525A0
102
{ACAD_REACTORS
330
4BDAA
102
}
330
4BDAA
100
AcDbXrecord
280
     1
290
     1
  0
XRECORD
  5
525A2
102
{ACAD_REACTORS
330
525A1
102
}
330
525A1
100
AcDbXrecord
280
     1
290
     1
  0
XRECORD
  5
36B2
102
{ACAD_REACTORS
330
3662
102
}
330
3662
100
AcDbXrecord
280
     1
340
1F
  0
SORTENTSTABLE
  5
23806
102
{ACAD_REACTORS
330
3662
102
}
330
3662
100
AcDbSortentsTable
330
1F
331
518E9
  5
51AF3
331
518AA
  5
51AB4
331
51908
  5
51B1E
331
5188B
  5
51A95
331
51836
  5
51A40
331
51855
  5
51A5F
331
5186C
  5
51A76
331
51550
  5
51719
331
5171F
  5
51910
331
519D0
  5
51BEA
331
518EA
  5
51AF4
331
518AB
  5
51AB5
331
51909
  5
51B1F
331
5188C
  5
51A96
331
51856
  5
51A60
331
51551
  5
5171A
331
51837
  5
51A41
331
5186D
  5
51A77
331
519D1
  5
51BEB
331
519F0
  5
51C0A
331
518EB
  5
51AF5
331
518AC
  5
51AB6
331
51857
  5
51A61
331
51552
  5
5171B
331
51838
  5
51A42
331
5186E
  5
51A78
331
5188D
  5
51A97
331
519D2
  5
51BEC
331
519F1
  5
51C0B
331
518EC
  5
51AF6
331
518AD
  5
51AB7
331
5188E
  5
51A98
331
51858
  5
51A62
331
51839
  5
51A43
331
5186F
  5
51A79
331
51553
  5
5171C
331
5181A
  5
51A24
331
519D3
  5
51BED
331
519F2
  5
51C0C
331
5188F
  5
51A99
331
51859
  5
51A63
331
5183A
  5
51A44
331
51870
  5
51A7A
331
51554
  5
5171D
331
5181B
  5
51A25
331
519D4
  5
51BEE
331
519F3
  5
51C0E
331
51890
  5
51A9A
331
5183B
  5
51A45
331
5185A
  5
51A64
331
51555
  5
5171E
331
5181C
  5
51A26
331
51871
  5
51A7B
331
519D5
  5
51BEF
331
519F4
  5
51C0F
331
518B0
  5
51ABA
331
5185B
  5
51A65
331
5183C
  5
51A46
331
51872
  5
51A7C
331
51556
  5
5171F
331
5181D
  5
51A27
331
51891
  5
51A9B
331
519D6
  5
51BF0
331
519F5
  5
51C10
331
518B1
  5
51ABB
331
5185C
  5
51A66
331
5183D
  5
51A47
331
51873
  5
51A7D
331
51557
  5
51720
331
5181E
  5
51A28
331
51892
  5
51A9C
331
518B2
  5
51ABC
331
51893
  5
51A9D
331
5185D
  5
51A67
331
5183E
  5
51A48
331
51874
  5
51A7E
331
5181F
  5
51A29
331
519D7
  5
51BF1
331
519F6
  5
51C11
331
518FA
  5
51B10
331
518B3
  5
51ABD
331
51894
  5
51A9E
331
5183F
  5
51A49
331
5185E
  5
51A68
331
51559
  5
51721
331
51820
  5
51A2A
331
51875
  5
51A7F
331
519D8
  5
51BF2
331
519F7
  5
51C12
331
520FF
  5
5252C
331
518FB
  5
51B11
331
518B4
  5
51ABE
331
51895
  5
51A9F
331
51840
  5
51A4A
331
5185F
  5
51A69
331
5155A
  5
51722
331
51821
  5
51A2B
331
51876
  5
51A80
331
519D9
  5
51BF3
331
519F8
  5
51C13
331
52100
  5
5252D
331
518FC
  5
51B12
331
518B5
  5
51ABF
331
51860
  5
51A6A
331
51841
  5
51A4B
331
51877
  5
51A81
331
5155B
  5
51723
331
51822
  5
51A2C
331
51896
  5
51AA0
331
519BB
  5
51BD5
331
519DA
  5
51BF4
331
519F9
  5
51C14
331
52101
  5
5252E
331
518FD
  5
51B13
331
518B6
  5
51AC0
331
51897
  5
51AA1
331
51861
  5
51A6B
331
51842
  5
51A4C
331
51878
  5
51A82
331
5155C
  5
51724
331
51823
  5
51A2D
331
519BC
  5
51BD6
331
519DB
  5
51BF5
331
519FA
  5
51C15
331
518FE
  5
51B14
331
518B7
  5
51AC1
331
51898
  5
51AA2
331
51862
  5
51A6C
331
51843
  5
51A4D
331
51879
  5
51A83
331
5155D
  5
51725
331
51824
  5
51A2E
331
519BD
  5
51BD7
331
519DC
  5
51BF6
331
519FB
  5
51C16
331
518FF
  5
51B15
331
51899
  5
51AA3
331
51844
  5
51A4E
331
51863
  5
51A6D
331
5155E
  5
51726
331
51825
  5
51A2F
331
5187A
  5
51A84
331
519BE
  5
51BD8
331
519DD
  5
51BF7
331
519FC
  5
51C17
331
51900
  5
51B16
331
51864
  5
51A6E
331
51845
  5
51A4F
331
5187B
  5
51A85
331
5155F
  5
51727
331
51826
  5
51A30
331
5189A
  5
51AA4
331
519BF
  5
51BD9
331
519DE
  5
51BF8
331
519FD
  5
51C18
331
51901
  5
51B17
331
51865
  5
51A6F
331
51846
  5
51A50
331
5187C
  5
51A86
331
51560
  5
51728
331
51827
  5
51A31
331
5189B
  5
51AA5
331
519C0
  5
51BDA
331
519DF
  5
51BF9
331
519FE
  5
51C19
331
51902
  5
51B18
331
5189C
  5
51AA6
331
51866
  5
51A70
331
51847
  5
51A51
331
5187D
  5
51A87
331
519C1
  5
51BDB
331
519E0
  5
51BFA
331
519FF
  5
51C1A
331
51828
  5
51A32
331
51903
  5
51B19
331
518DC
  5
51AE6
331
5189D
  5
51AA7
331
51867
  5
51A71
331
5187E
  5
51A88
331
519C2
  5
51BDC
331
519E1
  5
51BFB
331
51A00
  5
51C1B
331
51829
  5
51A33
331
51848
  5
51A52
331
518DD
  5
51AE7
331
51904
  5
51B1A
331
5189E
  5
51AA8
331
5187F
  5
51A89
331
519C3
  5
51BDD
331
519E2
  5
51BFC
331
51A01
  5
51C1C
331
51849
  5
51A53
331
5182A
  5
51A34
331
514E8
  5
5169F
331
51905
  5
51B1B
331
51880
  5
51A8A
331
5189F
  5
51AA9
331
519C4
  5
51BDE
331
519E3
  5
51BFD
331
51A02
  5
51C1D
331
5184A
  5
51A54
331
5182B
  5
51A35
331
51906
  5
51B1C
331
519C5
  5
51BDF
331
519E4
  5
51BFE
331
51A03
  5
51C1E
331
51881
  5
51A8B
331
5184B
  5
51A55
331
5182C
  5
51A36
331
518A0
  5
51AAA
331
51907
  5
51B1D
331
519C6
  5
51BE0
331
519E5
  5
51BFF
331
51A04
  5
51C1F
331
51882
  5
51A8C
331
5182D
  5
51A37
331
5184C
  5
51A56
331
518A1
  5
51AAB
331
519C7
  5
51BE1
331
519E6
  5
51C00
331
51A05
  5
51C20
331
51883
  5
51A8D
331
518A2
  5
51AAC
331
5184D
  5
51A57
331
5182E
  5
51A38
331
519C8
  5
51BE2
331
519E7
  5
51C01
331
51A06
  5
51C21
331
518E2
  5
51AEC
331
51884
  5
51A8E
331
518A3
  5
51AAD
331
5184E
  5
51A58
331
5182F
  5
51A39
331
519C9
  5
51BE3
331
519E8
  5
51C02
331
51A07
  5
51C22
331
518E3
  5
51AED
331
51885
  5
51A8F
331
518A4
  5
51AAE
331
5184F
  5
51A59
331
519CA
  5
51BE4
331
519E9
  5
51C03
331
51A08
  5
51C23
331
518E4
  5
51AEE
331
51886
  5
51A90
331
518A5
  5
51AAF
331
519CB
  5
51BE5
331
519EA
  5
51C04
331
51A09
  5
51C24
331
518E5
  5
51AEF
331
51887
  5
51A91
331
518A6
  5
51AB0
331
51530
  5
516FB
331
519CC
  5
51BE6
331
519EB
  5
51C05
331
51A0A
  5
51C25
331
518A7
  5
51AB1
331
51531
  5
516FC
331
519CD
  5
51BE7
331
519EC
  5
51C06
331
51A0B
  5
51C26
331
518E7
  5
51AF1
331
51532
  5
516FD
331
519CE
  5
51BE8
331
519ED
  5
51C07
331
51A0C
  5
51C27
331
51533
  5
516FE
331
519CF
  5
51BE9
331
519EE
  5
51C08
331
51A0D
  5
51C28
331
51534
  5
516FF
331
519EF
  5
51C09
331
51535
  5
51700
331
51536
  5
51701
331
51537
  5
51702
331
51538
  5
51703
331
51539
  5
51704
331
5153A
  5
51705
331
5153B
  5
51706
331
5231A
  5
51AF0
331
5153C
  5
51707
331
522FB
  5
516EC
331
5233A
  5
51AB9
331
522FC
  5
516ED
331
5233B
  5
51AB8
331
522FD
  5
516EE
331
522FE
  5
516EF
331
522FF
  5
516F0
331
52300
  5
516F1
331
52301
  5
516F2
331
52302
  5
516F3
331
52303
  5
516F4
331
52304
  5
516F5
331
52305
  5
516F6
331
5154A
  5
51713
331
51830
  5
51A3A
331
52306
  5
516F7
331
5154B
  5
51714
331
51831
  5
51A3B
331
51850
  5
51A5A
331
52307
  5
516F8
331
5154C
  5
51715
331
51832
  5
51A3C
331
51851
  5
51A5B
331
51868
  5
51A72
331
52308
  5
516F9
331
51852
  5
51A5C
331
5154D
  5
51716
331
51833
  5
51A3D
331
51869
  5
51A73
331
51888
  5
51A92
331
52309
  5
516FA
331
518A8
  5
51AB2
331
51889
  5
51A93
331
51853
  5
51A5D
331
5154E
  5
51717
331
51834
  5
51A3E
331
5186A
  5
51A74
331
518E8
  5
51AF2
331
518A9
  5
51AB3
331
5188A
  5
51A94
331
51854
  5
51A5E
331
51835
  5
51A3F
331
5186B
  5
51A75
331
5154F
  5
51718
331
5171E
  5
5190F
  0
XRECORD
  5
52A11
102
{ACAD_REACTORS
330
52A10
102
}
330
52A10
100
AcDbXrecord
280
     1
 70
     1
  0
XRECORD
  5
52A12
102
{ACAD_REACTORS
330
52A10
102
}
330
52A10
100
AcDbXrecord
280
     1
340
2274C
  0
LAYOUT
  5
22
102
{ACAD_XDICTIONARY
360
22AE9
102
}
102
{ACAD_REACTORS
330
1A
102
}
330
1A
100
AcDbPlotSettings
  1

  2
Canon iPF600
  4
User4403
  6

 40
3.757083415985107
 41
3.757137775421142
 42
3.757080078125
 43
3.757080078125
 44
840.9939575195313
 45
593.97900390625
 46
-3.785768270522396
 47
-3.785734415075523
 48
0.0
 49
0.0
140
0.0
141
0.0
142
1.0
143
100.0
 70
 28324
 72
     1
 73
     0
 74
     1
  7
monochrome.ctb
 75
     0
147
0.0098725419741991
 76
     0
 77
     2
 78
   300
148
2.566332512709777
149
1.812605841332697
100
AcDbLayout
  1
Model
 70
     1
 71
     0
 10
0.0
 20
0.0
 11
12.0
 21
9.0
 12
0.0
 22
0.0
 32
0.0
 14
0.0
 24
0.0
 34
0.0
 15
0.0
 25
0.0
 35
0.0
146
0.0
 13
0.0
 23
0.0
 33
0.0
 16
1.0
 26
0.0
 36
0.0
 17
0.0
 27
1.0
 37
0.0
 76
     0
330
1F
331
1FF1E
1001
ACAD_PSEXT
1000
Canon iPF600
1000
Canon iPF600
1000
IP_10.81.100.201
1000

1070
     0
  0
LAYOUT
  5
525BB
102
{ACAD_REACTORS
330
1A
102
}
330
1A
100
AcDbPlotSettings
  1

  2
DWG To PDF.pc3
  4

  6

 40
0.0
 41
0.0
 42
0.0
 43
0.0
 44
0.0
 45
0.0
 46
0.0
 47
0.0
 48
0.0
 49
0.0
140
0.0
141
0.0
142
1.0
143
1.0
 70
   688
 72
     0
 73
     0
 74
     5
  7

 75
    16
147
1.0
 76
     0
 77
     2
 78
   300
148
0.0
149
0.0
100
AcDbLayout
  1
レイアウト1
 70
     1
 71
     1
 10
0.0
 20
0.0
 11
12.0
 21
9.0
 12
0.0
 22
0.0
 32
0.0
 14
0.0
 24
0.0
 34
0.0
 15
0.0
 25
0.0
 35
0.0
146
0.0
 13
0.0
 23
0.0
 33
0.0
 16
1.0
 26
0.0
 36
0.0
 17
0.0
 27
1.0
 37
0.0
 76
     0
330
525BA
  0
MATERIAL
  5
22735
102
{ACAD_XDICTIONARY
360
22736
102
}
102
{ACAD_REACTORS
330
2272C
102
}
330
2272C
100
AcDbMaterial
  1
ByBlock
 72
     0
 43
0.0008202099737533
 43
0.0
 43
0.0
 43
0.0
 43
0.0
 43
0.0008202099737533
 43
0.0
 43
0.0
 43
0.0
 43
0.0
 43
1.0
 43
0.0
 43
0.0
 43
0.0
 43
0.0
 43
1.0
 77
     0
 47
0.0008202099737533
 47
0.0
 47
0.0
 47
0.0
 47
0.0
 47
0.0008202099737533
 47
0.0
 47
0.0
 47
0.0
 47
0.0
 47
1.0
 47
0.0
 47
0.0
 47
0.0
 47
0.0
 47
1.0
171
     0
 49
0.0008202099737533
 49
0.0
 49
0.0
 49
0.0
 49
0.0
 49
0.0008202099737533
 49
0.0
 49
0.0
 49
0.0
 49
0.0
 49
1.0
 49
0.0
 49
0.0
 49
0.0
 49
0.0
 49
1.0
175
     0
142
0.0008202099737533
142
0.0
142
0.0
142
0.0
142
0.0
142
0.0008202099737533
142
0.0
142
0.0
142
0.0
142
0.0
142
1.0
142
0.0
142
0.0
142
0.0
142
0.0
142
1.0
179
     0
144
0.0008202099737533
144
0.0
144
0.0
144
0.0
144
0.0
144
0.0008202099737533
144
0.0
144
0.0
144
0.0
144
0.0
144
1.0
144
0.0
144
0.0
144
0.0
144
0.0
144
1.0
147
0.0008202099737533
147
0.0
147
0.0
147
0.0
147
0.0
147
0.0008202099737533
147
0.0
147
0.0
147
0.0
147
0.0
147
1.0
147
0.0
147
0.0
147
0.0
147
0.0
147
1.0
  0
MATERIAL
  5
2272D
102
{ACAD_XDICTIONARY
360
2272E
102
}
102
{ACAD_REACTORS
330
2272C
102
}
330
2272C
100
AcDbMaterial
  1
ByLayer
 72
     0
 43
0.0008202099737533
 43
0.0
 43
0.0
 43
0.0
 43
0.0
 43
0.0008202099737533
 43
0.0
 43
0.0
 43
0.0
 43
0.0
 43
1.0
 43
0.0
 43
0.0
 43
0.0
 43
0.0
 43
1.0
 77
     0
 47
0.0008202099737533
 47
0.0
 47
0.0
 47
0.0
 47
0.0
 47
0.0008202099737533
 47
0.0
 47
0.0
 47
0.0
 47
0.0
 47
1.0
 47
0.0
 47
0.0
 47
0.0
 47
0.0
 47
1.0
171
     0
 49
0.0008202099737533
 49
0.0
 49
0.0
 49
0.0
 49
0.0
 49
0.0008202099737533
 49
0.0
 49
0.0
 49
0.0
 49
0.0
 49
1.0
 49
0.0
 49
0.0
 49
0.0
 49
0.0
 49
1.0
175
     0
142
0.0008202099737533
142
0.0
142
0.0
142
0.0
142
0.0
142
0.0008202099737533
142
0.0
142
0.0
142
0.0
142
0.0
142
1.0
142
0.0
142
0.0
142
0.0
142
0.0
142
1.0
179
     0
144
0.0008202099737533
144
0.0
144
0.0
144
0.0
144
0.0
144
0.0008202099737533
144
0.0
144
0.0
144
0.0
144
0.0
144
1.0
144
0.0
144
0.0
144
0.0
144
0.0
144
1.0
147
0.0008202099737533
147
0.0
147
0.0
147
0.0
147
0.0
147
0.0008202099737533
147
0.0
147
0.0
147
0.0
147
0.0
147
1.0
147
0.0
147
0.0
147
0.0
147
0.0
147
1.0
  0
MATERIAL
  5
2273D
102
{ACAD_XDICTIONARY
360
2273E
102
}
102
{ACAD_REACTORS
330
2272C
102
}
330
2272C
100
AcDbMaterial
  1
Global
 72
     0
 43
0.0008202099737533
 43
0.0
 43
0.0
 43
0.0
 43
0.0
 43
0.0008202099737533
 43
0.0
 43
0.0
 43
0.0
 43
0.0
 43
1.0
 43
0.0
 43
0.0
 43
0.0
 43
0.0
 43
1.0
 77
     0
 47
0.0008202099737533
 47
0.0
 47
0.0
 47
0.0
 47
0.0
 47
0.0008202099737533
 47
0.0
 47
0.0
 47
0.0
 47
0.0
 47
1.0
 47
0.0
 47
0.0
 47
0.0
 47
0.0
 47
1.0
171
     0
 49
0.0008202099737533
 49
0.0
 49
0.0
 49
0.0
 49
0.0
 49
0.0008202099737533
 49
0.0
 49
0.0
 49
0.0
 49
0.0
 49
1.0
 49
0.0
 49
0.0
 49
0.0
 49
0.0
 49
1.0
175
     0
142
0.0008202099737533
142
0.0
142
0.0
142
0.0
142
0.0
142
0.0008202099737533
142
0.0
142
0.0
142
0.0
142
0.0
142
1.0
142
0.0
142
0.0
142
0.0
142
0.0
142
1.0
179
     0
144
0.0008202099737533
144
0.0
144
0.0
144
0.0
144
0.0
144
0.0008202099737533
144
0.0
144
0.0
144
0.0
144
0.0
144
1.0
144
0.0
144
0.0
144
0.0
144
0.0
144
1.0
147
0.0008202099737533
147
0.0
147
0.0
147
0.0
147
0.0
147
0.0008202099737533
147
0.0
147
0.0
147
0.0
147
0.0
147
1.0
147
0.0
147
0.0
147
0.0
147
0.0
147
1.0
  0
MLEADERSTYLE
  5
2276C
102
{ACAD_XDICTIONARY
360
52A0D
102
}
102
{ACAD_REACTORS
330
2276B
102
}
330
2276B
100
AcDbMLeaderStyle
170
     2
171
     1
172
     0
 90
        2
 40
0.0
 41
0.0
173
     1
 91
-1056964608
340
14
 92
       -2
290
     1
 42
2.0
291
     1
 43
0.36
  3
Standard
 44
4.0
300

342
11
174
     1
178
     6
175
     1
176
     0
 93
-1056964608
 45
4.0
292
     0
297
     0
 46
4.0
 94
-1056964608
 47
1.0
 49
1.0
140
1.0
293
     1
141
0.0
294
     1
177
     0
142
1.0
295
     0
296
     0
143
0.125
1001
ACAD_MLEADERVER
1070
     2
  0
MLINESTYLE
  5
18
102
{ACAD_REACTORS
330
17
102
}
330
17
100
AcDbMlineStyle
  2
STANDARD
 70
     0
  3

 62
   256
 51
90.0
 52
90.0
 71
     2
 49
0.5
 62
   256
  6
BYLAYER
 49
-0.5
 62
   256
  6
BYLAYER
  0
PLOTSETTINGS
  5
2288E
102
{ACAD_REACTORS
330
19
102
}
330
19
100
AcDbPlotSettings
  1
A1横-DocuWide 2051 MF-RT
  2
DocuWide 2051 MF-RT
  4
User151
  6

 40
3.174999952316284
 41
3.174999952316284
 42
3.17498779296875
 43
3.17498779296875
 44
593.97900390625
 45
840.9939575195313
 46
0.0
 47
0.0
 48
0.0
 49
0.0
140
0.0
141
0.0
142
1.0
143
1.0
 70
  2736
 72
     1
 73
     1
 74
     5
  7
monochrome.ctb
 75
    16
147
1.0
 76
     0
 77
     2
 78
   300
148
17.0220485445252
149
5.136853987673248
1001
ACAD_PSEXT
1000
DocuWide 2051 MF-RT
1000
FX DocuWide 2050/2051
1000
10.100.200.210:plt00t
1000

1070
     0
  0
PLOTSETTINGS
  5
4BB79
102
{ACAD_REACTORS
330
19
102
}
330
19
100
AcDbPlotSettings
  1
A1横-PDF_COR
  2
DWG To PDF.pc3
  4
ISO_full_bleed_A1_(841.00_x_594.00_MM)
  6

 40
0.7937499880790711
 41
0.7937499880790711
 42
0.79376220703125
 43
0.79376220703125
 44
841.0
 45
594.0
 46
0.0
 47
0.0
 48
0.0
 49
0.0
140
0.0
141
0.0
142
1.0
143
1.0
 70
  2736
 72
     1
 73
     0
 74
     5
  7
acad.ctb
 75
    16
147
1.0
 76
     0
 77
     2
 78
   300
148
17.0220485445252
149
5.136853987673248
1001
ACAD_PSEXT
1000
DWG To PDF.pc3
1000
DWG To PDF
1000
ファイル
1000

1070
     0
  0
PLOTSETTINGS
  5
4BB70
102
{ACAD_REACTORS
330
19
102
}
330
19
100
AcDbPlotSettings
  1
A1横-PDF_MONO
  2
DWG To PDF.pc3
  4
ISO_full_bleed_A1_(841.00_x_594.00_MM)
  6

 40
0.7937499880790711
 41
0.7937499880790711
 42
0.79376220703125
 43
0.79376220703125
 44
841.0
 45
594.0
 46
0.0
 47
0.0
 48
0.0
 49
0.0
140
0.0
141
0.0
142
1.0
143
1.0
 70
  2736
 72
     1
 73
     0
 74
     5
  7
monochrome.ctb
 75
    16
147
1.0
 76
     0
 77
     2
 78
   300
148
17.0220485445252
149
5.136853987673248
1001
ACAD_PSEXT
1000
DWG To PDF.pc3
1000
DWG To PDF
1000
ファイル
1000

1070
     0
  0
PLOTSETTINGS
  5
228A9
102
{ACAD_REACTORS
330
19
102
}
330
19
100
AcDbPlotSettings
  1
A2横-DocuWide 2051 MF-RT
  2
DocuWide 2051 MF-RT
  4
User66
  6

 40
3.174999952316284
 41
3.174999952316284
 42
3.17498779296875
 43
3.17498779296875
 44
419.9889831542968
 45
593.97900390625
 46
0.0
 47
0.0
 48
0.0
 49
0.0
140
0.0
141
0.0
142
1.0
143
1.0
 70
  2736
 72
     1
 73
     1
 74
     5
  7
monochrome.ctb
 75
    16
147
1.0
 76
     0
 77
     2
 78
   300
148
-968.6464465543492
149
-10.13499988433659
1001
ACAD_PSEXT
1000
DocuWide 2051 MF-RT
1000
FX DocuWide 2050/2051
1000
10.100.200.210:plt00t
1000

1070
     0
  0
PLOTSETTINGS
  5
2883A
102
{ACAD_REACTORS
330
19
102
}
330
19
100
AcDbPlotSettings
  1
A3横-DocuCentre C4535Ⅰ②
  2
DocuCentre C4535 I ②
  4
A3
  6

 40
4.857749938964843
 41
4.942420959472656
 42
4.9423828125
 43
4.857757568359375
 44
297.0106506347656
 45
420.0313415527343
 46
0.0
 47
0.0
 48
0.0
 49
0.0
140
0.0
141
0.0
142
1.0
143
2.0
 70
  2720
 72
     1
 73
     1
 74
     5
  7
monochrome.ctb
 75
     0
147
0.4835020742459363
 76
     0
 77
     2
 78
   300
148
17.0220485445252
149
5.136853987673248
1001
ACAD_PSEXT
1000
DocuCentre C4535 I ②
1000
FX DocuCentre C4535 I
1000
10.100.200.205
1000

1070
     0
  0
PLOTSETTINGS
  5
4BB56
102
{ACAD_REACTORS
330
19
102
}
330
19
100
AcDbPlotSettings
  1
A3横-DocuCentre C4535Ⅰ②_cor
  2
DocuCentre C4535 I ②
  4
A3
  6

 40
4.857749938964843
 41
4.942420959472656
 42
4.9423828125
 43
4.857757568359375
 44
297.0106506347656
 45
420.0313415527343
 46
0.0
 47
0.0
 48
0.0
 49
0.0
140
0.0
141
0.0
142
1.0
143
2.0
 70
  2720
 72
     1
 73
     1
 74
     5
  7
acad.ctb
 75
     0
147
0.4835020742459363
 76
     0
 77
     2
 78
   300
148
17.0220485445252
149
5.136853987673248
1001
ACAD_PSEXT
1000
DocuCentre C4535 I ②
1000
FX DocuCentre C4535 I
1000
10.100.200.205
1000

1070
     0
  0
PLOTSETTINGS
  5
228B2
102
{ACAD_REACTORS
330
19
102
}
330
19
100
AcDbPlotSettings
  1
A4横-DocuCentre C4535Ⅰ②
  2
DocuCentre C4535 I ②
  4
A4
  6

 40
4.857749938964843
 41
4.942390441894531
 42
4.942413330078125
 43
4.857757568359375
 44
209.9733276367187
 45
297.0106506347656
 46
0.0
 47
0.0
 48
0.0
 49
0.0
140
0.0
141
0.0
142
1.0
143
2.0
 70
  2720
 72
     1
 73
     1
 74
     5
  7
monochrome.ctb
 75
    16
147
1.0
 76
     0
 77
     2
 78
   300
148
-965.432603393638
149
-6.955950538279239
1001
ACAD_PSEXT
1000
DocuCentre C4535 I ②
1000
FX DocuCentre C4535 I
1000
10.100.200.205
1000

1070
     0
  0
PLOTSETTINGS
  5
4BB5F
102
{ACAD_REACTORS
330
19
102
}
330
19
100
AcDbPlotSettings
  1
A4横-DocuCentre C4535Ⅰ②_cor
  2
DocuCentre C4535 I ②
  4
A4
  6

 40
4.857749938964843
 41
4.942390441894531
 42
4.942413330078125
 43
4.857757568359375
 44
209.9733276367187
 45
297.0106506347656
 46
0.0
 47
0.0
 48
0.0
 49
0.0
140
0.0
141
0.0
142
1.0
143
2.0
 70
  2720
 72
     1
 73
     1
 74
     5
  7
acad.ctb
 75
    16
147
1.0
 76
     0
 77
     2
 78
   300
148
-965.432603393638
149
-6.955950538279239
1001
ACAD_PSEXT
1000
DocuCentre C4535 I ②
1000
FX DocuCentre C4535 I
1000
10.100.200.205
1000

1070
     0
  0
ACDBPLACEHOLDER
  5
F
102
{ACAD_REACTORS
330
E
102
}
330
E
  0
SCALE
  5
2275A
102
{ACAD_REACTORS
330
22759
102
}
330
22759
100
AcDbScale
 70
     0
300
1:1
140
1.0
141
1.0
290
     1
  0
SCALE
  5
22924
102
{ACAD_REACTORS
330
22759
102
}
330
22759
100
AcDbScale
 70
     0
300
1:3
140
1.0
141
3.0
290
     0
  0
SCALE
  5
22925
102
{ACAD_REACTORS
330
22759
102
}
330
22759
100
AcDbScale
 70
     0
300
1:60
140
1.0
141
60.0
290
     0
  0
SCALE
  5
22926
102
{ACAD_REACTORS
330
22759
102
}
330
22759
100
AcDbScale
 70
     0
300
1:150
140
1.0
141
150.0
290
     0
  0
SCALE
  5
22927
102
{ACAD_REACTORS
330
22759
102
}
330
22759
100
AcDbScale
 70
     0
300
1:125
140
1.0
141
125.0
290
     0
  0
SCALE
  5
22928
102
{ACAD_REACTORS
330
22759
102
}
330
22759
100
AcDbScale
 70
     0
300
1:2
140
1.0
141
2.0
290
     0
  0
SCALE
  5
22929
102
{ACAD_REACTORS
330
22759
102
}
330
22759
100
AcDbScale
 70
     0
300
1:4
140
1.0
141
4.0
290
     0
  0
SCALE
  5
2292A
102
{ACAD_REACTORS
330
22759
102
}
330
22759
100
AcDbScale
 70
     0
300
1:5
140
1.0
141
5.0
290
     0
  0
SCALE
  5
2292B
102
{ACAD_REACTORS
330
22759
102
}
330
22759
100
AcDbScale
 70
     0
300
1:8
140
1.0
141
8.0
290
     0
  0
SCALE
  5
2292C
102
{ACAD_REACTORS
330
22759
102
}
330
22759
100
AcDbScale
 70
     0
300
1:10
140
1.0
141
10.0
290
     0
  0
SCALE
  5
2292D
102
{ACAD_REACTORS
330
22759
102
}
330
22759
100
AcDbScale
 70
     0
300
1:16
140
1.0
141
16.0
290
     0
  0
SCALE
  5
2292E
102
{ACAD_REACTORS
330
22759
102
}
330
22759
100
AcDbScale
 70
     0
300
1:20
140
1.0
141
20.0
290
     0
  0
SCALE
  5
2292F
102
{ACAD_REACTORS
330
22759
102
}
330
22759
100
AcDbScale
 70
     0
300
1:30
140
1.0
141
30.0
290
     0
  0
SCALE
  5
22930
102
{ACAD_REACTORS
330
22759
102
}
330
22759
100
AcDbScale
 70
     0
300
1:40
140
1.0
141
40.0
290
     0
  0
SCALE
  5
22931
102
{ACAD_REACTORS
330
22759
102
}
330
22759
100
AcDbScale
 70
     0
300
1:50
140
1.0
141
50.0
290
     0
  0
SCALE
  5
22765
102
{ACAD_REACTORS
330
22759
102
}
330
22759
100
AcDbScale
 70
     0
300
1:100
140
1.0
141
100.0
290
     0
  0
SCALE
  5
22932
102
{ACAD_REACTORS
330
22759
102
}
330
22759
100
AcDbScale
 70
     0
300
2:1
140
2.0
141
1.0
290
     0
  0
SCALE
  5
22933
102
{ACAD_REACTORS
330
22759
102
}
330
22759
100
AcDbScale
 70
     0
300
4:1
140
4.0
141
1.0
290
     0
  0
SCALE
  5
22934
102
{ACAD_REACTORS
330
22759
102
}
330
22759
100
AcDbScale
 70
     0
300
8:1
140
8.0
141
1.0
290
     0
  0
SCALE
  5
22935
102
{ACAD_REACTORS
330
22759
102
}
330
22759
100
AcDbScale
 70
     0
300
10:1
140
10.0
141
1.0
290
     0
  0
SCALE
  5
22936
102
{ACAD_REACTORS
330
22759
102
}
330
22759
100
AcDbScale
 70
     0
300
100:1
140
100.0
141
1.0
290
     0
  0
TABLESTYLE
  5
22758
102
{ACAD_XDICTIONARY
360
22803
102
}
102
{ACAD_REACTORS
330
22757
102
}
330
22757
100
AcDbTableStyle
  3
Standard
 70
     0
 71
     0
 40
1.5
 41
1.5
280
     0
281
     0
  7
Standard
140
4.5
170
     2
 62
     0
 63
     7
283
     0
274
    -2
284
     1
 64
     0
275
    -2
285
     1
 65
     0
276
    -2
286
     1
 66
     0
277
    -2
287
     1
 67
     0
278
    -2
288
     1
 68
     0
279
    -2
289
     1
 69
     0
  7
Standard
140
6.0
170
     5
 62
     0
 63
     7
283
     0
274
    -2
284
     1
 64
     0
275
    -2
285
     1
 65
     0
276
    -2
286
     1
 66
     0
277
    -2
287
     1
 67
     0
278
    -2
288
     1
 68
     0
279
    -2
289
     1
 69
     0
  7
Standard
140
4.5
170
     5
 62
     0
 63
     7
283
     0
274
    -2
284
     1
 64
     0
275
    -2
285
     1
 65
     0
276
    -2
286
     1
 66
     0
277
    -2
287
     1
 67
     0
278
    -2
288
     1
 68
     0
279
    -2
289
     1
 69
     0
  0
VISUALSTYLE
  5
2274B
102
{ACAD_XDICTIONARY
360
52A20
102
}
102
{ACAD_REACTORS
330
22745
102
}
330
22745
100
AcDbVisualStyle
  2
2dWireframe
 70
     4
 71
     0
 72
     2
 73
     0
 90
        0
 40
-0.6
 41
-30.0
 62
     5
 63
     7
421
 16777215
 74
     1
 91
        4
 64
     7
 65
   257
 75
     1
175
     1
 42
1.0
 92
        0
 66
   257
 43
1.0
 76
     1
 77
     6
 78
     2
 67
     7
 79
     5
170
     0
171
     0
290
     0
174
     0
 93
        1
 44
0.0
173
     0
291
     0
 45
0.0
1001
ACAD
1000
AcDbSavedByObjectVersion
1070
     0
  0
VISUALSTYLE
  5
2274D
102
{ACAD_XDICTIONARY
360
52A24
102
}
102
{ACAD_REACTORS
330
22745
102
}
330
22745
100
AcDbVisualStyle
  2
3D Hidden
 70
     6
 71
     1
 72
     2
 73
     2
 90
        0
 40
-0.6
 41
-30.0
 62
     5
 63
     7
421
 16777215
 74
     2
 91
        2
 64
     7
 65
   257
 75
     2
175
     1
 42
40.0
 92
        0
 66
   257
 43
1.0
 76
     1
 77
     6
 78
     2
 67
     7
 79
     3
170
     0
171
     0
290
     0
174
     0
 93
        1
 44
0.0
173
     0
291
     0
 45
0.0
1001
ACAD
1000
AcDbSavedByObjectVersion
1070
     0
  0
VISUALSTYLE
  5
2274C
102
{ACAD_XDICTIONARY
360
52A22
102
}
102
{ACAD_REACTORS
330
22745
102
}
330
22745
100
AcDbVisualStyle
  2
3dWireframe
 70
     5
 71
     0
 72
     2
 73
     0
 90
        0
 40
-0.6
 41
-30.0
 62
     5
 63
     7
421
 16777215
 74
     1
 91
        4
 64
     7
 65
   257
 75
     1
175
     1
 42
1.0
 92
        0
 66
   257
 43
1.0
 76
     1
 77
     6
 78
     2
 67
     7
 79
     5
170
     0
171
     0
290
     0
174
     0
 93
        1
 44
0.0
173
     0
291
     0
 45
0.0
1001
ACAD
1000
AcDbSavedByObjectVersion
1070
     0
  0
VISUALSTYLE
  5
2274A
102
{ACAD_XDICTIONARY
360
52A1E
102
}
102
{ACAD_REACTORS
330
22745
102
}
330
22745
100
AcDbVisualStyle
  2
Basic
 70
     7
 71
     1
 72
     0
 73
     1
 90
        0
 40
-0.6
 41
-30.0
 62
     5
 63
     7
421
 16777215
 74
     0
 91
        4
 64
     7
 65
   257
 75
     1
175
     1
 42
1.0
 92
        8
 66
     7
 43
1.0
 76
     1
 77
     6
 78
     2
 67
     7
 79
     5
170
     0
171
     0
290
     0
174
     0
 93
        1
 44
0.0
173
     0
291
     1
 45
0.0
1001
ACAD
1000
AcDbSavedByObjectVersion
1070
     0
  0
VISUALSTYLE
  5
22751
102
{ACAD_XDICTIONARY
360
52A2C
102
}
102
{ACAD_REACTORS
330
22745
102
}
330
22745
100
AcDbVisualStyle
  2
Brighten
 70
    12
 71
     2
 72
     2
 73
     0
 90
        0
 40
-0.6
 41
-30.0
 62
     5
 63
     7
421
 16777215
 74
     1
 91
        4
 64
     7
 65
   257
 75
     1
175
     1
 42
1.0
 92
        8
 66
     7
 43
1.0
 76
     1
 77
     6
 78
     2
 67
     7
 79
     5
170
     0
171
     0
290
     0
174
     0
 93
        1
 44
50.0
173
     0
291
     1
 45
0.0
1001
ACAD
1000
AcDbSavedByObjectVersion
1070
     0
  0
VISUALSTYLE
  5
22755
102
{ACAD_XDICTIONARY
360
52A34
102
}
102
{ACAD_REACTORS
330
22745
102
}
330
22745
100
AcDbVisualStyle
  2
ColorChange
 70
    16
 71
     2
 72
     2
 73
     3
 90
        0
 40
-0.6
 41
-30.0
 62
     5
 63
     8
421
  8421504
 74
     1
 91
        4
 64
     7
 65
   257
 75
     1
175
     1
 42
1.0
 92
        8
 66
     8
424
  8421504
 43
1.0
 76
     1
 77
     6
 78
     2
 67
     7
 79
     5
170
     0
171
     0
290
     0
174
     0
 93
        1
 44
0.0
173
     0
291
     1
 45
0.0
1001
ACAD
1000
AcDbSavedByObjectVersion
1070
     0
  0
VISUALSTYLE
  5
2274E
102
{ACAD_XDICTIONARY
360
52A26
102
}
102
{ACAD_REACTORS
330
22745
102
}
330
22745
100
AcDbVisualStyle
  2
Conceptual
 70
     9
 71
     3
 72
     2
 73
     0
 90
        0
 40
-0.6
 41
-30.0
 62
     5
 63
     7
421
 16777215
 74
     2
 91
        2
 64
     7
 65
   257
 75
     1
175
     1
 42
40.0
 92
        8
 66
     7
 43
1.0
 76
     1
 77
     6
 78
     2
 67
     7
 79
     3
170
     0
171
     0
290
     0
174
     0
 93
        1
 44
0.0
173
     0
291
     0
 45
0.0
1001
ACAD
1000
AcDbSavedByObjectVersion
1070
     0
  0
VISUALSTYLE
  5
22750
102
{ACAD_XDICTIONARY
360
52A2A
102
}
102
{ACAD_REACTORS
330
22745
102
}
330
22745
100
AcDbVisualStyle
  2
Dim
 70
    11
 71
     2
 72
     2
 73
     0
 90
        0
 40
-0.6
 41
-30.0
 62
     5
 63
     7
421
 16777215
 74
     1
 91
        4
 64
     7
 65
   257
 75
     1
175
     1
 42
1.0
 92
        8
 66
     7
 43
1.0
 76
     1
 77
     6
 78
     2
 67
     7
 79
     5
170
     0
171
     0
290
     0
174
     0
 93
        1
 44
-50.0
173
     0
291
     1
 45
0.0
1001
ACAD
1000
AcDbSavedByObjectVersion
1070
     0
  0
VISUALSTYLE
  5
22A03
102
{ACAD_XDICTIONARY
360
52A49
102
}
102
{ACAD_REACTORS
330
22745
102
}
330
22745
100
AcDbVisualStyle
  2
EdgeColorOff
 70
    22
 71
     2
 72
     2
 73
     0
 90
        0
 40
-0.6
 41
-30.0
 62
     5
 63
     7
421
 16777215
 74
     1
 91
        4
 64
     7
 65
   257
 75
     1
175
     1
 42
1.0
 92
        8
 66
     7
 43
1.0
 76
     1
 77
     6
 78
     2
 67
     7
 79
     5
170
     0
171
     0
290
     0
174
     0
 93
        1
 44
0.0
173
     0
291
     1
 45
0.0
1001
ACAD
1000
AcDbSavedByObjectVersion
1070
     0
  0
VISUALSTYLE
  5
22754
102
{ACAD_XDICTIONARY
360
52A32
102
}
102
{ACAD_REACTORS
330
22745
102
}
330
22745
100
AcDbVisualStyle
  2
Facepattern
 70
    15
 71
     2
 72
     2
 73
     0
 90
        0
 40
-0.6
 41
-30.0
 62
     5
 63
     7
421
 16777215
 74
     1
 91
        4
 64
     7
 65
   257
 75
     1
175
     1
 42
1.0
 92
        8
 66
     7
 43
1.0
 76
     1
 77
     6
 78
     2
 67
     7
 79
     5
170
     0
171
     0
290
     0
174
     0
 93
        1
 44
0.0
173
     0
291
     1
 45
0.0
1001
ACAD
1000
AcDbSavedByObjectVersion
1070
     0
  0
VISUALSTYLE
  5
22746
102
{ACAD_XDICTIONARY
360
52A16
102
}
102
{ACAD_REACTORS
330
22745
102
}
330
22745
100
AcDbVisualStyle
  2
Flat
 70
     0
 71
     2
 72
     1
 73
     1
 90
        2
 40
-0.6
 41
30.0
 62
     5
 63
     7
421
 16777215
 74
     0
 91
        4
 64
     7
 65
   257
 75
     1
175
     1
 42
1.0
 92
        8
 66
     7
 43
1.0
 76
     1
 77
     6
 78
     2
 67
     7
 79
     5
170
     0
171
     0
290
     0
174
     0
 93
       13
 44
0.0
173
     0
291
     1
 45
0.0
1001
ACAD
1000
AcDbSavedByObjectVersion
1070
     0
  0
VISUALSTYLE
  5
22747
102
{ACAD_XDICTIONARY
360
52A18
102
}
102
{ACAD_REACTORS
330
22745
102
}
330
22745
100
AcDbVisualStyle
  2
FlatWithEdges
 70
     1
 71
     2
 72
     1
 73
     1
 90
        2
 40
-0.6
 41
30.0
 62
     5
 63
     7
421
 16777215
 74
     1
 91
        4
 64
     7
 65
   257
 75
     1
175
     1
 42
1.0
 92
        0
 66
   257
 43
1.0
 76
     1
 77
     6
 78
     2
 67
     7
 79
     5
170
     0
171
     0
290
     0
174
     0
 93
       13
 44
0.0
173
     0
291
     1
 45
0.0
1001
ACAD
1000
AcDbSavedByObjectVersion
1070
     0
  0
VISUALSTYLE
  5
22748
102
{ACAD_XDICTIONARY
360
52A1A
102
}
102
{ACAD_REACTORS
330
22745
102
}
330
22745
100
AcDbVisualStyle
  2
Gouraud
 70
     2
 71
     2
 72
     2
 73
     1
 90
        2
 40
-0.6
 41
30.0
 62
     5
 63
     7
421
 16777215
 74
     0
 91
        4
 64
     7
 65
   257
 75
     1
175
     1
 42
1.0
 92
        0
 66
     7
 43
1.0
 76
     1
 77
     6
 78
     2
 67
     7
 79
     5
170
     0
171
     0
290
     0
174
     0
 93
       13
 44
0.0
173
     0
291
     1
 45
0.0
1001
ACAD
1000
AcDbSavedByObjectVersion
1070
     0
  0
VISUALSTYLE
  5
22749
102
{ACAD_XDICTIONARY
360
52A1C
102
}
102
{ACAD_REACTORS
330
22745
102
}
330
22745
100
AcDbVisualStyle
  2
GouraudWithEdges
 70
     3
 71
     2
 72
     2
 73
     1
 90
        2
 40
-0.6
 41
30.0
 62
     5
 63
     7
421
 16777215
 74
     1
 91
        4
 64
     7
 65
   257
 75
     1
175
     1
 42
1.0
 92
        0
 66
   257
 43
1.0
 76
     1
 77
     6
 78
     2
 67
     7
 79
     5
170
     0
171
     0
290
     0
174
     0
 93
       13
 44
0.0
173
     0
291
     1
 45
0.0
1001
ACAD
1000
AcDbSavedByObjectVersion
1070
     0
  0
VISUALSTYLE
  5
229FB
102
{ACAD_XDICTIONARY
360
52A39
102
}
102
{ACAD_REACTORS
330
22745
102
}
330
22745
100
AcDbVisualStyle
  2
Hidden
 70
     6
 71
     1
 72
     2
 73
     2
 90
        0
 40
-0.6
 41
-30.0
 62
     5
 63
     7
421
 16777215
 74
     2
 91
        2
 64
     7
 65
   257
 75
     2
175
     1
 42
40.0
 92
        0
 66
   257
 43
1.0
 76
     1
 77
     6
 78
     2
 67
     7
 79
     3
170
     0
171
     0
290
     0
174
     0
 93
        1
 44
0.0
173
     0
291
     0
 45
0.0
1001
ACAD
1000
AcDbSavedByObjectVersion
1070
     0
  0
VISUALSTYLE
  5
22A01
102
{ACAD_XDICTIONARY
360
52A45
102
}
102
{ACAD_REACTORS
330
22745
102
}
330
22745
100
AcDbVisualStyle
  2
JitterOff
 70
    20
 71
     2
 72
     2
 73
     0
 90
        0
 40
-0.6
 41
-30.0
 62
     5
 63
     7
421
 16777215
 74
     1
 91
        4
 64
     7
 65
   257
 75
     1
175
     1
 42
1.0
 92
       10
 66
     7
 43
1.0
 76
     1
 77
     6
 78
     2
 67
     7
 79
     5
170
     0
171
     0
290
     0
174
     0
 93
        1
 44
0.0
173
     0
291
     1
 45
0.0
1001
ACAD
1000
AcDbSavedByObjectVersion
1070
     0
  0
VISUALSTYLE
  5
22753
102
{ACAD_XDICTIONARY
360
52A30
102
}
102
{ACAD_REACTORS
330
22745
102
}
330
22745
100
AcDbVisualStyle
  2
Linepattern
 70
    14
 71
     2
 72
     2
 73
     0
 90
        0
 40
-0.6
 41
-30.0
 62
     5
 63
     7
421
 16777215
 74
     1
 91
        4
 64
     7
 65
   257
 75
     7
175
     7
 42
1.0
 92
        8
 66
     7
 43
1.0
 76
     1
 77
     6
 78
     2
 67
     7
 79
     5
170
     0
171
     0
290
     0
174
     0
 93
        1
 44
0.0
173
     0
291
     1
 45
0.0
1001
ACAD
1000
AcDbSavedByObjectVersion
1070
     0
  0
VISUALSTYLE
  5
22A02
102
{ACAD_XDICTIONARY
360
52A47
102
}
102
{ACAD_REACTORS
330
22745
102
}
330
22745
100
AcDbVisualStyle
  2
OverhangOff
 70
    21
 71
     2
 72
     2
 73
     0
 90
        0
 40
-0.6
 41
-30.0
 62
     5
 63
     7
421
 16777215
 74
     1
 91
        4
 64
     7
 65
   257
 75
     1
175
     1
 42
1.0
 92
        9
 66
     7
 43
1.0
 76
     1
 77
     6
 78
     2
 67
     7
 79
     5
170
     0
171
     0
290
     0
174
     0
 93
        1
 44
0.0
173
     0
291
     1
 45
0.0
1001
ACAD
1000
AcDbSavedByObjectVersion
1070
     0
  0
VISUALSTYLE
  5
2274F
102
{ACAD_XDICTIONARY
360
52A28
102
}
102
{ACAD_REACTORS
330
22745
102
}
330
22745
100
AcDbVisualStyle
  2
Realistic
 70
     8
 71
     2
 72
     2
 73
     0
 90
        0
 40
-0.6
 41
-30.0
 62
     5
 63
     7
421
 16777215
 74
     1
 91
        0
 64
     7
 65
   257
 75
     1
175
     1
 42
1.0
 92
        8
 66
     8
424
  7895160
 43
1.0
 76
     1
 77
     6
 78
     2
 67
     7
 79
     5
170
     0
171
     0
290
     0
174
     0
 93
       13
 44
0.0
173
     0
291
     0
 45
0.0
1001
ACAD
1000
AcDbSavedByObjectVersion
1070
     0
  0
VISUALSTYLE
  5
22A00
102
{ACAD_XDICTIONARY
360
52A43
102
}
102
{ACAD_REACTORS
330
22745
102
}
330
22745
100
AcDbVisualStyle
  2
Shaded
 70
    27
 71
     2
 72
     2
 73
     1
 90
        2
 40
-0.6
 41
30.0
 62
     5
 63
     7
421
 16777215
 74
     0
 91
        4
 64
     7
 65
   257
 75
     1
175
     1
 42
1.0
 92
        8
 66
   257
 43
1.0
 76
     1
 77
     6
 78
     2
 67
     8
425
  7895160
 79
     3
170
     0
171
     0
290
     0
174
     0
 93
        5
 44
0.0
173
     0
291
     0
 45
0.0
1001
ACAD
1000
AcDbSavedByObjectVersion
1070
     0
  0
VISUALSTYLE
  5
229FF
102
{ACAD_XDICTIONARY
360
52A41
102
}
102
{ACAD_REACTORS
330
22745
102
}
330
22745
100
AcDbVisualStyle
  2
Shaded with edges
 70
    26
 71
     2
 72
     2
 73
     1
 90
        2
 40
-0.6
 41
30.0
 62
     5
 63
     7
421
 16777215
 74
     1
 91
       10
 64
     7
 65
   257
 75
     2
175
     1
 42
1.0
 92
        8
 66
   257
 43
1.0
 76
     1
 77
     6
 78
     2
 67
     7
 79
     3
170
     0
171
     0
290
     0
174
     0
 93
        5
 44
0.0
173
     0
291
     0
 45
0.0
1001
ACAD
1000
AcDbSavedByObjectVersion
1070
     0
  0
VISUALSTYLE
  5
229FC
102
{ACAD_XDICTIONARY
360
52A3B
102
}
102
{ACAD_REACTORS
330
22745
102
}
330
22745
100
AcDbVisualStyle
  2
Shades of Gray
 70
    23
 71
     2
 72
     2
 73
     3
 90
        0
 40
-0.6
 41
-30.0
 62
     5
 63
     7
421
 16777215
 74
     2
 91
        2
 64
     7
 65
     7
 75
     1
175
     1
 42
40.0
 92
        8
 66
     7
 43
1.0
 76
     1
 77
     6
 78
     2
 67
     7
 79
     3
170
     0
171
     0
290
     0
174
     0
 93
        1
 44
0.0
173
     0
291
     0
 45
0.0
1001
ACAD
1000
AcDbSavedByObjectVersion
1070
     0
  0
VISUALSTYLE
  5
229FD
102
{ACAD_XDICTIONARY
360
52A3D
102
}
102
{ACAD_REACTORS
330
22745
102
}
330
22745
100
AcDbVisualStyle
  2
Sketchy
 70
    24
 71
     1
 72
     2
 73
     2
 90
        0
 40
-0.6
 41
-30.0
 62
     5
 63
     7
421
 16777215
 74
     2
 91
        2
 64
     7
 65
     7
 75
     1
175
     1
 42
40.0
 92
       11
 66
     7
 43
1.0
 76
     1
 77
     6
 78
     2
 67
     7
 79
     6
170
     0
171
     0
290
     0
174
     0
 93
        1
 44
0.0
173
     0
291
     0
 45
0.0
1001
ACAD
1000
AcDbSavedByObjectVersion
1070
     0
  0
VISUALSTYLE
  5
22752
102
{ACAD_XDICTIONARY
360
52A2E
102
}
102
{ACAD_REACTORS
330
22745
102
}
330
22745
100
AcDbVisualStyle
  2
Thicken
 70
    13
 71
     2
 72
     2
 73
     0
 90
        0
 40
-0.6
 41
-30.0
 62
     5
 63
     7
421
 16777215
 74
     1
 91
        4
 64
     7
 65
   257
 75
     1
175
     1
 42
1.0
 92
       12
 66
     7
 43
1.0
 76
     1
 77
     6
 78
     2
 67
     7
 79
     5
170
     0
171
     0
290
     0
174
     0
 93
        1
 44
0.0
173
     0
291
     1
 45
0.0
1001
ACAD
1000
AcDbSavedByObjectVersion
1070
     0
  0
VISUALSTYLE
  5
229FA
102
{ACAD_XDICTIONARY
360
52A37
102
}
102
{ACAD_REACTORS
330
22745
102
}
330
22745
100
AcDbVisualStyle
  2
Wireframe
 70
     5
 71
     0
 72
     2
 73
     0
 90
        0
 40
-0.6
 41
-30.0
 62
     5
 63
     7
421
 16777215
 74
     1
 91
        4
 64
     7
 65
   257
 75
     1
175
     1
 42
1.0
 92
        0
 66
   257
 43
1.0
 76
     1
 77
     6
 78
     2
 67
     7
 79
     3
170
     0
171
     0
290
     0
174
     0
 93
        1
 44
0.0
173
     0
291
     0
 45
0.0
1001
ACAD
1000
AcDbSavedByObjectVersion
1070
     0
  0
VISUALSTYLE
  5
229FE
102
{ACAD_XDICTIONARY
360
52A3F
102
}
102
{ACAD_REACTORS
330
22745
102
}
330
22745
100
AcDbVisualStyle
  2
X-Ray
 70
    25
 71
     2
 72
     2
 73
     1
 90
        1
 40
0.5
 41
-30.0
 62
     5
 63
     7
421
 16777215
 74
     1
 91
        0
 64
     7
 65
   257
 75
     1
175
     1
 42
1.0
 92
        8
 66
     7
 43
1.0
 76
     1
 77
     6
 78
     2
 67
     7
 79
     3
170
     0
171
     0
290
     0
174
     0
 93
       13
 44
0.0
173
     0
291
     0
 45
0.0
1001
ACAD
1000
AcDbSavedByObjectVersion
1070
     0
  0
DICTIONARYVAR
  5
22809
102
{ACAD_REACTORS
330
173D
102
}
330
173D
100
DictionaryVariables
280
     0
  1
1:1
  0
DICTIONARYVAR
  5
22807
102
{ACAD_REACTORS
330
173D
102
}
330
173D
100
DictionaryVariables
280
     0
  1
STANDARD
  0
DICTIONARYVAR
  5
22806
102
{ACAD_REACTORS
330
173D
102
}
330
173D
100
DictionaryVariables
280
     0
  1
STANDARD
  0
DICTIONARYVAR
  5
2280B
102
{ACAD_REACTORS
330
173D
102
}
330
173D
100
DictionaryVariables
280
     0
  1
1
  0
DICTIONARYVAR
  5
2280C
102
{ACAD_REACTORS
330
173D
102
}
330
173D
100
DictionaryVariables
280
     0
  1
15
  0
DICTIONARYVAR
  5
2280A
102
{ACAD_REACTORS
330
173D
102
}
330
173D
100
DictionaryVariables
280
     0
  1
0
  0
DICTIONARYVAR
  5
22808
102
{ACAD_REACTORS
330
173D
102
}
330
173D
100
DictionaryVariables
280
     0
  1
0
  0
DICTIONARYVAR
  5
52650
102
{ACAD_REACTORS
330
173D
102
}
330
173D
100
DictionaryVariables
280
     0
  1
1
  0
DICTIONARYVAR
  5
173E
102
{ACAD_REACTORS
330
173D
102
}
330
173D
100
DictionaryVariables
280
     0
  1
96
  0
XRECORD
  5
2272A
102
{ACAD_REACTORS
330
22728
102
}
330
22728
100
AcDbXrecord
280
     1
  0
XRECORD
  5
1606
102
{ACAD_REACTORS
330
1563
102
}
330
1563
100
AcDbXrecord
280
     1
 91
      483
330
10
 90
        8
 62
     7
370
    -3
331
16
  1
Color_7
  0
DICTIONARY
  5
22AE9
330
22
100
AcDbDictionary
280
     1
281
     1
  3
ADSK_XREC_LAYOUTTHUMBNAIL
360
22AEA
  0
DICTIONARY
  5
22736
330
22735
100
AcDbDictionary
280
     1
281
     1
  3
ACAD_XREC_ROUNDTRIP
360
52A14
  3
BUMPTILE
360
22738
  3
DIFFUSETILE
360
22737
  3
OPACITYTILE
360
2273B
  3
REFLECTIONTILE
360
2273A
  3
REFRACTIONTILE
360
2273C
  3
SPECULARTILE
360
22739
  0
DICTIONARY
  5
2272E
330
2272D
100
AcDbDictionary
280
     1
281
     1
  3
ACAD_XREC_ROUNDTRIP
360
52A13
  3
BUMPTILE
360
22730
  3
DIFFUSETILE
360
2272F
  3
OPACITYTILE
360
22733
  3
REFLECTIONTILE
360
22732
  3
REFRACTIONTILE
360
22734
  3
SPECULARTILE
360
22731
  0
DICTIONARY
  5
2273E
330
2273D
100
AcDbDictionary
280
     1
281
     1
  3
ACAD_XREC_ROUNDTRIP
360
52A15
  3
BUMPTILE
360
22740
  3
DIFFUSETILE
360
2273F
  3
OPACITYTILE
360
22743
  3
REFLECTIONTILE
360
22742
  3
REFRACTIONTILE
360
22744
  3
SPECULARTILE
360
22741
  0
DICTIONARY
  5
52A0D
330
2276C
100
AcDbDictionary
280
     1
281
     1
  3
ACAD_XREC_ROUNDTRIP
360
52A0E
  0
DICTIONARY
  5
22803
330
22758
100
AcDbDictionary
280
     1
281
     1
  3
ACAD_ROUNDTRIP_2008_TABLESTYLE_CELLSTYLEMAP
360
52A0C
  3
ACAD_XREC_ROUNDTRIP
360
52A36
  0
DICTIONARY
  5
52A20
330
2274B
100
AcDbDictionary
280
     1
281
     1
  3
ACAD_XREC_ROUNDTRIP
360
52A21
  0
DICTIONARY
  5
52A24
330
2274D
100
AcDbDictionary
280
     1
281
     1
  3
ACAD_XREC_ROUNDTRIP
360
52A25
  0
DICTIONARY
  5
52A22
330
2274C
100
AcDbDictionary
280
     1
281
     1
  3
ACAD_XREC_ROUNDTRIP
360
52A23
  0
DICTIONARY
  5
52A1E
330
2274A
100
AcDbDictionary
280
     1
281
     1
  3
ACAD_XREC_ROUNDTRIP
360
52A1F
  0
DICTIONARY
  5
52A2C
330
22751
100
AcDbDictionary
280
     1
281
     1
  3
ACAD_XREC_ROUNDTRIP
360
52A2D
  0
DICTIONARY
  5
52A34
330
22755
100
AcDbDictionary
280
     1
281
     1
  3
ACAD_XREC_ROUNDTRIP
360
52A35
  0
DICTIONARY
  5
52A26
330
2274E
100
AcDbDictionary
280
     1
281
     1
  3
ACAD_XREC_ROUNDTRIP
360
52A27
  0
DICTIONARY
  5
52A2A
330
22750
100
AcDbDictionary
280
     1
281
     1
  3
ACAD_XREC_ROUNDTRIP
360
52A2B
  0
DICTIONARY
  5
52A49
330
22A03
100
AcDbDictionary
280
     1
281
     1
  3
ACAD_XREC_ROUNDTRIP
360
52A4A
  0
DICTIONARY
  5
52A32
330
22754
100
AcDbDictionary
280
     1
281
     1
  3
ACAD_XREC_ROUNDTRIP
360
52A33
  0
DICTIONARY
  5
52A16
330
22746
100
AcDbDictionary
280
     1
281
     1
  3
ACAD_XREC_ROUNDTRIP
360
52A17
  0
DICTIONARY
  5
52A18
330
22747
100
AcDbDictionary
280
     1
281
     1
  3
ACAD_XREC_ROUNDTRIP
360
52A19
  0
DICTIONARY
  5
52A1A
330
22748
100
AcDbDictionary
280
     1
281
     1
  3
ACAD_XREC_ROUNDTRIP
360
52A1B
  0
DICTIONARY
  5
52A1C
330
22749
100
AcDbDictionary
280
     1
281
     1
  3
ACAD_XREC_ROUNDTRIP
360
52A1D
  0
DICTIONARY
  5
52A39
330
229FB
100
AcDbDictionary
280
     1
281
     1
  3
ACAD_XREC_ROUNDTRIP
360
52A3A
  0
DICTIONARY
  5
52A45
330
22A01
100
AcDbDictionary
280
     1
281
     1
  3
ACAD_XREC_ROUNDTRIP
360
52A46
  0
DICTIONARY
  5
52A30
330
22753
100
AcDbDictionary
280
     1
281
     1
  3
ACAD_XREC_ROUNDTRIP
360
52A31
  0
DICTIONARY
  5
52A47
330
22A02
100
AcDbDictionary
280
     1
281
     1
  3
ACAD_XREC_ROUNDTRIP
360
52A48
  0
DICTIONARY
  5
52A28
330
2274F
100
AcDbDictionary
280
     1
281
     1
  3
ACAD_XREC_ROUNDTRIP
360
52A29
  0
DICTIONARY
  5
52A43
330
22A00
100
AcDbDictionary
280
     1
281
     1
  3
ACAD_XREC_ROUNDTRIP
360
52A44
  0
DICTIONARY
  5
52A41
330
229FF
100
AcDbDictionary
280
     1
281
     1
  3
ACAD_XREC_ROUNDTRIP
360
52A42
  0
DICTIONARY
  5
52A3B
330
229FC
100
AcDbDictionary
280
     1
281
     1
  3
ACAD_XREC_ROUNDTRIP
360
52A3C
  0
DICTIONARY
  5
52A3D
330
229FD
100
AcDbDictionary
280
     1
281
     1
  3
ACAD_XREC_ROUNDTRIP
360
52A3E
  0
DICTIONARY
  5
52A2E
330
22752
100
AcDbDictionary
280
     1
281
     1
  3
ACAD_XREC_ROUNDTRIP
360
52A2F
  0
DICTIONARY
  5
52A37
330
229FA
100
AcDbDictionary
280
     1
281
     1
  3
ACAD_XREC_ROUNDTRIP
360
52A38
  0
DICTIONARY
  5
52A3F
330
229FE
100
AcDbDictionary
280
     1
281
     1
  3
ACAD_XREC_ROUNDTRIP
360
52A40
  0
XRECORD
  5
22AEA
102
{ACAD_REACTORS
330
22AE9
102
}
330
22AE9
100
AcDbXrecord
280
     1
310
280000000001000065000000010008000000000000650000000000000000000000010000000000003028210000000000FFFFFF000000000000000000000000000000000000000000000000000000000000000000330000006600000099000000CC000000FF00000000330000333300006633000099330000CC330000FF3300
310
0000660000336600006666000099660000CC660000FF66000000990000339900006699000099990000CC990000FF99000000CC000033CC000066CC000099CC0000CCCC0000FFCC000000FF000033FF000066FF000099FF0000CCFF0000FFFF000000003300330033006600330099003300CC003300FF003300003333003333
310
33006633330099333300CC333300FF33330000663300336633006666330099663300CC663300FF66330000993300339933006699330099993300CC993300FF99330000CC330033CC330066CC330099CC3300CCCC3300FFCC330000FF330033FF330066FF330099FF3300CCFF3300FFFF330000006600330066006600660099
310
006600CC006600FF00660000336600333366006633660099336600CC336600FF33660000666600336666006666660099666600CC666600FF66660000996600339966006699660099996600CC996600FF99660000CC660033CC660066CC660099CC6600CCCC6600FFCC660000FF660033FF660066FF660099FF6600CCFF6600
310
FFFF660000009900330099006600990099009900CC009900FF00990000339900333399006633990099339900CC339900FF33990000669900336699006666990099669900CC669900FF66990000999900339999006699990099999900CC999900FF99990000CC990033CC990066CC990099CC9900CCCC9900FFCC990000FF99
310
0033FF990066FF990099FF9900CCFF9900FFFF99000000CC003300CC006600CC009900CC00CC00CC00FF00CC000033CC003333CC006633CC009933CC00CC33CC00FF33CC000066CC003366CC006666CC009966CC00CC66CC00FF66CC000099CC003399CC006699CC009999CC00CC99CC00FF99CC0000CCCC0033CCCC0066CC
310
CC0099CCCC00CCCCCC00FFCCCC0000FFCC0033FFCC0066FFCC0099FFCC00CCFFCC00FFFFCC000000FF003300FF006600FF009900FF00CC00FF00FF00FF000033FF003333FF006633FF009933FF00CC33FF00FF33FF000066FF003366FF006666FF009966FF00CC66FF00FF66FF000099FF003399FF006699FF009999FF00CC
310
99FF00FF99FF0000CCFF0033CCFF0066CCFF0099CCFF00CCCCFF00FFCCFF0000FFFF0033FFFF0066FFFF0099FFFF00CCFFFF00FFFFFF00000000000D0D0D001A1A1A00282828003535350043434300505050005D5D5D006B6B6B00787878008686860093939300A1A1A100AEAEAE00BBBBBB00C9C9C900D6D6D600E4E4E400
310
F1F1F100FFFFFF000000000000000000000000000000000000000000000000000000000000000000000000000000000000000000000000000000000000000000000000000000000000280000280028000000000000000000000000000000000000000000000000000000000000000000000000000000000000000000000000
310
00000000000000280000280028000000000000000000000000000000000000000000000000000000000000000000000000000000000000000000000000000000000000002800280000280000000000000000000000000000000000000000000000000000000000000000000000000000000000000000000000000000000000
310
00002800280000280000000000000000000000000000000000000000000000000000000000000000000000000000000000000000000000000000000000000000000000000000000000000000280000280028000000000000000000000000000000000000000000000000000000000000000000000000000000000000000000
310
00000000000000000000280000280028000000000000000000000000000000000000000000000000000000000000000000000000000000000000000000000000000000000000002800280000280000000000000000000000000000000000000000000000000000000000000000000000000000000000000000000000000000
310
00000000002800280000280000000000000000000000000000000000000000000000000000000000000000000000000000000000000000000000000000000000000000000000000000000000000000280000280028000000000000000000000000000000000000000000000000000000000000000000000000000000000000
310
00000000000000000000000000280000280028000000000000000000000000000000000000000000000000000000000000000000000000000000000000000000000000000000000000002800280000280000000000000000000000000000000000000000000000000000000000000000000000000000000000000000000000
310
00000000000000002800280000280000000000000000000000000000000000000000000000000000000000000000000000000000000000000000000000000000000000000000000000000000000000000000280000280028000000000000000000000000000000000000000000000000000000000000000000000000000000
310
00000000000000000000000000000000280000280028000000000000000000000000000000000000000000000000000000000000000000000000000000000000000000000000000000000000002800280000280000000000000000000000000000000000000000000000000000000000000000000000000000000000000000
310
00000000000000000000002800280000280000000000000000000000000000000000000000000000000000000000000000000000000000000000000000000000000000000000000000000000000000000000000000280000280028000000000000000000000000000000000000000000000000000000000000000000000000
310
00000000000000000000000000000000000000280000280028000000000000000000000000000000000000000000000000000000000000000000000000000000000000000000000000000000000000002800280000280000000000000000000000000000000000000000000000000000000000000000000000000000000000
310
00000000000000000000000000002800280000280000000000000000000000000000000000000000000000000000000000000000000000000000000000000000000000000000000000000000000000000000000000000000280000280028000000000000000000000000000000000000000000000000000000000000000000
310
00000000000000000000000000000000000000000000280000280028000000000000000000000000000000000000000000000000000000000000000000000000000000000000000000000000000000000000002800280000280000000000000000000000000000000000000000000000000000000000000000000000000000
310
00000000000000000000000000000000002800280000280000000000000000000000000000000000000000000000000000000000000000000000000000000000000000000000000000000000000000000000000000000000000000280000280028000000000000000000000000000000000000000000000000000000000000
310
00000000000000000000000000000000000000000000000000280000280028000000000000000000000000000000000000000000000000000000000000000000000000000000000000000000000000000000000000002800280000280000000000000000000000000000000000000000000000000000000000000000000000
310
000000000000000000F5000000000000000000002800280000280000000000000000000000000000000000000000000000000000000000000000000000000000000000000000002D2D2D2D2D2D2D2D2D2D2D2D2D2D2D2D2D2D2D2D2D2D2D282D2D282D282D2D2D2D2D2D2D2D2D2D2D2D2D2D2D2D2D2D2D2D2D2D2D2D2D2D2D
310
2D2D2D2D2D2D2D2D2D2D2D2D2D2D2D2D2D2D2D2D2D2D2D2D2D2D2D2D282D2D282D282D2D2D2D2D2D2D2D2D2D2D2D2D2D2D2D2D2D2D2D2D2D2D2D2D2D2D2D2D2D2D2D2D2D2D2D2D2D2D2D2D2D2D2D2D2D2D2D2D2D2D2D2D2D2D282D282D2D282D2D2D2D2D2D2D2D2D2D2D2D2D2D2D2D2D2D2D2D2D2D2D2D2D2D2D2D2D2D2D2D
310
2D2D2D2D2D2D2D2D2D2D2D2D2D2D2D2D2D2D2D2D2D2D2D282D282D2D282D2D2D2D2D2D2D2D2D2D2DF52D2D2D2D2D2D2D2D2D2D2D2D2D2D000000000000000000000000000000000000000000000000000000000000000000000000000000000000000000000000000000000000000000000000000000000000000000000000
310
000000000000000000000000000000000000000000002D2D0000000000000000002D000000000000000000000000000000000000000000000000000000000000000000000000000000000000000000000000000000000000000000000000000000000000000000000000000000000000000000000000000000000000000000
310
0000000000002D2D2D2D2D2D2D2D2D2D2D2D2D2D0000000000000000000000000000000000000000000000000000000000000000000000002D00000000000000000000000000000000000000000000000000000000000000000000000000000000002828000000000028000000000000000000000000000000000000000000
310
0000280000000000000000000000000000000000002828002D2D0000000000000000002D00000000000000000000000000000000000000000000000000000000000000000000000000000000000000000000000000000000000000000000000000000000000000000000000000000000000000000000000000000000000000
310
00000000000000002D000000000000F50000000000002D00000000000000000000000000000000000000000000000000000000000000000000002D0000000000000000000000000000000000000000000000000000002828000000000028000000000000282800000000282800000000000000000000000028280000002828
310
00000028280000000000002828000000002828000000002828002D002D00000000000000002D0000000000000000000000000000000000000000000000000000000000000000000000000000000000000000000000000000000000000000000000000000000000000000000000000000000000000000000000000000000000
310
000000000000000000002D2D2D2D2D2D2D2D2D2D2D2D2D2D0000000000000000000000000000000000000000000000000000000000000000000000002D000000000000000000000000000000000000000000282800000000282800000000282800000000000000000000000000000000280000000028280000002828000000
310
282800000000000000000000002828000000002828000000000000002D002D00000000000000002D000000000000000000000000000000000000000000000000000000000000000000000000000000000000000000000000000000000000000000000000000000000000000000000000000000000000000000000000000000
310
000000000000000000000000002D0000000000F500000000002D0000000000000000000000000000000000000000000000000000000000000000000000002D00000000000000000000000000000000000000000028280000000000000000000000000000282800000000000000000000000028280000002828000000000000
310
0000000000000000280000000000000000000000000000000000000000002D00002D000000000000002D00000000000000000000000000000000000000000000000000000000000000000000000000000000000000000000000000000000000000000000000000000000000000000000000000000000000000000000000000
310
0000000000000000000000000000002D0000000000F500000000002D0000000000000000000000000000000000000000000000000000000000000000000000002D0000000000000000000000000000000000000000000000000000002828000000000000000028280000000000002828000000000000000000000000000000
310
00000000000000000028280000000000000000000000000000000000000000002D00002D000000000000002D0000000000000000000000000000000000000000000000000000000000000000000000000000000000000000000000000000000000000000000000000000000000000000000000000000000000000000000000
310
00000000000000000000000000000000002D0000000000F500000000002D0000000000000000000000000000000000000000000000000000000000000000000000002D000000000000000000000000000000000000000000000000000000002800000000000000000000000000000000000000000000000000000000000000
310
000000000000000000000000000000000000000000000000000000000000000000002D0000002D0000000000002D000000000000000000000000000000000000000000000000000000000000000000000000000000000000000000000000000000000000000000000000000000000000000000000000000000000000000000
310
000000000000000000000000000000000000002D0000000000F500000000002D0000000000000000000000000000000000000000000000000000000000000000000000002D00000000000000000000000000000000000000000000282800000000000000000000000000000000000000000000000000000000000000000000
310
0000000000280000000000000000000000000000000000000000282800000000000000002D0000002D0000000000002D00000000000000000000000000000000000000000000000000000000000000000000000000000000000000000000000000000000000000000000000000000000000000000000000000000000000000
310
0000000000000000000000000000000000000000F52D0000000000F5000000002D000000000000000000000000000000000000000000000000000000000000000000000000002D0000000000000000000000000000000000000000000028280028280000000000000028280000000000000000000000282800000000000000
310
00282800000028280000000000282800000000000000000000000000282800000000000000002D000000002D00000000002D0000000000000000000000000000000000000000000000000000000000000000000000000000000000000000000000000000000000000000000000000000000000000000000000000000000000
310
00000000000000000000000000000000000000000000F52D0000000000F5000000002D000000000000000000000000000000000000000000000000000000000000000000000000002D000000000000000000000000000000000000000000000000002828000000000000002828000000000000000028280000000000000000
310
000000282800000000000000000000280000000000000000282800000000000000000000282800002D000000002D00000000002D000000000000000000000000000000000000000000000000000000000000000000000000000000000000000000000000000000000000000000000000000000000000000000000000000000
310
0000000000000000000000000000000000000000000000F5002D0000000000F5000000002D000000000000000000000000000000000000000000000000000000000000000000000000002D00000000000000000000000000000000000000000000000000000000000000000000000000000000000000002800000000000000
310
0000002800000000282800000000000000000000282800000000000000000000000000000000280000002D00000000002D000000002D00000000000000000000000000000000000000000000000000000000000000000000000000000000000000000000000000000000000000000000000000000000000000000000000000
310
00000000000000000000000000000000000000000000000000F5002D2D2D2D2D2D2D2D2D2D2D2D000000000000000000000000000000000000000000000000000000000000000000000000002D0000000000000000000000000000000000002D2D2D2D2D2D2D2D2D2D2D2D2D2D2D2D2D2D2D2D2D2D2D2D2D2D2D2D2D2D2D2D
310
2D000000002800000000282800000000000000000000002800000000000000000000000000000000000000002D0000000000002D0000002D0000000000000000000000000000000000000000000000000000000000000000000000000000000000000000000000000000000000000000000000000000000000000000000000
310
0000000000000000000000000000000000000000000000000000F500000000002D0000F500002D0000000000000000000000000000000000000000000000000000000000000000000000000000002D000000000000000000000000000000000000000000000000000000000000000000000000000000000000000000000000
310
00002D000000000000000000000000000000000000000000000000000000280000000000000000000000000000002D0000000000002D0000002D000000000000000000000000000000000000000000000000000000000000000000000000000000000000000000000000000000000000000000000000000000000000000000
310
00000000000000000000000000000000000000000000000000000000F500000000002D0000F500002D0000000000000000000000000000000000000000000000000000000000000000000000000000002D00000000000000000000000000000000000000000000000000000000000000000000000000000000000000000000
310
000000002D000000000000000028000000000000002828000000000000000000000000000000000000000028280000002D000000000000002D00002D00000000000000000000000000000000000000000000000000000000000000000000000000000000000000000000000000000000000000000000000000000000000000
310
0000000000000000000000000000000000000000000000000000000000F50000000000002D0000F500002D0000000000000000000000000000000000000000000000000000000000000000000000000000002D0000000000000000000000000000000000000000000000000000000000000000000000000000000000000000
310
0000000000002D000000280000000028000000000000000000000000000000000000000000000000280000000028280000002D000000000000002D00002D0000000000000000000000000000000000000000000000000000000000000000000000000000000000000000000000000000000000000000000000000000000000
310
00000000000000000000000000000000000000000000000000000000000000F500000000002D2D2D2D2D2D2D2D0000000000000000000000000000000000000000000000000000000000000000000000000000002D000000000000000000000000000000000000000000000000000000000000000000000000000000000000
310
00000000000000002D000028280000000000000000000000000000000000000000000000000000000028280000000000000000002D00000000000000002D002D00000000000000000000000000000000000000000000000000000000000000000000000000000000000000000000000000000000F5F5F5F5F5F5F5F5F5F5F5
310
F5F5F5F5F5F5F5F5F5F5F5F5F5F5F5F5F5F5F5F5F5F5F5F5F5F5F5F5F5F5F5F5F50000000000002D2D002D2D00002D0000000000000000000000000000000000000000000000000000000000000000000000000000002D0000000000000000000000000000000000002D2D2D2D2D2D2D2D2D2D2D2D2D2D2D2D2D2D2D2D2D2D
310
2D2D2D2D2D2D2D2D2D2D2D2D2D2D2D2D2D2D2D2D2D2D2D2D2D2D2D2D2D2D2D2D2D2D2D2D2D2D2D2D2D2D2D2D2D2D2D2D2D2D2D2D2D2D2D00000000000000002D002D000000000000000000000000000000000000000000000000000000000000000000000000000000000000000000000000000000000000000000F5000000
310
00000000000000000000000000000000000000000000000000000000000000000000000000000000002D2D002D2D00002D0000000000000000000000000000000000000000000000000000000000000000000000000000002D0000000000000000000000000000000000000000000000000000000000000000000000000000
310
00000000000000000000000000002D00000000280000000028000000280000000028000000002800000000280000002800000000280000002D0000000000000000002D2D000000000000000000000000000000000000000000000000000000000000000000000000000000000000000000000000000000000000F5F500F5F5
310
0000F5F50000F5F500F5F5F500F5F5F500F5F5F500F5F5F500F5F5F5F5F5F500F5F5F500000000000000002D2D002D2D00002D0000000000000000000000000000000000000000000000000000000000000000000000000000002D000000000000000000000000000000000000000000000000000000000000000000000000
310
000000000000000000000000000000002D28000000002800000000280000002800000000280000000028000000002800000028000000002800002D0000000000000000002D2D000000F5F5F5F5F5F5F5F5F5F5F5F5F5F5F5F5F5F5F5F5F5F5F5F5F5F5F5F5F5F5F5F5F5F5F5F5000000000000000000000000000000F5F500
310
F5F5F500F5F5F500F5F50000F5F500F5000000F500F500F5F5F500F5F5F50000F50000F50000000000000000002D2D002D2D00002D0000000000000000000000000000000000000000000000000000000000000000000000000000002D00000000000000000000000000000000000000000000000000000000000000000000
310
0000000000000000000000000000000000002D00280000000028000000002800000028000000002800000000280000000028000000280000002800002D2D2D2D2D2D2D2D2D2D2D2D000000F500F5F5F500F5F5F500F5F500F5F5F50000F50000F5F5F5F5F5F5F5F5F5F5F5F5F5F500000000000000000000000000000000F5
310
F5F500000000F500F500000000F50000F5F5000000F5F5F500F5F5F500F5F5F5F5F5F5F500F50000000000000000002D2D002D2D00002D0000000000000000000000000000000000000000000000000000000000000000000000282828282D0000000000000000000000000000000000000000000000000000000000000000
310
00000000000000000000000000000000000000002D00002800000000280000000028000000280000000028000000002800000000280000002800000028002D2D00000000000000002D2D0000F50000F5F5F500F5F5F500F5F50000F5F500F5F5F500F500F5F5F5F5F5F5F5F50000F500000000000000000000000000000000
310
000000000000000000000000000000000000000000000000000000000000000000000000000000000000000000000000002D2D002D2D00002D000000000000000000F5F5F5F5F5F5F5F5F5F5F5F5F5F5F5F5F5F5F5F5F5F5F5000000002828282D000000000000000000000000000000000000000000000000000000000000
310
000000000000000000000000000000000000000000002D00000028000000002800000000280000002800000000280000000028000000002800000028000000282D002D0000000000002D002D0000F50000F5F5F5F5F5F5F5F5F500F50000F500F5F5F50000F500F5F5F5F5F5F5F500F5F5F500000000000000000000000000
310
0000000000000000000000000000000000000000000000000000000000000000000000000000000000000000000000000000002D2D002D2D00002D0000000000000000F5000000F5000000000000F50000F5F5F5F5F5F500000000000000000000002D00000000000000000000000000000000000000000000000000000000
310
0000000000000000000000000000000000000000000000002D00000000280000000028000000002800000028000000002800000000280000000028000000280000002D002D0000000000002D002D00F5000000F5F500F5F5F5F500000000F5F5F5000000000000F500F5F5F5F5F5F5F50000F5000000000000000000000000
310
00000000000000000000000000000000000000000000000000000000000000000000000000000000000000000000000000000000002D2D002D2D00002D0000000000000000F50000F5F5F50000000000F5F500F5F5F500F500F5000000000000000000002D0000000000000000000000000000000000000000000000000000
310
00000000000000000000000000000000000000000000000000002D28000000002800000000280000000028000000280000000028000000002800000000280000002800002D00002D000000002D00002D00F5000000F5F5F5F5F5F5F5F5F5F5F5F5F5F5F5F5F5F500F5F500F500F5F5F5F5F500000000000000000000000000
310
000000000000000000000000000000000000000000000000000000000000000000000000000000000000000000000000000000000000002D2D002D2D00002D00000000000000F5000000F5F5F500F5F5F500F5F5F5F5F5F5F5F5F5F5000000000000000000002D000000000000000000000000000000000000000000000000
310
000000000000000000000000000000000000000000000000000000002D00280000000028000000002800000000280000002800000000280000000028000000280000000028002D0000002D00002D0000002DF5000000F5F5F5F500F5F5F5F5F5F5F5F5F5F50000F50000F5F5F5F5F50000F5F5F50000000000000000000000
310
00000000000000000000000000000000000000000000000000000000000000000000000000000000000000000000000000000000000000002D2D2D2D2D2D2D2D2D2D000000000000F500000000F5F50000000000F5F500F5F5F500F500F5000000000000000000002D00000000000000000000000000000000000000000000
310
0000000000000000000000000000000000000000000000000000000000002D00002800000000280000000028000000002800000028000000002800000000280000002800000000282D000000002D2D000000002DF500000000F5F5F5F5F5F5F5F5F5F500F5F5F500F5F5F500F5F5F5F5F5F5F5F5F5F5000000000000000000
310
00000000000000000000000000000000000000000000000000000000000000000000000000000000000000000000000000000000000000002D2D2D2D2D2D00F52D2D2D2D2D2D000000F500000000000000000000000000000000000000000000000000000000000000002D0000000000000000000000000000000000000000
310
00000000000000000000000000000000000000000000000000000000000000002D00000028000000002800000000280000000028000000280000000028000000002800000028000000002D000000002D0000000000F500000000F5F5F5F5F5F5F5F5F5F5F5F5F5F5F50000F5000000F5F500F50000F500F500000000000000
310
00000000000000000000000000000000000000000000000000000000000000000000000000000000000000000000000000000000000000002D2D2D00002D2D2D00F52D002D2D00002D2D00F500000000000000000000000000000000000000000000000000000000000000002D000000000000000000000000000000000000
310
000000000000000000000000000000000000000000000000000000000000000000002D00000000280000000028000000002800000000280000002800000000280000000028000000280000002D000000002D2D000000002D000000000000000000000000000000000000000000000000000000000000000000000000000000
310
00000000000000000000000000000000000000000000000000000000000000000000000000000000000000000000000000000000000000002D2D2D0000002D2D002D00F52D002D2D00000000F52D00000000000000000000000000000000000000000000000000000000000000002D00000000000000000000000000000000
310
0000000000000000000000000000000000000000000000000000000000000000000000002D28000000002800000000280000000028000000002800000028000000002800000000280000002800002D0000002D00002D0000002D00000000000000000000000000000000000000000000000000000000000000000000000000
310
00000000000000000000000000000000000000000000000000000000000000000000000000000000000000000000000000000000000000002D2D2D0000002D2D2D002D2D2DF52D2D002D2D2D0000002D2D2D0000000000000000000000000000000000000000000000000000000000002D0000000000000000000000000000
310
00000000000000000000000000000000000000000000000000000000000000000000000000002D00280000000028000000002800000000280000000028000000280000000028000000002800000028002D00002D000000002D00002D0000000000000000000000000000000000000000000000000000000000000000000000
310
00000000000000000000000000000000000000000000000000000000000000000000000000000000000000000000000000000000000000002D2D2D2D2D2D2D2D002D2D002D002DF5002D00002D002D2D2D2D2D2D2D2D000000000000000000000000000000000000000000000000000000002D000000000000000000000000
310
000000000000000000000000000000000000000000000000000000000000000000000000000000002D00002800000000280000000028000000002800000000280000002800000000280000000028000000282D002D0000000000002D002D000000000000000000000000000000000000000000000000000000000000000000
310
00000000000000000000000000000000000000000000000000000000000000000000000000000000000000000000000000000000000000002D2D2D2D2D2D2D2D2D2D2D2D2D2D2D2D2DF52D2D2D2D2D2D2D2D2D2D2D2D2D2D2D2D00000000000000000000000000000000000000000000000000002D00000000000000000000
310
0000000000000000000000000000000000000000000000000000000000000000000000000000000000002D00000028000000002800000000280000000028000000002800000028000000002800000000280000002D002D0000000000002D002D00000000000000000000000000000000000000000000000000000000000000
310
000000000000000000000000000000000000000000000000000000000000000000000000000000000000000000000000000000000000000000002D2D2D2D2D2D2D2D2D2D2D2D2D2D2D2D2DF52D2D2D2D2D2D2D2D2D2D2D2D2D2D2D2D00000000000000000000000000000000000000000000000000002D0000000000000000
310
00000000000000000000000000000000000000000000000000000000000000000000000000000000000000002D28000000280000000028000000002800000000280000000028000000280000000028000000002800002D2D00000000000000002D2D0000000000000000000000000000000000000000000000000000000000
310
000000002D002D00000000000000000000000000000000000000000000000000000000000000000000000000000000000000000000000000000000002D002D0000000000000000000000000000F500000000000000000000000000002D2D00000000000000000000000000000000000000000000000000002D000000000000
310
000000000000000000000000000000000000000000000000000000000000000000000000000000000000000000002D00280000002800000000282800000028000000002800000000280000002800000000280000000028002D2D2D2D2D2D2D2D2D2D2D2D2D2D2D2D2D2D2D2D2D2D2D2D2D2D2D2D2D2D2D2D2D2D2D2D2D2D2D
310
2D2D2D2D2D2D002D2D2D2D2D2D2D2D2D2D2D2D2D2D2D2D2D2D2D2D2D2D2D2D2D2D2D2D2D2D2D2D2D2D2D2D2D2D2D2D2D2D2D2D2D2D2D2D2D2D2D2D2D2D2D2D2D2D2D2D2D2D2D2D2D2D2D2D2D2D2D2DF52D2D2D2D2D2D2D2D2D2D2D2D2D2D2D2D2D2D2D2D2D2D2D2D2D2D2D2D00000000000000000000000000002D00000000
310
0000000000000000000000000000000000000000000000000000000000000000000000000000000000000000000000002D00002800000028000000000028000000280000000028000000002800000028000000002800000000282D0000002D0000002800000000000000000000000028280000000000000000000000002828
310
000000000000002D002D000028280000000000000000000000002828000000000000000000000000282800000000000000000000000028280000000000000000000000002828000000000000002D000000F50000002D00000000000000000000282800000000000000000000000000000000000000000000000000002D0000
310
00000000000000000000000000000000000000000000000000000000000000000000000000000000000000000000000000002D00000028000000280000000000280000002800000000280000000028000000280000000028000000002D0000002D000000280028280000280000282800000028002828000028000028280000
310
28280028280028282D002828000028280028280028280000282800002828002800002828000028000000282800280000282800002800000028280028000028280000280000002800002800002828002D000000F50000002D00002828002828000000280028280000280000282800000000000000000000000000000000002D
310
000000000000000000000000000000000000000000000000000000000000000000000000000000000000000000000000000000002D00000000280000002828000000002800000028000000002800000000280000002800000000280000002D0000002D28280000000000000000000000002828000000000000000000000000
310
280000000000000000002D002D002800000000000000000000000000280000000000F5000000000000282800000000000000000000000028280000000000000000000000002828000000000000000000002D000000000000002D00000000000000282800000000000000000000000028280000000000000000000000000000
310
002D000000000000000000000000000000000000000000000000000000000000000000000000000000000000000000000000000000002D28000000002800000000280000000028000000280000000028000000002800000028000000002800002D0000002D2828280000282800000000002828280028000028280000000000
310
28282800280000282800002D002D2828280028000028000000000000280028282800002800F50000000028002828280000280000000000002828282828000028000000000000282828282800002800000000002D000000000000002D0000000000282828282800002828000000000028282828000000000000000000000000
310
0000002D000000000000000000000000000000000000000000000000000000000000000000000000000000000000000000000000000000002D00280000000028000000002800000000280000002800000000280000000028000000280000000028002D0000002D000028000028280028000000282800002800002828002800
310
0000282800002800002828002D002D002828002828000028282828000000282800282800002800282800000028000028280000280028280000002800002828000028002828000000280000282800002800282800002D000000000000002D002828000028280000282800282800282800002828000000000000000000000000
310
00000000002D000000000000000000000000000000000000000000000000000000000000000000000000000000000000000000000000000000002D00002800000000280000000028000000002800000028000000002800000000280000002800000000282D0000002D00000000000000002800000000000000000000000000
310
28000000000000000000000000002D002D000000000000000000000028000000000000000000000000002800000000000000000000000028280000000000000000000000002828000000000000000000000000282800002D000000000000002D00282800000000000000000000000028280000000000000000000000000000
310
000000000000002D000000000000000000000000000000000000000000000000000000000000000000000000000000000000000000000000000000002D000000282800000028000000002800000000280000002800000000280000000028002D2D2D2D2D2D2D2D2D2D2D2D2D2D2D2D2D2D2D2D2D2D2D2D2D2D2D2D2D2D2D2D
310
2D2D2D2D2D2D2D2D2D2D2D2D2D2D2D2D002D2D2D2D2D2D2D2D2D2D2D2D2D2D2D2D2D2D2D2D2D2D2D2D2D2D2DF52D2D2D2D2D2D2D2D2D2D2D2D2D2D2D2D2D2D2D2D2D2D2D2D2D2D2D2D2D2D2D2D2D2D2D2D2D2D2D2D2D2D2D2D2D2D2D2D2D2D2D2D2D2D2D2D2D2D2D2D2D2D2D2D2D2D2D2D2D2D2D2D2D2D2D2D2DF52D2D2D2D
310
2D2D2D2D2D2D2D2D2DF5000000000000000000000000000000000000000000000000000000000000000000000000000000000000000000000000000000002D000000000028000000280000000028000000002800000028000000002800000000282D0000000000000000000000000000000000000000000000000000000000
310
000000000000000000000000000000002D002D00000000000000000000000000000000000000000000000000000000F500000000000000000000000000000000000000000000000000000000000000000000000000000000000000000000000000000000000000000000000000000000000000000000000000000000000000
310
000000000000000000000000000000000000000000000000000000000000000000000000000000000000000000000000000000000000000000000000000000002D280000000000280000002800000000280000000028000000280000000028000000002D000000000000000000000000000000000000000000000000000000
310
0000000000000000000000000000000000002D002D0000000000000000000000000000000000000000000000000000000000F500000000000000000000000000000000000000000000000000000000000000000000000000000000000000000000000000000000000000000000000000000000000000000000000000000000
310
000000000000000000000000000000000000000000000000000000000000000000000000000000000000000000000000000000000000000000000000000000000000002D2828000000002800000028000000002800000000280000002800000000280000002D00000000000000000000000000000000000000000000000000
310
000000000000000000000000000000000000002D002D000000000000000000000000000000000000000000000000000000000000F50000000000000000000000000000000000000000000000000000000000000000000000000000000000000000000000000000000000000000000000000000000000000000000000000000
310
000000000000000000000000000000000000000000000000000000000000000000000000000000000000000000000000000000000000000000000000000000000000000000002D2D2D2D2D2D2D2D2D2D2D2D2DF52D2D2D2D2D2D2D2D2D2D2D2D2D2D2D2D2D2D2D2D2D2D2D2D2D2D2D2D2D2D2D2D2D2D2D2D2D2D2D2D2D2D2D
310
2D2D2D2D2D2D2D2D2D2D2D2D2D2D2D2D2D2D2D2D2D2D2D2D2D2D2D2D2D2D2D2D2D2D2D2D2D2D2D2D2D2DF52D2D2D2D2D2D2D2D2D2D2D2DF52D2D2D2D2D2D2D2D2D2D2D2D2D2D2D2D2D2D2D2D2D2D2D2D2D2D2D2D2D2D2D2D2D2D2D2D2D2D2D2D2D2D2D2D2D2D2D2D2D2D2D2D2D2D2D2D2D2D2D2D2D2D2D2D2D2D2D2D2D2D2D
310
2D2D2D0000000000000000000000000000000000000000000000000000000000000000000000000000000000000000000000000000000000000000000000000000000000000000000000000000000000000000000000F500000000000000000000000000000000000000000000000000000000000000000000000000000000
310
000000000000000000000000000000000000000000002D002D0000000000000000000000000000000000000000F50000000000000000000000F5000000000000000000000000000000000000000000000000000000000000000000000000000000000000000000000000000000000000000000000000000000000000000000
310
00000000000000000000000000000000000000000000000000000000000000000000000000000000000000000000000000000000000000000000000000000000000000000000000000000000000000000000000000000000F50000000000000000000000000000000000000000000000000000000000000000000000000000
310
0000000000000000000000000000000000000000000000000000000000000000000000000000000000000000000000F5000000000000000000000000F5000000000000000000000000000000000000000000000000000000000000000000000000000000000000000000000000000000000000000000000000000000000000
310
00000000000000000000000000000000000000000000000000000000000000000000000000000000000000000000000000000000000000000000000000000000000000000000000000000000000000000000000000000000000000F50000000000000000000000000000000000000000000000000000000000000000000000
310
0000000000000000000000000000000000000000000000000000000000000000000000000000000000000000000000000000F50000000000000000000000F500000000000000000000000000000000000000000000000000000000000000000000000000000000000000000000000000000000000000000000000000000000
310
00000000000000000000000000000000000000000000000000000000000000000000000000000000000000000000000000000000000000000000000000000000000000000000000000000000000000000000000000000000000000000000F50000000000000000000000000000000000000000000000000000000000000000
310
00000000000000000000000000000000000000000000000000000000000000000000000000000000000000000000000000000000F5000000000000000000000000F500000000000000000000000000000000000000000000000000000000000000000000000000000000000000000000000000000000000000000000000000
310
000000000000000000000000000000000000000000000000000000000000000000000000000000000000000000000000000000000000000000000000000000000000000000000000000000000000000000000000000000000000000000000000F5000000000000000000000000000000000000000000000000000000000000
310
00000000000000000000000000000000000000000000000000000000000000000000000000000000000000000000000000000000000000F5000000000000000000000000F500000000000000000000000000000000000000000000000000000000000000000000000000000000000000000000000000000000000000000000
310
000000000000000000000000000000000000000000000000000000000000000000000000000000000000000000000000000000000000000000000000000000000000000000000000000000000000000000000000000000000000000000000000000000F5000000000000000000000000000000000000000000000000000000
310
00000000000000000000000000000000000000000000000000000000000000000000000000000000000000000000000000000000000000000000F50000000000000000000000F50000000000000000000000000000000000000000000000000000000000000000000000000000000000000000000000000000000000000000
310
000000000000000000000000000000000000000000000000000000000000000000000000000000000000000000000000000000000000000000000000000000000000000000000000000000000000000000000000000000000000000000000000000000000000F5000000000000000000000000000000000000000000000000
310
000000000000000000000000000000000000000000000000000000000000000000000000000000000000000000000000000000000000000000000000F5000000000000000000000000F50000000000000000000000000000000000000000000000000000000000000000000000000000000000000000000000000000000000
310
0000000000000000000000000000000000000000000000000000000000000000000000000000000000000000000000000000000000000000000000000000000000000000000000000000000000000000000000000000000000000000000000000000000000000000F500000000000000000000000000000000000000000000
310
000000000000000000000000000000000000000000000000000000000000000000000000000000000000000000000000000000000000000000000000000000F50000000000000000000000F5000000000000000000000000000000000000000000000000000000000000000000000000000000000000000000000000000000
310
0000000000000000000000000000000000000000000000000000000000000000000000000000000000000000000000000000000000000000000000000000000000000000000000000000000000000000000000000000000000000000000000000000000000000000000000F5F5F5F5F5F5F5F5F5F5F5F5F5F5000000000000
310
0000000000000000000000000000000000000000000000000000000000000000000000000000000000000000000000000000000000000000000000000000000000F5000000000000000000000000F5F5F5F5F5F5F5F5F5F5F5F5F5F5F5F5F5F5F5F5F5F5F5F5F5F5F5F5F5F5F5F5F5F5F5F5F5F5F5F5F5F5F5F5F5F5F5F5F5
310
F5F5F5F5F5F5F5F5F5F5000000000000000000000000000000000000000000000000000000000000000000000000000000000000000000000000000000000000000000000000000000000000000000000000000000000000000000000000000000000000000000000000000000000000000000000000000000000000000000
310
0000000000000000000000000000000000000000000000000000000000000000000000000000000000000000000000000000000000000000000000000000000000000000F500000000000000000000000000000000000000000000000000000000000000000000000000000000000000000000000000000000000000000000
310
00000000000000000000000000000000000000000000000000000000000000000000000000000000000000000000000000000000000000000000000000000000000000000000000000000000000000000000000000000000000000000000000000000000000000000000000000000000F5F5F5F500F50000F5F5F500000000
310
0000000000000000000000000000000000000000000000000000000000000000000000000000000000000000000000000000000000000000000000000000000000000000000000F500000000000000000000000000000000000000F5000000F5000000F50000F5F5000000F5000000000000F50000000000F5000000000000
310
00000000000000000000000000000000000000000000000000000000000000000000000000000000000000000000000000000000000000000000000000000000000000000000000000000000000000000000000000000000000000000000000000000000000000000000000000000000000000F50000F5F5F5F5F5F5F50000
310
00000000000000000000000000000000000000000000000000000000000000000000000000000000000000000000000000000000000000000000000000000000000000000000000000F50000000000000000000000F500F50000000000F5F500F5F5000000F50000F5F5F500F5F5F50000000000F5F5000000F5F500F5F5F5
310
00F5F5F500F5F500F5F5F500F5F5F5000000000000000000000000000000000000000000000000000000000000000000000000000000000000000000000000000000000000000000000000000000000000000000000000000000000000000000000000000000000000000000000000000000000000F5F5F5F5F5F500F5F5F5
310
00000000000000000000000000000000000000000000000000000000000000000000000000000000000000000000000000000000000000000000000000000000000000000000000000000000F50000000000000000000000F5F500F5F5F500F5F5F500F50000F5F5F500F5F5F500F5F5F5F5F5F5F500F5F50000F5F5F500F5
310
F5F500F5F5F500F5F500F5F5F500F5F5F5000000000000000000000000000000000000000000000000000000000000000000000000000000000000000000000000000000000000000000000000000000000000000000000000000000000000000000000000000000000000000000000000000000000000F50000F500F5F5F5
310
F5F500000000000000000000000000000000000000000000000000000000000000000000000000000000000000000000000000000000000000000000000000000000000000000000000000000000F5000000000000000000000000F5F500000000F5F5000000000000F50000F5F5000000F5F50000000000F5F5000000F500
310
0000000000F5F5F500F5F50000000000000000000000000000000000000000000000000000000000000000000000000000000000000000000000000000000000000000000000000000000000000000000000000000000000000000000000000000000000000000000000000000000000000000000000000000000000000000
310
000000000000000000000000000000000000000000000000000000000000000000000000000000000000000000000000000000000000000000000000000000000000000000000000000000000000000000F5000000000000000000000000000000000000000000000000000000000000000000000000000000000000000000
310
00000000000000000000000000000000000000000000000000000000000000000000000000000000000000000000000000000000000000000000000000000000000000000000000000000000000000000000000000000000000000000000000000000000000000000000000000000000000000000000000000000000000000
310
000000000000000000000000000000000000000000000000000000000000000000000000000000000000000000000000000000000000000000000000000000000000000000000000000000000000000000000000F5000000000000000000000000000000000000000000000000000000000000000000000000000000000000
310
00000000000000000000000000000000000000000000000000000000000000000000000000000000000000000000000000000000000000000000000000000000000000000000000000000000000000000000000000000000000000000000000000000000000000000000000000000000000000000000000000000000000000
310
0000000000000000000000000000000000000000000000000000000000000000000000000000000000000000000000000000000000000000000000000000000000000000000000000000000000000000000000000000F500000000000000000000000000000000000000000000000000000000000000000000000000000000
310
00000000000000000000000000000000000000000000000000000000000000000000000000000000000000000000000000000000000000000000000000000000000000000000000000000000000000000000000000000000000000000000000000000000000000000000000000000000000000000000000000000000000000
310
0000000000000000000000000000000000000000000000000000000000000000000000000000000000000000000000000000000000000000000000000000000000000000000000000000000000000000000000000000000000F500000000000000000000000000000000000000000000000000000000000000000000000000
310
00000000000000000000000000000000000000000000000000000000000000000000000000000000000000000000000000000000000000000000000000000000000000000000000000000000000000000000000000000000000000000000000000000000000000000000000000000000000000000000000000000000000000
310
00000000000000000000000000000000000000000000000000000000000000000000000000000000000000000000000000000000000000000000000000000000000000000000000000000000000000000000000000000000000000F50000000000000000000000000000000000000000000000000000000000000000000000
310
00000000000000000000000000000000000000000000000000000000000000000000000000000000000000000000000000000000000000000000000000000000000000000000000000000000000000000000000000000000000000000000000000000000000000000000000000000000000000000000000000000000000000
310
00000000000000000000000000000000000000000000000000000000000000000000000000000000000000000000000000000000000000000000000000000000000000000000000000000000000000000000000000000000000000000000F5F5F5F5F5F5F5F5F5F5F5F5F5F5F5F5F5F5F5F5F5F5F5F5F5F5F5F5F5F5F5F5F5
310
F5F5F5F5F5F5F5F5F5F5F5F5F5F5F5F5000000000000000000000000000000000000000000000000000000000000000000000000000000000000000000000000000000000000000000000000000000000000000000000000000000000000000000000000000000000000000000000000000000000000000000000000000000
310
000000000000000000000000000000000000000000000000000000000000000000000000000000000000000000000000000000000000000000000000000000000000000000000000000000000000000000000000000000000000000000000000000000000000000000000000000000000000000000000000000000F5000000
310
00000000000000000000000000000000000000000000000000000000000000000000000000000000000000000000000000000000000000000000000000000000000000000000000000000000000000000000000000000000000000000000000000000000000000000000000000000000000000000000000000000000000000
310
00000000000000000000000000000000000000000000000000000000000000000000000000000000000000000000000000000000000000000000000000000000000000000000000000000000000000000000000000000000000000000000000000000000F50000F5F5F50000000000F5F500F5F50000F5F500000000F5F500
310
F5F5F500F5F500F5F5F500F5F5F500F5F5F500000000000000000000000000000000000000000000000000000000000000000000000000000000000000000000000000000000000000000000000000000000000000000000000000000000000000000000000000000000000000000000000000000000000000000000000000
310
00000000000000000000000000000000000000000000000000000000000000000000000000000000000000000000000000000000000000000000000000000000000000000000000000000000000000000000000000000000000000000000000000000000000000F500F500F500F5F5F500F5F50000F5F500F5F5F50000F5F5
310
F500F5F5F500F5000000F5F500F5F5F500F5F5F50000000000000000000000000000000000000000000000000000000000000000000000000000000000000000000000000000000000000000000000000000000000000000000000000000000000000000000000000000000000000000000000000000000000000000000000
310
00000000000000000000000000000000000000000000000000000000000000000000000000000000000000000000000000000000000000000000000000000000000000000000000000000000000000000000000000000000000000000000000000000000000000F5F5F500F5F5F50000000000F5F500F500F50000F5F50000
310
00F5000000000000F50000F5F5F50000000000000000000000000000000000000000000000000000000000000000000000000000000000000000000000000000000000000000000000000000000000000000000000000000000000000000000000000000000000000000000000000000000000000000000000000000000000
310
000000000000000000000000000000000000000000000000000000000000000000000000000000000000000000000000000000000000000000000000000000000000000000000000000000000000000000000000000000000000000000000000000000000000000000000000000000000000000000000000000000000000F5
310
000000F5000000000000000000000000000000000000000000000000000000000000000000000000000000000000000000000000000000000000000000000000000000000000000000000000000000000000000000000000000000000000000000000000000000000000000000000000000000000000000000000000000000
310
00000000000000000000000000000000000000000000000000000000000000000000000000000000000000000000000000000000000000000000000000000000000000000000000000000000000000000000000000000000000000000000000000000000000000000000000000000000000000000000000000000000000000
310
00000000000000000000000000000000000000000000000000000000000000000000000000000000000000000000000000000000000000000000000000000000000000000000000000000000000000000000000000000000000000000000000000000000000000000000000000000000000000000000000000000000000000
310
00000000000000000000000000000000000000000000000000000000000000000000000000000000000000000000000000000000000000000000000000000000000000000000000000000000000000000000000000000000000000000000000000000000000000000000000000000000000000000000000000000000000000
310
00000000000000000000000000000000000000000000000000000000000000000000000000000000000000000000000000000000000000000000000000000000000000000000000000000000000000000000000000000000000000000000000000000000000000000000000000000000000000000000000000000000000000
310
00000000000000000000000000000000000000000000000000000000000000000000000000000000000000000000000000000000000000000000000000000000000000000000000000000000000000000000000000000000000000000000000000000000000000000000000000000000000000000000000000000000000000
310
00000000000000000000000000000000000000000000000000000000000000000000000000000000000000000000000000000000000000000000000000000000000000000000000000000000000000000000000000000000000000000000000000000000000000000000000000000000000000000000000000000000000000
310
00000000000000000000000000000000000000000000000000000000000000000000000000000000000000000000000000000000000000000000000000000000000000000000000000000000000000000000000000000000000000000000000000000000000000000000000000000000000000000000000000000000000000
310
00000000000000000000000000000000000000000000000000000000000000000000000000000000000000000000000000000000000000000000000000000000000000000000000000000000000000000000000000000000000000000000000000000000000000000000000000000000000000000000000000000000000000
310
00000000000000000000000000000000000000000000000000000000000000000000000000000000000000000000000000000000000000000000000000000000000000000000000000000000000000000000000000000000000000000000000000000000000000000000000000000000000000000000000000000000000000
310
00000000000000000000000000000000000000000000000000000000000000000000000000000000000000000000000000000000000000000000000000000000000000000000000000000000000000000000000000000000000000000000000000000000000000000000000000000000000000000000000000000000000000
310
00000000000000000000000000000000000000000000000000000000000000000000000000000000000000000000000000000000000000000000000000000000000000000000000000000000000000000000000000000000000000000000000000000000000000000000000000000000000000000000000000000000000000
310
00000000000000000000000000000000000000000000000000000000000000000000000000000000000000000000000000000000000000000000000000000000000000000000000000000000000000000000000000000000000000000000000000000000000000000000000000000000000000000000000000000000000000
310
00000000000000000000000000000000000000000000000000000000000000000000000000000000000000000000000000000000000000000000000000000000000000000000000000000000000000000000000000000000000000000000000000000000000000000000000000000000000000000000000000000000000000
310
00000000000000000000000000000000000000000000000000000000000000000000000000000000000000000000000000000000000000000000000000000000000000000000000000000000000000000000000000000000000000000000000000000000000000000000000000000000000000000000000000000000000000
310
00000000000000000000000000000000000000000000000000000000000000000000000000000000000000000000000000000000000000000000000000000000000000000000000000000000000000000000000000000000000000000000000000000000000000000000000000000000000000000000000000000000000000
310
00000000000000000000000000000000000000000000000000000000000000000000000000000000000000000000000000000000000000000000000000000000000000000000000000000000000000000000000000000000000000000000000000000000000000000000000000000000000000000000000000000000000000
310
00000000000000000000000000000000000000000000000000000000000000000000000000000000000000000000000000000000000000000000000000000000000000000000000000000000000000000000000000000000000000000000000000000000000000000000000000000000000000000000000000000000000000
310
00000000000000000000000000000000000000000000000000000000000000000000000000000000000000000000000000000000000000000000000000000000000000000000000000000000000000000000000000000000000000000000000000000000000000000000000000000000000000000000000000000000000000
310
00000000000000000000000000000000000000000000000000000000000000000000000000000000000000000000000000000000000000000000000000000000000000000000000000000000000000000000000000000000000000000000000000000000000000000000000000000000000000000000000000000000000000
310
00000000000000000000000000000000000000000000000000000000000000000000000000000000000000000000000000000000000000000000000000000000000000000000000000000000000000000000000000000000000000000000000000000000000000000000000000000000000000000000000000000000000000
310
00000000000000000000000000000000000000000000000000000000000000000000000000000000000000000000000000000000000000000000000000000000000000000000000000000000000000000000000000000000000000000000000000000000000000000000000000000000000000000000000000000000000000
310
00000000000000000000000000000000000000000000000000000000000000000000000000000000000000000000000000000000000000000000000000000000000000000000000000000000000000000000000000000000000000000000000000000000000000000000000000000000000000000000000000000000000000
310
00000000000000000000000000000000000000000000000000000000000000000000000000000000000000000000000000000000000000000000000000000000000000000000000000000000000000000000000000000000000000000000000000000000000000000000000000000000000000000000000000000000000000
310
00000000000000000000000000000000000000000000000000000000000000000000000000000000000000000000000000000000000000000000000000000000000000000000000000000000000000000000000000000000000000000000000000000000000000000000000000000000000000000000000000000000000000
310
00000000000000000000000000000000000000000000000000000000000000000000000000000000000000000000000000000000000000000000000000000000000000000000000000000000000000000000000000000000000000000000000000000000000000000000000000000000000000000000000000000000000000
310
00000000000000000000000000000000000000000000000000000000000000000000000000000000000000000000000000000000000000000000000000000000000000000000000000000000000000000000000000000000000000000000000000000000000000000000000000000000000000000000000000000000000000
310
00000000000000000000000000000000000000000000000000000000000000000000000000000000000000000000000000000000000000000000000000000000000000000000000000000000000000000000000000000000000000000000000000000000000000000000000000000000000000000000000000000000000000
310
00000000000000000000000000000000000000000000000000000000000000000000000000000000000000000000000000000000000000000000000000000000000000000000000000000000000000000000000000000000000000000000000000000000000000000000000000000000000000000000000000000000000000
310
00000000000000000000000000000000000000000000000000000000000000000000000000000000000000000000000000000000000000000000000000000000000000000000000000000000000000000000000000000000000000000000000000000000000000000000000000000000000000000000000000000000000000
310
00000000000000000000000000000000000000000000000000000000000000000000000000000000000000000000000000000000000000000000000000000000000000000000000000000000000000000000000000000000000000000000000000000000000000000000000000000000000000000000000000000000000000
310
00000000000000000000000000000000000000000000000000000000000000000000000000000000000000000000000000000000000000000000000000000000000000000000000000000000000000000000000000000000000000000000000000000000000000000000000000000000000000000000000000000000000000
310
00000000000000000000000000000000000000000000000000000000000000000000000000000000000000000000000000000000000000000000000000000000000000000000000000000000000000000000000000000000000000000000000000000000000000000000000000000000000000000000000000000000000000
310
00000000000000000000000000000000000000000000000000000000000000000000000000000000000000000000000000000000000000000000000000000000000000000000000000000000000000000000000000000000000000000000000000002800000028000000000000000000000000000000000000000028282828
310
28000028280028000000000000002828282800000000000000002828282828000000000000000000000000000000000000000000000000000000000000000000000000000000000000000000000000000000000000000000000000000000000000000000000000000000000000000000000000000000000000000000000000
310
00000000000000000000000000000000000000000000000000282800282828280000000000000000002828282800000000000000000000000000002828000028000000000028282828000000282828000000282828000000282828280000000000000000280000282800002828000028282828282800002828000000282828
310
28280028282828280000002828000000280000280000002800000000282828002800002828000000000000000000000000000000000000000000000000000000000000000000000000000000000000000000000000000000000000000000000000000000000000000000000000000000000000000000000000000000000000
310
00000000000000000000000000000000000000000000000000000028000000282828000000000000000000280000280000280000280000000000000000000028280000000000002800000000002800002800000028000028000028000028000000000000000028000028280000282800000000002800000000280028000028
310
28282800000028280028000000280028000028282828000028280000280028000028280000282800000000000000000000000000000000000000000000000000000000000000000000000000000000000000000000000000000000000000000000000000000000000000000000000000000000000000000000000000000000
310
00000000000000000000000000000000000000000000000000000000002800000028282800002828282828000000280000000028282800000028282828280000002800000000000000280000000000280000000000002828280000002828282800002828282828002800280028000000000000000000282828002828002800
310
00282828282800002828282800002828002800280028282828002800000028002828282828000028280000000000000000000000000000000000000000000000000000000000000000000000000000000000000000000000000000000000000000000000000000000000000000000000000000000000000000000000000000
310
00000000000000000000000000000000000000000000000000000000000000280000282828280000000000000000000028000000002800002800000000000000000000002800000000000028000000000028000028000000280028280000280000280000000000000000282800002800002828000000000028000000280000
310
28000000282828000000282828002800280000280000282800280000280000002800282828282800002828000000000000000000000000000000000000000000000000000000000000000000000000000000000000000000000000000000000000000000000000000000000000000000000000000000000000000000000000
310
00000000000000000000000000000000000000000000000000000000000000000028280000002800000000000000000000002800000000000028280000000000000000002828280000000000002800000000002828282800000028282828000028282828000000000000000028280000280000000000000000002800000000
310
28002800002828282828002828282828280000280028000000002828000028000028000028282828280000282800000000000000000000000000000000000000000000000000000000000000000000000000000000000000000000000000000000000000000000000000000000000000000000000000000000000000000000
310
00000000000000000000000000000000000000000000000000000000000000000000000000000000000000000000000000000000000000000000000000000000000000000000000000000000000000000000000000000000000000000000000000000000000000000000000000002800000028000000000000000000280000
310
000000000000000028000000000000000000000000000000000000002800000000000000000000000000000000000000000000000000000000000000000000000000000000000000000000000000000000000000000000000000000000000000000000000000000000000000000000000000000000000000000000
  0
XRECORD
  5
52A14
102
{ACAD_REACTORS
330
22736
102
}
330
22736
100
AcDbXrecord
280
     1
102
MATERIAL
148
0.0
149
0.0
149
0.0
 93
        0
 94
      127
282
     0
 72
     0
 77
     0
171
     0
175
     0
179
     0
273
     0
  0
XRECORD
  5
22738
102
{ACAD_REACTORS
330
22736
102
}
330
22736
100
AcDbXrecord
280
     1
270
     1
271
     1
  0
XRECORD
  5
22737
102
{ACAD_REACTORS
330
22736
102
}
330
22736
100
AcDbXrecord
280
     1
270
     1
271
     1
  0
XRECORD
  5
2273B
102
{ACAD_REACTORS
330
22736
102
}
330
22736
100
AcDbXrecord
280
     1
270
     1
271
     1
  0
XRECORD
  5
2273A
102
{ACAD_REACTORS
330
22736
102
}
330
22736
100
AcDbXrecord
280
     1
270
     1
271
     1
  0
XRECORD
  5
2273C
102
{ACAD_REACTORS
330
22736
102
}
330
22736
100
AcDbXrecord
280
     1
270
     1
271
     1
  0
XRECORD
  5
22739
102
{ACAD_REACTORS
330
22736
102
}
330
22736
100
AcDbXrecord
280
     1
270
     1
271
     1
  0
XRECORD
  5
52A13
102
{ACAD_REACTORS
330
2272E
102
}
330
2272E
100
AcDbXrecord
280
     1
102
MATERIAL
148
0.0
149
0.0
149
0.0
 93
        0
 94
      127
282
     0
 72
     0
 77
     0
171
     0
175
     0
179
     0
273
     0
  0
XRECORD
  5
22730
102
{ACAD_REACTORS
330
2272E
102
}
330
2272E
100
AcDbXrecord
280
     1
270
     1
271
     1
  0
XRECORD
  5
2272F
102
{ACAD_REACTORS
330
2272E
102
}
330
2272E
100
AcDbXrecord
280
     1
270
     1
271
     1
  0
XRECORD
  5
22733
102
{ACAD_REACTORS
330
2272E
102
}
330
2272E
100
AcDbXrecord
280
     1
270
     1
271
     1
  0
XRECORD
  5
22732
102
{ACAD_REACTORS
330
2272E
102
}
330
2272E
100
AcDbXrecord
280
     1
270
     1
271
     1
  0
XRECORD
  5
22734
102
{ACAD_REACTORS
330
2272E
102
}
330
2272E
100
AcDbXrecord
280
     1
270
     1
271
     1
  0
XRECORD
  5
22731
102
{ACAD_REACTORS
330
2272E
102
}
330
2272E
100
AcDbXrecord
280
     1
270
     1
271
     1
  0
XRECORD
  5
52A15
102
{ACAD_REACTORS
330
2273E
102
}
330
2273E
100
AcDbXrecord
280
     1
102
MATERIAL
148
0.0
149
0.0
149
0.0
 93
        0
 94
      127
282
     0
 72
     0
 77
     0
171
     0
175
     0
179
     0
273
     0
  0
XRECORD
  5
22740
102
{ACAD_REACTORS
330
2273E
102
}
330
2273E
100
AcDbXrecord
280
     1
270
     1
271
     1
  0
XRECORD
  5
2273F
102
{ACAD_REACTORS
330
2273E
102
}
330
2273E
100
AcDbXrecord
280
     1
270
     1
271
     1
  0
XRECORD
  5
22743
102
{ACAD_REACTORS
330
2273E
102
}
330
2273E
100
AcDbXrecord
280
     1
270
     1
271
     1
  0
XRECORD
  5
22742
102
{ACAD_REACTORS
330
2273E
102
}
330
2273E
100
AcDbXrecord
280
     1
270
     1
271
     1
  0
XRECORD
  5
22744
102
{ACAD_REACTORS
330
2273E
102
}
330
2273E
100
AcDbXrecord
280
     1
270
     1
271
     1
  0
XRECORD
  5
22741
102
{ACAD_REACTORS
330
2273E
102
}
330
2273E
100
AcDbXrecord
280
     1
270
     1
271
     1
  0
XRECORD
  5
52A0E
102
{ACAD_REACTORS
330
52A0D
102
}
330
52A0D
100
AcDbXrecord
280
     1
102
ACAD_ROUNDTRIP_2012_MLEADER_STYLE
298
     1
  0
CELLSTYLEMAP
  5
52A0C
102
{ACAD_REACTORS
330
22803
102
}
330
22803
100
AcDbCellStyleMap
 90
        3
300
CELLSTYLE
  1
TABLEFORMAT_BEGIN
 90
        5
170
     1
 91
        0
 92
    32768
 62
   257
 93
        1
300
CONTENTFORMAT
  1
CONTENTFORMAT_BEGIN
 90
        0
 91
        0
 92
      512
 93
        0
300

 40
0.0
140
1.0
 94
        5
 62
     0
340
11
144
6.0
309
CONTENTFORMAT_END
171
     1
301
MARGIN
  1
CELLMARGIN_BEGIN
 40
1.5
 40
1.5
 40
1.5
 40
1.5
 40
4.5
 40
4.5
309
CELLMARGIN_END
 94
        6
 95
        1
302
GRIDFORMAT
  1
GRIDFORMAT_BEGIN
 90
        0
 91
        1
 62
     0
 92
       -2
340
0
 93
        0
 40
1.125
309
GRIDFORMAT_END
 95
        2
302
GRIDFORMAT
  1
GRIDFORMAT_BEGIN
 90
        0
 91
        1
 62
     0
 92
       -2
340
0
 93
        0
 40
1.125
309
GRIDFORMAT_END
 95
        4
302
GRIDFORMAT
  1
GRIDFORMAT_BEGIN
 90
        0
 91
        1
 62
     0
 92
       -2
340
0
 93
        0
 40
1.125
309
GRIDFORMAT_END
 95
        8
302
GRIDFORMAT
  1
GRIDFORMAT_BEGIN
 90
        0
 91
        1
 62
     0
 92
       -2
340
0
 93
        0
 40
1.125
309
GRIDFORMAT_END
 95
       16
302
GRIDFORMAT
  1
GRIDFORMAT_BEGIN
 90
        0
 91
        1
 62
     0
 92
       -2
340
0
 93
        0
 40
1.125
309
GRIDFORMAT_END
 95
       32
302
GRIDFORMAT
  1
GRIDFORMAT_BEGIN
 90
        0
 91
        1
 62
     0
 92
       -2
340
0
 93
        0
 40
1.125
309
GRIDFORMAT_END
309
TABLEFORMAT_END
  1
CELLSTYLE_BEGIN
 90
        1
 91
        1
300
_TITLE
309
CELLSTYLE_END
300
CELLSTYLE
  1
TABLEFORMAT_BEGIN
 90
        5
170
     1
 91
        0
 92
        0
 62
   257
 93
        1
300
CONTENTFORMAT
  1
CONTENTFORMAT_BEGIN
 90
        0
 91
        0
 92
      512
 93
        0
300

 40
0.0
140
1.0
 94
        5
 62
     0
340
11
144
4.5
309
CONTENTFORMAT_END
171
     1
301
MARGIN
  1
CELLMARGIN_BEGIN
 40
1.5
 40
1.5
 40
1.5
 40
1.5
 40
4.5
 40
4.5
309
CELLMARGIN_END
 94
        6
 95
        1
302
GRIDFORMAT
  1
GRIDFORMAT_BEGIN
 90
        0
 91
        1
 62
     0
 92
       -2
340
0
 93
        0
 40
1.125
309
GRIDFORMAT_END
 95
        2
302
GRIDFORMAT
  1
GRIDFORMAT_BEGIN
 90
        0
 91
        1
 62
     0
 92
       -2
340
0
 93
        0
 40
1.125
309
GRIDFORMAT_END
 95
        4
302
GRIDFORMAT
  1
GRIDFORMAT_BEGIN
 90
        0
 91
        1
 62
     0
 92
       -2
340
0
 93
        0
 40
1.125
309
GRIDFORMAT_END
 95
        8
302
GRIDFORMAT
  1
GRIDFORMAT_BEGIN
 90
        0
 91
        1
 62
     0
 92
       -2
340
0
 93
        0
 40
1.125
309
GRIDFORMAT_END
 95
       16
302
GRIDFORMAT
  1
GRIDFORMAT_BEGIN
 90
        0
 91
        1
 62
     0
 92
       -2
340
0
 93
        0
 40
1.125
309
GRIDFORMAT_END
 95
       32
302
GRIDFORMAT
  1
GRIDFORMAT_BEGIN
 90
        0
 91
        1
 62
     0
 92
       -2
340
0
 93
        0
 40
1.125
309
GRIDFORMAT_END
309
TABLEFORMAT_END
  1
CELLSTYLE_BEGIN
 90
        2
 91
        1
300
_HEADER
309
CELLSTYLE_END
300
CELLSTYLE
  1
TABLEFORMAT_BEGIN
 90
        5
170
     1
 91
        0
 92
        0
 62
   257
 93
        1
300
CONTENTFORMAT
  1
CONTENTFORMAT_BEGIN
 90
        0
 91
        0
 92
      512
 93
        0
300

 40
0.0
140
1.0
 94
        2
 62
     0
340
11
144
4.5
309
CONTENTFORMAT_END
171
     1
301
MARGIN
  1
CELLMARGIN_BEGIN
 40
1.5
 40
1.5
 40
1.5
 40
1.5
 40
4.5
 40
4.5
309
CELLMARGIN_END
 94
        6
 95
        1
302
GRIDFORMAT
  1
GRIDFORMAT_BEGIN
 90
        0
 91
        1
 62
     0
 92
       -2
340
0
 93
        0
 40
1.125
309
GRIDFORMAT_END
 95
        2
302
GRIDFORMAT
  1
GRIDFORMAT_BEGIN
 90
        0
 91
        1
 62
     0
 92
       -2
340
0
 93
        0
 40
1.125
309
GRIDFORMAT_END
 95
        4
302
GRIDFORMAT
  1
GRIDFORMAT_BEGIN
 90
        0
 91
        1
 62
     0
 92
       -2
340
0
 93
        0
 40
1.125
309
GRIDFORMAT_END
 95
        8
302
GRIDFORMAT
  1
GRIDFORMAT_BEGIN
 90
        0
 91
        1
 62
     0
 92
       -2
340
0
 93
        0
 40
1.125
309
GRIDFORMAT_END
 95
       16
302
GRIDFORMAT
  1
GRIDFORMAT_BEGIN
 90
        0
 91
        1
 62
     0
 92
       -2
340
0
 93
        0
 40
1.125
309
GRIDFORMAT_END
 95
       32
302
GRIDFORMAT
  1
GRIDFORMAT_BEGIN
 90
        0
 91
        1
 62
     0
 92
       -2
340
0
 93
        0
 40
1.125
309
GRIDFORMAT_END
309
TABLEFORMAT_END
  1
CELLSTYLE_BEGIN
 90
        3
 91
        2
300
_DATA
309
CELLSTYLE_END
  0
XRECORD
  5
52A36
102
{ACAD_REACTORS
330
22803
102
}
330
22803
100
AcDbXrecord
280
     1
102
ACAD_ROUNDTRIP_PRE2007_TABLESTYLE
 90
      512
 91
        0
  1

 92
      512
 93
        0
  2

 94
      512
 95
        0
  3

  0
XRECORD
  5
52A21
102
{ACAD_REACTORS
330
52A20
102
}
330
52A20
100
AcDbXrecord
280
     1
102
RTVSPropertyOp0
 70
     1
102
RTVSPropertyOp1
 70
     1
102
RTVSPropertyOp2
 70
     1
102
RTVSPropertyOp3
 70
     1
102
RTVSPropertyOp4
 70
     1
102
RTVSPropertyOp5
 70
     1
102
RTVSPropertyOp6
 70
     1
102
RTVSPropertyOp7
 70
     1
102
RTVSPropertyOp8
 70
     1
102
RTVSPropertyOp9
 70
     1
102
RTVSPropertyOp10
 70
     1
102
RTVSPropertyOp11
 70
     1
102
RTVSPropertyOp12
 70
     1
102
RTVSPropertyOp13
 70
     1
102
RTVSPropertyOp14
 70
     1
102
RTVSPropertyOp15
 70
     1
102
RTVSPropertyOp16
 70
     1
102
RTVSPropertyOp17
 70
     1
102
RTVSPropertyOp18
 70
     1
102
RTVSPropertyOp19
 70
     1
102
RTVSPropertyOp20
 70
     1
102
RTVSPropertyOp21
 70
     1
102
RTVSPropertyOp22
 70
     1
102
RTVSPropertyOp23
 70
     1
102
RTVSPropertyOp24
 70
     1
102
RTVSPropertyOp25
 70
     1
102
RTVSPropertyOp26
 70
     1
102
RTVSPropertyOp27
 70
     1
102
RTVSPropertyOp28
 70
     1
102
RTVSPropertyOp29
 70
     1
102
RTVSPropertyOp30
 70
     1
102
RTVSPropertyOp31
 70
     1
102
RTVSPropertyOp32
 70
     1
  0
XRECORD
  5
52A25
102
{ACAD_REACTORS
330
52A24
102
}
330
52A24
100
AcDbXrecord
280
     1
102
RTVSPropertyOp0
 70
     1
102
RTVSPropertyOp1
 70
     1
102
RTVSPropertyOp2
 70
     1
102
RTVSPropertyOp3
 70
     1
102
RTVSPropertyOp4
 70
     1
102
RTVSPropertyOp5
 70
     1
102
RTVSPropertyOp6
 70
     1
102
RTVSPropertyOp7
 70
     1
102
RTVSPropertyOp8
 70
     1
102
RTVSPropertyOp9
 70
     1
102
RTVSPropertyOp10
 70
     1
102
RTVSPropertyOp11
 70
     1
102
RTVSPropertyOp12
 70
     1
102
RTVSPropertyOp13
 70
     1
102
RTVSPropertyOp14
 70
     1
102
RTVSPropertyOp15
 70
     1
102
RTVSPropertyOp16
 70
     1
102
RTVSPropertyOp17
 70
     1
102
RTVSPropertyOp18
 70
     1
102
RTVSPropertyOp19
 70
     1
102
RTVSPropertyOp20
 70
     1
102
RTVSPropertyOp21
 70
     1
102
RTVSPropertyOp22
 70
     1
102
RTVSPropertyOp23
 70
     1
102
RTVSPropertyOp24
 70
     1
102
RTVSPropertyOp25
 70
     1
102
RTVSPropertyOp26
 70
     1
102
RTVSPropertyOp27
 70
     1
102
RTVSPropertyOp28
 70
     1
102
RTVSPropertyOp29
 70
     1
102
RTVSPropertyOp30
 70
     1
102
RTVSPropertyOp31
 70
     1
102
RTVSPropertyOp32
 70
     1
  0
XRECORD
  5
52A23
102
{ACAD_REACTORS
330
52A22
102
}
330
52A22
100
AcDbXrecord
280
     1
102
RTVSPropertyOp0
 70
     1
102
RTVSPropertyOp1
 70
     1
102
RTVSPropertyOp2
 70
     1
102
RTVSPropertyOp3
 70
     1
102
RTVSPropertyOp4
 70
     1
102
RTVSPropertyOp5
 70
     1
102
RTVSPropertyOp6
 70
     1
102
RTVSPropertyOp7
 70
     1
102
RTVSPropertyOp8
 70
     1
102
RTVSPropertyOp9
 70
     1
102
RTVSPropertyOp10
 70
     1
102
RTVSPropertyOp11
 70
     1
102
RTVSPropertyOp12
 70
     1
102
RTVSPropertyOp13
 70
     1
102
RTVSPropertyOp14
 70
     1
102
RTVSPropertyOp15
 70
     1
102
RTVSPropertyOp16
 70
     1
102
RTVSPropertyOp17
 70
     1
102
RTVSPropertyOp18
 70
     1
102
RTVSPropertyOp19
 70
     1
102
RTVSPropertyOp20
 70
     1
102
RTVSPropertyOp21
 70
     1
102
RTVSPropertyOp22
 70
     1
102
RTVSPropertyOp23
 70
     1
102
RTVSPropertyOp24
 70
     1
102
RTVSPropertyOp25
 70
     1
102
RTVSPropertyOp26
 70
     1
102
RTVSPropertyOp27
 70
     1
102
RTVSPropertyOp28
 70
     1
102
RTVSPropertyOp29
 70
     1
102
RTVSPropertyOp30
 70
     1
102
RTVSPropertyOp31
 70
     1
102
RTVSPropertyOp32
 70
     1
  0
XRECORD
  5
52A1F
102
{ACAD_REACTORS
330
52A1E
102
}
330
52A1E
100
AcDbXrecord
280
     1
102
RTVSPropertyOp0
 70
     1
102
RTVSPropertyOp1
 70
     1
102
RTVSPropertyOp2
 70
     1
102
RTVSPropertyOp3
 70
     1
102
RTVSPropertyOp4
 70
     1
102
RTVSPropertyOp5
 70
     1
102
RTVSPropertyOp6
 70
     1
102
RTVSPropertyOp7
 70
     1
102
RTVSPropertyOp8
 70
     1
102
RTVSPropertyOp9
 70
     1
102
RTVSPropertyOp10
 70
     1
102
RTVSPropertyOp11
 70
     1
102
RTVSPropertyOp12
 70
     1
102
RTVSPropertyOp13
 70
     1
102
RTVSPropertyOp14
 70
     1
102
RTVSPropertyOp15
 70
     1
102
RTVSPropertyOp16
 70
     1
102
RTVSPropertyOp17
 70
     1
102
RTVSPropertyOp18
 70
     1
102
RTVSPropertyOp19
 70
     1
102
RTVSPropertyOp20
 70
     1
102
RTVSPropertyOp21
 70
     1
102
RTVSPropertyOp22
 70
     1
102
RTVSPropertyOp23
 70
     1
102
RTVSPropertyOp24
 70
     1
102
RTVSPropertyOp25
 70
     1
102
RTVSPropertyOp26
 70
     1
102
RTVSPropertyOp27
 70
     1
102
RTVSPropertyOp28
 70
     1
102
RTVSPropertyOp29
 70
     1
102
RTVSPropertyOp30
 70
     1
102
RTVSPropertyOp31
 70
     1
102
RTVSPropertyOp32
 70
     1
  0
XRECORD
  5
52A2D
102
{ACAD_REACTORS
330
52A2C
102
}
330
52A2C
100
AcDbXrecord
280
     1
102
RTVSPropertyOp0
 70
     1
102
RTVSPropertyOp1
 70
     1
102
RTVSPropertyOp2
 70
     1
102
RTVSPropertyOp3
 70
     1
102
RTVSPropertyOp4
 70
     1
102
RTVSPropertyOp5
 70
     1
102
RTVSPropertyOp6
 70
     1
102
RTVSPropertyOp7
 70
     1
102
RTVSPropertyOp8
 70
     1
102
RTVSPropertyOp9
 70
     1
102
RTVSPropertyOp10
 70
     1
102
RTVSPropertyOp11
 70
     1
102
RTVSPropertyOp12
 70
     1
102
RTVSPropertyOp13
 70
     1
102
RTVSPropertyOp14
 70
     1
102
RTVSPropertyOp15
 70
     1
102
RTVSPropertyOp16
 70
     1
102
RTVSPropertyOp17
 70
     1
102
RTVSPropertyOp18
 70
     1
102
RTVSPropertyOp19
 70
     1
102
RTVSPropertyOp20
 70
     1
102
RTVSPropertyOp21
 70
     1
102
RTVSPropertyOp22
 70
     1
102
RTVSPropertyOp23
 70
     1
102
RTVSPropertyOp24
 70
     1
102
RTVSPropertyOp25
 70
     1
102
RTVSPropertyOp26
 70
     1
102
RTVSPropertyOp27
 70
     1
102
RTVSPropertyOp28
 70
     1
102
RTVSPropertyOp29
 70
     1
102
RTVSPropertyOp30
 70
     1
102
RTVSPropertyOp31
 70
     1
102
RTVSPropertyOp32
 70
     1
  0
XRECORD
  5
52A35
102
{ACAD_REACTORS
330
52A34
102
}
330
52A34
100
AcDbXrecord
280
     1
102
RTVSPropertyOp0
 70
     1
102
RTVSPropertyOp1
 70
     1
102
RTVSPropertyOp2
 70
     1
102
RTVSPropertyOp3
 70
     1
102
RTVSPropertyOp4
 70
     1
102
RTVSPropertyOp5
 70
     1
102
RTVSPropertyOp6
 70
     1
102
RTVSPropertyOp7
 70
     1
102
RTVSPropertyOp8
 70
     1
102
RTVSPropertyOp9
 70
     1
102
RTVSPropertyOp10
 70
     1
102
RTVSPropertyOp11
 70
     1
102
RTVSPropertyOp12
 70
     1
102
RTVSPropertyOp13
 70
     1
102
RTVSPropertyOp14
 70
     1
102
RTVSPropertyOp15
 70
     1
102
RTVSPropertyOp16
 70
     1
102
RTVSPropertyOp17
 70
     1
102
RTVSPropertyOp18
 70
     1
102
RTVSPropertyOp19
 70
     1
102
RTVSPropertyOp20
 70
     1
102
RTVSPropertyOp21
 70
     1
102
RTVSPropertyOp22
 70
     1
102
RTVSPropertyOp23
 70
     1
102
RTVSPropertyOp24
 70
     1
102
RTVSPropertyOp25
 70
     1
102
RTVSPropertyOp26
 70
     1
102
RTVSPropertyOp27
 70
     1
102
RTVSPropertyOp28
 70
     1
102
RTVSPropertyOp29
 70
     1
102
RTVSPropertyOp30
 70
     1
102
RTVSPropertyOp31
 70
     1
102
RTVSPropertyOp32
 70
     1
  0
XRECORD
  5
52A27
102
{ACAD_REACTORS
330
52A26
102
}
330
52A26
100
AcDbXrecord
280
     1
102
RTVSPropertyOp0
 70
     1
102
RTVSPropertyOp1
 70
     1
102
RTVSPropertyOp2
 70
     1
102
RTVSPropertyOp3
 70
     1
102
RTVSPropertyOp4
 70
     1
102
RTVSPropertyOp5
 70
     1
102
RTVSPropertyOp6
 70
     1
102
RTVSPropertyOp7
 70
     1
102
RTVSPropertyOp8
 70
     1
102
RTVSPropertyOp9
 70
     1
102
RTVSPropertyOp10
 70
     1
102
RTVSPropertyOp11
 70
     1
102
RTVSPropertyOp12
 70
     1
102
RTVSPropertyOp13
 70
     1
102
RTVSPropertyOp14
 70
     1
102
RTVSPropertyOp15
 70
     1
102
RTVSPropertyOp16
 70
     1
102
RTVSPropertyOp17
 70
     1
102
RTVSPropertyOp18
 70
     1
102
RTVSPropertyOp19
 70
     1
102
RTVSPropertyOp20
 70
     1
102
RTVSPropertyOp21
 70
     1
102
RTVSPropertyOp22
 70
     1
102
RTVSPropertyOp23
 70
     1
102
RTVSPropertyOp24
 70
     1
102
RTVSPropertyOp25
 70
     1
102
RTVSPropertyOp26
 70
     1
102
RTVSPropertyOp27
 70
     1
102
RTVSPropertyOp28
 70
     1
102
RTVSPropertyOp29
 70
     1
102
RTVSPropertyOp30
 70
     1
102
RTVSPropertyOp31
 70
     1
102
RTVSPropertyOp32
 70
     1
  0
XRECORD
  5
52A2B
102
{ACAD_REACTORS
330
52A2A
102
}
330
52A2A
100
AcDbXrecord
280
     1
102
RTVSPropertyOp0
 70
     1
102
RTVSPropertyOp1
 70
     1
102
RTVSPropertyOp2
 70
     1
102
RTVSPropertyOp3
 70
     1
102
RTVSPropertyOp4
 70
     1
102
RTVSPropertyOp5
 70
     1
102
RTVSPropertyOp6
 70
     1
102
RTVSPropertyOp7
 70
     1
102
RTVSPropertyOp8
 70
     1
102
RTVSPropertyOp9
 70
     1
102
RTVSPropertyOp10
 70
     1
102
RTVSPropertyOp11
 70
     1
102
RTVSPropertyOp12
 70
     1
102
RTVSPropertyOp13
 70
     1
102
RTVSPropertyOp14
 70
     1
102
RTVSPropertyOp15
 70
     1
102
RTVSPropertyOp16
 70
     1
102
RTVSPropertyOp17
 70
     1
102
RTVSPropertyOp18
 70
     1
102
RTVSPropertyOp19
 70
     1
102
RTVSPropertyOp20
 70
     1
102
RTVSPropertyOp21
 70
     1
102
RTVSPropertyOp22
 70
     1
102
RTVSPropertyOp23
 70
     1
102
RTVSPropertyOp24
 70
     1
102
RTVSPropertyOp25
 70
     1
102
RTVSPropertyOp26
 70
     1
102
RTVSPropertyOp27
 70
     1
102
RTVSPropertyOp28
 70
     1
102
RTVSPropertyOp29
 70
     1
102
RTVSPropertyOp30
 70
     1
102
RTVSPropertyOp31
 70
     1
102
RTVSPropertyOp32
 70
     1
  0
XRECORD
  5
52A4A
102
{ACAD_REACTORS
330
52A49
102
}
330
52A49
100
AcDbXrecord
280
     1
102
RTVSPropertyOp0
 70
     0
102
RTVSPropertyOp1
 70
     0
102
RTVSPropertyOp2
 70
     0
102
RTVSPropertyOp3
 70
     0
102
RTVSPropertyOp4
 70
     0
102
RTVSPropertyOp5
 70
     0
102
RTVSPropertyOp6
 70
     0
102
RTVSPropertyOp7
 70
     0
102
RTVSPropertyOp8
 70
     0
102
RTVSPropertyOp9
 70
     0
102
RTVSPropertyOp10
 70
     0
102
RTVSPropertyOp11
 70
     0
102
RTVSPropertyOp12
 70
     0
102
RTVSPropertyOp13
 70
     0
102
RTVSPropertyOp14
 70
     2
102
RTVSPropertyOp15
 70
     0
102
RTVSPropertyOp16
 70
     0
102
RTVSPropertyOp17
 70
     0
102
RTVSPropertyOp18
 70
     0
102
RTVSPropertyOp19
 70
     0
102
RTVSPropertyOp20
 70
     0
102
RTVSPropertyOp21
 70
     0
102
RTVSPropertyOp22
 70
     0
102
RTVSPropertyOp23
 70
     0
102
RTVSPropertyOp24
 70
     0
102
RTVSPropertyOp25
 70
     0
102
RTVSPropertyOp26
 70
     0
102
RTVSPropertyOp27
 70
     0
102
RTVSPropertyOp28
 70
     1
102
RTVSPropertyOp29
 70
     1
102
RTVSPropertyOp30
 70
     1
102
RTVSPropertyOp31
 70
     1
102
RTVSPropertyOp32
 70
     1
  0
XRECORD
  5
52A33
102
{ACAD_REACTORS
330
52A32
102
}
330
52A32
100
AcDbXrecord
280
     1
102
RTVSPropertyOp0
 70
     1
102
RTVSPropertyOp1
 70
     1
102
RTVSPropertyOp2
 70
     1
102
RTVSPropertyOp3
 70
     1
102
RTVSPropertyOp4
 70
     1
102
RTVSPropertyOp5
 70
     1
102
RTVSPropertyOp6
 70
     1
102
RTVSPropertyOp7
 70
     1
102
RTVSPropertyOp8
 70
     1
102
RTVSPropertyOp9
 70
     1
102
RTVSPropertyOp10
 70
     1
102
RTVSPropertyOp11
 70
     1
102
RTVSPropertyOp12
 70
     1
102
RTVSPropertyOp13
 70
     1
102
RTVSPropertyOp14
 70
     1
102
RTVSPropertyOp15
 70
     1
102
RTVSPropertyOp16
 70
     1
102
RTVSPropertyOp17
 70
     1
102
RTVSPropertyOp18
 70
     1
102
RTVSPropertyOp19
 70
     1
102
RTVSPropertyOp20
 70
     1
102
RTVSPropertyOp21
 70
     1
102
RTVSPropertyOp22
 70
     1
102
RTVSPropertyOp23
 70
     1
102
RTVSPropertyOp24
 70
     1
102
RTVSPropertyOp25
 70
     1
102
RTVSPropertyOp26
 70
     1
102
RTVSPropertyOp27
 70
     1
102
RTVSPropertyOp28
 70
     1
102
RTVSPropertyOp29
 70
     1
102
RTVSPropertyOp30
 70
     1
102
RTVSPropertyOp31
 70
     1
102
RTVSPropertyOp32
 70
     1
  0
XRECORD
  5
52A17
102
{ACAD_REACTORS
330
52A16
102
}
330
52A16
100
AcDbXrecord
280
     1
102
RTVSPropertyOp0
 70
     1
102
RTVSPropertyOp1
 70
     1
102
RTVSPropertyOp2
 70
     1
102
RTVSPropertyOp3
 70
     1
102
RTVSPropertyOp4
 70
     1
102
RTVSPropertyOp5
 70
     1
102
RTVSPropertyOp6
 70
     1
102
RTVSPropertyOp7
 70
     1
102
RTVSPropertyOp8
 70
     1
102
RTVSPropertyOp9
 70
     1
102
RTVSPropertyOp10
 70
     1
102
RTVSPropertyOp11
 70
     1
102
RTVSPropertyOp12
 70
     1
102
RTVSPropertyOp13
 70
     1
102
RTVSPropertyOp14
 70
     1
102
RTVSPropertyOp15
 70
     1
102
RTVSPropertyOp16
 70
     1
102
RTVSPropertyOp17
 70
     1
102
RTVSPropertyOp18
 70
     1
102
RTVSPropertyOp19
 70
     1
102
RTVSPropertyOp20
 70
     1
102
RTVSPropertyOp21
 70
     1
102
RTVSPropertyOp22
 70
     1
102
RTVSPropertyOp23
 70
     1
102
RTVSPropertyOp24
 70
     1
102
RTVSPropertyOp25
 70
     1
102
RTVSPropertyOp26
 70
     1
102
RTVSPropertyOp27
 70
     1
102
RTVSPropertyOp28
 70
     1
102
RTVSPropertyOp29
 70
     1
102
RTVSPropertyOp30
 70
     1
102
RTVSPropertyOp31
 70
     1
102
RTVSPropertyOp32
 70
     1
  0
XRECORD
  5
52A19
102
{ACAD_REACTORS
330
52A18
102
}
330
52A18
100
AcDbXrecord
280
     1
102
RTVSPropertyOp0
 70
     1
102
RTVSPropertyOp1
 70
     1
102
RTVSPropertyOp2
 70
     1
102
RTVSPropertyOp3
 70
     1
102
RTVSPropertyOp4
 70
     1
102
RTVSPropertyOp5
 70
     1
102
RTVSPropertyOp6
 70
     1
102
RTVSPropertyOp7
 70
     1
102
RTVSPropertyOp8
 70
     1
102
RTVSPropertyOp9
 70
     1
102
RTVSPropertyOp10
 70
     1
102
RTVSPropertyOp11
 70
     1
102
RTVSPropertyOp12
 70
     1
102
RTVSPropertyOp13
 70
     1
102
RTVSPropertyOp14
 70
     1
102
RTVSPropertyOp15
 70
     1
102
RTVSPropertyOp16
 70
     1
102
RTVSPropertyOp17
 70
     1
102
RTVSPropertyOp18
 70
     1
102
RTVSPropertyOp19
 70
     1
102
RTVSPropertyOp20
 70
     1
102
RTVSPropertyOp21
 70
     1
102
RTVSPropertyOp22
 70
     1
102
RTVSPropertyOp23
 70
     1
102
RTVSPropertyOp24
 70
     1
102
RTVSPropertyOp25
 70
     1
102
RTVSPropertyOp26
 70
     1
102
RTVSPropertyOp27
 70
     1
102
RTVSPropertyOp28
 70
     1
102
RTVSPropertyOp29
 70
     1
102
RTVSPropertyOp30
 70
     1
102
RTVSPropertyOp31
 70
     1
102
RTVSPropertyOp32
 70
     1
  0
XRECORD
  5
52A1B
102
{ACAD_REACTORS
330
52A1A
102
}
330
52A1A
100
AcDbXrecord
280
     1
102
RTVSPropertyOp0
 70
     1
102
RTVSPropertyOp1
 70
     1
102
RTVSPropertyOp2
 70
     1
102
RTVSPropertyOp3
 70
     1
102
RTVSPropertyOp4
 70
     1
102
RTVSPropertyOp5
 70
     1
102
RTVSPropertyOp6
 70
     1
102
RTVSPropertyOp7
 70
     1
102
RTVSPropertyOp8
 70
     1
102
RTVSPropertyOp9
 70
     1
102
RTVSPropertyOp10
 70
     1
102
RTVSPropertyOp11
 70
     1
102
RTVSPropertyOp12
 70
     1
102
RTVSPropertyOp13
 70
     1
102
RTVSPropertyOp14
 70
     1
102
RTVSPropertyOp15
 70
     1
102
RTVSPropertyOp16
 70
     1
102
RTVSPropertyOp17
 70
     1
102
RTVSPropertyOp18
 70
     1
102
RTVSPropertyOp19
 70
     1
102
RTVSPropertyOp20
 70
     1
102
RTVSPropertyOp21
 70
     1
102
RTVSPropertyOp22
 70
     1
102
RTVSPropertyOp23
 70
     1
102
RTVSPropertyOp24
 70
     1
102
RTVSPropertyOp25
 70
     1
102
RTVSPropertyOp26
 70
     1
102
RTVSPropertyOp27
 70
     1
102
RTVSPropertyOp28
 70
     1
102
RTVSPropertyOp29
 70
     1
102
RTVSPropertyOp30
 70
     1
102
RTVSPropertyOp31
 70
     1
102
RTVSPropertyOp32
 70
     1
  0
XRECORD
  5
52A1D
102
{ACAD_REACTORS
330
52A1C
102
}
330
52A1C
100
AcDbXrecord
280
     1
102
RTVSPropertyOp0
 70
     1
102
RTVSPropertyOp1
 70
     1
102
RTVSPropertyOp2
 70
     1
102
RTVSPropertyOp3
 70
     1
102
RTVSPropertyOp4
 70
     1
102
RTVSPropertyOp5
 70
     1
102
RTVSPropertyOp6
 70
     1
102
RTVSPropertyOp7
 70
     1
102
RTVSPropertyOp8
 70
     1
102
RTVSPropertyOp9
 70
     1
102
RTVSPropertyOp10
 70
     1
102
RTVSPropertyOp11
 70
     1
102
RTVSPropertyOp12
 70
     1
102
RTVSPropertyOp13
 70
     1
102
RTVSPropertyOp14
 70
     1
102
RTVSPropertyOp15
 70
     1
102
RTVSPropertyOp16
 70
     1
102
RTVSPropertyOp17
 70
     1
102
RTVSPropertyOp18
 70
     1
102
RTVSPropertyOp19
 70
     1
102
RTVSPropertyOp20
 70
     1
102
RTVSPropertyOp21
 70
     1
102
RTVSPropertyOp22
 70
     1
102
RTVSPropertyOp23
 70
     1
102
RTVSPropertyOp24
 70
     1
102
RTVSPropertyOp25
 70
     1
102
RTVSPropertyOp26
 70
     1
102
RTVSPropertyOp27
 70
     1
102
RTVSPropertyOp28
 70
     1
102
RTVSPropertyOp29
 70
     1
102
RTVSPropertyOp30
 70
     1
102
RTVSPropertyOp31
 70
     1
102
RTVSPropertyOp32
 70
     1
  0
XRECORD
  5
52A3A
102
{ACAD_REACTORS
330
52A39
102
}
330
52A39
100
AcDbXrecord
280
     1
102
RTVSPropertyOp0
 70
     1
102
RTVSPropertyOp1
 70
     1
102
RTVSPropertyOp2
 70
     1
102
RTVSPropertyOp3
 70
     1
102
RTVSPropertyOp4
 70
     1
102
RTVSPropertyOp5
 70
     1
102
RTVSPropertyOp6
 70
     1
102
RTVSPropertyOp7
 70
     1
102
RTVSPropertyOp8
 70
     1
102
RTVSPropertyOp9
 70
     1
102
RTVSPropertyOp10
 70
     1
102
RTVSPropertyOp11
 70
     1
102
RTVSPropertyOp12
 70
     1
102
RTVSPropertyOp13
 70
     1
102
RTVSPropertyOp14
 70
     1
102
RTVSPropertyOp15
 70
     1
102
RTVSPropertyOp16
 70
     1
102
RTVSPropertyOp17
 70
     1
102
RTVSPropertyOp18
 70
     1
102
RTVSPropertyOp19
 70
     1
102
RTVSPropertyOp20
 70
     1
102
RTVSPropertyOp21
 70
     1
102
RTVSPropertyOp22
 70
     1
102
RTVSPropertyOp23
 70
     1
102
RTVSPropertyOp24
 70
     1
102
RTVSPropertyOp25
 70
     1
102
RTVSPropertyOp26
 70
     1
102
RTVSPropertyOp27
 70
     1
102
RTVSPropertyOp28
 70
     1
102
RTVSPropertyOp29
 70
     1
102
RTVSPropertyOp30
 70
     1
102
RTVSPropertyOp31
 70
     1
102
RTVSPropertyOp32
 70
     1
  0
XRECORD
  5
52A46
102
{ACAD_REACTORS
330
52A45
102
}
330
52A45
100
AcDbXrecord
280
     1
102
RTVSPropertyOp0
 70
     0
102
RTVSPropertyOp1
 70
     0
102
RTVSPropertyOp2
 70
     0
102
RTVSPropertyOp3
 70
     0
102
RTVSPropertyOp4
 70
     0
102
RTVSPropertyOp5
 70
     0
102
RTVSPropertyOp6
 70
     0
102
RTVSPropertyOp7
 70
     0
102
RTVSPropertyOp8
 70
     0
102
RTVSPropertyOp9
 70
     0
102
RTVSPropertyOp10
 70
     0
102
RTVSPropertyOp11
 70
     0
102
RTVSPropertyOp12
 70
     0
102
RTVSPropertyOp13
 70
     0
102
RTVSPropertyOp14
 70
     2
102
RTVSPropertyOp15
 70
     0
102
RTVSPropertyOp16
 70
     0
102
RTVSPropertyOp17
 70
     0
102
RTVSPropertyOp18
 70
     0
102
RTVSPropertyOp19
 70
     0
102
RTVSPropertyOp20
 70
     0
102
RTVSPropertyOp21
 70
     0
102
RTVSPropertyOp22
 70
     0
102
RTVSPropertyOp23
 70
     0
102
RTVSPropertyOp24
 70
     0
102
RTVSPropertyOp25
 70
     0
102
RTVSPropertyOp26
 70
     0
102
RTVSPropertyOp27
 70
     0
102
RTVSPropertyOp28
 70
     1
102
RTVSPropertyOp29
 70
     1
102
RTVSPropertyOp30
 70
     1
102
RTVSPropertyOp31
 70
     1
102
RTVSPropertyOp32
 70
     1
  0
XRECORD
  5
52A31
102
{ACAD_REACTORS
330
52A30
102
}
330
52A30
100
AcDbXrecord
280
     1
102
RTVSPropertyOp0
 70
     1
102
RTVSPropertyOp1
 70
     1
102
RTVSPropertyOp2
 70
     1
102
RTVSPropertyOp3
 70
     1
102
RTVSPropertyOp4
 70
     1
102
RTVSPropertyOp5
 70
     1
102
RTVSPropertyOp6
 70
     1
102
RTVSPropertyOp7
 70
     1
102
RTVSPropertyOp8
 70
     1
102
RTVSPropertyOp9
 70
     1
102
RTVSPropertyOp10
 70
     1
102
RTVSPropertyOp11
 70
     1
102
RTVSPropertyOp12
 70
     1
102
RTVSPropertyOp13
 70
     1
102
RTVSPropertyOp14
 70
     1
102
RTVSPropertyOp15
 70
     1
102
RTVSPropertyOp16
 70
     1
102
RTVSPropertyOp17
 70
     1
102
RTVSPropertyOp18
 70
     1
102
RTVSPropertyOp19
 70
     1
102
RTVSPropertyOp20
 70
     1
102
RTVSPropertyOp21
 70
     1
102
RTVSPropertyOp22
 70
     1
102
RTVSPropertyOp23
 70
     1
102
RTVSPropertyOp24
 70
     1
102
RTVSPropertyOp25
 70
     1
102
RTVSPropertyOp26
 70
     1
102
RTVSPropertyOp27
 70
     1
102
RTVSPropertyOp28
 70
     1
102
RTVSPropertyOp29
 70
     1
102
RTVSPropertyOp30
 70
     1
102
RTVSPropertyOp31
 70
     1
102
RTVSPropertyOp32
 70
     1
  0
XRECORD
  5
52A48
102
{ACAD_REACTORS
330
52A47
102
}
330
52A47
100
AcDbXrecord
280
     1
102
RTVSPropertyOp0
 70
     0
102
RTVSPropertyOp1
 70
     0
102
RTVSPropertyOp2
 70
     0
102
RTVSPropertyOp3
 70
     0
102
RTVSPropertyOp4
 70
     0
102
RTVSPropertyOp5
 70
     0
102
RTVSPropertyOp6
 70
     0
102
RTVSPropertyOp7
 70
     0
102
RTVSPropertyOp8
 70
     0
102
RTVSPropertyOp9
 70
     0
102
RTVSPropertyOp10
 70
     0
102
RTVSPropertyOp11
 70
     0
102
RTVSPropertyOp12
 70
     0
102
RTVSPropertyOp13
 70
     0
102
RTVSPropertyOp14
 70
     2
102
RTVSPropertyOp15
 70
     0
102
RTVSPropertyOp16
 70
     0
102
RTVSPropertyOp17
 70
     0
102
RTVSPropertyOp18
 70
     0
102
RTVSPropertyOp19
 70
     0
102
RTVSPropertyOp20
 70
     0
102
RTVSPropertyOp21
 70
     0
102
RTVSPropertyOp22
 70
     0
102
RTVSPropertyOp23
 70
     0
102
RTVSPropertyOp24
 70
     0
102
RTVSPropertyOp25
 70
     0
102
RTVSPropertyOp26
 70
     0
102
RTVSPropertyOp27
 70
     0
102
RTVSPropertyOp28
 70
     1
102
RTVSPropertyOp29
 70
     1
102
RTVSPropertyOp30
 70
     1
102
RTVSPropertyOp31
 70
     1
102
RTVSPropertyOp32
 70
     1
  0
XRECORD
  5
52A29
102
{ACAD_REACTORS
330
52A28
102
}
330
52A28
100
AcDbXrecord
280
     1
102
RTVSPropertyOp0
 70
     1
102
RTVSPropertyOp1
 70
     1
102
RTVSPropertyOp2
 70
     1
102
RTVSPropertyOp3
 70
     1
102
RTVSPropertyOp4
 70
     1
102
RTVSPropertyOp5
 70
     1
102
RTVSPropertyOp6
 70
     1
102
RTVSPropertyOp7
 70
     1
102
RTVSPropertyOp8
 70
     1
102
RTVSPropertyOp9
 70
     1
102
RTVSPropertyOp10
 70
     1
102
RTVSPropertyOp11
 70
     1
102
RTVSPropertyOp12
 70
     1
102
RTVSPropertyOp13
 70
     1
102
RTVSPropertyOp14
 70
     1
102
RTVSPropertyOp15
 70
     1
102
RTVSPropertyOp16
 70
     1
102
RTVSPropertyOp17
 70
     1
102
RTVSPropertyOp18
 70
     1
102
RTVSPropertyOp19
 70
     1
102
RTVSPropertyOp20
 70
     1
102
RTVSPropertyOp21
 70
     1
102
RTVSPropertyOp22
 70
     1
102
RTVSPropertyOp23
 70
     1
102
RTVSPropertyOp24
 70
     1
102
RTVSPropertyOp25
 70
     1
102
RTVSPropertyOp26
 70
     1
102
RTVSPropertyOp27
 70
     1
102
RTVSPropertyOp28
 70
     1
102
RTVSPropertyOp29
 70
     1
102
RTVSPropertyOp30
 70
     1
102
RTVSPropertyOp31
 70
     1
102
RTVSPropertyOp32
 70
     1
  0
XRECORD
  5
52A44
102
{ACAD_REACTORS
330
52A43
102
}
330
52A43
100
AcDbXrecord
280
     1
102
RTVSPropertyOp0
 70
     1
102
RTVSPropertyOp1
 70
     1
102
RTVSPropertyOp2
 70
     1
102
RTVSPropertyOp3
 70
     1
102
RTVSPropertyOp4
 70
     1
102
RTVSPropertyOp5
 70
     1
102
RTVSPropertyOp6
 70
     1
102
RTVSPropertyOp7
 70
     1
102
RTVSPropertyOp8
 70
     1
102
RTVSPropertyOp9
 70
     1
102
RTVSPropertyOp10
 70
     1
102
RTVSPropertyOp11
 70
     1
102
RTVSPropertyOp12
 70
     1
102
RTVSPropertyOp13
 70
     1
102
RTVSPropertyOp14
 70
     1
102
RTVSPropertyOp15
 70
     1
102
RTVSPropertyOp16
 70
     1
102
RTVSPropertyOp17
 70
     1
102
RTVSPropertyOp18
 70
     1
102
RTVSPropertyOp19
 70
     1
102
RTVSPropertyOp20
 70
     1
102
RTVSPropertyOp21
 70
     1
102
RTVSPropertyOp22
 70
     1
102
RTVSPropertyOp23
 70
     1
102
RTVSPropertyOp24
 70
     1
102
RTVSPropertyOp25
 70
     1
102
RTVSPropertyOp26
 70
     1
102
RTVSPropertyOp27
 70
     1
102
RTVSPropertyOp28
 70
     1
102
RTVSPropertyOp29
 70
     1
102
RTVSPropertyOp30
 70
     1
102
RTVSPropertyOp31
 70
     1
102
RTVSPropertyOp32
 70
     1
  0
XRECORD
  5
52A42
102
{ACAD_REACTORS
330
52A41
102
}
330
52A41
100
AcDbXrecord
280
     1
102
RTVSPropertyOp0
 70
     1
102
RTVSPropertyOp1
 70
     1
102
RTVSPropertyOp2
 70
     1
102
RTVSPropertyOp3
 70
     1
102
RTVSPropertyOp4
 70
     1
102
RTVSPropertyOp5
 70
     1
102
RTVSPropertyOp6
 70
     1
102
RTVSPropertyOp7
 70
     1
102
RTVSPropertyOp8
 70
     1
102
RTVSPropertyOp9
 70
     1
102
RTVSPropertyOp10
 70
     1
102
RTVSPropertyOp11
 70
     1
102
RTVSPropertyOp12
 70
     1
102
RTVSPropertyOp13
 70
     1
102
RTVSPropertyOp14
 70
     1
102
RTVSPropertyOp15
 70
     1
102
RTVSPropertyOp16
 70
     1
102
RTVSPropertyOp17
 70
     1
102
RTVSPropertyOp18
 70
     1
102
RTVSPropertyOp19
 70
     1
102
RTVSPropertyOp20
 70
     1
102
RTVSPropertyOp21
 70
     1
102
RTVSPropertyOp22
 70
     1
102
RTVSPropertyOp23
 70
     1
102
RTVSPropertyOp24
 70
     1
102
RTVSPropertyOp25
 70
     1
102
RTVSPropertyOp26
 70
     1
102
RTVSPropertyOp27
 70
     1
102
RTVSPropertyOp28
 70
     1
102
RTVSPropertyOp29
 70
     1
102
RTVSPropertyOp30
 70
     1
102
RTVSPropertyOp31
 70
     1
102
RTVSPropertyOp32
 70
     1
  0
XRECORD
  5
52A3C
102
{ACAD_REACTORS
330
52A3B
102
}
330
52A3B
100
AcDbXrecord
280
     1
102
RTVSPropertyOp0
 70
     1
102
RTVSPropertyOp1
 70
     1
102
RTVSPropertyOp2
 70
     1
102
RTVSPropertyOp3
 70
     1
102
RTVSPropertyOp4
 70
     1
102
RTVSPropertyOp5
 70
     1
102
RTVSPropertyOp6
 70
     1
102
RTVSPropertyOp7
 70
     1
102
RTVSPropertyOp8
 70
     1
102
RTVSPropertyOp9
 70
     1
102
RTVSPropertyOp10
 70
     1
102
RTVSPropertyOp11
 70
     1
102
RTVSPropertyOp12
 70
     1
102
RTVSPropertyOp13
 70
     1
102
RTVSPropertyOp14
 70
     1
102
RTVSPropertyOp15
 70
     1
102
RTVSPropertyOp16
 70
     1
102
RTVSPropertyOp17
 70
     1
102
RTVSPropertyOp18
 70
     1
102
RTVSPropertyOp19
 70
     1
102
RTVSPropertyOp20
 70
     1
102
RTVSPropertyOp21
 70
     1
102
RTVSPropertyOp22
 70
     1
102
RTVSPropertyOp23
 70
     1
102
RTVSPropertyOp24
 70
     1
102
RTVSPropertyOp25
 70
     1
102
RTVSPropertyOp26
 70
     1
102
RTVSPropertyOp27
 70
     1
102
RTVSPropertyOp28
 70
     1
102
RTVSPropertyOp29
 70
     1
102
RTVSPropertyOp30
 70
     1
102
RTVSPropertyOp31
 70
     1
102
RTVSPropertyOp32
 70
     1
  0
XRECORD
  5
52A3E
102
{ACAD_REACTORS
330
52A3D
102
}
330
52A3D
100
AcDbXrecord
280
     1
102
RTVSPropertyOp0
 70
     1
102
RTVSPropertyOp1
 70
     1
102
RTVSPropertyOp2
 70
     1
102
RTVSPropertyOp3
 70
     1
102
RTVSPropertyOp4
 70
     1
102
RTVSPropertyOp5
 70
     1
102
RTVSPropertyOp6
 70
     1
102
RTVSPropertyOp7
 70
     1
102
RTVSPropertyOp8
 70
     1
102
RTVSPropertyOp9
 70
     1
102
RTVSPropertyOp10
 70
     1
102
RTVSPropertyOp11
 70
     1
102
RTVSPropertyOp12
 70
     1
102
RTVSPropertyOp13
 70
     1
102
RTVSPropertyOp14
 70
     1
102
RTVSPropertyOp15
 70
     1
102
RTVSPropertyOp16
 70
     1
102
RTVSPropertyOp17
 70
     1
102
RTVSPropertyOp18
 70
     1
102
RTVSPropertyOp19
 70
     1
102
RTVSPropertyOp20
 70
     1
102
RTVSPropertyOp21
 70
     1
102
RTVSPropertyOp22
 70
     1
102
RTVSPropertyOp23
 70
     1
102
RTVSPropertyOp24
 70
     1
102
RTVSPropertyOp25
 70
     1
102
RTVSPropertyOp26
 70
     1
102
RTVSPropertyOp27
 70
     1
102
RTVSPropertyOp28
 70
     1
102
RTVSPropertyOp29
 70
     1
102
RTVSPropertyOp30
 70
     1
102
RTVSPropertyOp31
 70
     1
102
RTVSPropertyOp32
 70
     1
  0
XRECORD
  5
52A2F
102
{ACAD_REACTORS
330
52A2E
102
}
330
52A2E
100
AcDbXrecord
280
     1
102
RTVSPropertyOp0
 70
     1
102
RTVSPropertyOp1
 70
     1
102
RTVSPropertyOp2
 70
     1
102
RTVSPropertyOp3
 70
     1
102
RTVSPropertyOp4
 70
     1
102
RTVSPropertyOp5
 70
     1
102
RTVSPropertyOp6
 70
     1
102
RTVSPropertyOp7
 70
     1
102
RTVSPropertyOp8
 70
     1
102
RTVSPropertyOp9
 70
     1
102
RTVSPropertyOp10
 70
     1
102
RTVSPropertyOp11
 70
     1
102
RTVSPropertyOp12
 70
     1
102
RTVSPropertyOp13
 70
     1
102
RTVSPropertyOp14
 70
     1
102
RTVSPropertyOp15
 70
     1
102
RTVSPropertyOp16
 70
     1
102
RTVSPropertyOp17
 70
     1
102
RTVSPropertyOp18
 70
     1
102
RTVSPropertyOp19
 70
     1
102
RTVSPropertyOp20
 70
     1
102
RTVSPropertyOp21
 70
     1
102
RTVSPropertyOp22
 70
     1
102
RTVSPropertyOp23
 70
     1
102
RTVSPropertyOp24
 70
     1
102
RTVSPropertyOp25
 70
     1
102
RTVSPropertyOp26
 70
     1
102
RTVSPropertyOp27
 70
     1
102
RTVSPropertyOp28
 70
     1
102
RTVSPropertyOp29
 70
     1
102
RTVSPropertyOp30
 70
     1
102
RTVSPropertyOp31
 70
     1
102
RTVSPropertyOp32
 70
     1
  0
XRECORD
  5
52A38
102
{ACAD_REACTORS
330
52A37
102
}
330
52A37
100
AcDbXrecord
280
     1
102
RTVSPropertyOp0
 70
     1
102
RTVSPropertyOp1
 70
     1
102
RTVSPropertyOp2
 70
     1
102
RTVSPropertyOp3
 70
     1
102
RTVSPropertyOp4
 70
     1
102
RTVSPropertyOp5
 70
     1
102
RTVSPropertyOp6
 70
     1
102
RTVSPropertyOp7
 70
     1
102
RTVSPropertyOp8
 70
     1
102
RTVSPropertyOp9
 70
     1
102
RTVSPropertyOp10
 70
     1
102
RTVSPropertyOp11
 70
     1
102
RTVSPropertyOp12
 70
     1
102
RTVSPropertyOp13
 70
     1
102
RTVSPropertyOp14
 70
     1
102
RTVSPropertyOp15
 70
     1
102
RTVSPropertyOp16
 70
     1
102
RTVSPropertyOp17
 70
     1
102
RTVSPropertyOp18
 70
     1
102
RTVSPropertyOp19
 70
     1
102
RTVSPropertyOp20
 70
     1
102
RTVSPropertyOp21
 70
     1
102
RTVSPropertyOp22
 70
     1
102
RTVSPropertyOp23
 70
     1
102
RTVSPropertyOp24
 70
     1
102
RTVSPropertyOp25
 70
     1
102
RTVSPropertyOp26
 70
     1
102
RTVSPropertyOp27
 70
     1
102
RTVSPropertyOp28
 70
     1
102
RTVSPropertyOp29
 70
     1
102
RTVSPropertyOp30
 70
     1
102
RTVSPropertyOp31
 70
     1
102
RTVSPropertyOp32
 70
     1
  0
XRECORD
  5
52A40
102
{ACAD_REACTORS
330
52A3F
102
}
330
52A3F
100
AcDbXrecord
280
     1
102
RTVSPropertyOp0
 70
     1
102
RTVSPropertyOp1
 70
     1
102
RTVSPropertyOp2
 70
     1
102
RTVSPropertyOp3
 70
     1
102
RTVSPropertyOp4
 70
     1
102
RTVSPropertyOp5
 70
     1
102
RTVSPropertyOp6
 70
     1
102
RTVSPropertyOp7
 70
     1
102
RTVSPropertyOp8
 70
     1
102
RTVSPropertyOp9
 70
     1
102
RTVSPropertyOp10
 70
     1
102
RTVSPropertyOp11
 70
     1
102
RTVSPropertyOp12
 70
     1
102
RTVSPropertyOp13
 70
     1
102
RTVSPropertyOp14
 70
     1
102
RTVSPropertyOp15
 70
     1
102
RTVSPropertyOp16
 70
     1
102
RTVSPropertyOp17
 70
     1
102
RTVSPropertyOp18
 70
     1
102
RTVSPropertyOp19
 70
     1
102
RTVSPropertyOp20
 70
     1
102
RTVSPropertyOp21
 70
     1
102
RTVSPropertyOp22
 70
     1
102
RTVSPropertyOp23
 70
     1
102
RTVSPropertyOp24
 70
     1
102
RTVSPropertyOp25
 70
     1
102
RTVSPropertyOp26
 70
     1
102
RTVSPropertyOp27
 70
     1
102
RTVSPropertyOp28
 70
     1
102
RTVSPropertyOp29
 70
     1
102
RTVSPropertyOp30
 70
     1
102
RTVSPropertyOp31
 70
     1
102
RTVSPropertyOp32
 70
     1
  0
ENDSEC
  0
EOF
