  0
SECTION
  2
HEADER
  9
$ACADVER
  1
AC1018
  9
$ACADMAINTVER
 70
   104
  9
$DWGCODEPAGE
  3
ANSI_932
  9
$LASTSAVEDBY
  1
HON1000CV
  9
$INSBASE
 10
0.0
 20
0.0
 30
0.0
  9
$EXTMIN
 10
-1459.605617585445
 20
3004.783404165618
 30
0.0
  9
$EXTMAX
 10
-668.6025376315329
 20
3405.047530315092
 30
0.0
  9
$LIMMIN
 10
0.0
 20
0.0
  9
$LIMMAX
 10
841.0
 20
594.0
  9
$ORTHOMODE
 70
     0
  9
$REGENMODE
 70
     1
  9
$FILLMODE
 70
     1
  9
$QTEXTMODE
 70
     0
  9
$MIRRTEXT
 70
     1
  9
$LTSCALE
 40
1.0
  9
$ATTMODE
 70
     1
  9
$TEXTSIZE
 40
2.5
  9
$TRACEWID
 40
1.0
  9
$TEXTSTYLE
  7
Standard
  9
$CLAYER
  8
0
  9
$CELTYPE
  6
ByLayer
  9
$CECOLOR
 62
   256
  9
$CELTSCALE
 40
1.0
  9
$DISPSILH
 70
     0
  9
$DIMSCALE
 40
1.0
  9
$DIMASZ
 40
4.5
  9
$DIMEXO
 40
0.0
  9
$DIMDLI
 40
0.38
  9
$DIMRND
 40
0.0
  9
$DIMDLE
 40
0.0
  9
$DIMEXE
 40
0.0
  9
$DIMTP
 40
0.0
  9
$DIMTM
 40
0.0
  9
$DIMTXT
 40
9.0
  9
$DIMCEN
 40
0.09
  9
$DIMTSZ
 40
0.0
  9
$DIMTOL
 70
     0
  9
$DIMLIM
 70
     0
  9
$DIMTIH
 70
     0
  9
$DIMTOH
 70
     1
  9
$DIMSE1
 70
     0
  9
$DIMSE2
 70
     0
  9
$DIMTAD
 70
     1
  9
$DIMZIN
 70
     0
  9
$DIMBLK
  1
Small
  9
$DIMASO
 70
     1
  9
$DIMSHO
 70
     1
  9
$DIMPOST
  1

  9
$DIMAPOST
  1

  9
$DIMALT
 70
     0
  9
$DIMALTD
 70
     2
  9
$DIMALTF
 40
25.4
  9
$DIMLFAC
 40
1.0
  9
$DIMTOFL
 70
     0
  9
$DIMTVP
 40
0.0
  9
$DIMTIX
 70
     1
  9
$DIMSOXD
 70
     0
  9
$DIMSAH
 70
     0
  9
$DIMBLK1
  1

  9
$DIMBLK2
  1

  9
$DIMSTYLE
  2
AutoCAD
  9
$DIMCLRD
 70
     4
  9
$DIMCLRE
 70
     4
  9
$DIMCLRT
 70
     3
  9
$DIMTFAC
 40
1.0
  9
$DIMGAP
 40
3.0
  9
$DIMJUST
 70
     0
  9
$DIMSD1
 70
     0
  9
$DIMSD2
 70
     0
  9
$DIMTOLJ
 70
     1
  9
$DIMTZIN
 70
     0
  9
$DIMALTZ
 70
     0
  9
$DIMALTTZ
 70
     0
  9
$DIMUPT
 70
     0
  9
$DIMDEC
 70
     0
  9
$DIMTDEC
 70
     0
  9
$DIMALTU
 70
     2
  9
$DIMALTTD
 70
     2
  9
$DIMTXSTY
  7
ACAD
  9
$DIMAUNIT
 70
     0
  9
$DIMADEC
 70
     0
  9
$DIMALTRND
 40
0.0
  9
$DIMAZIN
 70
     0
  9
$DIMDSEP
 70
    46
  9
$DIMATFIT
 70
     0
  9
$DIMFRAC
 70
     0
  9
$DIMLDRBLK
  1
None
  9
$DIMLUNIT
 70
     2
  9
$DIMLWD
 70
    -2
  9
$DIMLWE
 70
    -2
  9
$DIMTMOVE
 70
     0
  9
$LUNITS
 70
     2
  9
$LUPREC
 70
     2
  9
$SKETCHINC
 40
1.0
  9
$FILLETRAD
 40
0.0
  9
$AUNITS
 70
     0
  9
$AUPREC
 70
     2
  9
$MENU
  1
.
  9
$ELEVATION
 40
0.0
  9
$PELEVATION
 40
0.0
  9
$THICKNESS
 40
0.0
  9
$LIMCHECK
 70
     0
  9
$CHAMFERA
 40
10.0
  9
$CHAMFERB
 40
10.0
  9
$CHAMFERC
 40
20.0
  9
$CHAMFERD
 40
0.0
  9
$SKPOLY
 70
     0
  9
$TDCREATE
 40
2455748.681291193
  9
$TDUCREATE
 40
2455748.306291193
  9
$TDUPDATE
 40
2455961.472371667
  9
$TDUUPDATE
 40
2455961.097371667
  9
$TDINDWG
 40
0.0390983449
  9
$TDUSRTIMER
 40
0.0390983449
  9
$USRTIMER
 70
     1
  9
$ANGBASE
 50
0.0
  9
$ANGDIR
 70
     0
  9
$PDMODE
 70
     0
  9
$PDSIZE
 40
10.0
  9
$PLINEWID
 40
0.0
  9
$SPLFRAME
 70
     0
  9
$SPLINETYPE
 70
     6
  9
$SPLINESEGS
 70
     8
  9
$HANDSEED
  5
52794
  9
$SURFTAB1
 70
     6
  9
$SURFTAB2
 70
     6
  9
$SURFTYPE
 70
     6
  9
$SURFU
 70
     6
  9
$SURFV
 70
     6
  9
$UCSBASE
  2

  9
$UCSNAME
  2

  9
$UCSORG
 10
0.0
 20
0.0
 30
0.0
  9
$UCSXDIR
 10
1.0
 20
0.0
 30
0.0
  9
$UCSYDIR
 10
0.0
 20
1.0
 30
0.0
  9
$UCSORTHOREF
  2

  9
$UCSORTHOVIEW
 70
     0
  9
$UCSORGTOP
 10
0.0
 20
0.0
 30
0.0
  9
$UCSORGBOTTOM
 10
0.0
 20
0.0
 30
0.0
  9
$UCSORGLEFT
 10
0.0
 20
0.0
 30
0.0
  9
$UCSORGRIGHT
 10
0.0
 20
0.0
 30
0.0
  9
$UCSORGFRONT
 10
0.0
 20
0.0
 30
0.0
  9
$UCSORGBACK
 10
0.0
 20
0.0
 30
0.0
  9
$PUCSBASE
  2

  9
$PUCSNAME
  2

  9
$PUCSORG
 10
0.0
 20
0.0
 30
0.0
  9
$PUCSXDIR
 10
1.0
 20
0.0
 30
0.0
  9
$PUCSYDIR
 10
0.0
 20
1.0
 30
0.0
  9
$PUCSORTHOREF
  2

  9
$PUCSORTHOVIEW
 70
     0
  9
$PUCSORGTOP
 10
0.0
 20
0.0
 30
0.0
  9
$PUCSORGBOTTOM
 10
0.0
 20
0.0
 30
0.0
  9
$PUCSORGLEFT
 10
0.0
 20
0.0
 30
0.0
  9
$PUCSORGRIGHT
 10
0.0
 20
0.0
 30
0.0
  9
$PUCSORGFRONT
 10
0.0
 20
0.0
 30
0.0
  9
$PUCSORGBACK
 10
0.0
 20
0.0
 30
0.0
  9
$USERI1
 70
     0
  9
$USERI2
 70
     0
  9
$USERI3
 70
     0
  9
$USERI4
 70
     0
  9
$USERI5
 70
     0
  9
$USERR1
 40
0.0
  9
$USERR2
 40
0.0
  9
$USERR3
 40
0.0
  9
$USERR4
 40
0.0
  9
$USERR5
 40
0.0
  9
$WORLDVIEW
 70
     1
  9
$SHADEDGE
 70
     3
  9
$SHADEDIF
 70
    70
  9
$TILEMODE
 70
     1
  9
$MAXACTVP
 70
    48
  9
$PINSBASE
 10
0.0
 20
0.0
 30
0.0
  9
$PLIMCHECK
 70
     0
  9
$PEXTMIN
 10
0.0
 20
0.0
 30
0.0
  9
$PEXTMAX
 10
0.0
 20
0.0
 30
0.0
  9
$PLIMMIN
 10
0.0
 20
0.0
  9
$PLIMMAX
 10
12.0
 20
9.0
  9
$UNITMODE
 70
     0
  9
$VISRETAIN
 70
     1
  9
$PLINEGEN
 70
     0
  9
$PSLTSCALE
 70
     1
  9
$TREEDEPTH
 70
  3020
  9
$CMLSTYLE
  2
Standard
  9
$CMLJUST
 70
     1
  9
$CMLSCALE
 40
3.5
  9
$PROXYGRAPHICS
 70
     1
  9
$MEASUREMENT
 70
     1
  9
$CELWEIGHT
370
    -1
  9
$ENDCAPS
280
     0
  9
$JOINSTYLE
280
     0
  9
$LWDISPLAY
290
     0
  9
$INSUNITS
 70
     4
  9
$HYPERLINKBASE
  1

  9
$STYLESHEET
  1
monochrome.ctb
  9
$XEDIT
290
     1
  9
$CEPSNTYPE
380
     0
  9
$PSTYLEMODE
290
     1
  9
$FINGERPRINTGUID
  2
{75253CF9-08B3-4660-9A51-F564FBA57CE0}
  9
$VERSIONGUID
  2
{0F41C64C-7283-4FA4-9CE4-5B14547C5F38}
  9
$EXTNAMES
290
     1
  9
$PSVPSCALE
 40
0.0
  9
$OLESTARTUP
290
     0
  9
$SORTENTS
280
    96
  9
$INDEXCTL
280
     0
  9
$HIDETEXT
280
     0
  9
$XCLIPFRAME
290
     0
  9
$HALOGAP
280
     0
  9
$OBSCOLOR
 70
   257
  9
$OBSLTYPE
280
     0
  9
$INTERSECTIONDISPLAY
280
     0
  9
$INTERSECTIONCOLOR
 70
   257
  9
$DIMASSOC
280
     1
  9
$PROJECTNAME
  1

  0
ENDSEC
  0
SECTION
  2
CLASSES
  0
CLASS
  1
ACDBDICTIONARYWDFLT
  2
AcDbDictionaryWithDefault
  3
ObjectDBX Classes
 90
        0
 91
        1
280
     0
281
     0
  0
CLASS
  1
DICTIONARYVAR
  2
AcDbDictionaryVar
  3
ObjectDBX Classes
 90
        0
 91
        9
280
     0
281
     0
  0
CLASS
  1
MATERIAL
  2
AcDbMaterial
  3
ObjectDBX Classes
 90
     1153
 91
        3
280
     0
281
     0
  0
CLASS
  1
VISUALSTYLE
  2
AcDbVisualStyle
  3
ObjectDBX Classes
 90
     4095
 91
       26
280
     0
281
     0
  0
CLASS
  1
TABLESTYLE
  2
AcDbTableStyle
  3
ObjectDBX Classes
 90
     4095
 91
        1
280
     0
281
     0
  0
CLASS
  1
SCALE
  2
AcDbScale
  3
ObjectDBX Classes
 90
     1153
 91
       21
280
     0
281
     0
  0
CLASS
  1
MLEADERSTYLE
  2
AcDbMLeaderStyle
  3
ACDB_MLEADERSTYLE_CLASS
 90
     4095
 91
        1
280
     0
281
     0
  0
CLASS
  1
CELLSTYLEMAP
  2
AcDbCellStyleMap
  3
ObjectDBX Classes
 90
     1152
 91
        2
280
     0
281
     0
  0
CLASS
  1
AEC_REFEDIT_STATUS_TRACKER
  2
AecDbRefEditStatusTracker
  3
AecArchBase60|Product Desc: Autodesk Architectural Desktop 2007 |Company: Autodesk,Inc. |WEB Address: www.autodesk.com
 90
      129
 91
        0
280
     0
281
     0
  0
CLASS
  1
NPOCOLLECTION
  2
AcDbImpNonPersistentObjectsCollection
  3
ObjectDBX Classes
 90
     1153
 91
        0
280
     0
281
     0
  0
CLASS
  1
PLOTSETTINGS
  2
AcDbPlotSettings
  3
ObjectDBX Classes
 90
        0
 91
        8
280
     0
281
     0
  0
CLASS
  1
SORTENTSTABLE
  2
AcDbSortentsTable
  3
ObjectDBX Classes
 90
        0
 91
        2
280
     0
281
     0
  0
CLASS
  1
ACAD_EVALUATION_GRAPH
  2
AcDbEvalGraph
  3
ObjectDBX Classes
 90
     1153
 91
        0
280
     0
281
     0
  0
CLASS
  1
ACAECUSTOBJ
  2
AcAeEditorObj
  3
AcAeEditorObj
 90
     1024
 91
        0
280
     0
281
     0
  0
CLASS
  1
ACDB_DYNAMICBLOCKPURGEPREVENTER_VERSION
  2
AcDbDynamicBlockPurgePreventer
  3
ObjectDBX Classes
 90
     1153
 91
        0
280
     0
281
     0
  0
CLASS
  1
SOLID_BACKGROUND
  2
AcDbSolidBackground
  3
SCENEOE
 90
     4095
 91
        0
280
     0
281
     0
  0
ENDSEC
  0
SECTION
  2
TABLES
  0
TABLE
  2
VPORT
  5
8
102
{ACAD_XDICTIONARY
360
5265B
102
}
330
0
100
AcDbSymbolTable
 70
     1
  0
VPORT
  5
1FF1E
330
8
100
AcDbSymbolTableRecord
100
AcDbViewportTableRecord
  2
*Active
 70
     0
 10
0.0
 20
0.0
 11
1.0
 21
1.0
 12
-1578.639251201187
 22
-343.8081949082544
 13
0.0
 23
0.0
 14
10.0
 24
10.0
 15
10.0
 25
10.0
 16
0.0
 26
0.0
 36
2120.973378360774
 17
514.5358060702892
 27
3548.809190640961
 37
0.0
 40
403.9060835164371
 41
2.519736842105263
 42
50.0
 43
0.0
 44
0.0
 50
0.0
 51
0.0
 71
     0
 72
   100
 73
     1
 74
     3
 75
     0
 76
     0
 77
     0
 78
     0
281
     0
 65
     1
110
0.0
120
0.0
130
0.0
111
1.0
121
0.0
131
0.0
112
0.0
122
1.0
132
0.0
 79
     0
146
0.0
1001
ACAD_NAV_VCDISPLAY
1070
     3
  0
ENDTAB
  0
TABLE
  2
LTYPE
  5
5
330
0
100
AcDbSymbolTable
 70
     2
  0
LTYPE
  5
14
330
5
100
AcDbSymbolTableRecord
100
AcDbLinetypeTableRecord
  2
ByBlock
 70
     0
  3

 72
    65
 73
     0
 40
0.0
  0
LTYPE
  5
15
330
5
100
AcDbSymbolTableRecord
100
AcDbLinetypeTableRecord
  2
ByLayer
 70
     0
  3

 72
    65
 73
     0
 40
0.0
  0
LTYPE
  5
16
330
5
100
AcDbSymbolTableRecord
100
AcDbLinetypeTableRecord
  2
Continuous
 70
     0
  3
Solid line
 72
    65
 73
     0
 40
0.0
  0
LTYPE
  5
4BDA4
330
5
100
AcDbSymbolTableRecord
100
AcDbLinetypeTableRecord
  2
CENTER1
 70
     0
  3
----- - ----- - ----- - ----- - 
 72
    65
 73
     4
 40
10.0
 49
6.25
 74
     0
 49
-1.25
 74
     0
 49
1.25
 74
     0
 49
-1.25
 74
     0
  0
ENDTAB
  0
TABLE
  2
LAYER
  5
2
102
{ACAD_XDICTIONARY
360
1562
102
}
330
0
100
AcDbSymbolTable
 70
     6
  0
LAYER
  5
10
102
{ACAD_XDICTIONARY
360
22778
102
}
330
2
100
AcDbSymbolTableRecord
100
AcDbLayerTableRecord
  2
0
 70
     0
 62
     7
  6
Continuous
370
    -3
390
F
  0
LAYER
  5
16F1
330
2
100
AcDbSymbolTableRecord
100
AcDbLayerTableRecord
  2
Defpoints
 70
     0
 62
    20
  6
Continuous
290
     0
370
    -3
390
F
  0
LAYER
  5
4BDA5
102
{ACAD_XDICTIONARY
360
4BDA6
102
}
330
2
100
AcDbSymbolTableRecord
100
AcDbLayerTableRecord
  2
寸法
 70
     0
 62
     7
  6
Continuous
370
    -3
390
F
  0
LAYER
  5
4BDA7
102
{ACAD_XDICTIONARY
360
4BDA8
102
}
330
2
100
AcDbSymbolTableRecord
100
AcDbLayerTableRecord
  2
躯体と製品
 70
     0
 62
     7
  6
Continuous
370
    -3
390
F
  0
LAYER
  5
4BDA9
102
{ACAD_XDICTIONARY
360
4BDAA
102
}
330
2
100
AcDbSymbolTableRecord
100
AcDbLayerTableRecord
  2
文字-記号
 70
     0
 62
     7
  6
Continuous
370
    -3
390
F
  0
LAYER
  5
4BDAB
102
{ACAD_XDICTIONARY
360
525A1
102
}
330
2
100
AcDbSymbolTableRecord
100
AcDbLayerTableRecord
  2
中心線
 70
     0
 62
     7
  6
Continuous
370
    -3
390
F
1001
AcAecLayerStandard
1000

1000

1001
AcCmTransparency
1071
        0
  0
ENDTAB
  0
TABLE
  2
STYLE
  5
3
330
0
100
AcDbSymbolTable
 70
     2
  0
STYLE
  5
11
330
3
100
AcDbSymbolTableRecord
100
AcDbTextStyleTableRecord
  2
Standard
 70
     0
 40
0.0
 41
0.8
 50
0.0
 71
     0
 42
2.5
  3
txt.shx
  4
extfont.shx
  0
STYLE
  5
4BDAD
330
3
100
AcDbSymbolTableRecord
100
AcDbTextStyleTableRecord
  2
ACAD
 70
     0
 40
9.0
 41
0.8
 50
0.0
 71
     0
 42
5.0
  3
romans.shx
  4
extfont.shx
  0
ENDTAB
  0
TABLE
  2
VIEW
  5
6
330
0
100
AcDbSymbolTable
 70
     0
  0
ENDTAB
  0
TABLE
  2
UCS
  5
7
330
0
100
AcDbSymbolTable
 70
     0
  0
ENDTAB
  0
TABLE
  2
APPID
  5
9
330
0
100
AcDbSymbolTable
 70
    23
  0
APPID
  5
12
330
9
100
AcDbSymbolTableRecord
100
AcDbRegAppTableRecord
  2
ACAD
 70
     0
  0
APPID
  5
22729
330
9
100
AcDbSymbolTableRecord
100
AcDbRegAppTableRecord
  2
DCO15
 70
     0
  0
APPID
  5
2276D
330
9
100
AcDbSymbolTableRecord
100
AcDbRegAppTableRecord
  2
ACAD_MLEADERVER
 70
     0
  0
APPID
  5
22776
330
9
100
AcDbSymbolTableRecord
100
AcDbRegAppTableRecord
  2
AcAecLayerStandard
 70
     0
  0
APPID
  5
227C1
330
9
100
AcDbSymbolTableRecord
100
AcDbRegAppTableRecord
  2
ACAD_DSTYLE_DIMJAG
 70
     0
  0
APPID
  5
227C2
330
9
100
AcDbSymbolTableRecord
100
AcDbRegAppTableRecord
  2
ACAD_DSTYLE_DIMTALN
 70
     0
  0
APPID
  5
22821
330
9
100
AcDbSymbolTableRecord
100
AcDbRegAppTableRecord
  2
ACAD_PSEXT
 70
     0
  0
APPID
  5
2282A
330
9
100
AcDbSymbolTableRecord
100
AcDbRegAppTableRecord
  2
ACAD_EXEMPT_FROM_CAD_STANDARDS
 70
     0
  0
APPID
  5
229A9
330
9
100
AcDbSymbolTableRecord
100
AcDbRegAppTableRecord
  2
AcadAnnoPO
 70
     0
  0
APPID
  5
23673
330
9
100
AcDbSymbolTableRecord
100
AcDbRegAppTableRecord
  2
ACAD_DSTYLE_DIMTEXT_FILL
 70
     0
  0
APPID
  5
23674
330
9
100
AcDbSymbolTableRecord
100
AcDbRegAppTableRecord
  2
ACAD_DSTYLE_DIMBREAK
 70
     0
  0
APPID
  5
25752
330
9
100
AcDbSymbolTableRecord
100
AcDbRegAppTableRecord
  2
AcLayerTools
 70
     0
  0
APPID
  5
262DB
330
9
100
AcDbSymbolTableRecord
100
AcDbRegAppTableRecord
  2
ACAUTHENVIRON
 70
     0
  0
APPID
  5
27EF5
330
9
100
AcDbSymbolTableRecord
100
AcDbRegAppTableRecord
  2
AcDbDynamicBlockTrueName
 70
     0
  0
APPID
  5
27EF6
330
9
100
AcDbSymbolTableRecord
100
AcDbRegAppTableRecord
  2
AcDbDynamicBlockGUID
 70
     0
  0
APPID
  5
30E17
330
9
100
AcDbSymbolTableRecord
100
AcDbRegAppTableRecord
  2
AcadAnnoAV
 70
     0
  0
APPID
  5
47910
330
9
100
AcDbSymbolTableRecord
100
AcDbRegAppTableRecord
  2
ACAD_DSTYLE_DIMJOGGED_JOGANGLE_SYMBOL
 70
     0
  0
APPID
  5
47911
330
9
100
AcDbSymbolTableRecord
100
AcDbRegAppTableRecord
  2
AcDbBlockRepETag
 70
     0
  0
APPID
  5
4A789
330
9
100
AcDbSymbolTableRecord
100
AcDbRegAppTableRecord
  2
AcadAnnotative
 70
     0
  0
APPID
  5
4A78A
330
9
100
AcDbSymbolTableRecord
100
AcDbRegAppTableRecord
  2
AcCmTransparency
 70
     0
  0
APPID
  5
4BCBF
330
9
100
AcDbSymbolTableRecord
100
AcDbRegAppTableRecord
  2
ACAD_NAV_VCDISPLAY
 70
     0
  0
APPID
  5
4BDAF
330
9
100
AcDbSymbolTableRecord
100
AcDbRegAppTableRecord
  2
GradientColor1ACI
 70
     0
  0
APPID
  5
4BDB0
330
9
100
AcDbSymbolTableRecord
100
AcDbRegAppTableRecord
  2
GradientColor2ACI
 70
     0
  0
ENDTAB
  0
TABLE
  2
DIMSTYLE
  5
A
330
0
100
AcDbSymbolTable
 70
     2
100
AcDbDimStyleTable
 71
     2
340
4BDAE
340
3B
  0
DIMSTYLE
105
3B
330
A
100
AcDbSymbolTableRecord
100
AcDbDimStyleTableRecord
  2
Standard
 70
     0
178
   256
277
     6
340
11
1001
ACAD_DSTYLE_DIMJAG
1070
   388
1040
1.5
1001
ACAD_DSTYLE_DIMTALN
1070
   392
1070
     0
1001
ACAD_DSTYLE_DIMTEXT_FILL
1070
   376
1070
     1
1070
   377
1004
1800000001000000000000C1000000000000000000000000
  0
DIMSTYLE
105
4BDAE
102
{ACAD_REACTORS
330
504EE
102
}
330
A
100
AcDbSymbolTableRecord
100
AcDbDimStyleTableRecord
  2
AutoCAD
 70
     0
 41
4.5
 42
0.0
 44
0.0
 73
     0
 77
     1
140
9.0
147
3.0
174
     1
176
     4
177
     4
178
     3
271
     0
272
     0
289
     0
340
4BDAD
341
4BCC4
342
526A5
1001
ACAD_DSTYLE_DIMJAG
1070
   388
1040
1.5
1001
ACAD_DSTYLE_DIMTALN
1070
   392
1070
     0
  0
ENDTAB
  0
TABLE
  2
BLOCK_RECORD
  5
1
330
0
100
AcDbSymbolTable
 70
     5
  0
BLOCK_RECORD
  5
1F
102
{ACAD_XDICTIONARY
360
3662
102
}
330
1
100
AcDbSymbolTableRecord
100
AcDbBlockTableRecord
  2
*Model_Space
340
22
  0
BLOCK_RECORD
  5
525BA
330
1
100
AcDbSymbolTableRecord
100
AcDbBlockTableRecord
  2
*Paper_Space
340
525BB
  0
BLOCK_RECORD
  5
4BCC4
330
1
100
AcDbSymbolTableRecord
100
AcDbBlockTableRecord
  2
_None
340
0
  0
BLOCK_RECORD
  5
4BCC7
330
1
100
AcDbSymbolTableRecord
100
AcDbBlockTableRecord
  2
_Dot
340
0
  0
BLOCK_RECORD
  5
521B5
330
1
100
AcDbSymbolTableRecord
100
AcDbBlockTableRecord
  2
*D2
340
0
  0
BLOCK_RECORD
  5
526A5
330
1
100
AcDbSymbolTableRecord
100
AcDbBlockTableRecord
  2
_Small
340
0
102
{BLKREFS
331
526AC
331
526AD
102
}
  0
BLOCK_RECORD
  5
52700
102
{ACAD_XDICTIONARY
360
52703
102
}
330
1
100
AcDbSymbolTableRecord
100
AcDbBlockTableRecord
  2
A$C6F095381
340
0
1001
ACAD
1000
DesignCenter Data
1002
{
1070
     1
1070
     4
1002
}
  0
ENDTAB
  0
ENDSEC
  0
SECTION
  2
BLOCKS
  0
BLOCK
  5
20
330
1F
100
AcDbEntity
  8
0
100
AcDbBlockBegin
  2
*Model_Space
 70
     0
 10
0.0
 20
0.0
 30
0.0
  3
*Model_Space
  1

  0
ENDBLK
  5
21
330
1F
100
AcDbEntity
  8
0
100
AcDbBlockEnd
  0
BLOCK
  5
525BC
330
525BA
100
AcDbEntity
 67
     1
  8
0
100
AcDbBlockBegin
  2
*Paper_Space
 70
     0
 10
0.0
 20
0.0
 30
0.0
  3
*Paper_Space
  1

  0
ENDBLK
  5
525BD
330
525BA
100
AcDbEntity
 67
     1
  8
0
100
AcDbBlockEnd
  0
BLOCK
  5
4BCC5
330
4BCC4
100
AcDbEntity
  8
0
100
AcDbBlockBegin
  2
_None
 70
     0
 10
0.0
 20
0.0
 30
0.0
  3
_None
  1

  0
ENDBLK
  5
4BCC6
330
4BCC4
100
AcDbEntity
  8
0
100
AcDbBlockEnd
  0
BLOCK
  5
4BCC8
330
4BCC7
100
AcDbEntity
  8
0
100
AcDbBlockBegin
  2
_Dot
 70
     0
 10
0.0
 20
0.0
 30
0.0
  3
_Dot
  1

  0
LWPOLYLINE
  5
4BCC9
330
4BCC7
100
AcDbEntity
  8
0
  6
ByBlock
 62
     0
100
AcDbPolyline
 90
        2
 70
     1
 43
0.5
 10
-0.25
 20
0.0
 42
1.0
 10
0.25
 20
0.0
 42
1.0
  0
LINE
  5
4BCCA
330
4BCC7
100
AcDbEntity
  8
0
  6
ByBlock
 62
     0
370
    -2
100
AcDbLine
 10
-0.5
 20
0.0
 30
0.0
 11
-1.0
 21
0.0
 31
0.0
  0
ENDBLK
  5
4BCCB
330
4BCC7
100
AcDbEntity
  8
0
100
AcDbBlockEnd
  0
BLOCK
  5
521B6
330
521B5
100
AcDbEntity
  8
0
100
AcDbBlockBegin
  2
*D2
 70
     1
 10
0.0
 20
0.0
 30
0.0
  3
*D2
  1

  0
LINE
  5
526A9
330
521B5
100
AcDbEntity
  8
寸法
  6
Continuous
 62
     4
440
 16777216
370
    -2
100
AcDbLine
 10
-708.9594186315339
 20
3024.783404165618
 30
0.0
 11
-669.7275376315328
 21
3024.783404165618
 31
0.0
  0
LINE
  5
526AA
330
521B5
100
AcDbEntity
  8
寸法
  6
Continuous
 62
     4
440
 16777216
370
    -2
100
AcDbLine
 10
-708.9594186315334
 20
3162.783404165617
 30
0.0
 11
-669.7275376315328
 21
3162.783404165617
 31
0.0
  0
LINE
  5
526AB
330
521B5
100
AcDbEntity
  8
寸法
  6
Continuous
 62
     4
440
 16777216
370
    -2
100
AcDbLine
 10
-669.7275376315328
 20
3024.783404165618
 30
0.0
 11
-669.7275376315328
 21
3162.783404165617
 31
0.0
  0
INSERT
  5
526AC
330
521B5
100
AcDbEntity
  8
寸法
  6
Continuous
 62
     4
440
 16777216
370
    -2
100
AcDbBlockReference
  2
_Small
 10
-669.7275376315328
 20
3024.783404165618
 30
0.0
 41
4.5
 42
4.5
 43
4.5
 50
270.0
  0
INSERT
  5
526AD
330
521B5
100
AcDbEntity
  8
寸法
  6
Continuous
 62
     4
440
 16777216
370
    -2
100
AcDbBlockReference
  2
_Small
 10
-669.7275376315328
 20
3162.783404165617
 30
0.0
 41
4.5
 42
4.5
 43
4.5
 50
90.0
  0
MTEXT
  5
526AE
330
521B5
100
AcDbEntity
  8
寸法
  6
Continuous
 62
     3
440
 16777216
100
AcDbMText
 10
-677.2275376315333
 20
3093.783404165618
 30
0.0
 40
9.0
 41
0.0
 71
     5
 72
     1
  1
\A1;h=59～342
  7
ACAD
 11
0.0000000000000001
 21
1.0
 31
0.0
 73
     1
 44
1.0
  0
POINT
  5
526AF
330
521B5
100
AcDbEntity
  8
Defpoints
  6
Continuous
 62
     0
440
 16777216
100
AcDbPoint
 10
-708.9594186315339
 20
3024.783404165618
 30
0.0
  0
POINT
  5
526B0
330
521B5
100
AcDbEntity
  8
Defpoints
  6
Continuous
 62
     0
440
 16777216
100
AcDbPoint
 10
-708.9594186315334
 20
3162.783404165617
 30
0.0
  0
POINT
  5
526B1
330
521B5
100
AcDbEntity
  8
Defpoints
  6
Continuous
 62
     0
440
 16777216
100
AcDbPoint
 10
-669.7275376315328
 20
3162.783404165617
 30
0.0
  0
ENDBLK
  5
521B7
330
521B5
100
AcDbEntity
  8
0
100
AcDbBlockEnd
  0
BLOCK
  5
526A7
330
526A5
100
AcDbEntity
  8
0
100
AcDbBlockBegin
  2
_Small
 70
     0
 10
0.0
 20
0.0
 30
0.0
  3
_Small
  1

  0
CIRCLE
  5
526A6
330
526A5
100
AcDbEntity
  8
0
  6
ByBlock
 62
     0
370
    -2
100
AcDbCircle
 10
0.0
 20
0.0
 30
0.0
 40
0.25
  0
ENDBLK
  5
526A8
330
526A5
100
AcDbEntity
  8
0
100
AcDbBlockEnd
  0
BLOCK
  5
52705
330
52700
100
AcDbEntity
  8
0
100
AcDbBlockBegin
  2
A$C6F095381
 70
     0
 10
0.0
 20
0.0
 30
0.0
  3
A$C6F095381
  1

  0
TEXT
  5
52701
330
52700
100
AcDbEntity
  8
文字-記号
  6
Continuous
 62
     3
100
AcDbText
 10
108.1596541081681
 20
-0.0000000609211384
 30
0.0
 40
15.0
  1
（一般居室用）
  7
ACAD
100
AcDbText
  0
TEXT
  5
52702
330
52700
100
AcDbEntity
  8
文字-記号
  6
Continuous
 62
     3
100
AcDbText
 10
-9.999998921081441
 20
26.90111498808756
 30
0.0
 40
15.0
  1
【ホームベース ＬＣ-type】
  7
ACAD
100
AcDbText
  0
ENDBLK
  5
52706
330
52700
100
AcDbEntity
  8
0
100
AcDbBlockEnd
  0
ENDSEC
  0
SECTION
  2
ENTITIES
  0
ARC
  5
5047C
330
1F
100
AcDbEntity
  8
躯体と製品
  6
Continuous
 62
     3
100
AcDbCircle
 10
-1342.507860790141
 20
3185.626104790733
 30
0.0
 40
12.90305351698765
100
AcDbArc
 50
202.0437404302315
 51
237.1739811019271
  0
ARC
  5
5047D
330
1F
100
AcDbEntity
  8
躯体と製品
  6
Continuous
 62
     3
100
AcDbCircle
 10
-1340.546629260188
 20
3179.301726943181
 30
0.0
 40
10.03107274359413
100
AcDbArc
 50
171.5058314312646
 51
206.7714463484709
  0
LINE
  5
50483
330
1F
100
AcDbEntity
  8
躯体と製品
 62
     3
100
AcDbLine
 10
-1382.883759223805
 20
3024.783404165618
 30
0.0
 11
-1402.883759223805
 21
3004.783404165618
 31
0.0
  0
LINE
  5
50484
330
1F
100
AcDbEntity
  8
躯体と製品
 62
     3
100
AcDbLine
 10
-1375.812691411942
 20
3024.783404165618
 30
0.0
 11
-1395.812691411942
 21
3004.783404165618
 31
0.0
  0
LINE
  5
50485
330
1F
100
AcDbEntity
  8
躯体と製品
 62
     3
100
AcDbLine
 10
-1368.741623600072
 20
3024.783404165618
 30
0.0
 11
-1388.741623600072
 21
3004.783404165618
 31
0.0
  0
LINE
  5
50486
330
1F
100
AcDbEntity
  8
躯体と製品
 62
     3
100
AcDbLine
 10
-1207.883759223805
 20
3024.783404165618
 30
0.0
 11
-1227.883759223805
 21
3004.783404165618
 31
0.0
  0
LINE
  5
50487
330
1F
100
AcDbEntity
  8
躯体と製品
 62
     3
100
AcDbLine
 10
-1200.812691411942
 20
3024.783404165618
 30
0.0
 11
-1220.812691411942
 21
3004.783404165618
 31
0.0
  0
LINE
  5
50488
330
1F
100
AcDbEntity
  8
躯体と製品
 62
     3
100
AcDbLine
 10
-1193.741623600072
 20
3024.783404165618
 30
0.0
 11
-1213.741623600071
 21
3004.783404165618
 31
0.0
  0
LINE
  5
50489
330
1F
100
AcDbEntity
  8
躯体と製品
 62
     3
100
AcDbLine
 10
-1032.883759223805
 20
3024.783404165618
 30
0.0
 11
-1052.883759223805
 21
3004.783404165618
 31
0.0
  0
LINE
  5
5048A
330
1F
100
AcDbEntity
  8
躯体と製品
 62
     3
100
AcDbLine
 10
-1025.812691411942
 20
3024.783404165618
 30
0.0
 11
-1045.812691411942
 21
3004.783404165618
 31
0.0
  0
LINE
  5
5048B
330
1F
100
AcDbEntity
  8
躯体と製品
 62
     3
100
AcDbLine
 10
-1018.741623600072
 20
3024.783404165618
 30
0.0
 11
-1038.741623600071
 21
3004.783404165618
 31
0.0
  0
LINE
  5
5048C
330
1F
100
AcDbEntity
  8
躯体と製品
 62
     3
100
AcDbLine
 10
-857.883759223805
 20
3024.783404165618
 30
0.0
 11
-877.8837592238051
 21
3004.783404165618
 31
0.0
  0
LINE
  5
5048D
330
1F
100
AcDbEntity
  8
躯体と製品
 62
     3
100
AcDbLine
 10
-850.812691411942
 20
3024.783404165618
 30
0.0
 11
-870.812691411942
 21
3004.783404165618
 31
0.0
  0
LINE
  5
5048E
330
1F
100
AcDbEntity
  8
躯体と製品
 62
     3
100
AcDbLine
 10
-843.7416236000718
 20
3024.783404165618
 30
0.0
 11
-863.7416236000717
 21
3004.783404165618
 31
0.0
  0
LINE
  5
50496
330
1F
100
AcDbEntity
  8
中心線
  6
CENTER1
 62
     7
100
AcDbLine
 10
-1318.967670183178
 20
3146.294809888475
 30
0.0
 11
-1318.967670183178
 21
3020.024912184372
 31
0.0
  0
LINE
  5
50497
330
1F
100
AcDbEntity
  8
躯体と製品
  6
Continuous
 62
     4
100
AcDbLine
 10
-941.0343481612228
 20
3117.783404165618
 30
0.0
 11
-915.0343481612228
 21
3117.783404165618
 31
0.0
  0
LINE
  5
50498
330
1F
100
AcDbEntity
  8
躯体と製品
  6
Continuous
 62
     4
100
AcDbLine
 10
-976.0343481612228
 20
3142.783404165618
 30
0.0
 11
-976.0343481612228
 21
3135.783404165618
 31
0.0
  0
LINE
  5
50499
330
1F
100
AcDbEntity
  8
躯体と製品
  6
Continuous
 62
     4
100
AcDbLine
 10
-938.5343481612228
 20
3142.783404165618
 30
0.0
 11
-917.5343481612229
 21
3142.783404165618
 31
0.0
  0
LINE
  5
5049A
330
1F
100
AcDbEntity
  8
躯体と製品
  6
Continuous
 62
     4
100
AcDbLine
 10
-941.0343481612228
 20
3118.565822101817
 30
0.0
 11
-941.0343481612228
 21
3117.783404165618
 31
0.0
  0
LINE
  5
5049B
330
1F
100
AcDbEntity
  8
躯体と製品
  6
Continuous
 62
     4
100
AcDbLine
 10
-915.0343481612228
 20
3117.783404165618
 30
0.0
 11
-915.0343481612228
 21
3118.565822101817
 31
0.0
  0
LINE
  5
5049C
330
1F
100
AcDbEntity
  8
躯体と製品
  6
Continuous
 62
     4
100
AcDbLine
 10
-939.0343481612228
 20
3143.083404165621
 30
0.0
 11
-939.5343481612227
 21
3142.783404165618
 31
0.0
  0
LINE
  5
5049D
330
1F
100
AcDbEntity
  8
躯体と製品
  6
Continuous
 62
     4
100
AcDbLine
 10
-938.5343481612228
 20
3142.783404165618
 30
0.0
 11
-939.0343481612228
 21
3143.083404165621
 31
0.0
  0
LINE
  5
5049E
330
1F
100
AcDbEntity
  8
躯体と製品
  6
Continuous
 62
     4
100
AcDbLine
 10
-917.0343481612228
 20
3143.083404165621
 30
0.0
 11
-917.5343481612229
 21
3142.783404165618
 31
0.0
  0
LINE
  5
5049F
330
1F
100
AcDbEntity
  8
躯体と製品
  6
Continuous
 62
     4
100
AcDbLine
 10
-916.5343481612229
 20
3142.783404165618
 30
0.0
 11
-917.0343481612228
 21
3143.083404165621
 31
0.0
  0
ARC
  5
504A0
330
1F
100
AcDbEntity
  8
躯体と製品
  6
Continuous
 62
     4
100
AcDbCircle
 10
-881.0343481612228
 20
3135.783404165618
 30
0.0
 40
1.0
100
AcDbArc
 50
270.0
 51
0.0
  0
LINE
  5
504A1
330
1F
100
AcDbEntity
  8
躯体と製品
  6
Continuous
 62
     4
100
AcDbLine
 10
-880.0343481612229
 20
3142.783404165618
 30
0.0
 11
-880.0343481612229
 21
3135.783404165618
 31
0.0
  0
ARC
  5
504A2
330
1F
100
AcDbEntity
  8
躯体と製品
  6
Continuous
 62
     4
100
AcDbCircle
 10
-975.0343481612228
 20
3135.783404165618
 30
0.0
 40
1.0
100
AcDbArc
 50
180.0
 51
270.0
  0
LINE
  5
504A3
330
1F
100
AcDbEntity
  8
躯体と製品
  6
Continuous
 62
     4
100
AcDbLine
 10
-928.7843481612227
 20
3127.007026417618
 30
0.0
 11
-928.7843481612227
 21
3134.783404165617
 31
0.0
  0
LINE
  5
504A4
330
1F
100
AcDbEntity
  8
躯体と製品
  6
Continuous
 62
     4
100
AcDbLine
 10
-927.2843481612229
 20
3127.007026417618
 30
0.0
 11
-927.7842247044221
 21
3127.011425550016
 31
0.0
  0
LINE
  5
504A5
330
1F
100
AcDbEntity
  8
躯体と製品
  6
Continuous
 62
     4
100
AcDbLine
 10
-927.7842247044221
 20
3127.011425550016
 30
0.0
 11
-928.2844716182237
 21
3127.011425550016
 31
0.0
  0
LINE
  5
504A6
330
1F
100
AcDbEntity
  8
躯体と製品
  6
Continuous
 62
     4
100
AcDbLine
 10
-928.2844716182237
 20
3127.011425550016
 30
0.0
 11
-928.7843481612227
 21
3127.007026417618
 31
0.0
  0
LINE
  5
504A7
330
1F
100
AcDbEntity
  8
躯体と製品
  6
Continuous
 62
     4
100
AcDbLine
 10
-927.2843481612229
 20
3127.007026417618
 30
0.0
 11
-927.2843481612229
 21
3134.783404165617
 31
0.0
  0
LINE
  5
504A8
330
1F
100
AcDbEntity
  8
躯体と製品
  6
Continuous
 62
     4
100
AcDbLine
 10
-914.1831598538241
 20
3128.06872799762
 30
0.0
 11
-883.380554929424
 21
3134.783404165617
 31
0.0
  0
LINE
  5
504A9
330
1F
100
AcDbEntity
  8
躯体と製品
  6
Continuous
 62
     4
100
AcDbLine
 10
-914.4107357880214
 20
3127.787904726218
 30
0.0
 11
-882.319894757625
 21
3134.783404165617
 31
0.0
  0
LINE
  5
504AA
330
1F
100
AcDbEntity
  8
躯体と製品
  6
Continuous
 62
     4
100
AcDbLine
 10
-912.6793469632223
 20
3129.924397213815
 30
0.0
 11
-912.6793469632223
 21
3129.783404165618
 31
0.0
  0
LINE
  5
504AB
330
1F
100
AcDbEntity
  8
躯体と製品
  6
Continuous
 62
     4
100
AcDbLine
 10
-941.6579605346207
 20
3127.787904726218
 30
0.0
 11
-973.7488015650244
 21
3134.783404165617
 31
0.0
  0
LINE
  5
504AC
330
1F
100
AcDbEntity
  8
躯体と製品
  6
Continuous
 62
     4
100
AcDbLine
 10
-941.8855364686217
 20
3128.06872799762
 30
0.0
 11
-972.6881413932217
 21
3134.783404165617
 31
0.0
  0
LINE
  5
504AD
330
1F
100
AcDbEntity
  8
躯体と製品
  6
Continuous
 62
     4
100
AcDbLine
 10
-943.3893493592234
 20
3129.783404165618
 30
0.0
 11
-943.3893493592234
 21
3129.924397213815
 31
0.0
  0
LINE
  5
504AE
330
1F
100
AcDbEntity
  8
躯体と製品
  6
Continuous
 62
     4
100
AcDbLine
 10
-910.6085571118249
 20
3134.783404165617
 30
0.0
 11
-910.6085571118249
 21
3134.759793054619
 31
0.0
  0
LINE
  5
504AF
330
1F
100
AcDbEntity
  8
躯体と製品
  6
Continuous
 62
     4
100
AcDbLine
 10
-908.7607980468249
 20
3134.783404165617
 30
0.0
 11
-908.7607980468249
 21
3134.759793054619
 31
0.0
  0
LINE
  5
504B0
330
1F
100
AcDbEntity
  8
躯体と製品
  6
Continuous
 62
     4
100
AcDbLine
 10
-908.7607980468249
 20
3134.759793054619
 30
0.0
 11
-910.6085571118249
 21
3134.759793054619
 31
0.0
  0
LINE
  5
504B1
330
1F
100
AcDbEntity
  8
躯体と製品
  6
Continuous
 62
     4
100
AcDbLine
 10
-908.7607980468249
 20
3134.759793054619
 30
0.0
 11
-922.1503244392236
 21
3118.237437047421
 31
0.0
  0
LINE
  5
504B2
330
1F
100
AcDbEntity
  8
躯体と製品
  6
Continuous
 62
     4
100
AcDbLine
 10
-923.9980835042235
 20
3118.237437047421
 30
0.0
 11
-923.3693326050209
 21
3118.253604462218
 31
0.0
  0
LINE
  5
504B3
330
1F
100
AcDbEntity
  8
躯体と製品
  6
Continuous
 62
     4
100
AcDbLine
 10
-923.3693326050209
 20
3118.253604462218
 30
0.0
 11
-922.7528715664242
 21
3118.253604462218
 31
0.0
  0
LINE
  5
504B4
330
1F
100
AcDbEntity
  8
躯体と製品
  6
Continuous
 62
     4
100
AcDbLine
 10
-922.7528715664242
 20
3118.253604462218
 30
0.0
 11
-922.1503244392236
 21
3118.237437047421
 31
0.0
  0
LINE
  5
504B5
330
1F
100
AcDbEntity
  8
躯体と製品
  6
Continuous
 62
     4
100
AcDbLine
 10
-910.6085571118249
 20
3134.759793054619
 30
0.0
 11
-923.9980835042235
 21
3118.237437047421
 31
0.0
  0
LINE
  5
504B6
330
1F
100
AcDbEntity
  8
躯体と製品
  6
Continuous
 62
     4
100
AcDbLine
 10
-923.9980835042235
 20
3118.237437047421
 30
0.0
 11
-923.9980835042235
 21
3129.783404165618
 31
0.0
  0
LINE
  5
504B7
330
1F
100
AcDbEntity
  8
躯体と製品
  6
Continuous
 62
     4
100
AcDbLine
 10
-920.3670059448207
 20
3134.783404165617
 30
0.0
 11
-920.3670059448207
 21
3129.783404165618
 31
0.0
  0
LINE
  5
504B8
330
1F
100
AcDbEntity
  8
躯体と製品
  6
Continuous
 62
     4
100
AcDbLine
 10
-945.4601392106209
 20
3134.759793054619
 30
0.0
 11
-947.3078982756208
 21
3134.759793054619
 31
0.0
  0
LINE
  5
504B9
330
1F
100
AcDbEntity
  8
躯体と製品
  6
Continuous
 62
     4
100
AcDbLine
 10
-945.4601392106209
 20
3134.759793054619
 30
0.0
 11
-932.0706128182221
 21
3118.237437047421
 31
0.0
  0
LINE
  5
504BA
330
1F
100
AcDbEntity
  8
躯体と製品
  6
Continuous
 62
     4
100
AcDbLine
 10
-933.918371883222
 20
3118.237437047421
 30
0.0
 11
-933.3158247560216
 21
3118.253604462218
 31
0.0
  0
LINE
  5
504BB
330
1F
100
AcDbEntity
  8
躯体と製品
  6
Continuous
 62
     4
100
AcDbLine
 10
-933.3158247560216
 20
3118.253604462218
 30
0.0
 11
-932.6993637176213
 21
3118.253604462218
 31
0.0
  0
LINE
  5
504BC
330
1F
100
AcDbEntity
  8
躯体と製品
  6
Continuous
 62
     4
100
AcDbLine
 10
-932.6993637176213
 20
3118.253604462218
 30
0.0
 11
-932.0706128182221
 21
3118.237437047421
 31
0.0
  0
LINE
  5
504BD
330
1F
100
AcDbEntity
  8
躯体と製品
  6
Continuous
 62
     4
100
AcDbLine
 10
-947.3078982756208
 20
3134.759793054619
 30
0.0
 11
-933.918371883222
 21
3118.237437047421
 31
0.0
  0
LINE
  5
504BE
330
1F
100
AcDbEntity
  8
躯体と製品
  6
Continuous
 62
     4
100
AcDbLine
 10
-935.7016903778214
 20
3129.783404165618
 30
0.0
 11
-935.7016903778214
 21
3134.783404165617
 31
0.0
  0
LINE
  5
504BF
330
1F
100
AcDbEntity
  8
躯体と製品
  6
Continuous
 62
     4
100
AcDbLine
 10
-932.0706128182221
 20
3118.237437047421
 30
0.0
 11
-932.0706128182221
 21
3129.783404165618
 31
0.0
  0
LINE
  5
504C0
330
1F
100
AcDbEntity
  8
躯体と製品
  6
Continuous
 62
     4
100
AcDbLine
 10
-945.4601392106209
 20
3134.783404165617
 30
0.0
 11
-945.4601392106209
 21
3134.759793054619
 31
0.0
  0
LINE
  5
504C1
330
1F
100
AcDbEntity
  8
躯体と製品
  6
Continuous
 62
     4
100
AcDbLine
 10
-947.3078982756208
 20
3134.783404165617
 30
0.0
 11
-947.3078982756208
 21
3134.759793054619
 31
0.0
  0
LINE
  5
504C2
330
1F
100
AcDbEntity
  8
躯体と製品
  6
Continuous
 62
     4
100
AcDbLine
 10
-926.812125939022
 20
3134.783404165617
 30
0.0
 11
-926.812125939022
 21
3129.783404165618
 31
0.0
  0
LINE
  5
504C3
330
1F
100
AcDbEntity
  8
躯体と製品
  6
Continuous
 62
     4
100
AcDbLine
 10
-929.2565703834236
 20
3129.783404165618
 30
0.0
 11
-929.2565703834236
 21
3134.783404165617
 31
0.0
  0
LINE
  5
504C4
330
1F
100
AcDbEntity
  8
躯体と製品
  6
Continuous
 62
     4
100
AcDbLine
 10
-920.9890657654225
 20
3129.783404165618
 30
0.0
 11
-920.9890657654225
 21
3134.783404165617
 31
0.0
  0
LINE
  5
504C5
330
1F
100
AcDbEntity
  8
躯体と製品
  6
Continuous
 62
     4
100
AcDbLine
 10
-935.0796305570231
 20
3134.783404165617
 30
0.0
 11
-935.0796305570231
 21
3129.783404165618
 31
0.0
  0
LINE
  5
504C6
330
1F
100
AcDbEntity
  8
躯体と製品
  6
Continuous
 62
     4
100
AcDbLine
 10
-884.0383452272229
 20
3134.408798237223
 30
0.0
 11
-915.6768173554238
 21
3118.237437047421
 31
0.0
  0
LINE
  5
504C7
330
1F
100
AcDbEntity
  8
躯体と製品
  6
Continuous
 62
     4
100
AcDbLine
 10
-916.4421842200219
 20
3118.237437047421
 30
0.0
 11
-916.1555432980215
 21
3118.253604462218
 31
0.0
  0
LINE
  5
504C8
330
1F
100
AcDbEntity
  8
躯体と製品
  6
Continuous
 62
     4
100
AcDbLine
 10
-916.1555432980215
 20
3118.253604462218
 30
0.0
 11
-915.900196775224
 21
3118.253604462218
 31
0.0
  0
LINE
  5
504C9
330
1F
100
AcDbEntity
  8
躯体と製品
  6
Continuous
 62
     4
100
AcDbLine
 10
-915.900196775224
 20
3118.253604462218
 30
0.0
 11
-915.6768173554238
 21
3118.237437047421
 31
0.0
  0
LINE
  5
504CA
330
1F
100
AcDbEntity
  8
躯体と製品
  6
Continuous
 62
     4
100
AcDbLine
 10
-885.3728709548242
 20
3134.117884266816
 30
0.0
 11
-916.4421842200219
 21
3118.237437047421
 31
0.0
  0
LINE
  5
504CB
330
1F
100
AcDbEntity
  8
躯体と製品
  6
Continuous
 62
     4
100
AcDbLine
 10
-916.4421842200219
 20
3118.237437047421
 30
0.0
 11
-916.4421842200219
 21
3125.281145844617
 31
0.0
  0
LINE
  5
504CC
330
1F
100
AcDbEntity
  8
躯体と製品
  6
Continuous
 62
     4
100
AcDbLine
 10
-939.6265121024237
 20
3118.237437047421
 30
0.0
 11
-939.6265121024237
 21
3125.281145844617
 31
0.0
  0
LINE
  5
504CD
330
1F
100
AcDbEntity
  8
躯体と製品
  6
Continuous
 62
     4
100
AcDbLine
 10
-970.6958253678251
 20
3134.117884266816
 30
0.0
 11
-939.6265121024237
 21
3118.237437047421
 31
0.0
  0
LINE
  5
504CE
330
1F
100
AcDbEntity
  8
躯体と製品
  6
Continuous
 62
     4
100
AcDbLine
 10
-940.3918789672218
 20
3118.237437047421
 30
0.0
 11
-940.1684995472253
 21
3118.253604462218
 31
0.0
  0
LINE
  5
504CF
330
1F
100
AcDbEntity
  8
躯体と製品
  6
Continuous
 62
     4
100
AcDbLine
 10
-940.1684995472253
 20
3118.253604462218
 30
0.0
 11
-939.9131530244206
 21
3118.253604462218
 31
0.0
  0
LINE
  5
504D0
330
1F
100
AcDbEntity
  8
躯体と製品
  6
Continuous
 62
     4
100
AcDbLine
 10
-939.9131530244206
 20
3118.253604462218
 30
0.0
 11
-939.6265121024237
 21
3118.237437047421
 31
0.0
  0
LINE
  5
504D1
330
1F
100
AcDbEntity
  8
躯体と製品
  6
Continuous
 62
     4
100
AcDbLine
 10
-972.0303510954229
 20
3134.408798237223
 30
0.0
 11
-940.3918789672218
 21
3118.237437047421
 31
0.0
  0
LINE
  5
504D2
330
1F
100
AcDbEntity
  8
躯体と製品
  6
Continuous
 62
     4
100
AcDbLine
 10
-912.6793469632223
 20
3129.783404165618
 30
0.0
 11
-912.793606100223
 21
3129.783404165618
 31
0.0
  0
LINE
  5
504D3
330
1F
100
AcDbEntity
  8
躯体と製品
  6
Continuous
 62
     4
100
AcDbLine
 10
-943.2750902222226
 20
3129.783404165618
 30
0.0
 11
-943.3893493592234
 21
3129.783404165618
 31
0.0
  0
LINE
  5
504D4
330
1F
100
AcDbEntity
  8
躯体と製品
  6
Continuous
 62
     4
100
AcDbLine
 10
-885.1426201998231
 20
3133.844370556821
 30
0.0
 11
-881.0343481612228
 21
3134.783404165617
 31
0.0
  0
LINE
  5
504D5
330
1F
100
AcDbEntity
  8
躯体と製品
  6
Continuous
 62
     4
100
AcDbLine
 10
-970.9260761228227
 20
3133.844370556821
 30
0.0
 11
-975.0343481612228
 21
3134.783404165617
 31
0.0
  0
LINE
  5
504D6
330
1F
100
AcDbEntity
  8
躯体と製品
  6
Continuous
 62
     4
100
AcDbLine
 10
-976.0343481612228
 20
3142.783404165618
 30
0.0
 11
-939.5343481612227
 21
3142.783404165618
 31
0.0
  0
LINE
  5
504D7
330
1F
100
AcDbEntity
  8
躯体と製品
  6
Continuous
 62
     4
100
AcDbLine
 10
-976.0343481612228
 20
3135.783404165618
 30
0.0
 11
-880.0343481612229
 21
3135.783404165618
 31
0.0
  0
LINE
  5
504D8
330
1F
100
AcDbEntity
  8
躯体と製品
  6
Continuous
 62
     4
100
AcDbLine
 10
-885.0343481612227
 20
3142.783404165618
 30
0.0
 11
-885.0343481612227
 21
3134.783404165617
 31
0.0
  0
LINE
  5
504D9
330
1F
100
AcDbEntity
  8
躯体と製品
  6
Continuous
 62
     4
100
AcDbLine
 10
-916.5343481612229
 20
3142.783404165618
 30
0.0
 11
-880.0343481612229
 21
3142.783404165618
 31
0.0
  0
LINE
  5
504DA
330
1F
100
AcDbEntity
  8
躯体と製品
  6
Continuous
 62
     4
100
AcDbLine
 10
-971.0343481612229
 20
3142.783404165618
 30
0.0
 11
-971.0343481612229
 21
3134.783404165617
 31
0.0
  0
LINE
  5
504DB
330
1F
100
AcDbEntity
  8
躯体と製品
  6
Continuous
 62
     4
100
AcDbLine
 10
-881.0343481612228
 20
3134.783404165617
 30
0.0
 11
-975.0343481612228
 21
3134.783404165617
 31
0.0
  0
LINE
  5
504DC
330
1F
100
AcDbEntity
  8
躯体と製品
  6
Continuous
 62
     4
100
AcDbLine
 10
-928.7843481612227
 20
3129.783404165618
 30
0.0
 11
-935.7016903778214
 21
3129.783404165618
 31
0.0
  0
LINE
  5
504DD
330
1F
100
AcDbEntity
  8
躯体と製品
  6
Continuous
 62
     4
100
AcDbLine
 10
-920.3670059448207
 20
3129.783404165618
 30
0.0
 11
-927.2843481612229
 21
3129.783404165618
 31
0.0
  0
LINE
  5
504DE
330
1F
100
AcDbEntity
  8
中心線
  6
CENTER1
 62
     7
100
AcDbLine
 10
-928.0343481612229
 20
3148.265819298176
 30
0.0
 11
-928.0343481612229
 21
3020.024912184372
 31
0.0
  0
LINE
  5
504DF
330
1F
100
AcDbEntity
  8
躯体と製品
  6
Continuous
 62
     4
100
AcDbLine
 10
-916.5343481612229
 20
3162.783404165617
 30
0.0
 11
-916.5343481612229
 21
3142.783404165618
 31
0.0
  0
LINE
  5
504E0
330
1F
100
AcDbEntity
  8
躯体と製品
  6
Continuous
 62
     4
100
AcDbLine
 10
-939.5343481612227
 20
3162.783404165617
 30
0.0
 11
-939.5343481612227
 21
3142.783404165618
 31
0.0
  0
LWPOLYLINE
  5
504E1
330
1F
100
AcDbEntity
  8
文字-記号
 62
     7
100
AcDbPolyline
 90
        3
 70
     0
 43
0.0
 10
-900.9947255871299
 20
3126.32869202293
 10
-888.9600680279979
 20
3105.48405367882
 10
-826.4939953938634
 20
3105.48405367882
  0
TEXT
  5
504E2
330
1F
100
AcDbEntity
  8
文字-記号
 62
     7
100
AcDbText
 10
-885.5205307706098
 20
3107.962707163089
 30
0.0
 40
9.0
  1
ボード受け
100
AcDbText
  0
LWPOLYLINE
  5
504E3
330
1F
100
AcDbEntity
  8
文字-記号
 62
     7
100
AcDbPolyline
 90
        3
 70
     0
 43
0.0
 10
-1302.967670035894
 20
3034.433414396082
 10
-1288.767680511287
 20
3059.028517719648
 10
-1178.882790358388
 20
3059.028517719648
  0
TEXT
  5
504E4
330
1F
100
AcDbEntity
  8
文字-記号
 62
     7
100
AcDbText
 10
-1285.885964198249
 20
3064.166674146945
 30
0.0
 40
9.0
  1
クッションＬＫＧゴム
100
AcDbText
  0
LWPOLYLINE
  5
504E5
330
1F
100
AcDbEntity
  8
文字-記号
 62
     7
100
AcDbPolyline
 90
        3
 70
     0
 43
0.0
 10
-1349.467670183178
 20
3217.460206733333
 10
-1335.26768065857
 20
3242.055310056898
 10
-1289.103387262063
 20
3242.055310056898
  0
TEXT
  5
504E6
330
1F
100
AcDbEntity
  8
文字-記号
 62
     7
100
AcDbText
 10
-1329.393988215424
 20
3246.391768896359
 30
0.0
 40
9.0
  1
巾　木
100
AcDbText
  0
LWPOLYLINE
  5
504E7
330
1F
100
AcDbEntity
  8
文字-記号
 62
     7
100
AcDbPolyline
 90
        3
 70
     0
 43
0.0
 10
-1052.607226302805
 20
3174.783404165618
 10
-1019.40998678847
 20
3232.28270967548
 10
-879.5665968389405
 20
3232.28270967548
  0
TEXT
  5
504E8
330
1F
100
AcDbEntity
  8
文字-記号
 62
     7
100
AcDbText
 10
-1016.528270475432
 20
3237.420866102777
 30
0.0
 40
9.0
  1
フローリング t＝１２ｍｍ
100
AcDbText
  0
LWPOLYLINE
  5
504E9
330
1F
100
AcDbEntity
  8
文字-記号
 62
     7
100
AcDbPolyline
 90
        3
 70
     0
 43
0.0
 10
-1030.713246502688
 20
3152.896302666523
 10
-1002.144734917269
 20
3202.378416229088
 10
-835.4291680458484
 20
3202.378416229088
  0
TEXT
  5
504EA
330
1F
100
AcDbEntity
  8
文字-記号
 62
     7
100
AcDbText
 10
-999.2630186042319
 20
3207.516572656384
 30
0.0
 40
9.0
  1
パーティクルボード t＝２０ｍｍ
100
AcDbText
  0
LWPOLYLINE
  5
504EB
330
1F
100
AcDbEntity
  8
文字-記号
 62
     7
100
AcDbPolyline
 90
        3
 70
     0
 43
0.0
 10
-1296.467670183178
 20
3122.713565415855
 10
-1250.473147121208
 20
3202.378416229088
 10
-1146.575495627422
 20
3202.378416229088
  0
TEXT
  5
504EC
330
1F
100
AcDbEntity
  8
文字-記号
 62
     7
100
AcDbText
 10
-1247.59143080817
 20
3207.516572656384
 30
0.0
 40
9.0
  1
防音システム際根太
100
AcDbText
  0
TEXT
  5
504ED
330
1F
100
AcDbEntity
  8
文字-記号
  6
Continuous
 62
     3
100
AcDbText
 10
-1275.402989332316
 20
3365.637241709394
 30
0.0
 40
15.0
  1
（高遮音タイプ）
  7
ACAD
100
AcDbText
  0
DIMENSION
  5
504EE
330
1F
100
AcDbEntity
  8
寸法
  6
Continuous
100
AcDbDimension
  2
*D2
 10
-669.7275376315328
 20
3162.783404165617
 30
0.0
 11
-677.2275376315333
 21
3093.783404165618
 31
0.0
 70
    32
  1
h=59～342
 71
     5
 42
138.0
  3
AutoCAD
100
AcDbAlignedDimension
 13
-708.9594186315339
 23
3024.783404165618
 33
0.0
 14
-708.9594186315334
 24
3162.783404165617
 34
0.0
 50
90.0
100
AcDbRotatedDimension
1001
ACAD
1000
DSTYLE
1002
{
1070
   140
1040
9.0
1002
}
  0
LINE
  5
504EF
330
1F
100
AcDbEntity
  8
躯体と製品
  6
Continuous
 62
     4
100
AcDbLine
 10
-926.5343481612228
 20
3117.783404165618
 30
0.0
 11
-926.5343481612227
 21
3086.783404260569
 31
0.0
  0
LINE
  5
504F0
330
1F
100
AcDbEntity
  8
躯体と製品
  6
Continuous
 62
     4
100
AcDbLine
 10
-938.0343481612229
 20
3117.783404165618
 30
0.0
 11
-938.0343481612227
 21
3086.783404260569
 31
0.0
  0
LINE
  5
504F1
330
1F
100
AcDbEntity
  8
躯体と製品
  6
Continuous
 62
     4
100
AcDbLine
 10
-929.5343481612228
 20
3117.783404165618
 30
0.0
 11
-929.5343481612226
 21
3086.783404260569
 31
0.0
  0
LINE
  5
504F2
330
1F
100
AcDbEntity
  8
躯体と製品
  6
Continuous
 62
     4
100
AcDbLine
 10
-936.6813481612201
 20
3117.783404165618
 30
0.0
 11
-936.6813481612197
 21
3086.783404260569
 31
0.0
  0
LINE
  5
504F3
330
1F
100
AcDbEntity
  8
躯体と製品
  6
Continuous
 62
     4
100
AcDbLine
 10
-918.0343481612228
 20
3117.783404165618
 30
0.0
 11
-918.0343481612226
 21
3086.783404260569
 31
0.0
  0
LINE
  5
504F4
330
1F
100
AcDbEntity
  8
躯体と製品
  6
Continuous
 62
     4
100
AcDbLine
 10
-919.387348161222
 20
3117.783404165618
 30
0.0
 11
-919.3873481612218
 21
3086.783404260569
 31
0.0
  0
LINE
  5
504F5
330
1F
100
AcDbEntity
  8
躯体と製品
  6
Continuous
 62
     4
100
AcDbLine
 10
-936.5343481612226
 20
3056.783404260569
 30
0.0
 11
-936.5343481612226
 21
3086.783404260569
 31
0.0
  0
LINE
  5
504F6
330
1F
100
AcDbEntity
  8
躯体と製品
  6
Continuous
 62
     4
100
AcDbLine
 10
-919.5343481612226
 20
3056.783404260569
 30
0.0
 11
-919.5343481612226
 21
3086.783404260569
 31
0.0
  0
TEXT
  5
504F7
330
1F
100
AcDbEntity
  8
文字-記号
 62
     7
100
AcDbText
 10
-1075.614086475115
 20
3074.516664011432
 30
0.0
 40
9.0
  1
クッションＬＣＢＢゴム
100
AcDbText
  0
LWPOLYLINE
  5
504F8
330
1F
100
AcDbEntity
  8
文字-記号
 62
     7
100
AcDbPolyline
 90
        3
 70
     0
 43
0.0
 10
-944.2843481612245
 20
3044.783404260569
 10
-958.4843376858318
 20
3069.378507584135
 10
-1078.063287922655
 20
3069.378507584135
  0
ARC
  5
504F9
330
1F
100
AcDbEntity
  8
躯体と製品
  6
Continuous
 62
     4
100
AcDbCircle
 10
-945.5343481612246
 20
3029.783404260569
 30
0.0
 40
3.0
100
AcDbArc
 50
90.0
 51
270.0
  0
LINE
  5
504FA
330
1F
100
AcDbEntity
  8
躯体と製品
  6
Continuous
 62
     4
100
AcDbLine
 10
-939.6201341685729
 20
3024.783404165618
 30
0.0
 11
-916.4485621538725
 21
3024.783404165618
 31
0.0
  0
LINE
  5
504FB
330
1F
100
AcDbEntity
  8
躯体と製品
  6
Continuous
 62
     4
100
AcDbLine
 10
-941.9737241503746
 20
3025.957052450366
 30
0.0
 11
-941.6201344963729
 21
3025.783404213122
 31
0.0
  0
LINE
  5
504FC
330
1F
100
AcDbEntity
  8
躯体と製品
  6
Continuous
 62
     4
100
AcDbLine
 10
-942.329155029077
 20
3026.125424395971
 30
0.0
 11
-941.9737241503746
 21
3025.957052450366
 31
0.0
  0
LINE
  5
504FD
330
1F
100
AcDbEntity
  8
躯体と製品
  6
Continuous
 62
     4
100
AcDbLine
 10
-942.675628447224
 20
3026.28340423682
 30
0.0
 11
-942.329155029077
 21
3026.125424395971
 31
0.0
  0
LINE
  5
504FE
330
1F
100
AcDbEntity
  8
躯体と製品
  6
Continuous
 62
     4
100
AcDbLine
 10
-943.0026176658239
 20
3026.426191878222
 30
0.0
 11
-942.675628447224
 21
3026.28340423682
 31
0.0
  0
LINE
  5
504FF
330
1F
100
AcDbEntity
  8
躯体と製品
  6
Continuous
 62
     4
100
AcDbLine
 10
-943.3001854729729
 20
3026.549448710219
 30
0.0
 11
-943.0026176658239
 21
3026.426191878222
 31
0.0
  0
LINE
  5
50500
330
1F
100
AcDbEntity
  8
躯体と製品
  6
Continuous
 62
     4
100
AcDbLine
 10
-943.5592924517251
 20
3026.64942966652
 30
0.0
 11
-943.3001854729729
 21
3026.549448710219
 31
0.0
  0
LINE
  5
50501
330
1F
100
AcDbEntity
  8
躯体と製品
  6
Continuous
 62
     4
100
AcDbLine
 10
-943.7720642697742
 20
3026.723096882023
 30
0.0
 11
-943.5592924517251
 21
3026.64942966652
 31
0.0
  0
LINE
  5
50502
330
1F
100
AcDbEntity
  8
躯体と製品
  6
Continuous
 62
     4
100
AcDbLine
 10
-943.9320356857743
 20
3026.76821201382
 30
0.0
 11
-943.7720642697742
 21
3026.723096882023
 31
0.0
  0
LINE
  5
50503
330
1F
100
AcDbEntity
  8
躯体と製品
  6
Continuous
 62
     4
100
AcDbLine
 10
-944.0343489211764
 20
3026.783404260569
 30
0.0
 11
-943.9320356857743
 21
3026.76821201382
 31
0.0
  0
LINE
  5
50504
330
1F
100
AcDbEntity
  8
躯体と製品
  6
Continuous
 62
     4
100
AcDbLine
 10
-941.6201344963729
 20
3025.783404213122
 30
0.0
 11
-939.6201341685729
 21
3024.783404165618
 31
0.0
  0
LINE
  5
50505
330
1F
100
AcDbEntity
  8
躯体と製品
  6
Continuous
 62
     4
100
AcDbLine
 10
-916.4485621538725
 20
3024.783404165618
 30
0.0
 11
-914.4485618260761
 21
3025.783404213122
 31
0.0
  0
LINE
  5
50506
330
1F
100
AcDbEntity
  8
躯体と製品
  6
Continuous
 62
     4
100
AcDbLine
 10
-912.1366606366747
 20
3026.76821201382
 30
0.0
 11
-912.0343474012726
 21
3026.783404260569
 31
0.0
  0
LINE
  5
50507
330
1F
100
AcDbEntity
  8
躯体と製品
  6
Continuous
 62
     4
100
AcDbLine
 10
-912.2966320526712
 20
3026.723096882023
 30
0.0
 11
-912.1366606366747
 21
3026.76821201382
 31
0.0
  0
LINE
  5
50508
330
1F
100
AcDbEntity
  8
躯体と製品
  6
Continuous
 62
     4
100
AcDbLine
 10
-912.509403870724
 20
3026.64942966652
 30
0.0
 11
-912.2966320526712
 21
3026.723096882023
 31
0.0
  0
LINE
  5
50509
330
1F
100
AcDbEntity
  8
躯体と製品
  6
Continuous
 62
     4
100
AcDbLine
 10
-912.7685108494725
 20
3026.549448710219
 30
0.0
 11
-912.509403870724
 21
3026.64942966652
 31
0.0
  0
LINE
  5
5050A
330
1F
100
AcDbEntity
  8
躯体と製品
  6
Continuous
 62
     4
100
AcDbLine
 10
-913.0660786566251
 20
3026.426191878222
 30
0.0
 11
-912.7685108494725
 21
3026.549448710219
 31
0.0
  0
LINE
  5
5050B
330
1F
100
AcDbEntity
  8
躯体と製品
  6
Continuous
 62
     4
100
AcDbLine
 10
-913.393067875225
 20
3026.28340423682
 30
0.0
 11
-913.0660786566251
 21
3026.426191878222
 31
0.0
  0
LINE
  5
5050C
330
1F
100
AcDbEntity
  8
躯体と製品
  6
Continuous
 62
     4
100
AcDbLine
 10
-913.7395412933758
 20
3026.125424395971
 30
0.0
 11
-913.393067875225
 21
3026.28340423682
 31
0.0
  0
LINE
  5
5050D
330
1F
100
AcDbEntity
  8
躯体と製品
  6
Continuous
 62
     4
100
AcDbLine
 10
-914.0949721720746
 20
3025.957052450366
 30
0.0
 11
-913.7395412933758
 21
3026.125424395971
 31
0.0
  0
LINE
  5
5050E
330
1F
100
AcDbEntity
  8
躯体と製品
  6
Continuous
 62
     4
100
AcDbLine
 10
-914.4485618260761
 20
3025.783404213122
 30
0.0
 11
-914.0949721720746
 21
3025.957052450366
 31
0.0
  0
LINE
  5
5050F
330
1F
100
AcDbEntity
  8
躯体と製品
  6
Continuous
 62
     4
100
AcDbLine
 10
-927.0495404296262
 20
3025.957052450366
 30
0.0
 11
-927.0343481137235
 21
3025.783404213122
 31
0.0
  0
LINE
  5
50510
330
1F
100
AcDbEntity
  8
躯体と製品
  6
Continuous
 62
     4
100
AcDbLine
 10
-927.0946555578259
 20
3026.125424395971
 30
0.0
 11
-927.0495404296262
 21
3025.957052450366
 31
0.0
  0
LINE
  5
50511
330
1F
100
AcDbEntity
  8
躯体と製品
  6
Continuous
 62
     4
100
AcDbLine
 10
-927.1683227659769
 20
3026.28340423682
 30
0.0
 11
-927.0946555578259
 21
3026.125424395971
 31
0.0
  0
LINE
  5
50512
330
1F
100
AcDbEntity
  8
躯体と製品
  6
Continuous
 62
     4
100
AcDbLine
 10
-927.2683037368253
 20
3026.426191878222
 30
0.0
 11
-927.1683227659769
 21
3026.28340423682
 31
0.0
  0
LINE
  5
50513
330
1F
100
AcDbEntity
  8
躯体と製品
  6
Continuous
 62
     4
100
AcDbLine
 10
-927.3915605543253
 20
3026.549448710219
 30
0.0
 11
-927.2683037368253
 21
3026.426191878222
 31
0.0
  0
LINE
  5
50514
330
1F
100
AcDbEntity
  8
躯体と製品
  6
Continuous
 62
     4
100
AcDbLine
 10
-927.5343481374758
 20
3026.64942966652
 30
0.0
 11
-927.3915605543253
 21
3026.549448710219
 31
0.0
  0
LINE
  5
50515
330
1F
100
AcDbEntity
  8
躯体と製品
  6
Continuous
 62
     4
100
AcDbLine
 10
-927.6923280074726
 20
3026.723096882023
 30
0.0
 11
-927.5343481374758
 21
3026.64942966652
 31
0.0
  0
LINE
  5
50516
330
1F
100
AcDbEntity
  8
躯体と製品
  6
Continuous
 62
     4
100
AcDbLine
 10
-927.8606999821741
 20
3026.76821201382
 30
0.0
 11
-927.6923280074726
 21
3026.723096882023
 31
0.0
  0
LINE
  5
50517
330
1F
100
AcDbEntity
  8
躯体と製品
  6
Continuous
 62
     4
100
AcDbLine
 10
-928.0343481612245
 20
3026.783404260569
 30
0.0
 11
-927.8606999821741
 21
3026.76821201382
 31
0.0
  0
LINE
  5
50518
330
1F
100
AcDbEntity
  8
躯体と製品
  6
Continuous
 62
     4
100
AcDbLine
 10
-927.0343481137235
 20
3025.783404213122
 30
0.0
 11
-927.0343481137235
 21
3024.783404165618
 31
0.0
  0
LINE
  5
50519
330
1F
100
AcDbEntity
  8
躯体と製品
  6
Continuous
 62
     4
100
AcDbLine
 10
-919.549067252573
 20
3024.783404165618
 30
0.0
 11
-916.7206396621724
 21
3026.783404260569
 31
0.0
  0
LINE
  5
5051A
330
1F
100
AcDbEntity
  8
躯体と製品
  6
Continuous
 62
     4
100
AcDbLine
 10
-929.0343482087219
 20
3024.783404165618
 30
0.0
 11
-929.0343482087219
 21
3025.783404213122
 31
0.0
  0
LINE
  5
5051B
330
1F
100
AcDbEntity
  8
躯体と製品
  6
Continuous
 62
     4
100
AcDbLine
 10
-928.2079963402749
 20
3026.76821201382
 30
0.0
 11
-928.0343481612245
 21
3026.783404260569
 31
0.0
  0
LINE
  5
5051C
330
1F
100
AcDbEntity
  8
躯体と製品
  6
Continuous
 62
     4
100
AcDbLine
 10
-928.3763683149764
 20
3026.723096882023
 30
0.0
 11
-928.2079963402749
 21
3026.76821201382
 31
0.0
  0
LINE
  5
5051D
330
1F
100
AcDbEntity
  8
躯体と製品
  6
Continuous
 62
     4
100
AcDbLine
 10
-928.5343481849732
 20
3026.64942966652
 30
0.0
 11
-928.3763683149764
 21
3026.723096882023
 31
0.0
  0
LINE
  5
5051E
330
1F
100
AcDbEntity
  8
躯体と製品
  6
Continuous
 62
     4
100
AcDbLine
 10
-928.6771357681237
 20
3026.549448710219
 30
0.0
 11
-928.5343481849732
 21
3026.64942966652
 31
0.0
  0
LINE
  5
5051F
330
1F
100
AcDbEntity
  8
躯体と製品
  6
Continuous
 62
     4
100
AcDbLine
 10
-928.8003925856239
 20
3026.426191878222
 30
0.0
 11
-928.6771357681237
 21
3026.549448710219
 31
0.0
  0
LINE
  5
50520
330
1F
100
AcDbEntity
  8
躯体と製品
  6
Continuous
 62
     4
100
AcDbLine
 10
-928.9003735564758
 20
3026.28340423682
 30
0.0
 11
-928.8003925856239
 21
3026.426191878222
 31
0.0
  0
LINE
  5
50521
330
1F
100
AcDbEntity
  8
躯体と製品
  6
Continuous
 62
     4
100
AcDbLine
 10
-928.9740407646268
 20
3026.125424395971
 30
0.0
 11
-928.9003735564758
 21
3026.28340423682
 31
0.0
  0
LINE
  5
50522
330
1F
100
AcDbEntity
  8
躯体と製品
  6
Continuous
 62
     4
100
AcDbLine
 10
-929.0191558928228
 20
3025.957052450366
 30
0.0
 11
-928.9740407646268
 21
3026.125424395971
 31
0.0
  0
LINE
  5
50523
330
1F
100
AcDbEntity
  8
躯体と製品
  6
Continuous
 62
     4
100
AcDbLine
 10
-929.0343482087219
 20
3025.783404213122
 30
0.0
 11
-929.0191558928228
 21
3025.957052450366
 31
0.0
  0
LINE
  5
50524
330
1F
100
AcDbEntity
  8
躯体と製品
  6
Continuous
 62
     4
100
AcDbLine
 10
-943.0343481612245
 20
3056.783404260569
 30
0.0
 11
-913.0343481612245
 21
3056.783404260569
 31
0.0
  0
LINE
  5
50525
330
1F
100
AcDbEntity
  8
躯体と製品
  6
Continuous
 62
     4
100
AcDbLine
 10
-945.5343481612246
 20
3032.783404260569
 30
0.0
 11
-928.0343481612245
 21
3032.783404260569
 31
0.0
  0
LINE
  5
50526
330
1F
100
AcDbEntity
  8
躯体と製品
  6
Continuous
 62
     4
100
AcDbLine
 10
-928.0343481612245
 20
3032.783404260569
 30
0.0
 11
-910.5343481612246
 21
3032.783404260569
 31
0.0
  0
LINE
  5
50527
330
1F
100
AcDbEntity
  8
躯体と製品
  6
Continuous
 62
     4
100
AcDbLine
 10
-943.0343481612245
 20
3056.783404260569
 30
0.0
 11
-945.5343481612246
 21
3032.783404260569
 31
0.0
  0
LINE
  5
50528
330
1F
100
AcDbEntity
  8
躯体と製品
  6
Continuous
 62
     4
100
AcDbLine
 10
-910.5343481612246
 20
3032.783404260569
 30
0.0
 11
-913.0343481612245
 21
3056.783404260569
 31
0.0
  0
ARC
  5
50529
330
1F
100
AcDbEntity
  8
躯体と製品
  6
Continuous
 62
     4
100
AcDbCircle
 10
-910.5343481612246
 20
3029.783404260569
 30
0.0
 40
3.0
100
AcDbArc
 50
270.0
 51
90.0
  0
LINE
  5
5052A
330
1F
100
AcDbEntity
  8
躯体と製品
  6
Continuous
 62
     4
100
AcDbLine
 10
-936.519629069876
 20
3024.783404165618
 30
0.0
 11
-939.3480566602766
 21
3026.783404260569
 31
0.0
  0
LINE
  5
5052B
330
1F
100
AcDbEntity
  8
躯体と製品
  6
Continuous
 62
     4
100
AcDbLine
 10
-945.5343481612246
 20
3026.783404260569
 30
0.0
 11
-910.5343481612246
 21
3026.783404260569
 31
0.0
  0
LINE
  5
5052C
330
1F
100
AcDbEntity
  8
躯体と製品
  6
Continuous
 62
     4
100
AcDbLine
 10
-938.0343481612211
 20
3086.783404260569
 30
0.0
 11
-918.034348161221
 21
3086.783404260569
 31
0.0
  0
LINE
  5
50D1B
330
1F
100
AcDbEntity
  8
躯体と製品
  6
Continuous
 62
     4
100
AcDbLine
 10
-1301.467663054558
 20
3028.783422782523
 30
0.0
 11
-1336.467677311804
 21
3028.783422782523
 31
0.0
  0
LINE
  5
50D1C
330
1F
100
AcDbEntity
  8
躯体と製品
  6
Continuous
 62
     4
100
AcDbLine
 10
-1304.46767701723
 20
3040.083406009639
 30
0.0
 11
-1333.467663349125
 21
3040.083406009639
 31
0.0
  0
LINE
  5
50D1D
330
1F
100
AcDbEntity
  8
躯体と製品
  6
Continuous
 62
     4
100
AcDbLine
 10
-1301.733531606041
 20
3026.78341347407
 30
0.0
 11
-1304.967654570908
 21
3026.78341347407
 31
0.0
  0
LINE
  5
50D1E
330
1F
100
AcDbEntity
  8
躯体と製品
  6
Continuous
 62
     4
100
AcDbLine
 10
-1321.398737336931
 20
3024.783404165618
 30
0.0
 11
-1319.922735818363
 21
3024.783404165618
 31
0.0
  0
LINE
  5
50D1F
330
1F
100
AcDbEntity
  8
躯体と製品
  6
Continuous
 62
     4
100
AcDbLine
 10
-1319.922735818363
 20
3025.783408819844
 30
0.0
 11
-1318.012604547999
 21
3025.783408819844
 31
0.0
  0
LINE
  5
50D20
330
1F
100
AcDbEntity
  8
躯体と製品
  6
Continuous
 62
     4
100
AcDbLine
 10
-1333.467663349125
 20
3040.083406009639
 30
0.0
 11
-1336.467677311804
 21
3028.783422782523
 31
0.0
  0
LINE
  5
50D21
330
1F
100
AcDbEntity
  8
躯体と製品
  6
Continuous
 62
     4
100
AcDbLine
 10
-1332.754981044891
 20
3024.783404165618
 30
0.0
 11
-1321.398737336931
 21
3024.783404165618
 31
0.0
  0
LINE
  5
50D22
330
1F
100
AcDbEntity
  8
躯体と製品
  6
Continuous
 62
     4
100
AcDbLine
 10
-1332.967636248577
 20
3026.78341347407
 30
0.0
 11
-1336.201808760321
 21
3026.78341347407
 31
0.0
  0
LINE
  5
50D23
330
1F
100
AcDbEntity
  8
躯体と製品
  6
Continuous
 62
     4
100
AcDbLine
 10
-1336.467677311804
 20
3028.783422782523
 30
0.0
 11
-1336.201808760321
 21
3028.783422782523
 31
0.0
  0
LINE
  5
50D24
330
1F
100
AcDbEntity
  8
躯体と製品
  6
Continuous
 62
     4
100
AcDbLine
 10
-1336.201808760321
 20
3028.783422782523
 30
0.0
 11
-1336.201808760321
 21
3026.78341347407
 31
0.0
  0
LINE
  5
50D25
330
1F
100
AcDbEntity
  8
躯体と製品
  6
Continuous
 62
     4
100
AcDbLine
 10
-1332.967636248577
 20
3025.783408819844
 30
0.0
 11
-1332.754981044891
 21
3025.783408819844
 31
0.0
  0
LINE
  5
50D26
330
1F
100
AcDbEntity
  8
躯体と製品
  6
Continuous
 62
     4
100
AcDbLine
 10
-1332.754981044891
 20
3024.783404165618
 30
0.0
 11
-1332.754981044891
 21
3025.783408819844
 31
0.0
  0
LINE
  5
50D27
330
1F
100
AcDbEntity
  8
躯体と製品
  6
Continuous
 62
     4
100
AcDbLine
 10
-1332.967636248577
 20
3026.78341347407
 30
0.0
 11
-1332.967636248577
 21
3025.783408819844
 31
0.0
  0
LINE
  5
50D28
330
1F
100
AcDbEntity
  8
躯体と製品
  6
Continuous
 62
     4
100
AcDbLine
 10
-1305.180359321464
 20
3024.783404165618
 30
0.0
 11
-1316.536603029424
 21
3024.783404165618
 31
0.0
  0
LINE
  5
50D29
330
1F
100
AcDbEntity
  8
躯体と製品
  6
Continuous
 62
     4
100
AcDbLine
 10
-1316.536603029424
 20
3024.783404165618
 30
0.0
 11
-1318.012604547999
 21
3024.783404165618
 31
0.0
  0
LINE
  5
50D2A
330
1F
100
AcDbEntity
  8
躯体と製品
  6
Continuous
 62
     4
100
AcDbLine
 10
-1318.012604547999
 20
3024.783404165618
 30
0.0
 11
-1318.012604547999
 21
3025.783408819844
 31
0.0
  0
LINE
  5
50D2B
330
1F
100
AcDbEntity
  8
躯体と製品
  6
Continuous
 62
     4
100
AcDbLine
 10
-1319.922735818363
 20
3024.783404165618
 30
0.0
 11
-1319.922735818363
 21
3025.783408819844
 31
0.0
  0
LINE
  5
50D2C
330
1F
100
AcDbEntity
  8
躯体と製品
  6
Continuous
 62
     4
100
AcDbLine
 10
-1305.180359321464
 20
3024.783404165618
 30
0.0
 11
-1305.180359321464
 21
3025.783408819844
 31
0.0
  0
LINE
  5
50D2D
330
1F
100
AcDbEntity
  8
躯体と製品
  6
Continuous
 62
     4
100
AcDbLine
 10
-1305.180359321464
 20
3025.783408819844
 30
0.0
 11
-1304.967654570908
 21
3025.783408819844
 31
0.0
  0
LINE
  5
50D2E
330
1F
100
AcDbEntity
  8
躯体と製品
  6
Continuous
 62
     4
100
AcDbLine
 10
-1304.967654570908
 20
3025.783408819844
 30
0.0
 11
-1304.967654570908
 21
3026.78341347407
 31
0.0
  0
LINE
  5
50D2F
330
1F
100
AcDbEntity
  8
躯体と製品
  6
Continuous
 62
     4
100
AcDbLine
 10
-1304.46767701723
 20
3040.083406009639
 30
0.0
 11
-1301.467663054558
 21
3028.783422782523
 31
0.0
  0
LINE
  5
50D30
330
1F
100
AcDbEntity
  8
躯体と製品
  6
Continuous
 62
     4
100
AcDbLine
 10
-1301.733531606041
 20
3028.783422782523
 30
0.0
 11
-1301.733531606041
 21
3026.78341347407
 31
0.0
  0
LINE
  5
50D32
330
1F
100
AcDbEntity
  8
躯体と製品
  6
Continuous
 62
     4
100
AcDbLine
 10
-1341.467670183178
 20
3142.783404165618
 30
0.0
 11
-1296.467670183178
 21
3142.783404165618
 31
0.0
  0
LINE
  5
50D33
330
1F
100
AcDbEntity
  8
躯体と製品
  6
Continuous
 62
     4
100
AcDbLine
 10
-1296.467670183178
 20
3142.783404165618
 30
0.0
 11
-1296.467670183178
 21
3112.783404165618
 31
0.0
  0
LINE
  5
50D34
330
1F
100
AcDbEntity
  8
躯体と製品
  6
Continuous
 62
     4
100
AcDbLine
 10
-1296.467670183178
 20
3112.783404165618
 30
0.0
 11
-1341.467670183178
 21
3112.783404165618
 31
0.0
  0
LINE
  5
50D35
330
1F
100
AcDbEntity
  8
躯体と製品
  6
Continuous
 62
     4
100
AcDbLine
 10
-1341.467670183178
 20
3112.783404165618
 30
0.0
 11
-1341.467670183178
 21
3142.783404165618
 31
0.0
  0
LINE
  5
50D36
330
1F
100
AcDbEntity
  8
躯体と製品
  6
Continuous
 62
     4
100
AcDbLine
 10
-1341.467670183178
 20
3142.783404165618
 30
0.0
 11
-1296.467670183178
 21
3112.783404165618
 31
0.0
  0
LINE
  5
50D37
330
1F
100
AcDbEntity
  8
躯体と製品
  6
Continuous
 62
     4
100
AcDbLine
 10
-1296.467670183178
 20
3142.783404165618
 30
0.0
 11
-1341.467670183178
 21
3112.783404165618
 31
0.0
  0
LINE
  5
50D3A
330
1F
100
AcDbEntity
  8
躯体と製品
  6
Continuous
 62
     4
100
AcDbLine
 10
-1317.467670183183
 20
3082.783404165617
 30
0.0
 11
-1317.467670183181
 21
3068.783422782523
 31
0.0
  0
LINE
  5
50D3B
330
1F
100
AcDbEntity
  8
躯体と製品
  6
Continuous
 62
     4
100
AcDbLine
 10
-1328.967670183183
 20
3082.783404165617
 30
0.0
 11
-1328.967670183181
 21
3068.783422782523
 31
0.0
  0
LINE
  5
50D3C
330
1F
100
AcDbEntity
  8
躯体と製品
  6
Continuous
 62
     4
100
AcDbLine
 10
-1320.467670183181
 20
3082.783404165617
 30
0.0
 11
-1320.467670183181
 21
3068.783422782523
 31
0.0
  0
LINE
  5
50D3D
330
1F
100
AcDbEntity
  8
躯体と製品
  6
Continuous
 62
     4
100
AcDbLine
 10
-1327.614670183179
 20
3082.783404165617
 30
0.0
 11
-1327.614670183179
 21
3068.783422782523
 31
0.0
  0
LINE
  5
50D3E
330
1F
100
AcDbEntity
  8
躯体と製品
  6
Continuous
 62
     4
100
AcDbLine
 10
-1308.967670183183
 20
3082.783404165617
 30
0.0
 11
-1308.967670183181
 21
3068.783422782523
 31
0.0
  0
LINE
  5
50D3F
330
1F
100
AcDbEntity
  8
躯体と製品
  6
Continuous
 62
     4
100
AcDbLine
 10
-1328.967670183181
 20
3068.783422782523
 30
0.0
 11
-1308.967670183181
 21
3068.783422782523
 31
0.0
  0
LINE
  5
50D40
330
1F
100
AcDbEntity
  8
躯体と製品
  6
Continuous
 62
     4
100
AcDbLine
 10
-1310.32067018318
 20
3082.783404165617
 30
0.0
 11
-1310.32067018318
 21
3068.783422782523
 31
0.0
  0
LINE
  5
50D41
330
1F
100
AcDbEntity
  8
躯体と製品
  6
Continuous
 62
     4
100
AcDbLine
 10
-1327.467670183181
 20
3040.083406009639
 30
0.0
 11
-1327.467670183181
 21
3068.783422782523
 31
0.0
  0
LINE
  5
50D42
330
1F
100
AcDbEntity
  8
躯体と製品
  6
Continuous
 62
     4
100
AcDbLine
 10
-1310.467670183181
 20
3040.083406009639
 30
0.0
 11
-1310.467670183181
 21
3068.783422782523
 31
0.0
  0
LINE
  5
50D43
330
1F
100
AcDbEntity
  8
躯体と製品
  6
Continuous
 62
     4
100
AcDbLine
 10
-1331.467670183229
 20
3082.783404165617
 30
0.0
 11
-1306.467670183228
 21
3082.783404165617
 31
0.0
  0
LINE
  5
50D44
330
1F
100
AcDbEntity
  8
躯体と製品
  6
Continuous
 62
     4
100
AcDbLine
 10
-1340.967670183228
 20
3107.783404165618
 30
0.0
 11
-1296.967670183228
 21
3107.783404165618
 31
0.0
  0
LINE
  5
50D45
330
1F
100
AcDbEntity
  8
躯体と製品
  6
Continuous
 62
     4
100
AcDbLine
 10
-1340.967670183228
 20
3112.783404165618
 30
0.0
 11
-1296.967670183228
 21
3112.783404165618
 31
0.0
  0
LINE
  5
50D46
330
1F
100
AcDbEntity
  8
躯体と製品
  6
Continuous
 62
     4
100
AcDbLine
 10
-1335.000537274027
 20
3100.152636999716
 30
0.0
 11
-1330.464762813328
 21
3082.783404165617
 31
0.0
  0
LINE
  5
50D47
330
1F
100
AcDbEntity
  8
躯体と製品
  6
Continuous
 62
     4
100
AcDbLine
 10
-1307.470577553125
 20
3082.783404165617
 30
0.0
 11
-1302.93480309243
 21
3100.152636999716
 31
0.0
  0
LINE
  5
50D48
330
1F
100
AcDbEntity
  8
躯体と製品
  6
Continuous
 62
     4
100
AcDbLine
 10
-1337.730582784425
 20
3106.387312883221
 30
0.0
 11
-1338.725892807924
 21
3107.783404538118
 31
0.0
  0
LINE
  5
50D49
330
1F
100
AcDbEntity
  8
躯体と製品
  6
Continuous
 62
     4
100
AcDbLine
 10
-1336.856989170926
 20
3104.909395226918
 30
0.0
 11
-1337.730582784425
 21
3106.387312883221
 31
0.0
  0
LINE
  5
50D4A
330
1F
100
AcDbEntity
  8
躯体と製品
  6
Continuous
 62
     4
100
AcDbLine
 10
-1336.106691490426
 20
3103.359972485917
 30
0.0
 11
-1336.856989170926
 21
3104.909395226918
 31
0.0
  0
LINE
  5
50D4B
330
1F
100
AcDbEntity
  8
躯体と製品
  6
Continuous
 62
     4
100
AcDbLine
 10
-1335.491429995327
 20
3101.777923652619
 30
0.0
 11
-1336.106691490426
 21
3103.359972485917
 31
0.0
  0
LINE
  5
50D4C
330
1F
100
AcDbEntity
  8
躯体と製品
  6
Continuous
 62
     4
100
AcDbLine
 10
-1335.000537316828
 20
3100.152637237414
 30
0.0
 11
-1335.491429995327
 21
3101.777923652619
 31
0.0
  0
LINE
  5
50D4D
330
1F
100
AcDbEntity
  8
躯体と製品
  6
Continuous
 62
     4
100
AcDbLine
 10
-1333.500537274027
 20
3100.152636999716
 30
0.0
 11
-1335.000537274027
 21
3100.152636999716
 31
0.0
  0
LINE
  5
50D4E
330
1F
100
AcDbEntity
  8
躯体と製品
  6
Continuous
 62
     4
100
AcDbLine
 10
-1328.964762813328
 20
3082.783404165617
 30
0.0
 11
-1333.500537274027
 21
3100.152636999716
 31
0.0
  0
LINE
  5
50D4F
330
1F
100
AcDbEntity
  8
躯体と製品
  6
Continuous
 62
     4
100
AcDbLine
 10
-1328.964762370626
 20
3107.783404538118
 30
0.0
 11
-1328.964762813328
 21
3082.783404165617
 31
0.0
  0
LINE
  5
50D50
330
1F
100
AcDbEntity
  8
躯体と製品
  6
Continuous
 62
     4
100
AcDbLine
 10
-1334.120350870828
 20
3102.141618156523
 30
0.0
 11
-1333.500537071028
 21
3100.152637237414
 31
0.0
  0
LINE
  5
50D51
330
1F
100
AcDbEntity
  8
躯体と製品
  6
Continuous
 62
     4
100
AcDbLine
 10
-1334.752053003329
 20
3103.686637604319
 30
0.0
 11
-1334.120350870828
 21
3102.141618156523
 31
0.0
  0
LINE
  5
50D52
330
1F
100
AcDbEntity
  8
躯体と製品
  6
Continuous
 62
     4
100
AcDbLine
 10
-1335.489867236028
 20
3105.153358900622
 30
0.0
 11
-1334.752053003329
 21
3103.686637604319
 31
0.0
  0
LINE
  5
50D53
330
1F
100
AcDbEntity
  8
躯体と製品
  6
Continuous
 62
     4
100
AcDbLine
 10
-1336.313774790229
 20
3106.514313617416
 30
0.0
 11
-1335.489867236028
 21
3105.153358900622
 31
0.0
  0
LINE
  5
50D54
330
1F
100
AcDbEntity
  8
躯体と製品
  6
Continuous
 62
     4
100
AcDbLine
 10
-1337.225891630726
 20
3107.783404538118
 30
0.0
 11
-1336.313774790229
 21
3106.514313617416
 31
0.0
  0
LINE
  5
50D55
330
1F
100
AcDbEntity
  8
躯体と製品
  6
Continuous
 62
     4
100
AcDbLine
 10
-1304.434803092427
 20
3100.152636999716
 30
0.0
 11
-1308.970577553129
 21
3082.783404165617
 31
0.0
  0
LINE
  5
50D56
330
1F
100
AcDbEntity
  8
躯体と製品
  6
Continuous
 62
     4
100
AcDbLine
 10
-1308.970577995827
 20
3107.783404538118
 30
0.0
 11
-1308.970577553129
 21
3082.783404165617
 31
0.0
  0
LINE
  5
50D57
330
1F
100
AcDbEntity
  8
躯体と製品
  6
Continuous
 62
     4
100
AcDbLine
 10
-1301.704758759228
 20
3106.387312883221
 30
0.0
 11
-1300.709448735724
 21
3107.783404538118
 31
0.0
  0
LINE
  5
50D58
330
1F
100
AcDbEntity
  8
躯体と製品
  6
Continuous
 62
     4
100
AcDbLine
 10
-1302.578350510026
 20
3104.909395226918
 30
0.0
 11
-1301.704758759228
 21
3106.387312883221
 31
0.0
  0
LINE
  5
50D59
330
1F
100
AcDbEntity
  8
躯体と製品
  6
Continuous
 62
     4
100
AcDbLine
 10
-1303.328648190527
 20
3103.359972485917
 30
0.0
 11
-1302.578350510026
 21
3104.909395226918
 31
0.0
  0
LINE
  5
50D5A
330
1F
100
AcDbEntity
  8
躯体と製品
  6
Continuous
 62
     4
100
AcDbLine
 10
-1303.943910617025
 20
3101.777923652619
 30
0.0
 11
-1303.328648190527
 21
3103.359972485917
 31
0.0
  0
LINE
  5
50D5B
330
1F
100
AcDbEntity
  8
躯体と製品
  6
Continuous
 62
     4
100
AcDbLine
 10
-1304.434803295527
 20
3100.152637237414
 30
0.0
 11
-1303.943910617025
 21
3101.777923652619
 31
0.0
  0
LINE
  5
50D5C
330
1F
100
AcDbEntity
  8
躯体と製品
  6
Continuous
 62
     4
100
AcDbLine
 10
-1302.93480309243
 20
3100.152636999716
 30
0.0
 11
-1304.434803092427
 21
3100.152636999716
 31
0.0
  0
LINE
  5
50D5D
330
1F
100
AcDbEntity
  8
躯体と製品
  6
Continuous
 62
     4
100
AcDbLine
 10
-1302.314989249727
 20
3102.141618156523
 30
0.0
 11
-1302.934803049626
 21
3100.152637237414
 31
0.0
  0
LINE
  5
50D5E
330
1F
100
AcDbEntity
  8
躯体と製品
  6
Continuous
 62
     4
100
AcDbLine
 10
-1301.683288048527
 20
3103.686637604319
 30
0.0
 11
-1302.314989249727
 21
3102.141618156523
 31
0.0
  0
LINE
  5
50D5F
330
1F
100
AcDbEntity
  8
躯体と製品
  6
Continuous
 62
     4
100
AcDbLine
 10
-1300.945473815827
 20
3105.153358900622
 30
0.0
 11
-1301.683288048527
 21
3103.686637604319
 31
0.0
  0
LINE
  5
50D60
330
1F
100
AcDbEntity
  8
躯体と製品
  6
Continuous
 62
     4
100
AcDbLine
 10
-1300.121566261729
 20
3106.514313617416
 30
0.0
 11
-1300.945473815827
 21
3105.153358900622
 31
0.0
  0
LINE
  5
50D61
330
1F
100
AcDbEntity
  8
躯体と製品
  6
Continuous
 62
     4
100
AcDbLine
 10
-1299.209447558525
 20
3107.783404538118
 30
0.0
 11
-1300.121566261729
 21
3106.514313617416
 31
0.0
  0
LINE
  5
50D62
330
1F
100
AcDbEntity
  8
躯体と製品
  6
Continuous
 62
     4
100
AcDbLine
 10
-1317.467670183228
 20
3100.152636999716
 30
0.0
 11
-1320.467670183228
 21
3100.152636999716
 31
0.0
  0
LINE
  5
50D63
330
1F
100
AcDbEntity
  8
躯体と製品
  6
Continuous
 62
     4
100
AcDbLine
 10
-1331.467670369529
 20
3086.623923979417
 30
0.0
 11
-1331.467670183229
 21
3082.783404165617
 31
0.0
  0
LINE
  5
50D64
330
1F
100
AcDbEntity
  8
躯体と製品
  6
Continuous
 62
     4
100
AcDbLine
 10
-1306.467670183228
 20
3082.783404165617
 30
0.0
 11
-1306.467669996927
 21
3086.623923979417
 31
0.0
  0
LINE
  5
50D65
330
1F
100
AcDbEntity
  8
躯体と製品
  6
Continuous
 62
     4
100
AcDbLine
 10
-1296.967670183228
 20
3107.783404165618
 30
0.0
 11
-1296.967670183228
 21
3112.783404165618
 31
0.0
  0
LINE
  5
50D66
330
1F
100
AcDbEntity
  8
躯体と製品
  6
Continuous
 62
     4
100
AcDbLine
 10
-1340.967670183228
 20
3112.783404165618
 30
0.0
 11
-1340.967670183228
 21
3107.783404165618
 31
0.0
  0
LINE
  5
50D67
330
1F
100
AcDbEntity
  8
躯体と製品
  6
Continuous
 62
     4
100
AcDbLine
 10
-1320.467670183228
 20
3107.783404165618
 30
0.0
 11
-1320.467670183228
 21
3082.783404165617
 31
0.0
  0
LINE
  5
50D68
330
1F
100
AcDbEntity
  8
躯体と製品
  6
Continuous
 62
     4
100
AcDbLine
 10
-1317.467670183228
 20
3082.783404165617
 30
0.0
 11
-1317.467670183228
 21
3107.783404165618
 31
0.0
  0
CIRCLE
  5
51105
330
1F
100
AcDbEntity
  8
躯体と製品
  6
Continuous
 62
     3
100
AcDbCircle
 10
-1331.467670183178
 20
3156.783404165617
 30
0.0
 40
0.9999999999999998
  0
CIRCLE
  5
51106
330
1F
100
AcDbEntity
  8
躯体と製品
  6
Continuous
 62
     3
100
AcDbCircle
 10
-1321.467670183178
 20
3156.783404165617
 30
0.0
 40
0.9999999999999998
  0
CIRCLE
  5
51107
330
1F
100
AcDbEntity
  8
躯体と製品
  6
Continuous
 62
     3
100
AcDbCircle
 10
-1301.467670183177
 20
3156.783404165617
 30
0.0
 40
0.9999999999999998
  0
CIRCLE
  5
51108
330
1F
100
AcDbEntity
  8
躯体と製品
  6
Continuous
 62
     3
100
AcDbCircle
 10
-1291.467670183177
 20
3156.783404165617
 30
0.0
 40
0.9999999999999998
  0
CIRCLE
  5
51109
330
1F
100
AcDbEntity
  8
躯体と製品
  6
Continuous
 62
     3
100
AcDbCircle
 10
-1281.467670183177
 20
3156.783404165617
 30
0.0
 40
0.9999999999999998
  0
CIRCLE
  5
5110A
330
1F
100
AcDbEntity
  8
躯体と製品
  6
Continuous
 62
     3
100
AcDbCircle
 10
-1261.467670183178
 20
3156.783404165617
 30
0.0
 40
0.9999999999999998
  0
CIRCLE
  5
5110B
330
1F
100
AcDbEntity
  8
躯体と製品
  6
Continuous
 62
     3
100
AcDbCircle
 10
-1251.467670183177
 20
3156.783404165617
 30
0.0
 40
0.9999999999999998
  0
CIRCLE
  5
5110C
330
1F
100
AcDbEntity
  8
躯体と製品
  6
Continuous
 62
     3
100
AcDbCircle
 10
-1321.467670183178
 20
3148.783404165618
 30
0.0
 40
0.9999999999999998
  0
CIRCLE
  5
5110D
330
1F
100
AcDbEntity
  8
躯体と製品
  6
Continuous
 62
     3
100
AcDbCircle
 10
-1311.467670183178
 20
3148.783404165618
 30
0.0
 40
0.9999999999999998
  0
CIRCLE
  5
5110E
330
1F
100
AcDbEntity
  8
躯体と製品
  6
Continuous
 62
     3
100
AcDbCircle
 10
-1301.467670183177
 20
3148.783404165618
 30
0.0
 40
0.9999999999999998
  0
CIRCLE
  5
5110F
330
1F
100
AcDbEntity
  8
躯体と製品
  6
Continuous
 62
     3
100
AcDbCircle
 10
-1281.467670183177
 20
3148.783404165618
 30
0.0
 40
0.9999999999999998
  0
CIRCLE
  5
51110
330
1F
100
AcDbEntity
  8
躯体と製品
  6
Continuous
 62
     3
100
AcDbCircle
 10
-1271.467670183177
 20
3148.783404165618
 30
0.0
 40
0.9999999999999998
  0
CIRCLE
  5
51111
330
1F
100
AcDbEntity
  8
躯体と製品
  6
Continuous
 62
     3
100
AcDbCircle
 10
-1261.467670183178
 20
3148.783404165618
 30
0.0
 40
0.9999999999999998
  0
CIRCLE
  5
51112
330
1F
100
AcDbEntity
  8
躯体と製品
  6
Continuous
 62
     3
100
AcDbCircle
 10
-1336.467670183178
 20
3152.783404165618
 30
0.0
 40
0.9999999999999998
  0
CIRCLE
  5
51113
330
1F
100
AcDbEntity
  8
躯体と製品
  6
Continuous
 62
     3
100
AcDbCircle
 10
-1296.467670183178
 20
3152.783404165618
 30
0.0
 40
0.9999999999999998
  0
CIRCLE
  5
51114
330
1F
100
AcDbEntity
  8
躯体と製品
  6
Continuous
 62
     3
100
AcDbCircle
 10
-1328.967670183178
 20
3146.783404165617
 30
0.0
 40
0.9999999999999998
  0
CIRCLE
  5
51115
330
1F
100
AcDbEntity
  8
躯体と製品
  6
Continuous
 62
     3
100
AcDbCircle
 10
-1288.967670183178
 20
3146.783404165617
 30
0.0
 40
0.9999999999999998
  0
CIRCLE
  5
51116
330
1F
100
AcDbEntity
  8
躯体と製品
  6
Continuous
 62
     3
100
AcDbCircle
 10
-1313.967670183177
 20
3158.783404165618
 30
0.0
 40
0.9999999999999998
  0
CIRCLE
  5
51117
330
1F
100
AcDbEntity
  8
躯体と製品
  6
Continuous
 62
     3
100
AcDbCircle
 10
-1273.967670183178
 20
3158.783404165618
 30
0.0
 40
0.9999999999999998
  0
CIRCLE
  5
51118
330
1F
100
AcDbEntity
  8
躯体と製品
  6
Continuous
 62
     3
100
AcDbCircle
 10
-1248.967670183178
 20
3146.783404165617
 30
0.0
 40
0.9999999999999998
  0
CIRCLE
  5
51119
330
1F
100
AcDbEntity
  8
躯体と製品
  6
Continuous
 62
     3
100
AcDbCircle
 10
-1233.967670183178
 20
3158.783404165618
 30
0.0
 40
0.9999999999999998
  0
CIRCLE
  5
5111A
330
1F
100
AcDbEntity
  8
躯体と製品
  6
Continuous
 62
     3
100
AcDbCircle
 10
-1193.967670183178
 20
3158.783404165618
 30
0.0
 40
0.9999999999999998
  0
CIRCLE
  5
5111B
330
1F
100
AcDbEntity
  8
躯体と製品
  6
Continuous
 62
     3
100
AcDbCircle
 10
-1153.967670183178
 20
3158.783404165618
 30
0.0
 40
0.9999999999999998
  0
CIRCLE
  5
5111C
330
1F
100
AcDbEntity
  8
躯体と製品
  6
Continuous
 62
     3
100
AcDbCircle
 10
-1113.967670183177
 20
3158.783404165618
 30
0.0
 40
0.9999999999999998
  0
CIRCLE
  5
5111D
330
1F
100
AcDbEntity
  8
躯体と製品
  6
Continuous
 62
     3
100
AcDbCircle
 10
-1073.967670183177
 20
3158.783404165618
 30
0.0
 40
0.9999999999999998
  0
CIRCLE
  5
5111E
330
1F
100
AcDbEntity
  8
躯体と製品
  6
Continuous
 62
     3
100
AcDbCircle
 10
-1033.967670183177
 20
3158.783404165618
 30
0.0
 40
0.9999999999999998
  0
CIRCLE
  5
5111F
330
1F
100
AcDbEntity
  8
躯体と製品
  6
Continuous
 62
     3
100
AcDbCircle
 10
-993.9676701831777
 20
3158.783404165618
 30
0.0
 40
0.9999999999999998
  0
CIRCLE
  5
51120
330
1F
100
AcDbEntity
  8
躯体と製品
  6
Continuous
 62
     3
100
AcDbCircle
 10
-953.9676701831776
 20
3158.783404165618
 30
0.0
 40
0.9999999999999998
  0
CIRCLE
  5
51121
330
1F
100
AcDbEntity
  8
躯体と製品
  6
Continuous
 62
     3
100
AcDbCircle
 10
-873.9676701831777
 20
3158.783404165618
 30
0.0
 40
0.9999999999999998
  0
CIRCLE
  5
51122
330
1F
100
AcDbEntity
  8
躯体と製品
  6
Continuous
 62
     3
100
AcDbCircle
 10
-833.9676701831777
 20
3158.783404165618
 30
0.0
 40
0.9999999999999998
  0
CIRCLE
  5
51123
330
1F
100
AcDbEntity
  8
躯体と製品
  6
Continuous
 62
     3
100
AcDbCircle
 10
-911.9676701831776
 20
3158.783404165618
 30
0.0
 40
0.9999999999999998
  0
CIRCLE
  5
51124
330
1F
100
AcDbEntity
  8
躯体と製品
  6
Continuous
 62
     3
100
AcDbCircle
 10
-793.9676701831777
 20
3158.783404165618
 30
0.0
 40
0.9999999999999998
  0
CIRCLE
  5
51125
330
1F
100
AcDbEntity
  8
躯体と製品
  6
Continuous
 62
     3
100
AcDbCircle
 10
-753.9676701831776
 20
3158.783404165618
 30
0.0
 40
0.9999999999999998
  0
CIRCLE
  5
51126
330
1F
100
AcDbEntity
  8
躯体と製品
  6
Continuous
 62
     3
100
AcDbCircle
 10
-713.9676701831777
 20
3158.783404165618
 30
0.0
 40
0.9999999999999998
  0
CIRCLE
  5
51127
330
1F
100
AcDbEntity
  8
躯体と製品
  6
Continuous
 62
     3
100
AcDbCircle
 10
-1208.967670183177
 20
3146.783404165617
 30
0.0
 40
0.9999999999999998
  0
CIRCLE
  5
51128
330
1F
100
AcDbEntity
  8
躯体と製品
  6
Continuous
 62
     3
100
AcDbCircle
 10
-1168.967670183177
 20
3146.783404165617
 30
0.0
 40
0.9999999999999998
  0
CIRCLE
  5
51129
330
1F
100
AcDbEntity
  8
躯体と製品
  6
Continuous
 62
     3
100
AcDbCircle
 10
-1128.967670183177
 20
3146.783404165617
 30
0.0
 40
0.9999999999999998
  0
CIRCLE
  5
5112A
330
1F
100
AcDbEntity
  8
躯体と製品
  6
Continuous
 62
     3
100
AcDbCircle
 10
-1088.967670183177
 20
3146.783404165617
 30
0.0
 40
0.9999999999999998
  0
CIRCLE
  5
5112B
330
1F
100
AcDbEntity
  8
躯体と製品
  6
Continuous
 62
     3
100
AcDbCircle
 10
-1048.601644779393
 20
3146.417378761833
 30
0.0
 40
0.9999999999999998
  0
CIRCLE
  5
5112C
330
1F
100
AcDbEntity
  8
躯体と製品
  6
Continuous
 62
     3
100
AcDbCircle
 10
-1008.601644779393
 20
3146.417378761833
 30
0.0
 40
0.9999999999999998
  0
CIRCLE
  5
5112D
330
1F
100
AcDbEntity
  8
躯体と製品
  6
Continuous
 62
     3
100
AcDbCircle
 10
-968.6016447793926
 20
3146.417378761833
 30
0.0
 40
0.9999999999999998
  0
CIRCLE
  5
5112E
330
1F
100
AcDbEntity
  8
躯体と製品
  6
Continuous
 62
     3
100
AcDbCircle
 10
-888.6016447793927
 20
3146.417378761833
 30
0.0
 40
0.9999999999999998
  0
CIRCLE
  5
5112F
330
1F
100
AcDbEntity
  8
躯体と製品
  6
Continuous
 62
     3
100
AcDbCircle
 10
-848.6016447793927
 20
3146.417378761833
 30
0.0
 40
0.9999999999999998
  0
CIRCLE
  5
51130
330
1F
100
AcDbEntity
  8
躯体と製品
  6
Continuous
 62
     3
100
AcDbCircle
 10
-808.6016447793927
 20
3146.417378761833
 30
0.0
 40
0.9999999999999998
  0
CIRCLE
  5
51131
330
1F
100
AcDbEntity
  8
躯体と製品
  6
Continuous
 62
     3
100
AcDbCircle
 10
-768.6016447793926
 20
3146.417378761833
 30
0.0
 40
0.9999999999999998
  0
CIRCLE
  5
51132
330
1F
100
AcDbEntity
  8
躯体と製品
  6
Continuous
 62
     3
100
AcDbCircle
 10
-728.6016447793927
 20
3146.417378761833
 30
0.0
 40
0.9999999999999998
  0
CIRCLE
  5
51133
330
1F
100
AcDbEntity
  8
躯体と製品
  6
Continuous
 62
     3
100
AcDbCircle
 10
-1241.467670183177
 20
3156.783404165617
 30
0.0
 40
0.9999999999999998
  0
CIRCLE
  5
51134
330
1F
100
AcDbEntity
  8
躯体と製品
  6
Continuous
 62
     3
100
AcDbCircle
 10
-1221.467670183178
 20
3156.783404165617
 30
0.0
 40
0.9999999999999998
  0
CIRCLE
  5
51135
330
1F
100
AcDbEntity
  8
躯体と製品
  6
Continuous
 62
     3
100
AcDbCircle
 10
-1211.467670183178
 20
3156.783404165617
 30
0.0
 40
0.9999999999999998
  0
CIRCLE
  5
51136
330
1F
100
AcDbEntity
  8
躯体と製品
  6
Continuous
 62
     3
100
AcDbCircle
 10
-1201.467670183177
 20
3156.783404165617
 30
0.0
 40
0.9999999999999998
  0
CIRCLE
  5
51137
330
1F
100
AcDbEntity
  8
躯体と製品
  6
Continuous
 62
     3
100
AcDbCircle
 10
-1181.467670183177
 20
3156.783404165617
 30
0.0
 40
0.9999999999999998
  0
CIRCLE
  5
51138
330
1F
100
AcDbEntity
  8
躯体と製品
  6
Continuous
 62
     3
100
AcDbCircle
 10
-1171.467670183178
 20
3156.783404165617
 30
0.0
 40
0.9999999999999998
  0
CIRCLE
  5
51139
330
1F
100
AcDbEntity
  8
躯体と製品
  6
Continuous
 62
     3
100
AcDbCircle
 10
-1241.467670183177
 20
3148.783404165618
 30
0.0
 40
0.9999999999999998
  0
CIRCLE
  5
5113A
330
1F
100
AcDbEntity
  8
躯体と製品
  6
Continuous
 62
     3
100
AcDbCircle
 10
-1231.467670183177
 20
3148.783404165618
 30
0.0
 40
0.9999999999999998
  0
CIRCLE
  5
5113B
330
1F
100
AcDbEntity
  8
躯体と製品
  6
Continuous
 62
     3
100
AcDbCircle
 10
-1221.467670183178
 20
3148.783404165618
 30
0.0
 40
0.9999999999999998
  0
CIRCLE
  5
5113C
330
1F
100
AcDbEntity
  8
躯体と製品
  6
Continuous
 62
     3
100
AcDbCircle
 10
-1201.467670183177
 20
3148.783404165618
 30
0.0
 40
0.9999999999999998
  0
CIRCLE
  5
5113D
330
1F
100
AcDbEntity
  8
躯体と製品
  6
Continuous
 62
     3
100
AcDbCircle
 10
-1191.467670183177
 20
3148.783404165618
 30
0.0
 40
0.9999999999999998
  0
CIRCLE
  5
5113E
330
1F
100
AcDbEntity
  8
躯体と製品
  6
Continuous
 62
     3
100
AcDbCircle
 10
-1181.467670183177
 20
3148.783404165618
 30
0.0
 40
0.9999999999999998
  0
CIRCLE
  5
5113F
330
1F
100
AcDbEntity
  8
躯体と製品
  6
Continuous
 62
     3
100
AcDbCircle
 10
-1141.467670183177
 20
3156.783404165617
 30
0.0
 40
0.9999999999999998
  0
CIRCLE
  5
51140
330
1F
100
AcDbEntity
  8
躯体と製品
  6
Continuous
 62
     3
100
AcDbCircle
 10
-1131.467670183178
 20
3156.783404165617
 30
0.0
 40
0.9999999999999998
  0
CIRCLE
  5
51141
330
1F
100
AcDbEntity
  8
躯体と製品
  6
Continuous
 62
     3
100
AcDbCircle
 10
-1121.467670183178
 20
3156.783404165617
 30
0.0
 40
0.9999999999999998
  0
CIRCLE
  5
51142
330
1F
100
AcDbEntity
  8
躯体と製品
  6
Continuous
 62
     3
100
AcDbCircle
 10
-1101.467670183177
 20
3156.783404165617
 30
0.0
 40
0.9999999999999998
  0
CIRCLE
  5
51143
330
1F
100
AcDbEntity
  8
躯体と製品
  6
Continuous
 62
     3
100
AcDbCircle
 10
-1091.467670183178
 20
3156.783404165617
 30
0.0
 40
0.9999999999999998
  0
CIRCLE
  5
51144
330
1F
100
AcDbEntity
  8
躯体と製品
  6
Continuous
 62
     3
100
AcDbCircle
 10
-1151.467670183177
 20
3148.783404165618
 30
0.0
 40
0.9999999999999998
  0
CIRCLE
  5
51145
330
1F
100
AcDbEntity
  8
躯体と製品
  6
Continuous
 62
     3
100
AcDbCircle
 10
-1141.467670183177
 20
3148.783404165618
 30
0.0
 40
0.9999999999999998
  0
CIRCLE
  5
51146
330
1F
100
AcDbEntity
  8
躯体と製品
  6
Continuous
 62
     3
100
AcDbCircle
 10
-1121.467670183178
 20
3148.783404165618
 30
0.0
 40
0.9999999999999998
  0
CIRCLE
  5
51147
330
1F
100
AcDbEntity
  8
躯体と製品
  6
Continuous
 62
     3
100
AcDbCircle
 10
-1111.467670183178
 20
3148.783404165618
 30
0.0
 40
0.9999999999999998
  0
CIRCLE
  5
51148
330
1F
100
AcDbEntity
  8
躯体と製品
  6
Continuous
 62
     3
100
AcDbCircle
 10
-1101.467670183177
 20
3148.783404165618
 30
0.0
 40
0.9999999999999998
  0
CIRCLE
  5
51149
330
1F
100
AcDbEntity
  8
躯体と製品
  6
Continuous
 62
     3
100
AcDbCircle
 10
-1081.467670183178
 20
3156.783404165617
 30
0.0
 40
0.9999999999999998
  0
CIRCLE
  5
5114A
330
1F
100
AcDbEntity
  8
躯体と製品
  6
Continuous
 62
     3
100
AcDbCircle
 10
-1061.467670183178
 20
3156.783404165617
 30
0.0
 40
0.9999999999999998
  0
CIRCLE
  5
5114B
330
1F
100
AcDbEntity
  8
躯体と製品
  6
Continuous
 62
     3
100
AcDbCircle
 10
-1051.467670183177
 20
3156.783404165617
 30
0.0
 40
0.9999999999999998
  0
CIRCLE
  5
5114C
330
1F
100
AcDbEntity
  8
躯体と製品
  6
Continuous
 62
     3
100
AcDbCircle
 10
-1041.467670183177
 20
3156.783404165617
 30
0.0
 40
0.9999999999999998
  0
CIRCLE
  5
5114D
330
1F
100
AcDbEntity
  8
躯体と製品
  6
Continuous
 62
     3
100
AcDbCircle
 10
-1021.467670183177
 20
3156.783404165617
 30
0.0
 40
0.9999999999999998
  0
CIRCLE
  5
5114E
330
1F
100
AcDbEntity
  8
躯体と製品
  6
Continuous
 62
     3
100
AcDbCircle
 10
-1011.467670183177
 20
3156.783404165617
 30
0.0
 40
0.9999999999999998
  0
CIRCLE
  5
5114F
330
1F
100
AcDbEntity
  8
躯体と製品
  6
Continuous
 62
     3
100
AcDbCircle
 10
-1081.467670183178
 20
3148.783404165618
 30
0.0
 40
0.9999999999999998
  0
CIRCLE
  5
51150
330
1F
100
AcDbEntity
  8
躯体と製品
  6
Continuous
 62
     3
100
AcDbCircle
 10
-1071.467670183178
 20
3148.783404165618
 30
0.0
 40
0.9999999999999998
  0
CIRCLE
  5
51151
330
1F
100
AcDbEntity
  8
躯体と製品
  6
Continuous
 62
     3
100
AcDbCircle
 10
-1061.467670183178
 20
3148.783404165618
 30
0.0
 40
0.9999999999999998
  0
CIRCLE
  5
51152
330
1F
100
AcDbEntity
  8
躯体と製品
  6
Continuous
 62
     3
100
AcDbCircle
 10
-1041.467670183177
 20
3148.783404165618
 30
0.0
 40
0.9999999999999998
  0
CIRCLE
  5
51153
330
1F
100
AcDbEntity
  8
躯体と製品
  6
Continuous
 62
     3
100
AcDbCircle
 10
-1031.467670183177
 20
3148.783404165618
 30
0.0
 40
0.9999999999999998
  0
CIRCLE
  5
51154
330
1F
100
AcDbEntity
  8
躯体と製品
  6
Continuous
 62
     3
100
AcDbCircle
 10
-1021.467670183177
 20
3148.783404165618
 30
0.0
 40
0.9999999999999998
  0
CIRCLE
  5
51155
330
1F
100
AcDbEntity
  8
躯体と製品
  6
Continuous
 62
     3
100
AcDbCircle
 10
-1001.467670183177
 20
3156.783404165617
 30
0.0
 40
0.9999999999999998
  0
CIRCLE
  5
51156
330
1F
100
AcDbEntity
  8
躯体と製品
  6
Continuous
 62
     3
100
AcDbCircle
 10
-981.4676701831777
 20
3156.783404165617
 30
0.0
 40
0.9999999999999998
  0
CIRCLE
  5
51157
330
1F
100
AcDbEntity
  8
躯体と製品
  6
Continuous
 62
     3
100
AcDbCircle
 10
-971.4676701831777
 20
3156.783404165617
 30
0.0
 40
0.9999999999999998
  0
CIRCLE
  5
51158
330
1F
100
AcDbEntity
  8
躯体と製品
  6
Continuous
 62
     3
100
AcDbCircle
 10
-961.4676701831777
 20
3156.783404165617
 30
0.0
 40
0.9999999999999998
  0
CIRCLE
  5
51159
330
1F
100
AcDbEntity
  8
躯体と製品
  6
Continuous
 62
     3
100
AcDbCircle
 10
-943.4676701831776
 20
3156.783404165617
 30
0.0
 40
0.9999999999999998
  0
CIRCLE
  5
5115A
330
1F
100
AcDbEntity
  8
躯体と製品
  6
Continuous
 62
     3
100
AcDbCircle
 10
-1001.467670183177
 20
3148.783404165618
 30
0.0
 40
0.9999999999999998
  0
CIRCLE
  5
5115B
330
1F
100
AcDbEntity
  8
躯体と製品
  6
Continuous
 62
     3
100
AcDbCircle
 10
-991.4676701831776
 20
3148.783404165618
 30
0.0
 40
0.9999999999999998
  0
CIRCLE
  5
5115C
330
1F
100
AcDbEntity
  8
躯体と製品
  6
Continuous
 62
     3
100
AcDbCircle
 10
-981.4676701831777
 20
3148.783404165618
 30
0.0
 40
0.9999999999999998
  0
CIRCLE
  5
5115D
330
1F
100
AcDbEntity
  8
躯体と製品
  6
Continuous
 62
     3
100
AcDbCircle
 10
-961.4676701831777
 20
3148.783404165618
 30
0.0
 40
0.9999999999999998
  0
CIRCLE
  5
5115E
330
1F
100
AcDbEntity
  8
躯体と製品
  6
Continuous
 62
     3
100
AcDbCircle
 10
-951.4676701831776
 20
3148.783404165618
 30
0.0
 40
0.9999999999999998
  0
CIRCLE
  5
5115F
330
1F
100
AcDbEntity
  8
躯体と製品
  6
Continuous
 62
     3
100
AcDbCircle
 10
-943.4676701831776
 20
3148.783404165618
 30
0.0
 40
0.9999999999999998
  0
CIRCLE
  5
51160
330
1F
100
AcDbEntity
  8
躯体と製品
  6
Continuous
 62
     3
100
AcDbCircle
 10
-901.4676701831776
 20
3156.783404165617
 30
0.0
 40
0.9999999999999998
  0
CIRCLE
  5
51161
330
1F
100
AcDbEntity
  8
躯体と製品
  6
Continuous
 62
     3
100
AcDbCircle
 10
-891.4676701831776
 20
3156.783404165617
 30
0.0
 40
0.9999999999999998
  0
CIRCLE
  5
51162
330
1F
100
AcDbEntity
  8
躯体と製品
  6
Continuous
 62
     3
100
AcDbCircle
 10
-881.4676701831777
 20
3156.783404165617
 30
0.0
 40
0.9999999999999998
  0
CIRCLE
  5
51163
330
1F
100
AcDbEntity
  8
躯体と製品
  6
Continuous
 62
     3
100
AcDbCircle
 10
-861.4676701831777
 20
3156.783404165617
 30
0.0
 40
0.9999999999999998
  0
CIRCLE
  5
51164
330
1F
100
AcDbEntity
  8
躯体と製品
  6
Continuous
 62
     3
100
AcDbCircle
 10
-851.4676701831776
 20
3156.783404165617
 30
0.0
 40
0.9999999999999998
  0
CIRCLE
  5
51165
330
1F
100
AcDbEntity
  8
躯体と製品
  6
Continuous
 62
     3
100
AcDbCircle
 10
-909.4676701831776
 20
3148.783404165618
 30
0.0
 40
0.9999999999999998
  0
CIRCLE
  5
51166
330
1F
100
AcDbEntity
  8
躯体と製品
  6
Continuous
 62
     3
100
AcDbCircle
 10
-901.4676701831776
 20
3148.783404165618
 30
0.0
 40
0.9999999999999998
  0
CIRCLE
  5
51167
330
1F
100
AcDbEntity
  8
躯体と製品
  6
Continuous
 62
     3
100
AcDbCircle
 10
-881.4676701831777
 20
3148.783404165618
 30
0.0
 40
0.9999999999999998
  0
CIRCLE
  5
51168
330
1F
100
AcDbEntity
  8
躯体と製品
  6
Continuous
 62
     3
100
AcDbCircle
 10
-871.4676701831777
 20
3148.783404165618
 30
0.0
 40
0.9999999999999998
  0
CIRCLE
  5
51169
330
1F
100
AcDbEntity
  8
躯体と製品
  6
Continuous
 62
     3
100
AcDbCircle
 10
-861.4676701831777
 20
3148.783404165618
 30
0.0
 40
0.9999999999999998
  0
CIRCLE
  5
5116A
330
1F
100
AcDbEntity
  8
躯体と製品
  6
Continuous
 62
     3
100
AcDbCircle
 10
-841.4676701831776
 20
3156.783404165617
 30
0.0
 40
0.9999999999999998
  0
CIRCLE
  5
5116B
330
1F
100
AcDbEntity
  8
躯体と製品
  6
Continuous
 62
     3
100
AcDbCircle
 10
-821.4676701831777
 20
3156.783404165617
 30
0.0
 40
0.9999999999999998
  0
CIRCLE
  5
5116C
330
1F
100
AcDbEntity
  8
躯体と製品
  6
Continuous
 62
     3
100
AcDbCircle
 10
-811.4676701831777
 20
3156.783404165617
 30
0.0
 40
0.9999999999999998
  0
CIRCLE
  5
5116D
330
1F
100
AcDbEntity
  8
躯体と製品
  6
Continuous
 62
     3
100
AcDbCircle
 10
-801.4676701831776
 20
3156.783404165617
 30
0.0
 40
0.9999999999999998
  0
CIRCLE
  5
5116E
330
1F
100
AcDbEntity
  8
躯体と製品
  6
Continuous
 62
     3
100
AcDbCircle
 10
-781.4676701831777
 20
3156.783404165617
 30
0.0
 40
0.9999999999999998
  0
CIRCLE
  5
5116F
330
1F
100
AcDbEntity
  8
躯体と製品
  6
Continuous
 62
     3
100
AcDbCircle
 10
-771.4676701831777
 20
3156.783404165617
 30
0.0
 40
0.9999999999999998
  0
CIRCLE
  5
51170
330
1F
100
AcDbEntity
  8
躯体と製品
  6
Continuous
 62
     3
100
AcDbCircle
 10
-841.4676701831776
 20
3148.783404165618
 30
0.0
 40
0.9999999999999998
  0
CIRCLE
  5
51171
330
1F
100
AcDbEntity
  8
躯体と製品
  6
Continuous
 62
     3
100
AcDbCircle
 10
-831.4676701831777
 20
3148.783404165618
 30
0.0
 40
0.9999999999999998
  0
CIRCLE
  5
51172
330
1F
100
AcDbEntity
  8
躯体と製品
  6
Continuous
 62
     3
100
AcDbCircle
 10
-821.4676701831777
 20
3148.783404165618
 30
0.0
 40
0.9999999999999998
  0
CIRCLE
  5
51173
330
1F
100
AcDbEntity
  8
躯体と製品
  6
Continuous
 62
     3
100
AcDbCircle
 10
-801.4676701831776
 20
3148.783404165618
 30
0.0
 40
0.9999999999999998
  0
CIRCLE
  5
51174
330
1F
100
AcDbEntity
  8
躯体と製品
  6
Continuous
 62
     3
100
AcDbCircle
 10
-791.4676701831776
 20
3148.783404165618
 30
0.0
 40
0.9999999999999998
  0
CIRCLE
  5
51175
330
1F
100
AcDbEntity
  8
躯体と製品
  6
Continuous
 62
     3
100
AcDbCircle
 10
-781.4676701831777
 20
3148.783404165618
 30
0.0
 40
0.9999999999999998
  0
CIRCLE
  5
51176
330
1F
100
AcDbEntity
  8
躯体と製品
  6
Continuous
 62
     3
100
AcDbCircle
 10
-761.4676701831776
 20
3156.783404165617
 30
0.0
 40
0.9999999999999998
  0
CIRCLE
  5
51177
330
1F
100
AcDbEntity
  8
躯体と製品
  6
Continuous
 62
     3
100
AcDbCircle
 10
-741.4676701831776
 20
3156.783404165617
 30
0.0
 40
0.9999999999999998
  0
CIRCLE
  5
51178
330
1F
100
AcDbEntity
  8
躯体と製品
  6
Continuous
 62
     3
100
AcDbCircle
 10
-731.4676701831777
 20
3156.783404165617
 30
0.0
 40
0.9999999999999998
  0
CIRCLE
  5
51179
330
1F
100
AcDbEntity
  8
躯体と製品
  6
Continuous
 62
     3
100
AcDbCircle
 10
-721.4676701831777
 20
3156.783404165617
 30
0.0
 40
0.9999999999999998
  0
CIRCLE
  5
5117A
330
1F
100
AcDbEntity
  8
躯体と製品
  6
Continuous
 62
     3
100
AcDbCircle
 10
-761.4676701831776
 20
3148.783404165618
 30
0.0
 40
0.9999999999999998
  0
CIRCLE
  5
5117B
330
1F
100
AcDbEntity
  8
躯体と製品
  6
Continuous
 62
     3
100
AcDbCircle
 10
-751.4676701831777
 20
3148.783404165618
 30
0.0
 40
0.9999999999999998
  0
CIRCLE
  5
5117C
330
1F
100
AcDbEntity
  8
躯体と製品
  6
Continuous
 62
     3
100
AcDbCircle
 10
-741.4676701831776
 20
3148.783404165618
 30
0.0
 40
0.9999999999999998
  0
CIRCLE
  5
5117D
330
1F
100
AcDbEntity
  8
躯体と製品
  6
Continuous
 62
     3
100
AcDbCircle
 10
-721.4676701831777
 20
3148.783404165618
 30
0.0
 40
0.9999999999999998
  0
CIRCLE
  5
5117E
330
1F
100
AcDbEntity
  8
躯体と製品
  6
Continuous
 62
     3
100
AcDbCircle
 10
-1256.467670183178
 20
3152.783404165618
 30
0.0
 40
0.9999999999999998
  0
CIRCLE
  5
5117F
330
1F
100
AcDbEntity
  8
躯体と製品
  6
Continuous
 62
     3
100
AcDbCircle
 10
-1216.467670183178
 20
3152.783404165618
 30
0.0
 40
0.9999999999999998
  0
CIRCLE
  5
51180
330
1F
100
AcDbEntity
  8
躯体と製品
  6
Continuous
 62
     3
100
AcDbCircle
 10
-1176.467670183177
 20
3152.783404165618
 30
0.0
 40
0.9999999999999998
  0
CIRCLE
  5
51181
330
1F
100
AcDbEntity
  8
躯体と製品
  6
Continuous
 62
     3
100
AcDbCircle
 10
-1136.467670183177
 20
3152.783404165618
 30
0.0
 40
0.9999999999999998
  0
CIRCLE
  5
51182
330
1F
100
AcDbEntity
  8
躯体と製品
  6
Continuous
 62
     3
100
AcDbCircle
 10
-1096.467670183177
 20
3152.783404165618
 30
0.0
 40
0.9999999999999998
  0
CIRCLE
  5
51183
330
1F
100
AcDbEntity
  8
躯体と製品
  6
Continuous
 62
     3
100
AcDbCircle
 10
-1056.467670183177
 20
3152.783404165618
 30
0.0
 40
0.9999999999999998
  0
CIRCLE
  5
51184
330
1F
100
AcDbEntity
  8
躯体と製品
  6
Continuous
 62
     3
100
AcDbCircle
 10
-1016.467670183177
 20
3152.783404165618
 30
0.0
 40
0.9999999999999998
  0
CIRCLE
  5
51185
330
1F
100
AcDbEntity
  8
躯体と製品
  6
Continuous
 62
     3
100
AcDbCircle
 10
-976.4676701831776
 20
3152.783404165618
 30
0.0
 40
0.9999999999999998
  0
CIRCLE
  5
51186
330
1F
100
AcDbEntity
  8
躯体と製品
  6
Continuous
 62
     3
100
AcDbCircle
 10
-896.4676701831777
 20
3152.783404165618
 30
0.0
 40
0.9999999999999998
  0
CIRCLE
  5
51187
330
1F
100
AcDbEntity
  8
躯体と製品
  6
Continuous
 62
     3
100
AcDbCircle
 10
-856.4676701831777
 20
3152.783404165618
 30
0.0
 40
0.9999999999999998
  0
CIRCLE
  5
51188
330
1F
100
AcDbEntity
  8
躯体と製品
  6
Continuous
 62
     3
100
AcDbCircle
 10
-816.4676701831776
 20
3152.783404165618
 30
0.0
 40
0.9999999999999998
  0
CIRCLE
  5
51189
330
1F
100
AcDbEntity
  8
躯体と製品
  6
Continuous
 62
     3
100
AcDbCircle
 10
-776.4676701831777
 20
3152.783404165618
 30
0.0
 40
0.9999999999999998
  0
CIRCLE
  5
5118A
330
1F
100
AcDbEntity
  8
躯体と製品
  6
Continuous
 62
     3
100
AcDbCircle
 10
-736.4676701831776
 20
3152.783404165618
 30
0.0
 40
0.9999999999999998
  0
LINE
  5
523D9
330
1F
100
AcDbEntity
  8
躯体と製品
  6
Continuous
 62
     4
100
AcDbLine
 10
-1169.512689535256
 20
3174.783404165618
 30
0.0
 11
-711.9594186315334
 21
3174.783404165618
 31
0.0
  0
LINE
  5
523DA
330
1F
100
AcDbEntity
  8
躯体と製品
  6
Continuous
 62
     4
100
AcDbLine
 10
-1151.037480921188
 20
3142.783404165618
 30
0.0
 11
-711.9594186315334
 21
3142.783404165618
 31
0.0
  0
LINE
  5
523DB
330
1F
100
AcDbEntity
  8
躯体と製品
  6
Continuous
 62
     4
100
AcDbLine
 10
-1459.605617585445
 20
3024.783404165618
 30
0.0
 11
-711.9594186315334
 21
3024.783404165618
 31
0.0
  0
LINE
  5
523DC
330
1F
100
AcDbEntity
  8
躯体と製品
  6
Continuous
 62
     4
100
AcDbLine
 10
-1162.58448630498
 20
3162.783404165617
 30
0.0
 11
-711.9594186315334
 21
3162.783404165617
 31
0.0
  0
LINE
  5
523E6
330
1F
100
AcDbEntity
  8
躯体と製品
  6
Continuous
 62
     3
100
AcDbLine
 10
-1356.467670183177
 20
3240.783404165617
 30
0.0
 11
-1356.467670183177
 21
3180.783404165618
 31
0.0
  0
LINE
  5
523E7
330
1F
100
AcDbEntity
  8
躯体と製品
  6
Continuous
 62
     3
100
AcDbLine
 10
-1356.467670183177
 20
3180.783404165618
 30
0.0
 11
-1349.467670183178
 21
3180.783404165618
 31
0.0
  0
LINE
  5
523E8
330
1F
100
AcDbEntity
  8
躯体と製品
  6
Continuous
 62
     3
100
AcDbLine
 10
-1349.467670183178
 20
3180.783404165618
 30
0.0
 11
-1349.467670183178
 21
3225.110869905293
 31
0.0
  0
LINE
  5
523E9
330
1F
100
AcDbEntity
  8
躯体と製品
  6
Continuous
 62
     3
100
AcDbLine
 10
-1349.467670183178
 20
3225.110869905293
 30
0.0
 11
-1352.230392867095
 21
3225.110869905293
 31
0.0
  0
LINE
  5
523EA
330
1F
100
AcDbEntity
  8
躯体と製品
  6
Continuous
 62
     3
100
AcDbLine
 10
-1352.230392867095
 20
3225.110869905293
 30
0.0
 11
-1352.230392867095
 21
3228.789143568852
 31
0.0
  0
LINE
  5
523EB
330
1F
100
AcDbEntity
  8
躯体と製品
  6
Continuous
 62
     3
100
AcDbLine
 10
-1352.230392867095
 20
3228.789143568852
 30
0.0
 11
-1349.467670183178
 21
3228.789143568852
 31
0.0
  0
LINE
  5
523EC
330
1F
100
AcDbEntity
  8
躯体と製品
  6
Continuous
 62
     3
100
AcDbLine
 10
-1349.467670183178
 20
3228.789143568852
 30
0.0
 11
-1349.467670183178
 21
3239.015637212652
 31
0.0
  0
LINE
  5
523ED
330
1F
100
AcDbEntity
  8
躯体と製品
  6
Continuous
 62
     3
100
AcDbLine
 10
-1349.467670183178
 20
3239.015637212652
 30
0.0
 11
-1351.235437136143
 21
3240.783404165617
 31
0.0
  0
LINE
  5
523EE
330
1F
100
AcDbEntity
  8
躯体と製品
  6
Continuous
 62
     3
100
AcDbLine
 10
-1351.235437136143
 20
3240.783404165617
 30
0.0
 11
-1356.467670183177
 21
3240.783404165617
 31
0.0
  0
LINE
  5
523FD
330
1F
100
AcDbEntity
  8
躯体と製品
  6
Continuous
 62
     4
100
AcDbLine
 10
-1356.467670183185
 20
3139.834766304594
 30
0.0
 11
-1353.519032322161
 21
3142.783404165617
 31
0.0
1001
GradientColor1ACI
1070
     5
1001
GradientColor2ACI
1070
     2
1001
ACAD
1010
0.0
1020
0.0
1030
0.0
  0
LINE
  5
523FE
330
1F
100
AcDbEntity
  8
躯体と製品
  6
Continuous
 62
     4
100
AcDbLine
 10
-1356.467670183177
 20
3135.34463824406
 30
0.0
 11
-1349.02890426162
 21
3142.783404165617
 31
0.0
1001
GradientColor1ACI
1070
     5
1001
GradientColor2ACI
1070
     2
1001
ACAD
1010
0.0
1020
0.0
1030
0.0
  0
LINE
  5
523FF
330
1F
100
AcDbEntity
  8
躯体と製品
  6
Continuous
 62
     4
100
AcDbLine
 10
-1356.467670183177
 20
3130.85451018353
 30
0.0
 11
-1344.538776201087
 21
3142.783404165621
 31
0.0
1001
GradientColor1ACI
1070
     5
1001
GradientColor2ACI
1070
     2
1001
ACAD
1010
0.0
1020
0.0
1030
0.0
  0
LINE
  5
52400
330
1F
100
AcDbEntity
  8
躯体と製品
  6
Continuous
 62
     4
100
AcDbLine
 10
-1356.467670183177
 20
3126.364382122993
 30
0.0
 11
-1341.467670183178
 21
3141.364382122993
 31
0.0
1001
GradientColor1ACI
1070
     5
1001
GradientColor2ACI
1070
     2
1001
ACAD
1010
0.0
1020
0.0
1030
0.0
  0
LINE
  5
52401
330
1F
100
AcDbEntity
  8
躯体と製品
  6
Continuous
 62
     4
100
AcDbLine
 10
-1356.467670183185
 20
3121.874254062456
 30
0.0
 11
-1341.467670183178
 21
3136.874254062463
 31
0.0
1001
GradientColor1ACI
1070
     5
1001
GradientColor2ACI
1070
     2
1001
ACAD
1010
0.0
1020
0.0
1030
0.0
  0
LINE
  5
52402
330
1F
100
AcDbEntity
  8
躯体と製品
  6
Continuous
 62
     4
100
AcDbLine
 10
-1356.467670183177
 20
3117.384126001926
 30
0.0
 11
-1341.467670183178
 21
3132.384126001925
 31
0.0
1001
GradientColor1ACI
1070
     5
1001
GradientColor2ACI
1070
     2
1001
ACAD
1010
0.0
1020
0.0
1030
0.0
  0
LINE
  5
52403
330
1F
100
AcDbEntity
  8
躯体と製品
  6
Continuous
 62
     4
100
AcDbLine
 10
-1356.467670183177
 20
3112.893997941385
 30
0.0
 11
-1341.467670183178
 21
3127.893997941385
 31
0.0
1001
GradientColor1ACI
1070
     5
1001
GradientColor2ACI
1070
     2
1001
ACAD
1010
0.0
1020
0.0
1030
0.0
  0
LINE
  5
52404
330
1F
100
AcDbEntity
  8
躯体と製品
  6
Continuous
 62
     4
100
AcDbLine
 10
-1352.088135898419
 20
3112.783404165617
 30
0.0
 11
-1341.467670183185
 21
3123.403869880859
 31
0.0
1001
GradientColor1ACI
1070
     5
1001
GradientColor2ACI
1070
     2
1001
ACAD
1010
0.0
1020
0.0
1030
0.0
  0
LINE
  5
52405
330
1F
100
AcDbEntity
  8
躯体と製品
  6
Continuous
 62
     4
100
AcDbLine
 10
-1347.598007837878
 20
3112.783404165617
 30
0.0
 11
-1341.467670183178
 21
3118.913741820318
 31
0.0
1001
GradientColor1ACI
1070
     5
1001
GradientColor2ACI
1070
     2
1001
ACAD
1010
0.0
1020
0.0
1030
0.0
  0
LINE
  5
52406
330
1F
100
AcDbEntity
  8
躯体と製品
  6
Continuous
 62
     4
100
AcDbLine
 10
-1343.107879777344
 20
3112.783404165621
 30
0.0
 11
-1341.467670183185
 21
3114.423613759787
 31
0.0
1001
GradientColor1ACI
1070
     5
1001
GradientColor2ACI
1070
     2
1001
ACAD
1010
0.0
1020
0.0
1030
0.0
  0
LINE
  5
52407
330
1F
100
AcDbEntity
  8
躯体と製品
  6
Continuous
 62
     4
100
AcDbLine
 10
-1356.467670183177
 20
3112.783404165618
 30
0.0
 11
-1341.467670183178
 21
3112.783404165618
 31
0.0
  0
LINE
  5
52408
330
1F
100
AcDbEntity
  8
躯体と製品
  6
Continuous
 62
     4
100
AcDbLine
 10
-1341.467670183178
 20
3112.783404165618
 30
0.0
 11
-1341.467670183178
 21
3142.783404165618
 31
0.0
  0
LINE
  5
52409
330
1F
100
AcDbEntity
  8
躯体と製品
  6
Continuous
 62
     4
100
AcDbLine
 10
-1341.467670183178
 20
3142.783404165618
 30
0.0
 11
-1356.467670183177
 21
3142.783404165618
 31
0.0
  0
LINE
  5
5240A
330
1F
100
AcDbEntity
  8
躯体と製品
  6
Continuous
 62
     4
100
AcDbLine
 10
-1356.467670183177
 20
3142.783404165618
 30
0.0
 11
-1356.467670183177
 21
3112.783404165618
 31
0.0
  0
LINE
  5
5240F
330
1F
100
AcDbEntity
  8
躯体と製品
  6
Continuous
 62
     3
100
AcDbLine
 10
-1356.467670183177
 20
3342.783404165618
 30
0.0
 11
-1356.467670183177
 21
3024.783404165618
 31
0.0
  0
LINE
  5
52410
330
1F
100
AcDbEntity
  8
躯体と製品
  6
Continuous
 62
     3
100
AcDbLine
 10
-1368.967670183178
 20
3342.783404165618
 30
0.0
 11
-1368.967670183178
 21
3024.783404165618
 31
0.0
  0
LINE
  5
52411
330
1F
100
AcDbEntity
  8
躯体と製品
  6
Continuous
 62
     3
100
AcDbLine
 10
-1433.967670183178
 20
3342.783404165618
 30
0.0
 11
-1433.967670183178
 21
3024.783404165618
 31
0.0
  0
LINE
  5
52412
330
1F
100
AcDbEntity
  8
躯体と製品
  6
Continuous
 62
     3
100
AcDbLine
 10
-1446.467670183178
 20
3342.783404165618
 30
0.0
 11
-1446.467670183178
 21
3024.783404165618
 31
0.0
  0
LINE
  5
52413
330
1F
100
AcDbEntity
  8
躯体と製品
  6
Continuous
 62
     3
100
AcDbLine
 10
-1433.967670183178
 20
3069.783404165618
 30
0.0
 11
-1368.967670183178
 21
3069.783404165618
 31
0.0
  0
LINE
  5
52414
330
1F
100
AcDbEntity
  8
躯体と製品
  6
Continuous
 62
     3
100
AcDbLine
 10
-1433.967670183178
 20
3024.783404165618
 30
0.0
 11
-1368.967670183178
 21
3069.783404165618
 31
0.0
  0
LINE
  5
52415
330
1F
100
AcDbEntity
  8
躯体と製品
  6
Continuous
 62
     3
100
AcDbLine
 10
-1433.967670183178
 20
3268.283404165625
 30
0.0
 11
-1368.967670183178
 21
3268.283404165625
 31
0.0
  0
LINE
  5
52416
330
1F
100
AcDbEntity
  8
躯体と製品
  6
Continuous
 62
     3
100
AcDbLine
 10
-1433.967670183178
 20
3223.283404165625
 30
0.0
 11
-1368.967670183178
 21
3268.283404165625
 31
0.0
  0
LINE
  5
52417
330
1F
100
AcDbEntity
  8
躯体と製品
  6
Continuous
 62
     3
100
AcDbLine
 10
-1433.967670183178
 20
3223.283404165625
 30
0.0
 11
-1368.967670183178
 21
3223.283404165625
 31
0.0
  0
LINE
  5
5241D
330
1F
100
AcDbEntity
  8
躯体と製品
  6
Continuous
 62
     4
100
AcDbLine
 10
-1174.512689535256
 20
3174.783404165618
 30
0.0
 11
-1351.467670183178
 21
3174.783404165618
 31
0.0
  0
LINE
  5
5241E
330
1F
100
AcDbEntity
  8
躯体と製品
  6
Continuous
 62
     4
100
AcDbLine
 10
-1156.037480921187
 20
3142.783404165618
 30
0.0
 11
-1341.467670183178
 21
3142.783404165618
 31
0.0
  0
LINE
  5
5241F
330
1F
100
AcDbEntity
  8
躯体と製品
  6
Continuous
 62
     4
100
AcDbLine
 10
-1167.58448630498
 20
3162.783404165617
 30
0.0
 11
-1351.467670183178
 21
3162.783404165617
 31
0.0
  0
LINE
  5
52420
330
1F
100
AcDbEntity
  8
躯体と製品
  6
Continuous
 62
     4
100
AcDbLine
 10
-1341.467670183178
 20
3142.783404165618
 30
0.0
 11
-1341.467670183178
 21
3162.783404165617
 31
0.0
  0
LINE
  5
52421
330
1F
100
AcDbEntity
  8
躯体と製品
  6
Continuous
 62
     4
100
AcDbLine
 10
-1351.467670183178
 20
3162.783404165617
 30
0.0
 11
-1351.467670183178
 21
3174.783404165618
 31
0.0
  0
LINE
  5
52422
330
1F
100
AcDbEntity
  8
躯体と製品
  6
Continuous
 62
     4
100
AcDbLine
 10
-1176.863111684202
 20
3178.854454746828
 30
0.0
 11
-1153.687058772241
 21
3138.712353584407
 31
0.0
  0
LINE
  5
52423
330
1F
100
AcDbEntity
  8
躯体と製品
  6
Continuous
 62
     4
100
AcDbLine
 10
-1171.863111684202
 20
3178.854454746828
 30
0.0
 11
-1148.687058772241
 21
3138.712353584407
 31
0.0
  0
TEXT
  5
526FF
330
1F
100
AcDbEntity
  8
文字-記号
  6
Continuous
 62
     3
100
AcDbText
 10
-1447.407664446812
 20
3390.047530315092
 30
0.0
 40
15.0
  1
【ホームベース ＬＣＢＢ-Ｎ-type】
  7
ACAD
100
AcDbText
  0
ENDSEC
  0
SECTION
  2
OBJECTS
  0
DICTIONARY
  5
C
330
0
100
AcDbDictionary
281
     1
  3
ACAD_2007HEADERVARS_RT
350
52759
  3
ACAD_BACKGROUND
350
522E8
  3
ACAD_CIP_PREVIOUS_PRODUCT_INFO
350
4BCB7
  3
ACAD_COLOR
350
22756
  3
ACAD_GROUP
350
D
  3
ACAD_LAYOUT
350
1A
  3
ACAD_MATERIAL
350
2272C
  3
ACAD_MLEADERSTYLE
350
2276B
  3
ACAD_MLINESTYLE
350
17
  3
ACAD_PLOTSETTINGS
350
19
  3
ACAD_PLOTSTYLENAME
350
E
  3
ACAD_SCALELIST
350
22759
  3
ACAD_TABLESTYLE
350
22757
  3
ACAD_VISUALSTYLE
350
22745
  3
ACDB_RECOMPOSE_DATA
350
52758
  3
AcDbVariableDictionary
350
173D
  3
AEC_PROPERTY_SET_DEFS
350
2284D
  3
ASE_INDEX_DICTIONARY
350
22728
  0
DICTIONARY
  5
5265B
330
8
100
AcDbDictionary
280
     1
281
     1
  0
DICTIONARY
  5
1562
330
2
100
AcDbDictionary
280
     1
281
     1
  3
ACAD_LAYERFILTERS
360
1574
  3
ACAD_LAYERSTATES
360
1563
  0
DICTIONARY
  5
22778
330
10
100
AcDbDictionary
280
     1
281
     1
  3
ADSK_XREC_LAYER_RECONCILED
360
5259A
  0
DICTIONARY
  5
4BDA6
330
4BDA5
100
AcDbDictionary
280
     1
281
     1
  3
ADSK_XREC_LAYER_RECONCILED
360
5259E
  0
DICTIONARY
  5
4BDA8
330
4BDA7
100
AcDbDictionary
280
     1
281
     1
  3
ADSK_XREC_LAYER_RECONCILED
360
5259F
  0
DICTIONARY
  5
4BDAA
330
4BDA9
100
AcDbDictionary
280
     1
281
     1
  3
ADSK_XREC_LAYER_RECONCILED
360
525A0
  0
DICTIONARY
  5
525A1
330
4BDAB
100
AcDbDictionary
280
     1
281
     1
  3
ADSK_XREC_LAYER_RECONCILED
360
525A2
  0
DICTIONARY
  5
3662
330
1F
100
AcDbDictionary
280
     1
281
     1
  3
ACAD_LAYOUTSELFREF
360
36B2
  3
ACAD_SORTENTS
360
23806
  0
DICTIONARY
  5
52703
330
52700
100
AcDbDictionary
280
     1
281
     1
  3
ACAD_SORTENTS
360
52704
  0
DICTIONARY
  5
52759
102
{ACAD_REACTORS
330
C
102
}
330
C
100
AcDbDictionary
281
     1
  3
DIMTFILL
350
5275A
  3
INTERFEREVPVS
350
5275B
  0
DICTIONARY
  5
522E8
102
{ACAD_REACTORS
330
C
102
}
330
C
100
AcDbDictionary
281
     1
  0
XRECORD
  5
4BCB7
102
{ACAD_REACTORS
330
C
102
}
330
C
100
AcDbXrecord
280
     1
300
ACD
300
2012
300
ACD_F_S
  0
DICTIONARY
  5
22756
102
{ACAD_REACTORS
330
C
102
}
330
C
100
AcDbDictionary
281
     1
  0
DICTIONARY
  5
D
102
{ACAD_REACTORS
330
C
102
}
330
C
100
AcDbDictionary
281
     1
  0
DICTIONARY
  5
1A
102
{ACAD_REACTORS
330
C
102
}
330
C
100
AcDbDictionary
281
     1
  3
Model
350
22
  3
レイアウト1
350
525BB
  0
DICTIONARY
  5
2272C
102
{ACAD_REACTORS
330
C
102
}
330
C
100
AcDbDictionary
281
     1
  3
ByBlock
350
22735
  3
ByLayer
350
2272D
  3
Global
350
2273D
  0
DICTIONARY
  5
2276B
102
{ACAD_REACTORS
330
C
102
}
330
C
100
AcDbDictionary
281
     1
  3
Standard
350
2276C
  0
DICTIONARY
  5
17
102
{ACAD_REACTORS
330
C
102
}
330
C
100
AcDbDictionary
281
     1
  3
Standard
350
18
  0
DICTIONARY
  5
19
102
{ACAD_REACTORS
330
C
102
}
330
C
100
AcDbDictionary
281
     1
  3
A1横-DocuWide 2051 MF-RT
350
2288E
  3
A1横-PDF_COR
350
4BB79
  3
A1横-PDF_MONO
350
4BB70
  3
A2横-DocuWide 2051 MF-RT
350
228A9
  3
A3横-DocuCentre C4535Ⅰ②
350
2883A
  3
A3横-DocuCentre C4535Ⅰ②_cor
350
4BB56
  3
A4横-DocuCentre C4535Ⅰ②
350
228B2
  3
A4横-DocuCentre C4535Ⅰ②_cor
350
4BB5F
  0
ACDBDICTIONARYWDFLT
  5
E
102
{ACAD_REACTORS
330
C
102
}
330
C
100
AcDbDictionary
281
     1
  3
Normal
350
F
100
AcDbDictionaryWithDefault
340
F
  0
DICTIONARY
  5
22759
102
{ACAD_REACTORS
330
C
102
}
330
C
100
AcDbDictionary
281
     1
  3
A0
350
2275A
  3
A1
350
22924
  3
A2
350
22925
  3
A3
350
22926
  3
A4
350
22927
  3
A5
350
22928
  3
A6
350
22929
  3
A7
350
2292A
  3
A8
350
2292B
  3
A9
350
2292C
  3
B0
350
2292D
  3
B1
350
2292E
  3
B2
350
2292F
  3
B3
350
22930
  3
B4
350
22931
  3
B5
350
22765
  3
B6
350
22932
  3
B7
350
22933
  3
B8
350
22934
  3
B9
350
22935
  3
C0
350
22936
  0
DICTIONARY
  5
22757
102
{ACAD_REACTORS
330
C
102
}
330
C
100
AcDbDictionary
281
     1
  3
Standard
350
22758
  0
DICTIONARY
  5
22745
102
{ACAD_REACTORS
330
C
102
}
330
C
100
AcDbDictionary
281
     1
  3
2dWireframe
350
2274B
  3
3D Hidden
350
2274D
  3
3dWireframe
350
2274C
  3
Basic
350
2274A
  3
Brighten
350
22751
  3
ColorChange
350
22755
  3
Conceptual
350
2274E
  3
Dim
350
22750
  3
EdgeColorOff
350
22A03
  3
Facepattern
350
22754
  3
Flat
350
22746
  3
FlatWithEdges
350
22747
  3
Gouraud
350
22748
  3
GouraudWithEdges
350
22749
  3
Hidden
350
229FB
  3
JitterOff
350
22A01
  3
Linepattern
350
22753
  3
OverhangOff
350
22A02
  3
Realistic
350
2274F
  3
Shaded
350
22A00
  3
Shaded with edges
350
229FF
  3
Shades of Gray
350
229FC
  3
Sketchy
350
229FD
  3
Thicken
350
22752
  3
Wireframe
350
229FA
  3
X-Ray
350
229FE
  0
XRECORD
  5
52758
102
{ACAD_REACTORS
330
C
102
}
330
C
100
AcDbXrecord
280
     1
 90
        1
330
22758
  0
DICTIONARY
  5
173D
102
{ACAD_REACTORS
330
C
102
}
330
C
100
AcDbDictionary
281
     1
  3
CANNOSCALE
350
22809
  3
CMLEADERSTYLE
350
22807
  3
CTABLESTYLE
350
22806
  3
LAYEREVAL
350
2280B
  3
LAYERNOTIFY
350
2280C
  3
LIGHTINGUNITS
350
2280A
  3
MSLTSCALE
350
22808
  3
SOLIDHIST
350
52695
  3
SORTENTS
350
173E
  0
DICTIONARY
  5
2284D
102
{ACAD_REACTORS
330
C
102
}
330
C
100
AcDbDictionary
281
     1
  0
DICTIONARY
  5
22728
102
{ACAD_REACTORS
330
C
102
}
330
C
100
AcDbDictionary
281
     1
  3
ASEBlockHierarchyIndexRecord
350
2272A
1001
DCO15
1040
1596433040.279
  0
DICTIONARY
  5
1574
102
{ACAD_REACTORS
330
1562
102
}
330
1562
100
AcDbDictionary
280
     1
281
     1
  0
DICTIONARY
  5
1563
102
{ACAD_REACTORS
330
1562
102
}
330
1562
100
AcDbDictionary
281
     1
  3
床画層-1
350
1606
  0
XRECORD
  5
5259A
102
{ACAD_REACTORS
330
22778
102
}
330
22778
100
AcDbXrecord
280
     1
290
     1
  0
XRECORD
  5
5259E
102
{ACAD_REACTORS
330
4BDA6
102
}
330
4BDA6
100
AcDbXrecord
280
     1
290
     1
  0
XRECORD
  5
5259F
102
{ACAD_REACTORS
330
4BDA8
102
}
330
4BDA8
100
AcDbXrecord
280
     1
290
     1
  0
XRECORD
  5
525A0
102
{ACAD_REACTORS
330
4BDAA
102
}
330
4BDAA
100
AcDbXrecord
280
     1
290
     1
  0
XRECORD
  5
525A2
102
{ACAD_REACTORS
330
525A1
102
}
330
525A1
100
AcDbXrecord
280
     1
290
     1
  0
XRECORD
  5
36B2
102
{ACAD_REACTORS
330
3662
102
}
330
3662
100
AcDbXrecord
280
     1
340
1F
  0
SORTENTSTABLE
  5
23806
102
{ACAD_REACTORS
330
3662
102
}
330
3662
100
AcDbSortentsTable
330
1F
331
52423
  5
50582
331
5116D
  5
51318
331
523EC
  5
5056B
331
51175
  5
51320
331
5117D
  5
51328
331
51185
  5
51330
331
52404
  5
50EB8
331
50D28
  5
50EA0
331
50501
  5
505F4
331
504CA
  5
505BC
331
5048B
  5
5057D
331
51136
  5
512E1
331
50D67
  5
50EED
331
50D30
  5
50EA8
331
50509
  5
50600
331
504D2
  5
505C4
331
5113E
  5
512E9
331
50511
  5
50609
331
504DA
  5
505CC
331
5049B
  5
5058D
331
51146
  5
512F1
331
51107
  5
512B2
331
50D40
  5
50EC5
331
50519
  5
50611
331
504E2
  5
505D4
331
504A3
  5
50595
331
5114E
  5
512F9
331
5110F
  5
512BA
331
5047C
  5
5056E
331
50484
  5
50576
331
52414
  5
50584
331
50D48
  5
50ECD
331
50521
  5
50619
331
504EA
  5
505DD
331
504AB
  5
5059D
331
51156
  5
51301
331
51117
  5
512C2
331
50D50
  5
50ED5
331
50529
  5
50621
331
504F2
  5
505E5
331
504B3
  5
505A5
331
5115E
  5
51309
331
5111F
  5
512CA
331
50D58
  5
50EDD
331
504FA
  5
505ED
331
504BB
  5
505AD
331
51166
  5
51311
331
51127
  5
512D2
331
50D21
  5
50E99
331
504C3
  5
505B5
331
5112F
  5
512DA
331
5116E
  5
51319
331
523ED
  5
5056C
331
51176
  5
51321
331
5117E
  5
51329
331
523FD
  5
50EB1
331
51186
  5
51331
331
52405
  5
50EB9
331
50D60
  5
50EE6
331
50D29
  5
50EA1
331
50502
  5
505F5
331
504CB
  5
505BD
331
5048C
  5
5057E
331
51137
  5
512E2
331
50D68
  5
50EEE
331
5050A
  5
50602
331
504D3
  5
505C5
331
5113F
  5
512EA
331
50512
  5
5060A
331
504DB
  5
505CD
331
5049C
  5
5058E
331
51147
  5
512F2
331
51108
  5
512B3
331
50D41
  5
50EC6
331
5051A
  5
50612
331
504E3
  5
505D5
331
504A4
  5
50596
331
5114F
  5
512FA
331
5047D
  5
5056F
331
50485
  5
50577
331
52415
  5
50585
331
5241D
  5
50560
331
51110
  5
512BB
331
50D49
  5
50ECE
331
50522
  5
5061A
331
504EB
  5
505DE
331
504AC
  5
5059E
331
51157
  5
51302
331
51118
  5
512C3
331
50D51
  5
50ED6
331
5052A
  5
50622
331
504F3
  5
505E6
331
504B4
  5
505A6
331
5115F
  5
5130A
331
51120
  5
512CB
331
50D59
  5
50EDE
331
504FB
  5
505EE
331
504BC
  5
505AE
331
51167
  5
51312
331
51128
  5
512D3
331
50D22
  5
50E9A
331
504C4
  5
505B6
331
523E6
  5
50565
331
5116F
  5
5131A
331
523EE
  5
5056D
331
51177
  5
51322
331
5117F
  5
5132A
331
523FE
  5
50EB2
331
51187
  5
51332
331
52406
  5
50EBA
331
51130
  5
512DB
331
50D61
  5
50EE7
331
50D2A
  5
50EA2
331
50503
  5
505F6
331
504CC
  5
505BE
331
5048D
  5
5057F
331
51138
  5
512E3
331
50D32
  5
50EA9
331
5050B
  5
50603
331
504D4
  5
505C6
331
51140
  5
512EB
331
50D3A
  5
50EBF
331
50513
  5
5060B
331
504DC
  5
505CE
331
5049D
  5
5058F
331
51148
  5
512F3
331
51109
  5
512B4
331
50D42
  5
50EC7
331
5051B
  5
50613
331
504E4
  5
505D6
331
504A5
  5
50597
331
50486
  5
50578
331
52416
  5
50586
331
5241E
  5
50561
331
51150
  5
512FB
331
51111
  5
512BC
331
50D4A
  5
50ECF
331
50523
  5
5061B
331
504EC
  5
505DF
331
504AD
  5
5059F
331
51158
  5
51303
331
51119
  5
512C4
331
50D52
  5
50ED7
331
5052B
  5
50623
331
504F4
  5
505E7
331
504B5
  5
505A7
331
51160
  5
5130B
331
51121
  5
512CC
331
50D5A
  5
50EDF
331
50D1B
  5
50E93
331
504FC
  5
505EF
331
504BD
  5
505AF
331
51129
  5
512D4
331
50D23
  5
50E9B
331
504C5
  5
505B7
331
51168
  5
51313
331
523E7
  5
50566
331
51170
  5
5131B
331
51178
  5
51323
331
51180
  5
5132B
331
523FF
  5
50EB3
331
52407
  5
50EBB
331
51131
  5
512DC
331
50D62
  5
50EE8
331
50D2B
  5
50EA3
331
50504
  5
505F7
331
504CD
  5
505BF
331
5048E
  5
50580
331
51139
  5
512E4
331
50D33
  5
50EAC
331
5050C
  5
50604
331
504D5
  5
505C7
331
50496
  5
50588
331
51141
  5
512EC
331
50D3B
  5
50EC0
331
50514
  5
5060C
331
504DD
  5
505CF
331
5049E
  5
50590
331
51149
  5
512F4
331
5110A
  5
512B5
331
50D43
  5
50EC8
331
5051C
  5
50614
331
504E5
  5
505D7
331
504A6
  5
50598
331
50487
  5
50579
331
51188
  5
51333
331
5240F
  5
50563
331
52417
  5
50587
331
5241F
  5
50572
331
51151
  5
512FC
331
51112
  5
512BD
331
50D4B
  5
50ED0
331
50524
  5
5061C
331
504ED
  5
505E0
331
504AE
  5
505A0
331
51159
  5
51304
331
5111A
  5
512C5
331
50D53
  5
50ED8
331
5052C
  5
50624
331
504F5
  5
505E8
331
504B6
  5
505A8
331
51161
  5
5130C
331
51122
  5
512CD
331
50D5B
  5
50EE0
331
50D1C
  5
50E94
331
504FD
  5
505F0
331
504BE
  5
505B0
331
5112A
  5
512D5
331
50D24
  5
50E9C
331
504C6
  5
505B8
331
51169
  5
51314
331
523E8
  5
50567
331
51171
  5
5131C
331
51179
  5
51324
331
51181
  5
5132C
331
52400
  5
50EB4
331
51132
  5
512DD
331
50D63
  5
50EE9
331
50D2C
  5
50EA4
331
50505
  5
505F8
331
504CE
  5
505C0
331
5113A
  5
512E5
331
50D34
  5
50EAD
331
5050D
  5
50605
331
504D6
  5
505C8
331
50497
  5
50589
331
51142
  5
512ED
331
50D3C
  5
50EC1
331
50515
  5
5060D
331
504DE
  5
505D0
331
5049F
  5
50591
331
5114A
  5
512F5
331
5110B
  5
512B6
331
50D44
  5
50EC9
331
5051D
  5
50615
331
504E6
  5
505D8
331
504A7
  5
50599
331
52408
  5
50EBC
331
51189
  5
51334
331
52410
  5
50564
331
523D9
  5
5055D
331
51152
  5
512FD
331
51113
  5
512BE
331
50D4C
  5
50ED1
331
50525
  5
5061D
331
504EE
  5
505E1
331
504AF
  5
505A1
331
5115A
  5
51305
331
5111B
  5
512C6
331
50D54
  5
50ED9
331
504F6
  5
505E9
331
504B7
  5
505A9
331
51162
  5
5130D
331
51123
  5
512CE
331
50D5C
  5
50EE1
331
50D1D
  5
50E95
331
504FE
  5
505F1
331
504BF
  5
505B1
331
5112B
  5
512D6
331
50D25
  5
50E9D
331
504C7
  5
505B9
331
52420
  5
50562
331
5116A
  5
51315
331
523E9
  5
50568
331
51172
  5
5131D
331
5117A
  5
51325
331
51182
  5
5132D
331
52401
  5
50EB5
331
50488
  5
5057A
331
51133
  5
512DE
331
50D64
  5
50EEA
331
50D2D
  5
50EA5
331
50506
  5
505FA
331
504CF
  5
505C1
331
5113B
  5
512E6
331
50D35
  5
50EAE
331
5050E
  5
50606
331
504D7
  5
505C9
331
50498
  5
5058A
331
51143
  5
512EE
331
50D3D
  5
50EC2
331
50516
  5
5060E
331
504DF
  5
505D1
331
504A0
  5
50592
331
5114B
  5
512F6
331
5110C
  5
512B7
331
50D45
  5
50ECA
331
5051E
  5
50616
331
504E7
  5
505D9
331
52409
  5
50EBD
331
5118A
  5
51335
331
52411
  5
50573
331
523DA
  5
5055E
331
504A8
  5
5059A
331
51153
  5
512FE
331
51114
  5
512BF
331
50D4D
  5
50ED2
331
50526
  5
5061E
331
504EF
  5
505E2
331
504B0
  5
505A2
331
5115B
  5
51306
331
5111C
  5
512C7
331
50D55
  5
50EDA
331
504F7
  5
505EA
331
504B8
  5
505AA
331
51163
  5
5130E
331
51124
  5
512CF
331
50D5D
  5
50EE3
331
50D1E
  5
50E96
331
504FF
  5
505F2
331
504C0
  5
505B2
331
5112C
  5
512D7
331
50D26
  5
50E9E
331
52421
  5
50570
331
5116B
  5
51316
331
523EA
  5
50569
331
51173
  5
5131E
331
5117B
  5
51326
331
51183
  5
5132E
331
52402
  5
50EB6
331
504C8
  5
505BA
331
50489
  5
5057B
331
51134
  5
512DF
331
50D65
  5
50EEB
331
50D2E
  5
50EA6
331
50507
  5
505FC
331
504D0
  5
505C2
331
5113C
  5
512E7
331
50D36
  5
50EAF
331
5050F
  5
50607
331
504D8
  5
505CA
331
50499
  5
5058B
331
51144
  5
512EF
331
51105
  5
512B0
331
50D3E
  5
50EC3
331
50517
  5
5060F
331
504E0
  5
505D2
331
504A1
  5
50593
331
5114C
  5
512F7
331
5110D
  5
512B8
331
50D46
  5
50ECB
331
5051F
  5
50617
331
5240A
  5
50EBE
331
52412
  5
50574
331
523DB
  5
5055F
331
504E8
  5
505DA
331
504A9
  5
5059B
331
51154
  5
512FF
331
51115
  5
512C0
331
50D4E
  5
50ED3
331
50527
  5
5061F
331
504F0
  5
505E3
331
504B1
  5
505A3
331
5115C
  5
51307
331
5111D
  5
512C8
331
50D56
  5
50EDB
331
504F8
  5
505EB
331
504B9
  5
505AB
331
51164
  5
5130F
331
51125
  5
512D0
331
50D5E
  5
50EE4
331
50D1F
  5
50E97
331
504C1
  5
505B3
331
5112D
  5
512D8
331
50D27
  5
50E9F
331
52422
  5
50581
331
5116C
  5
51317
331
523EB
  5
5056A
331
51174
  5
5131F
331
5117C
  5
51327
331
51184
  5
5132F
331
52403
  5
50EB7
331
50500
  5
505F3
331
504C9
  5
505BB
331
5048A
  5
5057C
331
51135
  5
512E0
331
50D66
  5
50EEC
331
50D2F
  5
50EA7
331
50508
  5
505FE
331
504D1
  5
505C3
331
5113D
  5
512E8
331
50D37
  5
50EB0
331
50510
  5
50608
331
504D9
  5
505CB
331
5049A
  5
5058C
331
51145
  5
512F0
331
51106
  5
512B1
331
50D3F
  5
50EC4
331
50518
  5
50610
331
504E1
  5
505D3
331
504A2
  5
50594
331
5114D
  5
512F8
331
5110E
  5
512B9
331
50D47
  5
50ECC
331
50483
  5
50575
331
52413
  5
50583
331
523DC
  5
50571
331
50520
  5
50618
331
504E9
  5
505DB
331
504AA
  5
5059C
331
51155
  5
51300
331
51116
  5
512C1
331
50D4F
  5
50ED4
331
50528
  5
50620
331
504F1
  5
505E4
331
504B2
  5
505A4
331
5115D
  5
51308
331
5111E
  5
512C9
331
50D57
  5
50EDC
331
504F9
  5
505EC
331
504BA
  5
505AC
331
51165
  5
51310
331
51126
  5
512D1
331
50D5F
  5
50EE5
331
50D20
  5
50E98
331
504C2
  5
505B4
331
5112E
  5
512D9
  0
SORTENTSTABLE
  5
52704
102
{ACAD_REACTORS
330
52703
102
}
330
52703
100
AcDbSortentsTable
330
52700
  0
XRECORD
  5
5275A
102
{ACAD_REACTORS
330
52759
102
}
330
52759
100
AcDbXrecord
280
     1
 70
     1
  0
XRECORD
  5
5275B
102
{ACAD_REACTORS
330
52759
102
}
330
52759
100
AcDbXrecord
280
     1
340
2274C
  0
LAYOUT
  5
22
102
{ACAD_XDICTIONARY
360
22AE9
102
}
102
{ACAD_REACTORS
330
1A
102
}
330
1A
100
AcDbPlotSettings
  1

  2
Canon iPF600
  4
User4403
  6

 40
3.757083415985107
 41
3.757137775421142
 42
3.757080078125
 43
3.757080078125
 44
840.9939575195313
 45
593.97900390625
 46
-3.785768270522396
 47
-3.785734415075523
 48
0.0
 49
0.0
140
0.0
141
0.0
142
1.0
143
100.0
 70
 28324
 72
     1
 73
     0
 74
     1
  7
monochrome.ctb
 75
     0
147
0.0098725419741991
 76
     0
 77
     2
 78
   300
148
2.566332512709777
149
1.812605841332697
100
AcDbLayout
  1
Model
 70
     1
 71
     0
 10
0.0
 20
0.0
 11
12.0
 21
9.0
 12
0.0
 22
0.0
 32
0.0
 14
0.0
 24
0.0
 34
0.0
 15
0.0
 25
0.0
 35
0.0
146
0.0
 13
0.0
 23
0.0
 33
0.0
 16
1.0
 26
0.0
 36
0.0
 17
0.0
 27
1.0
 37
0.0
 76
     0
330
1F
331
1FF1E
1001
ACAD_PSEXT
1000
Canon iPF600
1000
Canon iPF600
1000
IP_10.81.100.201
1000

1070
     0
  0
LAYOUT
  5
525BB
102
{ACAD_REACTORS
330
1A
102
}
330
1A
100
AcDbPlotSettings
  1

  2
DWG To PDF.pc3
  4

  6

 40
0.0
 41
0.0
 42
0.0
 43
0.0
 44
0.0
 45
0.0
 46
0.0
 47
0.0
 48
0.0
 49
0.0
140
0.0
141
0.0
142
1.0
143
1.0
 70
   688
 72
     0
 73
     0
 74
     5
  7

 75
    16
147
1.0
 76
     0
 77
     2
 78
   300
148
0.0
149
0.0
100
AcDbLayout
  1
レイアウト1
 70
     1
 71
     1
 10
0.0
 20
0.0
 11
12.0
 21
9.0
 12
0.0
 22
0.0
 32
0.0
 14
0.0
 24
0.0
 34
0.0
 15
0.0
 25
0.0
 35
0.0
146
0.0
 13
0.0
 23
0.0
 33
0.0
 16
1.0
 26
0.0
 36
0.0
 17
0.0
 27
1.0
 37
0.0
 76
     0
330
525BA
  0
MATERIAL
  5
22735
102
{ACAD_XDICTIONARY
360
22736
102
}
102
{ACAD_REACTORS
330
2272C
102
}
330
2272C
100
AcDbMaterial
  1
ByBlock
 72
     0
 43
0.0008202099737533
 43
0.0
 43
0.0
 43
0.0
 43
0.0
 43
0.0008202099737533
 43
0.0
 43
0.0
 43
0.0
 43
0.0
 43
1.0
 43
0.0
 43
0.0
 43
0.0
 43
0.0
 43
1.0
 77
     0
 47
0.0008202099737533
 47
0.0
 47
0.0
 47
0.0
 47
0.0
 47
0.0008202099737533
 47
0.0
 47
0.0
 47
0.0
 47
0.0
 47
1.0
 47
0.0
 47
0.0
 47
0.0
 47
0.0
 47
1.0
171
     0
 49
0.0008202099737533
 49
0.0
 49
0.0
 49
0.0
 49
0.0
 49
0.0008202099737533
 49
0.0
 49
0.0
 49
0.0
 49
0.0
 49
1.0
 49
0.0
 49
0.0
 49
0.0
 49
0.0
 49
1.0
175
     0
142
0.0008202099737533
142
0.0
142
0.0
142
0.0
142
0.0
142
0.0008202099737533
142
0.0
142
0.0
142
0.0
142
0.0
142
1.0
142
0.0
142
0.0
142
0.0
142
0.0
142
1.0
179
     0
144
0.0008202099737533
144
0.0
144
0.0
144
0.0
144
0.0
144
0.0008202099737533
144
0.0
144
0.0
144
0.0
144
0.0
144
1.0
144
0.0
144
0.0
144
0.0
144
0.0
144
1.0
147
0.0008202099737533
147
0.0
147
0.0
147
0.0
147
0.0
147
0.0008202099737533
147
0.0
147
0.0
147
0.0
147
0.0
147
1.0
147
0.0
147
0.0
147
0.0
147
0.0
147
1.0
  0
MATERIAL
  5
2272D
102
{ACAD_XDICTIONARY
360
2272E
102
}
102
{ACAD_REACTORS
330
2272C
102
}
330
2272C
100
AcDbMaterial
  1
ByLayer
 72
     0
 43
0.0008202099737533
 43
0.0
 43
0.0
 43
0.0
 43
0.0
 43
0.0008202099737533
 43
0.0
 43
0.0
 43
0.0
 43
0.0
 43
1.0
 43
0.0
 43
0.0
 43
0.0
 43
0.0
 43
1.0
 77
     0
 47
0.0008202099737533
 47
0.0
 47
0.0
 47
0.0
 47
0.0
 47
0.0008202099737533
 47
0.0
 47
0.0
 47
0.0
 47
0.0
 47
1.0
 47
0.0
 47
0.0
 47
0.0
 47
0.0
 47
1.0
171
     0
 49
0.0008202099737533
 49
0.0
 49
0.0
 49
0.0
 49
0.0
 49
0.0008202099737533
 49
0.0
 49
0.0
 49
0.0
 49
0.0
 49
1.0
 49
0.0
 49
0.0
 49
0.0
 49
0.0
 49
1.0
175
     0
142
0.0008202099737533
142
0.0
142
0.0
142
0.0
142
0.0
142
0.0008202099737533
142
0.0
142
0.0
142
0.0
142
0.0
142
1.0
142
0.0
142
0.0
142
0.0
142
0.0
142
1.0
179
     0
144
0.0008202099737533
144
0.0
144
0.0
144
0.0
144
0.0
144
0.0008202099737533
144
0.0
144
0.0
144
0.0
144
0.0
144
1.0
144
0.0
144
0.0
144
0.0
144
0.0
144
1.0
147
0.0008202099737533
147
0.0
147
0.0
147
0.0
147
0.0
147
0.0008202099737533
147
0.0
147
0.0
147
0.0
147
0.0
147
1.0
147
0.0
147
0.0
147
0.0
147
0.0
147
1.0
  0
MATERIAL
  5
2273D
102
{ACAD_XDICTIONARY
360
2273E
102
}
102
{ACAD_REACTORS
330
2272C
102
}
330
2272C
100
AcDbMaterial
  1
Global
 72
     0
 43
0.0008202099737533
 43
0.0
 43
0.0
 43
0.0
 43
0.0
 43
0.0008202099737533
 43
0.0
 43
0.0
 43
0.0
 43
0.0
 43
1.0
 43
0.0
 43
0.0
 43
0.0
 43
0.0
 43
1.0
 77
     0
 47
0.0008202099737533
 47
0.0
 47
0.0
 47
0.0
 47
0.0
 47
0.0008202099737533
 47
0.0
 47
0.0
 47
0.0
 47
0.0
 47
1.0
 47
0.0
 47
0.0
 47
0.0
 47
0.0
 47
1.0
171
     0
 49
0.0008202099737533
 49
0.0
 49
0.0
 49
0.0
 49
0.0
 49
0.0008202099737533
 49
0.0
 49
0.0
 49
0.0
 49
0.0
 49
1.0
 49
0.0
 49
0.0
 49
0.0
 49
0.0
 49
1.0
175
     0
142
0.0008202099737533
142
0.0
142
0.0
142
0.0
142
0.0
142
0.0008202099737533
142
0.0
142
0.0
142
0.0
142
0.0
142
1.0
142
0.0
142
0.0
142
0.0
142
0.0
142
1.0
179
     0
144
0.0008202099737533
144
0.0
144
0.0
144
0.0
144
0.0
144
0.0008202099737533
144
0.0
144
0.0
144
0.0
144
0.0
144
1.0
144
0.0
144
0.0
144
0.0
144
0.0
144
1.0
147
0.0008202099737533
147
0.0
147
0.0
147
0.0
147
0.0
147
0.0008202099737533
147
0.0
147
0.0
147
0.0
147
0.0
147
1.0
147
0.0
147
0.0
147
0.0
147
0.0
147
1.0
  0
MLEADERSTYLE
  5
2276C
102
{ACAD_XDICTIONARY
360
52756
102
}
102
{ACAD_REACTORS
330
2276B
102
}
330
2276B
100
AcDbMLeaderStyle
170
     2
171
     1
172
     0
 90
        2
 40
0.0
 41
0.0
173
     1
 91
-1056964608
340
14
 92
       -2
290
     1
 42
2.0
291
     1
 43
0.36
  3
Standard
 44
4.0
300

342
11
174
     1
178
     6
175
     1
176
     0
 93
-1056964608
 45
4.0
292
     0
297
     0
 46
4.0
 94
-1056964608
 47
1.0
 49
1.0
140
1.0
293
     1
141
0.0
294
     1
177
     0
142
1.0
295
     0
296
     0
143
0.125
1001
ACAD_MLEADERVER
1070
     2
  0
MLINESTYLE
  5
18
102
{ACAD_REACTORS
330
17
102
}
330
17
100
AcDbMlineStyle
  2
STANDARD
 70
     0
  3

 62
   256
 51
90.0
 52
90.0
 71
     2
 49
0.5
 62
   256
  6
BYLAYER
 49
-0.5
 62
   256
  6
BYLAYER
  0
PLOTSETTINGS
  5
2288E
102
{ACAD_REACTORS
330
19
102
}
330
19
100
AcDbPlotSettings
  1
A1横-DocuWide 2051 MF-RT
  2
DocuWide 2051 MF-RT
  4
User151
  6

 40
3.174999952316284
 41
3.174999952316284
 42
3.17498779296875
 43
3.17498779296875
 44
593.97900390625
 45
840.9939575195313
 46
0.0
 47
0.0
 48
0.0
 49
0.0
140
0.0
141
0.0
142
1.0
143
1.0
 70
  2736
 72
     1
 73
     1
 74
     5
  7
monochrome.ctb
 75
    16
147
1.0
 76
     0
 77
     2
 78
   300
148
17.0220485445252
149
5.136853987673248
1001
ACAD_PSEXT
1000
DocuWide 2051 MF-RT
1000
FX DocuWide 2050/2051
1000
10.100.200.210:plt00t
1000

1070
     0
  0
PLOTSETTINGS
  5
4BB79
102
{ACAD_REACTORS
330
19
102
}
330
19
100
AcDbPlotSettings
  1
A1横-PDF_COR
  2
DWG To PDF.pc3
  4
ISO_full_bleed_A1_(841.00_x_594.00_MM)
  6

 40
0.7937499880790711
 41
0.7937499880790711
 42
0.79376220703125
 43
0.79376220703125
 44
841.0
 45
594.0
 46
0.0
 47
0.0
 48
0.0
 49
0.0
140
0.0
141
0.0
142
1.0
143
1.0
 70
  2736
 72
     1
 73
     0
 74
     5
  7
acad.ctb
 75
    16
147
1.0
 76
     0
 77
     2
 78
   300
148
17.0220485445252
149
5.136853987673248
1001
ACAD_PSEXT
1000
DWG To PDF.pc3
1000
DWG To PDF
1000
ファイル
1000

1070
     0
  0
PLOTSETTINGS
  5
4BB70
102
{ACAD_REACTORS
330
19
102
}
330
19
100
AcDbPlotSettings
  1
A1横-PDF_MONO
  2
DWG To PDF.pc3
  4
ISO_full_bleed_A1_(841.00_x_594.00_MM)
  6

 40
0.7937499880790711
 41
0.7937499880790711
 42
0.79376220703125
 43
0.79376220703125
 44
841.0
 45
594.0
 46
0.0
 47
0.0
 48
0.0
 49
0.0
140
0.0
141
0.0
142
1.0
143
1.0
 70
  2736
 72
     1
 73
     0
 74
     5
  7
monochrome.ctb
 75
    16
147
1.0
 76
     0
 77
     2
 78
   300
148
17.0220485445252
149
5.136853987673248
1001
ACAD_PSEXT
1000
DWG To PDF.pc3
1000
DWG To PDF
1000
ファイル
1000

1070
     0
  0
PLOTSETTINGS
  5
228A9
102
{ACAD_REACTORS
330
19
102
}
330
19
100
AcDbPlotSettings
  1
A2横-DocuWide 2051 MF-RT
  2
DocuWide 2051 MF-RT
  4
User66
  6

 40
3.174999952316284
 41
3.174999952316284
 42
3.17498779296875
 43
3.17498779296875
 44
419.9889831542968
 45
593.97900390625
 46
0.0
 47
0.0
 48
0.0
 49
0.0
140
0.0
141
0.0
142
1.0
143
1.0
 70
  2736
 72
     1
 73
     1
 74
     5
  7
monochrome.ctb
 75
    16
147
1.0
 76
     0
 77
     2
 78
   300
148
-968.6464465543492
149
-10.13499988433659
1001
ACAD_PSEXT
1000
DocuWide 2051 MF-RT
1000
FX DocuWide 2050/2051
1000
10.100.200.210:plt00t
1000

1070
     0
  0
PLOTSETTINGS
  5
2883A
102
{ACAD_REACTORS
330
19
102
}
330
19
100
AcDbPlotSettings
  1
A3横-DocuCentre C4535Ⅰ②
  2
DocuCentre C4535 I ②
  4
A3
  6

 40
4.857749938964843
 41
4.942420959472656
 42
4.9423828125
 43
4.857757568359375
 44
297.0106506347656
 45
420.0313415527343
 46
0.0
 47
0.0
 48
0.0
 49
0.0
140
0.0
141
0.0
142
1.0
143
2.0
 70
  2720
 72
     1
 73
     1
 74
     5
  7
monochrome.ctb
 75
     0
147
0.4835020742459363
 76
     0
 77
     2
 78
   300
148
17.0220485445252
149
5.136853987673248
1001
ACAD_PSEXT
1000
DocuCentre C4535 I ②
1000
FX DocuCentre C4535 I
1000
10.100.200.205
1000

1070
     0
  0
PLOTSETTINGS
  5
4BB56
102
{ACAD_REACTORS
330
19
102
}
330
19
100
AcDbPlotSettings
  1
A3横-DocuCentre C4535Ⅰ②_cor
  2
DocuCentre C4535 I ②
  4
A3
  6

 40
4.857749938964843
 41
4.942420959472656
 42
4.9423828125
 43
4.857757568359375
 44
297.0106506347656
 45
420.0313415527343
 46
0.0
 47
0.0
 48
0.0
 49
0.0
140
0.0
141
0.0
142
1.0
143
2.0
 70
  2720
 72
     1
 73
     1
 74
     5
  7
acad.ctb
 75
     0
147
0.4835020742459363
 76
     0
 77
     2
 78
   300
148
17.0220485445252
149
5.136853987673248
1001
ACAD_PSEXT
1000
DocuCentre C4535 I ②
1000
FX DocuCentre C4535 I
1000
10.100.200.205
1000

1070
     0
  0
PLOTSETTINGS
  5
228B2
102
{ACAD_REACTORS
330
19
102
}
330
19
100
AcDbPlotSettings
  1
A4横-DocuCentre C4535Ⅰ②
  2
DocuCentre C4535 I ②
  4
A4
  6

 40
4.857749938964843
 41
4.942390441894531
 42
4.942413330078125
 43
4.857757568359375
 44
209.9733276367187
 45
297.0106506347656
 46
0.0
 47
0.0
 48
0.0
 49
0.0
140
0.0
141
0.0
142
1.0
143
2.0
 70
  2720
 72
     1
 73
     1
 74
     5
  7
monochrome.ctb
 75
    16
147
1.0
 76
     0
 77
     2
 78
   300
148
-965.432603393638
149
-6.955950538279239
1001
ACAD_PSEXT
1000
DocuCentre C4535 I ②
1000
FX DocuCentre C4535 I
1000
10.100.200.205
1000

1070
     0
  0
PLOTSETTINGS
  5
4BB5F
102
{ACAD_REACTORS
330
19
102
}
330
19
100
AcDbPlotSettings
  1
A4横-DocuCentre C4535Ⅰ②_cor
  2
DocuCentre C4535 I ②
  4
A4
  6

 40
4.857749938964843
 41
4.942390441894531
 42
4.942413330078125
 43
4.857757568359375
 44
209.9733276367187
 45
297.0106506347656
 46
0.0
 47
0.0
 48
0.0
 49
0.0
140
0.0
141
0.0
142
1.0
143
2.0
 70
  2720
 72
     1
 73
     1
 74
     5
  7
acad.ctb
 75
    16
147
1.0
 76
     0
 77
     2
 78
   300
148
-965.432603393638
149
-6.955950538279239
1001
ACAD_PSEXT
1000
DocuCentre C4535 I ②
1000
FX DocuCentre C4535 I
1000
10.100.200.205
1000

1070
     0
  0
ACDBPLACEHOLDER
  5
F
102
{ACAD_REACTORS
330
E
102
}
330
E
  0
SCALE
  5
2275A
102
{ACAD_REACTORS
330
22759
102
}
330
22759
100
AcDbScale
 70
     0
300
1:1
140
1.0
141
1.0
290
     1
  0
SCALE
  5
22924
102
{ACAD_REACTORS
330
22759
102
}
330
22759
100
AcDbScale
 70
     0
300
1:3
140
1.0
141
3.0
290
     0
  0
SCALE
  5
22925
102
{ACAD_REACTORS
330
22759
102
}
330
22759
100
AcDbScale
 70
     0
300
1:60
140
1.0
141
60.0
290
     0
  0
SCALE
  5
22926
102
{ACAD_REACTORS
330
22759
102
}
330
22759
100
AcDbScale
 70
     0
300
1:150
140
1.0
141
150.0
290
     0
  0
SCALE
  5
22927
102
{ACAD_REACTORS
330
22759
102
}
330
22759
100
AcDbScale
 70
     0
300
1:125
140
1.0
141
125.0
290
     0
  0
SCALE
  5
22928
102
{ACAD_REACTORS
330
22759
102
}
330
22759
100
AcDbScale
 70
     0
300
1:2
140
1.0
141
2.0
290
     0
  0
SCALE
  5
22929
102
{ACAD_REACTORS
330
22759
102
}
330
22759
100
AcDbScale
 70
     0
300
1:4
140
1.0
141
4.0
290
     0
  0
SCALE
  5
2292A
102
{ACAD_REACTORS
330
22759
102
}
330
22759
100
AcDbScale
 70
     0
300
1:5
140
1.0
141
5.0
290
     0
  0
SCALE
  5
2292B
102
{ACAD_REACTORS
330
22759
102
}
330
22759
100
AcDbScale
 70
     0
300
1:8
140
1.0
141
8.0
290
     0
  0
SCALE
  5
2292C
102
{ACAD_REACTORS
330
22759
102
}
330
22759
100
AcDbScale
 70
     0
300
1:10
140
1.0
141
10.0
290
     0
  0
SCALE
  5
2292D
102
{ACAD_REACTORS
330
22759
102
}
330
22759
100
AcDbScale
 70
     0
300
1:16
140
1.0
141
16.0
290
     0
  0
SCALE
  5
2292E
102
{ACAD_REACTORS
330
22759
102
}
330
22759
100
AcDbScale
 70
     0
300
1:20
140
1.0
141
20.0
290
     0
  0
SCALE
  5
2292F
102
{ACAD_REACTORS
330
22759
102
}
330
22759
100
AcDbScale
 70
     0
300
1:30
140
1.0
141
30.0
290
     0
  0
SCALE
  5
22930
102
{ACAD_REACTORS
330
22759
102
}
330
22759
100
AcDbScale
 70
     0
300
1:40
140
1.0
141
40.0
290
     0
  0
SCALE
  5
22931
102
{ACAD_REACTORS
330
22759
102
}
330
22759
100
AcDbScale
 70
     0
300
1:50
140
1.0
141
50.0
290
     0
  0
SCALE
  5
22765
102
{ACAD_REACTORS
330
22759
102
}
330
22759
100
AcDbScale
 70
     0
300
1:100
140
1.0
141
100.0
290
     0
  0
SCALE
  5
22932
102
{ACAD_REACTORS
330
22759
102
}
330
22759
100
AcDbScale
 70
     0
300
2:1
140
2.0
141
1.0
290
     0
  0
SCALE
  5
22933
102
{ACAD_REACTORS
330
22759
102
}
330
22759
100
AcDbScale
 70
     0
300
4:1
140
4.0
141
1.0
290
     0
  0
SCALE
  5
22934
102
{ACAD_REACTORS
330
22759
102
}
330
22759
100
AcDbScale
 70
     0
300
8:1
140
8.0
141
1.0
290
     0
  0
SCALE
  5
22935
102
{ACAD_REACTORS
330
22759
102
}
330
22759
100
AcDbScale
 70
     0
300
10:1
140
10.0
141
1.0
290
     0
  0
SCALE
  5
22936
102
{ACAD_REACTORS
330
22759
102
}
330
22759
100
AcDbScale
 70
     0
300
100:1
140
100.0
141
1.0
290
     0
  0
TABLESTYLE
  5
22758
102
{ACAD_XDICTIONARY
360
22803
102
}
102
{ACAD_REACTORS
330
22757
102
}
330
22757
100
AcDbTableStyle
  3
Standard
 70
     0
 71
     0
 40
1.5
 41
1.5
280
     0
281
     0
  7
Standard
140
4.5
170
     2
 62
     0
 63
     7
283
     0
274
    -2
284
     1
 64
     0
275
    -2
285
     1
 65
     0
276
    -2
286
     1
 66
     0
277
    -2
287
     1
 67
     0
278
    -2
288
     1
 68
     0
279
    -2
289
     1
 69
     0
  7
Standard
140
6.0
170
     5
 62
     0
 63
     7
283
     0
274
    -2
284
     1
 64
     0
275
    -2
285
     1
 65
     0
276
    -2
286
     1
 66
     0
277
    -2
287
     1
 67
     0
278
    -2
288
     1
 68
     0
279
    -2
289
     1
 69
     0
  7
Standard
140
4.5
170
     5
 62
     0
 63
     7
283
     0
274
    -2
284
     1
 64
     0
275
    -2
285
     1
 65
     0
276
    -2
286
     1
 66
     0
277
    -2
287
     1
 67
     0
278
    -2
288
     1
 68
     0
279
    -2
289
     1
 69
     0
  0
VISUALSTYLE
  5
2274B
102
{ACAD_XDICTIONARY
360
52769
102
}
102
{ACAD_REACTORS
330
22745
102
}
330
22745
100
AcDbVisualStyle
  2
2dWireframe
 70
     4
 71
     0
 72
     2
 73
     0
 90
        0
 40
-0.6
 41
-30.0
 62
     5
 63
     7
421
 16777215
 74
     1
 91
        4
 64
     7
 65
   257
 75
     1
175
     1
 42
1.0
 92
        0
 66
   257
 43
1.0
 76
     1
 77
     6
 78
     2
 67
     7
 79
     5
170
     0
171
     0
290
     0
174
     0
 93
        1
 44
0.0
173
     0
291
     0
 45
0.0
1001
ACAD
1000
AcDbSavedByObjectVersion
1070
     0
  0
VISUALSTYLE
  5
2274D
102
{ACAD_XDICTIONARY
360
5276D
102
}
102
{ACAD_REACTORS
330
22745
102
}
330
22745
100
AcDbVisualStyle
  2
3D Hidden
 70
     6
 71
     1
 72
     2
 73
     2
 90
        0
 40
-0.6
 41
-30.0
 62
     5
 63
     7
421
 16777215
 74
     2
 91
        2
 64
     7
 65
   257
 75
     2
175
     1
 42
40.0
 92
        0
 66
   257
 43
1.0
 76
     1
 77
     6
 78
     2
 67
     7
 79
     3
170
     0
171
     0
290
     0
174
     0
 93
        1
 44
0.0
173
     0
291
     0
 45
0.0
1001
ACAD
1000
AcDbSavedByObjectVersion
1070
     0
  0
VISUALSTYLE
  5
2274C
102
{ACAD_XDICTIONARY
360
5276B
102
}
102
{ACAD_REACTORS
330
22745
102
}
330
22745
100
AcDbVisualStyle
  2
3dWireframe
 70
     5
 71
     0
 72
     2
 73
     0
 90
        0
 40
-0.6
 41
-30.0
 62
     5
 63
     7
421
 16777215
 74
     1
 91
        4
 64
     7
 65
   257
 75
     1
175
     1
 42
1.0
 92
        0
 66
   257
 43
1.0
 76
     1
 77
     6
 78
     2
 67
     7
 79
     5
170
     0
171
     0
290
     0
174
     0
 93
        1
 44
0.0
173
     0
291
     0
 45
0.0
1001
ACAD
1000
AcDbSavedByObjectVersion
1070
     0
  0
VISUALSTYLE
  5
2274A
102
{ACAD_XDICTIONARY
360
52767
102
}
102
{ACAD_REACTORS
330
22745
102
}
330
22745
100
AcDbVisualStyle
  2
Basic
 70
     7
 71
     1
 72
     0
 73
     1
 90
        0
 40
-0.6
 41
-30.0
 62
     5
 63
     7
421
 16777215
 74
     0
 91
        4
 64
     7
 65
   257
 75
     1
175
     1
 42
1.0
 92
        8
 66
     7
 43
1.0
 76
     1
 77
     6
 78
     2
 67
     7
 79
     5
170
     0
171
     0
290
     0
174
     0
 93
        1
 44
0.0
173
     0
291
     1
 45
0.0
1001
ACAD
1000
AcDbSavedByObjectVersion
1070
     0
  0
VISUALSTYLE
  5
22751
102
{ACAD_XDICTIONARY
360
52775
102
}
102
{ACAD_REACTORS
330
22745
102
}
330
22745
100
AcDbVisualStyle
  2
Brighten
 70
    12
 71
     2
 72
     2
 73
     0
 90
        0
 40
-0.6
 41
-30.0
 62
     5
 63
     7
421
 16777215
 74
     1
 91
        4
 64
     7
 65
   257
 75
     1
175
     1
 42
1.0
 92
        8
 66
     7
 43
1.0
 76
     1
 77
     6
 78
     2
 67
     7
 79
     5
170
     0
171
     0
290
     0
174
     0
 93
        1
 44
50.0
173
     0
291
     1
 45
0.0
1001
ACAD
1000
AcDbSavedByObjectVersion
1070
     0
  0
VISUALSTYLE
  5
22755
102
{ACAD_XDICTIONARY
360
5277D
102
}
102
{ACAD_REACTORS
330
22745
102
}
330
22745
100
AcDbVisualStyle
  2
ColorChange
 70
    16
 71
     2
 72
     2
 73
     3
 90
        0
 40
-0.6
 41
-30.0
 62
     5
 63
     8
421
  8421504
 74
     1
 91
        4
 64
     7
 65
   257
 75
     1
175
     1
 42
1.0
 92
        8
 66
     8
424
  8421504
 43
1.0
 76
     1
 77
     6
 78
     2
 67
     7
 79
     5
170
     0
171
     0
290
     0
174
     0
 93
        1
 44
0.0
173
     0
291
     1
 45
0.0
1001
ACAD
1000
AcDbSavedByObjectVersion
1070
     0
  0
VISUALSTYLE
  5
2274E
102
{ACAD_XDICTIONARY
360
5276F
102
}
102
{ACAD_REACTORS
330
22745
102
}
330
22745
100
AcDbVisualStyle
  2
Conceptual
 70
     9
 71
     3
 72
     2
 73
     0
 90
        0
 40
-0.6
 41
-30.0
 62
     5
 63
     7
421
 16777215
 74
     2
 91
        2
 64
     7
 65
   257
 75
     1
175
     1
 42
40.0
 92
        8
 66
     7
 43
1.0
 76
     1
 77
     6
 78
     2
 67
     7
 79
     3
170
     0
171
     0
290
     0
174
     0
 93
        1
 44
0.0
173
     0
291
     0
 45
0.0
1001
ACAD
1000
AcDbSavedByObjectVersion
1070
     0
  0
VISUALSTYLE
  5
22750
102
{ACAD_XDICTIONARY
360
52773
102
}
102
{ACAD_REACTORS
330
22745
102
}
330
22745
100
AcDbVisualStyle
  2
Dim
 70
    11
 71
     2
 72
     2
 73
     0
 90
        0
 40
-0.6
 41
-30.0
 62
     5
 63
     7
421
 16777215
 74
     1
 91
        4
 64
     7
 65
   257
 75
     1
175
     1
 42
1.0
 92
        8
 66
     7
 43
1.0
 76
     1
 77
     6
 78
     2
 67
     7
 79
     5
170
     0
171
     0
290
     0
174
     0
 93
        1
 44
-50.0
173
     0
291
     1
 45
0.0
1001
ACAD
1000
AcDbSavedByObjectVersion
1070
     0
  0
VISUALSTYLE
  5
22A03
102
{ACAD_XDICTIONARY
360
52792
102
}
102
{ACAD_REACTORS
330
22745
102
}
330
22745
100
AcDbVisualStyle
  2
EdgeColorOff
 70
    22
 71
     2
 72
     2
 73
     0
 90
        0
 40
-0.6
 41
-30.0
 62
     5
 63
     7
421
 16777215
 74
     1
 91
        4
 64
     7
 65
   257
 75
     1
175
     1
 42
1.0
 92
        8
 66
     7
 43
1.0
 76
     1
 77
     6
 78
     2
 67
     7
 79
     5
170
     0
171
     0
290
     0
174
     0
 93
        1
 44
0.0
173
     0
291
     1
 45
0.0
1001
ACAD
1000
AcDbSavedByObjectVersion
1070
     0
  0
VISUALSTYLE
  5
22754
102
{ACAD_XDICTIONARY
360
5277B
102
}
102
{ACAD_REACTORS
330
22745
102
}
330
22745
100
AcDbVisualStyle
  2
Facepattern
 70
    15
 71
     2
 72
     2
 73
     0
 90
        0
 40
-0.6
 41
-30.0
 62
     5
 63
     7
421
 16777215
 74
     1
 91
        4
 64
     7
 65
   257
 75
     1
175
     1
 42
1.0
 92
        8
 66
     7
 43
1.0
 76
     1
 77
     6
 78
     2
 67
     7
 79
     5
170
     0
171
     0
290
     0
174
     0
 93
        1
 44
0.0
173
     0
291
     1
 45
0.0
1001
ACAD
1000
AcDbSavedByObjectVersion
1070
     0
  0
VISUALSTYLE
  5
22746
102
{ACAD_XDICTIONARY
360
5275F
102
}
102
{ACAD_REACTORS
330
22745
102
}
330
22745
100
AcDbVisualStyle
  2
Flat
 70
     0
 71
     2
 72
     1
 73
     1
 90
        2
 40
-0.6
 41
30.0
 62
     5
 63
     7
421
 16777215
 74
     0
 91
        4
 64
     7
 65
   257
 75
     1
175
     1
 42
1.0
 92
        8
 66
     7
 43
1.0
 76
     1
 77
     6
 78
     2
 67
     7
 79
     5
170
     0
171
     0
290
     0
174
     0
 93
       13
 44
0.0
173
     0
291
     1
 45
0.0
1001
ACAD
1000
AcDbSavedByObjectVersion
1070
     0
  0
VISUALSTYLE
  5
22747
102
{ACAD_XDICTIONARY
360
52761
102
}
102
{ACAD_REACTORS
330
22745
102
}
330
22745
100
AcDbVisualStyle
  2
FlatWithEdges
 70
     1
 71
     2
 72
     1
 73
     1
 90
        2
 40
-0.6
 41
30.0
 62
     5
 63
     7
421
 16777215
 74
     1
 91
        4
 64
     7
 65
   257
 75
     1
175
     1
 42
1.0
 92
        0
 66
   257
 43
1.0
 76
     1
 77
     6
 78
     2
 67
     7
 79
     5
170
     0
171
     0
290
     0
174
     0
 93
       13
 44
0.0
173
     0
291
     1
 45
0.0
1001
ACAD
1000
AcDbSavedByObjectVersion
1070
     0
  0
VISUALSTYLE
  5
22748
102
{ACAD_XDICTIONARY
360
52763
102
}
102
{ACAD_REACTORS
330
22745
102
}
330
22745
100
AcDbVisualStyle
  2
Gouraud
 70
     2
 71
     2
 72
     2
 73
     1
 90
        2
 40
-0.6
 41
30.0
 62
     5
 63
     7
421
 16777215
 74
     0
 91
        4
 64
     7
 65
   257
 75
     1
175
     1
 42
1.0
 92
        0
 66
     7
 43
1.0
 76
     1
 77
     6
 78
     2
 67
     7
 79
     5
170
     0
171
     0
290
     0
174
     0
 93
       13
 44
0.0
173
     0
291
     1
 45
0.0
1001
ACAD
1000
AcDbSavedByObjectVersion
1070
     0
  0
VISUALSTYLE
  5
22749
102
{ACAD_XDICTIONARY
360
52765
102
}
102
{ACAD_REACTORS
330
22745
102
}
330
22745
100
AcDbVisualStyle
  2
GouraudWithEdges
 70
     3
 71
     2
 72
     2
 73
     1
 90
        2
 40
-0.6
 41
30.0
 62
     5
 63
     7
421
 16777215
 74
     1
 91
        4
 64
     7
 65
   257
 75
     1
175
     1
 42
1.0
 92
        0
 66
   257
 43
1.0
 76
     1
 77
     6
 78
     2
 67
     7
 79
     5
170
     0
171
     0
290
     0
174
     0
 93
       13
 44
0.0
173
     0
291
     1
 45
0.0
1001
ACAD
1000
AcDbSavedByObjectVersion
1070
     0
  0
VISUALSTYLE
  5
229FB
102
{ACAD_XDICTIONARY
360
52782
102
}
102
{ACAD_REACTORS
330
22745
102
}
330
22745
100
AcDbVisualStyle
  2
Hidden
 70
     6
 71
     1
 72
     2
 73
     2
 90
        0
 40
-0.6
 41
-30.0
 62
     5
 63
     7
421
 16777215
 74
     2
 91
        2
 64
     7
 65
   257
 75
     2
175
     1
 42
40.0
 92
        0
 66
   257
 43
1.0
 76
     1
 77
     6
 78
     2
 67
     7
 79
     3
170
     0
171
     0
290
     0
174
     0
 93
        1
 44
0.0
173
     0
291
     0
 45
0.0
1001
ACAD
1000
AcDbSavedByObjectVersion
1070
     0
  0
VISUALSTYLE
  5
22A01
102
{ACAD_XDICTIONARY
360
5278E
102
}
102
{ACAD_REACTORS
330
22745
102
}
330
22745
100
AcDbVisualStyle
  2
JitterOff
 70
    20
 71
     2
 72
     2
 73
     0
 90
        0
 40
-0.6
 41
-30.0
 62
     5
 63
     7
421
 16777215
 74
     1
 91
        4
 64
     7
 65
   257
 75
     1
175
     1
 42
1.0
 92
       10
 66
     7
 43
1.0
 76
     1
 77
     6
 78
     2
 67
     7
 79
     5
170
     0
171
     0
290
     0
174
     0
 93
        1
 44
0.0
173
     0
291
     1
 45
0.0
1001
ACAD
1000
AcDbSavedByObjectVersion
1070
     0
  0
VISUALSTYLE
  5
22753
102
{ACAD_XDICTIONARY
360
52779
102
}
102
{ACAD_REACTORS
330
22745
102
}
330
22745
100
AcDbVisualStyle
  2
Linepattern
 70
    14
 71
     2
 72
     2
 73
     0
 90
        0
 40
-0.6
 41
-30.0
 62
     5
 63
     7
421
 16777215
 74
     1
 91
        4
 64
     7
 65
   257
 75
     7
175
     7
 42
1.0
 92
        8
 66
     7
 43
1.0
 76
     1
 77
     6
 78
     2
 67
     7
 79
     5
170
     0
171
     0
290
     0
174
     0
 93
        1
 44
0.0
173
     0
291
     1
 45
0.0
1001
ACAD
1000
AcDbSavedByObjectVersion
1070
     0
  0
VISUALSTYLE
  5
22A02
102
{ACAD_XDICTIONARY
360
52790
102
}
102
{ACAD_REACTORS
330
22745
102
}
330
22745
100
AcDbVisualStyle
  2
OverhangOff
 70
    21
 71
     2
 72
     2
 73
     0
 90
        0
 40
-0.6
 41
-30.0
 62
     5
 63
     7
421
 16777215
 74
     1
 91
        4
 64
     7
 65
   257
 75
     1
175
     1
 42
1.0
 92
        9
 66
     7
 43
1.0
 76
     1
 77
     6
 78
     2
 67
     7
 79
     5
170
     0
171
     0
290
     0
174
     0
 93
        1
 44
0.0
173
     0
291
     1
 45
0.0
1001
ACAD
1000
AcDbSavedByObjectVersion
1070
     0
  0
VISUALSTYLE
  5
2274F
102
{ACAD_XDICTIONARY
360
52771
102
}
102
{ACAD_REACTORS
330
22745
102
}
330
22745
100
AcDbVisualStyle
  2
Realistic
 70
     8
 71
     2
 72
     2
 73
     0
 90
        0
 40
-0.6
 41
-30.0
 62
     5
 63
     7
421
 16777215
 74
     1
 91
        0
 64
     7
 65
   257
 75
     1
175
     1
 42
1.0
 92
        8
 66
     8
424
  7895160
 43
1.0
 76
     1
 77
     6
 78
     2
 67
     7
 79
     5
170
     0
171
     0
290
     0
174
     0
 93
       13
 44
0.0
173
     0
291
     0
 45
0.0
1001
ACAD
1000
AcDbSavedByObjectVersion
1070
     0
  0
VISUALSTYLE
  5
22A00
102
{ACAD_XDICTIONARY
360
5278C
102
}
102
{ACAD_REACTORS
330
22745
102
}
330
22745
100
AcDbVisualStyle
  2
Shaded
 70
    27
 71
     2
 72
     2
 73
     1
 90
        2
 40
-0.6
 41
30.0
 62
     5
 63
     7
421
 16777215
 74
     0
 91
        4
 64
     7
 65
   257
 75
     1
175
     1
 42
1.0
 92
        8
 66
   257
 43
1.0
 76
     1
 77
     6
 78
     2
 67
     8
425
  7895160
 79
     3
170
     0
171
     0
290
     0
174
     0
 93
        5
 44
0.0
173
     0
291
     0
 45
0.0
1001
ACAD
1000
AcDbSavedByObjectVersion
1070
     0
  0
VISUALSTYLE
  5
229FF
102
{ACAD_XDICTIONARY
360
5278A
102
}
102
{ACAD_REACTORS
330
22745
102
}
330
22745
100
AcDbVisualStyle
  2
Shaded with edges
 70
    26
 71
     2
 72
     2
 73
     1
 90
        2
 40
-0.6
 41
30.0
 62
     5
 63
     7
421
 16777215
 74
     1
 91
       10
 64
     7
 65
   257
 75
     2
175
     1
 42
1.0
 92
        8
 66
   257
 43
1.0
 76
     1
 77
     6
 78
     2
 67
     7
 79
     3
170
     0
171
     0
290
     0
174
     0
 93
        5
 44
0.0
173
     0
291
     0
 45
0.0
1001
ACAD
1000
AcDbSavedByObjectVersion
1070
     0
  0
VISUALSTYLE
  5
229FC
102
{ACAD_XDICTIONARY
360
52784
102
}
102
{ACAD_REACTORS
330
22745
102
}
330
22745
100
AcDbVisualStyle
  2
Shades of Gray
 70
    23
 71
     2
 72
     2
 73
     3
 90
        0
 40
-0.6
 41
-30.0
 62
     5
 63
     7
421
 16777215
 74
     2
 91
        2
 64
     7
 65
     7
 75
     1
175
     1
 42
40.0
 92
        8
 66
     7
 43
1.0
 76
     1
 77
     6
 78
     2
 67
     7
 79
     3
170
     0
171
     0
290
     0
174
     0
 93
        1
 44
0.0
173
     0
291
     0
 45
0.0
1001
ACAD
1000
AcDbSavedByObjectVersion
1070
     0
  0
VISUALSTYLE
  5
229FD
102
{ACAD_XDICTIONARY
360
52786
102
}
102
{ACAD_REACTORS
330
22745
102
}
330
22745
100
AcDbVisualStyle
  2
Sketchy
 70
    24
 71
     1
 72
     2
 73
     2
 90
        0
 40
-0.6
 41
-30.0
 62
     5
 63
     7
421
 16777215
 74
     2
 91
        2
 64
     7
 65
     7
 75
     1
175
     1
 42
40.0
 92
       11
 66
     7
 43
1.0
 76
     1
 77
     6
 78
     2
 67
     7
 79
     6
170
     0
171
     0
290
     0
174
     0
 93
        1
 44
0.0
173
     0
291
     0
 45
0.0
1001
ACAD
1000
AcDbSavedByObjectVersion
1070
     0
  0
VISUALSTYLE
  5
22752
102
{ACAD_XDICTIONARY
360
52777
102
}
102
{ACAD_REACTORS
330
22745
102
}
330
22745
100
AcDbVisualStyle
  2
Thicken
 70
    13
 71
     2
 72
     2
 73
     0
 90
        0
 40
-0.6
 41
-30.0
 62
     5
 63
     7
421
 16777215
 74
     1
 91
        4
 64
     7
 65
   257
 75
     1
175
     1
 42
1.0
 92
       12
 66
     7
 43
1.0
 76
     1
 77
     6
 78
     2
 67
     7
 79
     5
170
     0
171
     0
290
     0
174
     0
 93
        1
 44
0.0
173
     0
291
     1
 45
0.0
1001
ACAD
1000
AcDbSavedByObjectVersion
1070
     0
  0
VISUALSTYLE
  5
229FA
102
{ACAD_XDICTIONARY
360
52780
102
}
102
{ACAD_REACTORS
330
22745
102
}
330
22745
100
AcDbVisualStyle
  2
Wireframe
 70
     5
 71
     0
 72
     2
 73
     0
 90
        0
 40
-0.6
 41
-30.0
 62
     5
 63
     7
421
 16777215
 74
     1
 91
        4
 64
     7
 65
   257
 75
     1
175
     1
 42
1.0
 92
        0
 66
   257
 43
1.0
 76
     1
 77
     6
 78
     2
 67
     7
 79
     3
170
     0
171
     0
290
     0
174
     0
 93
        1
 44
0.0
173
     0
291
     0
 45
0.0
1001
ACAD
1000
AcDbSavedByObjectVersion
1070
     0
  0
VISUALSTYLE
  5
229FE
102
{ACAD_XDICTIONARY
360
52788
102
}
102
{ACAD_REACTORS
330
22745
102
}
330
22745
100
AcDbVisualStyle
  2
X-Ray
 70
    25
 71
     2
 72
     2
 73
     1
 90
        1
 40
0.5
 41
-30.0
 62
     5
 63
     7
421
 16777215
 74
     1
 91
        0
 64
     7
 65
   257
 75
     1
175
     1
 42
1.0
 92
        8
 66
     7
 43
1.0
 76
     1
 77
     6
 78
     2
 67
     7
 79
     3
170
     0
171
     0
290
     0
174
     0
 93
       13
 44
0.0
173
     0
291
     0
 45
0.0
1001
ACAD
1000
AcDbSavedByObjectVersion
1070
     0
  0
DICTIONARYVAR
  5
22809
102
{ACAD_REACTORS
330
173D
102
}
330
173D
100
DictionaryVariables
280
     0
  1
1:1
  0
DICTIONARYVAR
  5
22807
102
{ACAD_REACTORS
330
173D
102
}
330
173D
100
DictionaryVariables
280
     0
  1
STANDARD
  0
DICTIONARYVAR
  5
22806
102
{ACAD_REACTORS
330
173D
102
}
330
173D
100
DictionaryVariables
280
     0
  1
STANDARD
  0
DICTIONARYVAR
  5
2280B
102
{ACAD_REACTORS
330
173D
102
}
330
173D
100
DictionaryVariables
280
     0
  1
1
  0
DICTIONARYVAR
  5
2280C
102
{ACAD_REACTORS
330
173D
102
}
330
173D
100
DictionaryVariables
280
     0
  1
15
  0
DICTIONARYVAR
  5
2280A
102
{ACAD_REACTORS
330
173D
102
}
330
173D
100
DictionaryVariables
280
     0
  1
0
  0
DICTIONARYVAR
  5
22808
102
{ACAD_REACTORS
330
173D
102
}
330
173D
100
DictionaryVariables
280
     0
  1
0
  0
DICTIONARYVAR
  5
52695
102
{ACAD_REACTORS
330
173D
102
}
330
173D
100
DictionaryVariables
280
     0
  1
1
  0
DICTIONARYVAR
  5
173E
102
{ACAD_REACTORS
330
173D
102
}
330
173D
100
DictionaryVariables
280
     0
  1
96
  0
XRECORD
  5
2272A
102
{ACAD_REACTORS
330
22728
102
}
330
22728
100
AcDbXrecord
280
     1
  0
XRECORD
  5
1606
102
{ACAD_REACTORS
330
1563
102
}
330
1563
100
AcDbXrecord
280
     1
 91
      483
330
10
 90
        8
 62
     7
370
    -3
331
16
  1
Color_7
  0
DICTIONARY
  5
22AE9
330
22
100
AcDbDictionary
280
     1
281
     1
  3
ADSK_XREC_LAYOUTTHUMBNAIL
360
22AEA
  0
DICTIONARY
  5
22736
330
22735
100
AcDbDictionary
280
     1
281
     1
  3
ACAD_XREC_ROUNDTRIP
360
5275D
  3
BUMPTILE
360
22738
  3
DIFFUSETILE
360
22737
  3
OPACITYTILE
360
2273B
  3
REFLECTIONTILE
360
2273A
  3
REFRACTIONTILE
360
2273C
  3
SPECULARTILE
360
22739
  0
DICTIONARY
  5
2272E
330
2272D
100
AcDbDictionary
280
     1
281
     1
  3
ACAD_XREC_ROUNDTRIP
360
5275C
  3
BUMPTILE
360
22730
  3
DIFFUSETILE
360
2272F
  3
OPACITYTILE
360
22733
  3
REFLECTIONTILE
360
22732
  3
REFRACTIONTILE
360
22734
  3
SPECULARTILE
360
22731
  0
DICTIONARY
  5
2273E
330
2273D
100
AcDbDictionary
280
     1
281
     1
  3
ACAD_XREC_ROUNDTRIP
360
5275E
  3
BUMPTILE
360
22740
  3
DIFFUSETILE
360
2273F
  3
OPACITYTILE
360
22743
  3
REFLECTIONTILE
360
22742
  3
REFRACTIONTILE
360
22744
  3
SPECULARTILE
360
22741
  0
DICTIONARY
  5
52756
330
2276C
100
AcDbDictionary
280
     1
281
     1
  3
ACAD_XREC_ROUNDTRIP
360
52757
  0
DICTIONARY
  5
22803
330
22758
100
AcDbDictionary
280
     1
281
     1
  3
ACAD_ROUNDTRIP_2008_TABLESTYLE_CELLSTYLEMAP
360
52755
  3
ACAD_XREC_ROUNDTRIP
360
5277F
  0
DICTIONARY
  5
52769
330
2274B
100
AcDbDictionary
280
     1
281
     1
  3
ACAD_XREC_ROUNDTRIP
360
5276A
  0
DICTIONARY
  5
5276D
330
2274D
100
AcDbDictionary
280
     1
281
     1
  3
ACAD_XREC_ROUNDTRIP
360
5276E
  0
DICTIONARY
  5
5276B
330
2274C
100
AcDbDictionary
280
     1
281
     1
  3
ACAD_XREC_ROUNDTRIP
360
5276C
  0
DICTIONARY
  5
52767
330
2274A
100
AcDbDictionary
280
     1
281
     1
  3
ACAD_XREC_ROUNDTRIP
360
52768
  0
DICTIONARY
  5
52775
330
22751
100
AcDbDictionary
280
     1
281
     1
  3
ACAD_XREC_ROUNDTRIP
360
52776
  0
DICTIONARY
  5
5277D
330
22755
100
AcDbDictionary
280
     1
281
     1
  3
ACAD_XREC_ROUNDTRIP
360
5277E
  0
DICTIONARY
  5
5276F
330
2274E
100
AcDbDictionary
280
     1
281
     1
  3
ACAD_XREC_ROUNDTRIP
360
52770
  0
DICTIONARY
  5
52773
330
22750
100
AcDbDictionary
280
     1
281
     1
  3
ACAD_XREC_ROUNDTRIP
360
52774
  0
DICTIONARY
  5
52792
330
22A03
100
AcDbDictionary
280
     1
281
     1
  3
ACAD_XREC_ROUNDTRIP
360
52793
  0
DICTIONARY
  5
5277B
330
22754
100
AcDbDictionary
280
     1
281
     1
  3
ACAD_XREC_ROUNDTRIP
360
5277C
  0
DICTIONARY
  5
5275F
330
22746
100
AcDbDictionary
280
     1
281
     1
  3
ACAD_XREC_ROUNDTRIP
360
52760
  0
DICTIONARY
  5
52761
330
22747
100
AcDbDictionary
280
     1
281
     1
  3
ACAD_XREC_ROUNDTRIP
360
52762
  0
DICTIONARY
  5
52763
330
22748
100
AcDbDictionary
280
     1
281
     1
  3
ACAD_XREC_ROUNDTRIP
360
52764
  0
DICTIONARY
  5
52765
330
22749
100
AcDbDictionary
280
     1
281
     1
  3
ACAD_XREC_ROUNDTRIP
360
52766
  0
DICTIONARY
  5
52782
330
229FB
100
AcDbDictionary
280
     1
281
     1
  3
ACAD_XREC_ROUNDTRIP
360
52783
  0
DICTIONARY
  5
5278E
330
22A01
100
AcDbDictionary
280
     1
281
     1
  3
ACAD_XREC_ROUNDTRIP
360
5278F
  0
DICTIONARY
  5
52779
330
22753
100
AcDbDictionary
280
     1
281
     1
  3
ACAD_XREC_ROUNDTRIP
360
5277A
  0
DICTIONARY
  5
52790
330
22A02
100
AcDbDictionary
280
     1
281
     1
  3
ACAD_XREC_ROUNDTRIP
360
52791
  0
DICTIONARY
  5
52771
330
2274F
100
AcDbDictionary
280
     1
281
     1
  3
ACAD_XREC_ROUNDTRIP
360
52772
  0
DICTIONARY
  5
5278C
330
22A00
100
AcDbDictionary
280
     1
281
     1
  3
ACAD_XREC_ROUNDTRIP
360
5278D
  0
DICTIONARY
  5
5278A
330
229FF
100
AcDbDictionary
280
     1
281
     1
  3
ACAD_XREC_ROUNDTRIP
360
5278B
  0
DICTIONARY
  5
52784
330
229FC
100
AcDbDictionary
280
     1
281
     1
  3
ACAD_XREC_ROUNDTRIP
360
52785
  0
DICTIONARY
  5
52786
330
229FD
100
AcDbDictionary
280
     1
281
     1
  3
ACAD_XREC_ROUNDTRIP
360
52787
  0
DICTIONARY
  5
52777
330
22752
100
AcDbDictionary
280
     1
281
     1
  3
ACAD_XREC_ROUNDTRIP
360
52778
  0
DICTIONARY
  5
52780
330
229FA
100
AcDbDictionary
280
     1
281
     1
  3
ACAD_XREC_ROUNDTRIP
360
52781
  0
DICTIONARY
  5
52788
330
229FE
100
AcDbDictionary
280
     1
281
     1
  3
ACAD_XREC_ROUNDTRIP
360
52789
  0
XRECORD
  5
22AEA
102
{ACAD_REACTORS
330
22AE9
102
}
330
22AE9
100
AcDbXrecord
280
     1
310
280000000001000065000000010008000000000000650000000000000000000000010000000000003028210000000000FFFFFF000000000000000000000000000000000000000000000000000000000000000000330000006600000099000000CC000000FF00000000330000333300006633000099330000CC330000FF3300
310
0000660000336600006666000099660000CC660000FF66000000990000339900006699000099990000CC990000FF99000000CC000033CC000066CC000099CC0000CCCC0000FFCC000000FF000033FF000066FF000099FF0000CCFF0000FFFF000000003300330033006600330099003300CC003300FF003300003333003333
310
33006633330099333300CC333300FF33330000663300336633006666330099663300CC663300FF66330000993300339933006699330099993300CC993300FF99330000CC330033CC330066CC330099CC3300CCCC3300FFCC330000FF330033FF330066FF330099FF3300CCFF3300FFFF330000006600330066006600660099
310
006600CC006600FF00660000336600333366006633660099336600CC336600FF33660000666600336666006666660099666600CC666600FF66660000996600339966006699660099996600CC996600FF99660000CC660033CC660066CC660099CC6600CCCC6600FFCC660000FF660033FF660066FF660099FF6600CCFF6600
310
FFFF660000009900330099006600990099009900CC009900FF00990000339900333399006633990099339900CC339900FF33990000669900336699006666990099669900CC669900FF66990000999900339999006699990099999900CC999900FF99990000CC990033CC990066CC990099CC9900CCCC9900FFCC990000FF99
310
0033FF990066FF990099FF9900CCFF9900FFFF99000000CC003300CC006600CC009900CC00CC00CC00FF00CC000033CC003333CC006633CC009933CC00CC33CC00FF33CC000066CC003366CC006666CC009966CC00CC66CC00FF66CC000099CC003399CC006699CC009999CC00CC99CC00FF99CC0000CCCC0033CCCC0066CC
310
CC0099CCCC00CCCCCC00FFCCCC0000FFCC0033FFCC0066FFCC0099FFCC00CCFFCC00FFFFCC000000FF003300FF006600FF009900FF00CC00FF00FF00FF000033FF003333FF006633FF009933FF00CC33FF00FF33FF000066FF003366FF006666FF009966FF00CC66FF00FF66FF000099FF003399FF006699FF009999FF00CC
310
99FF00FF99FF0000CCFF0033CCFF0066CCFF0099CCFF00CCCCFF00FFCCFF0000FFFF0033FFFF0066FFFF0099FFFF00CCFFFF00FFFFFF00000000000D0D0D001A1A1A00282828003535350043434300505050005D5D5D006B6B6B00787878008686860093939300A1A1A100AEAEAE00BBBBBB00C9C9C900D6D6D600E4E4E400
310
F1F1F100FFFFFF000000000000000000000000000000000000000000000000000000000000000000000000000000000000000000000000000000000000000000000000000000000000000000000000000000000000000000000000282800280000000000000000000000000000000000000000000000000000000000000000
310
00000000000000280028002800000000000000000000000000000000000000000000000000000000000000000000000000000028002800280000000000000000000000000000000000000000000000000000000000000000000000000000002800280028000000000000000000000000000000000000000000000000000000
310
00000000000000000000000000000000000000000000000000000000000000000000000000000000000000000000000000000000000000000000000000000000000000000000000000000000000000000000000000000000000000000000282800280000000000000000000000000000000000000000000000000000000000
310
00000000000000000000280028002800000000000000000000000000000000000000000000000000000000000000000000000000000028002800280000000000000000000000000000000000000000000000000000000000000000000000000000002800280028000000000000000000000000000000000000000000000000
310
00000000000000000000000000000000000000000000000000000000000000000000000000000000000000000000000000000000000000000000000000000000000000000000000000000000000000000000000000000000000000000000000000282800280000000000000000000000000000000000000000000000000000
310
00000000000000000000000000280028002800000000000000000000000000000000000000000000000000000000000000000000000000000028002800280000000000000000000000000000000000000000000000000000000000000000000000000000002800280028000000000000000000000000000000000000000000
310
00000000000000000000000000000000000000000000000000000000000000000000000000000000000000000000000000000000000000000000000000000000000000000000000000000000000000000000000000000000000000000000000000000000282800280000000000000000000000000000000000000000000000
310
00000000000000000000000000000000280028002800000000000000000000000000000000000000000000000000000000000000000000000000000028002800280000000000000000000000000000000000000000000000000000000000000000000000000000002800280028000000000000000000000000000000000000
310
000000000000000000000000000000000000000000000000000000000000000000000000000000000000000000000000000000000000000000000000000000000000000000000000000000000000000000000000000000000000000000000000000000000000002828002800000000000000000000000000F5000000000000
310
00000000000000000000000000000000000000280028002800000000000000000000000000000000000000000000000000000000000000000000000000000028002800280000000000000000000000000000000000000000000000F50000000000000000000000000000002800280028000000000000000000000000000000
310
00000000000000000000000000000000000000000000000000000000000000000000000000000000000000000000000000000000000000000000000000000000000000000000000000000000000000000000000000002D2D2D2D282D2D282D2D2D2D2D2D2D2D2D2D2D2D28282D282D2D282D2D2D2D2D2D2D2D2D2D2D2D2D2D
310
2D2D2D2D2D2D2D2D2D2D2D2D2D2D2D2D2D2D2D2D2D2D282D282D282D2D2D2D2D2D2D2D2D2D2D2D2D2D2D2D2D2D2D2D2D2D2D2D2D2D2D2D2D2D2D2D2D2D2D2D2D2D2D282D282D282D2D2D2D2D2D2D2D2D2D2D2D2D2D2D2D2D2D2D2D2D2D2D2D2D2D2D2D2D2D2D2D2D2D2D2D2D2D2D282D282D282D2D2D2D2D2D2D2D2D2D2D2D
310
2D2D2D2D2D2D2D2D2D2D2D2D2D2D2D2D2D2D2D2D2DF52D2D2D2D2D2D2D2D2D2D0000000000000000000000000000000000000000000000000000000000000000000000000000000000000000000000000000000000000000000000002800002828000000000000000000000000000028000028000000002D2D2D2D2D2D2D2D
310
2D2D000000000000000000000000000000000000000000000000000000000000000000000000000000000000000000000000000000000000000000000000000000000000000000000000000000000000000000000000000000002D2D2D2D2D2D2D2D2D2D2D0000000000000000000000000000000000000000000000000000
310
00000000000000000000000000000000000000000000000000000000000000002D2D0000000000000000000000000000000000000000000000000000000000000000000000000000000000000000000000000000000000000000000000002800002800282800000000000000000000000028000028000000002D00000000F5
310
0000002D0000000000000000000000000000000000000000000000000000000000000000000000000000000000000000000000000000000000000000000000000000000000000000000000000000000000000000000000000000002D2D2D2D2D2D2D2D2D2D2D2D000000000000000000000000000000000000000000000000
310
000000000000000000000000000000000000000000000000000000000000000000002D00000000000000000000000000000000000000000000000000000000000000000000000000000000000000000000000000000000000000000000000000280000280000002800000000000000000000002800002800000000002D0000
310
00F500002DF5000000000000000000000000000000000000000000000000000000000000000000000000000000000000000000000000000000000000000000000000000000000000000000000000000000000000000000000000000000002D00000000F50000002D0000000000000000000000000000000000000000000000
310
0000000000000000000000000000000000000000000000000000000000000000000000002D00000000000000000000000000000000000000000000000000000000000000000000000000000000000000000000000000000000000000000000000000280000280000000028000000000000000000002800002800000000002D
310
2D2D2D2D2D2D2D00F50000000000000000000000000000000000000000000000000000000000000000000000000000000000000000000000000000000000000000000000000000000000000000000000000000000000000000000000000000002D00000000F50000002D000000000000000000000000000000000000000000
310
00000000000000000000000000000000000000000000000000000000000000000000000000002D00000000000000000000000000000000000000000000000000000000000000000000000000000000000000000000000000000000000000000000000000280000280000000000282800000000000000002800002800000000
310
00002D0000F5002D0000F50000000000000000000000000000000000000000000000000000000000000000000000000000000000000000000000000000000000000000000000000000000000000000000000000000000000000000000000000000002DF5000000F50000002D00000000000000000000000000000000000000
310
000000000000000000000000000000000000000000000000000000000000000000000000000000002D0000000000000000000000000000000000000000000000000000000000000000000000000000000000000000000000000000000000000000000000000028000028000000000000002800000000000000280000280000
310
000000002D0000F5002D000000F50000000000000000000000000000000000000000000000000000000000000000000000000000000000000000000000000000000000000000000000000000000000000000000000000000000000000000000000000000F52D000000F500002D000000000000000000000000000000000000
310
0000000000000000000000000000000000000000000000000000000000000000000000000000000000002D000000000000000000000000000000000000000000000000000000000000000000000000000000000000000000000000000000000000000000000000002800002800000000000000002800000000000028000028
310
0000000000002D0000F5002D000000F50000000000000000000000000000000000000000000000000000000000000000000000000000000000000000000000000000000000000000000000000000000000000000000000000000000000000000000000000000F52D000000F500002D00000000000000000000000000000000
310
00000000000000000000000000000000000000000000000000000000000000000000000000000000000000002D00000000000000000000000000000000000000000000000000000000000000000000000000000000000000000000000000000000000000000000000000280000280000000000000000002828000000002800
310
00280000000000002D0000F5002D00000000F5000000000000000000000000000000000000000000000000000000000000000000000000000000000000000000000000000000000000000000000000000000000000000000000000000000000000000000000000F5002D2D2D2D2D2D2D2D0000000000000000000000000000
310
000000000000000000000000000000000000000000000000000000000000000000000000000000000000000000002D0000000000000000000000000000000000000000000000000000000000000000000000000000000000000000000000000000000000000000000000000028000028000000000000000000000028000000
310
280000280000000000002D0000F5002D00000000F5F5F5F5F5F5F5F5F5F5F5F5F5F5F5F5F5F5F5F5F5F5F5F5F5F5F5F5F500000000000000000000000000000000000000000000000000000000000000000000000000000000000000000000000000000000000000F50000002D0000F5002D00000000000000000000000000
310
0000000000000000000000000000000000000000000000000000000000000000000000000000000000000000000000002D000000000000000000000000000000000000000000000000000000000000000000000000000000000000000000000000000000000000000000000000002800002800000000000000000000000028
310
0000280000280000000000002D0000F5002D000000000000F500F50000F500F5F500F5F500F5F5F500F500F5F5F5F500F5F50000000000000000000000000000000000000000000000000000000000000000000000000000000000000000000000000000000000000000F50000002D0000F5002D0000000000000000000000
310
00000000000000000000000000000000000000000000000000000000000000000000000000000000000000000000000000002D00000000000000000000000000000000000000000000000000000000000000000000000000000000000000000000000000000000000000000000000000280000280000000000000000000000
310
00002828280000280000000000002D2D2D2D2D2D0000000000F5F500F5F500F5F5F5F500F5F500F500F5F500F5F5F500F500F5F500000000000000000000000000000000000000000000000000F5F5F5F5F5F5F5F5F5F5F5F5F5F5F5F5F5F5F5F5F5F5F5F5F5F5F5F5F5F5F5000000002D0000F5002D000000000000000000
310
00000000000000000000000000000000000000000000000000000000000000000000000000000000000000000000000000282828280000000000000000000000000000000000000000000000000000000000000000000000000000000000000000000000000000000000000000000000000028000028282828282828282828
310
282828282828280000280000000000002D002D2D002D000000000000F5F5000000F5F5000000F500F5F500F5F5F5F5F5F5F5F5F5F5000000000000000000000000000000000000000000000000000000000000000000000000000000000000000000000000000000000000000000000000002D0000F5002D00000000000000
310
0000000000000000000000000000000000000000000000000000000000000000000000000000000000000000000000000000000028282D000000000000000000000000000000000000000000000000000000000000000000000000000000000000000000000000000000000000000000000000002800002800000000000000
310
0000000000000000280000280000000000002D002D2D002D00000000000000000000000000000000000000000000000000000000000000000000000000000000000000000000000000000000000000000000F5F500F5F5F5F500F5F500F5F5F5F5F5F5F5F5F5F500F5F5F5F5F5F5F5F5000000002D0000F5002D0000000000
310
00000000000000000000000000000000000000000000000000000000000000000000000000000000000000000000000000000000000028282D00000000000000000000000000000000000000000000000000000000000000000000000000000000000000000000000000000000000000000000000000280000280000000000
310
00000000000000000000280000280000000000002D002D2D002D00000000000000000000000000000000000000000000000000000000000000000000000000000000000000000000000000000000000000000000F5F500F5F5F5F5F5F5F500F5F5F50000F500F5F5F500F5F5F5F5F500F500000000002D0000F5002D000000
310
00000000000000000000000000000000000000000000000000000000000000000000000000000000000000000000000000000000000000282828280000000000000000000000000000000000000000000000000000000000000000000000000000000000000000000000000000000000000000000000000028000028000000
310
0000000000000000000000002800002800000000002D2D2D2D2D2D2D2D00000000000000000000000000000000000000000000000000000000000000000000000000000000000000000000000000000000000000000000F50000000000000000000000F50000F5F500F5F500F5F500F5F500F500000000002D0000F5002D00
310
00000000000000000000000000000000000000000000000000000000000000000000000000000000000000000000000000000000000000000028282828000000000000000000000000000000000000000000000000000000000000000000000000000000000000000000000000000000000000000000000000002800002800
310
00000000000000000000000000002800002800000000002D2D002D2D002D2D000000000000000000000000000000000000000000000000000000000000000000000000000000000000000000000000000000000000000000000000000000000000000000000000000000000000000000000000000000000000002D2D2D2D2D
310
2D000000000000000000000000000000000000000000000000000000000000000000000000000000000000000000000000000000000000000000002828282800000000000000000000000000000000000000000000000000000000000000000000000000000000000000000000000000000000000000000000000000280000
310
28000000000000000000000000000000280000280000000000002D002D2D002D2D000000000000000000000000000000000000000000000000000000000000000000000000000000000000000000000000000000000000000000000000000000000000000000000000000000000000000000000000000000000000002D002D
310
2D002D00000000000000000000000000000000000000000000000000000000000000000000000000000000000000000000000000000000000000000000282828280000000000000000000000000000000000000000000000000000000000000000000000000000000000000000000000000000000000000000000000000028
310
0000280000000000000000000000000000002800002800000000002D2D002D2D002D2D2D0000000000000000000000000000000000000000000000000000000000000000000000000000000000000000000000000000000000000000000000000000000000000000000000000000000000000000000000000000000000002D
310
002D2D002D000000000000000000000000000000000000000000000000000000000000000000000000000000000000000000000000000000000000000000000028282D000000000000000000000000000000000000000000000000000000000000000000000000000000000000000000000000000000000000000000000000
310
002800002800000000000000000000000000000028000028000000002D2D2D002D2D002D2D2D0000000000000000000000000000000000000000000000000000000000000000000000000000000000000000000000000000000000000000000000000000000000000000000000000000000000000000000000000000000000
310
002D002D2D002D000000000000000000000000000000000000000000000000000000000000000000000000000000000000000000000000000000000000000000000000282D00000000000000000000000000000000000000000000000000000000000000000000000000000000000000000000000000000000000000000000
310
0000002800002800000000000000000000000000000028000028000000002D2D2D002D2D002D002D000000000000000000000000000000000000000000000000000000000000000000000000000000000000000000000000000000000000000000000000000000000000000000000000000000000000000000000000000000
310
0000002D002D2D002D000000000000F5F5F5F5F5F5F5F5F5F5F5F5F5F5F5F5F50000000000000000000000000000000000000000000000000000000000000000000000282828280000000000000000000000000000000000000000000000000000000000000000000000000000000000000000000000000000000000000000
310
000000000028000028000000000000000000000000000000280000280000002D2D2D2D2D2D2D2D2D2D2D2D000000000000000000000000000000000000000000000000000000000000000000000000000000000000000000000000000000000000000000000000000000000000000000000000000000000000000000000000
310
00000000002D002D2D002D000000000000F500F5F500000000F5F5F5F5F5F5000000000000000000000000000000000000000000000000000000000000000000000000000028282828000000000000000000000000000000000000000000000000000000000000000000000000000000000000000000000000000000000000
310
00000000000000280000280000000000000000000000000000002800002D2D2D2D2D2D2D2D2D2D2D2D2D2D2D2D00000000000000000000000000000000000000000000000000000000000000000000000000000000000000000000000000000000000000000000000000000000000000000000000000000000000000000000
310
000000000000002D002D2D002D0000000000F50000F5F5F5F5F500F5F5F5F5F5F5F5000000000000000000000000000000000000000000000000000000000000000000000000002828282800000000000000000000000000000000000000000000000000000000000000000000000000000000000000000000000000000000
310
000000000000000000280000280000000000000000000000000000002800002D2D2D2D2D2D2D000000F500002D2D2D0000000000000000000000000000000000000000000000000000000000000000000000000000000000000000000000000000000000000000000000000000000000000000000000000000000000000000
310
00000000000000002D2D2D2D2D2D2D2D00000000F50000F5F500000000F5F5F5F5F500F500000000000000000000000000000000000000000000000000000000000000000000000000282828280000000000000000000000000000000000000000000000000000000000000000000000000000000000000000000000000000
310
0000000000000000000000280000280000000000000000000000000000002800002D2D2D2D2D00002D0000F5002D00002D000000000000000000000000000000000000000000000000000000000000000000000000000000000000000000000000000000000000000000000000000000000000000000000000000000000000
310
000000000000000000002D2D2D2DF52D002D2D0000F5000000000000000000000000000000000000000000000000000000000000000000000000000000000000000000000000000000000028282828000000000000000000000000000000000000000000000000000000000000000000000000000000000000000000000000
310
00000000000000000000000000280000280000000000000000000000000000002800002D2D2D2D2D0000002D00F52D0000002D00000000000000000000000000000000000000000000000000000000000000000000000000000000000000000000000000000000000000000000000000000000000000000000000000000000
310
0000000000000000002D2D2D2D2D2D2DF52D2D2D2D2D2DF500000000000000000000000000000000000000000000000000000000000000000000000000000000000000000000000000000000000000002D00000000000000000000000000000000000000000000000000000000000000000000000000000000000000000000
310
000000000000000000000000000000280000280000000000000000000000000000002800002D002D2D2D000000002D2D000000002DF500000000000000000000000000000000000000000000000000000000000000000000000000000000000000000000000000000000000000000000000000000000000000000000000000
310
0000000000000000002D2D2D2D2D2D2D2D2DF52D2D2D2D00F52D2D000000000000000000000000000000000000000000000000000000000000000000000000000000000000000000000000000000000000002D0000000000000000000000000000000000000000000000000000000000000000000000000000000000000000
310
0000000000000000000000000000000000280000280000000000000000000000000000002800002D2D002D2D0000002D00F52D0000002DF50000000000000000000000000000000000000000000000000000000000000000000000000000000000000000000000000000000000000000000000000000000000000000000000
310
0000000000000000002D2D2D2D2D2D002D002D2DF52D2D2D002D2D2D2D2D2D00000000000000000000000000000000000000000000000000000000000000000000000000000000000000000000000000000000002D000000000000000000000000000000000000000000000000000000000000000000000000000000000000
310
00000000000000000000000000000000000000280000280000000000000000000000000000002800002D2D2D2D2D00002D0000F5002D00002D00F50000000000000000000000000000000000000000000000000000000000000000000000000000000000000000000000000000000000000000000000000000000000000000
310
000000000000000000002D2D2D2D2D2D2D2D2D2D2D2DF52D2D2D2D2D2D2D2D2D2D2D2D0000000000000000000000000000000000000000000000000000000000000000000000000000000000000000000000000000002D00000000000000000000000000000000000000000000000000000000000000000000000000000000
310
000000000000000000000000000000000000000000280000280000000000000000000000000000002800002D2D2D002D2D2D000000F500002D2D2D0000F500000000000000000000000000000000000000000000000000000000000000002D2D00000000000000000000000000000000000000000000000000000000000000
310
0000000000000000000000002D2D00000000000000000000F50000000000000000002D002D0000000000000000000000000000000000000000000000000000000000000000000000000000000000000000000000000000002D0000000000000000000000000000000000000000000000000000000000000000000000000000
310
0000000000000000000000000000000000000000000000280000280000000000000000000000000000002800002D2D2D2D2D2D2D282D2D2D2D2D2D2D2D2D28F52D2D2D2D2D2D2D2D282D2D2D2D2D2D2D2D2D282D2D2D2D2D2D2D2D2D282D2D2D2D2D2D2D2D2D282D2D2D2D2D2D2D2D2D282D2D2D2D2D2D2D2D2D28282D2D2D
310
2D2D2D2D2D28282D2D2D2D2D2D2D2D28282D2D2D2D2D2D2D2D2DF52D2D2D2D2D2D2D2D28282D2D2D2D2D2D2D2D28282D2D2D2D2D2D2D2D28282D2D2D2D2D2D2D2D28282D2D2D2D2D2D2D2D28282D2D2D2D0000000000000000002D000000000000000000000000000000000000000000000000000000000000000000000000
310
0000000000000000000000000000000000000000000000000028000028000000000000000000000000000000280000280000002D0000280028002828002800002800280028280028000028002800282800280000280028002828002800002800002D2828002800002800280028280028000028282800282800280000282828
310
002828002800002828280028280028000028282800282828282D0000F5002D002828282800282828280028002828002828282800280028280028282828002800282800282828280028002828002828282800000000000000000000002D00000000000000000000000000000000000000000000000000000000000000000000
310
00000000000000000000000000000000000000000000000000000028000028000000000000000000000000000000280000280000002D2800000000000000000028280000F500000000002828000000000000000028280000000000000000282800002D2D000000002828000000000000000028280000000000000000282800
310
00000000F5000028280000000000000000282800000000000000002D000000002D000000002828000000000000000028280000000000000000282800000000000000002828000000000000000028280000000000000000000000000000002D0000000000000000000000000000000000000000000000000000000000000000
310
000000000000000000000000000000000000000000000000000000000028000028000000000000000000000000000000280000280000002D002828002800280000280028280028F5280000280028280028002800002800282800280028000028002828002D2D28000028002828002800280000280028280028002800002800
310
28280028002800F52800282800280028000028002828002800280028282D000000002D282800282800280028282800002828002800282828000028280028002828280000282800280028282800002828002800282828000000000000000000002D000000000000000000000000000000000000000000000000000000000000
310
0000000000000000000000000000000000000000000000000000000000000028000028000000000000000000000000000000280000280000002D000000000000280000000000000000002800000000000000000028000000000000000000280000000000002D2D002800000000000000000028000000000000000000280000
310
000000000000002800F50000000000000028000000000000000000280000002D000000002D282800000000000000002800000000000000000028000000000000000000280000000000000000002800000000000000000028280000000000000000002D2D000000000000000000000000000000000000000000000000000000
310
00000000000000000000000000000000000000000000000000000000000000000028000028000000000000000000000000000000280000282D2D2D2D2D2D2D2D2D2D2D2D2D2D2D2D2D2D2D2DF52D2D2D2D2D2D2D2D2D2D2D2D2D2D2D2D2D2D2D2D2D2D2D2D2D2D2D2D2D2D2D2D2D2D2D2D2D2D2D2D2D2D2D2D2D2D2D2D2D2D
310
2D2D2D2D2D2D2D2D2D2D2D2DF52D2D2D2D2D2D2D2D2D2D2D2D2D2D2D2D2D2D2D2D2D2D2D2D2D2D2D2D2D2D2D2D2D2D2D2D2D2D2D2D2D2D2D2D2D2D2D2D2D2D2D2D2D2D2D2D2D2D2D2D2D2D2D2D2D2D2D2D2D2D2D2D2D2D2D2D2D2DF52D2D2D2D2D2D2D2DF52D00000000000000000000000000000000000000000000000000
310
000000000000000000000000000000000000000000000000000000000000000000000028000028000000000000000000000000000000280000282D0000000000000000000000000000000000000000F50000000000000000000000000000000000000000000000002D2D000000000000000000000000000000000000000000
310
0000000000000000000000000000F500000000000000000000000000000000000000000000000000000000000000000000000000000000000000000000000000000000000000000000000000000000000000000000000000000000000000000000000000000000000000000000000000000000000000000000000000000000
310
0000000000000000000000000000000000000000000000000000000000000000000000000028000028000000000000000000000000000000280000282D000000000000000000000000000000000000000000F5000000000000000000000000000000000000000000002D2D0000000000000000000000000000000000000000
310
0000000000000000000000000000000000F500000000000000000000000000000000000000000000000000000000000000000000000000000000000000000000000000000000000000000000000000000000000000000000000000000000000000000000000000000000000000000000000000000000000000000000000000
310
00000000000000000000000000000000000000000000000000000000000000000000000000000028000028000000000000000000000000000000280000282D282D2D2D2D2D2D2D2D2D2D2D2D2D2D2D2D2D2D2D2DF52D2D2D2D2D2D2D2D2D2D2D2D2D2D2D2D2D2D2D2D2D2D2D2D2D2D2D2D2D2D2D2D2D2D2D2D2D2D2D2D2D2D
310
2D2D2D2D2D2D2D2D2D2DF52D2D2D2D2D2D2D2DF52D2D2D2D2D2D2D2D2D2D2D2D2D2D2D2D2D2D2D2D2D2D2D2D2D2D2D2D2D2D2D2D2D2D2D2D2D2D2D2D2D2D2D2D2D2D2D2D2D2D2D2D2D2D2D2D2D2D2D2D2D2D2D2D2D2D2D2D2D2D2D2D2D2D2D2D2D000000000000000000000000000000000000000000000000000000000000
310
000000000000000000000000000000000000000000000000000000000000000000000000000000000028000028000000000000000000000000000000280000282828000000000000000000000000000000000000000000F500000000000000000000000000000000000000002D2D0000000000000000000000000000000000
310
00000000000000000000000000F50000000000000000F50000000000000000000000000000000000000000000000000000000000000000000000000000000000000000000000000000000000000000000000000000000000000000000000000000000000000000000000000000000000000000000000000000000000000000
310
0000000000000000000000000000000000000000000000000000000000000000000000000000000000000028000028000000000000000000000000000000280000280028000000000000000000000000000000000000000000F500000000000000000000000000000000000000000000000000000000000000000000000000
310
000000000000000000000000000000F5000000000000000000F50000000000000000000000000000000000000000000000000000000000000000000000000000000000000000000000000000000000000000000000000000000000000000000000000000000000000000000000000000000000000000000000000000000000
310
0000000000000000000000000000000000000000000000000000000000000000000000000000000000000000002800002800000000000000000000000000000028000028002800000000000000000000000000000000000000000000F500000000000000000000000000000000000000000000000000000000000000000000
310
000000000000000000000000000000000000F50000000000000000F5000000000000000000000000000000000000000000000000000000000000000000000000000000000000000000000000000000000000000000000000000000000000000000000000000000000000000000000000000000000000000000000000000000
310
0000000000000000000000000000000000000000000000000000000000000000000000000000000000000000000000280000280000000000000000000000000000002800002800280000000000000000000000000000000000000000000000F500000000000000000000000000000000000000000000000000000000000000
310
000000000000000000000000000000000000000000F50000000000000000F5000000000000000000000000000000000000000000000000000000000000000000000000000000000000000000000000000000000000000000000000000000000000000000000000000000000000000000000000000000000000000000000000
310
00000000000000000000000000000000000000000000000000000000000000000000000000000000000000000000000000280000280000000000000000000000000000002800002800280000000000000000000000000000000000000000000000F50000000000000000000000000000000000000000000000000000000000
310
0000000000000000000000000000000000000000000000F50000000000000000F500000000000000000000000000000000000000000000000000000000000000000000000000000000000000000000000000000000000000000000000000000000000000000000000000000000000000000000000000000000000000000000
310
00000000000000000000000000000000000000000000000000000000000000000000000000000000000000000000000000000028000028000000000000000000000000000000280000280028000000000000000000000000000000000000000000000000F5F5F5F5F5F5F5F5F5F5F5F5F5F5F5F5F5F5F5F5F5F5F5F5F5F5F5
310
0000000000000000000000000000000000000000000000000000F50000000000000000F5F5F5F5F5F5F5F5F5F5F5F5F5F5F5F5F5F5F5F5F5F5F5F5F5F5F5F5F5F5F5F5F5F5F5F5F5F5F5F5F5F5F500000000000000000000000000000000000000000000000000000000000000000000000000000000000000000000000000
310
00000000000000000000000000000000000000000000000000000000000000000000000000000000000000000000000000000000002800002800000000000000000000000000000028000028002800000000000000000000000000000000000000000000000000000000000000000000000000000000000000000000000000
310
00000000000000000000000000000000000000000000000000000000F50000000000000000000000000000000000000000000000000000000000000000000000000000000000000000000000000000000000000000000000000000000000000000000000000000000000000000000000000000000000000000000000000000
310
000000000000000000000000000000000000000000000000000000000000000000000000000000000000000000000000000000000000002800002800000000000000000000000000000028000028002800000000000000000000000000000000000000000000000000F5F500F5F5F5F500F5F500F500F5F5F5F5F5F5F5F5F5
310
F5F50000000000000000000000000000000000000000000000000000000000F50000000000000000F500F5000000F500F5F500F5F500F5F5F5F5F5000000F5000000F5F5F5F500F5F500F5F5F5F5F5F5F500000000000000000000000000000000000000000000000000000000000000000000000000000000000000000000
310
0000000000000000000000000000000000000000000000000000000000000000000000000000000000000000000000000000000000000000002800002800000000000000000000000000000028000028002800000000000000000000000000000000000000000000000000F5F5F5F5F5F5F5F500F500F5F500F500F5F5F5F5
310
F5F5F5F5000000000000000000000000000000000000000000000000000000000000F50000000000000000F5F5F5F5F5F5F500F500F5F500F5F5F5F5F5F5F5F5F5F500F5F5F5F5F500F5F500F5F5F5F5F5F5F50000000000000000000000000000000000000000000000000000000000000000000000000000000000000000
310
0000000000000000000000000000000000000000000000000000000000000000000000000000000000000000000000000000000000000000000000280000280000000000000000000000000000002800002800F500000000000000000000000000000000000000000000000000F5F5F5F5F5000000F5F500000000F500F5F5
310
F5F5F500F500000000000000000000000000000000000000000000000000000000000000F50000000000000000F5F5000000000000000000F500000000F5F5000000F5F50000F500000000F5F500F5F50000000000000000000000000000000000000000000000000000000000000000000000000000000000000000000000
310
0000000000000000000000000000000000000000000000000000000000000000000000000000000000000000000000000000000000000000000000000028000028000000000000000000000000000000280000280028F500000000000000000000000000000000000000000000000000000000000000000000000000000000
310
000000000000000000000000000000000000000000000000000000000000000000000000000000F5000000000000000000000000000000000000000000000000000000000000000000000000000000000000000000000000000000000000000000000000000000000000000000000000000000000000000000000000000000
310
00000000000000000000000000000000000000000000000000000000000000000000000000000000000000000000000000000000000000000000000000000028000028282828282828282828282828282828280000282828F50000000000000000000000000000000000000000000000000000000000000000000000000000
310
000000000000000000000000000000000000000000000000000000000000000000000000000000000000F5000000000000000000000000000000000000000000000000000000000000000000000000000000000000000000000000000000000000000000000000000000000000000000000000000000000000000000000000
310
00000000000000000000000000000000000000000000000000000000000000000000000000000000000000000000000000000000000000000000000000000000002800002828280000000000000000000000000028000028282800F50000000000000000000000000000000000000000000000000000000000000000000000
310
0000000000000000000000000000000000000000000000000000000000000000000000000000000000000000F500000000000000000000000000000000000000000000000000000000000000000000000000000000000000000000000000000000000000000000000000000000000000000000000000000000000000000000
310
00000000000000000000000000000000000000000000000000000000000000000000000000000000000000000000000000000000000000000000000000000000000000280000280000280000000000000000000000002800002800280000F50000000000000000000000000000000000000000000000000000000000000000
310
0000000000000000000000000000000000000000000000000000000000000000000000000000000000000000000000F5F5F5F5F5F5F5F5F5F5F5F5F5F5F5F5F5F5F5F5F5F5F5F5F5F5F5F5F5F5F5F5F5F5F5F50000000000000000000000000000000000000000000000000000000000000000000000000000000000000000
310
000000000000000000000000000000000000000000000000000000000000000000000000000000000000000000000000000000000000000000000000000000000000000000280000280000002828000000000000000000002800002800280000F5000000000000000000000000000000000000000000000000000000000000
310
0000000000000000000000000000000000000000000000000000000000000000000000000000000000000000000000000000F500F5F5F5000000F5F500F50000F5000000F5F5000000F500F5F500F5F500F5F50000000000000000000000000000000000000000000000000000000000000000000000000000000000000000
310
000000000000000000000000000000000000000000000000000000000000000000000000000000000000000000000000000000000000000000000000000000000000000000000028000028000000000028000000000000000000280000282828000000F5F5F5F5F5F5F5F5F5F5F5F500000000000000000000000000000000
310
0000000000000000000000000000000000000000000000000000000000000000000000000000000000000000000000000000000000F5F500F5F5F5F5F5F500F5F5F5F5000000F500F5F500F500F5F500F5F500F5F5000000000000000000000000000000000000000000000000000000000000000000000000000000000000
310
00000000000000000000000000000000000000000000000000000000000000000000000000000000000000000000000000000000000000000000000000000000000000000000000000280000280000000000002800000000000000002800002800000000000000F500000000F5000000000000000000000000000000000000
310
000000000000000000000000000000000000000000000000000000000000000000000000000000000000000000000000000000000000F5F5F5F5F5000000F5F500F5F500F5F500F5F5F5F5F500F500F5F500F5F500F5F500000000000000000000000000000000000000000000000000000000000000000000000000000000
310
0000000000000000000000000000000000000000000000000000000000000000000000000000000000000000000000000000000000000000000000000000000000000000000000000000002800002800000000000000282800000000000028000028000000000000F5F5F50000F5F5F5F50000000000000000000000000000
310
00000000000000000000000000000000000000000000000000000000000000000000000000000000000000000000000000000000000000000000000000000000000000000000000000000000000000000000000000000000000000000000000000000000000000000000000000000000000000000000000000000000000000
310
00000000000000000000000000000000000000000000000000000000000000000000000000000000000000000000000000000000000000000000000000000000000000000000000000000000002800002800000000000000000028000000000028000028000000000000F5F5F5000000F5F500000000000000000000000000
310
00000000000000000000000000000000000000000000000000000000000000000000000000000000000000000000000000000000000000000000000000000000000000000000000000000000000000000000000000000000000000000000000000000000000000000000000000000000000000000000000000000000000000
310
00000000000000000000000000000000000000000000000000000000000000000000000000000000000000000000000000000000000000000000000000000000000000000000000000000000000000280000280000000000000000000028280000002800002800000000000000000000000000000000000000000000000000
310
00000000000000000000000000000000000000000000000000000000000000000000000000000000000000000000000000000000000000000000000000000000000000000000000000000000000000000000000000000000000000000000000000000000000000000000000000000000000000000000000000000000000000
310
00000000000000000000000000000000000000000000000000000000000000000000000000000000000000000000000000000000000000000000000000000000000000000000000000000000000000000028000028000000000000000000000000280000280000280000000000000000000000000000000000000000000000
310
00000000000000000000000000000000000000000000000000000000000000000000000000000000000000000000000000000000000000000000000000000000000000000000000000000000000000000000000000000000000000000000000000000000000000000000000000000000000000000000000000000000000000
310
00000000000000000000000000000000000000000000000000000000000000000000000000000000000000000000000000000000000000000000000000000000000000000000000000000000000000000000002800002800000000000000000000000000282828000028000000000000000000000000000000000000000000
310
00000000000000000000000000000000000000000000000000000000000000000000000000000000000000000000000000000000000000000000000000000000000000000000000000000000000000000000000000000000000000000000000000000000000000000000000000000000000000000000000000000000000000
310
00000000000000000000000000000000000000000000000000000000000000000000000000000000000000000000000000000000000000000000000000000000000000000000000000000000000000000000000000280000282828282828282828282828282828282800002800000000000000000000000000000000000000
310
00000000000000000000000000000000000000000000000000000000000000000000000000000000000000000000000000000000000000000000000000000000000000000000000000000000000000000000000000000000000000000000000000000000000000000000000000000000000000000000000000000000000000
310
00000000000000000000000000000000000000000000000000000000000000000000000000000000000000000000000000000000000000000000000000000000000000000000000000000000000000000000000000000028000028000000000000000000000000000000280000280000000000000000000000000000000000
310
00000000000000000000000000000000000000000000000000000000000000000000000000000000000000000000000000000000000000000000000000000000000000000000000000000000000000000000000000000000000000000000000000000000000000000000000000000000000000000000000000000000000000
310
00000000000000000000000000000000000000000000000000000000000000000000000000000000000000000000000000000000000000000000000000000000000000000000000000000000000000000000000000000000002800002800000000000000000000000000000028000028000000000000000000000000000000
310
00000000000000000000000000000000000000000000000000000000000000000000000000000000000000000000000000000000000000000000000000000000000000000000000000000000000000000000000000000000000000000000000000000000000000000000000000000000000000000000000000000000000000
310
00000000000000000000000000000000000000000000000000000000000000000000000000000000000000000000000000000000000000000000000000000000000000000000000000000000000000000000000000000000000000280000280000000000000000000000000000002800002800000000000000000000000000
310
00000000000000000000000000000000000000000000000000000000000000000000000000000000000000000000000000000000000000000000000000000000000000000000000000000000000000000000000000000000000000000000000000000000000000000000000000000000000000000000000000000000000000
310
00000000000000000000000000000000000000000000000000000000000000000000000000000000000000000000000000000000000000000000000000000000000000000000000000000000000000000000000000000000000000000028000028000000000000000000000000000000280000280000000000000000000000
310
00000000000000000000000000000000000000000000000000000000000000000000000000000000000000000000000000000000000000000000000000000000000000000000000000000000000000000000000000000000000000000000000000000000000000000000000000000000000000000000000000000000000000
310
00000000000000000000000000000000000000000000000000000000000000000000000000000000000000000000000000000000000000000000000000000000000000000000000000000000000000000000000000000000000000000000002800002800000000000000000000000000000028000028000000000000000000
310
00000000000000000000000000000000000000000000000000000000000000000000000000000000000000000000000000000000000000000000000000000000000000000000000000000000000000000000000000000000000000000000000000000000000000000000000000000000000000000000000000000000000000
310
00000000000000000000000000000000000000000000000000000000000000000000000000000000000000000000000000000000000000000000000000000000000000000000000000000000000000000000000000000000000000000000000000280000280000000000000000000000000000002800002800000000000000
310
00000000000000000000000000000000000000000000000000000000000000000000000000000000000000000000000000000000000000000000000000000000000000000000000000000000000000000000000000000000000000000000000000000000000000000000000000000000000000000000000000000000000000
310
00000000000000000000000000000000000000000000000000000000000000000000000000000000000000000000000000000000000000000000000000000000000000000000000000000000000000000000000000000000000000000000000000000028000028000000000000000000000000000000280000280000000000
310
00000000000000000000000000000000000000000000000000000000000000000000000000000000000000000000000000000000000000000000000000000000000000000000000000000000000000000000000000000000000000000000000000000000000000000000000000000000000000000000000000000000000000
310
00000000000000000000000000000000000000000000000000000000000000000000000000000000000000000000000000000000000000000000000000000000000000000000000000000000000000000000000000000000000000000000000000000000002800002800000000000000000000000000000028000028000000
310
00000000000000000000000000000000000000000000000000000000000000000000000000000000000000000000000000000000000000000000000000000000000000000000000000000000000000000000000000000000000000000000000000000000000000000000000000000000000000000000000000000000000000
310
00000000000000000000000000000000000000000000000000000000000000000000000000000000000000000000000000000000000000000000000000000000000000000000000000000000000000000000000000000000000000000000000000000000000000280000280000000000000000000000000000002800002800
310
00000000000000000000000000000000000000000000000000000000000000000000000000000000000000000000000000000000000000000000000000000000000000000000000000000000000000000000000000000000000000000000000000000000000000000000000000000000000000000000000000000000000000
310
00000000000000000000000000000000000000000000000000000000000000000000000000000000000000000000000000000000000000000000000000000000000000000000000000000000000000000000000000000000000000000000000000000000000000000028000028000000000000000000000000000000280000
310
28000000000000000000000000000000000000000000000000000000000000000000000000000000000000000000000000000000000000000000000000000000000000000000000000000000000000000000000000000000000000000000000000000000000000000000000000000000000000000000000000000000000000
310
00000000000000000000000000000000000000000000000000000000000000000000000000000000000000000000000000000000000000000000000000000000000000000000000000000000000000000000000000000000000000000000000000000000000000000000002800002800000000000000000000000000000028
310
00002800000000000000000000000000000000000000000000000000000000000000000000000000000000000000000000000000000000000000000000000000000000000000000000000000000000000000000000000000000000000000000000000000000000000000000000000000000000000000000000000000000000
310
00000000000000000000000000000000000000000000000000000000000000000000000000000000000000000000000000000000000000000000000000000000000000000000000000000000000000000000000000000000000000000000000000000000000000000000000000280000280000000000000000000000000000
310
00280000280000000000000000000000000000000000000000000000000000000000000000000000000000000000000000000000000000000000000000000000000000000000000000000000000000000000000000000000000000000000000000000000000000000000000000000000000000000000000000000000000000
310
00000000000000000000000000000000000000000000000000000000000000000000000000000000000000000000000000000000000000000000000000000000000000000000000000000000000000000000000000000000000000000000000000000000000000000000000000000028000028000000000000000000000000
310
00000028000028000000000000000000000000000000000000000000000000000000000000000000000000000000000000000000000000000000000000000000000000000000000000000000000000000000000000000000000000000000000000000000000000000000000000000000000000000000000000000000000000
310
00000000000000000000000000000000000000000000000000000000000000000000000000000000000000000000000000000000000000000000000000000000000000000000000000000000000000000000000000000000000000000000000000000000000000000000000000000000002800002800000000000000000000
310
00000000002800002800000000000000000000000000000000000000000000000000000000000000000000000000000000000000000000000000000000000000000000000000000000000000000000000000000000000000000000000000000000000000000000000000000000000000000000000000000000000000000000
310
00000000000000000000000000000000000000000000000000000000000000000000000000000000000000000000000000000000000000000000000000000000000000000000000000000000000000000000000000000000000000000000000000000000000000000000000000000000000000280000280000000000000000
310
00000000000000280000280000000000000000000000000000000000000000000000000000000000000000000000000000000000000000000000000000000000000000000000000000000000000000000000000000000000000000000000000000000000000000000000000000000000000000000000000000000000000000
310
00000000000000000000000000000000000000000000000000000000000000000000000000000000000000000000000000000000000000000000000000000000000000000000000000000000000000000000000000000000000000000000000000000000000000000000000000000000000000000028000028000000000000
310
00000000000000000028000028000000000000000000000000000000000000000000000000000000000000000000000000000000000000000000000000000000000000000000000000000000000000000000000000000000000000000000000000000000000000000000000000000000000000000000000000000000000000
310
00000000000000000000000000000000000000000000000000000000000000000000000000000000000000000000000000000000000000000000000000000000000000000000000000000000000000000000000000000000000000000000000000000000000000000000000000000000000000000000002800002800000000
310
00000000000000000000002800002800000000000000000000000000000000000000000000000000000000000000000000000000000000000000000000000000000000000000000000000000000000000000000000000000000000000000000000000000000000000000000000000000000000000000000000000000000000
310
00000000000000000000000000000000000000000000000000000000000000000000000000000000000000000000000000000000000000000000000000000000000000000000000000000000000000000000000000000000000000000000000000000000000000000000000000000000000000000000000000280000280000
310
00000000000000000000000000280000280000000000000000000000000000000000000000000000000000000000000000000000000000000000000000000000000000000000000000000000000000000000000000000000000000000000000000000000000000000000000000000000000000000000000000000000000000
310
00000000000000000000000000000000000000000000000000000000000000000000000000000000000000000000000000000000000000000000000000000000000000000000000000000000000000000000000000000000000000000000000000000000000000000000000000000000000000000000000000000000000000
310
00000000000000000000000000000000000000000000000000000000000000000000000000000000000000000000000000000000000000000000000000000000000000000000000000000000000000000000000000000000000000000000000000000000000000000000000000000000000000000000000000000000000000
310
00000000000000000000000000000000000000000000000000000000000000000000000000000000000000000000000000000000000000000000000000000000000000000000000000000000000000000000000000000000000000000000000000000000000000000000000000000000000000000000000000000000000000
310
00000000000000000000000000000000000000000000000000000000000000000000000000000000000000000000000000000000000000000000000000000000000000000000000000000000000000000000000000000000000000000000000000000000000000000000000000000000000000000000000000000000000000
310
00000000000000000000000000000000000000000000000000000000000000000000000000000000000000000000000000000000000000000000000000000000000000000000000000000000000000000000000000000000000000000000000000000000000000000000000000000000000000000000000000000000000000
310
00000000000000000000000000000000000000000000000000000000000000000000000000000000000000000000000000000000000000000000000000000000000000000000000000000000000000000000000000000000000000000000000000000000000000000000000000000000000000000000000000000000000000
310
00000000000000000000000000000000000000000000000000000000000000000000000000000000000000000000000000000000000000000000000000000000000000000000000000000000000000000000000000000000000000000000000000000000000000000000000000000000000000000000000000000000000000
310
00000000000000000000000000000000000000000000000000000000000000000000000000000000000000000000000000000000000000000000000000000000000000000000000000000000000000000000000000000000000000000000000000000000000000000000000000000000000000000000000000000000000000
310
00000000000000000000000000000000000000000000000000000000000000000000000000000000000000000000000000000000000000000000000000000000000000000000000000000000000000000000000000000000000000000000000000000000000000000000000000000000000000000000000000000000000000
310
00000000000000000000000000000000000000000000000000000000000000000000000000000000000000000000000000000000000000000000000000000000000000000000000000000000000000000000000000000000000000000000000000000000000000000000000000000000000000000000000000000000000000
310
00000000000000000000000000000000000000000000000000000000000000000000000000000000000000000000000000000000000000000000000000000000000000000000000000000000000000000000000000000000000000000000000000000000000000000000000000000000000000000000000000000000000000
310
00000000000000000000000000000000000000000000000000000000000000000000000000000000000000000000000000000028282828282800282828280028282800002800000000280000002800002828000000000000000000000000000000000000000000000000000000000000000000000000000000000000000000
310
00000000000000000000000000000000000000000000000000000000000000000000000000000000000000000000000000000000000000000000000000000000000000000000000000000000000000000000000000000000000000000000000000000000000000000000000000000000000000000000000000000000000000
310
00000000000000000000000000000000000000000000000000000000000000000000000000000000000000000000000000000000002800282828280028282828002828280000002800002828000000002800002800000000000000000000000000000000000000000000000000000000000000000000000000000000000000
310
00000000000000000000000000000000000000000000000000000000000000000000000000000000000000000000000000000000000000000000000000000000000000000000000000000000000000000000000000000000000000000000000000000000000000000000000000000000000000000000000000000000000000
310
00000000000000000000000000000000000000000000000000000000000000000000000000000000000000000000000000000000000000280000282828002828282828282828282828280000002800000000280000280000000000000000000000000000000000000000000000000000000000000000000000000000000000
310
00000000000000000000000000000000000000000000000000000000000000000000000000000000000000000000000000000000000000000000000000000000000000000000000000000000000000000000000000000000000000000000000000000000000000000000000000000000000000000000000000000000000000
310
00000000000000000000000000000000000000000000000000000000000000000000000000000000000000000000000000000000000000000028282828282828282828282828282800002828280000002800282828282828000000000000000000000000000000000000000000000000000000000000000000000000000000
310
00000000000000000000000000000000000000000000000000000000000000000000000000000000000000000000000000000000000000000000000000000000000000000000000000000000000000000000000000000000000000000000000000000000000000000000000000000000000000000000000000000000000000
310
00000000000000000000000000000000000000000000000000000000000000000000000000000000000000000000000000000000000000000000000000000028000000002800000028000000000000000000000000000000000000000000000000000000000000000000000000000000000000000000000000000000000000
310
00000000000000000000000000000000000000000000000000000000000000000000000000000000000000000000000000000000000000000000000000000000000000000000000000000000000000000000000000000000000000000000000000000000000000000000000000000000000000000000000000000000000000
310
00000000000000000000000000000000000000000000000000000000000000000000000000000000000000000000000000000000000000000000000000000000000000000000000000000000000000000000002828000028000000000000000000000000000000000000000000000000000000000000000000000000000000
310
00000000000000000000000000000000000000000000000000000000000000000000000000000000000000000000000000000000000000000000000000000000000000000000000000000000000000000000000000000000000000000000000000000000000000000000000000000000000000000000000000000000000000
310
00000000000000000000000000000000000000002828002828000000000000282800280000000000000000000028002800000000282828000028280000282828000028280000000000002800002800000000000028280028002828282828282828000000000000000000000000000000000000000000000000000000000000
310
00000000000000000000000000000000000000000000000000000000000000000000000000000000000000000000000000000000000000000000000000000000000000000000000000000000000000000000000000000000000000000000000000000000000000000000000000000000000000000000000000000000000000
310
00000000000000000000000000000000000000000000280028002828000000000000282828002800280000000000000028280000000028000000282828280028002800002800280028282828280028280028282828002800002828280028282828282800000000000000000000000000000000000000000000000000000000
310
00000000000000000000000000000000000000000000000000000000000000000000000000000000000000000000000000000000000000000000000000000000000000000000000000000000000000000000000000000000000000000000000000000000000000000000000000000000000000000000000000000000000000
310
00000000000000000000000000000000000000000000000028002828282800282828000028000000282800002828282800002828000000002800000028000028002828280000282828000000000028280028000000000028282828002828282828282800280000000000000000000000000000000000000000000000000000
310
00000000000000000000000000000000000000000000000000000000000000000000000000000000000000000000000000000000000000000000000000000000000000000000000000000000000000000000000000000000000000000000000000000000000000000000000000000000000000000000000000000000000000
310
00000000000000000000000000000000000000000000000000002828000028000000000000000028000000002800000000000028282800000000280000000028282800282828000028282800000000002800002800000000000028000000000000000000002828000000000000000000000000000000000000000000000000
310
00000000000000000000000000000000000000000000000000000000000000000000000000000000000000000000000000000000000000000000000000000000000000000000000000000000000000000000000000000000000000000000000000000000000000000000000000000000000000000000000000000000000000
310
00000000000000000000000000000000000000000000000000000000000000000000000000000000000000000000000000000000000000000000000000000000000000000000000000000000000000000000000000000000000000002800000000000000000000000000000000000000000000000000000000000000000000
310
000000000000000000000000000000000000000000000000000000000000000000000000000000000000000000000000000000000000000000000000000000000000000000000000000000000000000000000000000000000000000000000000000000000000000000000000000000000000000000000000000000
  0
XRECORD
  5
5275D
102
{ACAD_REACTORS
330
22736
102
}
330
22736
100
AcDbXrecord
280
     1
102
MATERIAL
148
0.0
149
0.0
149
0.0
 93
        0
 94
      127
282
     0
 72
     0
 77
     0
171
     0
175
     0
179
     0
273
     0
  0
XRECORD
  5
22738
102
{ACAD_REACTORS
330
22736
102
}
330
22736
100
AcDbXrecord
280
     1
270
     1
271
     1
  0
XRECORD
  5
22737
102
{ACAD_REACTORS
330
22736
102
}
330
22736
100
AcDbXrecord
280
     1
270
     1
271
     1
  0
XRECORD
  5
2273B
102
{ACAD_REACTORS
330
22736
102
}
330
22736
100
AcDbXrecord
280
     1
270
     1
271
     1
  0
XRECORD
  5
2273A
102
{ACAD_REACTORS
330
22736
102
}
330
22736
100
AcDbXrecord
280
     1
270
     1
271
     1
  0
XRECORD
  5
2273C
102
{ACAD_REACTORS
330
22736
102
}
330
22736
100
AcDbXrecord
280
     1
270
     1
271
     1
  0
XRECORD
  5
22739
102
{ACAD_REACTORS
330
22736
102
}
330
22736
100
AcDbXrecord
280
     1
270
     1
271
     1
  0
XRECORD
  5
5275C
102
{ACAD_REACTORS
330
2272E
102
}
330
2272E
100
AcDbXrecord
280
     1
102
MATERIAL
148
0.0
149
0.0
149
0.0
 93
        0
 94
      127
282
     0
 72
     0
 77
     0
171
     0
175
     0
179
     0
273
     0
  0
XRECORD
  5
22730
102
{ACAD_REACTORS
330
2272E
102
}
330
2272E
100
AcDbXrecord
280
     1
270
     1
271
     1
  0
XRECORD
  5
2272F
102
{ACAD_REACTORS
330
2272E
102
}
330
2272E
100
AcDbXrecord
280
     1
270
     1
271
     1
  0
XRECORD
  5
22733
102
{ACAD_REACTORS
330
2272E
102
}
330
2272E
100
AcDbXrecord
280
     1
270
     1
271
     1
  0
XRECORD
  5
22732
102
{ACAD_REACTORS
330
2272E
102
}
330
2272E
100
AcDbXrecord
280
     1
270
     1
271
     1
  0
XRECORD
  5
22734
102
{ACAD_REACTORS
330
2272E
102
}
330
2272E
100
AcDbXrecord
280
     1
270
     1
271
     1
  0
XRECORD
  5
22731
102
{ACAD_REACTORS
330
2272E
102
}
330
2272E
100
AcDbXrecord
280
     1
270
     1
271
     1
  0
XRECORD
  5
5275E
102
{ACAD_REACTORS
330
2273E
102
}
330
2273E
100
AcDbXrecord
280
     1
102
MATERIAL
148
0.0
149
0.0
149
0.0
 93
        0
 94
      127
282
     0
 72
     0
 77
     0
171
     0
175
     0
179
     0
273
     0
  0
XRECORD
  5
22740
102
{ACAD_REACTORS
330
2273E
102
}
330
2273E
100
AcDbXrecord
280
     1
270
     1
271
     1
  0
XRECORD
  5
2273F
102
{ACAD_REACTORS
330
2273E
102
}
330
2273E
100
AcDbXrecord
280
     1
270
     1
271
     1
  0
XRECORD
  5
22743
102
{ACAD_REACTORS
330
2273E
102
}
330
2273E
100
AcDbXrecord
280
     1
270
     1
271
     1
  0
XRECORD
  5
22742
102
{ACAD_REACTORS
330
2273E
102
}
330
2273E
100
AcDbXrecord
280
     1
270
     1
271
     1
  0
XRECORD
  5
22744
102
{ACAD_REACTORS
330
2273E
102
}
330
2273E
100
AcDbXrecord
280
     1
270
     1
271
     1
  0
XRECORD
  5
22741
102
{ACAD_REACTORS
330
2273E
102
}
330
2273E
100
AcDbXrecord
280
     1
270
     1
271
     1
  0
XRECORD
  5
52757
102
{ACAD_REACTORS
330
52756
102
}
330
52756
100
AcDbXrecord
280
     1
102
ACAD_ROUNDTRIP_2012_MLEADER_STYLE
298
     1
  0
CELLSTYLEMAP
  5
52755
102
{ACAD_REACTORS
330
22803
102
}
330
22803
100
AcDbCellStyleMap
 90
        3
300
CELLSTYLE
  1
TABLEFORMAT_BEGIN
 90
        5
170
     1
 91
        0
 92
    32768
 62
   257
 93
        1
300
CONTENTFORMAT
  1
CONTENTFORMAT_BEGIN
 90
        0
 91
        0
 92
      512
 93
        0
300

 40
0.0
140
1.0
 94
        5
 62
     0
340
11
144
6.0
309
CONTENTFORMAT_END
171
     1
301
MARGIN
  1
CELLMARGIN_BEGIN
 40
1.5
 40
1.5
 40
1.5
 40
1.5
 40
4.5
 40
4.5
309
CELLMARGIN_END
 94
        6
 95
        1
302
GRIDFORMAT
  1
GRIDFORMAT_BEGIN
 90
        0
 91
        1
 62
     0
 92
       -2
340
0
 93
        0
 40
1.125
309
GRIDFORMAT_END
 95
        2
302
GRIDFORMAT
  1
GRIDFORMAT_BEGIN
 90
        0
 91
        1
 62
     0
 92
       -2
340
0
 93
        0
 40
1.125
309
GRIDFORMAT_END
 95
        4
302
GRIDFORMAT
  1
GRIDFORMAT_BEGIN
 90
        0
 91
        1
 62
     0
 92
       -2
340
0
 93
        0
 40
1.125
309
GRIDFORMAT_END
 95
        8
302
GRIDFORMAT
  1
GRIDFORMAT_BEGIN
 90
        0
 91
        1
 62
     0
 92
       -2
340
0
 93
        0
 40
1.125
309
GRIDFORMAT_END
 95
       16
302
GRIDFORMAT
  1
GRIDFORMAT_BEGIN
 90
        0
 91
        1
 62
     0
 92
       -2
340
0
 93
        0
 40
1.125
309
GRIDFORMAT_END
 95
       32
302
GRIDFORMAT
  1
GRIDFORMAT_BEGIN
 90
        0
 91
        1
 62
     0
 92
       -2
340
0
 93
        0
 40
1.125
309
GRIDFORMAT_END
309
TABLEFORMAT_END
  1
CELLSTYLE_BEGIN
 90
        1
 91
        1
300
_TITLE
309
CELLSTYLE_END
300
CELLSTYLE
  1
TABLEFORMAT_BEGIN
 90
        5
170
     1
 91
        0
 92
        0
 62
   257
 93
        1
300
CONTENTFORMAT
  1
CONTENTFORMAT_BEGIN
 90
        0
 91
        0
 92
      512
 93
        0
300

 40
0.0
140
1.0
 94
        5
 62
     0
340
11
144
4.5
309
CONTENTFORMAT_END
171
     1
301
MARGIN
  1
CELLMARGIN_BEGIN
 40
1.5
 40
1.5
 40
1.5
 40
1.5
 40
4.5
 40
4.5
309
CELLMARGIN_END
 94
        6
 95
        1
302
GRIDFORMAT
  1
GRIDFORMAT_BEGIN
 90
        0
 91
        1
 62
     0
 92
       -2
340
0
 93
        0
 40
1.125
309
GRIDFORMAT_END
 95
        2
302
GRIDFORMAT
  1
GRIDFORMAT_BEGIN
 90
        0
 91
        1
 62
     0
 92
       -2
340
0
 93
        0
 40
1.125
309
GRIDFORMAT_END
 95
        4
302
GRIDFORMAT
  1
GRIDFORMAT_BEGIN
 90
        0
 91
        1
 62
     0
 92
       -2
340
0
 93
        0
 40
1.125
309
GRIDFORMAT_END
 95
        8
302
GRIDFORMAT
  1
GRIDFORMAT_BEGIN
 90
        0
 91
        1
 62
     0
 92
       -2
340
0
 93
        0
 40
1.125
309
GRIDFORMAT_END
 95
       16
302
GRIDFORMAT
  1
GRIDFORMAT_BEGIN
 90
        0
 91
        1
 62
     0
 92
       -2
340
0
 93
        0
 40
1.125
309
GRIDFORMAT_END
 95
       32
302
GRIDFORMAT
  1
GRIDFORMAT_BEGIN
 90
        0
 91
        1
 62
     0
 92
       -2
340
0
 93
        0
 40
1.125
309
GRIDFORMAT_END
309
TABLEFORMAT_END
  1
CELLSTYLE_BEGIN
 90
        2
 91
        1
300
_HEADER
309
CELLSTYLE_END
300
CELLSTYLE
  1
TABLEFORMAT_BEGIN
 90
        5
170
     1
 91
        0
 92
        0
 62
   257
 93
        1
300
CONTENTFORMAT
  1
CONTENTFORMAT_BEGIN
 90
        0
 91
        0
 92
      512
 93
        0
300

 40
0.0
140
1.0
 94
        2
 62
     0
340
11
144
4.5
309
CONTENTFORMAT_END
171
     1
301
MARGIN
  1
CELLMARGIN_BEGIN
 40
1.5
 40
1.5
 40
1.5
 40
1.5
 40
4.5
 40
4.5
309
CELLMARGIN_END
 94
        6
 95
        1
302
GRIDFORMAT
  1
GRIDFORMAT_BEGIN
 90
        0
 91
        1
 62
     0
 92
       -2
340
0
 93
        0
 40
1.125
309
GRIDFORMAT_END
 95
        2
302
GRIDFORMAT
  1
GRIDFORMAT_BEGIN
 90
        0
 91
        1
 62
     0
 92
       -2
340
0
 93
        0
 40
1.125
309
GRIDFORMAT_END
 95
        4
302
GRIDFORMAT
  1
GRIDFORMAT_BEGIN
 90
        0
 91
        1
 62
     0
 92
       -2
340
0
 93
        0
 40
1.125
309
GRIDFORMAT_END
 95
        8
302
GRIDFORMAT
  1
GRIDFORMAT_BEGIN
 90
        0
 91
        1
 62
     0
 92
       -2
340
0
 93
        0
 40
1.125
309
GRIDFORMAT_END
 95
       16
302
GRIDFORMAT
  1
GRIDFORMAT_BEGIN
 90
        0
 91
        1
 62
     0
 92
       -2
340
0
 93
        0
 40
1.125
309
GRIDFORMAT_END
 95
       32
302
GRIDFORMAT
  1
GRIDFORMAT_BEGIN
 90
        0
 91
        1
 62
     0
 92
       -2
340
0
 93
        0
 40
1.125
309
GRIDFORMAT_END
309
TABLEFORMAT_END
  1
CELLSTYLE_BEGIN
 90
        3
 91
        2
300
_DATA
309
CELLSTYLE_END
  0
XRECORD
  5
5277F
102
{ACAD_REACTORS
330
22803
102
}
330
22803
100
AcDbXrecord
280
     1
102
ACAD_ROUNDTRIP_PRE2007_TABLESTYLE
 90
      512
 91
        0
  1

 92
      512
 93
        0
  2

 94
      512
 95
        0
  3

  0
XRECORD
  5
5276A
102
{ACAD_REACTORS
330
52769
102
}
330
52769
100
AcDbXrecord
280
     1
102
RTVSPropertyOp0
 70
     1
102
RTVSPropertyOp1
 70
     1
102
RTVSPropertyOp2
 70
     1
102
RTVSPropertyOp3
 70
     1
102
RTVSPropertyOp4
 70
     1
102
RTVSPropertyOp5
 70
     1
102
RTVSPropertyOp6
 70
     1
102
RTVSPropertyOp7
 70
     1
102
RTVSPropertyOp8
 70
     1
102
RTVSPropertyOp9
 70
     1
102
RTVSPropertyOp10
 70
     1
102
RTVSPropertyOp11
 70
     1
102
RTVSPropertyOp12
 70
     1
102
RTVSPropertyOp13
 70
     1
102
RTVSPropertyOp14
 70
     1
102
RTVSPropertyOp15
 70
     1
102
RTVSPropertyOp16
 70
     1
102
RTVSPropertyOp17
 70
     1
102
RTVSPropertyOp18
 70
     1
102
RTVSPropertyOp19
 70
     1
102
RTVSPropertyOp20
 70
     1
102
RTVSPropertyOp21
 70
     1
102
RTVSPropertyOp22
 70
     1
102
RTVSPropertyOp23
 70
     1
102
RTVSPropertyOp24
 70
     1
102
RTVSPropertyOp25
 70
     1
102
RTVSPropertyOp26
 70
     1
102
RTVSPropertyOp27
 70
     1
102
RTVSPropertyOp28
 70
     1
102
RTVSPropertyOp29
 70
     1
102
RTVSPropertyOp30
 70
     1
102
RTVSPropertyOp31
 70
     1
102
RTVSPropertyOp32
 70
     1
  0
XRECORD
  5
5276E
102
{ACAD_REACTORS
330
5276D
102
}
330
5276D
100
AcDbXrecord
280
     1
102
RTVSPropertyOp0
 70
     1
102
RTVSPropertyOp1
 70
     1
102
RTVSPropertyOp2
 70
     1
102
RTVSPropertyOp3
 70
     1
102
RTVSPropertyOp4
 70
     1
102
RTVSPropertyOp5
 70
     1
102
RTVSPropertyOp6
 70
     1
102
RTVSPropertyOp7
 70
     1
102
RTVSPropertyOp8
 70
     1
102
RTVSPropertyOp9
 70
     1
102
RTVSPropertyOp10
 70
     1
102
RTVSPropertyOp11
 70
     1
102
RTVSPropertyOp12
 70
     1
102
RTVSPropertyOp13
 70
     1
102
RTVSPropertyOp14
 70
     1
102
RTVSPropertyOp15
 70
     1
102
RTVSPropertyOp16
 70
     1
102
RTVSPropertyOp17
 70
     1
102
RTVSPropertyOp18
 70
     1
102
RTVSPropertyOp19
 70
     1
102
RTVSPropertyOp20
 70
     1
102
RTVSPropertyOp21
 70
     1
102
RTVSPropertyOp22
 70
     1
102
RTVSPropertyOp23
 70
     1
102
RTVSPropertyOp24
 70
     1
102
RTVSPropertyOp25
 70
     1
102
RTVSPropertyOp26
 70
     1
102
RTVSPropertyOp27
 70
     1
102
RTVSPropertyOp28
 70
     1
102
RTVSPropertyOp29
 70
     1
102
RTVSPropertyOp30
 70
     1
102
RTVSPropertyOp31
 70
     1
102
RTVSPropertyOp32
 70
     1
  0
XRECORD
  5
5276C
102
{ACAD_REACTORS
330
5276B
102
}
330
5276B
100
AcDbXrecord
280
     1
102
RTVSPropertyOp0
 70
     1
102
RTVSPropertyOp1
 70
     1
102
RTVSPropertyOp2
 70
     1
102
RTVSPropertyOp3
 70
     1
102
RTVSPropertyOp4
 70
     1
102
RTVSPropertyOp5
 70
     1
102
RTVSPropertyOp6
 70
     1
102
RTVSPropertyOp7
 70
     1
102
RTVSPropertyOp8
 70
     1
102
RTVSPropertyOp9
 70
     1
102
RTVSPropertyOp10
 70
     1
102
RTVSPropertyOp11
 70
     1
102
RTVSPropertyOp12
 70
     1
102
RTVSPropertyOp13
 70
     1
102
RTVSPropertyOp14
 70
     1
102
RTVSPropertyOp15
 70
     1
102
RTVSPropertyOp16
 70
     1
102
RTVSPropertyOp17
 70
     1
102
RTVSPropertyOp18
 70
     1
102
RTVSPropertyOp19
 70
     1
102
RTVSPropertyOp20
 70
     1
102
RTVSPropertyOp21
 70
     1
102
RTVSPropertyOp22
 70
     1
102
RTVSPropertyOp23
 70
     1
102
RTVSPropertyOp24
 70
     1
102
RTVSPropertyOp25
 70
     1
102
RTVSPropertyOp26
 70
     1
102
RTVSPropertyOp27
 70
     1
102
RTVSPropertyOp28
 70
     1
102
RTVSPropertyOp29
 70
     1
102
RTVSPropertyOp30
 70
     1
102
RTVSPropertyOp31
 70
     1
102
RTVSPropertyOp32
 70
     1
  0
XRECORD
  5
52768
102
{ACAD_REACTORS
330
52767
102
}
330
52767
100
AcDbXrecord
280
     1
102
RTVSPropertyOp0
 70
     1
102
RTVSPropertyOp1
 70
     1
102
RTVSPropertyOp2
 70
     1
102
RTVSPropertyOp3
 70
     1
102
RTVSPropertyOp4
 70
     1
102
RTVSPropertyOp5
 70
     1
102
RTVSPropertyOp6
 70
     1
102
RTVSPropertyOp7
 70
     1
102
RTVSPropertyOp8
 70
     1
102
RTVSPropertyOp9
 70
     1
102
RTVSPropertyOp10
 70
     1
102
RTVSPropertyOp11
 70
     1
102
RTVSPropertyOp12
 70
     1
102
RTVSPropertyOp13
 70
     1
102
RTVSPropertyOp14
 70
     1
102
RTVSPropertyOp15
 70
     1
102
RTVSPropertyOp16
 70
     1
102
RTVSPropertyOp17
 70
     1
102
RTVSPropertyOp18
 70
     1
102
RTVSPropertyOp19
 70
     1
102
RTVSPropertyOp20
 70
     1
102
RTVSPropertyOp21
 70
     1
102
RTVSPropertyOp22
 70
     1
102
RTVSPropertyOp23
 70
     1
102
RTVSPropertyOp24
 70
     1
102
RTVSPropertyOp25
 70
     1
102
RTVSPropertyOp26
 70
     1
102
RTVSPropertyOp27
 70
     1
102
RTVSPropertyOp28
 70
     1
102
RTVSPropertyOp29
 70
     1
102
RTVSPropertyOp30
 70
     1
102
RTVSPropertyOp31
 70
     1
102
RTVSPropertyOp32
 70
     1
  0
XRECORD
  5
52776
102
{ACAD_REACTORS
330
52775
102
}
330
52775
100
AcDbXrecord
280
     1
102
RTVSPropertyOp0
 70
     1
102
RTVSPropertyOp1
 70
     1
102
RTVSPropertyOp2
 70
     1
102
RTVSPropertyOp3
 70
     1
102
RTVSPropertyOp4
 70
     1
102
RTVSPropertyOp5
 70
     1
102
RTVSPropertyOp6
 70
     1
102
RTVSPropertyOp7
 70
     1
102
RTVSPropertyOp8
 70
     1
102
RTVSPropertyOp9
 70
     1
102
RTVSPropertyOp10
 70
     1
102
RTVSPropertyOp11
 70
     1
102
RTVSPropertyOp12
 70
     1
102
RTVSPropertyOp13
 70
     1
102
RTVSPropertyOp14
 70
     1
102
RTVSPropertyOp15
 70
     1
102
RTVSPropertyOp16
 70
     1
102
RTVSPropertyOp17
 70
     1
102
RTVSPropertyOp18
 70
     1
102
RTVSPropertyOp19
 70
     1
102
RTVSPropertyOp20
 70
     1
102
RTVSPropertyOp21
 70
     1
102
RTVSPropertyOp22
 70
     1
102
RTVSPropertyOp23
 70
     1
102
RTVSPropertyOp24
 70
     1
102
RTVSPropertyOp25
 70
     1
102
RTVSPropertyOp26
 70
     1
102
RTVSPropertyOp27
 70
     1
102
RTVSPropertyOp28
 70
     1
102
RTVSPropertyOp29
 70
     1
102
RTVSPropertyOp30
 70
     1
102
RTVSPropertyOp31
 70
     1
102
RTVSPropertyOp32
 70
     1
  0
XRECORD
  5
5277E
102
{ACAD_REACTORS
330
5277D
102
}
330
5277D
100
AcDbXrecord
280
     1
102
RTVSPropertyOp0
 70
     1
102
RTVSPropertyOp1
 70
     1
102
RTVSPropertyOp2
 70
     1
102
RTVSPropertyOp3
 70
     1
102
RTVSPropertyOp4
 70
     1
102
RTVSPropertyOp5
 70
     1
102
RTVSPropertyOp6
 70
     1
102
RTVSPropertyOp7
 70
     1
102
RTVSPropertyOp8
 70
     1
102
RTVSPropertyOp9
 70
     1
102
RTVSPropertyOp10
 70
     1
102
RTVSPropertyOp11
 70
     1
102
RTVSPropertyOp12
 70
     1
102
RTVSPropertyOp13
 70
     1
102
RTVSPropertyOp14
 70
     1
102
RTVSPropertyOp15
 70
     1
102
RTVSPropertyOp16
 70
     1
102
RTVSPropertyOp17
 70
     1
102
RTVSPropertyOp18
 70
     1
102
RTVSPropertyOp19
 70
     1
102
RTVSPropertyOp20
 70
     1
102
RTVSPropertyOp21
 70
     1
102
RTVSPropertyOp22
 70
     1
102
RTVSPropertyOp23
 70
     1
102
RTVSPropertyOp24
 70
     1
102
RTVSPropertyOp25
 70
     1
102
RTVSPropertyOp26
 70
     1
102
RTVSPropertyOp27
 70
     1
102
RTVSPropertyOp28
 70
     1
102
RTVSPropertyOp29
 70
     1
102
RTVSPropertyOp30
 70
     1
102
RTVSPropertyOp31
 70
     1
102
RTVSPropertyOp32
 70
     1
  0
XRECORD
  5
52770
102
{ACAD_REACTORS
330
5276F
102
}
330
5276F
100
AcDbXrecord
280
     1
102
RTVSPropertyOp0
 70
     1
102
RTVSPropertyOp1
 70
     1
102
RTVSPropertyOp2
 70
     1
102
RTVSPropertyOp3
 70
     1
102
RTVSPropertyOp4
 70
     1
102
RTVSPropertyOp5
 70
     1
102
RTVSPropertyOp6
 70
     1
102
RTVSPropertyOp7
 70
     1
102
RTVSPropertyOp8
 70
     1
102
RTVSPropertyOp9
 70
     1
102
RTVSPropertyOp10
 70
     1
102
RTVSPropertyOp11
 70
     1
102
RTVSPropertyOp12
 70
     1
102
RTVSPropertyOp13
 70
     1
102
RTVSPropertyOp14
 70
     1
102
RTVSPropertyOp15
 70
     1
102
RTVSPropertyOp16
 70
     1
102
RTVSPropertyOp17
 70
     1
102
RTVSPropertyOp18
 70
     1
102
RTVSPropertyOp19
 70
     1
102
RTVSPropertyOp20
 70
     1
102
RTVSPropertyOp21
 70
     1
102
RTVSPropertyOp22
 70
     1
102
RTVSPropertyOp23
 70
     1
102
RTVSPropertyOp24
 70
     1
102
RTVSPropertyOp25
 70
     1
102
RTVSPropertyOp26
 70
     1
102
RTVSPropertyOp27
 70
     1
102
RTVSPropertyOp28
 70
     1
102
RTVSPropertyOp29
 70
     1
102
RTVSPropertyOp30
 70
     1
102
RTVSPropertyOp31
 70
     1
102
RTVSPropertyOp32
 70
     1
  0
XRECORD
  5
52774
102
{ACAD_REACTORS
330
52773
102
}
330
52773
100
AcDbXrecord
280
     1
102
RTVSPropertyOp0
 70
     1
102
RTVSPropertyOp1
 70
     1
102
RTVSPropertyOp2
 70
     1
102
RTVSPropertyOp3
 70
     1
102
RTVSPropertyOp4
 70
     1
102
RTVSPropertyOp5
 70
     1
102
RTVSPropertyOp6
 70
     1
102
RTVSPropertyOp7
 70
     1
102
RTVSPropertyOp8
 70
     1
102
RTVSPropertyOp9
 70
     1
102
RTVSPropertyOp10
 70
     1
102
RTVSPropertyOp11
 70
     1
102
RTVSPropertyOp12
 70
     1
102
RTVSPropertyOp13
 70
     1
102
RTVSPropertyOp14
 70
     1
102
RTVSPropertyOp15
 70
     1
102
RTVSPropertyOp16
 70
     1
102
RTVSPropertyOp17
 70
     1
102
RTVSPropertyOp18
 70
     1
102
RTVSPropertyOp19
 70
     1
102
RTVSPropertyOp20
 70
     1
102
RTVSPropertyOp21
 70
     1
102
RTVSPropertyOp22
 70
     1
102
RTVSPropertyOp23
 70
     1
102
RTVSPropertyOp24
 70
     1
102
RTVSPropertyOp25
 70
     1
102
RTVSPropertyOp26
 70
     1
102
RTVSPropertyOp27
 70
     1
102
RTVSPropertyOp28
 70
     1
102
RTVSPropertyOp29
 70
     1
102
RTVSPropertyOp30
 70
     1
102
RTVSPropertyOp31
 70
     1
102
RTVSPropertyOp32
 70
     1
  0
XRECORD
  5
52793
102
{ACAD_REACTORS
330
52792
102
}
330
52792
100
AcDbXrecord
280
     1
102
RTVSPropertyOp0
 70
     0
102
RTVSPropertyOp1
 70
     0
102
RTVSPropertyOp2
 70
     0
102
RTVSPropertyOp3
 70
     0
102
RTVSPropertyOp4
 70
     0
102
RTVSPropertyOp5
 70
     0
102
RTVSPropertyOp6
 70
     0
102
RTVSPropertyOp7
 70
     0
102
RTVSPropertyOp8
 70
     0
102
RTVSPropertyOp9
 70
     0
102
RTVSPropertyOp10
 70
     0
102
RTVSPropertyOp11
 70
     0
102
RTVSPropertyOp12
 70
     0
102
RTVSPropertyOp13
 70
     0
102
RTVSPropertyOp14
 70
     2
102
RTVSPropertyOp15
 70
     0
102
RTVSPropertyOp16
 70
     0
102
RTVSPropertyOp17
 70
     0
102
RTVSPropertyOp18
 70
     0
102
RTVSPropertyOp19
 70
     0
102
RTVSPropertyOp20
 70
     0
102
RTVSPropertyOp21
 70
     0
102
RTVSPropertyOp22
 70
     0
102
RTVSPropertyOp23
 70
     0
102
RTVSPropertyOp24
 70
     0
102
RTVSPropertyOp25
 70
     0
102
RTVSPropertyOp26
 70
     0
102
RTVSPropertyOp27
 70
     0
102
RTVSPropertyOp28
 70
     1
102
RTVSPropertyOp29
 70
     1
102
RTVSPropertyOp30
 70
     1
102
RTVSPropertyOp31
 70
     1
102
RTVSPropertyOp32
 70
     1
  0
XRECORD
  5
5277C
102
{ACAD_REACTORS
330
5277B
102
}
330
5277B
100
AcDbXrecord
280
     1
102
RTVSPropertyOp0
 70
     1
102
RTVSPropertyOp1
 70
     1
102
RTVSPropertyOp2
 70
     1
102
RTVSPropertyOp3
 70
     1
102
RTVSPropertyOp4
 70
     1
102
RTVSPropertyOp5
 70
     1
102
RTVSPropertyOp6
 70
     1
102
RTVSPropertyOp7
 70
     1
102
RTVSPropertyOp8
 70
     1
102
RTVSPropertyOp9
 70
     1
102
RTVSPropertyOp10
 70
     1
102
RTVSPropertyOp11
 70
     1
102
RTVSPropertyOp12
 70
     1
102
RTVSPropertyOp13
 70
     1
102
RTVSPropertyOp14
 70
     1
102
RTVSPropertyOp15
 70
     1
102
RTVSPropertyOp16
 70
     1
102
RTVSPropertyOp17
 70
     1
102
RTVSPropertyOp18
 70
     1
102
RTVSPropertyOp19
 70
     1
102
RTVSPropertyOp20
 70
     1
102
RTVSPropertyOp21
 70
     1
102
RTVSPropertyOp22
 70
     1
102
RTVSPropertyOp23
 70
     1
102
RTVSPropertyOp24
 70
     1
102
RTVSPropertyOp25
 70
     1
102
RTVSPropertyOp26
 70
     1
102
RTVSPropertyOp27
 70
     1
102
RTVSPropertyOp28
 70
     1
102
RTVSPropertyOp29
 70
     1
102
RTVSPropertyOp30
 70
     1
102
RTVSPropertyOp31
 70
     1
102
RTVSPropertyOp32
 70
     1
  0
XRECORD
  5
52760
102
{ACAD_REACTORS
330
5275F
102
}
330
5275F
100
AcDbXrecord
280
     1
102
RTVSPropertyOp0
 70
     1
102
RTVSPropertyOp1
 70
     1
102
RTVSPropertyOp2
 70
     1
102
RTVSPropertyOp3
 70
     1
102
RTVSPropertyOp4
 70
     1
102
RTVSPropertyOp5
 70
     1
102
RTVSPropertyOp6
 70
     1
102
RTVSPropertyOp7
 70
     1
102
RTVSPropertyOp8
 70
     1
102
RTVSPropertyOp9
 70
     1
102
RTVSPropertyOp10
 70
     1
102
RTVSPropertyOp11
 70
     1
102
RTVSPropertyOp12
 70
     1
102
RTVSPropertyOp13
 70
     1
102
RTVSPropertyOp14
 70
     1
102
RTVSPropertyOp15
 70
     1
102
RTVSPropertyOp16
 70
     1
102
RTVSPropertyOp17
 70
     1
102
RTVSPropertyOp18
 70
     1
102
RTVSPropertyOp19
 70
     1
102
RTVSPropertyOp20
 70
     1
102
RTVSPropertyOp21
 70
     1
102
RTVSPropertyOp22
 70
     1
102
RTVSPropertyOp23
 70
     1
102
RTVSPropertyOp24
 70
     1
102
RTVSPropertyOp25
 70
     1
102
RTVSPropertyOp26
 70
     1
102
RTVSPropertyOp27
 70
     1
102
RTVSPropertyOp28
 70
     1
102
RTVSPropertyOp29
 70
     1
102
RTVSPropertyOp30
 70
     1
102
RTVSPropertyOp31
 70
     1
102
RTVSPropertyOp32
 70
     1
  0
XRECORD
  5
52762
102
{ACAD_REACTORS
330
52761
102
}
330
52761
100
AcDbXrecord
280
     1
102
RTVSPropertyOp0
 70
     1
102
RTVSPropertyOp1
 70
     1
102
RTVSPropertyOp2
 70
     1
102
RTVSPropertyOp3
 70
     1
102
RTVSPropertyOp4
 70
     1
102
RTVSPropertyOp5
 70
     1
102
RTVSPropertyOp6
 70
     1
102
RTVSPropertyOp7
 70
     1
102
RTVSPropertyOp8
 70
     1
102
RTVSPropertyOp9
 70
     1
102
RTVSPropertyOp10
 70
     1
102
RTVSPropertyOp11
 70
     1
102
RTVSPropertyOp12
 70
     1
102
RTVSPropertyOp13
 70
     1
102
RTVSPropertyOp14
 70
     1
102
RTVSPropertyOp15
 70
     1
102
RTVSPropertyOp16
 70
     1
102
RTVSPropertyOp17
 70
     1
102
RTVSPropertyOp18
 70
     1
102
RTVSPropertyOp19
 70
     1
102
RTVSPropertyOp20
 70
     1
102
RTVSPropertyOp21
 70
     1
102
RTVSPropertyOp22
 70
     1
102
RTVSPropertyOp23
 70
     1
102
RTVSPropertyOp24
 70
     1
102
RTVSPropertyOp25
 70
     1
102
RTVSPropertyOp26
 70
     1
102
RTVSPropertyOp27
 70
     1
102
RTVSPropertyOp28
 70
     1
102
RTVSPropertyOp29
 70
     1
102
RTVSPropertyOp30
 70
     1
102
RTVSPropertyOp31
 70
     1
102
RTVSPropertyOp32
 70
     1
  0
XRECORD
  5
52764
102
{ACAD_REACTORS
330
52763
102
}
330
52763
100
AcDbXrecord
280
     1
102
RTVSPropertyOp0
 70
     1
102
RTVSPropertyOp1
 70
     1
102
RTVSPropertyOp2
 70
     1
102
RTVSPropertyOp3
 70
     1
102
RTVSPropertyOp4
 70
     1
102
RTVSPropertyOp5
 70
     1
102
RTVSPropertyOp6
 70
     1
102
RTVSPropertyOp7
 70
     1
102
RTVSPropertyOp8
 70
     1
102
RTVSPropertyOp9
 70
     1
102
RTVSPropertyOp10
 70
     1
102
RTVSPropertyOp11
 70
     1
102
RTVSPropertyOp12
 70
     1
102
RTVSPropertyOp13
 70
     1
102
RTVSPropertyOp14
 70
     1
102
RTVSPropertyOp15
 70
     1
102
RTVSPropertyOp16
 70
     1
102
RTVSPropertyOp17
 70
     1
102
RTVSPropertyOp18
 70
     1
102
RTVSPropertyOp19
 70
     1
102
RTVSPropertyOp20
 70
     1
102
RTVSPropertyOp21
 70
     1
102
RTVSPropertyOp22
 70
     1
102
RTVSPropertyOp23
 70
     1
102
RTVSPropertyOp24
 70
     1
102
RTVSPropertyOp25
 70
     1
102
RTVSPropertyOp26
 70
     1
102
RTVSPropertyOp27
 70
     1
102
RTVSPropertyOp28
 70
     1
102
RTVSPropertyOp29
 70
     1
102
RTVSPropertyOp30
 70
     1
102
RTVSPropertyOp31
 70
     1
102
RTVSPropertyOp32
 70
     1
  0
XRECORD
  5
52766
102
{ACAD_REACTORS
330
52765
102
}
330
52765
100
AcDbXrecord
280
     1
102
RTVSPropertyOp0
 70
     1
102
RTVSPropertyOp1
 70
     1
102
RTVSPropertyOp2
 70
     1
102
RTVSPropertyOp3
 70
     1
102
RTVSPropertyOp4
 70
     1
102
RTVSPropertyOp5
 70
     1
102
RTVSPropertyOp6
 70
     1
102
RTVSPropertyOp7
 70
     1
102
RTVSPropertyOp8
 70
     1
102
RTVSPropertyOp9
 70
     1
102
RTVSPropertyOp10
 70
     1
102
RTVSPropertyOp11
 70
     1
102
RTVSPropertyOp12
 70
     1
102
RTVSPropertyOp13
 70
     1
102
RTVSPropertyOp14
 70
     1
102
RTVSPropertyOp15
 70
     1
102
RTVSPropertyOp16
 70
     1
102
RTVSPropertyOp17
 70
     1
102
RTVSPropertyOp18
 70
     1
102
RTVSPropertyOp19
 70
     1
102
RTVSPropertyOp20
 70
     1
102
RTVSPropertyOp21
 70
     1
102
RTVSPropertyOp22
 70
     1
102
RTVSPropertyOp23
 70
     1
102
RTVSPropertyOp24
 70
     1
102
RTVSPropertyOp25
 70
     1
102
RTVSPropertyOp26
 70
     1
102
RTVSPropertyOp27
 70
     1
102
RTVSPropertyOp28
 70
     1
102
RTVSPropertyOp29
 70
     1
102
RTVSPropertyOp30
 70
     1
102
RTVSPropertyOp31
 70
     1
102
RTVSPropertyOp32
 70
     1
  0
XRECORD
  5
52783
102
{ACAD_REACTORS
330
52782
102
}
330
52782
100
AcDbXrecord
280
     1
102
RTVSPropertyOp0
 70
     1
102
RTVSPropertyOp1
 70
     1
102
RTVSPropertyOp2
 70
     1
102
RTVSPropertyOp3
 70
     1
102
RTVSPropertyOp4
 70
     1
102
RTVSPropertyOp5
 70
     1
102
RTVSPropertyOp6
 70
     1
102
RTVSPropertyOp7
 70
     1
102
RTVSPropertyOp8
 70
     1
102
RTVSPropertyOp9
 70
     1
102
RTVSPropertyOp10
 70
     1
102
RTVSPropertyOp11
 70
     1
102
RTVSPropertyOp12
 70
     1
102
RTVSPropertyOp13
 70
     1
102
RTVSPropertyOp14
 70
     1
102
RTVSPropertyOp15
 70
     1
102
RTVSPropertyOp16
 70
     1
102
RTVSPropertyOp17
 70
     1
102
RTVSPropertyOp18
 70
     1
102
RTVSPropertyOp19
 70
     1
102
RTVSPropertyOp20
 70
     1
102
RTVSPropertyOp21
 70
     1
102
RTVSPropertyOp22
 70
     1
102
RTVSPropertyOp23
 70
     1
102
RTVSPropertyOp24
 70
     1
102
RTVSPropertyOp25
 70
     1
102
RTVSPropertyOp26
 70
     1
102
RTVSPropertyOp27
 70
     1
102
RTVSPropertyOp28
 70
     1
102
RTVSPropertyOp29
 70
     1
102
RTVSPropertyOp30
 70
     1
102
RTVSPropertyOp31
 70
     1
102
RTVSPropertyOp32
 70
     1
  0
XRECORD
  5
5278F
102
{ACAD_REACTORS
330
5278E
102
}
330
5278E
100
AcDbXrecord
280
     1
102
RTVSPropertyOp0
 70
     0
102
RTVSPropertyOp1
 70
     0
102
RTVSPropertyOp2
 70
     0
102
RTVSPropertyOp3
 70
     0
102
RTVSPropertyOp4
 70
     0
102
RTVSPropertyOp5
 70
     0
102
RTVSPropertyOp6
 70
     0
102
RTVSPropertyOp7
 70
     0
102
RTVSPropertyOp8
 70
     0
102
RTVSPropertyOp9
 70
     0
102
RTVSPropertyOp10
 70
     0
102
RTVSPropertyOp11
 70
     0
102
RTVSPropertyOp12
 70
     0
102
RTVSPropertyOp13
 70
     0
102
RTVSPropertyOp14
 70
     2
102
RTVSPropertyOp15
 70
     0
102
RTVSPropertyOp16
 70
     0
102
RTVSPropertyOp17
 70
     0
102
RTVSPropertyOp18
 70
     0
102
RTVSPropertyOp19
 70
     0
102
RTVSPropertyOp20
 70
     0
102
RTVSPropertyOp21
 70
     0
102
RTVSPropertyOp22
 70
     0
102
RTVSPropertyOp23
 70
     0
102
RTVSPropertyOp24
 70
     0
102
RTVSPropertyOp25
 70
     0
102
RTVSPropertyOp26
 70
     0
102
RTVSPropertyOp27
 70
     0
102
RTVSPropertyOp28
 70
     1
102
RTVSPropertyOp29
 70
     1
102
RTVSPropertyOp30
 70
     1
102
RTVSPropertyOp31
 70
     1
102
RTVSPropertyOp32
 70
     1
  0
XRECORD
  5
5277A
102
{ACAD_REACTORS
330
52779
102
}
330
52779
100
AcDbXrecord
280
     1
102
RTVSPropertyOp0
 70
     1
102
RTVSPropertyOp1
 70
     1
102
RTVSPropertyOp2
 70
     1
102
RTVSPropertyOp3
 70
     1
102
RTVSPropertyOp4
 70
     1
102
RTVSPropertyOp5
 70
     1
102
RTVSPropertyOp6
 70
     1
102
RTVSPropertyOp7
 70
     1
102
RTVSPropertyOp8
 70
     1
102
RTVSPropertyOp9
 70
     1
102
RTVSPropertyOp10
 70
     1
102
RTVSPropertyOp11
 70
     1
102
RTVSPropertyOp12
 70
     1
102
RTVSPropertyOp13
 70
     1
102
RTVSPropertyOp14
 70
     1
102
RTVSPropertyOp15
 70
     1
102
RTVSPropertyOp16
 70
     1
102
RTVSPropertyOp17
 70
     1
102
RTVSPropertyOp18
 70
     1
102
RTVSPropertyOp19
 70
     1
102
RTVSPropertyOp20
 70
     1
102
RTVSPropertyOp21
 70
     1
102
RTVSPropertyOp22
 70
     1
102
RTVSPropertyOp23
 70
     1
102
RTVSPropertyOp24
 70
     1
102
RTVSPropertyOp25
 70
     1
102
RTVSPropertyOp26
 70
     1
102
RTVSPropertyOp27
 70
     1
102
RTVSPropertyOp28
 70
     1
102
RTVSPropertyOp29
 70
     1
102
RTVSPropertyOp30
 70
     1
102
RTVSPropertyOp31
 70
     1
102
RTVSPropertyOp32
 70
     1
  0
XRECORD
  5
52791
102
{ACAD_REACTORS
330
52790
102
}
330
52790
100
AcDbXrecord
280
     1
102
RTVSPropertyOp0
 70
     0
102
RTVSPropertyOp1
 70
     0
102
RTVSPropertyOp2
 70
     0
102
RTVSPropertyOp3
 70
     0
102
RTVSPropertyOp4
 70
     0
102
RTVSPropertyOp5
 70
     0
102
RTVSPropertyOp6
 70
     0
102
RTVSPropertyOp7
 70
     0
102
RTVSPropertyOp8
 70
     0
102
RTVSPropertyOp9
 70
     0
102
RTVSPropertyOp10
 70
     0
102
RTVSPropertyOp11
 70
     0
102
RTVSPropertyOp12
 70
     0
102
RTVSPropertyOp13
 70
     0
102
RTVSPropertyOp14
 70
     2
102
RTVSPropertyOp15
 70
     0
102
RTVSPropertyOp16
 70
     0
102
RTVSPropertyOp17
 70
     0
102
RTVSPropertyOp18
 70
     0
102
RTVSPropertyOp19
 70
     0
102
RTVSPropertyOp20
 70
     0
102
RTVSPropertyOp21
 70
     0
102
RTVSPropertyOp22
 70
     0
102
RTVSPropertyOp23
 70
     0
102
RTVSPropertyOp24
 70
     0
102
RTVSPropertyOp25
 70
     0
102
RTVSPropertyOp26
 70
     0
102
RTVSPropertyOp27
 70
     0
102
RTVSPropertyOp28
 70
     1
102
RTVSPropertyOp29
 70
     1
102
RTVSPropertyOp30
 70
     1
102
RTVSPropertyOp31
 70
     1
102
RTVSPropertyOp32
 70
     1
  0
XRECORD
  5
52772
102
{ACAD_REACTORS
330
52771
102
}
330
52771
100
AcDbXrecord
280
     1
102
RTVSPropertyOp0
 70
     1
102
RTVSPropertyOp1
 70
     1
102
RTVSPropertyOp2
 70
     1
102
RTVSPropertyOp3
 70
     1
102
RTVSPropertyOp4
 70
     1
102
RTVSPropertyOp5
 70
     1
102
RTVSPropertyOp6
 70
     1
102
RTVSPropertyOp7
 70
     1
102
RTVSPropertyOp8
 70
     1
102
RTVSPropertyOp9
 70
     1
102
RTVSPropertyOp10
 70
     1
102
RTVSPropertyOp11
 70
     1
102
RTVSPropertyOp12
 70
     1
102
RTVSPropertyOp13
 70
     1
102
RTVSPropertyOp14
 70
     1
102
RTVSPropertyOp15
 70
     1
102
RTVSPropertyOp16
 70
     1
102
RTVSPropertyOp17
 70
     1
102
RTVSPropertyOp18
 70
     1
102
RTVSPropertyOp19
 70
     1
102
RTVSPropertyOp20
 70
     1
102
RTVSPropertyOp21
 70
     1
102
RTVSPropertyOp22
 70
     1
102
RTVSPropertyOp23
 70
     1
102
RTVSPropertyOp24
 70
     1
102
RTVSPropertyOp25
 70
     1
102
RTVSPropertyOp26
 70
     1
102
RTVSPropertyOp27
 70
     1
102
RTVSPropertyOp28
 70
     1
102
RTVSPropertyOp29
 70
     1
102
RTVSPropertyOp30
 70
     1
102
RTVSPropertyOp31
 70
     1
102
RTVSPropertyOp32
 70
     1
  0
XRECORD
  5
5278D
102
{ACAD_REACTORS
330
5278C
102
}
330
5278C
100
AcDbXrecord
280
     1
102
RTVSPropertyOp0
 70
     1
102
RTVSPropertyOp1
 70
     1
102
RTVSPropertyOp2
 70
     1
102
RTVSPropertyOp3
 70
     1
102
RTVSPropertyOp4
 70
     1
102
RTVSPropertyOp5
 70
     1
102
RTVSPropertyOp6
 70
     1
102
RTVSPropertyOp7
 70
     1
102
RTVSPropertyOp8
 70
     1
102
RTVSPropertyOp9
 70
     1
102
RTVSPropertyOp10
 70
     1
102
RTVSPropertyOp11
 70
     1
102
RTVSPropertyOp12
 70
     1
102
RTVSPropertyOp13
 70
     1
102
RTVSPropertyOp14
 70
     1
102
RTVSPropertyOp15
 70
     1
102
RTVSPropertyOp16
 70
     1
102
RTVSPropertyOp17
 70
     1
102
RTVSPropertyOp18
 70
     1
102
RTVSPropertyOp19
 70
     1
102
RTVSPropertyOp20
 70
     1
102
RTVSPropertyOp21
 70
     1
102
RTVSPropertyOp22
 70
     1
102
RTVSPropertyOp23
 70
     1
102
RTVSPropertyOp24
 70
     1
102
RTVSPropertyOp25
 70
     1
102
RTVSPropertyOp26
 70
     1
102
RTVSPropertyOp27
 70
     1
102
RTVSPropertyOp28
 70
     1
102
RTVSPropertyOp29
 70
     1
102
RTVSPropertyOp30
 70
     1
102
RTVSPropertyOp31
 70
     1
102
RTVSPropertyOp32
 70
     1
  0
XRECORD
  5
5278B
102
{ACAD_REACTORS
330
5278A
102
}
330
5278A
100
AcDbXrecord
280
     1
102
RTVSPropertyOp0
 70
     1
102
RTVSPropertyOp1
 70
     1
102
RTVSPropertyOp2
 70
     1
102
RTVSPropertyOp3
 70
     1
102
RTVSPropertyOp4
 70
     1
102
RTVSPropertyOp5
 70
     1
102
RTVSPropertyOp6
 70
     1
102
RTVSPropertyOp7
 70
     1
102
RTVSPropertyOp8
 70
     1
102
RTVSPropertyOp9
 70
     1
102
RTVSPropertyOp10
 70
     1
102
RTVSPropertyOp11
 70
     1
102
RTVSPropertyOp12
 70
     1
102
RTVSPropertyOp13
 70
     1
102
RTVSPropertyOp14
 70
     1
102
RTVSPropertyOp15
 70
     1
102
RTVSPropertyOp16
 70
     1
102
RTVSPropertyOp17
 70
     1
102
RTVSPropertyOp18
 70
     1
102
RTVSPropertyOp19
 70
     1
102
RTVSPropertyOp20
 70
     1
102
RTVSPropertyOp21
 70
     1
102
RTVSPropertyOp22
 70
     1
102
RTVSPropertyOp23
 70
     1
102
RTVSPropertyOp24
 70
     1
102
RTVSPropertyOp25
 70
     1
102
RTVSPropertyOp26
 70
     1
102
RTVSPropertyOp27
 70
     1
102
RTVSPropertyOp28
 70
     1
102
RTVSPropertyOp29
 70
     1
102
RTVSPropertyOp30
 70
     1
102
RTVSPropertyOp31
 70
     1
102
RTVSPropertyOp32
 70
     1
  0
XRECORD
  5
52785
102
{ACAD_REACTORS
330
52784
102
}
330
52784
100
AcDbXrecord
280
     1
102
RTVSPropertyOp0
 70
     1
102
RTVSPropertyOp1
 70
     1
102
RTVSPropertyOp2
 70
     1
102
RTVSPropertyOp3
 70
     1
102
RTVSPropertyOp4
 70
     1
102
RTVSPropertyOp5
 70
     1
102
RTVSPropertyOp6
 70
     1
102
RTVSPropertyOp7
 70
     1
102
RTVSPropertyOp8
 70
     1
102
RTVSPropertyOp9
 70
     1
102
RTVSPropertyOp10
 70
     1
102
RTVSPropertyOp11
 70
     1
102
RTVSPropertyOp12
 70
     1
102
RTVSPropertyOp13
 70
     1
102
RTVSPropertyOp14
 70
     1
102
RTVSPropertyOp15
 70
     1
102
RTVSPropertyOp16
 70
     1
102
RTVSPropertyOp17
 70
     1
102
RTVSPropertyOp18
 70
     1
102
RTVSPropertyOp19
 70
     1
102
RTVSPropertyOp20
 70
     1
102
RTVSPropertyOp21
 70
     1
102
RTVSPropertyOp22
 70
     1
102
RTVSPropertyOp23
 70
     1
102
RTVSPropertyOp24
 70
     1
102
RTVSPropertyOp25
 70
     1
102
RTVSPropertyOp26
 70
     1
102
RTVSPropertyOp27
 70
     1
102
RTVSPropertyOp28
 70
     1
102
RTVSPropertyOp29
 70
     1
102
RTVSPropertyOp30
 70
     1
102
RTVSPropertyOp31
 70
     1
102
RTVSPropertyOp32
 70
     1
  0
XRECORD
  5
52787
102
{ACAD_REACTORS
330
52786
102
}
330
52786
100
AcDbXrecord
280
     1
102
RTVSPropertyOp0
 70
     1
102
RTVSPropertyOp1
 70
     1
102
RTVSPropertyOp2
 70
     1
102
RTVSPropertyOp3
 70
     1
102
RTVSPropertyOp4
 70
     1
102
RTVSPropertyOp5
 70
     1
102
RTVSPropertyOp6
 70
     1
102
RTVSPropertyOp7
 70
     1
102
RTVSPropertyOp8
 70
     1
102
RTVSPropertyOp9
 70
     1
102
RTVSPropertyOp10
 70
     1
102
RTVSPropertyOp11
 70
     1
102
RTVSPropertyOp12
 70
     1
102
RTVSPropertyOp13
 70
     1
102
RTVSPropertyOp14
 70
     1
102
RTVSPropertyOp15
 70
     1
102
RTVSPropertyOp16
 70
     1
102
RTVSPropertyOp17
 70
     1
102
RTVSPropertyOp18
 70
     1
102
RTVSPropertyOp19
 70
     1
102
RTVSPropertyOp20
 70
     1
102
RTVSPropertyOp21
 70
     1
102
RTVSPropertyOp22
 70
     1
102
RTVSPropertyOp23
 70
     1
102
RTVSPropertyOp24
 70
     1
102
RTVSPropertyOp25
 70
     1
102
RTVSPropertyOp26
 70
     1
102
RTVSPropertyOp27
 70
     1
102
RTVSPropertyOp28
 70
     1
102
RTVSPropertyOp29
 70
     1
102
RTVSPropertyOp30
 70
     1
102
RTVSPropertyOp31
 70
     1
102
RTVSPropertyOp32
 70
     1
  0
XRECORD
  5
52778
102
{ACAD_REACTORS
330
52777
102
}
330
52777
100
AcDbXrecord
280
     1
102
RTVSPropertyOp0
 70
     1
102
RTVSPropertyOp1
 70
     1
102
RTVSPropertyOp2
 70
     1
102
RTVSPropertyOp3
 70
     1
102
RTVSPropertyOp4
 70
     1
102
RTVSPropertyOp5
 70
     1
102
RTVSPropertyOp6
 70
     1
102
RTVSPropertyOp7
 70
     1
102
RTVSPropertyOp8
 70
     1
102
RTVSPropertyOp9
 70
     1
102
RTVSPropertyOp10
 70
     1
102
RTVSPropertyOp11
 70
     1
102
RTVSPropertyOp12
 70
     1
102
RTVSPropertyOp13
 70
     1
102
RTVSPropertyOp14
 70
     1
102
RTVSPropertyOp15
 70
     1
102
RTVSPropertyOp16
 70
     1
102
RTVSPropertyOp17
 70
     1
102
RTVSPropertyOp18
 70
     1
102
RTVSPropertyOp19
 70
     1
102
RTVSPropertyOp20
 70
     1
102
RTVSPropertyOp21
 70
     1
102
RTVSPropertyOp22
 70
     1
102
RTVSPropertyOp23
 70
     1
102
RTVSPropertyOp24
 70
     1
102
RTVSPropertyOp25
 70
     1
102
RTVSPropertyOp26
 70
     1
102
RTVSPropertyOp27
 70
     1
102
RTVSPropertyOp28
 70
     1
102
RTVSPropertyOp29
 70
     1
102
RTVSPropertyOp30
 70
     1
102
RTVSPropertyOp31
 70
     1
102
RTVSPropertyOp32
 70
     1
  0
XRECORD
  5
52781
102
{ACAD_REACTORS
330
52780
102
}
330
52780
100
AcDbXrecord
280
     1
102
RTVSPropertyOp0
 70
     1
102
RTVSPropertyOp1
 70
     1
102
RTVSPropertyOp2
 70
     1
102
RTVSPropertyOp3
 70
     1
102
RTVSPropertyOp4
 70
     1
102
RTVSPropertyOp5
 70
     1
102
RTVSPropertyOp6
 70
     1
102
RTVSPropertyOp7
 70
     1
102
RTVSPropertyOp8
 70
     1
102
RTVSPropertyOp9
 70
     1
102
RTVSPropertyOp10
 70
     1
102
RTVSPropertyOp11
 70
     1
102
RTVSPropertyOp12
 70
     1
102
RTVSPropertyOp13
 70
     1
102
RTVSPropertyOp14
 70
     1
102
RTVSPropertyOp15
 70
     1
102
RTVSPropertyOp16
 70
     1
102
RTVSPropertyOp17
 70
     1
102
RTVSPropertyOp18
 70
     1
102
RTVSPropertyOp19
 70
     1
102
RTVSPropertyOp20
 70
     1
102
RTVSPropertyOp21
 70
     1
102
RTVSPropertyOp22
 70
     1
102
RTVSPropertyOp23
 70
     1
102
RTVSPropertyOp24
 70
     1
102
RTVSPropertyOp25
 70
     1
102
RTVSPropertyOp26
 70
     1
102
RTVSPropertyOp27
 70
     1
102
RTVSPropertyOp28
 70
     1
102
RTVSPropertyOp29
 70
     1
102
RTVSPropertyOp30
 70
     1
102
RTVSPropertyOp31
 70
     1
102
RTVSPropertyOp32
 70
     1
  0
XRECORD
  5
52789
102
{ACAD_REACTORS
330
52788
102
}
330
52788
100
AcDbXrecord
280
     1
102
RTVSPropertyOp0
 70
     1
102
RTVSPropertyOp1
 70
     1
102
RTVSPropertyOp2
 70
     1
102
RTVSPropertyOp3
 70
     1
102
RTVSPropertyOp4
 70
     1
102
RTVSPropertyOp5
 70
     1
102
RTVSPropertyOp6
 70
     1
102
RTVSPropertyOp7
 70
     1
102
RTVSPropertyOp8
 70
     1
102
RTVSPropertyOp9
 70
     1
102
RTVSPropertyOp10
 70
     1
102
RTVSPropertyOp11
 70
     1
102
RTVSPropertyOp12
 70
     1
102
RTVSPropertyOp13
 70
     1
102
RTVSPropertyOp14
 70
     1
102
RTVSPropertyOp15
 70
     1
102
RTVSPropertyOp16
 70
     1
102
RTVSPropertyOp17
 70
     1
102
RTVSPropertyOp18
 70
     1
102
RTVSPropertyOp19
 70
     1
102
RTVSPropertyOp20
 70
     1
102
RTVSPropertyOp21
 70
     1
102
RTVSPropertyOp22
 70
     1
102
RTVSPropertyOp23
 70
     1
102
RTVSPropertyOp24
 70
     1
102
RTVSPropertyOp25
 70
     1
102
RTVSPropertyOp26
 70
     1
102
RTVSPropertyOp27
 70
     1
102
RTVSPropertyOp28
 70
     1
102
RTVSPropertyOp29
 70
     1
102
RTVSPropertyOp30
 70
     1
102
RTVSPropertyOp31
 70
     1
102
RTVSPropertyOp32
 70
     1
  0
ENDSEC
  0
EOF
