  0
SECTION
  2
HEADER
  9
$ACADVER
  1
AC1018
  9
$ACADMAINTVER
 70
   104
  9
$DWGCODEPAGE
  3
ANSI_932
  9
$LASTSAVEDBY
  1
HON1000CV
  9
$INSBASE
 10
0.0
 20
0.0
 30
0.0
  9
$EXTMIN
 10
-1459.605617585445
 20
3454.783404165617
 30
0.0
  9
$EXTMAX
 10
-668.6025376315329
 20
3857.538356758403
 30
0.0
  9
$LIMMIN
 10
0.0
 20
0.0
  9
$LIMMAX
 10
841.0
 20
594.0
  9
$ORTHOMODE
 70
     0
  9
$REGENMODE
 70
     1
  9
$FILLMODE
 70
     1
  9
$QTEXTMODE
 70
     0
  9
$MIRRTEXT
 70
     1
  9
$LTSCALE
 40
1.0
  9
$ATTMODE
 70
     1
  9
$TEXTSIZE
 40
2.5
  9
$TRACEWID
 40
1.0
  9
$TEXTSTYLE
  7
Standard
  9
$CLAYER
  8
0
  9
$CELTYPE
  6
ByLayer
  9
$CECOLOR
 62
   256
  9
$CELTSCALE
 40
1.0
  9
$DISPSILH
 70
     0
  9
$DIMSCALE
 40
1.0
  9
$DIMASZ
 40
4.5
  9
$DIMEXO
 40
0.0
  9
$DIMDLI
 40
0.38
  9
$DIMRND
 40
0.0
  9
$DIMDLE
 40
0.0
  9
$DIMEXE
 40
0.0
  9
$DIMTP
 40
0.0
  9
$DIMTM
 40
0.0
  9
$DIMTXT
 40
9.0
  9
$DIMCEN
 40
0.09
  9
$DIMTSZ
 40
0.0
  9
$DIMTOL
 70
     0
  9
$DIMLIM
 70
     0
  9
$DIMTIH
 70
     0
  9
$DIMTOH
 70
     1
  9
$DIMSE1
 70
     0
  9
$DIMSE2
 70
     0
  9
$DIMTAD
 70
     1
  9
$DIMZIN
 70
     0
  9
$DIMBLK
  1
Small
  9
$DIMASO
 70
     1
  9
$DIMSHO
 70
     1
  9
$DIMPOST
  1

  9
$DIMAPOST
  1

  9
$DIMALT
 70
     0
  9
$DIMALTD
 70
     2
  9
$DIMALTF
 40
25.4
  9
$DIMLFAC
 40
1.0
  9
$DIMTOFL
 70
     0
  9
$DIMTVP
 40
0.0
  9
$DIMTIX
 70
     1
  9
$DIMSOXD
 70
     0
  9
$DIMSAH
 70
     0
  9
$DIMBLK1
  1

  9
$DIMBLK2
  1

  9
$DIMSTYLE
  2
AutoCAD
  9
$DIMCLRD
 70
     4
  9
$DIMCLRE
 70
     4
  9
$DIMCLRT
 70
     3
  9
$DIMTFAC
 40
1.0
  9
$DIMGAP
 40
3.0
  9
$DIMJUST
 70
     0
  9
$DIMSD1
 70
     0
  9
$DIMSD2
 70
     0
  9
$DIMTOLJ
 70
     1
  9
$DIMTZIN
 70
     0
  9
$DIMALTZ
 70
     0
  9
$DIMALTTZ
 70
     0
  9
$DIMUPT
 70
     0
  9
$DIMDEC
 70
     0
  9
$DIMTDEC
 70
     0
  9
$DIMALTU
 70
     2
  9
$DIMALTTD
 70
     2
  9
$DIMTXSTY
  7
ACAD
  9
$DIMAUNIT
 70
     0
  9
$DIMADEC
 70
     0
  9
$DIMALTRND
 40
0.0
  9
$DIMAZIN
 70
     0
  9
$DIMDSEP
 70
    46
  9
$DIMATFIT
 70
     0
  9
$DIMFRAC
 70
     0
  9
$DIMLDRBLK
  1
None
  9
$DIMLUNIT
 70
     2
  9
$DIMLWD
 70
    -2
  9
$DIMLWE
 70
    -2
  9
$DIMTMOVE
 70
     0
  9
$LUNITS
 70
     2
  9
$LUPREC
 70
     2
  9
$SKETCHINC
 40
1.0
  9
$FILLETRAD
 40
0.0
  9
$AUNITS
 70
     0
  9
$AUPREC
 70
     2
  9
$MENU
  1
.
  9
$ELEVATION
 40
0.0
  9
$PELEVATION
 40
0.0
  9
$THICKNESS
 40
0.0
  9
$LIMCHECK
 70
     0
  9
$CHAMFERA
 40
10.0
  9
$CHAMFERB
 40
10.0
  9
$CHAMFERC
 40
20.0
  9
$CHAMFERD
 40
0.0
  9
$SKPOLY
 70
     0
  9
$TDCREATE
 40
2455748.681291193
  9
$TDUCREATE
 40
2455748.306291193
  9
$TDUPDATE
 40
2455961.472465649
  9
$TDUUPDATE
 40
2455961.097465649
  9
$TDINDWG
 40
0.0410497685
  9
$TDUSRTIMER
 40
0.0410497685
  9
$USRTIMER
 70
     1
  9
$ANGBASE
 50
0.0
  9
$ANGDIR
 70
     0
  9
$PDMODE
 70
     0
  9
$PDSIZE
 40
10.0
  9
$PLINEWID
 40
0.0
  9
$SPLFRAME
 70
     0
  9
$SPLINETYPE
 70
     6
  9
$SPLINESEGS
 70
     8
  9
$HANDSEED
  5
528E0
  9
$SURFTAB1
 70
     6
  9
$SURFTAB2
 70
     6
  9
$SURFTYPE
 70
     6
  9
$SURFU
 70
     6
  9
$SURFV
 70
     6
  9
$UCSBASE
  2

  9
$UCSNAME
  2

  9
$UCSORG
 10
0.0
 20
0.0
 30
0.0
  9
$UCSXDIR
 10
1.0
 20
0.0
 30
0.0
  9
$UCSYDIR
 10
0.0
 20
1.0
 30
0.0
  9
$UCSORTHOREF
  2

  9
$UCSORTHOVIEW
 70
     0
  9
$UCSORGTOP
 10
0.0
 20
0.0
 30
0.0
  9
$UCSORGBOTTOM
 10
0.0
 20
0.0
 30
0.0
  9
$UCSORGLEFT
 10
0.0
 20
0.0
 30
0.0
  9
$UCSORGRIGHT
 10
0.0
 20
0.0
 30
0.0
  9
$UCSORGFRONT
 10
0.0
 20
0.0
 30
0.0
  9
$UCSORGBACK
 10
0.0
 20
0.0
 30
0.0
  9
$PUCSBASE
  2

  9
$PUCSNAME
  2

  9
$PUCSORG
 10
0.0
 20
0.0
 30
0.0
  9
$PUCSXDIR
 10
1.0
 20
0.0
 30
0.0
  9
$PUCSYDIR
 10
0.0
 20
1.0
 30
0.0
  9
$PUCSORTHOREF
  2

  9
$PUCSORTHOVIEW
 70
     0
  9
$PUCSORGTOP
 10
0.0
 20
0.0
 30
0.0
  9
$PUCSORGBOTTOM
 10
0.0
 20
0.0
 30
0.0
  9
$PUCSORGLEFT
 10
0.0
 20
0.0
 30
0.0
  9
$PUCSORGRIGHT
 10
0.0
 20
0.0
 30
0.0
  9
$PUCSORGFRONT
 10
0.0
 20
0.0
 30
0.0
  9
$PUCSORGBACK
 10
0.0
 20
0.0
 30
0.0
  9
$USERI1
 70
     0
  9
$USERI2
 70
     0
  9
$USERI3
 70
     0
  9
$USERI4
 70
     0
  9
$USERI5
 70
     0
  9
$USERR1
 40
0.0
  9
$USERR2
 40
0.0
  9
$USERR3
 40
0.0
  9
$USERR4
 40
0.0
  9
$USERR5
 40
0.0
  9
$WORLDVIEW
 70
     1
  9
$SHADEDGE
 70
     3
  9
$SHADEDIF
 70
    70
  9
$TILEMODE
 70
     1
  9
$MAXACTVP
 70
    48
  9
$PINSBASE
 10
0.0
 20
0.0
 30
0.0
  9
$PLIMCHECK
 70
     0
  9
$PEXTMIN
 10
0.0
 20
0.0
 30
0.0
  9
$PEXTMAX
 10
0.0
 20
0.0
 30
0.0
  9
$PLIMMIN
 10
0.0
 20
0.0
  9
$PLIMMAX
 10
12.0
 20
9.0
  9
$UNITMODE
 70
     0
  9
$VISRETAIN
 70
     1
  9
$PLINEGEN
 70
     0
  9
$PSLTSCALE
 70
     1
  9
$TREEDEPTH
 70
  3020
  9
$CMLSTYLE
  2
Standard
  9
$CMLJUST
 70
     1
  9
$CMLSCALE
 40
3.5
  9
$PROXYGRAPHICS
 70
     1
  9
$MEASUREMENT
 70
     1
  9
$CELWEIGHT
370
    -1
  9
$ENDCAPS
280
     0
  9
$JOINSTYLE
280
     0
  9
$LWDISPLAY
290
     0
  9
$INSUNITS
 70
     4
  9
$HYPERLINKBASE
  1

  9
$STYLESHEET
  1
monochrome.ctb
  9
$XEDIT
290
     1
  9
$CEPSNTYPE
380
     0
  9
$PSTYLEMODE
290
     1
  9
$FINGERPRINTGUID
  2
{75253CF9-08B3-4660-9A51-F564FBA57CE0}
  9
$VERSIONGUID
  2
{6EC06464-2D64-48BA-83E6-666D7ADB68FF}
  9
$EXTNAMES
290
     1
  9
$PSVPSCALE
 40
0.0
  9
$OLESTARTUP
290
     0
  9
$SORTENTS
280
    96
  9
$INDEXCTL
280
     0
  9
$HIDETEXT
280
     0
  9
$XCLIPFRAME
290
     0
  9
$HALOGAP
280
     0
  9
$OBSCOLOR
 70
   257
  9
$OBSLTYPE
280
     0
  9
$INTERSECTIONDISPLAY
280
     0
  9
$INTERSECTIONCOLOR
 70
   257
  9
$DIMASSOC
280
     1
  9
$PROJECTNAME
  1

  0
ENDSEC
  0
SECTION
  2
CLASSES
  0
CLASS
  1
ACDBDICTIONARYWDFLT
  2
AcDbDictionaryWithDefault
  3
ObjectDBX Classes
 90
        0
 91
        1
280
     0
281
     0
  0
CLASS
  1
DICTIONARYVAR
  2
AcDbDictionaryVar
  3
ObjectDBX Classes
 90
        0
 91
        9
280
     0
281
     0
  0
CLASS
  1
MATERIAL
  2
AcDbMaterial
  3
ObjectDBX Classes
 90
     1153
 91
        3
280
     0
281
     0
  0
CLASS
  1
VISUALSTYLE
  2
AcDbVisualStyle
  3
ObjectDBX Classes
 90
     4095
 91
       26
280
     0
281
     0
  0
CLASS
  1
TABLESTYLE
  2
AcDbTableStyle
  3
ObjectDBX Classes
 90
     4095
 91
        1
280
     0
281
     0
  0
CLASS
  1
SCALE
  2
AcDbScale
  3
ObjectDBX Classes
 90
     1153
 91
       21
280
     0
281
     0
  0
CLASS
  1
MLEADERSTYLE
  2
AcDbMLeaderStyle
  3
ACDB_MLEADERSTYLE_CLASS
 90
     4095
 91
        1
280
     0
281
     0
  0
CLASS
  1
CELLSTYLEMAP
  2
AcDbCellStyleMap
  3
ObjectDBX Classes
 90
     1152
 91
        2
280
     0
281
     0
  0
CLASS
  1
AEC_REFEDIT_STATUS_TRACKER
  2
AecDbRefEditStatusTracker
  3
AecArchBase60|Product Desc: Autodesk Architectural Desktop 2007 |Company: Autodesk,Inc. |WEB Address: www.autodesk.com
 90
      129
 91
        0
280
     0
281
     0
  0
CLASS
  1
NPOCOLLECTION
  2
AcDbImpNonPersistentObjectsCollection
  3
ObjectDBX Classes
 90
     1153
 91
        0
280
     0
281
     0
  0
CLASS
  1
PLOTSETTINGS
  2
AcDbPlotSettings
  3
ObjectDBX Classes
 90
        0
 91
        8
280
     0
281
     0
  0
CLASS
  1
SORTENTSTABLE
  2
AcDbSortentsTable
  3
ObjectDBX Classes
 90
        0
 91
        1
280
     0
281
     0
  0
CLASS
  1
ACAD_EVALUATION_GRAPH
  2
AcDbEvalGraph
  3
ObjectDBX Classes
 90
     1153
 91
        0
280
     0
281
     0
  0
CLASS
  1
ACAECUSTOBJ
  2
AcAeEditorObj
  3
AcAeEditorObj
 90
     1024
 91
        0
280
     0
281
     0
  0
CLASS
  1
ACDB_DYNAMICBLOCKPURGEPREVENTER_VERSION
  2
AcDbDynamicBlockPurgePreventer
  3
ObjectDBX Classes
 90
     1153
 91
        0
280
     0
281
     0
  0
CLASS
  1
SOLID_BACKGROUND
  2
AcDbSolidBackground
  3
SCENEOE
 90
     4095
 91
        0
280
     0
281
     0
  0
ENDSEC
  0
SECTION
  2
TABLES
  0
TABLE
  2
VPORT
  5
8
102
{ACAD_XDICTIONARY
360
526C2
102
}
330
0
100
AcDbSymbolTable
 70
     1
  0
VPORT
  5
1FF1E
330
8
100
AcDbSymbolTableRecord
100
AcDbViewportTableRecord
  2
*Active
 70
     0
 10
0.0
 20
0.0
 11
1.0
 21
1.0
 12
-1578.671596632296
 22
107.4141359946898
 13
0.0
 23
0.0
 14
10.0
 24
10.0
 15
10.0
 25
10.0
 16
0.0
 26
0.0
 36
2120.973378360774
 17
514.5358060702892
 27
3548.809190640961
 37
0.0
 40
406.3635847531655
 41
2.519736842105263
 42
50.0
 43
0.0
 44
0.0
 50
0.0
 51
0.0
 71
     0
 72
   100
 73
     1
 74
     3
 75
     0
 76
     0
 77
     0
 78
     0
281
     0
 65
     1
110
0.0
120
0.0
130
0.0
111
1.0
121
0.0
131
0.0
112
0.0
122
1.0
132
0.0
 79
     0
146
0.0
1001
ACAD_NAV_VCDISPLAY
1070
     3
  0
ENDTAB
  0
TABLE
  2
LTYPE
  5
5
330
0
100
AcDbSymbolTable
 70
     2
  0
LTYPE
  5
14
330
5
100
AcDbSymbolTableRecord
100
AcDbLinetypeTableRecord
  2
ByBlock
 70
     0
  3

 72
    65
 73
     0
 40
0.0
  0
LTYPE
  5
15
330
5
100
AcDbSymbolTableRecord
100
AcDbLinetypeTableRecord
  2
ByLayer
 70
     0
  3

 72
    65
 73
     0
 40
0.0
  0
LTYPE
  5
16
330
5
100
AcDbSymbolTableRecord
100
AcDbLinetypeTableRecord
  2
Continuous
 70
     0
  3
Solid line
 72
    65
 73
     0
 40
0.0
  0
LTYPE
  5
4BDA4
330
5
100
AcDbSymbolTableRecord
100
AcDbLinetypeTableRecord
  2
CENTER1
 70
     0
  3
----- - ----- - ----- - ----- - 
 72
    65
 73
     4
 40
10.0
 49
6.25
 74
     0
 49
-1.25
 74
     0
 49
1.25
 74
     0
 49
-1.25
 74
     0
  0
ENDTAB
  0
TABLE
  2
LAYER
  5
2
102
{ACAD_XDICTIONARY
360
1562
102
}
330
0
100
AcDbSymbolTable
 70
     6
  0
LAYER
  5
10
102
{ACAD_XDICTIONARY
360
22778
102
}
330
2
100
AcDbSymbolTableRecord
100
AcDbLayerTableRecord
  2
0
 70
     0
 62
     7
  6
Continuous
370
    -3
390
F
  0
LAYER
  5
16F1
330
2
100
AcDbSymbolTableRecord
100
AcDbLayerTableRecord
  2
Defpoints
 70
     0
 62
    20
  6
Continuous
290
     0
370
    -3
390
F
  0
LAYER
  5
4BDA5
102
{ACAD_XDICTIONARY
360
4BDA6
102
}
330
2
100
AcDbSymbolTableRecord
100
AcDbLayerTableRecord
  2
寸法
 70
     0
 62
     7
  6
Continuous
370
    -3
390
F
  0
LAYER
  5
4BDA7
102
{ACAD_XDICTIONARY
360
4BDA8
102
}
330
2
100
AcDbSymbolTableRecord
100
AcDbLayerTableRecord
  2
躯体と製品
 70
     0
 62
     7
  6
Continuous
370
    -3
390
F
  0
LAYER
  5
4BDA9
102
{ACAD_XDICTIONARY
360
4BDAA
102
}
330
2
100
AcDbSymbolTableRecord
100
AcDbLayerTableRecord
  2
文字-記号
 70
     0
 62
     7
  6
Continuous
370
    -3
390
F
  0
LAYER
  5
4BDAB
102
{ACAD_XDICTIONARY
360
525A1
102
}
330
2
100
AcDbSymbolTableRecord
100
AcDbLayerTableRecord
  2
中心線
 70
     0
 62
     7
  6
Continuous
370
    -3
390
F
1001
AcAecLayerStandard
1000

1000

1001
AcCmTransparency
1071
        0
  0
ENDTAB
  0
TABLE
  2
STYLE
  5
3
330
0
100
AcDbSymbolTable
 70
     2
  0
STYLE
  5
11
330
3
100
AcDbSymbolTableRecord
100
AcDbTextStyleTableRecord
  2
Standard
 70
     0
 40
0.0
 41
0.8
 50
0.0
 71
     0
 42
2.5
  3
txt.shx
  4
extfont.shx
  0
STYLE
  5
4BDAD
330
3
100
AcDbSymbolTableRecord
100
AcDbTextStyleTableRecord
  2
ACAD
 70
     0
 40
9.0
 41
0.8
 50
0.0
 71
     0
 42
5.0
  3
romans.shx
  4
extfont.shx
  0
ENDTAB
  0
TABLE
  2
VIEW
  5
6
330
0
100
AcDbSymbolTable
 70
     0
  0
ENDTAB
  0
TABLE
  2
UCS
  5
7
330
0
100
AcDbSymbolTable
 70
     0
  0
ENDTAB
  0
TABLE
  2
APPID
  5
9
330
0
100
AcDbSymbolTable
 70
    23
  0
APPID
  5
12
330
9
100
AcDbSymbolTableRecord
100
AcDbRegAppTableRecord
  2
ACAD
 70
     0
  0
APPID
  5
22729
330
9
100
AcDbSymbolTableRecord
100
AcDbRegAppTableRecord
  2
DCO15
 70
     0
  0
APPID
  5
2276D
330
9
100
AcDbSymbolTableRecord
100
AcDbRegAppTableRecord
  2
ACAD_MLEADERVER
 70
     0
  0
APPID
  5
22776
330
9
100
AcDbSymbolTableRecord
100
AcDbRegAppTableRecord
  2
AcAecLayerStandard
 70
     0
  0
APPID
  5
227C1
330
9
100
AcDbSymbolTableRecord
100
AcDbRegAppTableRecord
  2
ACAD_DSTYLE_DIMJAG
 70
     0
  0
APPID
  5
227C2
330
9
100
AcDbSymbolTableRecord
100
AcDbRegAppTableRecord
  2
ACAD_DSTYLE_DIMTALN
 70
     0
  0
APPID
  5
22821
330
9
100
AcDbSymbolTableRecord
100
AcDbRegAppTableRecord
  2
ACAD_PSEXT
 70
     0
  0
APPID
  5
2282A
330
9
100
AcDbSymbolTableRecord
100
AcDbRegAppTableRecord
  2
ACAD_EXEMPT_FROM_CAD_STANDARDS
 70
     0
  0
APPID
  5
229A9
330
9
100
AcDbSymbolTableRecord
100
AcDbRegAppTableRecord
  2
AcadAnnoPO
 70
     0
  0
APPID
  5
23673
330
9
100
AcDbSymbolTableRecord
100
AcDbRegAppTableRecord
  2
ACAD_DSTYLE_DIMTEXT_FILL
 70
     0
  0
APPID
  5
23674
330
9
100
AcDbSymbolTableRecord
100
AcDbRegAppTableRecord
  2
ACAD_DSTYLE_DIMBREAK
 70
     0
  0
APPID
  5
25752
330
9
100
AcDbSymbolTableRecord
100
AcDbRegAppTableRecord
  2
AcLayerTools
 70
     0
  0
APPID
  5
262DB
330
9
100
AcDbSymbolTableRecord
100
AcDbRegAppTableRecord
  2
ACAUTHENVIRON
 70
     0
  0
APPID
  5
27EF5
330
9
100
AcDbSymbolTableRecord
100
AcDbRegAppTableRecord
  2
AcDbDynamicBlockTrueName
 70
     0
  0
APPID
  5
27EF6
330
9
100
AcDbSymbolTableRecord
100
AcDbRegAppTableRecord
  2
AcDbDynamicBlockGUID
 70
     0
  0
APPID
  5
30E17
330
9
100
AcDbSymbolTableRecord
100
AcDbRegAppTableRecord
  2
AcadAnnoAV
 70
     0
  0
APPID
  5
47910
330
9
100
AcDbSymbolTableRecord
100
AcDbRegAppTableRecord
  2
ACAD_DSTYLE_DIMJOGGED_JOGANGLE_SYMBOL
 70
     0
  0
APPID
  5
47911
330
9
100
AcDbSymbolTableRecord
100
AcDbRegAppTableRecord
  2
AcDbBlockRepETag
 70
     0
  0
APPID
  5
4A789
330
9
100
AcDbSymbolTableRecord
100
AcDbRegAppTableRecord
  2
AcadAnnotative
 70
     0
  0
APPID
  5
4A78A
330
9
100
AcDbSymbolTableRecord
100
AcDbRegAppTableRecord
  2
AcCmTransparency
 70
     0
  0
APPID
  5
4BCBF
330
9
100
AcDbSymbolTableRecord
100
AcDbRegAppTableRecord
  2
ACAD_NAV_VCDISPLAY
 70
     0
  0
APPID
  5
4BDAF
330
9
100
AcDbSymbolTableRecord
100
AcDbRegAppTableRecord
  2
GradientColor1ACI
 70
     0
  0
APPID
  5
4BDB0
330
9
100
AcDbSymbolTableRecord
100
AcDbRegAppTableRecord
  2
GradientColor2ACI
 70
     0
  0
ENDTAB
  0
TABLE
  2
DIMSTYLE
  5
A
330
0
100
AcDbSymbolTable
 70
     2
100
AcDbDimStyleTable
 71
     2
340
4BDAE
340
3B
  0
DIMSTYLE
105
3B
330
A
100
AcDbSymbolTableRecord
100
AcDbDimStyleTableRecord
  2
Standard
 70
     0
178
   256
277
     6
340
11
1001
ACAD_DSTYLE_DIMJAG
1070
   388
1040
1.5
1001
ACAD_DSTYLE_DIMTALN
1070
   392
1070
     0
1001
ACAD_DSTYLE_DIMTEXT_FILL
1070
   376
1070
     1
1070
   377
1004
1800000001000000000000C1000000000000000000000000
  0
DIMSTYLE
105
4BDAE
102
{ACAD_REACTORS
330
500C4
102
}
330
A
100
AcDbSymbolTableRecord
100
AcDbDimStyleTableRecord
  2
AutoCAD
 70
     0
 41
4.5
 42
0.0
 44
0.0
 73
     0
 77
     1
140
9.0
147
3.0
174
     1
176
     4
177
     4
178
     3
271
     0
272
     0
289
     0
340
4BDAD
341
4BCC4
342
527B1
1001
ACAD_DSTYLE_DIMJAG
1070
   388
1040
1.5
1001
ACAD_DSTYLE_DIMTALN
1070
   392
1070
     0
  0
ENDTAB
  0
TABLE
  2
BLOCK_RECORD
  5
1
330
0
100
AcDbSymbolTable
 70
     4
  0
BLOCK_RECORD
  5
1F
102
{ACAD_XDICTIONARY
360
3662
102
}
330
1
100
AcDbSymbolTableRecord
100
AcDbBlockTableRecord
  2
*Model_Space
340
22
  0
BLOCK_RECORD
  5
52605
330
1
100
AcDbSymbolTableRecord
100
AcDbBlockTableRecord
  2
*Paper_Space
340
52606
  0
BLOCK_RECORD
  5
4BCC4
330
1
100
AcDbSymbolTableRecord
100
AcDbBlockTableRecord
  2
_None
340
0
  0
BLOCK_RECORD
  5
4BCC7
330
1
100
AcDbSymbolTableRecord
100
AcDbBlockTableRecord
  2
_Dot
340
0
  0
BLOCK_RECORD
  5
52179
330
1
100
AcDbSymbolTableRecord
100
AcDbBlockTableRecord
  2
*D2
340
0
  0
BLOCK_RECORD
  5
527B1
330
1
100
AcDbSymbolTableRecord
100
AcDbBlockTableRecord
  2
_Small
340
0
102
{BLKREFS
331
527B8
331
527B9
102
}
  0
ENDTAB
  0
ENDSEC
  0
SECTION
  2
BLOCKS
  0
BLOCK
  5
20
330
1F
100
AcDbEntity
  8
0
100
AcDbBlockBegin
  2
*Model_Space
 70
     0
 10
0.0
 20
0.0
 30
0.0
  3
*Model_Space
  1

  0
ENDBLK
  5
21
330
1F
100
AcDbEntity
  8
0
100
AcDbBlockEnd
  0
BLOCK
  5
52607
330
52605
100
AcDbEntity
 67
     1
  8
0
100
AcDbBlockBegin
  2
*Paper_Space
 70
     0
 10
0.0
 20
0.0
 30
0.0
  3
*Paper_Space
  1

  0
ENDBLK
  5
52608
330
52605
100
AcDbEntity
 67
     1
  8
0
100
AcDbBlockEnd
  0
BLOCK
  5
4BCC5
330
4BCC4
100
AcDbEntity
  8
0
100
AcDbBlockBegin
  2
_None
 70
     0
 10
0.0
 20
0.0
 30
0.0
  3
_None
  1

  0
ENDBLK
  5
4BCC6
330
4BCC4
100
AcDbEntity
  8
0
100
AcDbBlockEnd
  0
BLOCK
  5
4BCC8
330
4BCC7
100
AcDbEntity
  8
0
100
AcDbBlockBegin
  2
_Dot
 70
     0
 10
0.0
 20
0.0
 30
0.0
  3
_Dot
  1

  0
LWPOLYLINE
  5
4BCC9
330
4BCC7
100
AcDbEntity
  8
0
  6
ByBlock
 62
     0
100
AcDbPolyline
 90
        2
 70
     1
 43
0.5
 10
-0.25
 20
0.0
 42
1.0
 10
0.25
 20
0.0
 42
1.0
  0
LINE
  5
4BCCA
330
4BCC7
100
AcDbEntity
  8
0
  6
ByBlock
 62
     0
370
    -2
100
AcDbLine
 10
-0.5
 20
0.0
 30
0.0
 11
-1.0
 21
0.0
 31
0.0
  0
ENDBLK
  5
4BCCB
330
4BCC7
100
AcDbEntity
  8
0
100
AcDbBlockEnd
  0
BLOCK
  5
5217A
330
52179
100
AcDbEntity
  8
0
100
AcDbBlockBegin
  2
*D2
 70
     1
 10
0.0
 20
0.0
 30
0.0
  3
*D2
  1

  0
LINE
  5
527B5
330
52179
100
AcDbEntity
  8
寸法
  6
Continuous
 62
     4
440
 16777216
370
    -2
100
AcDbLine
 10
-708.9594186315339
 20
3474.783404165618
 30
0.0
 11
-669.7275376315328
 21
3474.783404165618
 31
0.0
  0
LINE
  5
527B6
330
52179
100
AcDbEntity
  8
寸法
  6
Continuous
 62
     4
440
 16777216
370
    -2
100
AcDbLine
 10
-708.9594186315334
 20
3612.783404165617
 30
0.0
 11
-669.7275376315328
 21
3612.783404165617
 31
0.0
  0
LINE
  5
527B7
330
52179
100
AcDbEntity
  8
寸法
  6
Continuous
 62
     4
440
 16777216
370
    -2
100
AcDbLine
 10
-669.7275376315328
 20
3474.783404165618
 30
0.0
 11
-669.7275376315328
 21
3612.783404165617
 31
0.0
  0
INSERT
  5
527B8
330
52179
100
AcDbEntity
  8
寸法
  6
Continuous
 62
     4
440
 16777216
370
    -2
100
AcDbBlockReference
  2
_Small
 10
-669.7275376315328
 20
3474.783404165618
 30
0.0
 41
4.5
 42
4.5
 43
4.5
 50
270.0
  0
INSERT
  5
527B9
330
52179
100
AcDbEntity
  8
寸法
  6
Continuous
 62
     4
440
 16777216
370
    -2
100
AcDbBlockReference
  2
_Small
 10
-669.7275376315328
 20
3612.783404165617
 30
0.0
 41
4.5
 42
4.5
 43
4.5
 50
90.0
  0
MTEXT
  5
527BA
330
52179
100
AcDbEntity
  8
寸法
  6
Continuous
 62
     3
440
 16777216
100
AcDbMText
 10
-677.2275376315334
 20
3543.783404165618
 30
0.0
 40
9.0
 41
0.0
 71
     5
 72
     1
  1
\A1;h=52～334
  7
ACAD
 11
0.0000000000000001
 21
1.0
 31
0.0
 73
     1
 44
1.0
  0
POINT
  5
527BB
330
52179
100
AcDbEntity
  8
Defpoints
  6
Continuous
 62
     0
440
 16777216
100
AcDbPoint
 10
-708.9594186315339
 20
3474.783404165618
 30
0.0
  0
POINT
  5
527BC
330
52179
100
AcDbEntity
  8
Defpoints
  6
Continuous
 62
     0
440
 16777216
100
AcDbPoint
 10
-708.9594186315334
 20
3612.783404165617
 30
0.0
  0
POINT
  5
527BD
330
52179
100
AcDbEntity
  8
Defpoints
  6
Continuous
 62
     0
440
 16777216
100
AcDbPoint
 10
-669.7275376315328
 20
3612.783404165617
 30
0.0
  0
ENDBLK
  5
5217B
330
52179
100
AcDbEntity
  8
0
100
AcDbBlockEnd
  0
BLOCK
  5
527B3
330
527B1
100
AcDbEntity
  8
0
100
AcDbBlockBegin
  2
_Small
 70
     0
 10
0.0
 20
0.0
 30
0.0
  3
_Small
  1

  0
CIRCLE
  5
527B2
330
527B1
100
AcDbEntity
  8
0
  6
ByBlock
 62
     0
370
    -2
100
AcDbCircle
 10
0.0
 20
0.0
 30
0.0
 40
0.25
  0
ENDBLK
  5
527B4
330
527B1
100
AcDbEntity
  8
0
100
AcDbBlockEnd
  0
ENDSEC
  0
SECTION
  2
ENTITIES
  0
LINE
  5
4EF93
330
1F
100
AcDbEntity
  8
躯体と製品
  6
Continuous
 62
     4
100
AcDbLine
 10
-1301.467663054558
 20
3478.783422782523
 30
0.0
 11
-1336.467677311804
 21
3478.783422782523
 31
0.0
  0
LINE
  5
4EF94
330
1F
100
AcDbEntity
  8
躯体と製品
  6
Continuous
 62
     4
100
AcDbLine
 10
-1304.46767701723
 20
3490.083406009639
 30
0.0
 11
-1333.467663349125
 21
3490.083406009639
 31
0.0
  0
LINE
  5
4EF95
330
1F
100
AcDbEntity
  8
躯体と製品
  6
Continuous
 62
     4
100
AcDbLine
 10
-1301.733531606041
 20
3476.78341347407
 30
0.0
 11
-1304.967654570908
 21
3476.78341347407
 31
0.0
  0
LINE
  5
4EF96
330
1F
100
AcDbEntity
  8
躯体と製品
  6
Continuous
 62
     4
100
AcDbLine
 10
-1321.398737336931
 20
3474.783404165618
 30
0.0
 11
-1319.922735818363
 21
3474.783404165618
 31
0.0
  0
LINE
  5
4EF97
330
1F
100
AcDbEntity
  8
躯体と製品
  6
Continuous
 62
     4
100
AcDbLine
 10
-1319.922735818363
 20
3475.783408819844
 30
0.0
 11
-1318.012604547999
 21
3475.783408819844
 31
0.0
  0
LINE
  5
4EF98
330
1F
100
AcDbEntity
  8
躯体と製品
  6
Continuous
 62
     4
100
AcDbLine
 10
-1333.467663349125
 20
3490.083406009639
 30
0.0
 11
-1336.467677311804
 21
3478.783422782523
 31
0.0
  0
LINE
  5
4EF99
330
1F
100
AcDbEntity
  8
躯体と製品
  6
Continuous
 62
     4
100
AcDbLine
 10
-1332.754981044891
 20
3474.783404165618
 30
0.0
 11
-1321.398737336931
 21
3474.783404165618
 31
0.0
  0
LINE
  5
4EF9A
330
1F
100
AcDbEntity
  8
躯体と製品
  6
Continuous
 62
     4
100
AcDbLine
 10
-1332.967636248577
 20
3476.78341347407
 30
0.0
 11
-1336.201808760321
 21
3476.78341347407
 31
0.0
  0
LINE
  5
4EF9B
330
1F
100
AcDbEntity
  8
躯体と製品
  6
Continuous
 62
     4
100
AcDbLine
 10
-1336.467677311804
 20
3478.783422782523
 30
0.0
 11
-1336.201808760321
 21
3478.783422782523
 31
0.0
  0
LINE
  5
4EF9C
330
1F
100
AcDbEntity
  8
躯体と製品
  6
Continuous
 62
     4
100
AcDbLine
 10
-1336.201808760321
 20
3478.783422782523
 30
0.0
 11
-1336.201808760321
 21
3476.78341347407
 31
0.0
  0
LINE
  5
4EF9D
330
1F
100
AcDbEntity
  8
躯体と製品
  6
Continuous
 62
     4
100
AcDbLine
 10
-1332.967636248577
 20
3475.783408819844
 30
0.0
 11
-1332.754981044891
 21
3475.783408819844
 31
0.0
  0
LINE
  5
4EF9E
330
1F
100
AcDbEntity
  8
躯体と製品
  6
Continuous
 62
     4
100
AcDbLine
 10
-1332.754981044891
 20
3474.783404165618
 30
0.0
 11
-1332.754981044891
 21
3475.783408819844
 31
0.0
  0
LINE
  5
4EF9F
330
1F
100
AcDbEntity
  8
躯体と製品
  6
Continuous
 62
     4
100
AcDbLine
 10
-1332.967636248577
 20
3476.78341347407
 30
0.0
 11
-1332.967636248577
 21
3475.783408819844
 31
0.0
  0
LINE
  5
4EFA0
330
1F
100
AcDbEntity
  8
躯体と製品
  6
Continuous
 62
     4
100
AcDbLine
 10
-1305.180359321464
 20
3474.783404165618
 30
0.0
 11
-1316.536603029424
 21
3474.783404165618
 31
0.0
  0
LINE
  5
4EFA1
330
1F
100
AcDbEntity
  8
躯体と製品
  6
Continuous
 62
     4
100
AcDbLine
 10
-1316.536603029424
 20
3474.783404165618
 30
0.0
 11
-1318.012604547999
 21
3474.783404165618
 31
0.0
  0
LINE
  5
4EFA2
330
1F
100
AcDbEntity
  8
躯体と製品
  6
Continuous
 62
     4
100
AcDbLine
 10
-1318.012604547999
 20
3474.783404165618
 30
0.0
 11
-1318.012604547999
 21
3475.783408819844
 31
0.0
  0
LINE
  5
4EFA3
330
1F
100
AcDbEntity
  8
躯体と製品
  6
Continuous
 62
     4
100
AcDbLine
 10
-1319.922735818363
 20
3474.783404165618
 30
0.0
 11
-1319.922735818363
 21
3475.783408819844
 31
0.0
  0
LINE
  5
4EFA4
330
1F
100
AcDbEntity
  8
躯体と製品
  6
Continuous
 62
     4
100
AcDbLine
 10
-1305.180359321464
 20
3474.783404165618
 30
0.0
 11
-1305.180359321464
 21
3475.783408819844
 31
0.0
  0
LINE
  5
4EFA5
330
1F
100
AcDbEntity
  8
躯体と製品
  6
Continuous
 62
     4
100
AcDbLine
 10
-1305.180359321464
 20
3475.783408819844
 30
0.0
 11
-1304.967654570908
 21
3475.783408819844
 31
0.0
  0
LINE
  5
4EFA6
330
1F
100
AcDbEntity
  8
躯体と製品
  6
Continuous
 62
     4
100
AcDbLine
 10
-1304.967654570908
 20
3475.783408819844
 30
0.0
 11
-1304.967654570908
 21
3476.78341347407
 31
0.0
  0
LINE
  5
4EFA7
330
1F
100
AcDbEntity
  8
躯体と製品
  6
Continuous
 62
     4
100
AcDbLine
 10
-1304.46767701723
 20
3490.083406009639
 30
0.0
 11
-1301.467663054558
 21
3478.783422782523
 31
0.0
  0
LINE
  5
4EFA8
330
1F
100
AcDbEntity
  8
躯体と製品
  6
Continuous
 62
     4
100
AcDbLine
 10
-1301.733531606041
 20
3478.783422782523
 30
0.0
 11
-1301.733531606041
 21
3476.78341347407
 31
0.0
  0
ARC
  5
4EFB2
330
1F
100
AcDbEntity
  8
躯体と製品
  6
Continuous
 62
     3
100
AcDbCircle
 10
-1342.507860790141
 20
3635.626104790733
 30
0.0
 40
12.90305351698765
100
AcDbArc
 50
202.0437404302319
 51
237.1739811019268
  0
ARC
  5
4EFB3
330
1F
100
AcDbEntity
  8
躯体と製品
  6
Continuous
 62
     3
100
AcDbCircle
 10
-1340.546629260188
 20
3629.301726943181
 30
0.0
 40
10.03107274359413
100
AcDbArc
 50
171.5058314312659
 51
206.7714463484718
  0
LINE
  5
4EFB9
330
1F
100
AcDbEntity
  8
躯体と製品
 62
     3
100
AcDbLine
 10
-1382.883759223805
 20
3474.783404165618
 30
0.0
 11
-1402.883759223805
 21
3454.783404165617
 31
0.0
  0
LINE
  5
4EFBA
330
1F
100
AcDbEntity
  8
躯体と製品
 62
     3
100
AcDbLine
 10
-1375.812691411942
 20
3474.783404165618
 30
0.0
 11
-1395.812691411942
 21
3454.783404165617
 31
0.0
  0
LINE
  5
4EFBB
330
1F
100
AcDbEntity
  8
躯体と製品
 62
     3
100
AcDbLine
 10
-1368.741623600072
 20
3474.783404165618
 30
0.0
 11
-1388.741623600072
 21
3454.783404165617
 31
0.0
  0
LINE
  5
4EFBC
330
1F
100
AcDbEntity
  8
躯体と製品
 62
     3
100
AcDbLine
 10
-1207.883759223805
 20
3474.783404165618
 30
0.0
 11
-1227.883759223805
 21
3454.783404165617
 31
0.0
  0
LINE
  5
4EFBD
330
1F
100
AcDbEntity
  8
躯体と製品
 62
     3
100
AcDbLine
 10
-1200.812691411942
 20
3474.783404165618
 30
0.0
 11
-1220.812691411942
 21
3454.783404165617
 31
0.0
  0
LINE
  5
4EFBE
330
1F
100
AcDbEntity
  8
躯体と製品
 62
     3
100
AcDbLine
 10
-1193.741623600072
 20
3474.783404165618
 30
0.0
 11
-1213.741623600071
 21
3454.783404165617
 31
0.0
  0
LINE
  5
4EFBF
330
1F
100
AcDbEntity
  8
躯体と製品
 62
     3
100
AcDbLine
 10
-1032.883759223805
 20
3474.783404165618
 30
0.0
 11
-1052.883759223805
 21
3454.783404165617
 31
0.0
  0
LINE
  5
4EFC0
330
1F
100
AcDbEntity
  8
躯体と製品
 62
     3
100
AcDbLine
 10
-1025.812691411942
 20
3474.783404165618
 30
0.0
 11
-1045.812691411942
 21
3454.783404165617
 31
0.0
  0
LINE
  5
4EFC1
330
1F
100
AcDbEntity
  8
躯体と製品
 62
     3
100
AcDbLine
 10
-1018.741623600072
 20
3474.783404165618
 30
0.0
 11
-1038.741623600071
 21
3454.783404165617
 31
0.0
  0
LINE
  5
4EFC2
330
1F
100
AcDbEntity
  8
躯体と製品
 62
     3
100
AcDbLine
 10
-857.883759223805
 20
3474.783404165618
 30
0.0
 11
-877.8837592238051
 21
3454.783404165617
 31
0.0
  0
LINE
  5
4EFC3
330
1F
100
AcDbEntity
  8
躯体と製品
 62
     3
100
AcDbLine
 10
-850.812691411942
 20
3474.783404165618
 30
0.0
 11
-870.812691411942
 21
3454.783404165617
 31
0.0
  0
LINE
  5
4EFC4
330
1F
100
AcDbEntity
  8
躯体と製品
 62
     3
100
AcDbLine
 10
-843.7416236000718
 20
3474.783404165618
 30
0.0
 11
-863.7416236000717
 21
3454.783404165617
 31
0.0
  0
LINE
  5
4EFCC
330
1F
100
AcDbEntity
  8
中心線
  6
CENTER1
 62
     7
100
AcDbLine
 10
-1318.967670183178
 20
3596.294809888475
 30
0.0
 11
-1318.967670183178
 21
3470.024912184372
 31
0.0
  0
LINE
  5
4EFCD
330
1F
100
AcDbEntity
  8
躯体と製品
  6
Continuous
 62
     4
100
AcDbLine
 10
-941.0343481612228
 20
3567.783404165618
 30
0.0
 11
-915.0343481612228
 21
3567.783404165618
 31
0.0
  0
LINE
  5
4EFCE
330
1F
100
AcDbEntity
  8
躯体と製品
  6
Continuous
 62
     4
100
AcDbLine
 10
-976.0343481612228
 20
3592.783404165618
 30
0.0
 11
-976.0343481612228
 21
3585.783404165618
 31
0.0
  0
LINE
  5
4EFCF
330
1F
100
AcDbEntity
  8
躯体と製品
  6
Continuous
 62
     4
100
AcDbLine
 10
-938.5343481612228
 20
3592.783404165618
 30
0.0
 11
-917.5343481612229
 21
3592.783404165618
 31
0.0
  0
LINE
  5
4EFD0
330
1F
100
AcDbEntity
  8
躯体と製品
  6
Continuous
 62
     4
100
AcDbLine
 10
-941.0343481612228
 20
3568.565822101817
 30
0.0
 11
-941.0343481612228
 21
3567.783404165618
 31
0.0
  0
LINE
  5
4EFD1
330
1F
100
AcDbEntity
  8
躯体と製品
  6
Continuous
 62
     4
100
AcDbLine
 10
-915.0343481612228
 20
3567.783404165618
 30
0.0
 11
-915.0343481612228
 21
3568.565822101817
 31
0.0
  0
LINE
  5
4EFD2
330
1F
100
AcDbEntity
  8
躯体と製品
  6
Continuous
 62
     4
100
AcDbLine
 10
-939.0343481612228
 20
3593.08340416562
 30
0.0
 11
-939.5343481612227
 21
3592.783404165618
 31
0.0
  0
LINE
  5
4EFD3
330
1F
100
AcDbEntity
  8
躯体と製品
  6
Continuous
 62
     4
100
AcDbLine
 10
-938.5343481612228
 20
3592.783404165618
 30
0.0
 11
-939.0343481612228
 21
3593.08340416562
 31
0.0
  0
LINE
  5
4EFD4
330
1F
100
AcDbEntity
  8
躯体と製品
  6
Continuous
 62
     4
100
AcDbLine
 10
-917.0343481612228
 20
3593.08340416562
 30
0.0
 11
-917.5343481612229
 21
3592.783404165618
 31
0.0
  0
LINE
  5
4EFD5
330
1F
100
AcDbEntity
  8
躯体と製品
  6
Continuous
 62
     4
100
AcDbLine
 10
-916.5343481612229
 20
3592.783404165618
 30
0.0
 11
-917.0343481612228
 21
3593.08340416562
 31
0.0
  0
ARC
  5
4EFD6
330
1F
100
AcDbEntity
  8
躯体と製品
  6
Continuous
 62
     4
100
AcDbCircle
 10
-881.0343481612228
 20
3585.783404165618
 30
0.0
 40
1.0
100
AcDbArc
 50
270.0
 51
0.0
  0
LINE
  5
4EFD7
330
1F
100
AcDbEntity
  8
躯体と製品
  6
Continuous
 62
     4
100
AcDbLine
 10
-880.0343481612229
 20
3592.783404165618
 30
0.0
 11
-880.0343481612229
 21
3585.783404165618
 31
0.0
  0
ARC
  5
4EFD8
330
1F
100
AcDbEntity
  8
躯体と製品
  6
Continuous
 62
     4
100
AcDbCircle
 10
-975.0343481612228
 20
3585.783404165618
 30
0.0
 40
1.0
100
AcDbArc
 50
180.0
 51
270.0
  0
LINE
  5
4EFD9
330
1F
100
AcDbEntity
  8
躯体と製品
  6
Continuous
 62
     4
100
AcDbLine
 10
-928.7843481612227
 20
3577.007026417618
 30
0.0
 11
-928.7843481612227
 21
3584.783404165618
 31
0.0
  0
LINE
  5
4EFDA
330
1F
100
AcDbEntity
  8
躯体と製品
  6
Continuous
 62
     4
100
AcDbLine
 10
-927.2843481612229
 20
3577.007026417618
 30
0.0
 11
-927.7842247044221
 21
3577.011425550016
 31
0.0
  0
LINE
  5
4EFDB
330
1F
100
AcDbEntity
  8
躯体と製品
  6
Continuous
 62
     4
100
AcDbLine
 10
-927.7842247044221
 20
3577.011425550016
 30
0.0
 11
-928.2844716182237
 21
3577.011425550016
 31
0.0
  0
LINE
  5
4EFDC
330
1F
100
AcDbEntity
  8
躯体と製品
  6
Continuous
 62
     4
100
AcDbLine
 10
-928.2844716182237
 20
3577.011425550016
 30
0.0
 11
-928.7843481612227
 21
3577.007026417618
 31
0.0
  0
LINE
  5
4EFDD
330
1F
100
AcDbEntity
  8
躯体と製品
  6
Continuous
 62
     4
100
AcDbLine
 10
-927.2843481612229
 20
3577.007026417618
 30
0.0
 11
-927.2843481612229
 21
3584.783404165618
 31
0.0
  0
LINE
  5
4EFDE
330
1F
100
AcDbEntity
  8
躯体と製品
  6
Continuous
 62
     4
100
AcDbLine
 10
-914.1831598538241
 20
3578.06872799762
 30
0.0
 11
-883.380554929424
 21
3584.783404165618
 31
0.0
  0
LINE
  5
4EFDF
330
1F
100
AcDbEntity
  8
躯体と製品
  6
Continuous
 62
     4
100
AcDbLine
 10
-914.4107357880214
 20
3577.787904726218
 30
0.0
 11
-882.319894757625
 21
3584.783404165618
 31
0.0
  0
LINE
  5
4EFE0
330
1F
100
AcDbEntity
  8
躯体と製品
  6
Continuous
 62
     4
100
AcDbLine
 10
-912.6793469632223
 20
3579.924397213814
 30
0.0
 11
-912.6793469632223
 21
3579.783404165617
 31
0.0
  0
LINE
  5
4EFE1
330
1F
100
AcDbEntity
  8
躯体と製品
  6
Continuous
 62
     4
100
AcDbLine
 10
-941.6579605346207
 20
3577.787904726218
 30
0.0
 11
-973.7488015650244
 21
3584.783404165618
 31
0.0
  0
LINE
  5
4EFE2
330
1F
100
AcDbEntity
  8
躯体と製品
  6
Continuous
 62
     4
100
AcDbLine
 10
-941.8855364686217
 20
3578.06872799762
 30
0.0
 11
-972.6881413932217
 21
3584.783404165618
 31
0.0
  0
LINE
  5
4EFE3
330
1F
100
AcDbEntity
  8
躯体と製品
  6
Continuous
 62
     4
100
AcDbLine
 10
-943.3893493592234
 20
3579.783404165617
 30
0.0
 11
-943.3893493592234
 21
3579.924397213814
 31
0.0
  0
LINE
  5
4EFE4
330
1F
100
AcDbEntity
  8
躯体と製品
  6
Continuous
 62
     4
100
AcDbLine
 10
-910.6085571118249
 20
3584.783404165618
 30
0.0
 11
-910.6085571118249
 21
3584.759793054619
 31
0.0
  0
LINE
  5
4EFE5
330
1F
100
AcDbEntity
  8
躯体と製品
  6
Continuous
 62
     4
100
AcDbLine
 10
-908.7607980468249
 20
3584.783404165618
 30
0.0
 11
-908.7607980468249
 21
3584.759793054619
 31
0.0
  0
LINE
  5
4EFE6
330
1F
100
AcDbEntity
  8
躯体と製品
  6
Continuous
 62
     4
100
AcDbLine
 10
-908.7607980468249
 20
3584.759793054619
 30
0.0
 11
-910.6085571118249
 21
3584.759793054619
 31
0.0
  0
LINE
  5
4EFE7
330
1F
100
AcDbEntity
  8
躯体と製品
  6
Continuous
 62
     4
100
AcDbLine
 10
-908.7607980468249
 20
3584.759793054619
 30
0.0
 11
-922.1503244392236
 21
3568.237437047422
 31
0.0
  0
LINE
  5
4EFE8
330
1F
100
AcDbEntity
  8
躯体と製品
  6
Continuous
 62
     4
100
AcDbLine
 10
-923.9980835042235
 20
3568.237437047422
 30
0.0
 11
-923.3693326050209
 21
3568.253604462218
 31
0.0
  0
LINE
  5
4EFE9
330
1F
100
AcDbEntity
  8
躯体と製品
  6
Continuous
 62
     4
100
AcDbLine
 10
-923.3693326050209
 20
3568.253604462218
 30
0.0
 11
-922.7528715664242
 21
3568.253604462218
 31
0.0
  0
LINE
  5
4EFEA
330
1F
100
AcDbEntity
  8
躯体と製品
  6
Continuous
 62
     4
100
AcDbLine
 10
-922.7528715664242
 20
3568.253604462218
 30
0.0
 11
-922.1503244392236
 21
3568.237437047422
 31
0.0
  0
LINE
  5
4EFEB
330
1F
100
AcDbEntity
  8
躯体と製品
  6
Continuous
 62
     4
100
AcDbLine
 10
-910.6085571118249
 20
3584.759793054619
 30
0.0
 11
-923.9980835042235
 21
3568.237437047422
 31
0.0
  0
LINE
  5
4EFEC
330
1F
100
AcDbEntity
  8
躯体と製品
  6
Continuous
 62
     4
100
AcDbLine
 10
-923.9980835042235
 20
3568.237437047422
 30
0.0
 11
-923.9980835042235
 21
3579.783404165617
 31
0.0
  0
LINE
  5
4EFED
330
1F
100
AcDbEntity
  8
躯体と製品
  6
Continuous
 62
     4
100
AcDbLine
 10
-920.3670059448207
 20
3584.783404165618
 30
0.0
 11
-920.3670059448207
 21
3579.783404165617
 31
0.0
  0
LINE
  5
4EFEE
330
1F
100
AcDbEntity
  8
躯体と製品
  6
Continuous
 62
     4
100
AcDbLine
 10
-945.4601392106209
 20
3584.759793054619
 30
0.0
 11
-947.3078982756208
 21
3584.759793054619
 31
0.0
  0
LINE
  5
4EFEF
330
1F
100
AcDbEntity
  8
躯体と製品
  6
Continuous
 62
     4
100
AcDbLine
 10
-945.4601392106209
 20
3584.759793054619
 30
0.0
 11
-932.0706128182221
 21
3568.237437047422
 31
0.0
  0
LINE
  5
4EFF0
330
1F
100
AcDbEntity
  8
躯体と製品
  6
Continuous
 62
     4
100
AcDbLine
 10
-933.918371883222
 20
3568.237437047422
 30
0.0
 11
-933.3158247560216
 21
3568.253604462218
 31
0.0
  0
LINE
  5
4EFF1
330
1F
100
AcDbEntity
  8
躯体と製品
  6
Continuous
 62
     4
100
AcDbLine
 10
-933.3158247560216
 20
3568.253604462218
 30
0.0
 11
-932.6993637176213
 21
3568.253604462218
 31
0.0
  0
LINE
  5
4EFF2
330
1F
100
AcDbEntity
  8
躯体と製品
  6
Continuous
 62
     4
100
AcDbLine
 10
-932.6993637176213
 20
3568.253604462218
 30
0.0
 11
-932.0706128182221
 21
3568.237437047422
 31
0.0
  0
LINE
  5
4EFF3
330
1F
100
AcDbEntity
  8
躯体と製品
  6
Continuous
 62
     4
100
AcDbLine
 10
-947.3078982756208
 20
3584.759793054619
 30
0.0
 11
-933.918371883222
 21
3568.237437047422
 31
0.0
  0
LINE
  5
4EFF4
330
1F
100
AcDbEntity
  8
躯体と製品
  6
Continuous
 62
     4
100
AcDbLine
 10
-935.7016903778214
 20
3579.783404165617
 30
0.0
 11
-935.7016903778214
 21
3584.783404165618
 31
0.0
  0
LINE
  5
4EFF5
330
1F
100
AcDbEntity
  8
躯体と製品
  6
Continuous
 62
     4
100
AcDbLine
 10
-932.0706128182221
 20
3568.237437047422
 30
0.0
 11
-932.0706128182221
 21
3579.783404165617
 31
0.0
  0
LINE
  5
4EFF6
330
1F
100
AcDbEntity
  8
躯体と製品
  6
Continuous
 62
     4
100
AcDbLine
 10
-945.4601392106209
 20
3584.783404165618
 30
0.0
 11
-945.4601392106209
 21
3584.759793054619
 31
0.0
  0
LINE
  5
4EFF7
330
1F
100
AcDbEntity
  8
躯体と製品
  6
Continuous
 62
     4
100
AcDbLine
 10
-947.3078982756208
 20
3584.783404165618
 30
0.0
 11
-947.3078982756208
 21
3584.759793054619
 31
0.0
  0
LINE
  5
4EFF8
330
1F
100
AcDbEntity
  8
躯体と製品
  6
Continuous
 62
     4
100
AcDbLine
 10
-926.812125939022
 20
3584.783404165618
 30
0.0
 11
-926.812125939022
 21
3579.783404165617
 31
0.0
  0
LINE
  5
4EFF9
330
1F
100
AcDbEntity
  8
躯体と製品
  6
Continuous
 62
     4
100
AcDbLine
 10
-929.2565703834236
 20
3579.783404165617
 30
0.0
 11
-929.2565703834236
 21
3584.783404165618
 31
0.0
  0
LINE
  5
4EFFA
330
1F
100
AcDbEntity
  8
躯体と製品
  6
Continuous
 62
     4
100
AcDbLine
 10
-920.9890657654225
 20
3579.783404165617
 30
0.0
 11
-920.9890657654225
 21
3584.783404165618
 31
0.0
  0
LINE
  5
4EFFB
330
1F
100
AcDbEntity
  8
躯体と製品
  6
Continuous
 62
     4
100
AcDbLine
 10
-935.0796305570231
 20
3584.783404165618
 30
0.0
 11
-935.0796305570231
 21
3579.783404165617
 31
0.0
  0
LINE
  5
4EFFC
330
1F
100
AcDbEntity
  8
躯体と製品
  6
Continuous
 62
     4
100
AcDbLine
 10
-884.0383452272229
 20
3584.408798237222
 30
0.0
 11
-915.6768173554238
 21
3568.237437047422
 31
0.0
  0
LINE
  5
4EFFD
330
1F
100
AcDbEntity
  8
躯体と製品
  6
Continuous
 62
     4
100
AcDbLine
 10
-916.4421842200219
 20
3568.237437047422
 30
0.0
 11
-916.1555432980215
 21
3568.253604462218
 31
0.0
  0
LINE
  5
4EFFE
330
1F
100
AcDbEntity
  8
躯体と製品
  6
Continuous
 62
     4
100
AcDbLine
 10
-916.1555432980215
 20
3568.253604462218
 30
0.0
 11
-915.900196775224
 21
3568.253604462218
 31
0.0
  0
LINE
  5
4EFFF
330
1F
100
AcDbEntity
  8
躯体と製品
  6
Continuous
 62
     4
100
AcDbLine
 10
-915.900196775224
 20
3568.253604462218
 30
0.0
 11
-915.6768173554238
 21
3568.237437047422
 31
0.0
  0
LINE
  5
4F000
330
1F
100
AcDbEntity
  8
躯体と製品
  6
Continuous
 62
     4
100
AcDbLine
 10
-885.3728709548242
 20
3584.117884266817
 30
0.0
 11
-916.4421842200219
 21
3568.237437047422
 31
0.0
  0
LINE
  5
4F001
330
1F
100
AcDbEntity
  8
躯体と製品
  6
Continuous
 62
     4
100
AcDbLine
 10
-916.4421842200219
 20
3568.237437047422
 30
0.0
 11
-916.4421842200219
 21
3575.281145844616
 31
0.0
  0
LINE
  5
4F002
330
1F
100
AcDbEntity
  8
躯体と製品
  6
Continuous
 62
     4
100
AcDbLine
 10
-939.6265121024237
 20
3568.237437047422
 30
0.0
 11
-939.6265121024237
 21
3575.281145844616
 31
0.0
  0
LINE
  5
4F003
330
1F
100
AcDbEntity
  8
躯体と製品
  6
Continuous
 62
     4
100
AcDbLine
 10
-970.6958253678251
 20
3584.117884266817
 30
0.0
 11
-939.6265121024237
 21
3568.237437047422
 31
0.0
  0
LINE
  5
4F004
330
1F
100
AcDbEntity
  8
躯体と製品
  6
Continuous
 62
     4
100
AcDbLine
 10
-940.3918789672218
 20
3568.237437047422
 30
0.0
 11
-940.1684995472253
 21
3568.253604462218
 31
0.0
  0
LINE
  5
4F005
330
1F
100
AcDbEntity
  8
躯体と製品
  6
Continuous
 62
     4
100
AcDbLine
 10
-940.1684995472253
 20
3568.253604462218
 30
0.0
 11
-939.9131530244206
 21
3568.253604462218
 31
0.0
  0
LINE
  5
4F006
330
1F
100
AcDbEntity
  8
躯体と製品
  6
Continuous
 62
     4
100
AcDbLine
 10
-939.9131530244206
 20
3568.253604462218
 30
0.0
 11
-939.6265121024237
 21
3568.237437047422
 31
0.0
  0
LINE
  5
4F007
330
1F
100
AcDbEntity
  8
躯体と製品
  6
Continuous
 62
     4
100
AcDbLine
 10
-972.0303510954229
 20
3584.408798237222
 30
0.0
 11
-940.3918789672218
 21
3568.237437047422
 31
0.0
  0
LINE
  5
4F008
330
1F
100
AcDbEntity
  8
躯体と製品
  6
Continuous
 62
     4
100
AcDbLine
 10
-912.6793469632223
 20
3579.783404165617
 30
0.0
 11
-912.793606100223
 21
3579.783404165617
 31
0.0
  0
LINE
  5
4F009
330
1F
100
AcDbEntity
  8
躯体と製品
  6
Continuous
 62
     4
100
AcDbLine
 10
-943.2750902222226
 20
3579.783404165617
 30
0.0
 11
-943.3893493592234
 21
3579.783404165617
 31
0.0
  0
LINE
  5
4F00A
330
1F
100
AcDbEntity
  8
躯体と製品
  6
Continuous
 62
     4
100
AcDbLine
 10
-885.1426201998231
 20
3583.844370556821
 30
0.0
 11
-881.0343481612228
 21
3584.783404165618
 31
0.0
  0
LINE
  5
4F00B
330
1F
100
AcDbEntity
  8
躯体と製品
  6
Continuous
 62
     4
100
AcDbLine
 10
-970.9260761228227
 20
3583.844370556821
 30
0.0
 11
-975.0343481612228
 21
3584.783404165618
 31
0.0
  0
LINE
  5
4F00C
330
1F
100
AcDbEntity
  8
躯体と製品
  6
Continuous
 62
     4
100
AcDbLine
 10
-976.0343481612228
 20
3592.783404165618
 30
0.0
 11
-939.5343481612227
 21
3592.783404165618
 31
0.0
  0
LINE
  5
4F00D
330
1F
100
AcDbEntity
  8
躯体と製品
  6
Continuous
 62
     4
100
AcDbLine
 10
-976.0343481612228
 20
3585.783404165618
 30
0.0
 11
-880.0343481612229
 21
3585.783404165618
 31
0.0
  0
LINE
  5
4F00E
330
1F
100
AcDbEntity
  8
躯体と製品
  6
Continuous
 62
     4
100
AcDbLine
 10
-885.0343481612227
 20
3592.783404165618
 30
0.0
 11
-885.0343481612227
 21
3584.783404165618
 31
0.0
  0
LINE
  5
4F00F
330
1F
100
AcDbEntity
  8
躯体と製品
  6
Continuous
 62
     4
100
AcDbLine
 10
-916.5343481612229
 20
3592.783404165618
 30
0.0
 11
-880.0343481612229
 21
3592.783404165618
 31
0.0
  0
LINE
  5
4F010
330
1F
100
AcDbEntity
  8
躯体と製品
  6
Continuous
 62
     4
100
AcDbLine
 10
-971.0343481612229
 20
3592.783404165618
 30
0.0
 11
-971.0343481612229
 21
3584.783404165618
 31
0.0
  0
LINE
  5
4F011
330
1F
100
AcDbEntity
  8
躯体と製品
  6
Continuous
 62
     4
100
AcDbLine
 10
-881.0343481612228
 20
3584.783404165618
 30
0.0
 11
-975.0343481612228
 21
3584.783404165618
 31
0.0
  0
LINE
  5
4F012
330
1F
100
AcDbEntity
  8
躯体と製品
  6
Continuous
 62
     4
100
AcDbLine
 10
-928.7843481612227
 20
3579.783404165617
 30
0.0
 11
-935.7016903778214
 21
3579.783404165617
 31
0.0
  0
LINE
  5
4F013
330
1F
100
AcDbEntity
  8
躯体と製品
  6
Continuous
 62
     4
100
AcDbLine
 10
-920.3670059448207
 20
3579.783404165617
 30
0.0
 11
-927.2843481612229
 21
3579.783404165617
 31
0.0
  0
LINE
  5
4F014
330
1F
100
AcDbEntity
  8
中心線
  6
CENTER1
 62
     7
100
AcDbLine
 10
-928.0343481612229
 20
3598.265819298177
 30
0.0
 11
-928.0343481612229
 21
3470.024912184372
 31
0.0
  0
LINE
  5
4F025
330
1F
100
AcDbEntity
  8
躯体と製品
  6
Continuous
 62
     4
100
AcDbLine
 10
-916.5343481612229
 20
3612.783404165617
 30
0.0
 11
-916.5343481612229
 21
3592.783404165618
 31
0.0
  0
LINE
  5
4F026
330
1F
100
AcDbEntity
  8
躯体と製品
  6
Continuous
 62
     4
100
AcDbLine
 10
-939.5343481612227
 20
3612.783404165617
 30
0.0
 11
-939.5343481612227
 21
3592.783404165618
 31
0.0
  0
LINE
  5
500AC
330
1F
100
AcDbEntity
  8
躯体と製品
  6
Continuous
 62
     4
100
AcDbLine
 10
-926.5343481612227
 20
3567.783404165618
 30
0.0
 11
-926.5343481612227
 21
3528.783404165618
 31
0.0
  0
LINE
  5
500AD
330
1F
100
AcDbEntity
  8
躯体と製品
  6
Continuous
 62
     4
100
AcDbLine
 10
-938.0343481612227
 20
3567.783404165618
 30
0.0
 11
-938.0343481612227
 21
3528.783404165618
 31
0.0
  0
LINE
  5
500AE
330
1F
100
AcDbEntity
  8
躯体と製品
  6
Continuous
 62
     4
100
AcDbLine
 10
-929.5343481612226
 20
3567.783404165618
 30
0.0
 11
-929.5343481612226
 21
3528.783404165618
 31
0.0
  0
LINE
  5
500AF
330
1F
100
AcDbEntity
  8
躯体と製品
  6
Continuous
 62
     4
100
AcDbLine
 10
-936.6813481612197
 20
3567.783404165618
 30
0.0
 11
-936.6813481612197
 21
3528.783404165618
 31
0.0
  0
LINE
  5
500B0
330
1F
100
AcDbEntity
  8
躯体と製品
  6
Continuous
 62
     4
100
AcDbLine
 10
-918.0343481612226
 20
3567.783404165618
 30
0.0
 11
-918.0343481612226
 21
3528.783404165618
 31
0.0
  0
LINE
  5
500B1
330
1F
100
AcDbEntity
  8
躯体と製品
  6
Continuous
 62
     4
100
AcDbLine
 10
-938.0343481612227
 20
3528.783404165618
 30
0.0
 11
-918.0343481612226
 21
3528.783404165618
 31
0.0
  0
LINE
  5
500B2
330
1F
100
AcDbEntity
  8
躯体と製品
  6
Continuous
 62
     4
100
AcDbLine
 10
-919.3873481612218
 20
3567.783404165618
 30
0.0
 11
-919.3873481612218
 21
3528.783404165618
 31
0.0
  0
LINE
  5
500B3
330
1F
100
AcDbEntity
  8
躯体と製品
  6
Continuous
 62
     4
100
AcDbLine
 10
-936.5343481612226
 20
3499.783404165618
 30
0.0
 11
-936.5343481612226
 21
3528.783404165618
 31
0.0
  0
LINE
  5
500B4
330
1F
100
AcDbEntity
  8
躯体と製品
  6
Continuous
 62
     4
100
AcDbLine
 10
-919.5343481612226
 20
3499.783404165618
 30
0.0
 11
-919.5343481612226
 21
3528.783404165618
 31
0.0
  0
TEXT
  5
500B5
330
1F
100
AcDbEntity
  8
文字-記号
 62
     7
100
AcDbText
 10
-1058.735112849397
 20
3518.516663916481
 30
0.0
 40
9.0
  1
クッションＬＣゴム
100
AcDbText
  0
LWPOLYLINE
  5
500B6
330
1F
100
AcDbEntity
  8
文字-記号
 62
     7
100
AcDbPolyline
 90
        3
 70
     0
 43
0.0
 10
-900.9947255871299
 20
3576.328692022929
 10
-888.9600680279979
 20
3555.48405367882
 10
-826.4939953938634
 20
3555.48405367882
  0
TEXT
  5
500B7
330
1F
100
AcDbEntity
  8
文字-記号
 62
     7
100
AcDbText
 10
-885.5205307706098
 20
3557.962707163089
 30
0.0
 40
9.0
  1
ボード受け
100
AcDbText
  0
LWPOLYLINE
  5
500B8
330
1F
100
AcDbEntity
  8
文字-記号
 62
     7
100
AcDbPolyline
 90
        3
 70
     0
 43
0.0
 10
-946.9503405560903
 20
3489.503924129091
 10
-960.7343376858302
 20
3513.378507489184
 10
-1063.215905726811
 20
3513.378507489184
  0
LWPOLYLINE
  5
500B9
330
1F
100
AcDbEntity
  8
文字-記号
 62
     7
100
AcDbPolyline
 90
        3
 70
     0
 43
0.0
 10
-1302.967670035894
 20
3484.433414396082
 10
-1288.767680511287
 20
3509.028517719648
 10
-1178.882790358388
 20
3509.028517719648
  0
TEXT
  5
500BA
330
1F
100
AcDbEntity
  8
文字-記号
 62
     7
100
AcDbText
 10
-1285.885964198249
 20
3514.166674146944
 30
0.0
 40
9.0
  1
クッションＬＫＧゴム
100
AcDbText
  0
LWPOLYLINE
  5
500BB
330
1F
100
AcDbEntity
  8
文字-記号
 62
     7
100
AcDbPolyline
 90
        3
 70
     0
 43
0.0
 10
-1349.467670183178
 20
3667.460206733333
 10
-1335.26768065857
 20
3692.055310056898
 10
-1289.103387262063
 20
3692.055310056898
  0
TEXT
  5
500BC
330
1F
100
AcDbEntity
  8
文字-記号
 62
     7
100
AcDbText
 10
-1329.393988215424
 20
3696.391768896359
 30
0.0
 40
9.0
  1
巾　木
100
AcDbText
  0
LWPOLYLINE
  5
500BD
330
1F
100
AcDbEntity
  8
文字-記号
 62
     7
100
AcDbPolyline
 90
        3
 70
     0
 43
0.0
 10
-1052.607226302805
 20
3624.783404165618
 10
-1019.40998678847
 20
3682.28270967548
 10
-879.5665968389405
 20
3682.28270967548
  0
TEXT
  5
500BE
330
1F
100
AcDbEntity
  8
文字-記号
 62
     7
100
AcDbText
 10
-1016.528270475432
 20
3687.420866102777
 30
0.0
 40
9.0
  1
フローリング t＝１２ｍｍ
100
AcDbText
  0
LWPOLYLINE
  5
500BF
330
1F
100
AcDbEntity
  8
文字-記号
 62
     7
100
AcDbPolyline
 90
        3
 70
     0
 43
0.0
 10
-1030.713246502688
 20
3602.896302666523
 10
-1002.144734917269
 20
3652.378416229087
 10
-835.4291680458484
 20
3652.378416229087
  0
TEXT
  5
500C0
330
1F
100
AcDbEntity
  8
文字-記号
 62
     7
100
AcDbText
 10
-999.2630186042319
 20
3657.516572656385
 30
0.0
 40
9.0
  1
パーティクルボード t＝２０ｍｍ
100
AcDbText
  0
LWPOLYLINE
  5
500C1
330
1F
100
AcDbEntity
  8
文字-記号
 62
     7
100
AcDbPolyline
 90
        3
 70
     0
 43
0.0
 10
-1296.467670183178
 20
3572.713565415856
 10
-1250.473147121208
 20
3652.378416229087
 10
-1146.575495627422
 20
3652.378416229087
  0
TEXT
  5
500C2
330
1F
100
AcDbEntity
  8
文字-記号
 62
     7
100
AcDbText
 10
-1247.59143080817
 20
3657.516572656385
 30
0.0
 40
9.0
  1
防音システム際根太
100
AcDbText
  0
TEXT
  5
500C3
330
1F
100
AcDbEntity
  8
文字-記号
  6
Continuous
 62
     3
100
AcDbText
 10
-1329.248011417562
 20
3815.637241709394
 30
0.0
 40
15.0
  1
（一般居室用）
  7
ACAD
100
AcDbText
  0
DIMENSION
  5
500C4
330
1F
100
AcDbEntity
  8
寸法
  6
Continuous
100
AcDbDimension
  2
*D2
 10
-669.7275376315328
 20
3612.783404165617
 30
0.0
 11
-677.2275376315334
 21
3543.783404165618
 31
0.0
 70
    32
  1
h=52～334
 71
     5
 42
138.0
  3
AutoCAD
100
AcDbAlignedDimension
 13
-708.9594186315339
 23
3474.783404165618
 33
0.0
 14
-708.9594186315334
 24
3612.783404165617
 34
0.0
 50
90.0
100
AcDbRotatedDimension
1001
ACAD
1000
DSTYLE
1002
{
1070
   140
1040
9.0
1002
}
  0
LINE
  5
50CE4
330
1F
100
AcDbEntity
  8
躯体と製品
  6
Continuous
 62
     4
100
AcDbLine
 10
-1341.467670183178
 20
3592.783404165618
 30
0.0
 11
-1296.467670183178
 21
3592.783404165618
 31
0.0
  0
LINE
  5
50CE5
330
1F
100
AcDbEntity
  8
躯体と製品
  6
Continuous
 62
     4
100
AcDbLine
 10
-1296.467670183178
 20
3592.783404165618
 30
0.0
 11
-1296.467670183178
 21
3562.783404165617
 31
0.0
  0
LINE
  5
50CE6
330
1F
100
AcDbEntity
  8
躯体と製品
  6
Continuous
 62
     4
100
AcDbLine
 10
-1296.467670183178
 20
3562.783404165617
 30
0.0
 11
-1341.467670183178
 21
3562.783404165617
 31
0.0
  0
LINE
  5
50CE7
330
1F
100
AcDbEntity
  8
躯体と製品
  6
Continuous
 62
     4
100
AcDbLine
 10
-1341.467670183178
 20
3562.783404165617
 30
0.0
 11
-1341.467670183178
 21
3592.783404165618
 31
0.0
  0
LINE
  5
50CE8
330
1F
100
AcDbEntity
  8
躯体と製品
  6
Continuous
 62
     4
100
AcDbLine
 10
-1341.467670183178
 20
3592.783404165618
 30
0.0
 11
-1296.467670183178
 21
3562.783404165617
 31
0.0
  0
LINE
  5
50CE9
330
1F
100
AcDbEntity
  8
躯体と製品
  6
Continuous
 62
     4
100
AcDbLine
 10
-1296.467670183178
 20
3592.783404165618
 30
0.0
 11
-1341.467670183178
 21
3562.783404165617
 31
0.0
  0
LINE
  5
50CEC
330
1F
100
AcDbEntity
  8
躯体と製品
  6
Continuous
 62
     4
100
AcDbLine
 10
-1317.467670183183
 20
3532.783404165618
 30
0.0
 11
-1317.467670183181
 21
3518.783422782523
 31
0.0
  0
LINE
  5
50CED
330
1F
100
AcDbEntity
  8
躯体と製品
  6
Continuous
 62
     4
100
AcDbLine
 10
-1328.967670183183
 20
3532.783404165618
 30
0.0
 11
-1328.967670183181
 21
3518.783422782523
 31
0.0
  0
LINE
  5
50CEE
330
1F
100
AcDbEntity
  8
躯体と製品
  6
Continuous
 62
     4
100
AcDbLine
 10
-1320.467670183181
 20
3532.783404165618
 30
0.0
 11
-1320.467670183181
 21
3518.783422782523
 31
0.0
  0
LINE
  5
50CEF
330
1F
100
AcDbEntity
  8
躯体と製品
  6
Continuous
 62
     4
100
AcDbLine
 10
-1327.614670183179
 20
3532.783404165618
 30
0.0
 11
-1327.614670183179
 21
3518.783422782523
 31
0.0
  0
LINE
  5
50CF0
330
1F
100
AcDbEntity
  8
躯体と製品
  6
Continuous
 62
     4
100
AcDbLine
 10
-1308.967670183183
 20
3532.783404165618
 30
0.0
 11
-1308.967670183181
 21
3518.783422782523
 31
0.0
  0
LINE
  5
50CF1
330
1F
100
AcDbEntity
  8
躯体と製品
  6
Continuous
 62
     4
100
AcDbLine
 10
-1328.967670183181
 20
3518.783422782523
 30
0.0
 11
-1308.967670183181
 21
3518.783422782523
 31
0.0
  0
LINE
  5
50CF2
330
1F
100
AcDbEntity
  8
躯体と製品
  6
Continuous
 62
     4
100
AcDbLine
 10
-1310.32067018318
 20
3532.783404165618
 30
0.0
 11
-1310.32067018318
 21
3518.783422782523
 31
0.0
  0
LINE
  5
50CF3
330
1F
100
AcDbEntity
  8
躯体と製品
  6
Continuous
 62
     4
100
AcDbLine
 10
-1327.467670183181
 20
3490.083406009639
 30
0.0
 11
-1327.467670183181
 21
3518.783422782523
 31
0.0
  0
LINE
  5
50CF4
330
1F
100
AcDbEntity
  8
躯体と製品
  6
Continuous
 62
     4
100
AcDbLine
 10
-1310.467670183181
 20
3490.083406009639
 30
0.0
 11
-1310.467670183181
 21
3518.783422782523
 31
0.0
  0
LINE
  5
50CF5
330
1F
100
AcDbEntity
  8
躯体と製品
  6
Continuous
 62
     4
100
AcDbLine
 10
-1331.467670183229
 20
3532.783404165618
 30
0.0
 11
-1306.467670183228
 21
3532.783404165618
 31
0.0
  0
LINE
  5
50CF6
330
1F
100
AcDbEntity
  8
躯体と製品
  6
Continuous
 62
     4
100
AcDbLine
 10
-1340.967670183228
 20
3557.783404165618
 30
0.0
 11
-1296.967670183228
 21
3557.783404165618
 31
0.0
  0
LINE
  5
50CF7
330
1F
100
AcDbEntity
  8
躯体と製品
  6
Continuous
 62
     4
100
AcDbLine
 10
-1340.967670183228
 20
3562.783404165617
 30
0.0
 11
-1296.967670183228
 21
3562.783404165617
 31
0.0
  0
LINE
  5
50CF8
330
1F
100
AcDbEntity
  8
躯体と製品
  6
Continuous
 62
     4
100
AcDbLine
 10
-1335.000537274027
 20
3550.152636999716
 30
0.0
 11
-1330.464762813328
 21
3532.783404165618
 31
0.0
  0
LINE
  5
50CF9
330
1F
100
AcDbEntity
  8
躯体と製品
  6
Continuous
 62
     4
100
AcDbLine
 10
-1307.470577553125
 20
3532.783404165618
 30
0.0
 11
-1302.93480309243
 21
3550.152636999716
 31
0.0
  0
LINE
  5
50CFA
330
1F
100
AcDbEntity
  8
躯体と製品
  6
Continuous
 62
     4
100
AcDbLine
 10
-1337.730582784425
 20
3556.387312883221
 30
0.0
 11
-1338.725892807924
 21
3557.783404538117
 31
0.0
  0
LINE
  5
50CFB
330
1F
100
AcDbEntity
  8
躯体と製品
  6
Continuous
 62
     4
100
AcDbLine
 10
-1336.856989170926
 20
3554.909395226918
 30
0.0
 11
-1337.730582784425
 21
3556.387312883221
 31
0.0
  0
LINE
  5
50CFC
330
1F
100
AcDbEntity
  8
躯体と製品
  6
Continuous
 62
     4
100
AcDbLine
 10
-1336.106691490426
 20
3553.359972485917
 30
0.0
 11
-1336.856989170926
 21
3554.909395226918
 31
0.0
  0
LINE
  5
50CFD
330
1F
100
AcDbEntity
  8
躯体と製品
  6
Continuous
 62
     4
100
AcDbLine
 10
-1335.491429995327
 20
3551.777923652619
 30
0.0
 11
-1336.106691490426
 21
3553.359972485917
 31
0.0
  0
LINE
  5
50CFE
330
1F
100
AcDbEntity
  8
躯体と製品
  6
Continuous
 62
     4
100
AcDbLine
 10
-1335.000537316828
 20
3550.152637237415
 30
0.0
 11
-1335.491429995327
 21
3551.777923652619
 31
0.0
  0
LINE
  5
50CFF
330
1F
100
AcDbEntity
  8
躯体と製品
  6
Continuous
 62
     4
100
AcDbLine
 10
-1333.500537274027
 20
3550.152636999716
 30
0.0
 11
-1335.000537274027
 21
3550.152636999716
 31
0.0
  0
LINE
  5
50D00
330
1F
100
AcDbEntity
  8
躯体と製品
  6
Continuous
 62
     4
100
AcDbLine
 10
-1328.964762813328
 20
3532.783404165618
 30
0.0
 11
-1333.500537274027
 21
3550.152636999716
 31
0.0
  0
LINE
  5
50D01
330
1F
100
AcDbEntity
  8
躯体と製品
  6
Continuous
 62
     4
100
AcDbLine
 10
-1328.964762370626
 20
3557.783404538117
 30
0.0
 11
-1328.964762813328
 21
3532.783404165618
 31
0.0
  0
LINE
  5
50D02
330
1F
100
AcDbEntity
  8
躯体と製品
  6
Continuous
 62
     4
100
AcDbLine
 10
-1334.120350870828
 20
3552.141618156522
 30
0.0
 11
-1333.500537071028
 21
3550.152637237415
 31
0.0
  0
LINE
  5
50D03
330
1F
100
AcDbEntity
  8
躯体と製品
  6
Continuous
 62
     4
100
AcDbLine
 10
-1334.752053003329
 20
3553.686637604319
 30
0.0
 11
-1334.120350870828
 21
3552.141618156522
 31
0.0
  0
LINE
  5
50D04
330
1F
100
AcDbEntity
  8
躯体と製品
  6
Continuous
 62
     4
100
AcDbLine
 10
-1335.489867236028
 20
3555.153358900622
 30
0.0
 11
-1334.752053003329
 21
3553.686637604319
 31
0.0
  0
LINE
  5
50D05
330
1F
100
AcDbEntity
  8
躯体と製品
  6
Continuous
 62
     4
100
AcDbLine
 10
-1336.313774790229
 20
3556.514313617416
 30
0.0
 11
-1335.489867236028
 21
3555.153358900622
 31
0.0
  0
LINE
  5
50D06
330
1F
100
AcDbEntity
  8
躯体と製品
  6
Continuous
 62
     4
100
AcDbLine
 10
-1337.225891630726
 20
3557.783404538117
 30
0.0
 11
-1336.313774790229
 21
3556.514313617416
 31
0.0
  0
LINE
  5
50D07
330
1F
100
AcDbEntity
  8
躯体と製品
  6
Continuous
 62
     4
100
AcDbLine
 10
-1304.434803092427
 20
3550.152636999716
 30
0.0
 11
-1308.970577553129
 21
3532.783404165618
 31
0.0
  0
LINE
  5
50D08
330
1F
100
AcDbEntity
  8
躯体と製品
  6
Continuous
 62
     4
100
AcDbLine
 10
-1308.970577995827
 20
3557.783404538117
 30
0.0
 11
-1308.970577553129
 21
3532.783404165618
 31
0.0
  0
LINE
  5
50D09
330
1F
100
AcDbEntity
  8
躯体と製品
  6
Continuous
 62
     4
100
AcDbLine
 10
-1301.704758759228
 20
3556.387312883221
 30
0.0
 11
-1300.709448735724
 21
3557.783404538117
 31
0.0
  0
LINE
  5
50D0A
330
1F
100
AcDbEntity
  8
躯体と製品
  6
Continuous
 62
     4
100
AcDbLine
 10
-1302.578350510026
 20
3554.909395226918
 30
0.0
 11
-1301.704758759228
 21
3556.387312883221
 31
0.0
  0
LINE
  5
50D0B
330
1F
100
AcDbEntity
  8
躯体と製品
  6
Continuous
 62
     4
100
AcDbLine
 10
-1303.328648190527
 20
3553.359972485917
 30
0.0
 11
-1302.578350510026
 21
3554.909395226918
 31
0.0
  0
LINE
  5
50D0C
330
1F
100
AcDbEntity
  8
躯体と製品
  6
Continuous
 62
     4
100
AcDbLine
 10
-1303.943910617025
 20
3551.777923652619
 30
0.0
 11
-1303.328648190527
 21
3553.359972485917
 31
0.0
  0
LINE
  5
50D0D
330
1F
100
AcDbEntity
  8
躯体と製品
  6
Continuous
 62
     4
100
AcDbLine
 10
-1304.434803295527
 20
3550.152637237415
 30
0.0
 11
-1303.943910617025
 21
3551.777923652619
 31
0.0
  0
LINE
  5
50D0E
330
1F
100
AcDbEntity
  8
躯体と製品
  6
Continuous
 62
     4
100
AcDbLine
 10
-1302.93480309243
 20
3550.152636999716
 30
0.0
 11
-1304.434803092427
 21
3550.152636999716
 31
0.0
  0
LINE
  5
50D0F
330
1F
100
AcDbEntity
  8
躯体と製品
  6
Continuous
 62
     4
100
AcDbLine
 10
-1302.314989249727
 20
3552.141618156522
 30
0.0
 11
-1302.934803049626
 21
3550.152637237415
 31
0.0
  0
LINE
  5
50D10
330
1F
100
AcDbEntity
  8
躯体と製品
  6
Continuous
 62
     4
100
AcDbLine
 10
-1301.683288048527
 20
3553.686637604319
 30
0.0
 11
-1302.314989249727
 21
3552.141618156522
 31
0.0
  0
LINE
  5
50D11
330
1F
100
AcDbEntity
  8
躯体と製品
  6
Continuous
 62
     4
100
AcDbLine
 10
-1300.945473815827
 20
3555.153358900622
 30
0.0
 11
-1301.683288048527
 21
3553.686637604319
 31
0.0
  0
LINE
  5
50D12
330
1F
100
AcDbEntity
  8
躯体と製品
  6
Continuous
 62
     4
100
AcDbLine
 10
-1300.121566261729
 20
3556.514313617416
 30
0.0
 11
-1300.945473815827
 21
3555.153358900622
 31
0.0
  0
LINE
  5
50D13
330
1F
100
AcDbEntity
  8
躯体と製品
  6
Continuous
 62
     4
100
AcDbLine
 10
-1299.209447558525
 20
3557.783404538117
 30
0.0
 11
-1300.121566261729
 21
3556.514313617416
 31
0.0
  0
LINE
  5
50D14
330
1F
100
AcDbEntity
  8
躯体と製品
  6
Continuous
 62
     4
100
AcDbLine
 10
-1317.467670183228
 20
3550.152636999716
 30
0.0
 11
-1320.467670183228
 21
3550.152636999716
 31
0.0
  0
LINE
  5
50D15
330
1F
100
AcDbEntity
  8
躯体と製品
  6
Continuous
 62
     4
100
AcDbLine
 10
-1331.467670369529
 20
3536.623923979416
 30
0.0
 11
-1331.467670183229
 21
3532.783404165618
 31
0.0
  0
LINE
  5
50D16
330
1F
100
AcDbEntity
  8
躯体と製品
  6
Continuous
 62
     4
100
AcDbLine
 10
-1306.467670183228
 20
3532.783404165618
 30
0.0
 11
-1306.467669996927
 21
3536.623923979416
 31
0.0
  0
LINE
  5
50D17
330
1F
100
AcDbEntity
  8
躯体と製品
  6
Continuous
 62
     4
100
AcDbLine
 10
-1296.967670183228
 20
3557.783404165618
 30
0.0
 11
-1296.967670183228
 21
3562.783404165617
 31
0.0
  0
LINE
  5
50D18
330
1F
100
AcDbEntity
  8
躯体と製品
  6
Continuous
 62
     4
100
AcDbLine
 10
-1340.967670183228
 20
3562.783404165617
 30
0.0
 11
-1340.967670183228
 21
3557.783404165618
 31
0.0
  0
LINE
  5
50D19
330
1F
100
AcDbEntity
  8
躯体と製品
  6
Continuous
 62
     4
100
AcDbLine
 10
-1320.467670183228
 20
3557.783404165618
 30
0.0
 11
-1320.467670183228
 21
3532.783404165618
 31
0.0
  0
LINE
  5
50D1A
330
1F
100
AcDbEntity
  8
躯体と製品
  6
Continuous
 62
     4
100
AcDbLine
 10
-1317.467670183228
 20
3532.783404165618
 30
0.0
 11
-1317.467670183228
 21
3557.783404165618
 31
0.0
  0
CIRCLE
  5
50EE7
330
1F
100
AcDbEntity
  8
躯体と製品
  6
Continuous
 62
     3
100
AcDbCircle
 10
-1331.467670183178
 20
3606.783404165618
 30
0.0
 40
0.9999999999999998
  0
CIRCLE
  5
50EE8
330
1F
100
AcDbEntity
  8
躯体と製品
  6
Continuous
 62
     3
100
AcDbCircle
 10
-1321.467670183178
 20
3606.783404165618
 30
0.0
 40
0.9999999999999998
  0
CIRCLE
  5
50EE9
330
1F
100
AcDbEntity
  8
躯体と製品
  6
Continuous
 62
     3
100
AcDbCircle
 10
-1301.467670183177
 20
3606.783404165618
 30
0.0
 40
0.9999999999999998
  0
CIRCLE
  5
50EEA
330
1F
100
AcDbEntity
  8
躯体と製品
  6
Continuous
 62
     3
100
AcDbCircle
 10
-1291.467670183177
 20
3606.783404165618
 30
0.0
 40
0.9999999999999998
  0
CIRCLE
  5
50EEB
330
1F
100
AcDbEntity
  8
躯体と製品
  6
Continuous
 62
     3
100
AcDbCircle
 10
-1281.467670183177
 20
3606.783404165618
 30
0.0
 40
0.9999999999999998
  0
CIRCLE
  5
50EEC
330
1F
100
AcDbEntity
  8
躯体と製品
  6
Continuous
 62
     3
100
AcDbCircle
 10
-1261.467670183178
 20
3606.783404165618
 30
0.0
 40
0.9999999999999998
  0
CIRCLE
  5
50EED
330
1F
100
AcDbEntity
  8
躯体と製品
  6
Continuous
 62
     3
100
AcDbCircle
 10
-1251.467670183177
 20
3606.783404165618
 30
0.0
 40
0.9999999999999998
  0
CIRCLE
  5
50EEE
330
1F
100
AcDbEntity
  8
躯体と製品
  6
Continuous
 62
     3
100
AcDbCircle
 10
-1321.467670183178
 20
3598.783404165618
 30
0.0
 40
0.9999999999999998
  0
CIRCLE
  5
50EEF
330
1F
100
AcDbEntity
  8
躯体と製品
  6
Continuous
 62
     3
100
AcDbCircle
 10
-1311.467670183178
 20
3598.783404165618
 30
0.0
 40
0.9999999999999998
  0
CIRCLE
  5
50EF0
330
1F
100
AcDbEntity
  8
躯体と製品
  6
Continuous
 62
     3
100
AcDbCircle
 10
-1301.467670183177
 20
3598.783404165618
 30
0.0
 40
0.9999999999999998
  0
CIRCLE
  5
50EF1
330
1F
100
AcDbEntity
  8
躯体と製品
  6
Continuous
 62
     3
100
AcDbCircle
 10
-1281.467670183177
 20
3598.783404165618
 30
0.0
 40
0.9999999999999998
  0
CIRCLE
  5
50EF2
330
1F
100
AcDbEntity
  8
躯体と製品
  6
Continuous
 62
     3
100
AcDbCircle
 10
-1271.467670183177
 20
3598.783404165618
 30
0.0
 40
0.9999999999999998
  0
CIRCLE
  5
50EF3
330
1F
100
AcDbEntity
  8
躯体と製品
  6
Continuous
 62
     3
100
AcDbCircle
 10
-1261.467670183178
 20
3598.783404165618
 30
0.0
 40
0.9999999999999998
  0
CIRCLE
  5
50EF4
330
1F
100
AcDbEntity
  8
躯体と製品
  6
Continuous
 62
     3
100
AcDbCircle
 10
-1336.467670183178
 20
3602.783404165618
 30
0.0
 40
0.9999999999999998
  0
CIRCLE
  5
50EF5
330
1F
100
AcDbEntity
  8
躯体と製品
  6
Continuous
 62
     3
100
AcDbCircle
 10
-1296.467670183178
 20
3602.783404165618
 30
0.0
 40
0.9999999999999998
  0
CIRCLE
  5
50EF6
330
1F
100
AcDbEntity
  8
躯体と製品
  6
Continuous
 62
     3
100
AcDbCircle
 10
-1328.967670183178
 20
3596.783404165618
 30
0.0
 40
0.9999999999999998
  0
CIRCLE
  5
50EF7
330
1F
100
AcDbEntity
  8
躯体と製品
  6
Continuous
 62
     3
100
AcDbCircle
 10
-1288.967670183178
 20
3596.783404165618
 30
0.0
 40
0.9999999999999998
  0
CIRCLE
  5
50EF8
330
1F
100
AcDbEntity
  8
躯体と製品
  6
Continuous
 62
     3
100
AcDbCircle
 10
-1313.967670183177
 20
3608.783404165617
 30
0.0
 40
0.9999999999999998
  0
CIRCLE
  5
50EF9
330
1F
100
AcDbEntity
  8
躯体と製品
  6
Continuous
 62
     3
100
AcDbCircle
 10
-1273.967670183178
 20
3608.783404165617
 30
0.0
 40
0.9999999999999998
  0
CIRCLE
  5
50EFA
330
1F
100
AcDbEntity
  8
躯体と製品
  6
Continuous
 62
     3
100
AcDbCircle
 10
-1248.967670183178
 20
3596.783404165618
 30
0.0
 40
0.9999999999999998
  0
CIRCLE
  5
50EFB
330
1F
100
AcDbEntity
  8
躯体と製品
  6
Continuous
 62
     3
100
AcDbCircle
 10
-1233.967670183178
 20
3608.783404165617
 30
0.0
 40
0.9999999999999998
  0
CIRCLE
  5
50EFC
330
1F
100
AcDbEntity
  8
躯体と製品
  6
Continuous
 62
     3
100
AcDbCircle
 10
-1193.967670183178
 20
3608.783404165617
 30
0.0
 40
0.9999999999999998
  0
CIRCLE
  5
50EFD
330
1F
100
AcDbEntity
  8
躯体と製品
  6
Continuous
 62
     3
100
AcDbCircle
 10
-1153.967670183178
 20
3608.783404165617
 30
0.0
 40
0.9999999999999998
  0
CIRCLE
  5
50EFE
330
1F
100
AcDbEntity
  8
躯体と製品
  6
Continuous
 62
     3
100
AcDbCircle
 10
-1113.967670183177
 20
3608.783404165617
 30
0.0
 40
0.9999999999999998
  0
CIRCLE
  5
50EFF
330
1F
100
AcDbEntity
  8
躯体と製品
  6
Continuous
 62
     3
100
AcDbCircle
 10
-1073.967670183177
 20
3608.783404165617
 30
0.0
 40
0.9999999999999998
  0
CIRCLE
  5
50F00
330
1F
100
AcDbEntity
  8
躯体と製品
  6
Continuous
 62
     3
100
AcDbCircle
 10
-1033.967670183177
 20
3608.783404165617
 30
0.0
 40
0.9999999999999998
  0
CIRCLE
  5
50F01
330
1F
100
AcDbEntity
  8
躯体と製品
  6
Continuous
 62
     3
100
AcDbCircle
 10
-993.9676701831777
 20
3608.783404165617
 30
0.0
 40
0.9999999999999998
  0
CIRCLE
  5
50F02
330
1F
100
AcDbEntity
  8
躯体と製品
  6
Continuous
 62
     3
100
AcDbCircle
 10
-953.9676701831776
 20
3608.783404165617
 30
0.0
 40
0.9999999999999998
  0
CIRCLE
  5
50F03
330
1F
100
AcDbEntity
  8
躯体と製品
  6
Continuous
 62
     3
100
AcDbCircle
 10
-873.9676701831777
 20
3608.783404165617
 30
0.0
 40
0.9999999999999998
  0
CIRCLE
  5
50F04
330
1F
100
AcDbEntity
  8
躯体と製品
  6
Continuous
 62
     3
100
AcDbCircle
 10
-833.9676701831777
 20
3608.783404165617
 30
0.0
 40
0.9999999999999998
  0
CIRCLE
  5
50F05
330
1F
100
AcDbEntity
  8
躯体と製品
  6
Continuous
 62
     3
100
AcDbCircle
 10
-911.9676701831776
 20
3608.783404165617
 30
0.0
 40
0.9999999999999998
  0
CIRCLE
  5
50F06
330
1F
100
AcDbEntity
  8
躯体と製品
  6
Continuous
 62
     3
100
AcDbCircle
 10
-793.9676701831777
 20
3608.783404165617
 30
0.0
 40
0.9999999999999998
  0
CIRCLE
  5
50F07
330
1F
100
AcDbEntity
  8
躯体と製品
  6
Continuous
 62
     3
100
AcDbCircle
 10
-753.9676701831776
 20
3608.783404165617
 30
0.0
 40
0.9999999999999998
  0
CIRCLE
  5
50F08
330
1F
100
AcDbEntity
  8
躯体と製品
  6
Continuous
 62
     3
100
AcDbCircle
 10
-713.9676701831777
 20
3608.783404165617
 30
0.0
 40
0.9999999999999998
  0
CIRCLE
  5
50F09
330
1F
100
AcDbEntity
  8
躯体と製品
  6
Continuous
 62
     3
100
AcDbCircle
 10
-1208.967670183177
 20
3596.783404165618
 30
0.0
 40
0.9999999999999998
  0
CIRCLE
  5
50F0A
330
1F
100
AcDbEntity
  8
躯体と製品
  6
Continuous
 62
     3
100
AcDbCircle
 10
-1168.967670183177
 20
3596.783404165618
 30
0.0
 40
0.9999999999999998
  0
CIRCLE
  5
50F0B
330
1F
100
AcDbEntity
  8
躯体と製品
  6
Continuous
 62
     3
100
AcDbCircle
 10
-1128.967670183177
 20
3596.783404165618
 30
0.0
 40
0.9999999999999998
  0
CIRCLE
  5
50F0C
330
1F
100
AcDbEntity
  8
躯体と製品
  6
Continuous
 62
     3
100
AcDbCircle
 10
-1088.967670183177
 20
3596.783404165618
 30
0.0
 40
0.9999999999999998
  0
CIRCLE
  5
50F0D
330
1F
100
AcDbEntity
  8
躯体と製品
  6
Continuous
 62
     3
100
AcDbCircle
 10
-1048.601644779393
 20
3596.417378761833
 30
0.0
 40
0.9999999999999998
  0
CIRCLE
  5
50F0E
330
1F
100
AcDbEntity
  8
躯体と製品
  6
Continuous
 62
     3
100
AcDbCircle
 10
-1008.601644779393
 20
3596.417378761833
 30
0.0
 40
0.9999999999999998
  0
CIRCLE
  5
50F0F
330
1F
100
AcDbEntity
  8
躯体と製品
  6
Continuous
 62
     3
100
AcDbCircle
 10
-968.6016447793926
 20
3596.417378761833
 30
0.0
 40
0.9999999999999998
  0
CIRCLE
  5
50F10
330
1F
100
AcDbEntity
  8
躯体と製品
  6
Continuous
 62
     3
100
AcDbCircle
 10
-888.6016447793927
 20
3596.417378761833
 30
0.0
 40
0.9999999999999998
  0
CIRCLE
  5
50F11
330
1F
100
AcDbEntity
  8
躯体と製品
  6
Continuous
 62
     3
100
AcDbCircle
 10
-848.6016447793927
 20
3596.417378761833
 30
0.0
 40
0.9999999999999998
  0
CIRCLE
  5
50F12
330
1F
100
AcDbEntity
  8
躯体と製品
  6
Continuous
 62
     3
100
AcDbCircle
 10
-808.6016447793927
 20
3596.417378761833
 30
0.0
 40
0.9999999999999998
  0
CIRCLE
  5
50F13
330
1F
100
AcDbEntity
  8
躯体と製品
  6
Continuous
 62
     3
100
AcDbCircle
 10
-768.6016447793926
 20
3596.417378761833
 30
0.0
 40
0.9999999999999998
  0
CIRCLE
  5
50F14
330
1F
100
AcDbEntity
  8
躯体と製品
  6
Continuous
 62
     3
100
AcDbCircle
 10
-728.6016447793927
 20
3596.417378761833
 30
0.0
 40
0.9999999999999998
  0
CIRCLE
  5
50F15
330
1F
100
AcDbEntity
  8
躯体と製品
  6
Continuous
 62
     3
100
AcDbCircle
 10
-1241.467670183177
 20
3606.783404165618
 30
0.0
 40
0.9999999999999998
  0
CIRCLE
  5
50F16
330
1F
100
AcDbEntity
  8
躯体と製品
  6
Continuous
 62
     3
100
AcDbCircle
 10
-1221.467670183178
 20
3606.783404165618
 30
0.0
 40
0.9999999999999998
  0
CIRCLE
  5
50F17
330
1F
100
AcDbEntity
  8
躯体と製品
  6
Continuous
 62
     3
100
AcDbCircle
 10
-1211.467670183178
 20
3606.783404165618
 30
0.0
 40
0.9999999999999998
  0
CIRCLE
  5
50F18
330
1F
100
AcDbEntity
  8
躯体と製品
  6
Continuous
 62
     3
100
AcDbCircle
 10
-1201.467670183177
 20
3606.783404165618
 30
0.0
 40
0.9999999999999998
  0
CIRCLE
  5
50F19
330
1F
100
AcDbEntity
  8
躯体と製品
  6
Continuous
 62
     3
100
AcDbCircle
 10
-1181.467670183177
 20
3606.783404165618
 30
0.0
 40
0.9999999999999998
  0
CIRCLE
  5
50F1A
330
1F
100
AcDbEntity
  8
躯体と製品
  6
Continuous
 62
     3
100
AcDbCircle
 10
-1171.467670183178
 20
3606.783404165618
 30
0.0
 40
0.9999999999999998
  0
CIRCLE
  5
50F1B
330
1F
100
AcDbEntity
  8
躯体と製品
  6
Continuous
 62
     3
100
AcDbCircle
 10
-1241.467670183177
 20
3598.783404165618
 30
0.0
 40
0.9999999999999998
  0
CIRCLE
  5
50F1C
330
1F
100
AcDbEntity
  8
躯体と製品
  6
Continuous
 62
     3
100
AcDbCircle
 10
-1231.467670183177
 20
3598.783404165618
 30
0.0
 40
0.9999999999999998
  0
CIRCLE
  5
50F1D
330
1F
100
AcDbEntity
  8
躯体と製品
  6
Continuous
 62
     3
100
AcDbCircle
 10
-1221.467670183178
 20
3598.783404165618
 30
0.0
 40
0.9999999999999998
  0
CIRCLE
  5
50F1E
330
1F
100
AcDbEntity
  8
躯体と製品
  6
Continuous
 62
     3
100
AcDbCircle
 10
-1201.467670183177
 20
3598.783404165618
 30
0.0
 40
0.9999999999999998
  0
CIRCLE
  5
50F1F
330
1F
100
AcDbEntity
  8
躯体と製品
  6
Continuous
 62
     3
100
AcDbCircle
 10
-1191.467670183177
 20
3598.783404165618
 30
0.0
 40
0.9999999999999998
  0
CIRCLE
  5
50F20
330
1F
100
AcDbEntity
  8
躯体と製品
  6
Continuous
 62
     3
100
AcDbCircle
 10
-1181.467670183177
 20
3598.783404165618
 30
0.0
 40
0.9999999999999998
  0
CIRCLE
  5
50F21
330
1F
100
AcDbEntity
  8
躯体と製品
  6
Continuous
 62
     3
100
AcDbCircle
 10
-1141.467670183177
 20
3606.783404165618
 30
0.0
 40
0.9999999999999998
  0
CIRCLE
  5
50F22
330
1F
100
AcDbEntity
  8
躯体と製品
  6
Continuous
 62
     3
100
AcDbCircle
 10
-1131.467670183178
 20
3606.783404165618
 30
0.0
 40
0.9999999999999998
  0
CIRCLE
  5
50F23
330
1F
100
AcDbEntity
  8
躯体と製品
  6
Continuous
 62
     3
100
AcDbCircle
 10
-1121.467670183178
 20
3606.783404165618
 30
0.0
 40
0.9999999999999998
  0
CIRCLE
  5
50F24
330
1F
100
AcDbEntity
  8
躯体と製品
  6
Continuous
 62
     3
100
AcDbCircle
 10
-1101.467670183177
 20
3606.783404165618
 30
0.0
 40
0.9999999999999998
  0
CIRCLE
  5
50F25
330
1F
100
AcDbEntity
  8
躯体と製品
  6
Continuous
 62
     3
100
AcDbCircle
 10
-1091.467670183178
 20
3606.783404165618
 30
0.0
 40
0.9999999999999998
  0
CIRCLE
  5
50F26
330
1F
100
AcDbEntity
  8
躯体と製品
  6
Continuous
 62
     3
100
AcDbCircle
 10
-1151.467670183177
 20
3598.783404165618
 30
0.0
 40
0.9999999999999998
  0
CIRCLE
  5
50F27
330
1F
100
AcDbEntity
  8
躯体と製品
  6
Continuous
 62
     3
100
AcDbCircle
 10
-1141.467670183177
 20
3598.783404165618
 30
0.0
 40
0.9999999999999998
  0
CIRCLE
  5
50F28
330
1F
100
AcDbEntity
  8
躯体と製品
  6
Continuous
 62
     3
100
AcDbCircle
 10
-1121.467670183178
 20
3598.783404165618
 30
0.0
 40
0.9999999999999998
  0
CIRCLE
  5
50F29
330
1F
100
AcDbEntity
  8
躯体と製品
  6
Continuous
 62
     3
100
AcDbCircle
 10
-1111.467670183178
 20
3598.783404165618
 30
0.0
 40
0.9999999999999998
  0
CIRCLE
  5
50F2A
330
1F
100
AcDbEntity
  8
躯体と製品
  6
Continuous
 62
     3
100
AcDbCircle
 10
-1101.467670183177
 20
3598.783404165618
 30
0.0
 40
0.9999999999999998
  0
CIRCLE
  5
50F2B
330
1F
100
AcDbEntity
  8
躯体と製品
  6
Continuous
 62
     3
100
AcDbCircle
 10
-1081.467670183178
 20
3606.783404165618
 30
0.0
 40
0.9999999999999998
  0
CIRCLE
  5
50F2C
330
1F
100
AcDbEntity
  8
躯体と製品
  6
Continuous
 62
     3
100
AcDbCircle
 10
-1061.467670183178
 20
3606.783404165618
 30
0.0
 40
0.9999999999999998
  0
CIRCLE
  5
50F2D
330
1F
100
AcDbEntity
  8
躯体と製品
  6
Continuous
 62
     3
100
AcDbCircle
 10
-1051.467670183177
 20
3606.783404165618
 30
0.0
 40
0.9999999999999998
  0
CIRCLE
  5
50F2E
330
1F
100
AcDbEntity
  8
躯体と製品
  6
Continuous
 62
     3
100
AcDbCircle
 10
-1041.467670183177
 20
3606.783404165618
 30
0.0
 40
0.9999999999999998
  0
CIRCLE
  5
50F2F
330
1F
100
AcDbEntity
  8
躯体と製品
  6
Continuous
 62
     3
100
AcDbCircle
 10
-1021.467670183177
 20
3606.783404165618
 30
0.0
 40
0.9999999999999998
  0
CIRCLE
  5
50F30
330
1F
100
AcDbEntity
  8
躯体と製品
  6
Continuous
 62
     3
100
AcDbCircle
 10
-1011.467670183177
 20
3606.783404165618
 30
0.0
 40
0.9999999999999998
  0
CIRCLE
  5
50F31
330
1F
100
AcDbEntity
  8
躯体と製品
  6
Continuous
 62
     3
100
AcDbCircle
 10
-1081.467670183178
 20
3598.783404165618
 30
0.0
 40
0.9999999999999998
  0
CIRCLE
  5
50F32
330
1F
100
AcDbEntity
  8
躯体と製品
  6
Continuous
 62
     3
100
AcDbCircle
 10
-1071.467670183178
 20
3598.783404165618
 30
0.0
 40
0.9999999999999998
  0
CIRCLE
  5
50F33
330
1F
100
AcDbEntity
  8
躯体と製品
  6
Continuous
 62
     3
100
AcDbCircle
 10
-1061.467670183178
 20
3598.783404165618
 30
0.0
 40
0.9999999999999998
  0
CIRCLE
  5
50F34
330
1F
100
AcDbEntity
  8
躯体と製品
  6
Continuous
 62
     3
100
AcDbCircle
 10
-1041.467670183177
 20
3598.783404165618
 30
0.0
 40
0.9999999999999998
  0
CIRCLE
  5
50F35
330
1F
100
AcDbEntity
  8
躯体と製品
  6
Continuous
 62
     3
100
AcDbCircle
 10
-1031.467670183177
 20
3598.783404165618
 30
0.0
 40
0.9999999999999998
  0
CIRCLE
  5
50F36
330
1F
100
AcDbEntity
  8
躯体と製品
  6
Continuous
 62
     3
100
AcDbCircle
 10
-1021.467670183177
 20
3598.783404165618
 30
0.0
 40
0.9999999999999998
  0
CIRCLE
  5
50F37
330
1F
100
AcDbEntity
  8
躯体と製品
  6
Continuous
 62
     3
100
AcDbCircle
 10
-1001.467670183177
 20
3606.783404165618
 30
0.0
 40
0.9999999999999998
  0
CIRCLE
  5
50F38
330
1F
100
AcDbEntity
  8
躯体と製品
  6
Continuous
 62
     3
100
AcDbCircle
 10
-981.4676701831777
 20
3606.783404165618
 30
0.0
 40
0.9999999999999998
  0
CIRCLE
  5
50F39
330
1F
100
AcDbEntity
  8
躯体と製品
  6
Continuous
 62
     3
100
AcDbCircle
 10
-971.4676701831777
 20
3606.783404165618
 30
0.0
 40
0.9999999999999998
  0
CIRCLE
  5
50F3A
330
1F
100
AcDbEntity
  8
躯体と製品
  6
Continuous
 62
     3
100
AcDbCircle
 10
-961.4676701831777
 20
3606.783404165618
 30
0.0
 40
0.9999999999999998
  0
CIRCLE
  5
50F3B
330
1F
100
AcDbEntity
  8
躯体と製品
  6
Continuous
 62
     3
100
AcDbCircle
 10
-943.4676701831776
 20
3606.783404165618
 30
0.0
 40
0.9999999999999998
  0
CIRCLE
  5
50F3C
330
1F
100
AcDbEntity
  8
躯体と製品
  6
Continuous
 62
     3
100
AcDbCircle
 10
-1001.467670183177
 20
3598.783404165618
 30
0.0
 40
0.9999999999999998
  0
CIRCLE
  5
50F3D
330
1F
100
AcDbEntity
  8
躯体と製品
  6
Continuous
 62
     3
100
AcDbCircle
 10
-991.4676701831776
 20
3598.783404165618
 30
0.0
 40
0.9999999999999998
  0
CIRCLE
  5
50F3E
330
1F
100
AcDbEntity
  8
躯体と製品
  6
Continuous
 62
     3
100
AcDbCircle
 10
-981.4676701831777
 20
3598.783404165618
 30
0.0
 40
0.9999999999999998
  0
CIRCLE
  5
50F3F
330
1F
100
AcDbEntity
  8
躯体と製品
  6
Continuous
 62
     3
100
AcDbCircle
 10
-961.4676701831777
 20
3598.783404165618
 30
0.0
 40
0.9999999999999998
  0
CIRCLE
  5
50F40
330
1F
100
AcDbEntity
  8
躯体と製品
  6
Continuous
 62
     3
100
AcDbCircle
 10
-951.4676701831776
 20
3598.783404165618
 30
0.0
 40
0.9999999999999998
  0
CIRCLE
  5
50F41
330
1F
100
AcDbEntity
  8
躯体と製品
  6
Continuous
 62
     3
100
AcDbCircle
 10
-943.4676701831776
 20
3598.783404165618
 30
0.0
 40
0.9999999999999998
  0
CIRCLE
  5
50F42
330
1F
100
AcDbEntity
  8
躯体と製品
  6
Continuous
 62
     3
100
AcDbCircle
 10
-901.4676701831776
 20
3606.783404165618
 30
0.0
 40
0.9999999999999998
  0
CIRCLE
  5
50F43
330
1F
100
AcDbEntity
  8
躯体と製品
  6
Continuous
 62
     3
100
AcDbCircle
 10
-891.4676701831776
 20
3606.783404165618
 30
0.0
 40
0.9999999999999998
  0
CIRCLE
  5
50F44
330
1F
100
AcDbEntity
  8
躯体と製品
  6
Continuous
 62
     3
100
AcDbCircle
 10
-881.4676701831777
 20
3606.783404165618
 30
0.0
 40
0.9999999999999998
  0
CIRCLE
  5
50F45
330
1F
100
AcDbEntity
  8
躯体と製品
  6
Continuous
 62
     3
100
AcDbCircle
 10
-861.4676701831777
 20
3606.783404165618
 30
0.0
 40
0.9999999999999998
  0
CIRCLE
  5
50F46
330
1F
100
AcDbEntity
  8
躯体と製品
  6
Continuous
 62
     3
100
AcDbCircle
 10
-851.4676701831776
 20
3606.783404165618
 30
0.0
 40
0.9999999999999998
  0
CIRCLE
  5
50F47
330
1F
100
AcDbEntity
  8
躯体と製品
  6
Continuous
 62
     3
100
AcDbCircle
 10
-911.4676701831777
 20
3598.783404165618
 30
0.0
 40
0.9999999999999998
  0
CIRCLE
  5
50F48
330
1F
100
AcDbEntity
  8
躯体と製品
  6
Continuous
 62
     3
100
AcDbCircle
 10
-901.4676701831776
 20
3598.783404165618
 30
0.0
 40
0.9999999999999998
  0
CIRCLE
  5
50F49
330
1F
100
AcDbEntity
  8
躯体と製品
  6
Continuous
 62
     3
100
AcDbCircle
 10
-881.4676701831777
 20
3598.783404165618
 30
0.0
 40
0.9999999999999998
  0
CIRCLE
  5
50F4A
330
1F
100
AcDbEntity
  8
躯体と製品
  6
Continuous
 62
     3
100
AcDbCircle
 10
-871.4676701831777
 20
3598.783404165618
 30
0.0
 40
0.9999999999999998
  0
CIRCLE
  5
50F4B
330
1F
100
AcDbEntity
  8
躯体と製品
  6
Continuous
 62
     3
100
AcDbCircle
 10
-861.4676701831777
 20
3598.783404165618
 30
0.0
 40
0.9999999999999998
  0
CIRCLE
  5
50F4C
330
1F
100
AcDbEntity
  8
躯体と製品
  6
Continuous
 62
     3
100
AcDbCircle
 10
-841.4676701831776
 20
3606.783404165618
 30
0.0
 40
0.9999999999999998
  0
CIRCLE
  5
50F4D
330
1F
100
AcDbEntity
  8
躯体と製品
  6
Continuous
 62
     3
100
AcDbCircle
 10
-821.4676701831777
 20
3606.783404165618
 30
0.0
 40
0.9999999999999998
  0
CIRCLE
  5
50F4E
330
1F
100
AcDbEntity
  8
躯体と製品
  6
Continuous
 62
     3
100
AcDbCircle
 10
-811.4676701831777
 20
3606.783404165618
 30
0.0
 40
0.9999999999999998
  0
CIRCLE
  5
50F4F
330
1F
100
AcDbEntity
  8
躯体と製品
  6
Continuous
 62
     3
100
AcDbCircle
 10
-801.4676701831776
 20
3606.783404165618
 30
0.0
 40
0.9999999999999998
  0
CIRCLE
  5
50F50
330
1F
100
AcDbEntity
  8
躯体と製品
  6
Continuous
 62
     3
100
AcDbCircle
 10
-781.4676701831777
 20
3606.783404165618
 30
0.0
 40
0.9999999999999998
  0
CIRCLE
  5
50F51
330
1F
100
AcDbEntity
  8
躯体と製品
  6
Continuous
 62
     3
100
AcDbCircle
 10
-771.4676701831777
 20
3606.783404165618
 30
0.0
 40
0.9999999999999998
  0
CIRCLE
  5
50F52
330
1F
100
AcDbEntity
  8
躯体と製品
  6
Continuous
 62
     3
100
AcDbCircle
 10
-841.4676701831776
 20
3598.783404165618
 30
0.0
 40
0.9999999999999998
  0
CIRCLE
  5
50F53
330
1F
100
AcDbEntity
  8
躯体と製品
  6
Continuous
 62
     3
100
AcDbCircle
 10
-831.4676701831777
 20
3598.783404165618
 30
0.0
 40
0.9999999999999998
  0
CIRCLE
  5
50F54
330
1F
100
AcDbEntity
  8
躯体と製品
  6
Continuous
 62
     3
100
AcDbCircle
 10
-821.4676701831777
 20
3598.783404165618
 30
0.0
 40
0.9999999999999998
  0
CIRCLE
  5
50F55
330
1F
100
AcDbEntity
  8
躯体と製品
  6
Continuous
 62
     3
100
AcDbCircle
 10
-801.4676701831776
 20
3598.783404165618
 30
0.0
 40
0.9999999999999998
  0
CIRCLE
  5
50F56
330
1F
100
AcDbEntity
  8
躯体と製品
  6
Continuous
 62
     3
100
AcDbCircle
 10
-791.4676701831776
 20
3598.783404165618
 30
0.0
 40
0.9999999999999998
  0
CIRCLE
  5
50F57
330
1F
100
AcDbEntity
  8
躯体と製品
  6
Continuous
 62
     3
100
AcDbCircle
 10
-781.4676701831777
 20
3598.783404165618
 30
0.0
 40
0.9999999999999998
  0
CIRCLE
  5
50F58
330
1F
100
AcDbEntity
  8
躯体と製品
  6
Continuous
 62
     3
100
AcDbCircle
 10
-761.4676701831776
 20
3606.783404165618
 30
0.0
 40
0.9999999999999998
  0
CIRCLE
  5
50F59
330
1F
100
AcDbEntity
  8
躯体と製品
  6
Continuous
 62
     3
100
AcDbCircle
 10
-741.4676701831776
 20
3606.783404165618
 30
0.0
 40
0.9999999999999998
  0
CIRCLE
  5
50F5A
330
1F
100
AcDbEntity
  8
躯体と製品
  6
Continuous
 62
     3
100
AcDbCircle
 10
-731.4676701831777
 20
3606.783404165618
 30
0.0
 40
0.9999999999999998
  0
CIRCLE
  5
50F5B
330
1F
100
AcDbEntity
  8
躯体と製品
  6
Continuous
 62
     3
100
AcDbCircle
 10
-721.4676701831777
 20
3606.783404165618
 30
0.0
 40
0.9999999999999998
  0
CIRCLE
  5
50F5C
330
1F
100
AcDbEntity
  8
躯体と製品
  6
Continuous
 62
     3
100
AcDbCircle
 10
-761.4676701831776
 20
3598.783404165618
 30
0.0
 40
0.9999999999999998
  0
CIRCLE
  5
50F5D
330
1F
100
AcDbEntity
  8
躯体と製品
  6
Continuous
 62
     3
100
AcDbCircle
 10
-751.4676701831777
 20
3598.783404165618
 30
0.0
 40
0.9999999999999998
  0
CIRCLE
  5
50F5E
330
1F
100
AcDbEntity
  8
躯体と製品
  6
Continuous
 62
     3
100
AcDbCircle
 10
-741.4676701831776
 20
3598.783404165618
 30
0.0
 40
0.9999999999999998
  0
CIRCLE
  5
50F5F
330
1F
100
AcDbEntity
  8
躯体と製品
  6
Continuous
 62
     3
100
AcDbCircle
 10
-721.4676701831777
 20
3598.783404165618
 30
0.0
 40
0.9999999999999998
  0
CIRCLE
  5
50F70
330
1F
100
AcDbEntity
  8
躯体と製品
  6
Continuous
 62
     3
100
AcDbCircle
 10
-1256.467670183178
 20
3602.783404165618
 30
0.0
 40
0.9999999999999998
  0
CIRCLE
  5
50F71
330
1F
100
AcDbEntity
  8
躯体と製品
  6
Continuous
 62
     3
100
AcDbCircle
 10
-1216.467670183178
 20
3602.783404165618
 30
0.0
 40
0.9999999999999998
  0
CIRCLE
  5
50F72
330
1F
100
AcDbEntity
  8
躯体と製品
  6
Continuous
 62
     3
100
AcDbCircle
 10
-1176.467670183177
 20
3602.783404165618
 30
0.0
 40
0.9999999999999998
  0
CIRCLE
  5
50F73
330
1F
100
AcDbEntity
  8
躯体と製品
  6
Continuous
 62
     3
100
AcDbCircle
 10
-1136.467670183177
 20
3602.783404165618
 30
0.0
 40
0.9999999999999998
  0
CIRCLE
  5
50F74
330
1F
100
AcDbEntity
  8
躯体と製品
  6
Continuous
 62
     3
100
AcDbCircle
 10
-1096.467670183177
 20
3602.783404165618
 30
0.0
 40
0.9999999999999998
  0
CIRCLE
  5
50F75
330
1F
100
AcDbEntity
  8
躯体と製品
  6
Continuous
 62
     3
100
AcDbCircle
 10
-1056.467670183177
 20
3602.783404165618
 30
0.0
 40
0.9999999999999998
  0
CIRCLE
  5
50F76
330
1F
100
AcDbEntity
  8
躯体と製品
  6
Continuous
 62
     3
100
AcDbCircle
 10
-1016.467670183177
 20
3602.783404165618
 30
0.0
 40
0.9999999999999998
  0
CIRCLE
  5
50F77
330
1F
100
AcDbEntity
  8
躯体と製品
  6
Continuous
 62
     3
100
AcDbCircle
 10
-976.4676701831776
 20
3602.783404165618
 30
0.0
 40
0.9999999999999998
  0
CIRCLE
  5
50F78
330
1F
100
AcDbEntity
  8
躯体と製品
  6
Continuous
 62
     3
100
AcDbCircle
 10
-896.4676701831777
 20
3602.783404165618
 30
0.0
 40
0.9999999999999998
  0
CIRCLE
  5
50F79
330
1F
100
AcDbEntity
  8
躯体と製品
  6
Continuous
 62
     3
100
AcDbCircle
 10
-856.4676701831777
 20
3602.783404165618
 30
0.0
 40
0.9999999999999998
  0
CIRCLE
  5
50F7A
330
1F
100
AcDbEntity
  8
躯体と製品
  6
Continuous
 62
     3
100
AcDbCircle
 10
-816.4676701831776
 20
3602.783404165618
 30
0.0
 40
0.9999999999999998
  0
CIRCLE
  5
50F7B
330
1F
100
AcDbEntity
  8
躯体と製品
  6
Continuous
 62
     3
100
AcDbCircle
 10
-776.4676701831777
 20
3602.783404165618
 30
0.0
 40
0.9999999999999998
  0
CIRCLE
  5
50F7C
330
1F
100
AcDbEntity
  8
躯体と製品
  6
Continuous
 62
     3
100
AcDbCircle
 10
-736.4676701831776
 20
3602.783404165618
 30
0.0
 40
0.9999999999999998
  0
LINE
  5
523D5
330
1F
100
AcDbEntity
  8
躯体と製品
  6
Continuous
 62
     4
100
AcDbLine
 10
-1169.512689535256
 20
3624.783404165618
 30
0.0
 11
-711.9594186315334
 21
3624.783404165618
 31
0.0
  0
LINE
  5
523D6
330
1F
100
AcDbEntity
  8
躯体と製品
  6
Continuous
 62
     4
100
AcDbLine
 10
-1151.037480921188
 20
3592.783404165618
 30
0.0
 11
-711.9594186315334
 21
3592.783404165618
 31
0.0
  0
LINE
  5
523D7
330
1F
100
AcDbEntity
  8
躯体と製品
  6
Continuous
 62
     4
100
AcDbLine
 10
-1459.605617585445
 20
3474.783404165618
 30
0.0
 11
-711.9594186315334
 21
3474.783404165618
 31
0.0
  0
LINE
  5
523D8
330
1F
100
AcDbEntity
  8
躯体と製品
  6
Continuous
 62
     4
100
AcDbLine
 10
-1162.58448630498
 20
3612.783404165617
 30
0.0
 11
-711.9594186315334
 21
3612.783404165617
 31
0.0
  0
LINE
  5
523DD
330
1F
100
AcDbEntity
  8
躯体と製品
  6
Continuous
 62
     3
100
AcDbLine
 10
-1356.467670183177
 20
3690.783404165618
 30
0.0
 11
-1356.467670183177
 21
3630.783404165617
 31
0.0
  0
LINE
  5
523DE
330
1F
100
AcDbEntity
  8
躯体と製品
  6
Continuous
 62
     3
100
AcDbLine
 10
-1356.467670183177
 20
3630.783404165617
 30
0.0
 11
-1349.467670183178
 21
3630.783404165617
 31
0.0
  0
LINE
  5
523DF
330
1F
100
AcDbEntity
  8
躯体と製品
  6
Continuous
 62
     3
100
AcDbLine
 10
-1349.467670183178
 20
3630.783404165617
 30
0.0
 11
-1349.467670183178
 21
3675.110869905294
 31
0.0
  0
LINE
  5
523E0
330
1F
100
AcDbEntity
  8
躯体と製品
  6
Continuous
 62
     3
100
AcDbLine
 10
-1349.467670183178
 20
3675.110869905294
 30
0.0
 11
-1352.230392867095
 21
3675.110869905294
 31
0.0
  0
LINE
  5
523E1
330
1F
100
AcDbEntity
  8
躯体と製品
  6
Continuous
 62
     3
100
AcDbLine
 10
-1352.230392867095
 20
3675.110869905294
 30
0.0
 11
-1352.230392867095
 21
3678.789143568852
 31
0.0
  0
LINE
  5
523E2
330
1F
100
AcDbEntity
  8
躯体と製品
  6
Continuous
 62
     3
100
AcDbLine
 10
-1352.230392867095
 20
3678.789143568852
 30
0.0
 11
-1349.467670183178
 21
3678.789143568852
 31
0.0
  0
LINE
  5
523E3
330
1F
100
AcDbEntity
  8
躯体と製品
  6
Continuous
 62
     3
100
AcDbLine
 10
-1349.467670183178
 20
3678.789143568852
 30
0.0
 11
-1349.467670183178
 21
3689.015637212652
 31
0.0
  0
LINE
  5
523E4
330
1F
100
AcDbEntity
  8
躯体と製品
  6
Continuous
 62
     3
100
AcDbLine
 10
-1349.467670183178
 20
3689.015637212652
 30
0.0
 11
-1351.235437136143
 21
3690.783404165618
 31
0.0
  0
LINE
  5
523E5
330
1F
100
AcDbEntity
  8
躯体と製品
  6
Continuous
 62
     3
100
AcDbLine
 10
-1351.235437136143
 20
3690.783404165618
 30
0.0
 11
-1356.467670183177
 21
3690.783404165618
 31
0.0
  0
LINE
  5
523EF
330
1F
100
AcDbEntity
  8
躯体と製品
  6
Continuous
 62
     4
100
AcDbLine
 10
-1356.467670183177
 20
3589.834766304601
 30
0.0
 11
-1353.519032322161
 21
3592.783404165617
 31
0.0
1001
GradientColor1ACI
1070
     5
1001
GradientColor2ACI
1070
     2
1001
ACAD
1010
0.0
1020
0.0
1030
0.0
  0
LINE
  5
523F0
330
1F
100
AcDbEntity
  8
躯体と製品
  6
Continuous
 62
     4
100
AcDbLine
 10
-1356.46767018317
 20
3585.344638244067
 30
0.0
 11
-1349.02890426162
 21
3592.783404165617
 31
0.0
1001
GradientColor1ACI
1070
     5
1001
GradientColor2ACI
1070
     2
1001
ACAD
1010
0.0
1020
0.0
1030
0.0
  0
LINE
  5
523F1
330
1F
100
AcDbEntity
  8
躯体と製品
  6
Continuous
 62
     4
100
AcDbLine
 10
-1356.467670183177
 20
3580.85451018353
 30
0.0
 11
-1344.538776201094
 21
3592.783404165614
 31
0.0
1001
GradientColor1ACI
1070
     5
1001
GradientColor2ACI
1070
     2
1001
ACAD
1010
0.0
1020
0.0
1030
0.0
  0
LINE
  5
523F2
330
1F
100
AcDbEntity
  8
躯体と製品
  6
Continuous
 62
     4
100
AcDbLine
 10
-1356.467670183177
 20
3576.364382122993
 30
0.0
 11
-1341.467670183178
 21
3591.364382122993
 31
0.0
1001
GradientColor1ACI
1070
     5
1001
GradientColor2ACI
1070
     2
1001
ACAD
1010
0.0
1020
0.0
1030
0.0
  0
LINE
  5
523F3
330
1F
100
AcDbEntity
  8
躯体と製品
  6
Continuous
 62
     4
100
AcDbLine
 10
-1356.467670183185
 20
3571.874254062456
 30
0.0
 11
-1341.467670183178
 21
3586.874254062462
 31
0.0
1001
GradientColor1ACI
1070
     5
1001
GradientColor2ACI
1070
     2
1001
ACAD
1010
0.0
1020
0.0
1030
0.0
  0
LINE
  5
523F4
330
1F
100
AcDbEntity
  8
躯体と製品
  6
Continuous
 62
     4
100
AcDbLine
 10
-1356.467670183177
 20
3567.384126001925
 30
0.0
 11
-1341.467670183178
 21
3582.384126001926
 31
0.0
1001
GradientColor1ACI
1070
     5
1001
GradientColor2ACI
1070
     2
1001
ACAD
1010
0.0
1020
0.0
1030
0.0
  0
LINE
  5
523F5
330
1F
100
AcDbEntity
  8
躯体と製品
  6
Continuous
 62
     4
100
AcDbLine
 10
-1356.467670183177
 20
3562.893997941384
 30
0.0
 11
-1341.467670183178
 21
3577.893997941384
 31
0.0
1001
GradientColor1ACI
1070
     5
1001
GradientColor2ACI
1070
     2
1001
ACAD
1010
0.0
1020
0.0
1030
0.0
  0
LINE
  5
523F6
330
1F
100
AcDbEntity
  8
躯体と製品
  6
Continuous
 62
     4
100
AcDbLine
 10
-1352.088135898419
 20
3562.783404165617
 30
0.0
 11
-1341.467670183185
 21
3573.403869880858
 31
0.0
1001
GradientColor1ACI
1070
     5
1001
GradientColor2ACI
1070
     2
1001
ACAD
1010
0.0
1020
0.0
1030
0.0
  0
LINE
  5
523F7
330
1F
100
AcDbEntity
  8
躯体と製品
  6
Continuous
 62
     4
100
AcDbLine
 10
-1347.598007837878
 20
3562.783404165617
 30
0.0
 11
-1341.467670183178
 21
3568.913741820317
 31
0.0
1001
GradientColor1ACI
1070
     5
1001
GradientColor2ACI
1070
     2
1001
ACAD
1010
0.0
1020
0.0
1030
0.0
  0
LINE
  5
523F8
330
1F
100
AcDbEntity
  8
躯体と製品
  6
Continuous
 62
     4
100
AcDbLine
 10
-1343.107879777344
 20
3562.783404165621
 30
0.0
 11
-1341.467670183185
 21
3564.423613759788
 31
0.0
1001
GradientColor1ACI
1070
     5
1001
GradientColor2ACI
1070
     2
1001
ACAD
1010
0.0
1020
0.0
1030
0.0
  0
LINE
  5
523F9
330
1F
100
AcDbEntity
  8
躯体と製品
  6
Continuous
 62
     4
100
AcDbLine
 10
-1356.467670183177
 20
3562.783404165617
 30
0.0
 11
-1341.467670183178
 21
3562.783404165617
 31
0.0
  0
LINE
  5
523FA
330
1F
100
AcDbEntity
  8
躯体と製品
  6
Continuous
 62
     4
100
AcDbLine
 10
-1341.467670183178
 20
3562.783404165617
 30
0.0
 11
-1341.467670183178
 21
3592.783404165618
 31
0.0
  0
LINE
  5
523FB
330
1F
100
AcDbEntity
  8
躯体と製品
  6
Continuous
 62
     4
100
AcDbLine
 10
-1341.467670183178
 20
3592.783404165618
 30
0.0
 11
-1356.467670183177
 21
3592.783404165618
 31
0.0
  0
LINE
  5
523FC
330
1F
100
AcDbEntity
  8
躯体と製品
  6
Continuous
 62
     4
100
AcDbLine
 10
-1356.467670183177
 20
3592.783404165618
 30
0.0
 11
-1356.467670183177
 21
3562.783404165617
 31
0.0
  0
LINE
  5
5240B
330
1F
100
AcDbEntity
  8
躯体と製品
  6
Continuous
 62
     3
100
AcDbLine
 10
-1356.467670183177
 20
3792.783404165618
 30
0.0
 11
-1356.467670183177
 21
3474.783404165618
 31
0.0
  0
LINE
  5
5240C
330
1F
100
AcDbEntity
  8
躯体と製品
  6
Continuous
 62
     3
100
AcDbLine
 10
-1368.967670183178
 20
3792.783404165618
 30
0.0
 11
-1368.967670183178
 21
3474.783404165618
 31
0.0
  0
LINE
  5
5240D
330
1F
100
AcDbEntity
  8
躯体と製品
  6
Continuous
 62
     3
100
AcDbLine
 10
-1433.967670183178
 20
3792.783404165618
 30
0.0
 11
-1433.967670183178
 21
3474.783404165618
 31
0.0
  0
LINE
  5
5240E
330
1F
100
AcDbEntity
  8
躯体と製品
  6
Continuous
 62
     3
100
AcDbLine
 10
-1446.467670183178
 20
3792.783404165618
 30
0.0
 11
-1446.467670183178
 21
3474.783404165618
 31
0.0
  0
LINE
  5
52418
330
1F
100
AcDbEntity
  8
躯体と製品
  6
Continuous
 62
     3
100
AcDbLine
 10
-1433.967670183178
 20
3519.783404165617
 30
0.0
 11
-1368.967670183178
 21
3519.783404165617
 31
0.0
  0
LINE
  5
52419
330
1F
100
AcDbEntity
  8
躯体と製品
  6
Continuous
 62
     3
100
AcDbLine
 10
-1433.967670183178
 20
3474.783404165618
 30
0.0
 11
-1368.967670183178
 21
3519.783404165617
 31
0.0
  0
LINE
  5
5241A
330
1F
100
AcDbEntity
  8
躯体と製品
  6
Continuous
 62
     3
100
AcDbLine
 10
-1433.967670183178
 20
3718.283404165625
 30
0.0
 11
-1368.967670183178
 21
3718.283404165625
 31
0.0
  0
LINE
  5
5241B
330
1F
100
AcDbEntity
  8
躯体と製品
  6
Continuous
 62
     3
100
AcDbLine
 10
-1433.967670183178
 20
3673.283404165625
 30
0.0
 11
-1368.967670183178
 21
3718.283404165625
 31
0.0
  0
LINE
  5
5241C
330
1F
100
AcDbEntity
  8
躯体と製品
  6
Continuous
 62
     3
100
AcDbLine
 10
-1433.967670183178
 20
3673.283404165625
 30
0.0
 11
-1368.967670183178
 21
3673.283404165625
 31
0.0
  0
LINE
  5
52424
330
1F
100
AcDbEntity
  8
躯体と製品
  6
Continuous
 62
     4
100
AcDbLine
 10
-1174.512689535256
 20
3624.783404165618
 30
0.0
 11
-1351.467670183178
 21
3624.783404165618
 31
0.0
  0
LINE
  5
52425
330
1F
100
AcDbEntity
  8
躯体と製品
  6
Continuous
 62
     4
100
AcDbLine
 10
-1156.037480921187
 20
3592.783404165618
 30
0.0
 11
-1341.467670183178
 21
3592.783404165618
 31
0.0
  0
LINE
  5
52426
330
1F
100
AcDbEntity
  8
躯体と製品
  6
Continuous
 62
     4
100
AcDbLine
 10
-1167.58448630498
 20
3612.783404165617
 30
0.0
 11
-1351.467670183178
 21
3612.783404165617
 31
0.0
  0
LINE
  5
52427
330
1F
100
AcDbEntity
  8
躯体と製品
  6
Continuous
 62
     4
100
AcDbLine
 10
-1341.467670183178
 20
3592.783404165618
 30
0.0
 11
-1341.467670183178
 21
3612.783404165617
 31
0.0
  0
LINE
  5
52428
330
1F
100
AcDbEntity
  8
躯体と製品
  6
Continuous
 62
     4
100
AcDbLine
 10
-1351.467670183178
 20
3612.783404165617
 30
0.0
 11
-1351.467670183178
 21
3624.783404165618
 31
0.0
  0
LINE
  5
52429
330
1F
100
AcDbEntity
  8
躯体と製品
  6
Continuous
 62
     4
100
AcDbLine
 10
-1176.863111684202
 20
3628.854454746828
 30
0.0
 11
-1153.687058772241
 21
3588.712353584407
 31
0.0
  0
LINE
  5
5242A
330
1F
100
AcDbEntity
  8
躯体と製品
  6
Continuous
 62
     4
100
AcDbLine
 10
-1171.863111684202
 20
3628.854454746828
 30
0.0
 11
-1148.687058772241
 21
3588.712353584407
 31
0.0
  0
LWPOLYLINE
  5
52713
330
1F
100
AcDbEntity
  8
躯体と製品
  6
Continuous
 62
     4
100
AcDbPolyline
 90
        2
 70
     0
 43
0.0
 10
-951.0343481612228
 20
3478.783404165618
 10
-905.0343481612229
 20
3478.783404165618
  0
LWPOLYLINE
  5
52714
330
1F
100
AcDbEntity
  8
躯体と製品
  6
Continuous
 62
     4
100
AcDbPolyline
 90
        8
 70
     1
 43
0.0
 10
-951.0343481612228
 20
3475.13695755621
 10
-951.0343481612228
 20
3478.783404165618
 10
-943.0343481612228
 20
3499.783404165618
 10
-913.0343481612229
 20
3499.783404165618
 10
-905.0343481612229
 20
3478.783404165618
 10
-905.034348161223
 20
3475.13695755621
 10
-905.3879015518159
 20
3474.783404165618
 10
-950.6807947706297
 20
3474.783404165618
  0
LWPOLYLINE
  5
52715
330
1F
100
AcDbEntity
  8
躯体と製品
  6
Continuous
 62
     4
100
AcDbPolyline
 90
       13
 70
     0
 43
0.0
 10
-928.5343481612228
 20
3474.783404165618
 10
-928.5343481612228
 20
3477.783404165618
 10
-928.5309917307214
 20
3477.841241565766
 10
-928.4838685561238
 20
3478.002336608567
 10
-928.3860830451205
 20
3478.138766757119
 10
-928.2486249152219
 20
3478.235162367172
 10
-928.0870012166245
 20
3478.280624092572
 10
-927.919472092771
 20
3478.270028752872
 10
-927.7649084180241
 20
3478.204595600467
 10
-927.6406923939223
 20
3478.091681860017
 10
-927.5608379515736
 20
3477.943990844266
 10
-927.5343481612228
 20
3477.783404165618
 10
-927.5343481612228
 20
3474.783404165618
  0
TEXT
  5
5280C
330
1F
100
AcDbEntity
  8
文字-記号
  6
Continuous
 62
     3
100
AcDbText
 10
-1447.407664446812
 20
3842.538356758403
 30
0.0
 40
15.0
  1
【ホームベース ＬＣ-type】
  7
ACAD
100
AcDbText
  0
ENDSEC
  0
SECTION
  2
OBJECTS
  0
DICTIONARY
  5
C
330
0
100
AcDbDictionary
281
     1
  3
ACAD_2007HEADERVARS_RT
350
528A5
  3
ACAD_BACKGROUND
350
522E8
  3
ACAD_CIP_PREVIOUS_PRODUCT_INFO
350
4BCB7
  3
ACAD_COLOR
350
22756
  3
ACAD_GROUP
350
D
  3
ACAD_LAYOUT
350
1A
  3
ACAD_MATERIAL
350
2272C
  3
ACAD_MLEADERSTYLE
350
2276B
  3
ACAD_MLINESTYLE
350
17
  3
ACAD_PLOTSETTINGS
350
19
  3
ACAD_PLOTSTYLENAME
350
E
  3
ACAD_SCALELIST
350
22759
  3
ACAD_TABLESTYLE
350
22757
  3
ACAD_VISUALSTYLE
350
22745
  3
ACDB_RECOMPOSE_DATA
350
528A4
  3
AcDbVariableDictionary
350
173D
  3
AEC_PROPERTY_SET_DEFS
350
2284D
  3
ASE_INDEX_DICTIONARY
350
22728
  0
DICTIONARY
  5
526C2
330
8
100
AcDbDictionary
280
     1
281
     1
  0
DICTIONARY
  5
1562
330
2
100
AcDbDictionary
280
     1
281
     1
  3
ACAD_LAYERFILTERS
360
1574
  3
ACAD_LAYERSTATES
360
1563
  0
DICTIONARY
  5
22778
330
10
100
AcDbDictionary
280
     1
281
     1
  3
ADSK_XREC_LAYER_RECONCILED
360
5259A
  0
DICTIONARY
  5
4BDA6
330
4BDA5
100
AcDbDictionary
280
     1
281
     1
  3
ADSK_XREC_LAYER_RECONCILED
360
5259E
  0
DICTIONARY
  5
4BDA8
330
4BDA7
100
AcDbDictionary
280
     1
281
     1
  3
ADSK_XREC_LAYER_RECONCILED
360
5259F
  0
DICTIONARY
  5
4BDAA
330
4BDA9
100
AcDbDictionary
280
     1
281
     1
  3
ADSK_XREC_LAYER_RECONCILED
360
525A0
  0
DICTIONARY
  5
525A1
330
4BDAB
100
AcDbDictionary
280
     1
281
     1
  3
ADSK_XREC_LAYER_RECONCILED
360
525A2
  0
DICTIONARY
  5
3662
330
1F
100
AcDbDictionary
280
     1
281
     1
  3
ACAD_LAYOUTSELFREF
360
36B2
  3
ACAD_SORTENTS
360
23806
  0
DICTIONARY
  5
528A5
102
{ACAD_REACTORS
330
C
102
}
330
C
100
AcDbDictionary
281
     1
  3
DIMTFILL
350
528A6
  3
INTERFEREVPVS
350
528A7
  0
DICTIONARY
  5
522E8
102
{ACAD_REACTORS
330
C
102
}
330
C
100
AcDbDictionary
281
     1
  0
XRECORD
  5
4BCB7
102
{ACAD_REACTORS
330
C
102
}
330
C
100
AcDbXrecord
280
     1
300
ACD
300
2012
300
ACD_F_S
  0
DICTIONARY
  5
22756
102
{ACAD_REACTORS
330
C
102
}
330
C
100
AcDbDictionary
281
     1
  0
DICTIONARY
  5
D
102
{ACAD_REACTORS
330
C
102
}
330
C
100
AcDbDictionary
281
     1
  0
DICTIONARY
  5
1A
102
{ACAD_REACTORS
330
C
102
}
330
C
100
AcDbDictionary
281
     1
  3
Model
350
22
  3
レイアウト1
350
52606
  0
DICTIONARY
  5
2272C
102
{ACAD_REACTORS
330
C
102
}
330
C
100
AcDbDictionary
281
     1
  3
ByBlock
350
22735
  3
ByLayer
350
2272D
  3
Global
350
2273D
  0
DICTIONARY
  5
2276B
102
{ACAD_REACTORS
330
C
102
}
330
C
100
AcDbDictionary
281
     1
  3
Standard
350
2276C
  0
DICTIONARY
  5
17
102
{ACAD_REACTORS
330
C
102
}
330
C
100
AcDbDictionary
281
     1
  3
Standard
350
18
  0
DICTIONARY
  5
19
102
{ACAD_REACTORS
330
C
102
}
330
C
100
AcDbDictionary
281
     1
  3
A1横-DocuWide 2051 MF-RT
350
2288E
  3
A1横-PDF_COR
350
4BB79
  3
A1横-PDF_MONO
350
4BB70
  3
A2横-DocuWide 2051 MF-RT
350
228A9
  3
A3横-DocuCentre C4535Ⅰ②
350
2883A
  3
A3横-DocuCentre C4535Ⅰ②_cor
350
4BB56
  3
A4横-DocuCentre C4535Ⅰ②
350
228B2
  3
A4横-DocuCentre C4535Ⅰ②_cor
350
4BB5F
  0
ACDBDICTIONARYWDFLT
  5
E
102
{ACAD_REACTORS
330
C
102
}
330
C
100
AcDbDictionary
281
     1
  3
Normal
350
F
100
AcDbDictionaryWithDefault
340
F
  0
DICTIONARY
  5
22759
102
{ACAD_REACTORS
330
C
102
}
330
C
100
AcDbDictionary
281
     1
  3
A0
350
2275A
  3
A1
350
22924
  3
A2
350
22925
  3
A3
350
22926
  3
A4
350
22927
  3
A5
350
22928
  3
A6
350
22929
  3
A7
350
2292A
  3
A8
350
2292B
  3
A9
350
2292C
  3
B0
350
2292D
  3
B1
350
2292E
  3
B2
350
2292F
  3
B3
350
22930
  3
B4
350
22931
  3
B5
350
22765
  3
B6
350
22932
  3
B7
350
22933
  3
B8
350
22934
  3
B9
350
22935
  3
C0
350
22936
  0
DICTIONARY
  5
22757
102
{ACAD_REACTORS
330
C
102
}
330
C
100
AcDbDictionary
281
     1
  3
Standard
350
22758
  0
DICTIONARY
  5
22745
102
{ACAD_REACTORS
330
C
102
}
330
C
100
AcDbDictionary
281
     1
  3
2dWireframe
350
2274B
  3
3D Hidden
350
2274D
  3
3dWireframe
350
2274C
  3
Basic
350
2274A
  3
Brighten
350
22751
  3
ColorChange
350
22755
  3
Conceptual
350
2274E
  3
Dim
350
22750
  3
EdgeColorOff
350
22A03
  3
Facepattern
350
22754
  3
Flat
350
22746
  3
FlatWithEdges
350
22747
  3
Gouraud
350
22748
  3
GouraudWithEdges
350
22749
  3
Hidden
350
229FB
  3
JitterOff
350
22A01
  3
Linepattern
350
22753
  3
OverhangOff
350
22A02
  3
Realistic
350
2274F
  3
Shaded
350
22A00
  3
Shaded with edges
350
229FF
  3
Shades of Gray
350
229FC
  3
Sketchy
350
229FD
  3
Thicken
350
22752
  3
Wireframe
350
229FA
  3
X-Ray
350
229FE
  0
XRECORD
  5
528A4
102
{ACAD_REACTORS
330
C
102
}
330
C
100
AcDbXrecord
280
     1
 90
        1
330
22758
  0
DICTIONARY
  5
173D
102
{ACAD_REACTORS
330
C
102
}
330
C
100
AcDbDictionary
281
     1
  3
CANNOSCALE
350
22809
  3
CMLEADERSTYLE
350
22807
  3
CTABLESTYLE
350
22806
  3
LAYEREVAL
350
2280B
  3
LAYERNOTIFY
350
2280C
  3
LIGHTINGUNITS
350
2280A
  3
MSLTSCALE
350
22808
  3
SOLIDHIST
350
526FC
  3
SORTENTS
350
173E
  0
DICTIONARY
  5
2284D
102
{ACAD_REACTORS
330
C
102
}
330
C
100
AcDbDictionary
281
     1
  0
DICTIONARY
  5
22728
102
{ACAD_REACTORS
330
C
102
}
330
C
100
AcDbDictionary
281
     1
  3
ASEBlockHierarchyIndexRecord
350
2272A
1001
DCO15
1040
1596433040.279
  0
DICTIONARY
  5
1574
102
{ACAD_REACTORS
330
1562
102
}
330
1562
100
AcDbDictionary
280
     1
281
     1
  0
DICTIONARY
  5
1563
102
{ACAD_REACTORS
330
1562
102
}
330
1562
100
AcDbDictionary
281
     1
  3
床画層-1
350
1606
  0
XRECORD
  5
5259A
102
{ACAD_REACTORS
330
22778
102
}
330
22778
100
AcDbXrecord
280
     1
290
     1
  0
XRECORD
  5
5259E
102
{ACAD_REACTORS
330
4BDA6
102
}
330
4BDA6
100
AcDbXrecord
280
     1
290
     1
  0
XRECORD
  5
5259F
102
{ACAD_REACTORS
330
4BDA8
102
}
330
4BDA8
100
AcDbXrecord
280
     1
290
     1
  0
XRECORD
  5
525A0
102
{ACAD_REACTORS
330
4BDAA
102
}
330
4BDAA
100
AcDbXrecord
280
     1
290
     1
  0
XRECORD
  5
525A2
102
{ACAD_REACTORS
330
525A1
102
}
330
525A1
100
AcDbXrecord
280
     1
290
     1
  0
XRECORD
  5
36B2
102
{ACAD_REACTORS
330
3662
102
}
330
3662
100
AcDbXrecord
280
     1
340
1F
  0
SORTENTSTABLE
  5
23806
102
{ACAD_REACTORS
330
3662
102
}
330
3662
100
AcDbSortentsTable
330
1F
331
50F7B
  5
51126
331
523FA
  5
50E61
331
50CFA
  5
50E72
331
4EFE4
  5
4F001
331
4EFA5
  5
4EFA5
331
50D02
  5
50E7A
331
4EFEC
  5
4F009
331
50EF7
  5
510A2
331
50F36
  5
510E1
331
5241A
  5
4EFE6
331
50D0A
  5
50E82
331
500B3
  5
500D0
331
4EFF4
  5
4F011
331
50EFF
  5
510AA
331
50F3E
  5
510E9
331
500BB
  5
500D8
331
4EFFC
  5
4F019
331
4EFBD
  5
4EFD3
331
50D12
  5
50E8A
331
50F07
  5
510B2
331
50F46
  5
510F1
331
50F0F
  5
510BA
331
50F4E
  5
510F9
331
5242A
  5
4EFE3
331
500C3
  5
500E0
331
4F004
  5
4F021
331
50D1A
  5
50E92
331
523E3
  5
4EFC1
331
50F17
  5
510C2
331
4EFCD
  5
4EFEA
331
4F00C
  5
4F029
331
50F56
  5
51101
331
50F1F
  5
510CA
331
4F014
  5
4F031
331
4EFD5
  5
4EFF2
331
50EEA
  5
51095
331
50F5E
  5
51109
331
523F3
  5
50E5A
331
50F76
  5
51121
331
50CF3
  5
50E6B
331
4EFDD
  5
4EFFA
331
50F27
  5
510D2
331
50F2F
  5
510DA
331
4EF98
  5
4EF98
331
50F7C
  5
51127
331
523FB
  5
50E62
331
50EF0
  5
5109B
331
50CFB
  5
50E73
331
4EFE5
  5
4F002
331
4EFA6
  5
4EFA6
331
5240B
  5
4EFB9
331
50EF8
  5
510A3
331
500AC
  5
500C9
331
4EFED
  5
4F00A
331
50D03
  5
50E7B
331
50F37
  5
510E2
331
5241B
  5
4EFE7
331
50D0B
  5
50E83
331
500B4
  5
500D1
331
4EFF5
  5
4F012
331
50F00
  5
510AB
331
50F3F
  5
510EA
331
500BC
  5
500D9
331
4EFFD
  5
4F01A
331
4EFBE
  5
4EFD4
331
50D13
  5
50E8B
331
50F08
  5
510B3
331
50F47
  5
510F2
331
50F4F
  5
510FA
331
50F10
  5
510BB
331
500C4
  5
500E1
331
4F005
  5
4F022
331
523E4
  5
4EFC2
331
50CE4
  5
50E50
331
4EFCE
  5
4EFEB
331
4F00D
  5
4F02A
331
50F18
  5
510C3
331
50F57
  5
51102
331
50F20
  5
510CB
331
50CEC
  5
50E64
331
4EFD6
  5
4EFF3
331
50EEB
  5
51096
331
50F5F
  5
5110A
331
523F4
  5
50E5B
331
4EFDE
  5
4EFFB
331
50CF4
  5
50E6C
331
50F28
  5
510D3
331
50F77
  5
51122
331
4EF99
  5
4EF99
331
523FC
  5
50E63
331
50EF1
  5
5109C
331
50CFC
  5
50E74
331
4F025
  5
4F042
331
4EFE6
  5
4F003
331
4EFA7
  5
4EFA7
331
50F30
  5
510DB
331
5240C
  5
4EFBA
331
50EF9
  5
510A4
331
50D04
  5
50E7C
331
500AD
  5
500CA
331
4EFEE
  5
4F00B
331
50F38
  5
510E3
331
5241C
  5
4EFE8
331
50F01
  5
510AC
331
500B5
  5
500D2
331
4EFF6
  5
4F013
331
50D0C
  5
50E84
331
50F40
  5
510EB
331
523D5
  5
4EFAA
331
52424
  5
4EFB0
331
500BD
  5
500DA
331
4EFBF
  5
4EFD5
331
4EFFE
  5
4F01B
331
50D14
  5
50E8C
331
50F09
  5
510B4
331
50F48
  5
510F3
331
523DD
  5
4EFBB
331
50F11
  5
510BC
331
4F006
  5
4F023
331
50F50
  5
510FB
331
523E5
  5
4EFC3
331
50F19
  5
510C4
331
50CE5
  5
50E51
331
4F00E
  5
4F02B
331
4EFCF
  5
4EFEC
331
50F58
  5
51103
331
50F70
  5
5111B
331
50EEC
  5
51097
331
50CED
  5
50E65
331
4EFD7
  5
4EFF4
331
50F21
  5
510CC
331
523F5
  5
50E5C
331
50CF5
  5
50E6D
331
4EFDF
  5
4EFFC
331
50F29
  5
510D4
331
4EF9A
  5
4EF9A
331
4EFA0
  5
4EFA0
331
50CFD
  5
50E75
331
4F026
  5
4F043
331
4EFA8
  5
4EFA8
331
4EFE7
  5
4F004
331
50EF2
  5
5109D
331
50F31
  5
510DC
331
5240D
  5
4EFCD
331
50EFA
  5
510A5
331
50D05
  5
50E7D
331
500AE
  5
500CB
331
4EFEF
  5
4F00C
331
50F39
  5
510E4
331
50F02
  5
510AD
331
50D0D
  5
50E85
331
500B6
  5
500D3
331
4EFF7
  5
4F014
331
50F41
  5
510EC
331
52425
  5
4EFB3
331
523D6
  5
4EFAC
331
500BE
  5
500DB
331
4EFFF
  5
4F01C
331
50D15
  5
50E8D
331
50F0A
  5
510B5
331
50F49
  5
510F4
331
4EFC0
  5
4EFD6
331
523DE
  5
4EFBC
331
50F12
  5
510BD
331
4F007
  5
4F024
331
50F51
  5
510FC
331
50F1A
  5
510C5
331
50CE6
  5
50E52
331
4F00F
  5
4F02C
331
4EFD0
  5
4EFED
331
50F59
  5
51104
331
50F71
  5
5111C
331
50EED
  5
51098
331
50CEE
  5
50E66
331
4EFD8
  5
4EFF5
331
50F22
  5
510CD
331
523F6
  5
50E5D
331
50CF6
  5
50E6E
331
50F2A
  5
510D5
331
4EF93
  5
4EF93
331
4EF9B
  5
4EF9B
331
4EFE0
  5
4EFFD
331
4EFA1
  5
4EFA1
331
50CFE
  5
50E76
331
4EFE8
  5
4F005
331
50EF3
  5
5109E
331
50F32
  5
510DD
331
5240E
  5
4EFCE
331
50D06
  5
50E7E
331
500AF
  5
500CC
331
4EFF0
  5
4F00D
331
50EFB
  5
510A6
331
50F3A
  5
510E5
331
50F03
  5
510AE
331
50D0E
  5
50E86
331
500B7
  5
500D4
331
4EFF8
  5
4F015
331
4EFB9
  5
4EFCF
331
50F42
  5
510ED
331
52426
  5
4EFCC
331
523D7
  5
4EFAE
331
50F0B
  5
510B6
331
500BF
  5
500DC
331
50D16
  5
50E8E
331
50F4A
  5
510F5
331
4F000
  5
4F01D
331
4EFC1
  5
4EFD7
331
523DF
  5
4EFBD
331
50F13
  5
510BE
331
4F008
  5
4F025
331
50F52
  5
510FD
331
50CE7
  5
50E53
331
4F010
  5
4F02D
331
4EFD1
  5
4EFEE
331
50F1B
  5
510C6
331
50F5A
  5
51105
331
523EF
  5
50E56
331
50F72
  5
5111D
331
50EEE
  5
51099
331
50CEF
  5
50E67
331
4EFD9
  5
4EFF6
331
50F23
  5
510CE
331
523F7
  5
50E5E
331
50CF7
  5
50E6F
331
50F2B
  5
510D6
331
4EF94
  5
4EF94
331
4EF9C
  5
4EF9C
331
50F78
  5
51123
331
4EFE1
  5
4EFFE
331
4EFA2
  5
4EFA2
331
50EF4
  5
5109F
331
50CFF
  5
50E77
331
4EFE9
  5
4F006
331
50F33
  5
510DE
331
50D07
  5
50E7F
331
500B0
  5
500CD
331
4EFB2
  5
4EFC4
331
4EFF1
  5
4F00E
331
50EFC
  5
510A7
331
50F3B
  5
510E6
331
500B8
  5
500D5
331
4EFF9
  5
4F016
331
4EFBA
  5
4EFD0
331
50D0F
  5
50E87
331
50F04
  5
510AF
331
50F43
  5
510EE
331
52427
  5
4EFB7
331
50F0C
  5
510B7
331
50D17
  5
50E8F
331
50F4B
  5
510F6
331
523D8
  5
4EFCB
331
500C0
  5
500DD
331
4F001
  5
4F01E
331
4EFC2
  5
4EFD9
331
523E0
  5
4EFBE
331
50F14
  5
510BF
331
4F009
  5
4F026
331
50F53
  5
510FE
331
50EE7
  5
51092
331
50CE8
  5
50E54
331
4EFD2
  5
4EFEF
331
4F011
  5
4F02E
331
50F1C
  5
510C7
331
50F5B
  5
51106
331
523F0
  5
50E57
331
50F73
  5
5111E
331
50EEF
  5
5109A
331
50CF0
  5
50E68
331
4EFDA
  5
4EFF7
331
50F24
  5
510CF
331
50F2C
  5
510D7
331
4EF95
  5
4EF95
331
4EF9D
  5
4EF9D
331
50F79
  5
51124
331
523F8
  5
50E5F
331
50CF8
  5
50E70
331
4EFE2
  5
4EFFF
331
4EFA3
  5
4EFA3
331
50EF5
  5
510A0
331
50D00
  5
50E78
331
52418
  5
4EFE4
331
4EFEA
  5
4F007
331
50F34
  5
510DF
331
50EFD
  5
510A8
331
50D08
  5
50E80
331
500B1
  5
500CE
331
4EFF2
  5
4F00F
331
4EFB3
  5
4EFC5
331
50F3C
  5
510E7
331
500B9
  5
500D6
331
4EFBB
  5
4EFD1
331
4EFFA
  5
4F017
331
50D10
  5
50E88
331
50F05
  5
510B0
331
50F44
  5
510EF
331
50F4C
  5
510F7
331
50F0D
  5
510B8
331
52428
  5
4EFCA
331
50D18
  5
50E90
331
500C1
  5
500DE
331
4F002
  5
4F01F
331
523E1
  5
4EFBF
331
4EFC3
  5
4EFDB
331
50F15
  5
510C0
331
4F00A
  5
4F027
331
50F54
  5
510FF
331
50EE8
  5
51093
331
50CE9
  5
50E55
331
4F012
  5
4F02F
331
523F1
  5
50E58
331
4EFD3
  5
4EFF0
331
50F1D
  5
510C8
331
50F5C
  5
51107
331
50F74
  5
5111F
331
50CF1
  5
50E69
331
4EFDB
  5
4EFF8
331
50F25
  5
510D0
331
50F2D
  5
510D8
331
4EF96
  5
4EF96
331
4EF9E
  5
4EF9E
331
50F7A
  5
51125
331
523F9
  5
50E60
331
50CF9
  5
50E71
331
4EFA4
  5
4EFA4
331
4EFE3
  5
4F000
331
50D01
  5
50E79
331
52419
  5
4EFE5
331
4EFEB
  5
4F008
331
50EF6
  5
510A1
331
50F35
  5
510E0
331
50EFE
  5
510A9
331
50D09
  5
50E81
331
500B2
  5
500CF
331
4EFF3
  5
4F010
331
50F3D
  5
510E8
331
500BA
  5
500D7
331
4EFFB
  5
4F018
331
4EFBC
  5
4EFD2
331
50D11
  5
50E89
331
50F06
  5
510B1
331
50F45
  5
510F0
331
50F0E
  5
510B9
331
50F4D
  5
510F8
331
52429
  5
4EFE1
331
50D19
  5
50E91
331
500C2
  5
500DF
331
523E2
  5
4EFC0
331
4EFC4
  5
4EFDD
331
4F003
  5
4F020
331
50F16
  5
510C1
331
4F00B
  5
4F028
331
4EFCC
  5
4EFE9
331
50F55
  5
51100
331
50F1E
  5
510C9
331
4F013
  5
4F030
331
523F2
  5
50E59
331
4EFD4
  5
4EFF1
331
50EE9
  5
51094
331
50F5D
  5
51108
331
50F75
  5
51120
331
50CF2
  5
50E6A
331
4EFDC
  5
4EFF9
331
50F26
  5
510D1
331
50F2E
  5
510D9
331
4EF97
  5
4EF97
331
4EF9F
  5
4EF9F
  0
XRECORD
  5
528A6
102
{ACAD_REACTORS
330
528A5
102
}
330
528A5
100
AcDbXrecord
280
     1
 70
     1
  0
XRECORD
  5
528A7
102
{ACAD_REACTORS
330
528A5
102
}
330
528A5
100
AcDbXrecord
280
     1
340
2274C
  0
LAYOUT
  5
22
102
{ACAD_XDICTIONARY
360
22AE9
102
}
102
{ACAD_REACTORS
330
1A
102
}
330
1A
100
AcDbPlotSettings
  1

  2
Canon iPF600
  4
User4403
  6

 40
3.757083415985107
 41
3.757137775421142
 42
3.757080078125
 43
3.757080078125
 44
840.9939575195313
 45
593.97900390625
 46
-3.785768270522396
 47
-3.785734415075523
 48
0.0
 49
0.0
140
0.0
141
0.0
142
1.0
143
100.0
 70
 28324
 72
     1
 73
     0
 74
     1
  7
monochrome.ctb
 75
     0
147
0.0098725419741991
 76
     0
 77
     2
 78
   300
148
2.566332512709777
149
1.812605841332697
100
AcDbLayout
  1
Model
 70
     1
 71
     0
 10
0.0
 20
0.0
 11
12.0
 21
9.0
 12
0.0
 22
0.0
 32
0.0
 14
0.0
 24
0.0
 34
0.0
 15
0.0
 25
0.0
 35
0.0
146
0.0
 13
0.0
 23
0.0
 33
0.0
 16
1.0
 26
0.0
 36
0.0
 17
0.0
 27
1.0
 37
0.0
 76
     0
330
1F
331
1FF1E
1001
ACAD_PSEXT
1000
Canon iPF600
1000
Canon iPF600
1000
IP_10.81.100.201
1000

1070
     0
  0
LAYOUT
  5
52606
102
{ACAD_REACTORS
330
1A
102
}
330
1A
100
AcDbPlotSettings
  1

  2
DWG To PDF.pc3
  4

  6

 40
0.0
 41
0.0
 42
0.0
 43
0.0
 44
0.0
 45
0.0
 46
0.0
 47
0.0
 48
0.0
 49
0.0
140
0.0
141
0.0
142
1.0
143
1.0
 70
   688
 72
     0
 73
     0
 74
     5
  7

 75
    16
147
1.0
 76
     0
 77
     2
 78
   300
148
0.0
149
0.0
100
AcDbLayout
  1
レイアウト1
 70
     1
 71
     1
 10
0.0
 20
0.0
 11
12.0
 21
9.0
 12
0.0
 22
0.0
 32
0.0
 14
0.0
 24
0.0
 34
0.0
 15
0.0
 25
0.0
 35
0.0
146
0.0
 13
0.0
 23
0.0
 33
0.0
 16
1.0
 26
0.0
 36
0.0
 17
0.0
 27
1.0
 37
0.0
 76
     0
330
52605
  0
MATERIAL
  5
22735
102
{ACAD_XDICTIONARY
360
22736
102
}
102
{ACAD_REACTORS
330
2272C
102
}
330
2272C
100
AcDbMaterial
  1
ByBlock
 72
     0
 43
0.0008202099737533
 43
0.0
 43
0.0
 43
0.0
 43
0.0
 43
0.0008202099737533
 43
0.0
 43
0.0
 43
0.0
 43
0.0
 43
1.0
 43
0.0
 43
0.0
 43
0.0
 43
0.0
 43
1.0
 77
     0
 47
0.0008202099737533
 47
0.0
 47
0.0
 47
0.0
 47
0.0
 47
0.0008202099737533
 47
0.0
 47
0.0
 47
0.0
 47
0.0
 47
1.0
 47
0.0
 47
0.0
 47
0.0
 47
0.0
 47
1.0
171
     0
 49
0.0008202099737533
 49
0.0
 49
0.0
 49
0.0
 49
0.0
 49
0.0008202099737533
 49
0.0
 49
0.0
 49
0.0
 49
0.0
 49
1.0
 49
0.0
 49
0.0
 49
0.0
 49
0.0
 49
1.0
175
     0
142
0.0008202099737533
142
0.0
142
0.0
142
0.0
142
0.0
142
0.0008202099737533
142
0.0
142
0.0
142
0.0
142
0.0
142
1.0
142
0.0
142
0.0
142
0.0
142
0.0
142
1.0
179
     0
144
0.0008202099737533
144
0.0
144
0.0
144
0.0
144
0.0
144
0.0008202099737533
144
0.0
144
0.0
144
0.0
144
0.0
144
1.0
144
0.0
144
0.0
144
0.0
144
0.0
144
1.0
147
0.0008202099737533
147
0.0
147
0.0
147
0.0
147
0.0
147
0.0008202099737533
147
0.0
147
0.0
147
0.0
147
0.0
147
1.0
147
0.0
147
0.0
147
0.0
147
0.0
147
1.0
  0
MATERIAL
  5
2272D
102
{ACAD_XDICTIONARY
360
2272E
102
}
102
{ACAD_REACTORS
330
2272C
102
}
330
2272C
100
AcDbMaterial
  1
ByLayer
 72
     0
 43
0.0008202099737533
 43
0.0
 43
0.0
 43
0.0
 43
0.0
 43
0.0008202099737533
 43
0.0
 43
0.0
 43
0.0
 43
0.0
 43
1.0
 43
0.0
 43
0.0
 43
0.0
 43
0.0
 43
1.0
 77
     0
 47
0.0008202099737533
 47
0.0
 47
0.0
 47
0.0
 47
0.0
 47
0.0008202099737533
 47
0.0
 47
0.0
 47
0.0
 47
0.0
 47
1.0
 47
0.0
 47
0.0
 47
0.0
 47
0.0
 47
1.0
171
     0
 49
0.0008202099737533
 49
0.0
 49
0.0
 49
0.0
 49
0.0
 49
0.0008202099737533
 49
0.0
 49
0.0
 49
0.0
 49
0.0
 49
1.0
 49
0.0
 49
0.0
 49
0.0
 49
0.0
 49
1.0
175
     0
142
0.0008202099737533
142
0.0
142
0.0
142
0.0
142
0.0
142
0.0008202099737533
142
0.0
142
0.0
142
0.0
142
0.0
142
1.0
142
0.0
142
0.0
142
0.0
142
0.0
142
1.0
179
     0
144
0.0008202099737533
144
0.0
144
0.0
144
0.0
144
0.0
144
0.0008202099737533
144
0.0
144
0.0
144
0.0
144
0.0
144
1.0
144
0.0
144
0.0
144
0.0
144
0.0
144
1.0
147
0.0008202099737533
147
0.0
147
0.0
147
0.0
147
0.0
147
0.0008202099737533
147
0.0
147
0.0
147
0.0
147
0.0
147
1.0
147
0.0
147
0.0
147
0.0
147
0.0
147
1.0
  0
MATERIAL
  5
2273D
102
{ACAD_XDICTIONARY
360
2273E
102
}
102
{ACAD_REACTORS
330
2272C
102
}
330
2272C
100
AcDbMaterial
  1
Global
 72
     0
 43
0.0008202099737533
 43
0.0
 43
0.0
 43
0.0
 43
0.0
 43
0.0008202099737533
 43
0.0
 43
0.0
 43
0.0
 43
0.0
 43
1.0
 43
0.0
 43
0.0
 43
0.0
 43
0.0
 43
1.0
 77
     0
 47
0.0008202099737533
 47
0.0
 47
0.0
 47
0.0
 47
0.0
 47
0.0008202099737533
 47
0.0
 47
0.0
 47
0.0
 47
0.0
 47
1.0
 47
0.0
 47
0.0
 47
0.0
 47
0.0
 47
1.0
171
     0
 49
0.0008202099737533
 49
0.0
 49
0.0
 49
0.0
 49
0.0
 49
0.0008202099737533
 49
0.0
 49
0.0
 49
0.0
 49
0.0
 49
1.0
 49
0.0
 49
0.0
 49
0.0
 49
0.0
 49
1.0
175
     0
142
0.0008202099737533
142
0.0
142
0.0
142
0.0
142
0.0
142
0.0008202099737533
142
0.0
142
0.0
142
0.0
142
0.0
142
1.0
142
0.0
142
0.0
142
0.0
142
0.0
142
1.0
179
     0
144
0.0008202099737533
144
0.0
144
0.0
144
0.0
144
0.0
144
0.0008202099737533
144
0.0
144
0.0
144
0.0
144
0.0
144
1.0
144
0.0
144
0.0
144
0.0
144
0.0
144
1.0
147
0.0008202099737533
147
0.0
147
0.0
147
0.0
147
0.0
147
0.0008202099737533
147
0.0
147
0.0
147
0.0
147
0.0
147
1.0
147
0.0
147
0.0
147
0.0
147
0.0
147
1.0
  0
MLEADERSTYLE
  5
2276C
102
{ACAD_XDICTIONARY
360
528A2
102
}
102
{ACAD_REACTORS
330
2276B
102
}
330
2276B
100
AcDbMLeaderStyle
170
     2
171
     1
172
     0
 90
        2
 40
0.0
 41
0.0
173
     1
 91
-1056964608
340
14
 92
       -2
290
     1
 42
2.0
291
     1
 43
0.36
  3
Standard
 44
4.0
300

342
11
174
     1
178
     6
175
     1
176
     0
 93
-1056964608
 45
4.0
292
     0
297
     0
 46
4.0
 94
-1056964608
 47
1.0
 49
1.0
140
1.0
293
     1
141
0.0
294
     1
177
     0
142
1.0
295
     0
296
     0
143
0.125
1001
ACAD_MLEADERVER
1070
     2
  0
MLINESTYLE
  5
18
102
{ACAD_REACTORS
330
17
102
}
330
17
100
AcDbMlineStyle
  2
STANDARD
 70
     0
  3

 62
   256
 51
90.0
 52
90.0
 71
     2
 49
0.5
 62
   256
  6
BYLAYER
 49
-0.5
 62
   256
  6
BYLAYER
  0
PLOTSETTINGS
  5
2288E
102
{ACAD_REACTORS
330
19
102
}
330
19
100
AcDbPlotSettings
  1
A1横-DocuWide 2051 MF-RT
  2
DocuWide 2051 MF-RT
  4
User151
  6

 40
3.174999952316284
 41
3.174999952316284
 42
3.17498779296875
 43
3.17498779296875
 44
593.97900390625
 45
840.9939575195313
 46
0.0
 47
0.0
 48
0.0
 49
0.0
140
0.0
141
0.0
142
1.0
143
1.0
 70
  2736
 72
     1
 73
     1
 74
     5
  7
monochrome.ctb
 75
    16
147
1.0
 76
     0
 77
     2
 78
   300
148
17.0220485445252
149
5.136853987673248
1001
ACAD_PSEXT
1000
DocuWide 2051 MF-RT
1000
FX DocuWide 2050/2051
1000
10.100.200.210:plt00t
1000

1070
     0
  0
PLOTSETTINGS
  5
4BB79
102
{ACAD_REACTORS
330
19
102
}
330
19
100
AcDbPlotSettings
  1
A1横-PDF_COR
  2
DWG To PDF.pc3
  4
ISO_full_bleed_A1_(841.00_x_594.00_MM)
  6

 40
0.7937499880790711
 41
0.7937499880790711
 42
0.79376220703125
 43
0.79376220703125
 44
841.0
 45
594.0
 46
0.0
 47
0.0
 48
0.0
 49
0.0
140
0.0
141
0.0
142
1.0
143
1.0
 70
  2736
 72
     1
 73
     0
 74
     5
  7
acad.ctb
 75
    16
147
1.0
 76
     0
 77
     2
 78
   300
148
17.0220485445252
149
5.136853987673248
1001
ACAD_PSEXT
1000
DWG To PDF.pc3
1000
DWG To PDF
1000
ファイル
1000

1070
     0
  0
PLOTSETTINGS
  5
4BB70
102
{ACAD_REACTORS
330
19
102
}
330
19
100
AcDbPlotSettings
  1
A1横-PDF_MONO
  2
DWG To PDF.pc3
  4
ISO_full_bleed_A1_(841.00_x_594.00_MM)
  6

 40
0.7937499880790711
 41
0.7937499880790711
 42
0.79376220703125
 43
0.79376220703125
 44
841.0
 45
594.0
 46
0.0
 47
0.0
 48
0.0
 49
0.0
140
0.0
141
0.0
142
1.0
143
1.0
 70
  2736
 72
     1
 73
     0
 74
     5
  7
monochrome.ctb
 75
    16
147
1.0
 76
     0
 77
     2
 78
   300
148
17.0220485445252
149
5.136853987673248
1001
ACAD_PSEXT
1000
DWG To PDF.pc3
1000
DWG To PDF
1000
ファイル
1000

1070
     0
  0
PLOTSETTINGS
  5
228A9
102
{ACAD_REACTORS
330
19
102
}
330
19
100
AcDbPlotSettings
  1
A2横-DocuWide 2051 MF-RT
  2
DocuWide 2051 MF-RT
  4
User66
  6

 40
3.174999952316284
 41
3.174999952316284
 42
3.17498779296875
 43
3.17498779296875
 44
419.9889831542968
 45
593.97900390625
 46
0.0
 47
0.0
 48
0.0
 49
0.0
140
0.0
141
0.0
142
1.0
143
1.0
 70
  2736
 72
     1
 73
     1
 74
     5
  7
monochrome.ctb
 75
    16
147
1.0
 76
     0
 77
     2
 78
   300
148
-968.6464465543492
149
-10.13499988433659
1001
ACAD_PSEXT
1000
DocuWide 2051 MF-RT
1000
FX DocuWide 2050/2051
1000
10.100.200.210:plt00t
1000

1070
     0
  0
PLOTSETTINGS
  5
2883A
102
{ACAD_REACTORS
330
19
102
}
330
19
100
AcDbPlotSettings
  1
A3横-DocuCentre C4535Ⅰ②
  2
DocuCentre C4535 I ②
  4
A3
  6

 40
4.857749938964843
 41
4.942420959472656
 42
4.9423828125
 43
4.857757568359375
 44
297.0106506347656
 45
420.0313415527343
 46
0.0
 47
0.0
 48
0.0
 49
0.0
140
0.0
141
0.0
142
1.0
143
2.0
 70
  2720
 72
     1
 73
     1
 74
     5
  7
monochrome.ctb
 75
     0
147
0.4835020742459363
 76
     0
 77
     2
 78
   300
148
17.0220485445252
149
5.136853987673248
1001
ACAD_PSEXT
1000
DocuCentre C4535 I ②
1000
FX DocuCentre C4535 I
1000
10.100.200.205
1000

1070
     0
  0
PLOTSETTINGS
  5
4BB56
102
{ACAD_REACTORS
330
19
102
}
330
19
100
AcDbPlotSettings
  1
A3横-DocuCentre C4535Ⅰ②_cor
  2
DocuCentre C4535 I ②
  4
A3
  6

 40
4.857749938964843
 41
4.942420959472656
 42
4.9423828125
 43
4.857757568359375
 44
297.0106506347656
 45
420.0313415527343
 46
0.0
 47
0.0
 48
0.0
 49
0.0
140
0.0
141
0.0
142
1.0
143
2.0
 70
  2720
 72
     1
 73
     1
 74
     5
  7
acad.ctb
 75
     0
147
0.4835020742459363
 76
     0
 77
     2
 78
   300
148
17.0220485445252
149
5.136853987673248
1001
ACAD_PSEXT
1000
DocuCentre C4535 I ②
1000
FX DocuCentre C4535 I
1000
10.100.200.205
1000

1070
     0
  0
PLOTSETTINGS
  5
228B2
102
{ACAD_REACTORS
330
19
102
}
330
19
100
AcDbPlotSettings
  1
A4横-DocuCentre C4535Ⅰ②
  2
DocuCentre C4535 I ②
  4
A4
  6

 40
4.857749938964843
 41
4.942390441894531
 42
4.942413330078125
 43
4.857757568359375
 44
209.9733276367187
 45
297.0106506347656
 46
0.0
 47
0.0
 48
0.0
 49
0.0
140
0.0
141
0.0
142
1.0
143
2.0
 70
  2720
 72
     1
 73
     1
 74
     5
  7
monochrome.ctb
 75
    16
147
1.0
 76
     0
 77
     2
 78
   300
148
-965.432603393638
149
-6.955950538279239
1001
ACAD_PSEXT
1000
DocuCentre C4535 I ②
1000
FX DocuCentre C4535 I
1000
10.100.200.205
1000

1070
     0
  0
PLOTSETTINGS
  5
4BB5F
102
{ACAD_REACTORS
330
19
102
}
330
19
100
AcDbPlotSettings
  1
A4横-DocuCentre C4535Ⅰ②_cor
  2
DocuCentre C4535 I ②
  4
A4
  6

 40
4.857749938964843
 41
4.942390441894531
 42
4.942413330078125
 43
4.857757568359375
 44
209.9733276367187
 45
297.0106506347656
 46
0.0
 47
0.0
 48
0.0
 49
0.0
140
0.0
141
0.0
142
1.0
143
2.0
 70
  2720
 72
     1
 73
     1
 74
     5
  7
acad.ctb
 75
    16
147
1.0
 76
     0
 77
     2
 78
   300
148
-965.432603393638
149
-6.955950538279239
1001
ACAD_PSEXT
1000
DocuCentre C4535 I ②
1000
FX DocuCentre C4535 I
1000
10.100.200.205
1000

1070
     0
  0
ACDBPLACEHOLDER
  5
F
102
{ACAD_REACTORS
330
E
102
}
330
E
  0
SCALE
  5
2275A
102
{ACAD_REACTORS
330
22759
102
}
330
22759
100
AcDbScale
 70
     0
300
1:1
140
1.0
141
1.0
290
     1
  0
SCALE
  5
22924
102
{ACAD_REACTORS
330
22759
102
}
330
22759
100
AcDbScale
 70
     0
300
1:3
140
1.0
141
3.0
290
     0
  0
SCALE
  5
22925
102
{ACAD_REACTORS
330
22759
102
}
330
22759
100
AcDbScale
 70
     0
300
1:60
140
1.0
141
60.0
290
     0
  0
SCALE
  5
22926
102
{ACAD_REACTORS
330
22759
102
}
330
22759
100
AcDbScale
 70
     0
300
1:150
140
1.0
141
150.0
290
     0
  0
SCALE
  5
22927
102
{ACAD_REACTORS
330
22759
102
}
330
22759
100
AcDbScale
 70
     0
300
1:125
140
1.0
141
125.0
290
     0
  0
SCALE
  5
22928
102
{ACAD_REACTORS
330
22759
102
}
330
22759
100
AcDbScale
 70
     0
300
1:2
140
1.0
141
2.0
290
     0
  0
SCALE
  5
22929
102
{ACAD_REACTORS
330
22759
102
}
330
22759
100
AcDbScale
 70
     0
300
1:4
140
1.0
141
4.0
290
     0
  0
SCALE
  5
2292A
102
{ACAD_REACTORS
330
22759
102
}
330
22759
100
AcDbScale
 70
     0
300
1:5
140
1.0
141
5.0
290
     0
  0
SCALE
  5
2292B
102
{ACAD_REACTORS
330
22759
102
}
330
22759
100
AcDbScale
 70
     0
300
1:8
140
1.0
141
8.0
290
     0
  0
SCALE
  5
2292C
102
{ACAD_REACTORS
330
22759
102
}
330
22759
100
AcDbScale
 70
     0
300
1:10
140
1.0
141
10.0
290
     0
  0
SCALE
  5
2292D
102
{ACAD_REACTORS
330
22759
102
}
330
22759
100
AcDbScale
 70
     0
300
1:16
140
1.0
141
16.0
290
     0
  0
SCALE
  5
2292E
102
{ACAD_REACTORS
330
22759
102
}
330
22759
100
AcDbScale
 70
     0
300
1:20
140
1.0
141
20.0
290
     0
  0
SCALE
  5
2292F
102
{ACAD_REACTORS
330
22759
102
}
330
22759
100
AcDbScale
 70
     0
300
1:30
140
1.0
141
30.0
290
     0
  0
SCALE
  5
22930
102
{ACAD_REACTORS
330
22759
102
}
330
22759
100
AcDbScale
 70
     0
300
1:40
140
1.0
141
40.0
290
     0
  0
SCALE
  5
22931
102
{ACAD_REACTORS
330
22759
102
}
330
22759
100
AcDbScale
 70
     0
300
1:50
140
1.0
141
50.0
290
     0
  0
SCALE
  5
22765
102
{ACAD_REACTORS
330
22759
102
}
330
22759
100
AcDbScale
 70
     0
300
1:100
140
1.0
141
100.0
290
     0
  0
SCALE
  5
22932
102
{ACAD_REACTORS
330
22759
102
}
330
22759
100
AcDbScale
 70
     0
300
2:1
140
2.0
141
1.0
290
     0
  0
SCALE
  5
22933
102
{ACAD_REACTORS
330
22759
102
}
330
22759
100
AcDbScale
 70
     0
300
4:1
140
4.0
141
1.0
290
     0
  0
SCALE
  5
22934
102
{ACAD_REACTORS
330
22759
102
}
330
22759
100
AcDbScale
 70
     0
300
8:1
140
8.0
141
1.0
290
     0
  0
SCALE
  5
22935
102
{ACAD_REACTORS
330
22759
102
}
330
22759
100
AcDbScale
 70
     0
300
10:1
140
10.0
141
1.0
290
     0
  0
SCALE
  5
22936
102
{ACAD_REACTORS
330
22759
102
}
330
22759
100
AcDbScale
 70
     0
300
100:1
140
100.0
141
1.0
290
     0
  0
TABLESTYLE
  5
22758
102
{ACAD_XDICTIONARY
360
22803
102
}
102
{ACAD_REACTORS
330
22757
102
}
330
22757
100
AcDbTableStyle
  3
Standard
 70
     0
 71
     0
 40
1.5
 41
1.5
280
     0
281
     0
  7
Standard
140
4.5
170
     2
 62
     0
 63
     7
283
     0
274
    -2
284
     1
 64
     0
275
    -2
285
     1
 65
     0
276
    -2
286
     1
 66
     0
277
    -2
287
     1
 67
     0
278
    -2
288
     1
 68
     0
279
    -2
289
     1
 69
     0
  7
Standard
140
6.0
170
     5
 62
     0
 63
     7
283
     0
274
    -2
284
     1
 64
     0
275
    -2
285
     1
 65
     0
276
    -2
286
     1
 66
     0
277
    -2
287
     1
 67
     0
278
    -2
288
     1
 68
     0
279
    -2
289
     1
 69
     0
  7
Standard
140
4.5
170
     5
 62
     0
 63
     7
283
     0
274
    -2
284
     1
 64
     0
275
    -2
285
     1
 65
     0
276
    -2
286
     1
 66
     0
277
    -2
287
     1
 67
     0
278
    -2
288
     1
 68
     0
279
    -2
289
     1
 69
     0
  0
VISUALSTYLE
  5
2274B
102
{ACAD_XDICTIONARY
360
528B5
102
}
102
{ACAD_REACTORS
330
22745
102
}
330
22745
100
AcDbVisualStyle
  2
2dWireframe
 70
     4
 71
     0
 72
     2
 73
     0
 90
        0
 40
-0.6
 41
-30.0
 62
     5
 63
     7
421
 16777215
 74
     1
 91
        4
 64
     7
 65
   257
 75
     1
175
     1
 42
1.0
 92
        0
 66
   257
 43
1.0
 76
     1
 77
     6
 78
     2
 67
     7
 79
     5
170
     0
171
     0
290
     0
174
     0
 93
        1
 44
0.0
173
     0
291
     0
 45
0.0
1001
ACAD
1000
AcDbSavedByObjectVersion
1070
     0
  0
VISUALSTYLE
  5
2274D
102
{ACAD_XDICTIONARY
360
528B9
102
}
102
{ACAD_REACTORS
330
22745
102
}
330
22745
100
AcDbVisualStyle
  2
3D Hidden
 70
     6
 71
     1
 72
     2
 73
     2
 90
        0
 40
-0.6
 41
-30.0
 62
     5
 63
     7
421
 16777215
 74
     2
 91
        2
 64
     7
 65
   257
 75
     2
175
     1
 42
40.0
 92
        0
 66
   257
 43
1.0
 76
     1
 77
     6
 78
     2
 67
     7
 79
     3
170
     0
171
     0
290
     0
174
     0
 93
        1
 44
0.0
173
     0
291
     0
 45
0.0
1001
ACAD
1000
AcDbSavedByObjectVersion
1070
     0
  0
VISUALSTYLE
  5
2274C
102
{ACAD_XDICTIONARY
360
528B7
102
}
102
{ACAD_REACTORS
330
22745
102
}
330
22745
100
AcDbVisualStyle
  2
3dWireframe
 70
     5
 71
     0
 72
     2
 73
     0
 90
        0
 40
-0.6
 41
-30.0
 62
     5
 63
     7
421
 16777215
 74
     1
 91
        4
 64
     7
 65
   257
 75
     1
175
     1
 42
1.0
 92
        0
 66
   257
 43
1.0
 76
     1
 77
     6
 78
     2
 67
     7
 79
     5
170
     0
171
     0
290
     0
174
     0
 93
        1
 44
0.0
173
     0
291
     0
 45
0.0
1001
ACAD
1000
AcDbSavedByObjectVersion
1070
     0
  0
VISUALSTYLE
  5
2274A
102
{ACAD_XDICTIONARY
360
528B3
102
}
102
{ACAD_REACTORS
330
22745
102
}
330
22745
100
AcDbVisualStyle
  2
Basic
 70
     7
 71
     1
 72
     0
 73
     1
 90
        0
 40
-0.6
 41
-30.0
 62
     5
 63
     7
421
 16777215
 74
     0
 91
        4
 64
     7
 65
   257
 75
     1
175
     1
 42
1.0
 92
        8
 66
     7
 43
1.0
 76
     1
 77
     6
 78
     2
 67
     7
 79
     5
170
     0
171
     0
290
     0
174
     0
 93
        1
 44
0.0
173
     0
291
     1
 45
0.0
1001
ACAD
1000
AcDbSavedByObjectVersion
1070
     0
  0
VISUALSTYLE
  5
22751
102
{ACAD_XDICTIONARY
360
528C1
102
}
102
{ACAD_REACTORS
330
22745
102
}
330
22745
100
AcDbVisualStyle
  2
Brighten
 70
    12
 71
     2
 72
     2
 73
     0
 90
        0
 40
-0.6
 41
-30.0
 62
     5
 63
     7
421
 16777215
 74
     1
 91
        4
 64
     7
 65
   257
 75
     1
175
     1
 42
1.0
 92
        8
 66
     7
 43
1.0
 76
     1
 77
     6
 78
     2
 67
     7
 79
     5
170
     0
171
     0
290
     0
174
     0
 93
        1
 44
50.0
173
     0
291
     1
 45
0.0
1001
ACAD
1000
AcDbSavedByObjectVersion
1070
     0
  0
VISUALSTYLE
  5
22755
102
{ACAD_XDICTIONARY
360
528C9
102
}
102
{ACAD_REACTORS
330
22745
102
}
330
22745
100
AcDbVisualStyle
  2
ColorChange
 70
    16
 71
     2
 72
     2
 73
     3
 90
        0
 40
-0.6
 41
-30.0
 62
     5
 63
     8
421
  8421504
 74
     1
 91
        4
 64
     7
 65
   257
 75
     1
175
     1
 42
1.0
 92
        8
 66
     8
424
  8421504
 43
1.0
 76
     1
 77
     6
 78
     2
 67
     7
 79
     5
170
     0
171
     0
290
     0
174
     0
 93
        1
 44
0.0
173
     0
291
     1
 45
0.0
1001
ACAD
1000
AcDbSavedByObjectVersion
1070
     0
  0
VISUALSTYLE
  5
2274E
102
{ACAD_XDICTIONARY
360
528BB
102
}
102
{ACAD_REACTORS
330
22745
102
}
330
22745
100
AcDbVisualStyle
  2
Conceptual
 70
     9
 71
     3
 72
     2
 73
     0
 90
        0
 40
-0.6
 41
-30.0
 62
     5
 63
     7
421
 16777215
 74
     2
 91
        2
 64
     7
 65
   257
 75
     1
175
     1
 42
40.0
 92
        8
 66
     7
 43
1.0
 76
     1
 77
     6
 78
     2
 67
     7
 79
     3
170
     0
171
     0
290
     0
174
     0
 93
        1
 44
0.0
173
     0
291
     0
 45
0.0
1001
ACAD
1000
AcDbSavedByObjectVersion
1070
     0
  0
VISUALSTYLE
  5
22750
102
{ACAD_XDICTIONARY
360
528BF
102
}
102
{ACAD_REACTORS
330
22745
102
}
330
22745
100
AcDbVisualStyle
  2
Dim
 70
    11
 71
     2
 72
     2
 73
     0
 90
        0
 40
-0.6
 41
-30.0
 62
     5
 63
     7
421
 16777215
 74
     1
 91
        4
 64
     7
 65
   257
 75
     1
175
     1
 42
1.0
 92
        8
 66
     7
 43
1.0
 76
     1
 77
     6
 78
     2
 67
     7
 79
     5
170
     0
171
     0
290
     0
174
     0
 93
        1
 44
-50.0
173
     0
291
     1
 45
0.0
1001
ACAD
1000
AcDbSavedByObjectVersion
1070
     0
  0
VISUALSTYLE
  5
22A03
102
{ACAD_XDICTIONARY
360
528DE
102
}
102
{ACAD_REACTORS
330
22745
102
}
330
22745
100
AcDbVisualStyle
  2
EdgeColorOff
 70
    22
 71
     2
 72
     2
 73
     0
 90
        0
 40
-0.6
 41
-30.0
 62
     5
 63
     7
421
 16777215
 74
     1
 91
        4
 64
     7
 65
   257
 75
     1
175
     1
 42
1.0
 92
        8
 66
     7
 43
1.0
 76
     1
 77
     6
 78
     2
 67
     7
 79
     5
170
     0
171
     0
290
     0
174
     0
 93
        1
 44
0.0
173
     0
291
     1
 45
0.0
1001
ACAD
1000
AcDbSavedByObjectVersion
1070
     0
  0
VISUALSTYLE
  5
22754
102
{ACAD_XDICTIONARY
360
528C7
102
}
102
{ACAD_REACTORS
330
22745
102
}
330
22745
100
AcDbVisualStyle
  2
Facepattern
 70
    15
 71
     2
 72
     2
 73
     0
 90
        0
 40
-0.6
 41
-30.0
 62
     5
 63
     7
421
 16777215
 74
     1
 91
        4
 64
     7
 65
   257
 75
     1
175
     1
 42
1.0
 92
        8
 66
     7
 43
1.0
 76
     1
 77
     6
 78
     2
 67
     7
 79
     5
170
     0
171
     0
290
     0
174
     0
 93
        1
 44
0.0
173
     0
291
     1
 45
0.0
1001
ACAD
1000
AcDbSavedByObjectVersion
1070
     0
  0
VISUALSTYLE
  5
22746
102
{ACAD_XDICTIONARY
360
528AB
102
}
102
{ACAD_REACTORS
330
22745
102
}
330
22745
100
AcDbVisualStyle
  2
Flat
 70
     0
 71
     2
 72
     1
 73
     1
 90
        2
 40
-0.6
 41
30.0
 62
     5
 63
     7
421
 16777215
 74
     0
 91
        4
 64
     7
 65
   257
 75
     1
175
     1
 42
1.0
 92
        8
 66
     7
 43
1.0
 76
     1
 77
     6
 78
     2
 67
     7
 79
     5
170
     0
171
     0
290
     0
174
     0
 93
       13
 44
0.0
173
     0
291
     1
 45
0.0
1001
ACAD
1000
AcDbSavedByObjectVersion
1070
     0
  0
VISUALSTYLE
  5
22747
102
{ACAD_XDICTIONARY
360
528AD
102
}
102
{ACAD_REACTORS
330
22745
102
}
330
22745
100
AcDbVisualStyle
  2
FlatWithEdges
 70
     1
 71
     2
 72
     1
 73
     1
 90
        2
 40
-0.6
 41
30.0
 62
     5
 63
     7
421
 16777215
 74
     1
 91
        4
 64
     7
 65
   257
 75
     1
175
     1
 42
1.0
 92
        0
 66
   257
 43
1.0
 76
     1
 77
     6
 78
     2
 67
     7
 79
     5
170
     0
171
     0
290
     0
174
     0
 93
       13
 44
0.0
173
     0
291
     1
 45
0.0
1001
ACAD
1000
AcDbSavedByObjectVersion
1070
     0
  0
VISUALSTYLE
  5
22748
102
{ACAD_XDICTIONARY
360
528AF
102
}
102
{ACAD_REACTORS
330
22745
102
}
330
22745
100
AcDbVisualStyle
  2
Gouraud
 70
     2
 71
     2
 72
     2
 73
     1
 90
        2
 40
-0.6
 41
30.0
 62
     5
 63
     7
421
 16777215
 74
     0
 91
        4
 64
     7
 65
   257
 75
     1
175
     1
 42
1.0
 92
        0
 66
     7
 43
1.0
 76
     1
 77
     6
 78
     2
 67
     7
 79
     5
170
     0
171
     0
290
     0
174
     0
 93
       13
 44
0.0
173
     0
291
     1
 45
0.0
1001
ACAD
1000
AcDbSavedByObjectVersion
1070
     0
  0
VISUALSTYLE
  5
22749
102
{ACAD_XDICTIONARY
360
528B1
102
}
102
{ACAD_REACTORS
330
22745
102
}
330
22745
100
AcDbVisualStyle
  2
GouraudWithEdges
 70
     3
 71
     2
 72
     2
 73
     1
 90
        2
 40
-0.6
 41
30.0
 62
     5
 63
     7
421
 16777215
 74
     1
 91
        4
 64
     7
 65
   257
 75
     1
175
     1
 42
1.0
 92
        0
 66
   257
 43
1.0
 76
     1
 77
     6
 78
     2
 67
     7
 79
     5
170
     0
171
     0
290
     0
174
     0
 93
       13
 44
0.0
173
     0
291
     1
 45
0.0
1001
ACAD
1000
AcDbSavedByObjectVersion
1070
     0
  0
VISUALSTYLE
  5
229FB
102
{ACAD_XDICTIONARY
360
528CE
102
}
102
{ACAD_REACTORS
330
22745
102
}
330
22745
100
AcDbVisualStyle
  2
Hidden
 70
     6
 71
     1
 72
     2
 73
     2
 90
        0
 40
-0.6
 41
-30.0
 62
     5
 63
     7
421
 16777215
 74
     2
 91
        2
 64
     7
 65
   257
 75
     2
175
     1
 42
40.0
 92
        0
 66
   257
 43
1.0
 76
     1
 77
     6
 78
     2
 67
     7
 79
     3
170
     0
171
     0
290
     0
174
     0
 93
        1
 44
0.0
173
     0
291
     0
 45
0.0
1001
ACAD
1000
AcDbSavedByObjectVersion
1070
     0
  0
VISUALSTYLE
  5
22A01
102
{ACAD_XDICTIONARY
360
528DA
102
}
102
{ACAD_REACTORS
330
22745
102
}
330
22745
100
AcDbVisualStyle
  2
JitterOff
 70
    20
 71
     2
 72
     2
 73
     0
 90
        0
 40
-0.6
 41
-30.0
 62
     5
 63
     7
421
 16777215
 74
     1
 91
        4
 64
     7
 65
   257
 75
     1
175
     1
 42
1.0
 92
       10
 66
     7
 43
1.0
 76
     1
 77
     6
 78
     2
 67
     7
 79
     5
170
     0
171
     0
290
     0
174
     0
 93
        1
 44
0.0
173
     0
291
     1
 45
0.0
1001
ACAD
1000
AcDbSavedByObjectVersion
1070
     0
  0
VISUALSTYLE
  5
22753
102
{ACAD_XDICTIONARY
360
528C5
102
}
102
{ACAD_REACTORS
330
22745
102
}
330
22745
100
AcDbVisualStyle
  2
Linepattern
 70
    14
 71
     2
 72
     2
 73
     0
 90
        0
 40
-0.6
 41
-30.0
 62
     5
 63
     7
421
 16777215
 74
     1
 91
        4
 64
     7
 65
   257
 75
     7
175
     7
 42
1.0
 92
        8
 66
     7
 43
1.0
 76
     1
 77
     6
 78
     2
 67
     7
 79
     5
170
     0
171
     0
290
     0
174
     0
 93
        1
 44
0.0
173
     0
291
     1
 45
0.0
1001
ACAD
1000
AcDbSavedByObjectVersion
1070
     0
  0
VISUALSTYLE
  5
22A02
102
{ACAD_XDICTIONARY
360
528DC
102
}
102
{ACAD_REACTORS
330
22745
102
}
330
22745
100
AcDbVisualStyle
  2
OverhangOff
 70
    21
 71
     2
 72
     2
 73
     0
 90
        0
 40
-0.6
 41
-30.0
 62
     5
 63
     7
421
 16777215
 74
     1
 91
        4
 64
     7
 65
   257
 75
     1
175
     1
 42
1.0
 92
        9
 66
     7
 43
1.0
 76
     1
 77
     6
 78
     2
 67
     7
 79
     5
170
     0
171
     0
290
     0
174
     0
 93
        1
 44
0.0
173
     0
291
     1
 45
0.0
1001
ACAD
1000
AcDbSavedByObjectVersion
1070
     0
  0
VISUALSTYLE
  5
2274F
102
{ACAD_XDICTIONARY
360
528BD
102
}
102
{ACAD_REACTORS
330
22745
102
}
330
22745
100
AcDbVisualStyle
  2
Realistic
 70
     8
 71
     2
 72
     2
 73
     0
 90
        0
 40
-0.6
 41
-30.0
 62
     5
 63
     7
421
 16777215
 74
     1
 91
        0
 64
     7
 65
   257
 75
     1
175
     1
 42
1.0
 92
        8
 66
     8
424
  7895160
 43
1.0
 76
     1
 77
     6
 78
     2
 67
     7
 79
     5
170
     0
171
     0
290
     0
174
     0
 93
       13
 44
0.0
173
     0
291
     0
 45
0.0
1001
ACAD
1000
AcDbSavedByObjectVersion
1070
     0
  0
VISUALSTYLE
  5
22A00
102
{ACAD_XDICTIONARY
360
528D8
102
}
102
{ACAD_REACTORS
330
22745
102
}
330
22745
100
AcDbVisualStyle
  2
Shaded
 70
    27
 71
     2
 72
     2
 73
     1
 90
        2
 40
-0.6
 41
30.0
 62
     5
 63
     7
421
 16777215
 74
     0
 91
        4
 64
     7
 65
   257
 75
     1
175
     1
 42
1.0
 92
        8
 66
   257
 43
1.0
 76
     1
 77
     6
 78
     2
 67
     8
425
  7895160
 79
     3
170
     0
171
     0
290
     0
174
     0
 93
        5
 44
0.0
173
     0
291
     0
 45
0.0
1001
ACAD
1000
AcDbSavedByObjectVersion
1070
     0
  0
VISUALSTYLE
  5
229FF
102
{ACAD_XDICTIONARY
360
528D6
102
}
102
{ACAD_REACTORS
330
22745
102
}
330
22745
100
AcDbVisualStyle
  2
Shaded with edges
 70
    26
 71
     2
 72
     2
 73
     1
 90
        2
 40
-0.6
 41
30.0
 62
     5
 63
     7
421
 16777215
 74
     1
 91
       10
 64
     7
 65
   257
 75
     2
175
     1
 42
1.0
 92
        8
 66
   257
 43
1.0
 76
     1
 77
     6
 78
     2
 67
     7
 79
     3
170
     0
171
     0
290
     0
174
     0
 93
        5
 44
0.0
173
     0
291
     0
 45
0.0
1001
ACAD
1000
AcDbSavedByObjectVersion
1070
     0
  0
VISUALSTYLE
  5
229FC
102
{ACAD_XDICTIONARY
360
528D0
102
}
102
{ACAD_REACTORS
330
22745
102
}
330
22745
100
AcDbVisualStyle
  2
Shades of Gray
 70
    23
 71
     2
 72
     2
 73
     3
 90
        0
 40
-0.6
 41
-30.0
 62
     5
 63
     7
421
 16777215
 74
     2
 91
        2
 64
     7
 65
     7
 75
     1
175
     1
 42
40.0
 92
        8
 66
     7
 43
1.0
 76
     1
 77
     6
 78
     2
 67
     7
 79
     3
170
     0
171
     0
290
     0
174
     0
 93
        1
 44
0.0
173
     0
291
     0
 45
0.0
1001
ACAD
1000
AcDbSavedByObjectVersion
1070
     0
  0
VISUALSTYLE
  5
229FD
102
{ACAD_XDICTIONARY
360
528D2
102
}
102
{ACAD_REACTORS
330
22745
102
}
330
22745
100
AcDbVisualStyle
  2
Sketchy
 70
    24
 71
     1
 72
     2
 73
     2
 90
        0
 40
-0.6
 41
-30.0
 62
     5
 63
     7
421
 16777215
 74
     2
 91
        2
 64
     7
 65
     7
 75
     1
175
     1
 42
40.0
 92
       11
 66
     7
 43
1.0
 76
     1
 77
     6
 78
     2
 67
     7
 79
     6
170
     0
171
     0
290
     0
174
     0
 93
        1
 44
0.0
173
     0
291
     0
 45
0.0
1001
ACAD
1000
AcDbSavedByObjectVersion
1070
     0
  0
VISUALSTYLE
  5
22752
102
{ACAD_XDICTIONARY
360
528C3
102
}
102
{ACAD_REACTORS
330
22745
102
}
330
22745
100
AcDbVisualStyle
  2
Thicken
 70
    13
 71
     2
 72
     2
 73
     0
 90
        0
 40
-0.6
 41
-30.0
 62
     5
 63
     7
421
 16777215
 74
     1
 91
        4
 64
     7
 65
   257
 75
     1
175
     1
 42
1.0
 92
       12
 66
     7
 43
1.0
 76
     1
 77
     6
 78
     2
 67
     7
 79
     5
170
     0
171
     0
290
     0
174
     0
 93
        1
 44
0.0
173
     0
291
     1
 45
0.0
1001
ACAD
1000
AcDbSavedByObjectVersion
1070
     0
  0
VISUALSTYLE
  5
229FA
102
{ACAD_XDICTIONARY
360
528CC
102
}
102
{ACAD_REACTORS
330
22745
102
}
330
22745
100
AcDbVisualStyle
  2
Wireframe
 70
     5
 71
     0
 72
     2
 73
     0
 90
        0
 40
-0.6
 41
-30.0
 62
     5
 63
     7
421
 16777215
 74
     1
 91
        4
 64
     7
 65
   257
 75
     1
175
     1
 42
1.0
 92
        0
 66
   257
 43
1.0
 76
     1
 77
     6
 78
     2
 67
     7
 79
     3
170
     0
171
     0
290
     0
174
     0
 93
        1
 44
0.0
173
     0
291
     0
 45
0.0
1001
ACAD
1000
AcDbSavedByObjectVersion
1070
     0
  0
VISUALSTYLE
  5
229FE
102
{ACAD_XDICTIONARY
360
528D4
102
}
102
{ACAD_REACTORS
330
22745
102
}
330
22745
100
AcDbVisualStyle
  2
X-Ray
 70
    25
 71
     2
 72
     2
 73
     1
 90
        1
 40
0.5
 41
-30.0
 62
     5
 63
     7
421
 16777215
 74
     1
 91
        0
 64
     7
 65
   257
 75
     1
175
     1
 42
1.0
 92
        8
 66
     7
 43
1.0
 76
     1
 77
     6
 78
     2
 67
     7
 79
     3
170
     0
171
     0
290
     0
174
     0
 93
       13
 44
0.0
173
     0
291
     0
 45
0.0
1001
ACAD
1000
AcDbSavedByObjectVersion
1070
     0
  0
DICTIONARYVAR
  5
22809
102
{ACAD_REACTORS
330
173D
102
}
330
173D
100
DictionaryVariables
280
     0
  1
1:1
  0
DICTIONARYVAR
  5
22807
102
{ACAD_REACTORS
330
173D
102
}
330
173D
100
DictionaryVariables
280
     0
  1
STANDARD
  0
DICTIONARYVAR
  5
22806
102
{ACAD_REACTORS
330
173D
102
}
330
173D
100
DictionaryVariables
280
     0
  1
STANDARD
  0
DICTIONARYVAR
  5
2280B
102
{ACAD_REACTORS
330
173D
102
}
330
173D
100
DictionaryVariables
280
     0
  1
1
  0
DICTIONARYVAR
  5
2280C
102
{ACAD_REACTORS
330
173D
102
}
330
173D
100
DictionaryVariables
280
     0
  1
15
  0
DICTIONARYVAR
  5
2280A
102
{ACAD_REACTORS
330
173D
102
}
330
173D
100
DictionaryVariables
280
     0
  1
0
  0
DICTIONARYVAR
  5
22808
102
{ACAD_REACTORS
330
173D
102
}
330
173D
100
DictionaryVariables
280
     0
  1
0
  0
DICTIONARYVAR
  5
526FC
102
{ACAD_REACTORS
330
173D
102
}
330
173D
100
DictionaryVariables
280
     0
  1
1
  0
DICTIONARYVAR
  5
173E
102
{ACAD_REACTORS
330
173D
102
}
330
173D
100
DictionaryVariables
280
     0
  1
96
  0
XRECORD
  5
2272A
102
{ACAD_REACTORS
330
22728
102
}
330
22728
100
AcDbXrecord
280
     1
  0
XRECORD
  5
1606
102
{ACAD_REACTORS
330
1563
102
}
330
1563
100
AcDbXrecord
280
     1
 91
      483
330
10
 90
        8
 62
     7
370
    -3
331
16
  1
Color_7
  0
DICTIONARY
  5
22AE9
330
22
100
AcDbDictionary
280
     1
281
     1
  3
ADSK_XREC_LAYOUTTHUMBNAIL
360
22AEA
  0
DICTIONARY
  5
22736
330
22735
100
AcDbDictionary
280
     1
281
     1
  3
ACAD_XREC_ROUNDTRIP
360
528A9
  3
BUMPTILE
360
22738
  3
DIFFUSETILE
360
22737
  3
OPACITYTILE
360
2273B
  3
REFLECTIONTILE
360
2273A
  3
REFRACTIONTILE
360
2273C
  3
SPECULARTILE
360
22739
  0
DICTIONARY
  5
2272E
330
2272D
100
AcDbDictionary
280
     1
281
     1
  3
ACAD_XREC_ROUNDTRIP
360
528A8
  3
BUMPTILE
360
22730
  3
DIFFUSETILE
360
2272F
  3
OPACITYTILE
360
22733
  3
REFLECTIONTILE
360
22732
  3
REFRACTIONTILE
360
22734
  3
SPECULARTILE
360
22731
  0
DICTIONARY
  5
2273E
330
2273D
100
AcDbDictionary
280
     1
281
     1
  3
ACAD_XREC_ROUNDTRIP
360
528AA
  3
BUMPTILE
360
22740
  3
DIFFUSETILE
360
2273F
  3
OPACITYTILE
360
22743
  3
REFLECTIONTILE
360
22742
  3
REFRACTIONTILE
360
22744
  3
SPECULARTILE
360
22741
  0
DICTIONARY
  5
528A2
330
2276C
100
AcDbDictionary
280
     1
281
     1
  3
ACAD_XREC_ROUNDTRIP
360
528A3
  0
DICTIONARY
  5
22803
330
22758
100
AcDbDictionary
280
     1
281
     1
  3
ACAD_ROUNDTRIP_2008_TABLESTYLE_CELLSTYLEMAP
360
528A1
  3
ACAD_XREC_ROUNDTRIP
360
528CB
  0
DICTIONARY
  5
528B5
330
2274B
100
AcDbDictionary
280
     1
281
     1
  3
ACAD_XREC_ROUNDTRIP
360
528B6
  0
DICTIONARY
  5
528B9
330
2274D
100
AcDbDictionary
280
     1
281
     1
  3
ACAD_XREC_ROUNDTRIP
360
528BA
  0
DICTIONARY
  5
528B7
330
2274C
100
AcDbDictionary
280
     1
281
     1
  3
ACAD_XREC_ROUNDTRIP
360
528B8
  0
DICTIONARY
  5
528B3
330
2274A
100
AcDbDictionary
280
     1
281
     1
  3
ACAD_XREC_ROUNDTRIP
360
528B4
  0
DICTIONARY
  5
528C1
330
22751
100
AcDbDictionary
280
     1
281
     1
  3
ACAD_XREC_ROUNDTRIP
360
528C2
  0
DICTIONARY
  5
528C9
330
22755
100
AcDbDictionary
280
     1
281
     1
  3
ACAD_XREC_ROUNDTRIP
360
528CA
  0
DICTIONARY
  5
528BB
330
2274E
100
AcDbDictionary
280
     1
281
     1
  3
ACAD_XREC_ROUNDTRIP
360
528BC
  0
DICTIONARY
  5
528BF
330
22750
100
AcDbDictionary
280
     1
281
     1
  3
ACAD_XREC_ROUNDTRIP
360
528C0
  0
DICTIONARY
  5
528DE
330
22A03
100
AcDbDictionary
280
     1
281
     1
  3
ACAD_XREC_ROUNDTRIP
360
528DF
  0
DICTIONARY
  5
528C7
330
22754
100
AcDbDictionary
280
     1
281
     1
  3
ACAD_XREC_ROUNDTRIP
360
528C8
  0
DICTIONARY
  5
528AB
330
22746
100
AcDbDictionary
280
     1
281
     1
  3
ACAD_XREC_ROUNDTRIP
360
528AC
  0
DICTIONARY
  5
528AD
330
22747
100
AcDbDictionary
280
     1
281
     1
  3
ACAD_XREC_ROUNDTRIP
360
528AE
  0
DICTIONARY
  5
528AF
330
22748
100
AcDbDictionary
280
     1
281
     1
  3
ACAD_XREC_ROUNDTRIP
360
528B0
  0
DICTIONARY
  5
528B1
330
22749
100
AcDbDictionary
280
     1
281
     1
  3
ACAD_XREC_ROUNDTRIP
360
528B2
  0
DICTIONARY
  5
528CE
330
229FB
100
AcDbDictionary
280
     1
281
     1
  3
ACAD_XREC_ROUNDTRIP
360
528CF
  0
DICTIONARY
  5
528DA
330
22A01
100
AcDbDictionary
280
     1
281
     1
  3
ACAD_XREC_ROUNDTRIP
360
528DB
  0
DICTIONARY
  5
528C5
330
22753
100
AcDbDictionary
280
     1
281
     1
  3
ACAD_XREC_ROUNDTRIP
360
528C6
  0
DICTIONARY
  5
528DC
330
22A02
100
AcDbDictionary
280
     1
281
     1
  3
ACAD_XREC_ROUNDTRIP
360
528DD
  0
DICTIONARY
  5
528BD
330
2274F
100
AcDbDictionary
280
     1
281
     1
  3
ACAD_XREC_ROUNDTRIP
360
528BE
  0
DICTIONARY
  5
528D8
330
22A00
100
AcDbDictionary
280
     1
281
     1
  3
ACAD_XREC_ROUNDTRIP
360
528D9
  0
DICTIONARY
  5
528D6
330
229FF
100
AcDbDictionary
280
     1
281
     1
  3
ACAD_XREC_ROUNDTRIP
360
528D7
  0
DICTIONARY
  5
528D0
330
229FC
100
AcDbDictionary
280
     1
281
     1
  3
ACAD_XREC_ROUNDTRIP
360
528D1
  0
DICTIONARY
  5
528D2
330
229FD
100
AcDbDictionary
280
     1
281
     1
  3
ACAD_XREC_ROUNDTRIP
360
528D3
  0
DICTIONARY
  5
528C3
330
22752
100
AcDbDictionary
280
     1
281
     1
  3
ACAD_XREC_ROUNDTRIP
360
528C4
  0
DICTIONARY
  5
528CC
330
229FA
100
AcDbDictionary
280
     1
281
     1
  3
ACAD_XREC_ROUNDTRIP
360
528CD
  0
DICTIONARY
  5
528D4
330
229FE
100
AcDbDictionary
280
     1
281
     1
  3
ACAD_XREC_ROUNDTRIP
360
528D5
  0
XRECORD
  5
22AEA
102
{ACAD_REACTORS
330
22AE9
102
}
330
22AE9
100
AcDbXrecord
280
     1
310
280000000001000065000000010008000000000000650000000000000000000000010000000000003028210000000000FFFFFF000000000000000000000000000000000000000000000000000000000000000000330000006600000099000000CC000000FF00000000330000333300006633000099330000CC330000FF3300
310
0000660000336600006666000099660000CC660000FF66000000990000339900006699000099990000CC990000FF99000000CC000033CC000066CC000099CC0000CCCC0000FFCC000000FF000033FF000066FF000099FF0000CCFF0000FFFF000000003300330033006600330099003300CC003300FF003300003333003333
310
33006633330099333300CC333300FF33330000663300336633006666330099663300CC663300FF66330000993300339933006699330099993300CC993300FF99330000CC330033CC330066CC330099CC3300CCCC3300FFCC330000FF330033FF330066FF330099FF3300CCFF3300FFFF330000006600330066006600660099
310
006600CC006600FF00660000336600333366006633660099336600CC336600FF33660000666600336666006666660099666600CC666600FF66660000996600339966006699660099996600CC996600FF99660000CC660033CC660066CC660099CC6600CCCC6600FFCC660000FF660033FF660066FF660099FF6600CCFF6600
310
FFFF660000009900330099006600990099009900CC009900FF00990000339900333399006633990099339900CC339900FF33990000669900336699006666990099669900CC669900FF66990000999900339999006699990099999900CC999900FF99990000CC990033CC990066CC990099CC9900CCCC9900FFCC990000FF99
310
0033FF990066FF990099FF9900CCFF9900FFFF99000000CC003300CC006600CC009900CC00CC00CC00FF00CC000033CC003333CC006633CC009933CC00CC33CC00FF33CC000066CC003366CC006666CC009966CC00CC66CC00FF66CC000099CC003399CC006699CC009999CC00CC99CC00FF99CC0000CCCC0033CCCC0066CC
310
CC0099CCCC00CCCCCC00FFCCCC0000FFCC0033FFCC0066FFCC0099FFCC00CCFFCC00FFFFCC000000FF003300FF006600FF009900FF00CC00FF00FF00FF000033FF003333FF006633FF009933FF00CC33FF00FF33FF000066FF003366FF006666FF009966FF00CC66FF00FF66FF000099FF003399FF006699FF009999FF00CC
310
99FF00FF99FF0000CCFF0033CCFF0066CCFF0099CCFF00CCCCFF00FFCCFF0000FFFF0033FFFF0066FFFF0099FFFF00CCFFFF00FFFFFF00000000000D0D0D001A1A1A00282828003535350043434300505050005D5D5D006B6B6B00787878008686860093939300A1A1A100AEAEAE00BBBBBB00C9C9C900D6D6D600E4E4E400
310
F1F1F100FFFFFF000000000000000000000000000000000000000000000000000000000000000000000000000000000000000000000000000000000000000000000000000000000000000000000000000000000000000000000000280028002800000000000000000000000000000000000000000000000000000000000000
310
00000000000000002828002800000000000000000000000000000000000000000000000000000000000000000000000000000028002800280000000000000000000000000000000000000000000000000000000000000000000000000000002800282800000000000000000000000000000000000000000000000000000000
310
00000000000000000000000000000000000000000000000000000000000000000000000000000000000000000000000000000000000000000000000000000000000000000000000000000000000000000000000000000000000000000000280028002800000000000000000000000000000000000000000000000000000000
310
00000000000000000000002828002800000000000000000000000000000000000000000000000000000000000000000000000000000028002800280000000000000000000000000000000000000000000000000000000000000000000000000000002800282800000000000000000000000000000000000000000000000000
310
00000000000000000000000000000000000000000000000000000000000000000000000000000000000000000000000000000000000000000000000000000000000000000000000000000000000000000000000000000000000000000000000000280028002800000000000000000000000000000000000000000000000000
310
00000000000000000000000000002828002800000000000000000000000000000000000000000000000000000000000000000000000000000028002800280000000000000000000000000000000000000000000000000000000000000000000000000000002800282800000000000000000000000000000000000000000000
310
00000000000000000000000000000000000000000000000000000000000000000000000000000000000000000000000000000000000000000000000000000000000000000000000000000000000000000000000000000000000000000000000000000000280028002800000000000000000000000000000000000000000000
310
00000000000000000000000000000000002828002800000000000000000000000000000000000000000000000000000000000000000000000000000028002800280000000000000000000000000000000000000000000000000000000000000000000000000000002800282800000000000000000000000000000000000000
310
000000000000000000000000000000000000000000000000000000000000000000000000000000000000000000000000000000000000000000000000000000000000000000000000000000000000000000000000000000000000000000000000000000000000002800280028000000000000000000000000F5000000000000
310
000000000000000000000000000000000000000028280028000000000000000000000000000000000000000000000000000000000000000000000000000000280028002800000000000000000000000000000000000000000000F5000000000000000000000000000000002800282800000000000000000000000000000000
310
0000000000000000000000000000000000000000000000000000000000000000000000000000000000000000000000000000000000000000000000000000000000000000000000000000000000000000000000000000002D2D2D282D2D282D2D2D2D2D2D2D2D2D2D2D2D282D282D282D2D282D2D2D2D2D2D2D2DF52D2D2D2D
310
2D2D2D2D2D2D2D2D2D2D2D2D2D2D2D2D2D2D2D2D2D2D2D28282D282D2D2D2D2D2D2D2D2D2D2D2D2D2D2D2D2D2D2D2D2D2D2D2D2D2D2D2D2D2D2D2D2D2D2D2D2D2D2D282D282D282D2D2D2D2D2D2D2D2D2D2D2D2D2D2D2D2D2D2D2D2D2D2D2D2D2D2D2D2D2D2D2D2D2D2D2D2D2D2D282D28282D2D2D2D2D2D2D2D2D2D2D2D2D
310
2D2D2D2D2D2D2D2D2D2D2D2D2D2D2D2D2D2D2D2DF52D2D2D2D2D2D2D2D2D2D00000000000000000000000000000000000000000000000000000000000000000000000000000000000000000000000000000000000000000000000000280000282828000000000000000000000000000028000028000000002D2D2D2DF52D2D
310
2D2D0000000000000000000000000000000000000000000000000000000000000000000000000000000000000000000000000000000000000000000000000000000000000000000000000000000000000000000000000000002D2D2D2D2D2D2D2D2D2D2D2D0000000000000000000000000000000000000000000000000000
310
00000000000000000000000000000000000000000000000000000000000000002D00000000000000000000000000000000000000000000000000000000000000000000000000000000000000000000000000000000000000000000000000280000280000280000000000000000000000000028000028000000002D000000F5
310
0000002D0000000000000000000000000000000000000000000000000000000000000000000000000000000000000000000000000000000000000000000000000000000000000000000000000000000000000000000000000000002D00000000F500000000002D000000000000000000000000000000000000000000000000
310
000000000000000000000000000000000000000000000000000000000000000000002D00000000000000000000000000000000000000000000000000000000000000000000000000000000000000000000000000000000000000000000000000280000280000002828000000000000000000000028000028000000002D0000
310
00F5000000F5000000000000000000000000000000000000000000000000000000000000000000000000000000000000000000000000000000000000000000000000000000000000000000000000000000000000000000000000000000002D000000F5000000002D0000000000000000000000000000000000000000000000
310
0000000000000000000000000000000000000000000000000000000000000000000000002D00000000000000000000000000000000000000000000000000000000000000000000000000000000000000000000000000000000000000000000000000280000280000000000280000000000000000000028000028000000002D
310
2D2D2DF52D2D2D2DF50000000000000000000000000000000000000000000000000000000000000000000000000000000000000000000000000000000000000000000000000000000000000000000000000000000000000000000000000000002D000000F5000000002D000000000000000000000000000000000000000000
310
00000000000000000000000000000000000000000000000000000000000000000000000000002D00000000000000000000000000000000000000000000000000000000000000000000000000000000000000000000000000000000000000000000000000280000280000000000002828000000000000000028000028000000
310
0000002D00F5002D0000F50000000000000000000000000000000000000000000000000000000000000000000000000000000000000000000000000000000000000000000000000000000000000000000000000000000000000000000000000000F5002D0000F50000002D0000000000000000000000000000000000000000
310
000000000000000000000000000000000000000000000000000000000000000000000000000000002D0000000000000000000000000000000000000000000000000000000000000000000000000000000000000000000000000000000000000000000000000028000028000000000000000028280000000000002800002800
310
00000000002D00F5002D000000F500000000000000000000000000000000000000000000000000000000000000000000000000000000000000000000000000000000000000000000000000000000000000000000000000000000000000000000000000F5002D2D2D2D2D2D2D2D000000000000000000000000000000000000
310
0000000000000000000000000000000000000000000000000000000000000000000000000000000000002D000000000000000000000000000000000000000000000000000000000000000000000000000000000000000000000000000000000000000000000000002800002800000000000000000000280000000000280000
310
280000000000002D00F5002D00000000F50000000000000000000000000000000000000000000000000000000000000000000000000000000000000000000000000000000000000000000000000000000000000000000000000000000000000000000000F50000002D00F500002D0000000000000000000000000000000000
310
00000000000000000000000000000000000000000000000000000000000000000000000000000000000000002D00000000000000000000000000000000000000000000000000000000000000000000000000000000000000000000000000000000000000000000000000280000280000000000000000000000282800000028
310
0000280000000000002D00F5002D00000000F500000000000000000000000000000000000000000000000000000000000000000000000000000000000000000000000000000000000000000000000000000000000000000000000000000000000000000000F5000000002D00F500002D000000000000000000000000000000
310
000000000000000000000000000000000000000000000000000000000000000000000000000000000000000000002D0000000000000000000000000000000000000000000000000000000000000000000000000000000000000000000000000000000000000000000000000028000028000000000000000000000000002800
310
00280000280000000000002D00F5002D0000000000F5F5F5F5F5F5F5F5F5F5F5F5F5F5F5F5F5F5F5F5F5F5F5F5F5F5F5F5000000000000000000000000000000000000000000000000000000000000000000000000000000000000000000000000000000000000F5000000002D00F500002D00000000000000000000000000
310
0000000000000000000000000000000000000000000000000000000000000000000000000000000000000000000000002D000000000000000000000000000000000000000000000000000000000000000000000000000000000000000000000000000000000000000000000000002800002800000000000000000000000000
310
002828280000280000000000002D00F5002D000000000000F500F5F500F5F500F5F5F5F500F5F5F5F5F500F5F5F5F500F5F50000000000000000000000000000000000000000000000000000000000F5F5F5F5F5F5F5F5F5F5F5F5F5F5F5F5F5F5F5F5F5F5F5F5F5F500000000002D00F500002D0000000000000000000000
310
00000000000000000000000000000000000000000000000000000000000000000000000000000000000000000000002828282D00000000000000000000000000000000000000000000000000000000000000000000000000000000000000000000000000000000000000000000000000280000282828282828282828282828
310
2828282828280000280000000000002D2D2D2D2D2D0000000000F5F5F5F500F5F500F5F500F5F5F50000F500F5F5F500F50000F5000000000000000000000000000000000000000000000000000000000000F5F500F50000F500F5F500F5F500F5F500F500F5F500F5F50000000000002D00F500002D000000000000000000
310
000000000000000000000000000000000000000000000000000000000000000000000000000000000000000000000000000028282D0000000000000000000000000000000000000000000000000000000000000000000000000000000000000000000000000000000000000000000000000028000028000000000000000000
310
00000000000000280000280000000000002D002D002D2D0000000000F5F5000000F5F5000000F500F5F50000F5F5F5F5F5F5F5F500F5000000000000000000000000000000000000000000000000000000000000F5F500F5F500F5F5F5F500F5F500F500F5F5F500F500F5F50000000000002D00F500002D00000000000000
310
0000000000000000000000000000000000000000000000000000000000000000000000000000000000000000000000000000000028002D000000000000000000000000000000000000000000000000000000000000000000000000000000000000000000000000000000000000000000000000002800002800000000000000
310
000000000000000000280000280000000000002D002D002D2D0000000000000000000000000000000000000000000000000000000000000000000000000000000000000000000000000000000000000000000000000000F5F5000000F5F5000000F5F500F500F5F5F5F5F5F5F5000000000000002D00F500002D0000000000
310
00000000000000000000000000000000000000000000000000000000000000000000000000000000000000000000000000000000000028002D00000000000000000000000000000000000000000000000000000000000000000000000000000000000000000000000000000000000000000000000000280000280000000000
310
0000000000000000000000280000280000000000002D002D002D2D000000000000000000000000000000000000000000000000000000000000000000000000000000000000000000000000000000000000000000000000000000000000000000000000000000000000000000000000000000000000002D2D2D2D2D2D000000
310
000000000000000000000000000000000000000000000000000000000000000000000000000000000000000000000000000000000000002828282D0000000000000000000000000000000000000000000000000000000000000000000000000000000000000000000000000000000000000000000000000028000028000000
310
000000000000000000000000002800002800000000002D2D2D2D2D2D2D000000000000000000000000000000000000000000000000000000000000000000000000000000000000000000000000000000000000000000000000000000000000000000000000000000000000000000000000000000000000002D002D2D002D00
310
0000000000000000000000000000000000000000000000000000000000000000000000000000000000000000000000000000000000000000002828282D000000000000000000000000000000000000000000000000000000000000000000000000000000000000000000000000000000000000000000000000002800002800
310
0000000000000000000000000000002800002800000000002D2D002D00002D000000000000000000000000000000000000000000000000000000000000000000000000000000000000000000000000000000000000000000000000000000000000000000000000000000000000000000000000000000000000002D002D2D00
310
2D000000000000000000000000000000000000000000000000000000000000000000000000000000000000000000000000000000000000000000002800282D00000000000000000000000000000000000000000000000000000000000000000000000000000000000000000000000000000000000000000000000000280000
310
28000000000000000000000000000000002800002800000000002D2D002D00002D2D0000000000000000000000000000000000000000000000000000000000000000000000000000000000000000000000000000000000000000000000000000000000000000000000000000000000000000000000000000000000002D002D
310
2D002D000000000000000000000000000000000000000000000000000000000000000000000000000000000000000000000000000000000000000000002828282D0000000000000000000000000000000000000000000000000000000000000000000000000000000000000000000000000000000000000000000000000028
310
0000280000000000000000000000000000000028000028000000002D2D2D002D00002D2D0000000000000000000000000000000000000000000000000000000000000000000000000000000000000000000000000000000000000000000000000000000000000000000000000000000000000000000000000000000000002D
310
002D2D002D000000000000000000000000000000000000000000000000000000000000000000000000000000000000000000000000000000000000000000000028002D000000000000000000000000000000000000000000000000000000000000000000000000000000000000000000000000000000000000000000000000
310
00280000280000000000000000000000000000000028000028000000002D002D002D00002D2D0000000000000000000000000000000000000000000000000000000000000000000000000000000000000000000000000000000000000000000000000000000000000000000000000000000000000000000000000000000000
310
002D002D2D002D000000000000000000000000000000000000000000000000000000000000000000000000000000000000000000000000000000000000000000000028002D00000000000000000000000000000000000000000000000000000000000000000000000000000000000000000000000000000000000000000000
310
0000002800002800000000000000000000000000000000280000280000002D2D002D002D00002D2D2D0000000000000000000000000000000000000000000000000000000000000000000000000000000000000000000000000000000000000000000000000000000000000000000000000000000000000000000000000000
310
0000002D002D2D002D000000000000F5F5F5F5F5F5F5F5F5F5F5F5F5F5F5F5F500000000000000000000000000000000000000000000000000000000000000000000002828282D0000000000000000000000000000000000000000000000000000000000000000000000000000000000000000000000000000000000000000
310
00000000002800002800000000000000000000000000000000280000280000002D2D2D2D2D2D2D2D2D2D2D000000000000000000000000000000000000000000000000000000000000000000000000000000000000000000000000000000000000000000000000000000000000000000000000000000000000000000000000
310
00000000002D002D2D002D0000000000F500F5F5F5000000F500F5F5F5F5F500000000000000000000000000000000000000000000000000000000000000000000000000002828282D000000000000000000000000000000000000000000000000000000000000000000000000000000000000000000000000000000000000
310
0000000000000028000028000000000000000000000000000000002800002D2D2D2D2D2D2D2D2D2D2D2D2D2D2D2D000000000000000000000000000000000000000000000000000000000000000000000000000000000000000000000000000000000000000000000000000000000000000000000000000000000000000000
310
000000000000002D002D2D002D0000000000F500F5F5F5F5F500F5F5F5F5F5F5F5F5000000000000000000000000000000000000000000000000000000000000000000000000002828282D00000000000000000000000000000000000000000000000000000000000000000000000000000000000000000000000000000000
310
00000000000000000028000028000000000000000000000000000000002800002D2D2D2D2D2D000000F50000002D2D2D00000000000000000000000000000000000000000000000000000000000000000000000000000000000000000000000000000000000000000000000000000000000000000000000000000000000000
310
00000000000000002D2D2D2D2D2D2D2D000000F5000000F5F5000000F5F5F5F5F5F5F500000000000000000000000000000000000000000000000000000000000000000000000000000028002D0000000000000000000000000000000000000000000000000000000000000000000000000000000000000000000000000000
310
000000000000000000000028000028000000000000000000000000000000002800002D2D2D2D00002D2D00F5002D2D00002D0000000000000000000000000000000000000000000000000000000000000000000000000000000000000000000000000000000000000000000000000000000000000000000000000000000000
310
00000000000000002D2D2D2D2DF52D2D2D2D2D0000F500000000000000000000000000000000000000000000000000000000000000000000000000000000000000000000000000000000002828282D000000000000000000000000000000000000000000000000000000000000000000000000000000000000000000000000
310
0000000000000000000000000028000028000000000000000000000000000000002800002D2D2D2D000000002D2D2D000000002DF50000000000000000000000000000000000000000000000000000000000000000000000000000000000000000000000000000000000000000000000000000000000000000000000000000
310
00000000000000002D2D2D00002D2DF52D002D2D002DF50000000000000000000000000000000000000000000000000000000000000000000000000000000000000000000000000000000000000000002D00000000000000000000000000000000000000000000000000000000000000000000000000000000000000000000
310
00000000000000000000000000000028000028000000000000000000000000000000002800002D2D2D2D000000002DF52D000000002DF5000000000000000000000000000000000000000000000000000000000000000000000000000000000000000000000000000000000000000000000000000000000000000000000000
310
00000000000000002D2D2D2D2D2D2D2D2DF52D2D002D2D2D2D2D2D000000000000000000000000000000000000000000000000000000000000000000000000000000000000000000000000000000000000002D0000000000000000000000000000000000000000000000000000000000000000000000000000000000000000
310
000000000000000000000000000000000028000028000000000000000000000000000000002800002D2D2D2D00002D2D00F5002D2D00002D00F5000000000000000000000000000000000000000000000000000000000000000000000000000000000000000000000000000000000000000000000000000000000000000000
310
00000000000000002D2D2D2D2D2D2D2D2D2D2DF52D2D2D2D2D2D2D2D2D2D2D2D000000000000000000000000000000000000000000000000000000000000000000000000000000000000000000000000000000002D000000000000000000000000000000000000000000000000000000000000000000000000000000000000
310
0000000000000000000000000000000000000028000028000000000000000000000000000000002800002D002D2D2D2D000000F50000002D2D2D00F500000000000000000000000000000000000000000000000000000000000000002D2D000000000000000000000000000000000000000000000000000000000000000000
310
0000000000000000002D2D2D2D2D2D2D2D2D2D2D2DF52D2D2D2D2D2D2D2D2D2D2D2D000000000000000000000000000000000000000000000000000000000000000000000000000000000000000000000000000000002D00000000000000000000000000000000000000000000000000000000000000000000000000000000
310
00000000000000000000000000000000000000000028000028000000000000000000000000000000002800002D2D2D2D2D2D2D2D2D2D2D2D2D2D2D2D2D2DF52D2D2D2D2D2D2D2D2D2D2D2D2D2D2D2D2D2D2D2D2D2D2D2D2D2D2D2D2D2D2D2D2D2D2D2D2D2D2D2D2D2D2D2D2D2D2D2D2D2D2D2D2D2D2D2D2D2D2D2D2D2D2D2D
310
2D2D2D2D2D2D2D2D2D2D2D2D2D2D2D2D2D2D2D2D2D2D2DF52D2D2D2D2D2D2D2D2D2D2D2D2D2D2D2D2D2D2D2D2D2D2D2D2D2D2D2D2D2D2D2D2D2D2D2D2D2D2D2D2D2D2D2D2D2D2D2D2D2D2D2D2D2D000000000000000000002D0000000000000000000000000000000000000000000000000000000000000000000000000000
310
000000000000000000000000000000000000000000000028000028000000000000000000000000000000002800002800002D0000282800F50000000000002828F50000000000000028280000000000000000282800000000000000002828002D2D000000000028280000000000000000282800000000000000002828000000
310
00000000002828000000000000000028280000000000002D00F500002D000000000000280000000000000000002800000000000000000028000000000000000000280000000000000000002800000000000000000000000000002D000000000000000000000000000000000000000000000000000000000000000000000000
310
0000000000000000000000000000000000000000000000000028000028000000000000000000000000000000002800002800002D00002828282800280028280028282828002800282800282828280028002828002828282800280028280028282D002828002800002828280028280028000028002800282800280000280028
310
002828002800002800280028280028000028002800282828282D00F500002D282800280000280028002828002800002800280028280028000028002800282800280000280028002828002800002800280000000000000000000000002D00000000000000000000000000000000000000000000000000000000000000000000
310
00000000000000000000000000000000000000000000000000000028000028000000000000000000000000000000002800002800002D282800000000000000002828000000F5000000002828000000000000000028280000000000000000282800002D2D000000002828000000000000000028280000000000000000282800
310
00000000F5000028280000000000000000282800000000000000002D000000002D000000002828000000000000000028000000000000000000280000000000000000002800000000000000000028000000000000000000000000000000002D0000000000000000000000000000000000000000000000000000000000000000
310
000000000000000000000000000000000000000000000000000000000028000028000000000000000000000000000000002800002800002D000028002828282800282800280028282800002828002800282828000028280028002828280000282800282D002D28000028002828002800280000280028280028002800002800
310
28280028002800F52800282800280028000028002828002800280028282D000000002D282800280028280028002800002800282800280028000028002828002800280000280028280028002800002800282800282828000000000000000000002D000000000000000000000000000000000000000000000000000000000000
310
000000000000000000000000000000000000000000000000000000000000002800002800000000000000000000000000000000280000282D2D2D2D2D2D2D2D2D282D2D2D2D2D2D2D2D2D282D2D2D2D2D2D2D2D2D282D2D2D2D2D2D2D2D2D282D2D2D2D2D2D2D2D2D282D2D2D2D2D2D2D2D2D282D2D2D2D2D2D2D2D2D282D2D
310
2D2D2D2D2D2D2D282DF52D2D2D2D2D2D2D282D2D2D2D2D2D2D2D2D282D2D2D2D2D2D2D2D2D282D2D2D2D2D2D2D2D2D282D2D2D2D2D2D2D2D2D282D2D2D2D2D2D2D2D2D282D2D2D2D2D2D2D2D2D282D2D2D2D2D2D2D2D2D28F52D2D2D2D2D2D2D2D2DF500000000000000000000000000000000000000000000000000000000
310
0000000000000000000000000000000000000000000000000000000000000000002800002800000000000000000000000000000000280000282D00000000000000000000000000000000000000F50000000000000000000000000000000000000000000000002D002D00000000000000000000000000000000000000000000
310
000000000000000000000000F50000000000000000000000000000000000000000000000000000000000000000000000000000000000000000000000000000000000000000000000000000000000000000000000000000000000000000000000000000002D0000000000000000000000000000000000000000000000000000
310
00000000000000000000000000000000000000000000000000000000000000000000002800002800000000000000000000000000000000280000282D0000000000000000000000000000000000000000F5000000000000000000000000000000000000000000002D002D000000000000000000000000000000000000000000
310
0000000000000000000000000000F500000000000000000000000000000000000000000000000000000000000000000000000000000000000000000000000000000000000000000000000000000000000000000000000000000000000000000000000000000000000000000000000000000000000000000000000000000000
310
000000000000000000000000000000000000000000000000000000000000000000000000002800002800000000000000000000000000000000280000282D2D2D2D2D2D2D2D2D2D2D2D2D2D2D2D2D2D2D2D2DF52D2D2D2D2D2D2D2D2D2D2D2D2D2D2D2D2D2D2D2D2D2D2D2D2D2D2D2D2D2D2D2D2D2D2D2D2D2D2D2D2D2D2D2D
310
2D2D2D2D2D2D2D2DF52D2D2D2D2D2D2D2DF52D2D2D2D2D2D2D2D2D2D2D2D2D2D2D2D2D2D2D2D2D2D2D2D2D2D2D2D2D2D2D2D2D2D2D2D2D2D2D2D2D2D2D2D2D2D2D2D2D2D2D2D2D2D2D2D2D2D2D2D2D2D2D2D2D2D2D2D2D2D2D2D2D2D2D2D000000000000000000000000000000000000000000000000000000000000000000
310
00000000000000000000000000000000000000000000000000000000000000000000000000000028000028000000000000000000000000000000002800002828000000000000000000000000000000000000000000F500000000000000000000000000000000000000002D002D000000000000000000000000000000000000
310
0000000000000000000000F500000000000000F50000000000000000000000000000000000000000000000000000000000000000000000000000000000000000000000000000000000000000000000000000000000000000000000000000000000000000000000000000000000000000000000000000000000000000000000
310
000000000000000000000000000000000000000000000000000000000000000000000000000000000028000028000000000000000000000000000000002800002828000000000000000000000000000000000000000000F5000000000000000000000000000000000000000000000000000000000000000000000000000000
310
00000000000000000000000000F50000000000000000F50000000000000000000000000000000000000000000000000000000000000000000000000000000000000000000000000000000000000000000000000000000000000000000000000000000000000000000000000000000000000000000000000000000000000000
310
000000000000000000000000000000000000000000000000000000000000000000000000000000000000002800002800000000000000000000000000000000280000282800000000000000000000000000000000000000000000F5000000000000000000000000000000000000000000000000000000000000000000000000
310
00000000000000000000000000000000F50000000000000000F50000000000000000000000000000000000000000000000000000000000000000000000000000000000000000000000000000000000000000000000000000000000000000000000000000000000000000000000000000000000000000000000000000000000
310
0000000000000000000000000000000000000000000000000000000000000000000000000000000000000000002800002800000000000000000000000000000000280000282800000000000000000000000000000000000000000000F500000000000000000000000000000000000000000000000000000000000000000000
310
00000000000000000000000000000000000000F500000000000000F5000000000000000000000000000000000000000000000000000000000000000000000000000000000000000000000000000000000000000000000000000000000000000000000000000000000000000000000000000000000000000000000000000000
310
0000000000000000000000000000000000000000000000000000000000000000000000000000000000000000000000280000280000000000000000000000000000000028000028280000000000000000000000000000000000000000000000F500000000000000000000000000000000000000000000000000000000000000
310
000000000000000000000000000000000000000000F50000000000000000F5000000000000000000000000000000000000000000000000000000000000000000000000000000000000000000000000000000000000000000000000000000000000000000000000000000000000000000000000000000000000000000000000
310
00000000000000000000000000000000000000000000000000000000000000000000000000000000000000000000000000280000280000000000000000000000000000000028000028280000000000000000000000000000000000000000000000F50000000000000000000000000000000000000000000000000000000000
310
000000000000000000000000000000000000000000000000F500000000000000F500000000000000000000000000000000000000000000000000000000000000000000000000000000000000000000000000000000000000000000000000000000000000000000000000000000000000000000000000000000000000000000
310
00000000000000000000000000000000000000000000000000000000000000000000000000000000000000000000000000000028000028000000000000000000000000000000002800002828000000000000000000000000000000000000000000000000F5F5F5F5F5F5F5F5F5F5F5F5F5F5F5F5F5F5F5F5F5F5F5F5F5F5F5
310
0000000000000000000000000000000000000000000000000000F50000000000000000F5F5F5F5F5F5F5F5F5F5F5F5F5F5F5F5F5F5F5F5F5F5F5F5F5F5F5F5F5F5F5F5F5F5F5F5F5F5F5F5F5F50000000000000000000000000000000000000000000000000000000000000000000000000000000000000000000000000000
310
00000000000000000000000000000000000000000000000000000000000000000000000000000000000000000000000000000000002800002800000000000000000000000000000000280000282800000000000000000000000000000000000000000000000000F5F5F5F5F500F500F500F5F50000F5F5F5F5F5F5F5F5F5F5
310
0000000000000000000000000000000000000000000000000000000000F50000000000000000000000000000F500F50000F500F5F50000F500000000F5000000F50000000000000000000000000000000000000000000000000000000000000000000000000000000000000000000000000000000000000000000000000000
310
000000000000000000000000000000000000000000000000000000000000000000000000000000000000000000000000000000000000002800002800000000000000000000000000000000280000282800000000000000000000000000000000000000000000000000F5F5F5F5F500F5F5F5F500F5F500F5F5F5F5F5F5F5F5
310
F5F5000000000000000000000000000000000000000000000000000000000000F500000000000000F5F500000000F500F5F500F5F500F5F5F5F5F5000000F5F50000F5F5F5F5F5F5F5F5F500F5F500F5F500000000000000000000000000000000000000000000000000000000000000000000000000000000000000000000
310
0000000000000000000000000000000000000000000000000000000000000000000000000000000000000000000000000000000000000000002800002800000000000000000000000000000000280000282800000000000000000000000000000000000000000000000000F5F5F5F5F5F5F5F5F5F500F5F500F500F5F5F5F5
310
F5F5F5F5000000000000000000000000000000000000000000000000000000000000F500000000000000F5F5F5F5F5F5F5F500F500F5F500F500F5F5F5F5F500F5F500F5F5F5F5F5F5F5F5F5F500F5F500F5F50000000000000000000000000000000000000000000000000000000000000000000000000000000000000000
310
0000000000000000000000000000000000000000000000000000000000000000000000000000000000000000000000000000000000000000000000280000280000000000000000000000000000000028000028F50000000000000000000000000000000000000000000000000000F50000F5000000000000000000000000F5
310
00F50000F50000000000000000000000000000000000000000000000000000000000000000F50000000000000000000000000000000000000000000000000000000000000000F50000000000000000000000000000000000000000000000000000000000000000000000000000000000000000000000000000000000000000
310
0000000000000000000000000000000000000000000000000000000000000000000000000000000000000000000000000000000000000000000000000028000028282828282828282828282828282828282800002828F500000000000000000000000000000000000000000000000000000000000000000000000000000000
310
00000000000000000000000000000000000000000000000000000000000000000000000000000000F50000000000000000000000000000000000000000000000000000000000000000000000000000000000000000000000000000000000000000000000000000000000000000000000000000000000000000000000000000
310
00000000000000000000000000000000000000000000000000000000000000000000000000000000000000000000000000000000000000000000000000000028000028282800000000000000000000000000002800002828F50000000000000000000000000000000000000000000000000000000000000000000000000000
310
000000000000000000000000000000000000000000000000000000000000000000000000000000000000F5000000000000000000000000000000000000000000000000000000000000000000000000000000000000000000000000000000000000000000000000000000000000000000000000000000000000000000000000
310
00000000000000000000000000000000000000000000000000000000000000000000000000000000000000000000000000000000000000000000000000000000002800002800002800000000000000000000000000280000282800F50000000000000000000000000000000000000000000000000000000000000000000000
310
000000000000000000000000000000000000000000000000000000000000000000000000000000000000000000F5F5F5F5F5F5F5F5F5F5F5F5F5F5F5F5F5F5F5F5F5F5F5F5F5F5F5F5F5F5F5F5F5F5F50000000000000000000000000000000000000000000000000000000000000000000000000000000000000000000000
310
00000000000000000000000000000000000000000000000000000000000000000000000000000000000000000000000000000000000000000000000000000000000000280000280000002828000000000000000000000028000028280000F50000000000000000000000000000000000000000000000000000000000000000
310
00000000000000000000000000000000000000000000000000000000000000000000000000000000000000000000000000000000000000000000000000000000000000000000000000000000000000000000000000000000000000000000000000000000000000000000000000000000000000000000000000000000000000
310
000000000000000000000000000000000000000000000000000000000000000000000000000000000000000000000000000000000000000000000000000000000000000000280000280000000000280000000000000000000028000028280000F5000000000000000000000000000000000000000000000000000000000000
310
0000000000000000000000000000000000000000000000000000000000000000000000000000000000000000000000000000F5F5F5F5F5000000F5F5F5F500F5F5000000F500F5F500F500F5F500F5F5F5F5000000000000000000000000000000000000000000000000000000000000000000000000000000000000000000
310
000000000000000000000000000000000000000000000000000000000000000000000000000000000000000000000000000000000000000000000000000000000000000000000028000028000000000000282800000000000000002800002828000000F5F5F5F5F5F5F5F5F5F5F5F500000000000000000000000000000000
310
00000000000000000000000000000000000000000000000000000000000000000000000000000000000000000000000000000000F5F5F5F5F5F5F5F5F5F5F5F5F5F5F5F500F5F500F5F500F500F5F500F5F5F5F500000000000000000000000000000000000000000000000000000000000000000000000000000000000000
310
00000000000000000000000000000000000000000000000000000000000000000000000000000000000000000000000000000000000000000000000000000000000000000000000000280000280000000000000000282800000000000028000028000000000000F5F5000000F5F5F500000000000000000000000000000000
310
0000000000000000000000000000000000000000000000000000000000000000000000000000000000000000000000000000000000000000000000000000F5F500000000F5F50000F500000000F500F5F500000000000000000000000000000000000000000000000000000000000000000000000000000000000000000000
310
000000000000000000000000000000000000000000000000000000000000000000000000000000000000000000000000000000000000000000000000000000000000000000000000000000280000280000000000000000000028000000000028000028000000000000F5F5000000F5F5000000000000000000000000000000
310
00000000000000000000000000000000000000000000000000000000000000000000000000000000000000000000000000000000000000000000000000000000000000000000000000000000000000000000000000000000000000000000000000000000000000000000000000000000000000000000000000000000000000
310
0000000000000000000000000000000000000000000000000000000000000000000000000000000000000000000000000000000000000000000000000000000000000000000000000000000000280000280000000000000000000000282800000028000028000000000000F5F5000000F5F5F5000000000000000000000000
310
00000000000000000000000000000000000000000000000000000000000000000000000000000000000000000000000000000000000000000000000000000000000000000000000000000000000000000000000000000000000000000000000000000000000000000000000000000000000000000000000000000000000000
310
00000000000000000000000000000000000000000000000000000000000000000000000000000000000000000000000000000000000000000000000000000000000000000000000000000000000000280000280000000000000000000000000028000028000028000000000000000000000000000000000000000000000000
310
00000000000000000000000000000000000000000000000000000000000000000000000000000000000000000000000000000000000000000000000000000000000000000000000000000000000000000000000000000000000000000000000000000000000000000000000000000000000000000000000000000000000000
310
00000000000000000000000000000000000000000000000000000000000000000000000000000000000000000000000000000000000000000000000000000000000000000000000000000000000000000028000028000000000000000000000000000028282800002800000000000000000000000000000000000000000000
310
00000000000000000000000000000000000000000000000000000000000000000000000000000000000000000000000000000000000000000000000000000000000000000000000000000000000000000000000000000000000000000000000000000000000000000000000000000000000000000000000000000000000000
310
00000000000000000000000000000000000000000000000000000000000000000000000000000000000000000000000000000000000000000000000000000000000000000000000000000000000000000000002800002828282828282828282828282828282828280000280000000000000000000000000000000000000000
310
00000000000000000000000000000000000000000000000000000000000000000000000000000000000000000000000000000000000000000000000000000000000000000000000000000000000000000000000000000000000000000000000000000000000000000000000000000000000000000000000000000000000000
310
00000000000000000000000000000000000000000000000000000000000000000000000000000000000000000000000000000000000000000000000000000000000000000000000000000000000000000000000000280000280000000000000000000000000000000028000028000000000000000000000000000000000000
310
00000000000000000000000000000000000000000000000000000000000000000000000000000000000000000000000000000000000000000000000000000000000000000000000000000000000000000000000000000000000000000000000000000000000000000000000000000000000000000000000000000000000000
310
00000000000000000000000000000000000000000000000000000000000000000000000000000000000000000000000000000000000000000000000000000000000000000000000000000000000000000000000000000028000028000000000000000000000000000000002800002800000000000000000000000000000000
310
00000000000000000000000000000000000000000000000000000000000000000000000000000000000000000000000000000000000000000000000000000000000000000000000000000000000000000000000000000000000000000000000000000000000000000000000000000000000000000000000000000000000000
310
00000000000000000000000000000000000000000000000000000000000000000000000000000000000000000000000000000000000000000000000000000000000000000000000000000000000000000000000000000000002800002800000000000000000000000000000000280000280000000000000000000000000000
310
00000000000000000000000000000000000000000000000000000000000000000000000000000000000000000000000000000000000000000000000000000000000000000000000000000000000000000000000000000000000000000000000000000000000000000000000000000000000000000000000000000000000000
310
00000000000000000000000000000000000000000000000000000000000000000000000000000000000000000000000000000000000000000000000000000000000000000000000000000000000000000000000000000000000000280000280000000000000000000000000000000028000028000000000000000000000000
310
00000000000000000000000000000000000000000000000000000000000000000000000000000000000000000000000000000000000000000000000000000000000000000000000000000000000000000000000000000000000000000000000000000000000000000000000000000000000000000000000000000000000000
310
00000000000000000000000000000000000000000000000000000000000000000000000000000000000000000000000000000000000000000000000000000000000000000000000000000000000000000000000000000000000000000028000028000000000000000000000000000000002800002800000000000000000000
310
00000000000000000000000000000000000000000000000000000000000000000000000000000000000000000000000000000000000000000000000000000000000000000000000000000000000000000000000000000000000000000000000000000000000000000000000000000000000000000000000000000000000000
310
00000000000000000000000000000000000000000000000000000000000000000000000000000000000000000000000000000000000000000000000000000000000000000000000000000000000000000000000000000000000000000000002800002800000000000000000000000000000000280000280000000000000000
310
00000000000000000000000000000000000000000000000000000000000000000000000000000000000000000000000000000000000000000000000000000000000000000000000000000000000000000000000000000000000000000000000000000000000000000000000000000000000000000000000000000000000000
310
00000000000000000000000000000000000000000000000000000000000000000000000000000000000000000000000000000000000000000000000000000000000000000000000000000000000000000000000000000000000000000000000000280000280000000000000000000000000000000028000028000000000000
310
00000000000000000000000000000000000000000000000000000000000000000000000000000000000000000000000000000000000000000000000000000000000000000000000000000000000000000000000000000000000000000000000000000000000000000000000000000000000000000000000000000000000000
310
00000000000000000000000000000000000000000000000000000000000000000000000000000000000000000000000000000000000000000000000000000000000000000000000000000000000000000000000000000000000000000000000000000028000028000000000000000000000000000000002800002800000000
310
00000000000000000000000000000000000000000000000000000000000000000000000000000000000000000000000000000000000000000000000000000000000000000000000000000000000000000000000000000000000000000000000000000000000000000000000000000000000000000000000000000000000000
310
00000000000000000000000000000000000000000000000000000000000000000000000000000000000000000000000000000000000000000000000000000000000000000000000000000000000000000000000000000000000000000000000000000000002800002800000000000000000000000000000000280000280000
310
00000000000000000000000000000000000000000000000000000000000000000000000000000000000000000000000000000000000000000000000000000000000000000000000000000000000000000000000000000000000000000000000000000000000000000000000000000000000000000000000000000000000000
310
00000000000000000000000000000000000000000000000000000000000000000000000000000000000000000000000000000000000000000000000000000000000000000000000000000000000000000000000000000000000000000000000000000000000000280000280000000000000000000000000000000028000028
310
00000000000000000000000000000000000000000000000000000000000000000000000000000000000000000000000000000000000000000000000000000000000000000000000000000000000000000000000000000000000000000000000000000000000000000000000000000000000000000000000000000000000000
310
00000000000000000000000000000000000000000000000000000000000000000000000000000000000000000000000000000000000000000000000000000000000000000000000000000000000000000000000000000000000000000000000000000000000000000028000028000000000000000000000000000000002800
310
00280000000000000000000000000000000000000000000000000000000000000000000000000000000000000000000000000000000000000000000000000000000000000000000000000000000000000000000000000000000000000000000000000000000000000000000000000000000000000000000000000000000000
310
00000000000000000000000000000000000000000000000000000000000000000000000000000000000000000000000000000000000000000000000000000000000000000000000000000000000000000000000000000000000000000000000000000000000000000000002800002800000000000000000000000000000000
310
28000028000000000000000000000000000000000000000000000000000000000000000000000000000000000000000000000000000000000000000000000000000000000000000000000000000000000000000000000000000000000000000000000000000000000000000000000000000000000000000000000000000000
310
00000000000000000000000000000000000000000000000000000000000000000000000000000000000000000000000000000000000000000000000000000000000000000000000000000000000000000000000000000000000000000000000000000000000000000000000000280000280000000000000000000000000000
310
00002800002800000000000000000000000000000000000000000000000000000000000000000000000000000000000000000000000000000000000000000000000000000000000000000000000000000000000000000000000000000000000000000000000000000000000000000000000000000000000000000000000000
310
00000000000000000000000000000000000000000000000000000000000000000000000000000000000000000000000000000000000000000000000000000000000000000000000000000000000000000000000000000000000000000000000000000000000000000000000000000028000028000000000000000000000000
310
00000000280000280000000000000000000000000000000000000000000000000000000000000000000000000000000000000000000000000000000000000000000000000000000000000000000000000000000000000000000000000000000000000000000000000000000000000000000000000000000000000000000000
310
00000000000000000000000000000000000000000000000000000000000000000000000000000000000000000000000000000000000000000000000000000000000000000000000000000000000000000000000000000000000000000000000000000000000000000000000000000000002800002800000000000000000000
310
00000000000028000028000000000000000000000000000000000000000000000000000000000000000000000000000000000000000000000000000000000000000000000000000000000000000000000000000000000000000000000000000000000000000000000000000000000000000000000000000000000000000000
310
00000000000000000000000000000000000000000000000000000000000000000000000000000000000000000000000000000000000000000000000000000000000000000000000000000000000000000000000000000000000000000000000000000000000000000000000000000000000000280000280000000000000000
310
00000000000000002800002800000000000000000000000000000000000000000000000000000000000000000000000000000000000000000000000000000000000000000000000000000000000000000000000000000000000000000000000000000000000000000000000000000000000000000000000000000000000000
310
00000000000000000000000000000000000000000000000000000000000000000000000000000000000000000000000000000000000000000000000000000000000000000000000000000000000000000000000000000000000000000000000000000000000000000000000000000000000000000028000028000000000000
310
00000000000000000000280000280000000000000000000000000000000000000000000000000000000000000000000000000000000000000000000000000000000000000000000000000000000000000000000000000000000000000000000000000000000000000000000000000000000000000000000000000000000000
310
00000000000000000000000000000000000000000000000000000000000000000000000000000000000000000000000000000000000000000000000000000000000000000000000000000000000000000000000000000000000000000000000000000000000000000000000000000000000000000000002800002800000000
310
00000000000000000000000028000028000000000000000000000000000000000000000000000000000000000000000000000000000000000000000000000000000000000000000000000000000000000000000000000000000000000000000000000000000000000000000000000000000000000000000000000000000000
310
00000000000000000000000000000000000000000000000000000000000000000000000000000000000000000000000000000000000000000000000000000000000000000000000000000000000000000000000000000000000000000000000000000000000000000000000000000000000000000000000000280000280000
310
00000000000000000000000000002800002800000000000000000000000000000000000000000000000000000000000000000000000000000000000000000000000000000000000000000000000000000000000000000000000000000000000000000000000000000000000000000000000000000000000000000000000000
310
00000000000000000000000000000000000000000000000000000000000000000000000000000000000000000000000000000000000000000000000000000000000000000000000000000000000000000000000000000000000000000000000000000000000000000000000000000000000000000000000000000000000000
310
00000000000000000000000000000000000000000000000000000000000000000000000000000000000000000000000000000000000000000000000000000000000000000000000000000000000000000000000000000000000000000000000000000000000000000000000000000000000000000000000000000000000000
310
00000000000000000000000000000000000000000000000000000000000000000000000000000000000000000000000000000000000000000000000000000000000000000000000000000000000000000000000000000000000000000000000000000000000000000000000000000000000000000000000000000000000000
310
00000000000000000000000000000000000000000000000000000000000000000000000000000000000000000000000000000000000000000000000000000000000000000000000000000000000000000000000000000000000000000000000000000000000000000000000000000000000000000000000000000000000000
310
00000000000000000000000000000000000000000000000000000000000000000000000000000000000000000000000000000000000000000000000000000000000000000000000000000000000000000000000000000000000000000000000000000000000000000000000000000000000000000000000000000000000000
310
00000000000000000000000000000000000000000000000000000000000000000000000000000000000000000000000000000000000000000000000000000000000000000000000000000000000000000000000000000000000000000000000000000000000000000000000000000000000000000000000000000000000000
310
00000000000000000000000000000000000000000000000000000000000000000000000000000000000000000000000000000000000000000000000000000000000000000000000000000000000000000000000000000000000000000000000000000000000000000000000000000000000000000000000000000000000000
310
00000000000000000000000000000000000000000000000000000000000000000000000000000000000000000000000000000000000000000000000000000000000000000000000000000000000000000000000000000000000000000000000000000000000000000000000000000000000000000000000000000000000000
310
00000000000000000000000000000000000000000000000000000000000000000000000000000000000000000000000000000000000000000000000000000000000000000000000000000000000000000000000000000000000000000000000000000000000000000000000000000000000000000000000000000000000000
310
00000000000000000000000000000000000000000000000000000000000000000000000000280000000028282828282828282828282828282800282800280000000000000000000000000000000000000000000000000000000000000000000000000000000000000000000000000000000000000000000000000000000000
310
00000000000000000000000000000000000000000000000000000000000000000000000000000000000000000000000000000000000000000000000000000000000000000000000000000000000000000000000000000000000000000000000000000000000000000000000000000000000000000000000000000000000000
310
00000000000000000000000000000000000000000000000000000000000000000000000000002800000000000028282800282828280028282828280028280028000000000000000000000000000000000000000000000000000000000000000000000000000000000000000000000000000000000000000000000000000000
310
00000000000000000000000000000000000000000000000000000000000000000000000000000000000000000000000000000000000000000000000000000000000000000000000000000000000000000000000000000000000000000000000000000000000000000000000000000000000000000000000000000000000000
310
00000000000000000000000000000000000000000000000000000000000000000000000000000000280028282828282828282828282828002828282828282828000028000000000000000000000000000000000000000000000000000000000000000000000000000000000000000000000000000000000000000000000000
310
00000000000000000000000000000000000000000000000000000000000000000000000000000000000000000000000000000000000000000000000000000000000000000000000000000000000000000000000000000000000000000000000000000000000000000000000000000000000000000000000000000000000000
310
00000000000000000000000000000000000000000000000000000000000000000000000000000000000028000000000000282828282828282828282828282828282800280000000000000000000000000000000000000000000000000000000000000000000000000000000000000000000000000000000000000000000000
310
00000000000000000000000000000000000000000000000000000000000000000000000000000000000000000000000000000000000000000000000000000000000000000000000000000000000000000000000000000000000000000000000000000000000000000000000000000000000000000000000000000000000000
310
00000000000000000000000000000000000000000000000000000000000000000000000000000000000000000028000000000028282800282828280028282828282828280028000000000000000000000000000000000000000000000000000000000000000000000000000000000000000000000000000000000000000000
310
00000000000000000000000000000000000000000000000000000000000000000000000000000000000000000000000000000000000000000000000000000000000000000000000000000000000000000000000000000000000000000000000000000000000000000000000000000000000000000000000000000000000000
310
00000000000000000000000000000000000000000000000000000000000000000000000000000000000000000000000000000000000000000000000000000000000000000000000000000000000000000000000000000000000000000000000000000000000000000000000000000000000000000000000000000000000000
310
00000000000000000000000000000000000000000000000000000000000000000000000000000000000000000000000000000000000000000000000000000000000000000000000000000000000000000000000000000000000000000000000000000000000000000000000000000000000000000000000000000000000000
310
00000000000000000000000000000000000000000000000000000000000000000000000000000000000000000000000000000000000000000000000000000000000028000028000000000000000000000000000000000000000000000000000000000000000000000000000000000000000000000000000000000000000000
310
00000000000000000000000000000000000000000000000000000000000000000000000000000000000000000000000000000000000000000000000000000000000000000000000000000000000000000000000000000000000000000000000000000000000000000000000000000000000000000000000000000000000000
310
00000000000000000000000000000000000000000028000028000000000000002800002800000000000000000028280028000000282828280000280000000000000028280028002828282828282828000000000000000000000000000000000000000000000000000000000000000000000000000000000000000000000000
310
00000000000000000000000000000000000000000000000000000000000000000000000000000000000000000000000000000000000000000000000000000000000000000000000000000000000000000000000000000000000000000000000000000000000000000000000000000000000000000000000000000000000000
310
00000000000000000000000000000000000000000000002800282828000000000000282828002800282800000000000028280000000028000000002800280028282828282800002828280028282828282800000000000000000000000000000000000000000000000000000000000000000000000000000000000000000000
310
00000000000000000000000000000000000000000000000000000000000000000000000000000000000000000000000000000000000000000000000000000000000000000000000000000000000000000000000000000000000000000000000000000000000000000000000000000000000000000000000000000000000000
310
00000000000000000000000000000000000000000000000000280028282800282828280000280000002800000028282800000028000000002800000000280028000000000000282828002828282828282800280000000000000000000000000000000000000000000000000000000000000000000000000000000000000000
310
00000000000000000000000000000000000000000000000000000000000000000000000000000000000000000000000000000000000000000000000000000000000000000000000000000000000000000000000000000000000000000000000000000000000000000000000000000000000000000000000000000000000000
310
00000000000000000000000000000000000000000000000000000028000028000000000000000028000000002828000000000000282800000000280000000028282800000000000028000000000000000000002828000000000000000000000000000000000000000000000000000000000000000000000000000000000000
310
00000000000000000000000000000000000000000000000000000000000000000000000000000000000000000000000000000000000000000000000000000000000000000000000000000000000000000000000000000000000000000000000000000000000000000000000000000000000000000000000000000000000000
310
00000000000000000000000000000000000000000000000000000000000000000000000000000000000000000000000000000000000000000000000000000000000000000000000000002800000000000000000000000000000000000000000000000000000000000000000000000000000000000000000000000000000000
310
000000000000000000000000000000000000000000000000000000000000000000000000000000000000000000000000000000000000000000000000000000000000000000000000000000000000000000000000000000000000000000000000000000000000000000000000000000000000000000000000000000
  0
XRECORD
  5
528A9
102
{ACAD_REACTORS
330
22736
102
}
330
22736
100
AcDbXrecord
280
     1
102
MATERIAL
148
0.0
149
0.0
149
0.0
 93
        0
 94
      127
282
     0
 72
     0
 77
     0
171
     0
175
     0
179
     0
273
     0
  0
XRECORD
  5
22738
102
{ACAD_REACTORS
330
22736
102
}
330
22736
100
AcDbXrecord
280
     1
270
     1
271
     1
  0
XRECORD
  5
22737
102
{ACAD_REACTORS
330
22736
102
}
330
22736
100
AcDbXrecord
280
     1
270
     1
271
     1
  0
XRECORD
  5
2273B
102
{ACAD_REACTORS
330
22736
102
}
330
22736
100
AcDbXrecord
280
     1
270
     1
271
     1
  0
XRECORD
  5
2273A
102
{ACAD_REACTORS
330
22736
102
}
330
22736
100
AcDbXrecord
280
     1
270
     1
271
     1
  0
XRECORD
  5
2273C
102
{ACAD_REACTORS
330
22736
102
}
330
22736
100
AcDbXrecord
280
     1
270
     1
271
     1
  0
XRECORD
  5
22739
102
{ACAD_REACTORS
330
22736
102
}
330
22736
100
AcDbXrecord
280
     1
270
     1
271
     1
  0
XRECORD
  5
528A8
102
{ACAD_REACTORS
330
2272E
102
}
330
2272E
100
AcDbXrecord
280
     1
102
MATERIAL
148
0.0
149
0.0
149
0.0
 93
        0
 94
      127
282
     0
 72
     0
 77
     0
171
     0
175
     0
179
     0
273
     0
  0
XRECORD
  5
22730
102
{ACAD_REACTORS
330
2272E
102
}
330
2272E
100
AcDbXrecord
280
     1
270
     1
271
     1
  0
XRECORD
  5
2272F
102
{ACAD_REACTORS
330
2272E
102
}
330
2272E
100
AcDbXrecord
280
     1
270
     1
271
     1
  0
XRECORD
  5
22733
102
{ACAD_REACTORS
330
2272E
102
}
330
2272E
100
AcDbXrecord
280
     1
270
     1
271
     1
  0
XRECORD
  5
22732
102
{ACAD_REACTORS
330
2272E
102
}
330
2272E
100
AcDbXrecord
280
     1
270
     1
271
     1
  0
XRECORD
  5
22734
102
{ACAD_REACTORS
330
2272E
102
}
330
2272E
100
AcDbXrecord
280
     1
270
     1
271
     1
  0
XRECORD
  5
22731
102
{ACAD_REACTORS
330
2272E
102
}
330
2272E
100
AcDbXrecord
280
     1
270
     1
271
     1
  0
XRECORD
  5
528AA
102
{ACAD_REACTORS
330
2273E
102
}
330
2273E
100
AcDbXrecord
280
     1
102
MATERIAL
148
0.0
149
0.0
149
0.0
 93
        0
 94
      127
282
     0
 72
     0
 77
     0
171
     0
175
     0
179
     0
273
     0
  0
XRECORD
  5
22740
102
{ACAD_REACTORS
330
2273E
102
}
330
2273E
100
AcDbXrecord
280
     1
270
     1
271
     1
  0
XRECORD
  5
2273F
102
{ACAD_REACTORS
330
2273E
102
}
330
2273E
100
AcDbXrecord
280
     1
270
     1
271
     1
  0
XRECORD
  5
22743
102
{ACAD_REACTORS
330
2273E
102
}
330
2273E
100
AcDbXrecord
280
     1
270
     1
271
     1
  0
XRECORD
  5
22742
102
{ACAD_REACTORS
330
2273E
102
}
330
2273E
100
AcDbXrecord
280
     1
270
     1
271
     1
  0
XRECORD
  5
22744
102
{ACAD_REACTORS
330
2273E
102
}
330
2273E
100
AcDbXrecord
280
     1
270
     1
271
     1
  0
XRECORD
  5
22741
102
{ACAD_REACTORS
330
2273E
102
}
330
2273E
100
AcDbXrecord
280
     1
270
     1
271
     1
  0
XRECORD
  5
528A3
102
{ACAD_REACTORS
330
528A2
102
}
330
528A2
100
AcDbXrecord
280
     1
102
ACAD_ROUNDTRIP_2012_MLEADER_STYLE
298
     1
  0
CELLSTYLEMAP
  5
528A1
102
{ACAD_REACTORS
330
22803
102
}
330
22803
100
AcDbCellStyleMap
 90
        3
300
CELLSTYLE
  1
TABLEFORMAT_BEGIN
 90
        5
170
     1
 91
        0
 92
    32768
 62
   257
 93
        1
300
CONTENTFORMAT
  1
CONTENTFORMAT_BEGIN
 90
        0
 91
        0
 92
      512
 93
        0
300

 40
0.0
140
1.0
 94
        5
 62
     0
340
11
144
6.0
309
CONTENTFORMAT_END
171
     1
301
MARGIN
  1
CELLMARGIN_BEGIN
 40
1.5
 40
1.5
 40
1.5
 40
1.5
 40
4.5
 40
4.5
309
CELLMARGIN_END
 94
        6
 95
        1
302
GRIDFORMAT
  1
GRIDFORMAT_BEGIN
 90
        0
 91
        1
 62
     0
 92
       -2
340
0
 93
        0
 40
1.125
309
GRIDFORMAT_END
 95
        2
302
GRIDFORMAT
  1
GRIDFORMAT_BEGIN
 90
        0
 91
        1
 62
     0
 92
       -2
340
0
 93
        0
 40
1.125
309
GRIDFORMAT_END
 95
        4
302
GRIDFORMAT
  1
GRIDFORMAT_BEGIN
 90
        0
 91
        1
 62
     0
 92
       -2
340
0
 93
        0
 40
1.125
309
GRIDFORMAT_END
 95
        8
302
GRIDFORMAT
  1
GRIDFORMAT_BEGIN
 90
        0
 91
        1
 62
     0
 92
       -2
340
0
 93
        0
 40
1.125
309
GRIDFORMAT_END
 95
       16
302
GRIDFORMAT
  1
GRIDFORMAT_BEGIN
 90
        0
 91
        1
 62
     0
 92
       -2
340
0
 93
        0
 40
1.125
309
GRIDFORMAT_END
 95
       32
302
GRIDFORMAT
  1
GRIDFORMAT_BEGIN
 90
        0
 91
        1
 62
     0
 92
       -2
340
0
 93
        0
 40
1.125
309
GRIDFORMAT_END
309
TABLEFORMAT_END
  1
CELLSTYLE_BEGIN
 90
        1
 91
        1
300
_TITLE
309
CELLSTYLE_END
300
CELLSTYLE
  1
TABLEFORMAT_BEGIN
 90
        5
170
     1
 91
        0
 92
        0
 62
   257
 93
        1
300
CONTENTFORMAT
  1
CONTENTFORMAT_BEGIN
 90
        0
 91
        0
 92
      512
 93
        0
300

 40
0.0
140
1.0
 94
        5
 62
     0
340
11
144
4.5
309
CONTENTFORMAT_END
171
     1
301
MARGIN
  1
CELLMARGIN_BEGIN
 40
1.5
 40
1.5
 40
1.5
 40
1.5
 40
4.5
 40
4.5
309
CELLMARGIN_END
 94
        6
 95
        1
302
GRIDFORMAT
  1
GRIDFORMAT_BEGIN
 90
        0
 91
        1
 62
     0
 92
       -2
340
0
 93
        0
 40
1.125
309
GRIDFORMAT_END
 95
        2
302
GRIDFORMAT
  1
GRIDFORMAT_BEGIN
 90
        0
 91
        1
 62
     0
 92
       -2
340
0
 93
        0
 40
1.125
309
GRIDFORMAT_END
 95
        4
302
GRIDFORMAT
  1
GRIDFORMAT_BEGIN
 90
        0
 91
        1
 62
     0
 92
       -2
340
0
 93
        0
 40
1.125
309
GRIDFORMAT_END
 95
        8
302
GRIDFORMAT
  1
GRIDFORMAT_BEGIN
 90
        0
 91
        1
 62
     0
 92
       -2
340
0
 93
        0
 40
1.125
309
GRIDFORMAT_END
 95
       16
302
GRIDFORMAT
  1
GRIDFORMAT_BEGIN
 90
        0
 91
        1
 62
     0
 92
       -2
340
0
 93
        0
 40
1.125
309
GRIDFORMAT_END
 95
       32
302
GRIDFORMAT
  1
GRIDFORMAT_BEGIN
 90
        0
 91
        1
 62
     0
 92
       -2
340
0
 93
        0
 40
1.125
309
GRIDFORMAT_END
309
TABLEFORMAT_END
  1
CELLSTYLE_BEGIN
 90
        2
 91
        1
300
_HEADER
309
CELLSTYLE_END
300
CELLSTYLE
  1
TABLEFORMAT_BEGIN
 90
        5
170
     1
 91
        0
 92
        0
 62
   257
 93
        1
300
CONTENTFORMAT
  1
CONTENTFORMAT_BEGIN
 90
        0
 91
        0
 92
      512
 93
        0
300

 40
0.0
140
1.0
 94
        2
 62
     0
340
11
144
4.5
309
CONTENTFORMAT_END
171
     1
301
MARGIN
  1
CELLMARGIN_BEGIN
 40
1.5
 40
1.5
 40
1.5
 40
1.5
 40
4.5
 40
4.5
309
CELLMARGIN_END
 94
        6
 95
        1
302
GRIDFORMAT
  1
GRIDFORMAT_BEGIN
 90
        0
 91
        1
 62
     0
 92
       -2
340
0
 93
        0
 40
1.125
309
GRIDFORMAT_END
 95
        2
302
GRIDFORMAT
  1
GRIDFORMAT_BEGIN
 90
        0
 91
        1
 62
     0
 92
       -2
340
0
 93
        0
 40
1.125
309
GRIDFORMAT_END
 95
        4
302
GRIDFORMAT
  1
GRIDFORMAT_BEGIN
 90
        0
 91
        1
 62
     0
 92
       -2
340
0
 93
        0
 40
1.125
309
GRIDFORMAT_END
 95
        8
302
GRIDFORMAT
  1
GRIDFORMAT_BEGIN
 90
        0
 91
        1
 62
     0
 92
       -2
340
0
 93
        0
 40
1.125
309
GRIDFORMAT_END
 95
       16
302
GRIDFORMAT
  1
GRIDFORMAT_BEGIN
 90
        0
 91
        1
 62
     0
 92
       -2
340
0
 93
        0
 40
1.125
309
GRIDFORMAT_END
 95
       32
302
GRIDFORMAT
  1
GRIDFORMAT_BEGIN
 90
        0
 91
        1
 62
     0
 92
       -2
340
0
 93
        0
 40
1.125
309
GRIDFORMAT_END
309
TABLEFORMAT_END
  1
CELLSTYLE_BEGIN
 90
        3
 91
        2
300
_DATA
309
CELLSTYLE_END
  0
XRECORD
  5
528CB
102
{ACAD_REACTORS
330
22803
102
}
330
22803
100
AcDbXrecord
280
     1
102
ACAD_ROUNDTRIP_PRE2007_TABLESTYLE
 90
      512
 91
        0
  1

 92
      512
 93
        0
  2

 94
      512
 95
        0
  3

  0
XRECORD
  5
528B6
102
{ACAD_REACTORS
330
528B5
102
}
330
528B5
100
AcDbXrecord
280
     1
102
RTVSPropertyOp0
 70
     1
102
RTVSPropertyOp1
 70
     1
102
RTVSPropertyOp2
 70
     1
102
RTVSPropertyOp3
 70
     1
102
RTVSPropertyOp4
 70
     1
102
RTVSPropertyOp5
 70
     1
102
RTVSPropertyOp6
 70
     1
102
RTVSPropertyOp7
 70
     1
102
RTVSPropertyOp8
 70
     1
102
RTVSPropertyOp9
 70
     1
102
RTVSPropertyOp10
 70
     1
102
RTVSPropertyOp11
 70
     1
102
RTVSPropertyOp12
 70
     1
102
RTVSPropertyOp13
 70
     1
102
RTVSPropertyOp14
 70
     1
102
RTVSPropertyOp15
 70
     1
102
RTVSPropertyOp16
 70
     1
102
RTVSPropertyOp17
 70
     1
102
RTVSPropertyOp18
 70
     1
102
RTVSPropertyOp19
 70
     1
102
RTVSPropertyOp20
 70
     1
102
RTVSPropertyOp21
 70
     1
102
RTVSPropertyOp22
 70
     1
102
RTVSPropertyOp23
 70
     1
102
RTVSPropertyOp24
 70
     1
102
RTVSPropertyOp25
 70
     1
102
RTVSPropertyOp26
 70
     1
102
RTVSPropertyOp27
 70
     1
102
RTVSPropertyOp28
 70
     1
102
RTVSPropertyOp29
 70
     1
102
RTVSPropertyOp30
 70
     1
102
RTVSPropertyOp31
 70
     1
102
RTVSPropertyOp32
 70
     1
  0
XRECORD
  5
528BA
102
{ACAD_REACTORS
330
528B9
102
}
330
528B9
100
AcDbXrecord
280
     1
102
RTVSPropertyOp0
 70
     1
102
RTVSPropertyOp1
 70
     1
102
RTVSPropertyOp2
 70
     1
102
RTVSPropertyOp3
 70
     1
102
RTVSPropertyOp4
 70
     1
102
RTVSPropertyOp5
 70
     1
102
RTVSPropertyOp6
 70
     1
102
RTVSPropertyOp7
 70
     1
102
RTVSPropertyOp8
 70
     1
102
RTVSPropertyOp9
 70
     1
102
RTVSPropertyOp10
 70
     1
102
RTVSPropertyOp11
 70
     1
102
RTVSPropertyOp12
 70
     1
102
RTVSPropertyOp13
 70
     1
102
RTVSPropertyOp14
 70
     1
102
RTVSPropertyOp15
 70
     1
102
RTVSPropertyOp16
 70
     1
102
RTVSPropertyOp17
 70
     1
102
RTVSPropertyOp18
 70
     1
102
RTVSPropertyOp19
 70
     1
102
RTVSPropertyOp20
 70
     1
102
RTVSPropertyOp21
 70
     1
102
RTVSPropertyOp22
 70
     1
102
RTVSPropertyOp23
 70
     1
102
RTVSPropertyOp24
 70
     1
102
RTVSPropertyOp25
 70
     1
102
RTVSPropertyOp26
 70
     1
102
RTVSPropertyOp27
 70
     1
102
RTVSPropertyOp28
 70
     1
102
RTVSPropertyOp29
 70
     1
102
RTVSPropertyOp30
 70
     1
102
RTVSPropertyOp31
 70
     1
102
RTVSPropertyOp32
 70
     1
  0
XRECORD
  5
528B8
102
{ACAD_REACTORS
330
528B7
102
}
330
528B7
100
AcDbXrecord
280
     1
102
RTVSPropertyOp0
 70
     1
102
RTVSPropertyOp1
 70
     1
102
RTVSPropertyOp2
 70
     1
102
RTVSPropertyOp3
 70
     1
102
RTVSPropertyOp4
 70
     1
102
RTVSPropertyOp5
 70
     1
102
RTVSPropertyOp6
 70
     1
102
RTVSPropertyOp7
 70
     1
102
RTVSPropertyOp8
 70
     1
102
RTVSPropertyOp9
 70
     1
102
RTVSPropertyOp10
 70
     1
102
RTVSPropertyOp11
 70
     1
102
RTVSPropertyOp12
 70
     1
102
RTVSPropertyOp13
 70
     1
102
RTVSPropertyOp14
 70
     1
102
RTVSPropertyOp15
 70
     1
102
RTVSPropertyOp16
 70
     1
102
RTVSPropertyOp17
 70
     1
102
RTVSPropertyOp18
 70
     1
102
RTVSPropertyOp19
 70
     1
102
RTVSPropertyOp20
 70
     1
102
RTVSPropertyOp21
 70
     1
102
RTVSPropertyOp22
 70
     1
102
RTVSPropertyOp23
 70
     1
102
RTVSPropertyOp24
 70
     1
102
RTVSPropertyOp25
 70
     1
102
RTVSPropertyOp26
 70
     1
102
RTVSPropertyOp27
 70
     1
102
RTVSPropertyOp28
 70
     1
102
RTVSPropertyOp29
 70
     1
102
RTVSPropertyOp30
 70
     1
102
RTVSPropertyOp31
 70
     1
102
RTVSPropertyOp32
 70
     1
  0
XRECORD
  5
528B4
102
{ACAD_REACTORS
330
528B3
102
}
330
528B3
100
AcDbXrecord
280
     1
102
RTVSPropertyOp0
 70
     1
102
RTVSPropertyOp1
 70
     1
102
RTVSPropertyOp2
 70
     1
102
RTVSPropertyOp3
 70
     1
102
RTVSPropertyOp4
 70
     1
102
RTVSPropertyOp5
 70
     1
102
RTVSPropertyOp6
 70
     1
102
RTVSPropertyOp7
 70
     1
102
RTVSPropertyOp8
 70
     1
102
RTVSPropertyOp9
 70
     1
102
RTVSPropertyOp10
 70
     1
102
RTVSPropertyOp11
 70
     1
102
RTVSPropertyOp12
 70
     1
102
RTVSPropertyOp13
 70
     1
102
RTVSPropertyOp14
 70
     1
102
RTVSPropertyOp15
 70
     1
102
RTVSPropertyOp16
 70
     1
102
RTVSPropertyOp17
 70
     1
102
RTVSPropertyOp18
 70
     1
102
RTVSPropertyOp19
 70
     1
102
RTVSPropertyOp20
 70
     1
102
RTVSPropertyOp21
 70
     1
102
RTVSPropertyOp22
 70
     1
102
RTVSPropertyOp23
 70
     1
102
RTVSPropertyOp24
 70
     1
102
RTVSPropertyOp25
 70
     1
102
RTVSPropertyOp26
 70
     1
102
RTVSPropertyOp27
 70
     1
102
RTVSPropertyOp28
 70
     1
102
RTVSPropertyOp29
 70
     1
102
RTVSPropertyOp30
 70
     1
102
RTVSPropertyOp31
 70
     1
102
RTVSPropertyOp32
 70
     1
  0
XRECORD
  5
528C2
102
{ACAD_REACTORS
330
528C1
102
}
330
528C1
100
AcDbXrecord
280
     1
102
RTVSPropertyOp0
 70
     1
102
RTVSPropertyOp1
 70
     1
102
RTVSPropertyOp2
 70
     1
102
RTVSPropertyOp3
 70
     1
102
RTVSPropertyOp4
 70
     1
102
RTVSPropertyOp5
 70
     1
102
RTVSPropertyOp6
 70
     1
102
RTVSPropertyOp7
 70
     1
102
RTVSPropertyOp8
 70
     1
102
RTVSPropertyOp9
 70
     1
102
RTVSPropertyOp10
 70
     1
102
RTVSPropertyOp11
 70
     1
102
RTVSPropertyOp12
 70
     1
102
RTVSPropertyOp13
 70
     1
102
RTVSPropertyOp14
 70
     1
102
RTVSPropertyOp15
 70
     1
102
RTVSPropertyOp16
 70
     1
102
RTVSPropertyOp17
 70
     1
102
RTVSPropertyOp18
 70
     1
102
RTVSPropertyOp19
 70
     1
102
RTVSPropertyOp20
 70
     1
102
RTVSPropertyOp21
 70
     1
102
RTVSPropertyOp22
 70
     1
102
RTVSPropertyOp23
 70
     1
102
RTVSPropertyOp24
 70
     1
102
RTVSPropertyOp25
 70
     1
102
RTVSPropertyOp26
 70
     1
102
RTVSPropertyOp27
 70
     1
102
RTVSPropertyOp28
 70
     1
102
RTVSPropertyOp29
 70
     1
102
RTVSPropertyOp30
 70
     1
102
RTVSPropertyOp31
 70
     1
102
RTVSPropertyOp32
 70
     1
  0
XRECORD
  5
528CA
102
{ACAD_REACTORS
330
528C9
102
}
330
528C9
100
AcDbXrecord
280
     1
102
RTVSPropertyOp0
 70
     1
102
RTVSPropertyOp1
 70
     1
102
RTVSPropertyOp2
 70
     1
102
RTVSPropertyOp3
 70
     1
102
RTVSPropertyOp4
 70
     1
102
RTVSPropertyOp5
 70
     1
102
RTVSPropertyOp6
 70
     1
102
RTVSPropertyOp7
 70
     1
102
RTVSPropertyOp8
 70
     1
102
RTVSPropertyOp9
 70
     1
102
RTVSPropertyOp10
 70
     1
102
RTVSPropertyOp11
 70
     1
102
RTVSPropertyOp12
 70
     1
102
RTVSPropertyOp13
 70
     1
102
RTVSPropertyOp14
 70
     1
102
RTVSPropertyOp15
 70
     1
102
RTVSPropertyOp16
 70
     1
102
RTVSPropertyOp17
 70
     1
102
RTVSPropertyOp18
 70
     1
102
RTVSPropertyOp19
 70
     1
102
RTVSPropertyOp20
 70
     1
102
RTVSPropertyOp21
 70
     1
102
RTVSPropertyOp22
 70
     1
102
RTVSPropertyOp23
 70
     1
102
RTVSPropertyOp24
 70
     1
102
RTVSPropertyOp25
 70
     1
102
RTVSPropertyOp26
 70
     1
102
RTVSPropertyOp27
 70
     1
102
RTVSPropertyOp28
 70
     1
102
RTVSPropertyOp29
 70
     1
102
RTVSPropertyOp30
 70
     1
102
RTVSPropertyOp31
 70
     1
102
RTVSPropertyOp32
 70
     1
  0
XRECORD
  5
528BC
102
{ACAD_REACTORS
330
528BB
102
}
330
528BB
100
AcDbXrecord
280
     1
102
RTVSPropertyOp0
 70
     1
102
RTVSPropertyOp1
 70
     1
102
RTVSPropertyOp2
 70
     1
102
RTVSPropertyOp3
 70
     1
102
RTVSPropertyOp4
 70
     1
102
RTVSPropertyOp5
 70
     1
102
RTVSPropertyOp6
 70
     1
102
RTVSPropertyOp7
 70
     1
102
RTVSPropertyOp8
 70
     1
102
RTVSPropertyOp9
 70
     1
102
RTVSPropertyOp10
 70
     1
102
RTVSPropertyOp11
 70
     1
102
RTVSPropertyOp12
 70
     1
102
RTVSPropertyOp13
 70
     1
102
RTVSPropertyOp14
 70
     1
102
RTVSPropertyOp15
 70
     1
102
RTVSPropertyOp16
 70
     1
102
RTVSPropertyOp17
 70
     1
102
RTVSPropertyOp18
 70
     1
102
RTVSPropertyOp19
 70
     1
102
RTVSPropertyOp20
 70
     1
102
RTVSPropertyOp21
 70
     1
102
RTVSPropertyOp22
 70
     1
102
RTVSPropertyOp23
 70
     1
102
RTVSPropertyOp24
 70
     1
102
RTVSPropertyOp25
 70
     1
102
RTVSPropertyOp26
 70
     1
102
RTVSPropertyOp27
 70
     1
102
RTVSPropertyOp28
 70
     1
102
RTVSPropertyOp29
 70
     1
102
RTVSPropertyOp30
 70
     1
102
RTVSPropertyOp31
 70
     1
102
RTVSPropertyOp32
 70
     1
  0
XRECORD
  5
528C0
102
{ACAD_REACTORS
330
528BF
102
}
330
528BF
100
AcDbXrecord
280
     1
102
RTVSPropertyOp0
 70
     1
102
RTVSPropertyOp1
 70
     1
102
RTVSPropertyOp2
 70
     1
102
RTVSPropertyOp3
 70
     1
102
RTVSPropertyOp4
 70
     1
102
RTVSPropertyOp5
 70
     1
102
RTVSPropertyOp6
 70
     1
102
RTVSPropertyOp7
 70
     1
102
RTVSPropertyOp8
 70
     1
102
RTVSPropertyOp9
 70
     1
102
RTVSPropertyOp10
 70
     1
102
RTVSPropertyOp11
 70
     1
102
RTVSPropertyOp12
 70
     1
102
RTVSPropertyOp13
 70
     1
102
RTVSPropertyOp14
 70
     1
102
RTVSPropertyOp15
 70
     1
102
RTVSPropertyOp16
 70
     1
102
RTVSPropertyOp17
 70
     1
102
RTVSPropertyOp18
 70
     1
102
RTVSPropertyOp19
 70
     1
102
RTVSPropertyOp20
 70
     1
102
RTVSPropertyOp21
 70
     1
102
RTVSPropertyOp22
 70
     1
102
RTVSPropertyOp23
 70
     1
102
RTVSPropertyOp24
 70
     1
102
RTVSPropertyOp25
 70
     1
102
RTVSPropertyOp26
 70
     1
102
RTVSPropertyOp27
 70
     1
102
RTVSPropertyOp28
 70
     1
102
RTVSPropertyOp29
 70
     1
102
RTVSPropertyOp30
 70
     1
102
RTVSPropertyOp31
 70
     1
102
RTVSPropertyOp32
 70
     1
  0
XRECORD
  5
528DF
102
{ACAD_REACTORS
330
528DE
102
}
330
528DE
100
AcDbXrecord
280
     1
102
RTVSPropertyOp0
 70
     0
102
RTVSPropertyOp1
 70
     0
102
RTVSPropertyOp2
 70
     0
102
RTVSPropertyOp3
 70
     0
102
RTVSPropertyOp4
 70
     0
102
RTVSPropertyOp5
 70
     0
102
RTVSPropertyOp6
 70
     0
102
RTVSPropertyOp7
 70
     0
102
RTVSPropertyOp8
 70
     0
102
RTVSPropertyOp9
 70
     0
102
RTVSPropertyOp10
 70
     0
102
RTVSPropertyOp11
 70
     0
102
RTVSPropertyOp12
 70
     0
102
RTVSPropertyOp13
 70
     0
102
RTVSPropertyOp14
 70
     2
102
RTVSPropertyOp15
 70
     0
102
RTVSPropertyOp16
 70
     0
102
RTVSPropertyOp17
 70
     0
102
RTVSPropertyOp18
 70
     0
102
RTVSPropertyOp19
 70
     0
102
RTVSPropertyOp20
 70
     0
102
RTVSPropertyOp21
 70
     0
102
RTVSPropertyOp22
 70
     0
102
RTVSPropertyOp23
 70
     0
102
RTVSPropertyOp24
 70
     0
102
RTVSPropertyOp25
 70
     0
102
RTVSPropertyOp26
 70
     0
102
RTVSPropertyOp27
 70
     0
102
RTVSPropertyOp28
 70
     1
102
RTVSPropertyOp29
 70
     1
102
RTVSPropertyOp30
 70
     1
102
RTVSPropertyOp31
 70
     1
102
RTVSPropertyOp32
 70
     1
  0
XRECORD
  5
528C8
102
{ACAD_REACTORS
330
528C7
102
}
330
528C7
100
AcDbXrecord
280
     1
102
RTVSPropertyOp0
 70
     1
102
RTVSPropertyOp1
 70
     1
102
RTVSPropertyOp2
 70
     1
102
RTVSPropertyOp3
 70
     1
102
RTVSPropertyOp4
 70
     1
102
RTVSPropertyOp5
 70
     1
102
RTVSPropertyOp6
 70
     1
102
RTVSPropertyOp7
 70
     1
102
RTVSPropertyOp8
 70
     1
102
RTVSPropertyOp9
 70
     1
102
RTVSPropertyOp10
 70
     1
102
RTVSPropertyOp11
 70
     1
102
RTVSPropertyOp12
 70
     1
102
RTVSPropertyOp13
 70
     1
102
RTVSPropertyOp14
 70
     1
102
RTVSPropertyOp15
 70
     1
102
RTVSPropertyOp16
 70
     1
102
RTVSPropertyOp17
 70
     1
102
RTVSPropertyOp18
 70
     1
102
RTVSPropertyOp19
 70
     1
102
RTVSPropertyOp20
 70
     1
102
RTVSPropertyOp21
 70
     1
102
RTVSPropertyOp22
 70
     1
102
RTVSPropertyOp23
 70
     1
102
RTVSPropertyOp24
 70
     1
102
RTVSPropertyOp25
 70
     1
102
RTVSPropertyOp26
 70
     1
102
RTVSPropertyOp27
 70
     1
102
RTVSPropertyOp28
 70
     1
102
RTVSPropertyOp29
 70
     1
102
RTVSPropertyOp30
 70
     1
102
RTVSPropertyOp31
 70
     1
102
RTVSPropertyOp32
 70
     1
  0
XRECORD
  5
528AC
102
{ACAD_REACTORS
330
528AB
102
}
330
528AB
100
AcDbXrecord
280
     1
102
RTVSPropertyOp0
 70
     1
102
RTVSPropertyOp1
 70
     1
102
RTVSPropertyOp2
 70
     1
102
RTVSPropertyOp3
 70
     1
102
RTVSPropertyOp4
 70
     1
102
RTVSPropertyOp5
 70
     1
102
RTVSPropertyOp6
 70
     1
102
RTVSPropertyOp7
 70
     1
102
RTVSPropertyOp8
 70
     1
102
RTVSPropertyOp9
 70
     1
102
RTVSPropertyOp10
 70
     1
102
RTVSPropertyOp11
 70
     1
102
RTVSPropertyOp12
 70
     1
102
RTVSPropertyOp13
 70
     1
102
RTVSPropertyOp14
 70
     1
102
RTVSPropertyOp15
 70
     1
102
RTVSPropertyOp16
 70
     1
102
RTVSPropertyOp17
 70
     1
102
RTVSPropertyOp18
 70
     1
102
RTVSPropertyOp19
 70
     1
102
RTVSPropertyOp20
 70
     1
102
RTVSPropertyOp21
 70
     1
102
RTVSPropertyOp22
 70
     1
102
RTVSPropertyOp23
 70
     1
102
RTVSPropertyOp24
 70
     1
102
RTVSPropertyOp25
 70
     1
102
RTVSPropertyOp26
 70
     1
102
RTVSPropertyOp27
 70
     1
102
RTVSPropertyOp28
 70
     1
102
RTVSPropertyOp29
 70
     1
102
RTVSPropertyOp30
 70
     1
102
RTVSPropertyOp31
 70
     1
102
RTVSPropertyOp32
 70
     1
  0
XRECORD
  5
528AE
102
{ACAD_REACTORS
330
528AD
102
}
330
528AD
100
AcDbXrecord
280
     1
102
RTVSPropertyOp0
 70
     1
102
RTVSPropertyOp1
 70
     1
102
RTVSPropertyOp2
 70
     1
102
RTVSPropertyOp3
 70
     1
102
RTVSPropertyOp4
 70
     1
102
RTVSPropertyOp5
 70
     1
102
RTVSPropertyOp6
 70
     1
102
RTVSPropertyOp7
 70
     1
102
RTVSPropertyOp8
 70
     1
102
RTVSPropertyOp9
 70
     1
102
RTVSPropertyOp10
 70
     1
102
RTVSPropertyOp11
 70
     1
102
RTVSPropertyOp12
 70
     1
102
RTVSPropertyOp13
 70
     1
102
RTVSPropertyOp14
 70
     1
102
RTVSPropertyOp15
 70
     1
102
RTVSPropertyOp16
 70
     1
102
RTVSPropertyOp17
 70
     1
102
RTVSPropertyOp18
 70
     1
102
RTVSPropertyOp19
 70
     1
102
RTVSPropertyOp20
 70
     1
102
RTVSPropertyOp21
 70
     1
102
RTVSPropertyOp22
 70
     1
102
RTVSPropertyOp23
 70
     1
102
RTVSPropertyOp24
 70
     1
102
RTVSPropertyOp25
 70
     1
102
RTVSPropertyOp26
 70
     1
102
RTVSPropertyOp27
 70
     1
102
RTVSPropertyOp28
 70
     1
102
RTVSPropertyOp29
 70
     1
102
RTVSPropertyOp30
 70
     1
102
RTVSPropertyOp31
 70
     1
102
RTVSPropertyOp32
 70
     1
  0
XRECORD
  5
528B0
102
{ACAD_REACTORS
330
528AF
102
}
330
528AF
100
AcDbXrecord
280
     1
102
RTVSPropertyOp0
 70
     1
102
RTVSPropertyOp1
 70
     1
102
RTVSPropertyOp2
 70
     1
102
RTVSPropertyOp3
 70
     1
102
RTVSPropertyOp4
 70
     1
102
RTVSPropertyOp5
 70
     1
102
RTVSPropertyOp6
 70
     1
102
RTVSPropertyOp7
 70
     1
102
RTVSPropertyOp8
 70
     1
102
RTVSPropertyOp9
 70
     1
102
RTVSPropertyOp10
 70
     1
102
RTVSPropertyOp11
 70
     1
102
RTVSPropertyOp12
 70
     1
102
RTVSPropertyOp13
 70
     1
102
RTVSPropertyOp14
 70
     1
102
RTVSPropertyOp15
 70
     1
102
RTVSPropertyOp16
 70
     1
102
RTVSPropertyOp17
 70
     1
102
RTVSPropertyOp18
 70
     1
102
RTVSPropertyOp19
 70
     1
102
RTVSPropertyOp20
 70
     1
102
RTVSPropertyOp21
 70
     1
102
RTVSPropertyOp22
 70
     1
102
RTVSPropertyOp23
 70
     1
102
RTVSPropertyOp24
 70
     1
102
RTVSPropertyOp25
 70
     1
102
RTVSPropertyOp26
 70
     1
102
RTVSPropertyOp27
 70
     1
102
RTVSPropertyOp28
 70
     1
102
RTVSPropertyOp29
 70
     1
102
RTVSPropertyOp30
 70
     1
102
RTVSPropertyOp31
 70
     1
102
RTVSPropertyOp32
 70
     1
  0
XRECORD
  5
528B2
102
{ACAD_REACTORS
330
528B1
102
}
330
528B1
100
AcDbXrecord
280
     1
102
RTVSPropertyOp0
 70
     1
102
RTVSPropertyOp1
 70
     1
102
RTVSPropertyOp2
 70
     1
102
RTVSPropertyOp3
 70
     1
102
RTVSPropertyOp4
 70
     1
102
RTVSPropertyOp5
 70
     1
102
RTVSPropertyOp6
 70
     1
102
RTVSPropertyOp7
 70
     1
102
RTVSPropertyOp8
 70
     1
102
RTVSPropertyOp9
 70
     1
102
RTVSPropertyOp10
 70
     1
102
RTVSPropertyOp11
 70
     1
102
RTVSPropertyOp12
 70
     1
102
RTVSPropertyOp13
 70
     1
102
RTVSPropertyOp14
 70
     1
102
RTVSPropertyOp15
 70
     1
102
RTVSPropertyOp16
 70
     1
102
RTVSPropertyOp17
 70
     1
102
RTVSPropertyOp18
 70
     1
102
RTVSPropertyOp19
 70
     1
102
RTVSPropertyOp20
 70
     1
102
RTVSPropertyOp21
 70
     1
102
RTVSPropertyOp22
 70
     1
102
RTVSPropertyOp23
 70
     1
102
RTVSPropertyOp24
 70
     1
102
RTVSPropertyOp25
 70
     1
102
RTVSPropertyOp26
 70
     1
102
RTVSPropertyOp27
 70
     1
102
RTVSPropertyOp28
 70
     1
102
RTVSPropertyOp29
 70
     1
102
RTVSPropertyOp30
 70
     1
102
RTVSPropertyOp31
 70
     1
102
RTVSPropertyOp32
 70
     1
  0
XRECORD
  5
528CF
102
{ACAD_REACTORS
330
528CE
102
}
330
528CE
100
AcDbXrecord
280
     1
102
RTVSPropertyOp0
 70
     1
102
RTVSPropertyOp1
 70
     1
102
RTVSPropertyOp2
 70
     1
102
RTVSPropertyOp3
 70
     1
102
RTVSPropertyOp4
 70
     1
102
RTVSPropertyOp5
 70
     1
102
RTVSPropertyOp6
 70
     1
102
RTVSPropertyOp7
 70
     1
102
RTVSPropertyOp8
 70
     1
102
RTVSPropertyOp9
 70
     1
102
RTVSPropertyOp10
 70
     1
102
RTVSPropertyOp11
 70
     1
102
RTVSPropertyOp12
 70
     1
102
RTVSPropertyOp13
 70
     1
102
RTVSPropertyOp14
 70
     1
102
RTVSPropertyOp15
 70
     1
102
RTVSPropertyOp16
 70
     1
102
RTVSPropertyOp17
 70
     1
102
RTVSPropertyOp18
 70
     1
102
RTVSPropertyOp19
 70
     1
102
RTVSPropertyOp20
 70
     1
102
RTVSPropertyOp21
 70
     1
102
RTVSPropertyOp22
 70
     1
102
RTVSPropertyOp23
 70
     1
102
RTVSPropertyOp24
 70
     1
102
RTVSPropertyOp25
 70
     1
102
RTVSPropertyOp26
 70
     1
102
RTVSPropertyOp27
 70
     1
102
RTVSPropertyOp28
 70
     1
102
RTVSPropertyOp29
 70
     1
102
RTVSPropertyOp30
 70
     1
102
RTVSPropertyOp31
 70
     1
102
RTVSPropertyOp32
 70
     1
  0
XRECORD
  5
528DB
102
{ACAD_REACTORS
330
528DA
102
}
330
528DA
100
AcDbXrecord
280
     1
102
RTVSPropertyOp0
 70
     0
102
RTVSPropertyOp1
 70
     0
102
RTVSPropertyOp2
 70
     0
102
RTVSPropertyOp3
 70
     0
102
RTVSPropertyOp4
 70
     0
102
RTVSPropertyOp5
 70
     0
102
RTVSPropertyOp6
 70
     0
102
RTVSPropertyOp7
 70
     0
102
RTVSPropertyOp8
 70
     0
102
RTVSPropertyOp9
 70
     0
102
RTVSPropertyOp10
 70
     0
102
RTVSPropertyOp11
 70
     0
102
RTVSPropertyOp12
 70
     0
102
RTVSPropertyOp13
 70
     0
102
RTVSPropertyOp14
 70
     2
102
RTVSPropertyOp15
 70
     0
102
RTVSPropertyOp16
 70
     0
102
RTVSPropertyOp17
 70
     0
102
RTVSPropertyOp18
 70
     0
102
RTVSPropertyOp19
 70
     0
102
RTVSPropertyOp20
 70
     0
102
RTVSPropertyOp21
 70
     0
102
RTVSPropertyOp22
 70
     0
102
RTVSPropertyOp23
 70
     0
102
RTVSPropertyOp24
 70
     0
102
RTVSPropertyOp25
 70
     0
102
RTVSPropertyOp26
 70
     0
102
RTVSPropertyOp27
 70
     0
102
RTVSPropertyOp28
 70
     1
102
RTVSPropertyOp29
 70
     1
102
RTVSPropertyOp30
 70
     1
102
RTVSPropertyOp31
 70
     1
102
RTVSPropertyOp32
 70
     1
  0
XRECORD
  5
528C6
102
{ACAD_REACTORS
330
528C5
102
}
330
528C5
100
AcDbXrecord
280
     1
102
RTVSPropertyOp0
 70
     1
102
RTVSPropertyOp1
 70
     1
102
RTVSPropertyOp2
 70
     1
102
RTVSPropertyOp3
 70
     1
102
RTVSPropertyOp4
 70
     1
102
RTVSPropertyOp5
 70
     1
102
RTVSPropertyOp6
 70
     1
102
RTVSPropertyOp7
 70
     1
102
RTVSPropertyOp8
 70
     1
102
RTVSPropertyOp9
 70
     1
102
RTVSPropertyOp10
 70
     1
102
RTVSPropertyOp11
 70
     1
102
RTVSPropertyOp12
 70
     1
102
RTVSPropertyOp13
 70
     1
102
RTVSPropertyOp14
 70
     1
102
RTVSPropertyOp15
 70
     1
102
RTVSPropertyOp16
 70
     1
102
RTVSPropertyOp17
 70
     1
102
RTVSPropertyOp18
 70
     1
102
RTVSPropertyOp19
 70
     1
102
RTVSPropertyOp20
 70
     1
102
RTVSPropertyOp21
 70
     1
102
RTVSPropertyOp22
 70
     1
102
RTVSPropertyOp23
 70
     1
102
RTVSPropertyOp24
 70
     1
102
RTVSPropertyOp25
 70
     1
102
RTVSPropertyOp26
 70
     1
102
RTVSPropertyOp27
 70
     1
102
RTVSPropertyOp28
 70
     1
102
RTVSPropertyOp29
 70
     1
102
RTVSPropertyOp30
 70
     1
102
RTVSPropertyOp31
 70
     1
102
RTVSPropertyOp32
 70
     1
  0
XRECORD
  5
528DD
102
{ACAD_REACTORS
330
528DC
102
}
330
528DC
100
AcDbXrecord
280
     1
102
RTVSPropertyOp0
 70
     0
102
RTVSPropertyOp1
 70
     0
102
RTVSPropertyOp2
 70
     0
102
RTVSPropertyOp3
 70
     0
102
RTVSPropertyOp4
 70
     0
102
RTVSPropertyOp5
 70
     0
102
RTVSPropertyOp6
 70
     0
102
RTVSPropertyOp7
 70
     0
102
RTVSPropertyOp8
 70
     0
102
RTVSPropertyOp9
 70
     0
102
RTVSPropertyOp10
 70
     0
102
RTVSPropertyOp11
 70
     0
102
RTVSPropertyOp12
 70
     0
102
RTVSPropertyOp13
 70
     0
102
RTVSPropertyOp14
 70
     2
102
RTVSPropertyOp15
 70
     0
102
RTVSPropertyOp16
 70
     0
102
RTVSPropertyOp17
 70
     0
102
RTVSPropertyOp18
 70
     0
102
RTVSPropertyOp19
 70
     0
102
RTVSPropertyOp20
 70
     0
102
RTVSPropertyOp21
 70
     0
102
RTVSPropertyOp22
 70
     0
102
RTVSPropertyOp23
 70
     0
102
RTVSPropertyOp24
 70
     0
102
RTVSPropertyOp25
 70
     0
102
RTVSPropertyOp26
 70
     0
102
RTVSPropertyOp27
 70
     0
102
RTVSPropertyOp28
 70
     1
102
RTVSPropertyOp29
 70
     1
102
RTVSPropertyOp30
 70
     1
102
RTVSPropertyOp31
 70
     1
102
RTVSPropertyOp32
 70
     1
  0
XRECORD
  5
528BE
102
{ACAD_REACTORS
330
528BD
102
}
330
528BD
100
AcDbXrecord
280
     1
102
RTVSPropertyOp0
 70
     1
102
RTVSPropertyOp1
 70
     1
102
RTVSPropertyOp2
 70
     1
102
RTVSPropertyOp3
 70
     1
102
RTVSPropertyOp4
 70
     1
102
RTVSPropertyOp5
 70
     1
102
RTVSPropertyOp6
 70
     1
102
RTVSPropertyOp7
 70
     1
102
RTVSPropertyOp8
 70
     1
102
RTVSPropertyOp9
 70
     1
102
RTVSPropertyOp10
 70
     1
102
RTVSPropertyOp11
 70
     1
102
RTVSPropertyOp12
 70
     1
102
RTVSPropertyOp13
 70
     1
102
RTVSPropertyOp14
 70
     1
102
RTVSPropertyOp15
 70
     1
102
RTVSPropertyOp16
 70
     1
102
RTVSPropertyOp17
 70
     1
102
RTVSPropertyOp18
 70
     1
102
RTVSPropertyOp19
 70
     1
102
RTVSPropertyOp20
 70
     1
102
RTVSPropertyOp21
 70
     1
102
RTVSPropertyOp22
 70
     1
102
RTVSPropertyOp23
 70
     1
102
RTVSPropertyOp24
 70
     1
102
RTVSPropertyOp25
 70
     1
102
RTVSPropertyOp26
 70
     1
102
RTVSPropertyOp27
 70
     1
102
RTVSPropertyOp28
 70
     1
102
RTVSPropertyOp29
 70
     1
102
RTVSPropertyOp30
 70
     1
102
RTVSPropertyOp31
 70
     1
102
RTVSPropertyOp32
 70
     1
  0
XRECORD
  5
528D9
102
{ACAD_REACTORS
330
528D8
102
}
330
528D8
100
AcDbXrecord
280
     1
102
RTVSPropertyOp0
 70
     1
102
RTVSPropertyOp1
 70
     1
102
RTVSPropertyOp2
 70
     1
102
RTVSPropertyOp3
 70
     1
102
RTVSPropertyOp4
 70
     1
102
RTVSPropertyOp5
 70
     1
102
RTVSPropertyOp6
 70
     1
102
RTVSPropertyOp7
 70
     1
102
RTVSPropertyOp8
 70
     1
102
RTVSPropertyOp9
 70
     1
102
RTVSPropertyOp10
 70
     1
102
RTVSPropertyOp11
 70
     1
102
RTVSPropertyOp12
 70
     1
102
RTVSPropertyOp13
 70
     1
102
RTVSPropertyOp14
 70
     1
102
RTVSPropertyOp15
 70
     1
102
RTVSPropertyOp16
 70
     1
102
RTVSPropertyOp17
 70
     1
102
RTVSPropertyOp18
 70
     1
102
RTVSPropertyOp19
 70
     1
102
RTVSPropertyOp20
 70
     1
102
RTVSPropertyOp21
 70
     1
102
RTVSPropertyOp22
 70
     1
102
RTVSPropertyOp23
 70
     1
102
RTVSPropertyOp24
 70
     1
102
RTVSPropertyOp25
 70
     1
102
RTVSPropertyOp26
 70
     1
102
RTVSPropertyOp27
 70
     1
102
RTVSPropertyOp28
 70
     1
102
RTVSPropertyOp29
 70
     1
102
RTVSPropertyOp30
 70
     1
102
RTVSPropertyOp31
 70
     1
102
RTVSPropertyOp32
 70
     1
  0
XRECORD
  5
528D7
102
{ACAD_REACTORS
330
528D6
102
}
330
528D6
100
AcDbXrecord
280
     1
102
RTVSPropertyOp0
 70
     1
102
RTVSPropertyOp1
 70
     1
102
RTVSPropertyOp2
 70
     1
102
RTVSPropertyOp3
 70
     1
102
RTVSPropertyOp4
 70
     1
102
RTVSPropertyOp5
 70
     1
102
RTVSPropertyOp6
 70
     1
102
RTVSPropertyOp7
 70
     1
102
RTVSPropertyOp8
 70
     1
102
RTVSPropertyOp9
 70
     1
102
RTVSPropertyOp10
 70
     1
102
RTVSPropertyOp11
 70
     1
102
RTVSPropertyOp12
 70
     1
102
RTVSPropertyOp13
 70
     1
102
RTVSPropertyOp14
 70
     1
102
RTVSPropertyOp15
 70
     1
102
RTVSPropertyOp16
 70
     1
102
RTVSPropertyOp17
 70
     1
102
RTVSPropertyOp18
 70
     1
102
RTVSPropertyOp19
 70
     1
102
RTVSPropertyOp20
 70
     1
102
RTVSPropertyOp21
 70
     1
102
RTVSPropertyOp22
 70
     1
102
RTVSPropertyOp23
 70
     1
102
RTVSPropertyOp24
 70
     1
102
RTVSPropertyOp25
 70
     1
102
RTVSPropertyOp26
 70
     1
102
RTVSPropertyOp27
 70
     1
102
RTVSPropertyOp28
 70
     1
102
RTVSPropertyOp29
 70
     1
102
RTVSPropertyOp30
 70
     1
102
RTVSPropertyOp31
 70
     1
102
RTVSPropertyOp32
 70
     1
  0
XRECORD
  5
528D1
102
{ACAD_REACTORS
330
528D0
102
}
330
528D0
100
AcDbXrecord
280
     1
102
RTVSPropertyOp0
 70
     1
102
RTVSPropertyOp1
 70
     1
102
RTVSPropertyOp2
 70
     1
102
RTVSPropertyOp3
 70
     1
102
RTVSPropertyOp4
 70
     1
102
RTVSPropertyOp5
 70
     1
102
RTVSPropertyOp6
 70
     1
102
RTVSPropertyOp7
 70
     1
102
RTVSPropertyOp8
 70
     1
102
RTVSPropertyOp9
 70
     1
102
RTVSPropertyOp10
 70
     1
102
RTVSPropertyOp11
 70
     1
102
RTVSPropertyOp12
 70
     1
102
RTVSPropertyOp13
 70
     1
102
RTVSPropertyOp14
 70
     1
102
RTVSPropertyOp15
 70
     1
102
RTVSPropertyOp16
 70
     1
102
RTVSPropertyOp17
 70
     1
102
RTVSPropertyOp18
 70
     1
102
RTVSPropertyOp19
 70
     1
102
RTVSPropertyOp20
 70
     1
102
RTVSPropertyOp21
 70
     1
102
RTVSPropertyOp22
 70
     1
102
RTVSPropertyOp23
 70
     1
102
RTVSPropertyOp24
 70
     1
102
RTVSPropertyOp25
 70
     1
102
RTVSPropertyOp26
 70
     1
102
RTVSPropertyOp27
 70
     1
102
RTVSPropertyOp28
 70
     1
102
RTVSPropertyOp29
 70
     1
102
RTVSPropertyOp30
 70
     1
102
RTVSPropertyOp31
 70
     1
102
RTVSPropertyOp32
 70
     1
  0
XRECORD
  5
528D3
102
{ACAD_REACTORS
330
528D2
102
}
330
528D2
100
AcDbXrecord
280
     1
102
RTVSPropertyOp0
 70
     1
102
RTVSPropertyOp1
 70
     1
102
RTVSPropertyOp2
 70
     1
102
RTVSPropertyOp3
 70
     1
102
RTVSPropertyOp4
 70
     1
102
RTVSPropertyOp5
 70
     1
102
RTVSPropertyOp6
 70
     1
102
RTVSPropertyOp7
 70
     1
102
RTVSPropertyOp8
 70
     1
102
RTVSPropertyOp9
 70
     1
102
RTVSPropertyOp10
 70
     1
102
RTVSPropertyOp11
 70
     1
102
RTVSPropertyOp12
 70
     1
102
RTVSPropertyOp13
 70
     1
102
RTVSPropertyOp14
 70
     1
102
RTVSPropertyOp15
 70
     1
102
RTVSPropertyOp16
 70
     1
102
RTVSPropertyOp17
 70
     1
102
RTVSPropertyOp18
 70
     1
102
RTVSPropertyOp19
 70
     1
102
RTVSPropertyOp20
 70
     1
102
RTVSPropertyOp21
 70
     1
102
RTVSPropertyOp22
 70
     1
102
RTVSPropertyOp23
 70
     1
102
RTVSPropertyOp24
 70
     1
102
RTVSPropertyOp25
 70
     1
102
RTVSPropertyOp26
 70
     1
102
RTVSPropertyOp27
 70
     1
102
RTVSPropertyOp28
 70
     1
102
RTVSPropertyOp29
 70
     1
102
RTVSPropertyOp30
 70
     1
102
RTVSPropertyOp31
 70
     1
102
RTVSPropertyOp32
 70
     1
  0
XRECORD
  5
528C4
102
{ACAD_REACTORS
330
528C3
102
}
330
528C3
100
AcDbXrecord
280
     1
102
RTVSPropertyOp0
 70
     1
102
RTVSPropertyOp1
 70
     1
102
RTVSPropertyOp2
 70
     1
102
RTVSPropertyOp3
 70
     1
102
RTVSPropertyOp4
 70
     1
102
RTVSPropertyOp5
 70
     1
102
RTVSPropertyOp6
 70
     1
102
RTVSPropertyOp7
 70
     1
102
RTVSPropertyOp8
 70
     1
102
RTVSPropertyOp9
 70
     1
102
RTVSPropertyOp10
 70
     1
102
RTVSPropertyOp11
 70
     1
102
RTVSPropertyOp12
 70
     1
102
RTVSPropertyOp13
 70
     1
102
RTVSPropertyOp14
 70
     1
102
RTVSPropertyOp15
 70
     1
102
RTVSPropertyOp16
 70
     1
102
RTVSPropertyOp17
 70
     1
102
RTVSPropertyOp18
 70
     1
102
RTVSPropertyOp19
 70
     1
102
RTVSPropertyOp20
 70
     1
102
RTVSPropertyOp21
 70
     1
102
RTVSPropertyOp22
 70
     1
102
RTVSPropertyOp23
 70
     1
102
RTVSPropertyOp24
 70
     1
102
RTVSPropertyOp25
 70
     1
102
RTVSPropertyOp26
 70
     1
102
RTVSPropertyOp27
 70
     1
102
RTVSPropertyOp28
 70
     1
102
RTVSPropertyOp29
 70
     1
102
RTVSPropertyOp30
 70
     1
102
RTVSPropertyOp31
 70
     1
102
RTVSPropertyOp32
 70
     1
  0
XRECORD
  5
528CD
102
{ACAD_REACTORS
330
528CC
102
}
330
528CC
100
AcDbXrecord
280
     1
102
RTVSPropertyOp0
 70
     1
102
RTVSPropertyOp1
 70
     1
102
RTVSPropertyOp2
 70
     1
102
RTVSPropertyOp3
 70
     1
102
RTVSPropertyOp4
 70
     1
102
RTVSPropertyOp5
 70
     1
102
RTVSPropertyOp6
 70
     1
102
RTVSPropertyOp7
 70
     1
102
RTVSPropertyOp8
 70
     1
102
RTVSPropertyOp9
 70
     1
102
RTVSPropertyOp10
 70
     1
102
RTVSPropertyOp11
 70
     1
102
RTVSPropertyOp12
 70
     1
102
RTVSPropertyOp13
 70
     1
102
RTVSPropertyOp14
 70
     1
102
RTVSPropertyOp15
 70
     1
102
RTVSPropertyOp16
 70
     1
102
RTVSPropertyOp17
 70
     1
102
RTVSPropertyOp18
 70
     1
102
RTVSPropertyOp19
 70
     1
102
RTVSPropertyOp20
 70
     1
102
RTVSPropertyOp21
 70
     1
102
RTVSPropertyOp22
 70
     1
102
RTVSPropertyOp23
 70
     1
102
RTVSPropertyOp24
 70
     1
102
RTVSPropertyOp25
 70
     1
102
RTVSPropertyOp26
 70
     1
102
RTVSPropertyOp27
 70
     1
102
RTVSPropertyOp28
 70
     1
102
RTVSPropertyOp29
 70
     1
102
RTVSPropertyOp30
 70
     1
102
RTVSPropertyOp31
 70
     1
102
RTVSPropertyOp32
 70
     1
  0
XRECORD
  5
528D5
102
{ACAD_REACTORS
330
528D4
102
}
330
528D4
100
AcDbXrecord
280
     1
102
RTVSPropertyOp0
 70
     1
102
RTVSPropertyOp1
 70
     1
102
RTVSPropertyOp2
 70
     1
102
RTVSPropertyOp3
 70
     1
102
RTVSPropertyOp4
 70
     1
102
RTVSPropertyOp5
 70
     1
102
RTVSPropertyOp6
 70
     1
102
RTVSPropertyOp7
 70
     1
102
RTVSPropertyOp8
 70
     1
102
RTVSPropertyOp9
 70
     1
102
RTVSPropertyOp10
 70
     1
102
RTVSPropertyOp11
 70
     1
102
RTVSPropertyOp12
 70
     1
102
RTVSPropertyOp13
 70
     1
102
RTVSPropertyOp14
 70
     1
102
RTVSPropertyOp15
 70
     1
102
RTVSPropertyOp16
 70
     1
102
RTVSPropertyOp17
 70
     1
102
RTVSPropertyOp18
 70
     1
102
RTVSPropertyOp19
 70
     1
102
RTVSPropertyOp20
 70
     1
102
RTVSPropertyOp21
 70
     1
102
RTVSPropertyOp22
 70
     1
102
RTVSPropertyOp23
 70
     1
102
RTVSPropertyOp24
 70
     1
102
RTVSPropertyOp25
 70
     1
102
RTVSPropertyOp26
 70
     1
102
RTVSPropertyOp27
 70
     1
102
RTVSPropertyOp28
 70
     1
102
RTVSPropertyOp29
 70
     1
102
RTVSPropertyOp30
 70
     1
102
RTVSPropertyOp31
 70
     1
102
RTVSPropertyOp32
 70
     1
  0
ENDSEC
  0
EOF
