  0
SECTION
  2
HEADER
  9
$ACADVER
  1
AC1015
  9
$ACADMAINTVER
 70
    13
  9
$DWGCODEPAGE
  3
ANSI_932
  9
$INSBASE
 10
0.0
 20
0.0
 30
0.0
  9
$EXTMIN
 10
1002.565376810996
 20
148.8254130056786
 30
-0.0015258207003583
  9
$EXTMAX
 10
1287.098967606496
 20
346.6387048129854
 30
0.0000000349246037
  9
$LIMMIN
 10
0.0
 20
0.0
  9
$LIMMAX
 10
420.0
 20
297.0
  9
$ORTHOMODE
 70
     0
  9
$REGENMODE
 70
     1
  9
$FILLMODE
 70
     1
  9
$QTEXTMODE
 70
     0
  9
$MIRRTEXT
 70
     1
  9
$LTSCALE
 40
1.0
  9
$ATTMODE
 70
     1
  9
$TEXTSIZE
 40
5.0
  9
$TRACEWID
 40
0.05
  9
$TEXTSTYLE
  7
ACAD
  9
$CLAYER
  8
0
  9
$CELTYPE
  6
CONTINUOUS
  9
$CECOLOR
 62
   256
  9
$CELTSCALE
 40
1.0
  9
$DISPSILH
 70
     0
  9
$DIMSCALE
 40
1.0
  9
$DIMASZ
 40
1.0
  9
$DIMEXO
 40
0.0
  9
$DIMDLI
 40
0.38
  9
$DIMRND
 40
0.0
  9
$DIMDLE
 40
0.0
  9
$DIMEXE
 40
0.0
  9
$DIMTP
 40
0.0
  9
$DIMTM
 40
0.0
  9
$DIMTXT
 40
5.0
  9
$DIMCEN
 40
0.09
  9
$DIMTSZ
 40
0.0
  9
$DIMTOL
 70
     0
  9
$DIMLIM
 70
     0
  9
$DIMTIH
 70
     0
  9
$DIMTOH
 70
     1
  9
$DIMSE1
 70
     0
  9
$DIMSE2
 70
     0
  9
$DIMTAD
 70
     1
  9
$DIMZIN
 70
     0
  9
$DIMBLK
  1
Open30
  9
$DIMASO
 70
     1
  9
$DIMSHO
 70
     1
  9
$DIMPOST
  1

  9
$DIMAPOST
  1

  9
$DIMALT
 70
     0
  9
$DIMALTD
 70
     2
  9
$DIMALTF
 40
25.4
  9
$DIMLFAC
 40
1.0
  9
$DIMTOFL
 70
     0
  9
$DIMTVP
 40
0.0
  9
$DIMTIX
 70
     1
  9
$DIMSOXD
 70
     0
  9
$DIMSAH
 70
     0
  9
$DIMBLK1
  1

  9
$DIMBLK2
  1

  9
$DIMSTYLE
  2
111
  9
$DIMCLRD
 70
     4
  9
$DIMCLRE
 70
     4
  9
$DIMCLRT
 70
     3
  9
$DIMTFAC
 40
1.0
  9
$DIMGAP
 40
1.0
  9
$DIMJUST
 70
     0
  9
$DIMSD1
 70
     0
  9
$DIMSD2
 70
     0
  9
$DIMTOLJ
 70
     1
  9
$DIMTZIN
 70
     0
  9
$DIMALTZ
 70
     0
  9
$DIMALTTZ
 70
     0
  9
$DIMUPT
 70
     0
  9
$DIMDEC
 70
     0
  9
$DIMTDEC
 70
     0
  9
$DIMALTU
 70
     2
  9
$DIMALTTD
 70
     2
  9
$DIMTXSTY
  7
ACAD
  9
$DIMAUNIT
 70
     0
  9
$DIMADEC
 70
     0
  9
$DIMALTRND
 40
0.0
  9
$DIMAZIN
 70
     0
  9
$DIMDSEP
 70
    46
  9
$DIMATFIT
 70
     0
  9
$DIMFRAC
 70
     0
  9
$DIMLDRBLK
  1
None
  9
$DIMLUNIT
 70
     2
  9
$DIMLWD
 70
    -2
  9
$DIMLWE
 70
    -2
  9
$DIMTMOVE
 70
     0
  9
$LUNITS
 70
     2
  9
$LUPREC
 70
     4
  9
$SKETCHINC
 40
0.1
  9
$FILLETRAD
 40
0.0
  9
$AUNITS
 70
     0
  9
$AUPREC
 70
     0
  9
$MENU
  1
.
  9
$ELEVATION
 40
0.0
  9
$PELEVATION
 40
0.0
  9
$THICKNESS
 40
0.0
  9
$LIMCHECK
 70
     0
  9
$CHAMFERA
 40
0.0
  9
$CHAMFERB
 40
0.0
  9
$CHAMFERC
 40
0.0
  9
$CHAMFERD
 40
0.0
  9
$SKPOLY
 70
     0
  9
$TDCREATE
 40
2454316.693457673
  9
$TDUCREATE
 40
2454316.318457673
  9
$TDUPDATE
 40
2454447.837924432
  9
$TDUUPDATE
 40
2454447.462924433
  9
$TDINDWG
 40
0.2897489120
  9
$TDUSRTIMER
 40
0.2897489120
  9
$USRTIMER
 70
     1
  9
$ANGBASE
 50
0.0
  9
$ANGDIR
 70
     0
  9
$PDMODE
 70
     0
  9
$PDSIZE
 40
0.0
  9
$PLINEWID
 40
0.0
  9
$SPLFRAME
 70
     0
  9
$SPLINETYPE
 70
     6
  9
$SPLINESEGS
 70
     8
  9
$HANDSEED
  5
F17C
  9
$SURFTAB1
 70
     6
  9
$SURFTAB2
 70
     6
  9
$SURFTYPE
 70
     6
  9
$SURFU
 70
     6
  9
$SURFV
 70
     6
  9
$UCSBASE
  2

  9
$UCSNAME
  2

  9
$UCSORG
 10
0.0
 20
0.0
 30
0.0
  9
$UCSXDIR
 10
1.0
 20
0.0
 30
0.0
  9
$UCSYDIR
 10
0.0
 20
1.0
 30
0.0
  9
$UCSORTHOREF
  2

  9
$UCSORTHOVIEW
 70
     0
  9
$UCSORGTOP
 10
0.0
 20
0.0
 30
0.0
  9
$UCSORGBOTTOM
 10
0.0
 20
0.0
 30
0.0
  9
$UCSORGLEFT
 10
0.0
 20
0.0
 30
0.0
  9
$UCSORGRIGHT
 10
0.0
 20
0.0
 30
0.0
  9
$UCSORGFRONT
 10
0.0
 20
0.0
 30
0.0
  9
$UCSORGBACK
 10
0.0
 20
0.0
 30
0.0
  9
$PUCSBASE
  2

  9
$PUCSNAME
  2

  9
$PUCSORG
 10
0.0
 20
0.0
 30
0.0
  9
$PUCSXDIR
 10
1.0
 20
0.0
 30
0.0
  9
$PUCSYDIR
 10
0.0
 20
1.0
 30
0.0
  9
$PUCSORTHOREF
  2

  9
$PUCSORTHOVIEW
 70
     0
  9
$PUCSORGTOP
 10
0.0
 20
0.0
 30
0.0
  9
$PUCSORGBOTTOM
 10
0.0
 20
0.0
 30
0.0
  9
$PUCSORGLEFT
 10
0.0
 20
0.0
 30
0.0
  9
$PUCSORGRIGHT
 10
0.0
 20
0.0
 30
0.0
  9
$PUCSORGFRONT
 10
0.0
 20
0.0
 30
0.0
  9
$PUCSORGBACK
 10
0.0
 20
0.0
 30
0.0
  9
$USERI1
 70
     0
  9
$USERI2
 70
     0
  9
$USERI3
 70
     0
  9
$USERI4
 70
     0
  9
$USERI5
 70
     0
  9
$USERR1
 40
0.0
  9
$USERR2
 40
0.0
  9
$USERR3
 40
0.0
  9
$USERR4
 40
0.0
  9
$USERR5
 40
0.0
  9
$WORLDVIEW
 70
     1
  9
$SHADEDGE
 70
     3
  9
$SHADEDIF
 70
    70
  9
$TILEMODE
 70
     1
  9
$MAXACTVP
 70
    48
  9
$PINSBASE
 10
0.0
 20
0.0
 30
0.0
  9
$PLIMCHECK
 70
     0
  9
$PEXTMIN
 10
1.000000000000000E+20
 20
1.000000000000000E+20
 30
1.000000000000000E+20
  9
$PEXTMAX
 10
-1.000000000000000E+20
 20
-1.000000000000000E+20
 30
-1.000000000000000E+20
  9
$PLIMMIN
 10
0.0
 20
0.0
  9
$PLIMMAX
 10
12.0
 20
9.0
  9
$UNITMODE
 70
     0
  9
$VISRETAIN
 70
     0
  9
$PLINEGEN
 70
     0
  9
$PSLTSCALE
 70
     1
  9
$TREEDEPTH
 70
  3020
  9
$CMLSTYLE
  2
Standard
  9
$CMLJUST
 70
     0
  9
$CMLSCALE
 40
1.0
  9
$PROXYGRAPHICS
 70
     1
  9
$MEASUREMENT
 70
     0
  9
$CELWEIGHT
370
    -1
  9
$ENDCAPS
280
     0
  9
$JOINSTYLE
280
     0
  9
$LWDISPLAY
290
     0
  9
$INSUNITS
 70
     0
  9
$HYPERLINKBASE
  1

  9
$STYLESHEET
  1

  9
$XEDIT
290
     1
  9
$CEPSNTYPE
380
     0
  9
$PSTYLEMODE
290
     1
  9
$FINGERPRINTGUID
  2
{CC7D6DEE-A9F1-4F3E-AC95-C84B62CCA3FD}
  9
$VERSIONGUID
  2
{4D44F279-E3AA-4E93-BCCE-79D15157F94A}
  9
$EXTNAMES
290
     1
  9
$PSVPSCALE
 40
0.0
  9
$OLESTARTUP
290
     0
  0
ENDSEC
  0
SECTION
  2
CLASSES
  0
CLASS
  1
ACDBDICTIONARYWDFLT
  2
AcDbDictionaryWithDefault
  3
AutoCAD 2000
 90
        0
280
     0
281
     0
  0
CLASS
  1
ACDBPLACEHOLDER
  2
AcDbPlaceHolder
  3
AutoCAD 2000
 90
        0
280
     0
281
     0
  0
CLASS
  1
LAYOUT
  2
AcDbLayout
  3
AutoCAD 2000
 90
        0
280
     0
281
     0
  0
CLASS
  1
DICTIONARYVAR
  2
AcDbDictionaryVar
  3
AutoCAD 2000
 90
        0
280
     0
281
     0
  0
CLASS
  1
LONG_TRANSACTION
  2
AcDbLongTransaction
  3
AutoCAD 2000
 90
    32768
280
     0
281
     0
  0
CLASS
  1
LWPOLYLINE
  2
AcDbPolyline
  3
AutoCAD 2000
 90
    32768
280
     0
281
     1
  0
CLASS
  1
HATCH
  2
AcDbHatch
  3
AutoCAD 2000
 90
    32768
280
     0
281
     1
  0
CLASS
  1
XRECORD
  2
AcDbXrecord
  3
AutoCAD 2000
 90
    32768
280
     0
281
     0
  0
CLASS
  1
LONG_TRANSACTION
  2
AcDbLongTransaction
  3
AutoCAD 2000
 90
    32768
280
     0
281
     0
  0
CLASS
  1
LWPOLYLINE
  2
AcDbPolyline
  3
AutoCAD 2000
 90
    32768
280
     0
281
     1
  0
CLASS
  1
HATCH
  2
AcDbHatch
  3
AutoCAD 2000
 90
    32768
280
     0
281
     1
  0
CLASS
  1
XRECORD
  2
AcDbXrecord
  3
AutoCAD 2000
 90
    32768
280
     0
281
     0
  0
CLASS
  1
LONG_TRANSACTION
  2
AcDbLongTransaction
  3
AutoCAD 2000
 90
    32768
280
     0
281
     0
  0
CLASS
  1
LWPOLYLINE
  2
AcDbPolyline
  3
AutoCAD 2000
 90
    32768
280
     0
281
     1
  0
CLASS
  1
HATCH
  2
AcDbHatch
  3
AutoCAD 2000
 90
    32768
280
     0
281
     1
  0
CLASS
  1
XRECORD
  2
AcDbXrecord
  3
AutoCAD 2000
 90
    32768
280
     0
281
     0
  0
CLASS
  1
LONG_TRANSACTION
  2
AcDbLongTransaction
  3
AutoCAD 2000
 90
    32768
280
     0
281
     0
  0
CLASS
  1
LWPOLYLINE
  2
AcDbPolyline
  3
AutoCAD 2000
 90
    32768
280
     0
281
     1
  0
CLASS
  1
HATCH
  2
AcDbHatch
  3
AutoCAD 2000
 90
    32768
280
     0
281
     1
  0
CLASS
  1
XRECORD
  2
AcDbXrecord
  3
AutoCAD 2000
 90
    32768
280
     0
281
     0
  0
CLASS
  1
LONG_TRANSACTION
  2
AcDbLongTransaction
  3
AutoCAD 2000
 90
    32768
280
     0
281
     0
  0
CLASS
  1
LWPOLYLINE
  2
AcDbPolyline
  3
AutoCAD 2000
 90
    32768
280
     0
281
     1
  0
CLASS
  1
HATCH
  2
AcDbHatch
  3
AutoCAD 2000
 90
    32768
280
     0
281
     1
  0
CLASS
  1
XRECORD
  2
AcDbXrecord
  3
AutoCAD 2000
 90
    32768
280
     0
281
     0
  0
CLASS
  1
LONG_TRANSACTION
  2
AcDbLongTransaction
  3
AutoCAD 2000
 90
    32768
280
     0
281
     0
  0
CLASS
  1
LWPOLYLINE
  2
AcDbPolyline
  3
AutoCAD 2000
 90
    32768
280
     0
281
     1
  0
CLASS
  1
HATCH
  2
AcDbHatch
  3
AutoCAD 2000
 90
    32768
280
     0
281
     1
  0
CLASS
  1
XRECORD
  2
AcDbXrecord
  3
AutoCAD 2000
 90
    32768
280
     0
281
     0
  0
CLASS
  1
LONG_TRANSACTION
  2
AcDbLongTransaction
  3
AutoCAD 2000
 90
    32768
280
     0
281
     0
  0
CLASS
  1
LWPOLYLINE
  2
AcDbPolyline
  3
AutoCAD 2000
 90
    32768
280
     0
281
     1
  0
CLASS
  1
HATCH
  2
AcDbHatch
  3
AutoCAD 2000
 90
    32768
280
     0
281
     1
  0
CLASS
  1
XRECORD
  2
AcDbXrecord
  3
AutoCAD 2000
 90
    32768
280
     0
281
     0
  0
CLASS
  1
LONG_TRANSACTION
  2
AcDbLongTransaction
  3
AutoCAD 2000
 90
    32768
280
     0
281
     0
  0
CLASS
  1
LWPOLYLINE
  2
AcDbPolyline
  3
AutoCAD 2000
 90
    32768
280
     0
281
     1
  0
CLASS
  1
HATCH
  2
AcDbHatch
  3
AutoCAD 2000
 90
    32768
280
     0
281
     1
  0
CLASS
  1
XRECORD
  2
AcDbXrecord
  3
AutoCAD 2000
 90
    32768
280
     0
281
     0
  0
CLASS
  1
LONG_TRANSACTION
  2
AcDbLongTransaction
  3
AutoCAD 2000
 90
    32768
280
     0
281
     0
  0
CLASS
  1
LWPOLYLINE
  2
AcDbPolyline
  3
AutoCAD 2000
 90
    32768
280
     0
281
     1
  0
CLASS
  1
HATCH
  2
AcDbHatch
  3
AutoCAD 2000
 90
    32768
280
     0
281
     1
  0
CLASS
  1
XRECORD
  2
AcDbXrecord
  3
AutoCAD 2000
 90
    32768
280
     0
281
     0
  0
CLASS
  1
LONG_TRANSACTION
  2
AcDbLongTransaction
  3
AutoCAD 2000
 90
    32768
280
     0
281
     0
  0
CLASS
  1
LWPOLYLINE
  2
AcDbPolyline
  3
AutoCAD 2000
 90
    32768
280
     0
281
     1
  0
CLASS
  1
HATCH
  2
AcDbHatch
  3
AutoCAD 2000
 90
    32768
280
     0
281
     1
  0
CLASS
  1
XRECORD
  2
AcDbXrecord
  3
AutoCAD 2000
 90
    32768
280
     0
281
     0
  0
CLASS
  1
LONG_TRANSACTION
  2
AcDbLongTransaction
  3
AutoCAD 2000
 90
    32768
280
     0
281
     0
  0
CLASS
  1
LWPOLYLINE
  2
AcDbPolyline
  3
AutoCAD 2000
 90
    32768
280
     0
281
     1
  0
CLASS
  1
HATCH
  2
AcDbHatch
  3
AutoCAD 2000
 90
    32768
280
     0
281
     1
  0
CLASS
  1
XRECORD
  2
AcDbXrecord
  3
AutoCAD 2000
 90
    32768
280
     0
281
     0
  0
CLASS
  1
LONG_TRANSACTION
  2
AcDbLongTransaction
  3
AutoCAD 2000
 90
    32768
280
     0
281
     0
  0
CLASS
  1
LWPOLYLINE
  2
AcDbPolyline
  3
AutoCAD 2000
 90
    32768
280
     0
281
     1
  0
CLASS
  1
HATCH
  2
AcDbHatch
  3
AutoCAD 2000
 90
    32768
280
     0
281
     1
  0
CLASS
  1
XRECORD
  2
AcDbXrecord
  3
AutoCAD 2000
 90
    32768
280
     0
281
     0
  0
CLASS
  1
LONG_TRANSACTION
  2
AcDbLongTransaction
  3
AutoCAD 2000
 90
    32768
280
     0
281
     0
  0
CLASS
  1
LWPOLYLINE
  2
AcDbPolyline
  3
AutoCAD 2000
 90
    32768
280
     0
281
     1
  0
CLASS
  1
HATCH
  2
AcDbHatch
  3
AutoCAD 2000
 90
    32768
280
     0
281
     1
  0
CLASS
  1
XRECORD
  2
AcDbXrecord
  3
AutoCAD 2000
 90
    32768
280
     0
281
     0
  0
CLASS
  1
LONG_TRANSACTION
  2
AcDbLongTransaction
  3
AutoCAD 2000
 90
    32768
280
     0
281
     0
  0
CLASS
  1
LWPOLYLINE
  2
AcDbPolyline
  3
AutoCAD 2000
 90
    32768
280
     0
281
     1
  0
CLASS
  1
HATCH
  2
AcDbHatch
  3
AutoCAD 2000
 90
    32768
280
     0
281
     1
  0
CLASS
  1
XRECORD
  2
AcDbXrecord
  3
AutoCAD 2000
 90
    32768
280
     0
281
     0
  0
CLASS
  1
LONG_TRANSACTION
  2
AcDbLongTransaction
  3
AutoCAD 2000
 90
    32768
280
     0
281
     0
  0
CLASS
  1
LWPOLYLINE
  2
AcDbPolyline
  3
AutoCAD 2000
 90
    32768
280
     0
281
     1
  0
CLASS
  1
HATCH
  2
AcDbHatch
  3
AutoCAD 2000
 90
    32768
280
     0
281
     1
  0
CLASS
  1
XRECORD
  2
AcDbXrecord
  3
AutoCAD 2000
 90
    32768
280
     0
281
     0
  0
CLASS
  1
LONG_TRANSACTION
  2
AcDbLongTransaction
  3
AutoCAD 2000
 90
    32768
280
     0
281
     0
  0
CLASS
  1
LWPOLYLINE
  2
AcDbPolyline
  3
AutoCAD 2000
 90
    32768
280
     0
281
     1
  0
CLASS
  1
HATCH
  2
AcDbHatch
  3
AutoCAD 2000
 90
    32768
280
     0
281
     1
  0
CLASS
  1
XRECORD
  2
AcDbXrecord
  3
AutoCAD 2000
 90
    32768
280
     0
281
     0
  0
CLASS
  1
LONG_TRANSACTION
  2
AcDbLongTransaction
  3
AutoCAD 2000
 90
    32768
280
     0
281
     0
  0
CLASS
  1
LWPOLYLINE
  2
AcDbPolyline
  3
AutoCAD 2000
 90
    32768
280
     0
281
     1
  0
CLASS
  1
HATCH
  2
AcDbHatch
  3
AutoCAD 2000
 90
    32768
280
     0
281
     1
  0
CLASS
  1
XRECORD
  2
AcDbXrecord
  3
AutoCAD 2000
 90
    32768
280
     0
281
     0
  0
CLASS
  1
LONG_TRANSACTION
  2
AcDbLongTransaction
  3
AutoCAD 2000
 90
    32768
280
     0
281
     0
  0
CLASS
  1
LWPOLYLINE
  2
AcDbPolyline
  3
AutoCAD 2000
 90
    32768
280
     0
281
     1
  0
CLASS
  1
HATCH
  2
AcDbHatch
  3
AutoCAD 2000
 90
    32768
280
     0
281
     1
  0
CLASS
  1
XRECORD
  2
AcDbXrecord
  3
AutoCAD 2000
 90
    32768
280
     0
281
     0
  0
CLASS
  1
LONG_TRANSACTION
  2
AcDbLongTransaction
  3
AutoCAD 2000
 90
    32768
280
     0
281
     0
  0
CLASS
  1
LWPOLYLINE
  2
AcDbPolyline
  3
AutoCAD 2000
 90
    32768
280
     0
281
     1
  0
CLASS
  1
HATCH
  2
AcDbHatch
  3
AutoCAD 2000
 90
    32768
280
     0
281
     1
  0
CLASS
  1
XRECORD
  2
AcDbXrecord
  3
AutoCAD 2000
 90
    32768
280
     0
281
     0
  0
CLASS
  1
LONG_TRANSACTION
  2
AcDbLongTransaction
  3
AutoCAD 2000
 90
    32768
280
     0
281
     0
  0
CLASS
  1
LWPOLYLINE
  2
AcDbPolyline
  3
AutoCAD 2000
 90
    32768
280
     0
281
     1
  0
CLASS
  1
HATCH
  2
AcDbHatch
  3
AutoCAD 2000
 90
    32768
280
     0
281
     1
  0
CLASS
  1
XRECORD
  2
AcDbXrecord
  3
AutoCAD 2000
 90
    32768
280
     0
281
     0
  0
CLASS
  1
LONG_TRANSACTION
  2
AcDbLongTransaction
  3
AutoCAD 2000
 90
    32768
280
     0
281
     0
  0
CLASS
  1
LWPOLYLINE
  2
AcDbPolyline
  3
AutoCAD 2000
 90
    32768
280
     0
281
     1
  0
CLASS
  1
HATCH
  2
AcDbHatch
  3
AutoCAD 2000
 90
    32768
280
     0
281
     1
  0
CLASS
  1
XRECORD
  2
AcDbXrecord
  3
AutoCAD 2000
 90
    32768
280
     0
281
     0
  0
CLASS
  1
LONG_TRANSACTION
  2
AcDbLongTransaction
  3
AutoCAD 2000
 90
    32768
280
     0
281
     0
  0
CLASS
  1
LWPOLYLINE
  2
AcDbPolyline
  3
AutoCAD 2000
 90
    32768
280
     0
281
     1
  0
CLASS
  1
HATCH
  2
AcDbHatch
  3
AutoCAD 2000
 90
    32768
280
     0
281
     1
  0
CLASS
  1
XRECORD
  2
AcDbXrecord
  3
AutoCAD 2000
 90
    32768
280
     0
281
     0
  0
CLASS
  1
LONG_TRANSACTION
  2
AcDbLongTransaction
  3
AutoCAD 2000
 90
    32768
280
     0
281
     0
  0
CLASS
  1
LWPOLYLINE
  2
AcDbPolyline
  3
AutoCAD 2000
 90
    32768
280
     0
281
     1
  0
CLASS
  1
HATCH
  2
AcDbHatch
  3
AutoCAD 2000
 90
    32768
280
     0
281
     1
  0
CLASS
  1
XRECORD
  2
AcDbXrecord
  3
AutoCAD 2000
 90
    32768
280
     0
281
     0
  0
CLASS
  1
LONG_TRANSACTION
  2
AcDbLongTransaction
  3
AutoCAD 2000
 90
    32768
280
     0
281
     0
  0
CLASS
  1
LWPOLYLINE
  2
AcDbPolyline
  3
AutoCAD 2000
 90
    32768
280
     0
281
     1
  0
CLASS
  1
HATCH
  2
AcDbHatch
  3
AutoCAD 2000
 90
    32768
280
     0
281
     1
  0
CLASS
  1
XRECORD
  2
AcDbXrecord
  3
AutoCAD 2000
 90
    32768
280
     0
281
     0
  0
CLASS
  1
LONG_TRANSACTION
  2
AcDbLongTransaction
  3
AutoCAD 2000
 90
    32768
280
     0
281
     0
  0
CLASS
  1
LWPOLYLINE
  2
AcDbPolyline
  3
AutoCAD 2000
 90
    32768
280
     0
281
     1
  0
CLASS
  1
HATCH
  2
AcDbHatch
  3
AutoCAD 2000
 90
    32768
280
     0
281
     1
  0
CLASS
  1
XRECORD
  2
AcDbXrecord
  3
AutoCAD 2000
 90
    32768
280
     0
281
     0
  0
CLASS
  1
LONG_TRANSACTION
  2
AcDbLongTransaction
  3
AutoCAD 2000
 90
    32768
280
     0
281
     0
  0
CLASS
  1
LWPOLYLINE
  2
AcDbPolyline
  3
AutoCAD 2000
 90
    32768
280
     0
281
     1
  0
CLASS
  1
HATCH
  2
AcDbHatch
  3
AutoCAD 2000
 90
    32768
280
     0
281
     1
  0
CLASS
  1
XRECORD
  2
AcDbXrecord
  3
AutoCAD 2000
 90
    32768
280
     0
281
     0
  0
CLASS
  1
LONG_TRANSACTION
  2
AcDbLongTransaction
  3
AutoCAD 2000
 90
    32768
280
     0
281
     0
  0
CLASS
  1
LWPOLYLINE
  2
AcDbPolyline
  3
AutoCAD 2000
 90
    32768
280
     0
281
     1
  0
CLASS
  1
HATCH
  2
AcDbHatch
  3
AutoCAD 2000
 90
    32768
280
     0
281
     1
  0
CLASS
  1
XRECORD
  2
AcDbXrecord
  3
AutoCAD 2000
 90
    32768
280
     0
281
     0
  0
CLASS
  1
LONG_TRANSACTION
  2
AcDbLongTransaction
  3
AutoCAD 2000
 90
    32768
280
     0
281
     0
  0
CLASS
  1
LWPOLYLINE
  2
AcDbPolyline
  3
AutoCAD 2000
 90
    32768
280
     0
281
     1
  0
CLASS
  1
HATCH
  2
AcDbHatch
  3
AutoCAD 2000
 90
    32768
280
     0
281
     1
  0
CLASS
  1
XRECORD
  2
AcDbXrecord
  3
AutoCAD 2000
 90
    32768
280
     0
281
     0
  0
CLASS
  1
LONG_TRANSACTION
  2
AcDbLongTransaction
  3
AutoCAD 2000
 90
    32768
280
     0
281
     0
  0
CLASS
  1
LWPOLYLINE
  2
AcDbPolyline
  3
AutoCAD 2000
 90
    32768
280
     0
281
     1
  0
CLASS
  1
HATCH
  2
AcDbHatch
  3
AutoCAD 2000
 90
    32768
280
     0
281
     1
  0
CLASS
  1
XRECORD
  2
AcDbXrecord
  3
AutoCAD 2000
 90
    32768
280
     0
281
     0
  0
CLASS
  1
LONG_TRANSACTION
  2
AcDbLongTransaction
  3
AutoCAD 2000
 90
    32768
280
     0
281
     0
  0
CLASS
  1
LWPOLYLINE
  2
AcDbPolyline
  3
AutoCAD 2000
 90
    32768
280
     0
281
     1
  0
CLASS
  1
HATCH
  2
AcDbHatch
  3
AutoCAD 2000
 90
    32768
280
     0
281
     1
  0
CLASS
  1
XRECORD
  2
AcDbXrecord
  3
AutoCAD 2000
 90
    32768
280
     0
281
     0
  0
CLASS
  1
LONG_TRANSACTION
  2
AcDbLongTransaction
  3
AutoCAD 2000
 90
    32768
280
     0
281
     0
  0
CLASS
  1
LWPOLYLINE
  2
AcDbPolyline
  3
AutoCAD 2000
 90
    32768
280
     0
281
     1
  0
CLASS
  1
HATCH
  2
AcDbHatch
  3
AutoCAD 2000
 90
    32768
280
     0
281
     1
  0
CLASS
  1
XRECORD
  2
AcDbXrecord
  3
AutoCAD 2000
 90
    32768
280
     0
281
     0
  0
CLASS
  1
LONG_TRANSACTION
  2
AcDbLongTransaction
  3
AutoCAD 2000
 90
    32768
280
     0
281
     0
  0
CLASS
  1
LWPOLYLINE
  2
AcDbPolyline
  3
AutoCAD 2000
 90
    32768
280
     0
281
     1
  0
CLASS
  1
HATCH
  2
AcDbHatch
  3
AutoCAD 2000
 90
    32768
280
     0
281
     1
  0
CLASS
  1
XRECORD
  2
AcDbXrecord
  3
AutoCAD 2000
 90
    32768
280
     0
281
     0
  0
CLASS
  1
LONG_TRANSACTION
  2
AcDbLongTransaction
  3
AutoCAD 2000
 90
    32768
280
     0
281
     0
  0
CLASS
  1
LWPOLYLINE
  2
AcDbPolyline
  3
AutoCAD 2000
 90
    32768
280
     0
281
     1
  0
CLASS
  1
HATCH
  2
AcDbHatch
  3
AutoCAD 2000
 90
    32768
280
     0
281
     1
  0
CLASS
  1
XRECORD
  2
AcDbXrecord
  3
AutoCAD 2000
 90
    32768
280
     0
281
     0
  0
CLASS
  1
LONG_TRANSACTION
  2
AcDbLongTransaction
  3
AutoCAD 2000
 90
    32768
280
     0
281
     0
  0
CLASS
  1
LWPOLYLINE
  2
AcDbPolyline
  3
AutoCAD 2000
 90
    32768
280
     0
281
     1
  0
CLASS
  1
HATCH
  2
AcDbHatch
  3
AutoCAD 2000
 90
    32768
280
     0
281
     1
  0
CLASS
  1
XRECORD
  2
AcDbXrecord
  3
AutoCAD 2000
 90
    32768
280
     0
281
     0
  0
CLASS
  1
LONG_TRANSACTION
  2
AcDbLongTransaction
  3
AutoCAD 2000
 90
    32768
280
     0
281
     0
  0
CLASS
  1
LWPOLYLINE
  2
AcDbPolyline
  3
AutoCAD 2000
 90
    32768
280
     0
281
     1
  0
CLASS
  1
HATCH
  2
AcDbHatch
  3
AutoCAD 2000
 90
    32768
280
     0
281
     1
  0
CLASS
  1
XRECORD
  2
AcDbXrecord
  3
AutoCAD 2000
 90
    32768
280
     0
281
     0
  0
CLASS
  1
LONG_TRANSACTION
  2
AcDbLongTransaction
  3
AutoCAD 2000
 90
    32768
280
     0
281
     0
  0
CLASS
  1
LWPOLYLINE
  2
AcDbPolyline
  3
AutoCAD 2000
 90
    32768
280
     0
281
     1
  0
CLASS
  1
HATCH
  2
AcDbHatch
  3
AutoCAD 2000
 90
    32768
280
     0
281
     1
  0
CLASS
  1
XRECORD
  2
AcDbXrecord
  3
AutoCAD 2000
 90
    32768
280
     0
281
     0
  0
CLASS
  1
LONG_TRANSACTION
  2
AcDbLongTransaction
  3
AutoCAD 2000
 90
    32768
280
     0
281
     0
  0
CLASS
  1
LWPOLYLINE
  2
AcDbPolyline
  3
AutoCAD 2000
 90
    32768
280
     0
281
     1
  0
CLASS
  1
HATCH
  2
AcDbHatch
  3
AutoCAD 2000
 90
    32768
280
     0
281
     1
  0
CLASS
  1
XRECORD
  2
AcDbXrecord
  3
AutoCAD 2000
 90
    32768
280
     0
281
     0
  0
CLASS
  1
LONG_TRANSACTION
  2
AcDbLongTransaction
  3
AutoCAD 2000
 90
    32768
280
     0
281
     0
  0
CLASS
  1
LWPOLYLINE
  2
AcDbPolyline
  3
AutoCAD 2000
 90
    32768
280
     0
281
     1
  0
CLASS
  1
HATCH
  2
AcDbHatch
  3
AutoCAD 2000
 90
    32768
280
     0
281
     1
  0
CLASS
  1
XRECORD
  2
AcDbXrecord
  3
AutoCAD 2000
 90
    32768
280
     0
281
     0
  0
CLASS
  1
LONG_TRANSACTION
  2
AcDbLongTransaction
  3
AutoCAD 2000
 90
    32768
280
     0
281
     0
  0
CLASS
  1
LWPOLYLINE
  2
AcDbPolyline
  3
AutoCAD 2000
 90
    32768
280
     0
281
     1
  0
CLASS
  1
HATCH
  2
AcDbHatch
  3
AutoCAD 2000
 90
    32768
280
     0
281
     1
  0
CLASS
  1
XRECORD
  2
AcDbXrecord
  3
AutoCAD 2000
 90
    32768
280
     0
281
     0
  0
ENDSEC
  0
SECTION
  2
TABLES
  0
TABLE
  2
VPORT
  5
8
330
0
100
AcDbSymbolTable
 70
     5
  0
VPORT
  5
F17B
330
8
100
AcDbSymbolTableRecord
100
AcDbViewportTableRecord
  2
*Active
 70
     0
 10
0.0
 20
0.0
 11
1.0
 21
1.0
 12
1144.832172208746
 22
247.732058909332
 13
0.0
 23
0.0
 14
1.0
 24
1.0
 15
0.0
 25
0.0
 16
0.0
 26
0.0
 36
1.0
 17
0.0
 27
0.0
 37
0.0
 40
199.3647686057954
 41
1.578534031413612
 42
50.0
 43
0.0
 44
0.0
 50
0.0
 51
0.0
 71
     0
 72
   100
 73
     1
 74
     1
 75
     0
 76
     0
 77
     0
 78
     0
281
     0
 65
     1
110
0.0
120
0.0
130
0.0
111
1.0
121
0.0
131
0.0
112
0.0
122
1.0
132
0.0
 79
     0
146
0.0
  0
ENDTAB
  0
TABLE
  2
LTYPE
  5
5
330
0
100
AcDbSymbolTable
 70
    50
  0
LTYPE
  5
13
330
5
100
AcDbSymbolTableRecord
100
AcDbLinetypeTableRecord
  2
ByBlock
 70
     0
  3

 72
    65
 73
     0
 40
0.0
  0
LTYPE
  5
14
330
5
100
AcDbSymbolTableRecord
100
AcDbLinetypeTableRecord
  2
ByLayer
 70
     0
  3

 72
    65
 73
     0
 40
0.0
  0
LTYPE
  5
15
330
5
100
AcDbSymbolTableRecord
100
AcDbLinetypeTableRecord
  2
CONTINUOUS
 70
     0
  3
実線
 72
    65
 73
     0
 40
0.0
  0
LTYPE
  5
22
330
5
100
AcDbSymbolTableRecord
100
AcDbLinetypeTableRecord
  2
DASHED1
 70
     0
  3
--  --  --  --  --  --  --  --  
 72
    65
 73
     2
 40
2.5
 49
1.25
 74
     0
 49
-1.25
 74
     0
  0
LTYPE
  5
23
330
5
100
AcDbSymbolTableRecord
100
AcDbLinetypeTableRecord
  2
DASHED2
 70
     0
  3
----    ----    ----    ----    
 72
    65
 73
     2
 40
5.0
 49
2.5
 74
     0
 49
-2.5
 74
     0
  0
LTYPE
  5
24
330
5
100
AcDbSymbolTableRecord
100
AcDbLinetypeTableRecord
  2
DASHED3
 70
     0
  3
------  ------  ------  ------  
 72
    65
 73
     2
 40
5.0
 49
3.75
 74
     0
 49
-1.25
 74
     0
  0
LTYPE
  5
25
330
5
100
AcDbSymbolTableRecord
100
AcDbLinetypeTableRecord
  2
CENTER1
 70
     0
  3
----- - ----- - ----- - ----- - 
 72
    65
 73
     4
 40
10.0
 49
6.25
 74
     0
 49
-1.25
 74
     0
 49
1.25
 74
     0
 49
-1.25
 74
     0
  0
LTYPE
  5
26
330
5
100
AcDbSymbolTableRecord
100
AcDbLinetypeTableRecord
  2
CENTER2
 70
     0
  3
----------  --  ----------  --  
 72
    65
 73
     4
 40
20.0
 49
12.5
 74
     0
 49
-2.5
 74
     0
 49
2.5
 74
     0
 49
-2.5
 74
     0
  0
LTYPE
  5
27
330
5
100
AcDbSymbolTableRecord
100
AcDbLinetypeTableRecord
  2
PHANTOM1
 70
     0
  3
--- - - --- - - --- - - --- - - 
 72
    65
 73
     6
 40
10.0
 49
3.25
 74
     0
 49
-1.25
 74
     0
 49
1.25
 74
     0
 49
-1.25
 74
     0
 49
1.25
 74
     0
 49
-1.25
 74
     0
  0
LTYPE
  5
28
330
5
100
AcDbSymbolTableRecord
100
AcDbLinetypeTableRecord
  2
PHANTOM2
 70
     0
  3
--------  -  -  --------  -  -  
 72
    65
 73
     6
 40
20.0
 49
10.0
 74
     0
 49
-2.5
 74
     0
 49
1.25
 74
     0
 49
-2.5
 74
     0
 49
1.25
 74
     0
 49
-2.5
 74
     0
  0
LTYPE
  5
29
330
5
100
AcDbSymbolTableRecord
100
AcDbLinetypeTableRecord
  2
DOT
 70
     0
  3
-   -   -   -   -   -   -   -   
 72
    65
 73
     2
 40
2.5
 49
0.625
 74
     0
 49
-1.875
 74
     0
  0
LTYPE
  5
2A
330
5
100
AcDbSymbolTableRecord
100
AcDbLinetypeTableRecord
  2
DUMMY
 70
     0
  3
ダミー
 72
    65
 73
     0
 40
0.0
  0
LTYPE
  5
2B
330
5
100
AcDbSymbolTableRecord
100
AcDbLinetypeTableRecord
  2
RAND1
 70
     0
  3
ランダム線1
 72
    65
 73
     4
 40
10.0
 49
1.0
 74
     0
 49
-2.0
 74
     0
 49
3.0
 74
     0
 49
-4.0
 74
     0
  0
LTYPE
  5
2C
330
5
100
AcDbSymbolTableRecord
100
AcDbLinetypeTableRecord
  2
RAND2
 70
     0
  3
ランダム線2
 72
    65
 73
     4
 40
14.0
 49
2.0
 74
     0
 49
-3.0
 74
     0
 49
4.0
 74
     0
 49
-5.0
 74
     0
  0
LTYPE
  5
2D
330
5
100
AcDbSymbolTableRecord
100
AcDbLinetypeTableRecord
  2
RAND3
 70
     0
  3
ランダム線3
 72
    65
 73
     4
 40
18.0
 49
3.0
 74
     0
 49
-4.0
 74
     0
 49
5.0
 74
     0
 49
-6.0
 74
     0
  0
LTYPE
  5
2E
330
5
100
AcDbSymbolTableRecord
100
AcDbLinetypeTableRecord
  2
RAND4
 70
     0
  3
ランダム線4
 72
    65
 73
     4
 40
22.0
 49
4.0
 74
     0
 49
-5.0
 74
     0
 49
6.0
 74
     0
 49
-7.0
 74
     0
  0
LTYPE
  5
2F
330
5
100
AcDbSymbolTableRecord
100
AcDbLinetypeTableRecord
  2
RAND5
 70
     0
  3
ランダム線5
 72
    65
 73
     4
 40
26.0
 49
5.0
 74
     0
 49
-6.0
 74
     0
 49
7.0
 74
     0
 49
-8.0
 74
     0
  0
LTYPE
  5
30
330
5
100
AcDbSymbolTableRecord
100
AcDbLinetypeTableRecord
  2
LONG1
 70
     0
  3
----------  --  ----------  --  
 72
    65
 73
     4
 40
40.0
 49
32.5
 74
     0
 49
-2.5
 74
     0
 49
2.5
 74
     0
 49
-2.5
 74
     0
  0
LTYPE
  5
31
330
5
100
AcDbSymbolTableRecord
100
AcDbLinetypeTableRecord
  2
LONG2
 70
     0
  3
--------  -  -  --------  -  -  
 72
    65
 73
     6
 40
40.0
 49
30.0
 74
     0
 49
-2.5
 74
     0
 49
1.25
 74
     0
 49
-2.5
 74
     0
 49
1.25
 74
     0
 49
-2.5
 74
     0
  0
LTYPE
  5
32
330
5
100
AcDbSymbolTableRecord
100
AcDbLinetypeTableRecord
  2
LONG3
 70
     0
  3
+++++++++++++++..+++++++++++++++
 72
    65
 73
     2
 40
40.0
 49
37.5
 74
     0
 49
-2.5
 74
     0
  0
LTYPE
  5
33
330
5
100
AcDbSymbolTableRecord
100
AcDbLinetypeTableRecord
  2
LONG4
 70
     0
  3
+++++++++++++++..+++++++++++++++
 72
    65
 73
     2
 40
80.0
 49
75.0
 74
     0
 49
-5.0
 74
     0
  0
LTYPE
  5
34
330
5
100
AcDbSymbolTableRecord
100
AcDbLinetypeTableRecord
  2
LONG5
 70
     0
  3
----------  --  ----------  --  
 72
    65
 73
     4
 40
60.0
 49
37.5
 74
     0
 49
-7.5
 74
     0
 49
7.5
 74
     0
 49
-7.5
 74
     0
  0
LTYPE
  5
35
330
5
100
AcDbSymbolTableRecord
100
AcDbLinetypeTableRecord
  2
DASHED
 70
     0
  3
-------   -------------   ------
 72
    65
 73
     2
 40
7.5
 49
6.0
 74
     0
 49
-1.5
 74
     0
  0
LTYPE
  5
36
330
5
100
AcDbSymbolTableRecord
100
AcDbLinetypeTableRecord
  2
DASHED_SPACED
 70
     0
  3
----        --------        ----
 72
    65
 73
     2
 40
12.0
 49
6.0
 74
     0
 49
-6.0
 74
     0
  0
LTYPE
  5
37
330
5
100
AcDbSymbolTableRecord
100
AcDbLinetypeTableRecord
  2
LONG_DASHED_DOTTED
 70
     0
  3
------------- --- --------------
 72
    65
 73
     4
 40
15.25
 49
12.0
 74
     0
 49
-1.5
 74
     0
 49
0.25
 74
     0
 49
-1.5
 74
     0
  0
LTYPE
  5
38
330
5
100
AcDbSymbolTableRecord
100
AcDbLinetypeTableRecord
  2
LONG_DASHED_DOUBLE-DOTTED
 70
     0
  3
----------- --- --- ------------
 72
    65
 73
     6
 40
17.0
 49
12.0
 74
     0
 49
-1.5
 74
     0
 49
0.25
 74
     0
 49
-1.5
 74
     0
 49
0.25
 74
     0
 49
-1.5
 74
     0
  0
LTYPE
  5
39
330
5
100
AcDbSymbolTableRecord
100
AcDbLinetypeTableRecord
  2
LONG_DASHED_TRIPLICATE-DOTTED
 70
     0
  3
--------- --- --- --- ----------
 72
    65
 73
     8
 40
18.75
 49
12.0
 74
     0
 49
-1.5
 74
     0
 49
0.25
 74
     0
 49
-1.5
 74
     0
 49
0.25
 74
     0
 49
-1.5
 74
     0
 49
0.25
 74
     0
 49
-1.5
 74
     0
  0
LTYPE
  5
3A
330
5
100
AcDbSymbolTableRecord
100
AcDbLinetypeTableRecord
  2
DOTTED
 70
     0
  3
   -       -       -       -    
 72
    65
 73
     2
 40
1.75
 49
0.25
 74
     0
 49
-1.5
 74
     0
  0
LTYPE
  5
3B
330
5
100
AcDbSymbolTableRecord
100
AcDbLinetypeTableRecord
  2
CHAIN
 70
     0
  3
-------------- -- --------------
 72
    65
 73
     4
 40
18.5
 49
12.0
 74
     0
 49
-1.5
 74
     0
 49
3.5
 74
     0
 49
-1.5
 74
     0
  0
LTYPE
  5
3C
330
5
100
AcDbSymbolTableRecord
100
AcDbLinetypeTableRecord
  2
CHAIN_DOUBLE_DASH
 70
     0
  3
------------ -- -- -------------
 72
    65
 73
     6
 40
23.5
 49
12.0
 74
     0
 49
-1.5
 74
     0
 49
3.5
 74
     0
 49
-1.5
 74
     0
 49
3.5
 74
     0
 49
-1.5
 74
     0
  0
LTYPE
  5
3D
330
5
100
AcDbSymbolTableRecord
100
AcDbLinetypeTableRecord
  2
DASHED_DOTTED
 70
     0
  3
-----------     -     ----------
 72
    65
 73
     4
 40
9.25
 49
6.0
 74
     0
 49
-1.5
 74
     0
 49
0.25
 74
     0
 49
-1.5
 74
     0
  0
LTYPE
  5
3E
330
5
100
AcDbSymbolTableRecord
100
AcDbLinetypeTableRecord
  2
DOUBLE-DASHED_DOTTED
 70
     0
  3
------   -----------   -   -----
 72
    65
 73
     6
 40
16.75
 49
6.0
 74
     0
 49
-1.5
 74
     0
 49
6.0
 74
     0
 49
-1.5
 74
     0
 49
0.25
 74
     0
 49
-1.5
 74
     0
  0
LTYPE
  5
3F
330
5
100
AcDbSymbolTableRecord
100
AcDbLinetypeTableRecord
  2
DASHED_DOUBLE-DOTTED
 70
     0
  3
---------    -    -    ---------
 72
    65
 73
     6
 40
11.0
 49
6.0
 74
     0
 49
-1.5
 74
     0
 49
0.25
 74
     0
 49
-1.5
 74
     0
 49
0.25
 74
     0
 49
-1.5
 74
     0
  0
LTYPE
  5
40
330
5
100
AcDbSymbolTableRecord
100
AcDbLinetypeTableRecord
  2
DOUBLE-DASHED_DOUBLE-DOTTED
 70
     0
  3
-----   ---------   -   -   ----
 72
    65
 73
     8
 40
18.5
 49
6.0
 74
     0
 49
-1.5
 74
     0
 49
6.0
 74
     0
 49
-1.5
 74
     0
 49
0.25
 74
     0
 49
-1.5
 74
     0
 49
0.25
 74
     0
 49
-1.5
 74
     0
  0
LTYPE
  5
41
330
5
100
AcDbSymbolTableRecord
100
AcDbLinetypeTableRecord
  2
DASHED_TRIPLICATE-DOTTED
 70
     0
  3
-------    -    -    -    ------
 72
    65
 73
     8
 40
12.75
 49
6.0
 74
     0
 49
-1.5
 74
     0
 49
0.25
 74
     0
 49
-1.5
 74
     0
 49
0.25
 74
     0
 49
-1.5
 74
     0
 49
0.25
 74
     0
 49
-1.5
 74
     0
  0
LTYPE
  5
42
330
5
100
AcDbSymbolTableRecord
100
AcDbLinetypeTableRecord
  2
DOUBLE-DASHED_TRIPLICATE-DOTTED
 70
     0
  3
-----  ---------  -  -  -  -----
 72
    65
 73
    10
 40
20.24999999999999
 49
6.0
 74
     0
 49
-1.5
 74
     0
 49
6.0
 74
     0
 49
-1.5
 74
     0
 49
0.25
 74
     0
 49
-1.5
 74
     0
 49
0.25
 74
     0
 49
-1.5
 74
     0
 49
0.25
 74
     0
 49
-1.5
 74
     0
  0
LTYPE
  5
43
330
5
100
AcDbSymbolTableRecord
100
AcDbLinetypeTableRecord
  2
UNDEFINED
 70
     0
  3
--------------------------------
 72
    65
 73
     0
 40
0.0
  0
LTYPE
  5
44
330
5
100
AcDbSymbolTableRecord
100
AcDbLinetypeTableRecord
  2
PLINE2
 70
     0
  3
------     -----------     -----
 72
    65
 73
     2
 40
3.0
 49
2.1
 74
     0
 49
-0.9
 74
     0
  0
LTYPE
  5
45
330
5
100
AcDbSymbolTableRecord
100
AcDbLinetypeTableRecord
  2
PLINE3
 70
     0
  3
------------   ---   -----------
 72
    65
 73
     4
 40
10.0
 49
7.0
 74
     0
 49
-1.0
 74
     0
 49
1.0
 74
     0
 49
-1.0
 74
     0
  0
LTYPE
  5
46
330
5
100
AcDbSymbolTableRecord
100
AcDbLinetypeTableRecord
  2
PLINE4
 70
     0
  3
---------   ---   ---   --------
 72
    65
 73
     6
 40
10.0
 49
5.0
 74
     0
 49
-1.0
 74
     0
 49
1.0
 74
     0
 49
-1.0
 74
     0
 49
1.0
 74
     0
 49
-1.0
 74
     0
  0
LTYPE
  5
47
330
5
100
AcDbSymbolTableRecord
100
AcDbLinetypeTableRecord
  2
PLINE5
 70
     0
  3
------     -----------     -----
 72
    65
 73
     2
 40
5.0
 49
3.5
 74
     0
 49
-1.5
 74
     0
  0
LTYPE
  5
48
330
5
100
AcDbSymbolTableRecord
100
AcDbLinetypeTableRecord
  2
PLINE6
 70
     0
  3
------------   ---   -----------
 72
    65
 73
     4
 40
15.0
 49
10.5
 74
     0
 49
-1.5
 74
     0
 49
1.5
 74
     0
 49
-1.5
 74
     0
  0
LTYPE
  5
49
330
5
100
AcDbSymbolTableRecord
100
AcDbLinetypeTableRecord
  2
PLINE7
 70
     0
  3
---------   ---   ---   --------
 72
    65
 73
     6
 40
15.0
 49
7.5
 74
     0
 49
-1.5
 74
     0
 49
1.5
 74
     0
 49
-1.5
 74
     0
 49
1.5
 74
     0
 49
-1.5
 74
     0
  0
LTYPE
  5
4A
330
5
100
AcDbSymbolTableRecord
100
AcDbLinetypeTableRecord
  2
PLINE8
 70
     0
  3
------     -----------     -----
 72
    65
 73
     2
 40
7.0
 49
4.9
 74
     0
 49
-2.1
 74
     0
  0
LTYPE
  5
4B
330
5
100
AcDbSymbolTableRecord
100
AcDbLinetypeTableRecord
  2
PLINE9
 70
     0
  3
------------   ---   -----------
 72
    65
 73
     4
 40
20.0
 49
14.0
 74
     0
 49
-2.0
 74
     0
 49
2.0
 74
     0
 49
-2.0
 74
     0
  0
LTYPE
  5
4C
330
5
100
AcDbSymbolTableRecord
100
AcDbLinetypeTableRecord
  2
PLINE10
 70
     0
  3
---------   ---   ---   --------
 72
    65
 73
     6
 40
20.0
 49
10.0
 74
     0
 49
-2.0
 74
     0
 49
2.0
 74
     0
 49
-2.0
 74
     0
 49
2.0
 74
     0
 49
-2.0
 74
     0
  0
LTYPE
  5
4D
330
5
100
AcDbSymbolTableRecord
100
AcDbLinetypeTableRecord
  2
PLINE11
 70
     0
  3
------     -----------     -----
 72
    65
 73
     2
 40
9.0
 49
6.299999999999999
 74
     0
 49
-2.7
 74
     0
  0
LTYPE
  5
4E
330
5
100
AcDbSymbolTableRecord
100
AcDbLinetypeTableRecord
  2
PLINE12
 70
     0
  3
------------   ---   -----------
 72
    65
 73
     4
 40
25.0
 49
17.5
 74
     0
 49
-2.5
 74
     0
 49
2.5
 74
     0
 49
-2.5
 74
     0
  0
LTYPE
  5
4F
330
5
100
AcDbSymbolTableRecord
100
AcDbLinetypeTableRecord
  2
PLINE13
 70
     0
  3
---------   ---   ---   --------
 72
    65
 73
     6
 40
25.0
 49
12.5
 74
     0
 49
-2.5
 74
     0
 49
2.5
 74
     0
 49
-2.5
 74
     0
 49
2.5
 74
     0
 49
-2.5
 74
     0
  0
LTYPE
  5
50
330
5
100
AcDbSymbolTableRecord
100
AcDbLinetypeTableRecord
  2
PLINE14
 70
     0
  3
------     -----------     -----
 72
    65
 73
     2
 40
11.0
 49
7.7
 74
     0
 49
-3.299999999999999
 74
     0
  0
LTYPE
  5
51
330
5
100
AcDbSymbolTableRecord
100
AcDbLinetypeTableRecord
  2
PLINE15
 70
     0
  3
------------   ---   -----------
 72
    65
 73
     4
 40
30.0
 49
21.0
 74
     0
 49
-3.0
 74
     0
 49
3.0
 74
     0
 49
-3.0
 74
     0
  0
LTYPE
  5
52
330
5
100
AcDbSymbolTableRecord
100
AcDbLinetypeTableRecord
  2
PLINE16
 70
     0
  3
---------   ---   ---   --------
 72
    65
 73
     6
 40
30.0
 49
15.0
 74
     0
 49
-3.0
 74
     0
 49
3.0
 74
     0
 49
-3.0
 74
     0
 49
3.0
 74
     0
 49
-3.0
 74
     0
  0
ENDTAB
  0
TABLE
  2
LAYER
  5
2
102
{ACAD_XDICTIONARY
360
175
102
}
330
0
100
AcDbSymbolTable
 70
     6
  0
LAYER
  5
10
330
2
100
AcDbSymbolTableRecord
100
AcDbLayerTableRecord
  2
0
 70
     0
 62
     7
  6
CONTINUOUS
370
    -3
390
F
  0
LAYER
  5
128
330
2
100
AcDbSymbolTableRecord
100
AcDbLayerTableRecord
  2
Defpoints
 70
     0
 62
     7
  6
CONTINUOUS
290
     0
370
    -3
390
F
  0
LAYER
  5
178
330
2
100
AcDbSymbolTableRecord
100
AcDbLayerTableRecord
  2
寸法
 70
     0
 62
     7
  6
CONTINUOUS
370
    -3
390
F
  0
LAYER
  5
179
330
2
100
AcDbSymbolTableRecord
100
AcDbLayerTableRecord
  2
躯体と製品
 70
     0
 62
     7
  6
CONTINUOUS
370
    -3
390
F
  0
LAYER
  5
604A
330
2
100
AcDbSymbolTableRecord
100
AcDbLayerTableRecord
  2
図面枠
 70
     0
 62
     7
  6
CONTINUOUS
370
    -3
390
F
  0
LAYER
  5
6AAF
330
2
100
AcDbSymbolTableRecord
100
AcDbLayerTableRecord
  2
文字-記号
 70
     0
 62
     7
  6
CONTINUOUS
370
    -3
390
F
  0
ENDTAB
  0
TABLE
  2
STYLE
  5
3
330
0
100
AcDbSymbolTable
 70
     4
  0
STYLE
  5
11
330
3
100
AcDbSymbolTableRecord
100
AcDbTextStyleTableRecord
  2
STANDARD
 70
     0
 40
0.0
 41
1.0
 50
0.0
 71
     0
 42
0.2
  3
txt
  4
bigfont.shx
  0
STYLE
  5
53
330
3
100
AcDbSymbolTableRecord
100
AcDbTextStyleTableRecord
  2
TATEGAKI
 70
     4
 40
0.0
 41
1.0
 50
0.0
 71
     0
 42
1.0
  3
txt
  4
bigfont.shx
  0
STYLE
  5
123
330
3
100
AcDbSymbolTableRecord
100
AcDbTextStyleTableRecord
  2
ACAD
 70
     0
 40
3.0
 41
0.8
 50
0.0
 71
     0
 42
5.0
  3
romans.shx
  4
extfont.shx
  0
STYLE
  5
3A5F
330
3
100
AcDbSymbolTableRecord
100
AcDbTextStyleTableRecord
  2
VERTXT
 70
     4
 40
0.0
 41
0.8582679999999999
 50
0.0
 71
     0
 42
3.5
  3
txt.shx
  4
BIGFONT
  0
ENDTAB
  0
TABLE
  2
VIEW
  5
6
330
0
100
AcDbSymbolTable
 70
     0
  0
ENDTAB
  0
TABLE
  2
UCS
  5
7
330
0
100
AcDbSymbolTable
 70
     0
  0
ENDTAB
  0
TABLE
  2
APPID
  5
9
330
0
100
AcDbSymbolTable
 70
     1
  0
APPID
  5
12
330
9
100
AcDbSymbolTableRecord
100
AcDbRegAppTableRecord
  2
ACAD
 70
     0
  0
ENDTAB
  0
TABLE
  2
DIMSTYLE
  5
A
330
0
100
AcDbSymbolTable
 70
     3
100
AcDbDimStyleTable
 71
     1
340
2CBB
  0
DIMSTYLE
105
11C
330
A
100
AcDbSymbolTableRecord
100
AcDbDimStyleTableRecord
  2
Standard
 70
     0
340
11
  0
DIMSTYLE
105
126
330
A
100
AcDbSymbolTableRecord
100
AcDbDimStyleTableRecord
  2
AutoCAD
 70
     0
 41
1.0
 42
0.0
 44
0.0
 73
     0
 77
     1
140
5.0
147
1.0
174
     1
176
     4
177
     4
178
     3
271
     0
272
     0
289
     0
340
123
341
15B0
342
11E
  0
DIMSTYLE
105
2CBB
102
{ACAD_REACTORS
330
F033
330
F040
330
F056
330
F063
330
F070
330
F07D
102
}
330
A
100
AcDbSymbolTableRecord
100
AcDbDimStyleTableRecord
  2
111
 70
     0
 41
1.0
 42
0.0
 44
0.0
 73
     0
 77
     1
140
5.0
147
1.0
174
     1
176
     4
177
     4
178
     3
271
     0
272
     0
289
     0
340
123
341
15B0
342
2CB5
  0
ENDTAB
  0
TABLE
  2
BLOCK_RECORD
  5
1
330
0
100
AcDbSymbolTable
 70
    10
  0
BLOCK_RECORD
  5
1E
102
{ACAD_XDICTIONARY
360
28B
102
}
330
1
100
AcDbSymbolTableRecord
100
AcDbBlockTableRecord
  2
*Model_Space
340
21
  0
BLOCK_RECORD
  5
1A
102
{ACAD_XDICTIONARY
360
28D
102
}
330
1
100
AcDbSymbolTableRecord
100
AcDbBlockTableRecord
  2
*Paper_Space
340
1D
  0
BLOCK_RECORD
  5
11E
330
1
100
AcDbSymbolTableRecord
100
AcDbBlockTableRecord
  2
_Dot
340
0
  0
BLOCK_RECORD
  5
15B0
330
1
100
AcDbSymbolTableRecord
100
AcDbBlockTableRecord
  2
_None
340
0
  0
BLOCK_RECORD
  5
2CB5
330
1
100
AcDbSymbolTableRecord
100
AcDbBlockTableRecord
  2
_Open30
340
0
102
{BLKREFS
331
F038
331
F039
331
F050
331
F051
331
F05B
331
F05C
331
F075
331
F076
331
F082
331
F083
331
F08D
331
F08E
102
}
  0
BLOCK_RECORD
  5
35E3
330
1
100
AcDbSymbolTableRecord
100
AcDbBlockTableRecord
  2
_DotBlank
340
0
  0
BLOCK_RECORD
  5
F034
330
1
100
AcDbSymbolTableRecord
100
AcDbBlockTableRecord
  2
*D4
340
0
  0
BLOCK_RECORD
  5
F041
330
1
100
AcDbSymbolTableRecord
100
AcDbBlockTableRecord
  2
*D5
340
0
  0
BLOCK_RECORD
  5
F057
330
1
100
AcDbSymbolTableRecord
100
AcDbBlockTableRecord
  2
*D6
340
0
  0
BLOCK_RECORD
  5
F064
330
1
100
AcDbSymbolTableRecord
100
AcDbBlockTableRecord
  2
*D7
340
0
  0
BLOCK_RECORD
  5
F071
330
1
100
AcDbSymbolTableRecord
100
AcDbBlockTableRecord
  2
*D8
340
0
  0
BLOCK_RECORD
  5
F07E
330
1
100
AcDbSymbolTableRecord
100
AcDbBlockTableRecord
  2
*D9
340
0
  0
ENDTAB
  0
ENDSEC
  0
SECTION
  2
BLOCKS
  0
BLOCK
  5
1F
330
1E
100
AcDbEntity
  8
0
100
AcDbBlockBegin
  2
*Model_Space
 70
     0
 10
0.0
 20
0.0
 30
0.0
  3
*Model_Space
  1

  0
ENDBLK
  5
20
330
1E
100
AcDbEntity
  8
0
100
AcDbBlockEnd
  0
BLOCK
  5
1B
330
1A
100
AcDbEntity
 67
     1
  8
0
100
AcDbBlockBegin
  2
*Paper_Space
 70
     0
 10
0.0
 20
0.0
 30
0.0
  3
*Paper_Space
  1

  0
ENDBLK
  5
1C
330
1A
100
AcDbEntity
 67
     1
  8
0
100
AcDbBlockEnd
  0
BLOCK
  5
121
330
11E
100
AcDbEntity
  8
0
100
AcDbBlockBegin
  2
_Dot
 70
     0
 10
0.0
 20
0.0
 30
0.0
  3
_Dot
  1

  0
LWPOLYLINE
  5
11F
330
11E
100
AcDbEntity
  8
0
  6
ByBlock
 62
     0
100
AcDbPolyline
 90
        2
 70
     1
 43
0.5
 10
-0.25
 20
0.0
 42
1.0
 10
0.25
 20
0.0
 42
1.0
  0
LINE
  5
120
330
11E
100
AcDbEntity
  8
0
  6
ByBlock
 62
     0
370
    -2
100
AcDbLine
 10
-0.5
 20
0.0
 30
0.0
 11
-1.0
 21
0.0
 31
0.0
  0
ENDBLK
  5
122
330
11E
100
AcDbEntity
  8
0
100
AcDbBlockEnd
  0
BLOCK
  5
15B1
330
15B0
100
AcDbEntity
  8
0
100
AcDbBlockBegin
  2
_None
 70
     0
 10
0.0
 20
0.0
 30
0.0
  3
_None
  1

  0
ENDBLK
  5
15B2
330
15B0
100
AcDbEntity
  8
0
100
AcDbBlockEnd
  0
BLOCK
  5
2CB9
330
2CB5
100
AcDbEntity
  8
0
100
AcDbBlockBegin
  2
_Open30
 70
     0
 10
0.0
 20
0.0
 30
0.0
  3
_Open30
  1

  0
LINE
  5
2CB6
330
2CB5
100
AcDbEntity
  8
0
  6
ByBlock
 62
     0
370
    -2
100
AcDbLine
 10
-1.0
 20
0.26794919
 30
0.0
 11
0.0
 21
0.0
 31
0.0
  0
LINE
  5
2CB7
330
2CB5
100
AcDbEntity
  8
0
  6
ByBlock
 62
     0
370
    -2
100
AcDbLine
 10
0.0
 20
0.0
 30
0.0
 11
-1.0
 21
-0.26794919
 31
0.0
  0
LINE
  5
2CB8
330
2CB5
100
AcDbEntity
  8
0
  6
ByBlock
 62
     0
370
    -2
100
AcDbLine
 10
0.0
 20
0.0
 30
0.0
 11
-1.0
 21
0.0
 31
0.0
  0
ENDBLK
  5
2CBA
330
2CB5
100
AcDbEntity
  8
0
100
AcDbBlockEnd
  0
BLOCK
  5
35E6
330
35E3
100
AcDbEntity
  8
0
100
AcDbBlockBegin
  2
_DotBlank
 70
     0
 10
0.0
 20
0.0
 30
0.0
  3
_DotBlank
  1

  0
CIRCLE
  5
35E4
330
35E3
100
AcDbEntity
  8
0
  6
ByBlock
 62
     0
370
    -2
100
AcDbCircle
 10
0.0
 20
0.0
 30
0.0
 40
0.5
  0
LINE
  5
35E5
330
35E3
100
AcDbEntity
  8
0
  6
ByBlock
 62
     0
370
    -2
100
AcDbLine
 10
-0.5
 20
0.0
 30
0.0
 11
-1.0
 21
0.0
 31
0.0
  0
ENDBLK
  5
35E7
330
35E3
100
AcDbEntity
  8
0
100
AcDbBlockEnd
  0
BLOCK
  5
F03E
330
F034
100
AcDbEntity
  8
0
100
AcDbBlockBegin
  2
*D4
 70
     1
 10
0.0
 20
0.0
 30
0.0
  3
*D4
  1

  0
LINE
  5
F035
330
F034
100
AcDbEntity
  8
寸法
  6
Continuous
 62
     4
370
    -2
100
AcDbLine
 10
1008.501241932391
 20
248.3271474766309
 30
0.0
 11
1008.501241932391
 21
275.8646315096605
 31
0.0
  0
LINE
  5
F036
330
F034
100
AcDbEntity
  8
寸法
  6
Continuous
 62
     4
370
    -2
100
AcDbLine
 10
1078.501233977461
 20
248.3271474766309
 30
0.0
 11
1078.501233977461
 21
275.8646315096605
 31
0.0
  0
LINE
  5
F037
330
F034
100
AcDbEntity
  8
寸法
  6
Continuous
 62
     4
370
    -2
100
AcDbLine
 10
1009.501241932391
 20
275.8646315096605
 30
0.0
 11
1077.501233977461
 21
275.8646315096605
 31
0.0
  0
INSERT
  5
F038
330
F034
100
AcDbEntity
  8
寸法
  6
Continuous
 62
     4
370
    -2
100
AcDbBlockReference
  2
_Open30
 10
1008.501241932391
 20
275.8646315096605
 30
0.0
 50
180.0
  0
INSERT
  5
F039
330
F034
100
AcDbEntity
  8
寸法
  6
Continuous
 62
     4
370
    -2
100
AcDbBlockReference
  2
_Open30
 10
1078.501233977461
 20
275.8646315096605
 30
0.0
  0
MTEXT
  5
F03A
330
F034
100
AcDbEntity
  8
寸法
  6
Continuous
 62
     3
100
AcDbMText
 10
1043.501237954925
 20
278.3646315096605
 30
0.0
 40
3.0
 41
0.0
 71
     5
 72
     1
  1
\A1;70
  7
ACAD
 73
     1
 44
1.0
  0
POINT
  5
F03B
330
F034
100
AcDbEntity
  8
Defpoints
  6
Continuous
 62
     0
100
AcDbPoint
 10
1008.501241932391
 20
248.3271474766309
 30
0.0
  0
POINT
  5
F03C
330
F034
100
AcDbEntity
  8
Defpoints
  6
Continuous
 62
     0
100
AcDbPoint
 10
1078.501233977461
 20
248.3271474766309
 30
0.0
  0
POINT
  5
F03D
330
F034
100
AcDbEntity
  8
Defpoints
  6
Continuous
 62
     0
100
AcDbPoint
 10
1078.501233977461
 20
275.8646315096605
 30
0.0
  0
ENDBLK
  5
F03F
330
F034
100
AcDbEntity
  8
0
100
AcDbBlockEnd
  0
BLOCK
  5
F04B
330
F041
100
AcDbEntity
  8
0
100
AcDbBlockBegin
  2
*D5
 70
     1
 10
0.0
 20
0.0
 30
0.0
  3
*D5
  1

  0
LINE
  5
F04D
330
F041
100
AcDbEntity
  8
寸法
  6
Continuous
 62
     4
370
    -2
100
AcDbLine
 10
1046.501237954925
 20
267.2962404209081
 30
0.0
 11
1090.766889128564
 21
267.2962404209081
 31
0.0
  0
LINE
  5
F04E
330
F041
100
AcDbEntity
  8
寸法
  6
Continuous
 62
     4
370
    -2
100
AcDbLine
 10
1075.833852053664
 20
233.110887668846
 30
0.0
 11
1090.766889128564
 21
233.1108876688459
 31
0.0
  0
LINE
  5
F04F
330
F041
100
AcDbEntity
  8
寸法
  6
Continuous
 62
     4
370
    -2
100
AcDbLine
 10
1090.766889128564
 20
266.2962404209081
 30
0.0
 11
1090.766889128564
 21
234.1108876688459
 31
0.0
  0
INSERT
  5
F050
330
F041
100
AcDbEntity
  8
寸法
  6
Continuous
 62
     4
370
    -2
100
AcDbBlockReference
  2
_Open30
 10
1090.766889128564
 20
267.2962404209081
 30
0.0
 50
90.0
  0
INSERT
  5
F051
330
F041
100
AcDbEntity
  8
寸法
  6
Continuous
 62
     4
370
    -2
100
AcDbBlockReference
  2
_Open30
 10
1090.766889128564
 20
233.1108876688459
 30
0.0
 50
270.0
  0
MTEXT
  5
F052
330
F041
100
AcDbEntity
  8
寸法
  6
Continuous
 62
     3
100
AcDbMText
 10
1088.266889128564
 20
250.2035640448772
 30
0.0
 40
3.0
 41
0.0
 71
     5
 72
     1
  1
\A1;35
  7
ACAD
 11
0.0000000000000001
 21
1.0
 31
0.0
 73
     1
 44
1.0
  0
POINT
  5
F053
330
F041
100
AcDbEntity
  8
Defpoints
  6
Continuous
 62
     0
100
AcDbPoint
 10
1046.501237954925
 20
267.2962404209081
 30
0.0
  0
POINT
  5
F054
330
F041
100
AcDbEntity
  8
Defpoints
  6
Continuous
 62
     0
100
AcDbPoint
 10
1075.833852053664
 20
233.110887668846
 30
0.0
  0
POINT
  5
F055
330
F041
100
AcDbEntity
  8
Defpoints
  6
Continuous
 62
     0
100
AcDbPoint
 10
1090.766889128564
 20
233.1108876688459
 30
0.0
  0
ENDBLK
  5
F04C
330
F041
100
AcDbEntity
  8
0
100
AcDbBlockEnd
  0
BLOCK
  5
F061
330
F057
100
AcDbEntity
  8
0
100
AcDbBlockBegin
  2
*D6
 70
     1
 10
0.0
 20
0.0
 30
0.0
  3
*D6
  1

  0
LINE
  5
F058
330
F057
100
AcDbEntity
  8
寸法
  6
Continuous
 62
     4
370
    -2
100
AcDbLine
 10
1104.626760432391
 20
249.3271474766308
 30
0.0
 11
1104.626760432391
 21
275.8646315096605
 31
0.0
  0
LINE
  5
F059
330
F057
100
AcDbEntity
  8
寸法
  6
Continuous
 62
     4
370
    -2
100
AcDbLine
 10
1174.62675247746
 20
249.3271474766308
 30
0.0
 11
1174.62675247746
 21
275.8646315096605
 31
0.0
  0
LINE
  5
F05A
330
F057
100
AcDbEntity
  8
寸法
  6
Continuous
 62
     4
370
    -2
100
AcDbLine
 10
1105.626760432391
 20
275.8646315096605
 30
0.0
 11
1173.626752477461
 21
275.8646315096605
 31
0.0
  0
INSERT
  5
F05B
330
F057
100
AcDbEntity
  8
寸法
  6
Continuous
 62
     4
370
    -2
100
AcDbBlockReference
  2
_Open30
 10
1104.626760432391
 20
275.8646315096605
 30
0.0
 50
180.0
  0
INSERT
  5
F05C
330
F057
100
AcDbEntity
  8
寸法
  6
Continuous
 62
     4
370
    -2
100
AcDbBlockReference
  2
_Open30
 10
1174.62675247746
 20
275.8646315096605
 30
0.0
  0
MTEXT
  5
F05D
330
F057
100
AcDbEntity
  8
寸法
  6
Continuous
 62
     3
100
AcDbMText
 10
1139.626756454926
 20
278.3646315096605
 30
0.0
 40
3.0
 41
0.0
 71
     5
 72
     1
  1
\A1;70
  7
ACAD
 73
     1
 44
1.0
  0
POINT
  5
F05E
330
F057
100
AcDbEntity
  8
Defpoints
  6
Continuous
 62
     0
100
AcDbPoint
 10
1104.626760432391
 20
249.3271474766308
 30
0.0
  0
POINT
  5
F05F
330
F057
100
AcDbEntity
  8
Defpoints
  6
Continuous
 62
     0
100
AcDbPoint
 10
1174.62675247746
 20
249.3271474766308
 30
0.0
  0
POINT
  5
F060
330
F057
100
AcDbEntity
  8
Defpoints
  6
Continuous
 62
     0
100
AcDbPoint
 10
1174.62675247746
 20
275.8646315096605
 30
0.0
  0
ENDBLK
  5
F062
330
F057
100
AcDbEntity
  8
0
100
AcDbBlockEnd
  0
BLOCK
  5
F06E
330
F064
100
AcDbEntity
  8
0
100
AcDbBlockBegin
  2
*D7
 70
     1
 10
0.0
 20
0.0
 30
0.0
  3
*D7
  1

  0
LINE
  5
F08A
330
F064
100
AcDbEntity
  8
寸法
  6
Continuous
 62
     4
370
    -2
100
AcDbLine
 10
1142.626756454925
 20
268.2962404209081
 30
0.0
 11
1186.892407628564
 21
268.296240420908
 31
0.0
  0
LINE
  5
F08B
330
F064
100
AcDbEntity
  8
寸法
  6
Continuous
 62
     4
370
    -2
100
AcDbLine
 10
1171.959370553665
 20
234.1108876688459
 30
0.0
 11
1186.892407628564
 21
234.1108876688459
 31
0.0
  0
LINE
  5
F08C
330
F064
100
AcDbEntity
  8
寸法
  6
Continuous
 62
     4
370
    -2
100
AcDbLine
 10
1186.892407628564
 20
267.296240420908
 30
0.0
 11
1186.892407628564
 21
235.110887668846
 31
0.0
  0
INSERT
  5
F08D
330
F064
100
AcDbEntity
  8
寸法
  6
Continuous
 62
     4
370
    -2
100
AcDbBlockReference
  2
_Open30
 10
1186.892407628564
 20
268.296240420908
 30
0.0
 50
90.0
  0
INSERT
  5
F08E
330
F064
100
AcDbEntity
  8
寸法
  6
Continuous
 62
     4
370
    -2
100
AcDbBlockReference
  2
_Open30
 10
1186.892407628564
 20
234.1108876688459
 30
0.0
 50
270.0
  0
MTEXT
  5
F08F
330
F064
100
AcDbEntity
  8
寸法
  6
Continuous
 62
     3
100
AcDbMText
 10
1184.392407628564
 20
251.2035640448771
 30
0.0
 40
3.0
 41
0.0
 71
     5
 72
     1
  1
\A1;35
  7
ACAD
 11
0.0000000000000001
 21
1.0
 31
0.0
 73
     1
 44
1.0
  0
POINT
  5
F090
330
F064
100
AcDbEntity
  8
Defpoints
  6
Continuous
 62
     0
100
AcDbPoint
 10
1142.626756454925
 20
268.2962404209081
 30
0.0
  0
POINT
  5
F091
330
F064
100
AcDbEntity
  8
Defpoints
  6
Continuous
 62
     0
100
AcDbPoint
 10
1171.959370553665
 20
234.1108876688459
 30
0.0
  0
POINT
  5
F092
330
F064
100
AcDbEntity
  8
Defpoints
  6
Continuous
 62
     0
100
AcDbPoint
 10
1186.892407628564
 20
234.1108876688459
 30
0.0
  0
ENDBLK
  5
F06F
330
F064
100
AcDbEntity
  8
0
100
AcDbBlockEnd
  0
BLOCK
  5
F07B
330
F071
100
AcDbEntity
  8
0
100
AcDbBlockBegin
  2
*D8
 70
     1
 10
0.0
 20
0.0
 30
0.0
  3
*D8
  1

  0
LINE
  5
F072
330
F071
100
AcDbEntity
  8
寸法
  6
Continuous
 62
     4
370
    -2
100
AcDbLine
 10
1201.503885648275
 20
251.4778221790916
 30
0.0
 11
1201.503885648275
 21
275.8646315096605
 31
0.0
  0
LINE
  5
F073
330
F071
100
AcDbEntity
  8
寸法
  6
Continuous
 62
     4
370
    -2
100
AcDbLine
 10
1271.503885648275
 20
251.4778221790916
 30
0.0
 11
1271.503885648275
 21
275.8646315096605
 31
0.0
  0
LINE
  5
F074
330
F071
100
AcDbEntity
  8
寸法
  6
Continuous
 62
     4
370
    -2
100
AcDbLine
 10
1202.503885648275
 20
275.8646315096605
 30
0.0
 11
1270.503885648275
 21
275.8646315096605
 31
0.0
  0
INSERT
  5
F075
330
F071
100
AcDbEntity
  8
寸法
  6
Continuous
 62
     4
370
    -2
100
AcDbBlockReference
  2
_Open30
 10
1201.503885648275
 20
275.8646315096605
 30
0.0
 50
180.0
  0
INSERT
  5
F076
330
F071
100
AcDbEntity
  8
寸法
  6
Continuous
 62
     4
370
    -2
100
AcDbBlockReference
  2
_Open30
 10
1271.503885648275
 20
275.8646315096605
 30
0.0
  0
MTEXT
  5
F077
330
F071
100
AcDbEntity
  8
寸法
  6
Continuous
 62
     3
100
AcDbMText
 10
1236.503885648275
 20
278.3646315096605
 30
0.0
 40
3.0
 41
0.0
 71
     5
 72
     1
  1
\A1;70
  7
ACAD
 73
     1
 44
1.0
  0
POINT
  5
F078
330
F071
100
AcDbEntity
  8
Defpoints
  6
Continuous
 62
     0
100
AcDbPoint
 10
1201.503885648275
 20
251.4778221790916
 30
0.0
  0
POINT
  5
F079
330
F071
100
AcDbEntity
  8
Defpoints
  6
Continuous
 62
     0
100
AcDbPoint
 10
1271.503885648275
 20
251.4778221790916
 30
0.0
  0
POINT
  5
F07A
330
F071
100
AcDbEntity
  8
Defpoints
  6
Continuous
 62
     0
100
AcDbPoint
 10
1271.503885648275
 20
275.8646315096605
 30
0.0
  0
ENDBLK
  5
F07C
330
F071
100
AcDbEntity
  8
0
100
AcDbBlockEnd
  0
BLOCK
  5
F088
330
F07E
100
AcDbEntity
  8
0
100
AcDbBlockBegin
  2
*D9
 70
     1
 10
0.0
 20
0.0
 30
0.0
  3
*D9
  1

  0
LINE
  5
F07F
330
F07E
100
AcDbEntity
  8
寸法
  6
Continuous
 62
     4
370
    -2
100
AcDbLine
 10
1247.123955648275
 20
269.0490321790917
 30
0.0
 11
1281.503885648275
 21
269.0490321790917
 31
0.0
  0
LINE
  5
F080
330
F07E
100
AcDbEntity
  8
寸法
  6
Continuous
 62
     4
370
    -2
100
AcDbLine
 10
1267.092985648275
 20
234.0490321790916
 30
0.0
 11
1281.503885648275
 21
234.0490321790916
 31
0.0
  0
LINE
  5
F081
330
F07E
100
AcDbEntity
  8
寸法
  6
Continuous
 62
     4
370
    -2
100
AcDbLine
 10
1281.503885648275
 20
268.0490321790916
 30
0.0
 11
1281.503885648275
 21
235.0490321790916
 31
0.0
  0
INSERT
  5
F082
330
F07E
100
AcDbEntity
  8
寸法
  6
Continuous
 62
     4
370
    -2
100
AcDbBlockReference
  2
_Open30
 10
1281.503885648275
 20
269.0490321790917
 30
0.0
 50
90.0
  0
INSERT
  5
F083
330
F07E
100
AcDbEntity
  8
寸法
  6
Continuous
 62
     4
370
    -2
100
AcDbBlockReference
  2
_Open30
 10
1281.503885648275
 20
234.0490321790916
 30
0.0
 50
270.0
  0
MTEXT
  5
F084
330
F07E
100
AcDbEntity
  8
寸法
  6
Continuous
 62
     3
100
AcDbMText
 10
1279.003885648275
 20
251.5490321790918
 30
0.0
 40
3.0
 41
0.0
 71
     5
 72
     1
  1
\A1;35
  7
ACAD
 11
0.0000000000000001
 21
1.0
 31
0.0
 73
     1
 44
1.0
  0
POINT
  5
F085
330
F07E
100
AcDbEntity
  8
Defpoints
  6
Continuous
 62
     0
100
AcDbPoint
 10
1247.123955648275
 20
269.0490321790917
 30
0.0
  0
POINT
  5
F086
330
F07E
100
AcDbEntity
  8
Defpoints
  6
Continuous
 62
     0
100
AcDbPoint
 10
1267.092985648275
 20
234.0490321790916
 30
0.0
  0
POINT
  5
F087
330
F07E
100
AcDbEntity
  8
Defpoints
  6
Continuous
 62
     0
100
AcDbPoint
 10
1281.503885648275
 20
234.0490321790916
 30
0.0
  0
ENDBLK
  5
F089
330
F07E
100
AcDbEntity
  8
0
100
AcDbBlockEnd
  0
ENDSEC
  0
SECTION
  2
ENTITIES
  0
LINE
  5
EC85
330
1E
100
AcDbEntity
  8
躯体と製品
  6
Continuous
 62
     7
100
AcDbLine
 10
1148.126766454925
 20
242.1546187559109
 30
0.0
 11
1142.126766454926
 21
242.1546187559109
 31
0.0
  0
LINE
  5
EC86
330
1E
100
AcDbEntity
  8
躯体と製品
  6
Continuous
 62
     7
100
AcDbLine
 10
1150.326766454925
 20
240.6546187559109
 30
0.0
 11
1128.926766454925
 21
240.6546187559109
 31
0.0
  0
LINE
  5
EC87
330
1E
100
AcDbEntity
  8
躯体と製品
  6
Continuous
 62
     3
100
AcDbLine
 10
1139.926756454926
 20
266.7962404209081
 30
0.0
 11
1146.27688274344
 21
266.7962404209081
 31
0.0
  0
ARC
  5
EC88
330
1E
100
AcDbEntity
  8
躯体と製品
  6
Continuous
 62
     3
100
AcDbCircle
 10
1140.701888391104
 20
218.3157346688904
 30
0.0
 40
50.0
100
AcDbArc
 50
65.49616200000163
 51
91.23210540644906
  0
LINE
  5
EC89
330
1E
100
AcDbEntity
  8
文字-記号
  6
Continuous
 62
     4
100
AcDbLine
 10
1126.274226431216
 20
205.6195283846415
 30
0.0
 11
1153.121324611422
 21
205.6195283846415
 31
0.0
  0
LINE
  5
EC8A
330
1E
100
AcDbEntity
  8
文字-記号
  6
Continuous
 62
     4
100
AcDbLine
 10
1126.274226431216
 20
208.870592536419
 30
0.0
 11
1153.121324611422
 21
208.870592536419
 31
0.0
  0
TEXT
  5
EC8B
330
1E
100
AcDbEntity
  8
文字-記号
 62
     7
100
AcDbText
 10
1127.963670427417
 20
205.5893464125372
 30
0.0
 40
3.0
  1
パネルタイプ用
 41
0.8
  7
ACAD
100
AcDbText
  0
TEXT
  5
EC8E
330
1E
100
AcDbEntity
  8
図面枠
 62
     7
100
AcDbText
 10
1128.102090554659
 20
157.0756027550085
 30
0.0
 40
3.0
  1
2005.10.1
 41
0.8
  7
ACAD
100
AcDbText
  0
LINE
  5
EC8F
330
1E
100
AcDbEntity
  8
図面枠
  6
Continuous
 62
     7
100
AcDbLine
 10
1117.608890554659
 20
155.5406527550085
 30
0.0
 11
1152.888890554659
 21
155.5406527550085
 31
0.0
  0
LINE
  5
EC90
330
1E
100
AcDbEntity
  8
図面枠
  6
Continuous
 62
     7
100
AcDbLine
 10
1287.098240554659
 20
162.2438527550085
 30
0.0
 11
1002.596126554659
 21
162.2438527550085
 31
0.0
  0
LINE
  5
EC91
330
1E
100
AcDbEntity
  8
図面枠
  6
Continuous
 62
     7
100
AcDbLine
 10
1002.596126554659
 20
346.6281257550085
 30
0.0
 11
1287.098240554659
 21
346.6281257550085
 31
0.0
  0
LINE
  5
EC92
330
1E
100
AcDbEntity
  8
図面枠
  6
Continuous
 62
     7
100
AcDbLine
 10
1002.596126554659
 20
148.8374537550085
 30
0.0
 11
1287.098240554659
 21
148.8374537550085
 31
0.0
  0
ARC
  5
EC93
330
1E
100
AcDbEntity
  8
躯体と製品
  6
Continuous
 62
     3
100
AcDbCircle
 10
1129.796078775859
 20
238.5057356316616
 30
0.0
 40
26.8
100
AcDbArc
 50
115.3365490000018
 51
135.5830169999985
  0
ARC
  5
EC94
330
1E
100
AcDbEntity
  8
躯体と製品
  6
Continuous
 62
     3
100
AcDbCircle
 10
1129.796078775859
 20
238.5057356316616
 30
0.0
 40
28.0
100
AcDbArc
 50
115.3365490000018
 51
135.5146310000005
  0
ARC
  5
EC95
330
1E
100
AcDbEntity
  8
躯体と製品
  6
Continuous
 62
     3
100
AcDbCircle
 10
1033.67056027586
 20
237.5057356316616
 30
0.0
 40
26.8
100
AcDbArc
 50
115.3365490000018
 51
135.5830169999985
  0
ARC
  5
EC96
330
1E
100
AcDbEntity
  8
躯体と製品
  6
Continuous
 62
     3
100
AcDbCircle
 10
1033.67056027586
 20
237.5057356316616
 30
0.0
 40
28.0
100
AcDbArc
 50
115.3365490000018
 51
135.5146310000005
  0
ARC
  5
EC97
330
1E
100
AcDbEntity
  8
躯体と製品
  6
Continuous
 62
     3
100
AcDbCircle
 10
1053.331915633992
 20
237.5057356316616
 30
0.0
 40
26.8
100
AcDbArc
 50
44.41698300000143
 51
64.66345099999812
  0
ARC
  5
EC98
330
1E
100
AcDbEntity
  8
躯体と製品
  6
Continuous
 62
     3
100
AcDbCircle
 10
1053.331915633992
 20
237.5057356316616
 30
0.0
 40
28.0
100
AcDbArc
 50
44.48536899999942
 51
64.66345099999812
  0
LINE
  5
EC9D
330
1E
100
AcDbEntity
  8
躯体と製品
  6
CENTER1
 62
     4
100
AcDbLine
 10
1139.626766454925
 20
272.9463394209081
 30
0.0
 11
1139.626766454925
 21
218.1168414209081
 31
0.0
  0
LINE
  5
EC9E
330
1E
100
AcDbEntity
  8
躯体と製品
  6
CENTER1
 62
     4
100
AcDbLine
 10
1043.501237954925
 20
272.9463504209082
 30
0.0
 11
1043.501237954925
 21
217.1168494209081
 31
0.0
  0
LINE
  5
EC9F
330
1E
100
AcDbEntity
  8
図面枠
  6
Continuous
 62
     7
100
AcDbLine
 10
1002.596126554659
 20
148.8374537550085
 30
0.0
 11
1002.596126554659
 21
346.6281257550085
 31
0.0
  0
LINE
  5
ECA0
330
1E
100
AcDbEntity
  8
躯体と製品
  6
Continuous
 62
     7
100
AcDbLine
 10
1052.501237954926
 20
241.9546187559109
 30
0.0
 11
1052.001237954925
 21
242.4546187559109
 31
0.0
  0
LINE
  5
ECA1
330
1E
100
AcDbEntity
  8
躯体と製品
  6
Continuous
 62
     7
100
AcDbLine
 10
1033.251237954925
 20
240.6546187559109
 30
0.0
 11
1053.751237954925
 21
240.6546187559109
 31
0.0
  0
TEXT
  5
ECA2
330
1E
100
AcDbEntity
  8
図面枠
 62
     7
100
AcDbText
 10
1017.462912554659
 20
153.0347657550085
 30
0.0
 40
3.0
  1
トップレール６０Ｄ
 41
0.8
  7
ACAD
100
AcDbText
  0
TEXT
  5
ECA3
330
1E
100
AcDbEntity
  8
図面枠
 62
     7
100
AcDbText
 10
1003.890662554659
 20
155.7095687550085
 30
0.0
 40
3.0
  1
品
 41
0.8
  7
ACAD
100
AcDbText
  0
TEXT
  5
ECA4
330
1E
100
AcDbEntity
  8
図面枠
 62
     7
100
AcDbText
 10
1003.922549554659
 20
158.6112657550085
 30
0.0
 40
3.0
  1
商
 41
0.8
  7
ACAD
100
AcDbText
  0
TEXT
  5
ECA5
330
1E
100
AcDbEntity
  8
図面枠
 62
     7
100
AcDbText
 10
1003.893175554659
 20
152.6517057550085
 30
0.0
 40
3.0
  1
名
 41
0.8
  7
ACAD
100
AcDbText
  0
TEXT
  5
ECA6
330
1E
100
AcDbEntity
  8
図面枠
 62
     7
100
AcDbText
 10
1003.985810554659
 20
149.7235627550085
 30
0.0
 40
3.0
  1
称
 41
0.8
  7
ACAD
100
AcDbText
  0
LINE
  5
ECA7
330
1E
100
AcDbEntity
  8
図面枠
  6
Continuous
 62
     7
100
AcDbLine
 10
1008.240926554659
 20
162.2438527550085
 30
0.0
 11
1008.240926554659
 21
148.8374537550085
 31
0.0
  0
LINE
  5
ECA8
330
1E
100
AcDbEntity
  8
文字-記号
  6
Continuous
 62
     4
100
AcDbLine
 10
1049.626968782454
 20
210.0343998432387
 30
0.0
 11
1049.626968782454
 21
206.7833356914612
 31
0.0
  0
LINE
  5
ECA9
330
1E
100
AcDbEntity
  8
文字-記号
  6
Continuous
 62
     4
100
AcDbLine
 10
1037.594510817453
 20
210.0343998432387
 30
0.0
 11
1037.594510817453
 21
206.7833356914612
 31
0.0
  0
TEXT
  5
ECAA
330
1E
100
AcDbEntity
  8
文字-記号
 62
     7
100
AcDbText
 10
1038.516102452799
 20
206.7585956671073
 30
0.0
 40
3.0
  1
格子用
 41
0.8
  7
ACAD
100
AcDbText
  0
LINE
  5
ECAB
330
1E
100
AcDbEntity
  8
文字-記号
  6
Continuous
 62
     4
100
AcDbLine
 10
1037.594510817453
 20
206.7833356914612
 30
0.0
 11
1049.626968782454
 21
206.7833356914612
 31
0.0
  0
LINE
  5
ECAC
330
1E
100
AcDbEntity
  8
文字-記号
  6
Continuous
 62
     4
100
AcDbLine
 10
1037.594510817453
 20
210.0343998432387
 30
0.0
 11
1049.626968782454
 21
210.0343998432387
 31
0.0
  0
LINE
  5
ECAD
330
1E
100
AcDbEntity
  8
躯体と製品
  6
Continuous
 62
     7
100
AcDbLine
 10
1033.251237954925
 20
239.6546187559109
 30
0.0
 11
1026.001237954925
 21
239.6546187559109
 31
0.0
  0
LINE
  5
ECAE
330
1E
100
AcDbEntity
  8
躯体と製品
  6
Continuous
 62
     7
100
AcDbLine
 10
1028.001237954926
 20
241.1546187559109
 30
0.0
 11
1029.501237954925
 21
241.1546187559109
 31
0.0
  0
LINE
  5
ECAF
330
1E
100
AcDbEntity
  8
躯体と製品
  6
Continuous
 62
     7
100
AcDbLine
 10
1028.001237954926
 20
242.4546187559109
 30
0.0
 11
1028.001237954926
 21
241.1546187559109
 31
0.0
  0
LINE
  5
ECB0
330
1E
100
AcDbEntity
  8
躯体と製品
  6
Continuous
 62
     7
100
AcDbLine
 10
1023.001237954926
 20
241.1546187559109
 30
0.0
 11
1023.001237954926
 21
242.4546187559109
 31
0.0
  0
LINE
  5
ECB1
330
1E
100
AcDbEntity
  8
躯体と製品
  6
Continuous
 62
     7
100
AcDbLine
 10
1016.701237954926
 20
234.3046187559108
 30
0.0
 11
1016.701237954926
 21
246.6546187559109
 31
0.0
  0
LINE
  5
ECB2
330
1E
100
AcDbEntity
  8
躯体と製品
  6
Continuous
 62
     7
100
AcDbLine
 10
1018.001237954925
 20
241.1546187559109
 30
0.0
 11
1018.001237954925
 21
245.1546187559109
 31
0.0
  0
ARC
  5
ECB3
330
1E
100
AcDbEntity
  8
躯体と製品
  6
Continuous
 62
     3
100
AcDbCircle
 10
1024.501241932391
 20
245.3271474766308
 30
0.0
 40
14.8
100
AcDbArc
 50
184.7633399999998
 51
227.6996999999981
  0
ARC
  5
ECB4
330
1E
100
AcDbEntity
  8
躯体と製品
  6
Continuous
 62
     3
100
AcDbCircle
 10
1024.501241932391
 20
245.3271474766308
 30
0.0
 40
16.0
100
AcDbArc
 50
132.4866930000009
 51
229.7751700000018
  0
ARC
  5
ECB5
330
1E
100
AcDbEntity
  8
躯体と製品
  6
Continuous
 62
     7
100
AcDbCircle
 10
1017.351237954926
 20
234.3046187559108
 30
0.0
 40
0.65
100
AcDbArc
 50
180.0
 51
0.0
  0
LINE
  5
ECB6
330
1E
100
AcDbEntity
  8
躯体と製品
  6
Continuous
 62
     3
100
AcDbLine
 10
1016.457008433078
 20
233.6108876647228
 30
0.0
 11
1016.457004476553
 21
238.5108882117109
 31
0.0
  0
LINE
  5
ECB7
330
1E
100
AcDbEntity
  8
躯体と製品
  6
Continuous
 62
     3
100
AcDbLine
 10
1014.168625420482
 20
233.1108881261617
 30
0.0
 11
1015.957002558358
 21
233.1108837040923
 31
0.0
  0
ARC
  5
ECB8
330
1E
100
AcDbEntity
  8
躯体と製品
  6
Continuous
 62
     3
100
AcDbCircle
 10
1015.957003236186
 20
233.6108786256661
 30
0.0
 40
0.5
100
AcDbArc
 50
270.0
 51
0.0
  0
LINE
  5
ECB9
330
1E
100
AcDbEntity
  8
躯体と製品
  6
Continuous
 62
     3
100
AcDbLine
 10
1015.257008668564
 20
234.7808797869472
 30
0.0
 11
1015.257006501146
 21
238.510884120054
 31
0.0
  0
ARC
  5
ECBA
330
1E
100
AcDbEntity
  8
躯体と製品
  6
Continuous
 62
     3
100
AcDbCircle
 10
1014.787005512416
 20
234.780883046543
 30
0.0
 40
0.47
100
AcDbArc
 50
238.3806600000004
 51
0.0
  0
ARC
  5
ECBB
330
1E
100
AcDbEntity
  8
躯体と製品
  6
Continuous
 62
     3
100
AcDbCircle
 10
1015.857010347292
 20
238.5108810282237
 30
0.0
 40
0.5999999999999998
100
AcDbArc
 50
0.0
 51
180.0
  0
LINE
  5
ECBC
330
1E
100
AcDbEntity
  8
躯体と製品
  6
Continuous
 62
     7
100
AcDbLine
 10
1025.001237954926
 20
239.6546187559109
 30
0.0
 11
1018.001237954925
 21
239.6546187559109
 31
0.0
  0
LINE
  5
ECBD
330
1E
100
AcDbEntity
  8
躯体と製品
  6
Continuous
 62
     7
100
AcDbLine
 10
1018.001237954925
 20
239.6546187559109
 30
0.0
 11
1018.001237954925
 21
234.3046187559108
 31
0.0
  0
LINE
  5
ECBE
330
1E
100
AcDbEntity
  8
躯体と製品
  6
Continuous
 62
     7
100
AcDbLine
 10
1018.001237954925
 20
241.1546187559109
 30
0.0
 11
1023.001237954926
 21
241.1546187559109
 31
0.0
  0
LINE
  5
ECBF
330
1E
100
AcDbEntity
  8
躯体と製品
  6
Continuous
 62
     7
100
AcDbLine
 10
1025.501237954925
 20
240.1546187559109
 30
0.0
 11
1025.001237954926
 21
239.6546187559109
 31
0.0
  0
LINE
  5
ECC0
330
1E
100
AcDbEntity
  8
躯体と製品
  6
Continuous
 62
     7
100
AcDbLine
 10
1026.001237954925
 20
239.6546187559109
 30
0.0
 11
1025.501237954925
 21
240.1546187559109
 31
0.0
  0
LINE
  5
ECC1
330
1E
100
AcDbEntity
  8
躯体と製品
  6
Continuous
 62
     7
100
AcDbLine
 10
1017.646617954926
 20
247.9546187559109
 30
0.0
 11
1018.001237954925
 21
247.9546187559109
 31
0.0
  0
LINE
  5
ECC2
330
1E
100
AcDbEntity
  8
躯体と製品
  6
Continuous
 62
     7
100
AcDbLine
 10
1019.318797954926
 20
253.5546187559109
 30
0.0
 11
1017.188087954925
 21
248.6539887559109
 31
0.0
  0
LINE
  5
ECC3
330
1E
100
AcDbEntity
  8
躯体と製品
  6
Continuous
 62
     7
100
AcDbLine
 10
1017.901237954925
 20
253.5546187559109
 30
0.0
 11
1015.205307954926
 21
247.3539887559109
 31
0.0
  0
LINE
  5
ECC4
330
1E
100
AcDbEntity
  8
躯体と製品
  6
Continuous
 62
     3
100
AcDbLine
 10
1014.802529414247
 20
255.3354735194416
 30
0.0
 11
1021.548339390438
 21
255.3354694488014
 31
0.0
  0
LINE
  5
ECC5
330
1E
100
AcDbEntity
  8
躯体と製品
  6
Continuous
 62
     3
100
AcDbLine
 10
1012.534407056514
 20
254.0354763631562
 30
0.0
 11
1021.548331351208
 21
254.0354728241383
 31
0.0
  0
ARC
  5
ECC6
330
1E
100
AcDbEntity
  8
躯体と製品
  6
Continuous
 62
     3
100
AcDbCircle
 10
1024.501241932391
 20
245.3271474766308
 30
0.0
 40
14.8
100
AcDbArc
 50
143.9564080000012
 51
174.7320537999996
  0
LINE
  5
ECC7
330
1E
100
AcDbEntity
  8
躯体と製品
  6
Continuous
 62
     3
100
AcDbLine
 10
1010.261638463292
 20
246.1400774894471
 30
0.0
 11
1014.654515763528
 21
246.1508607990769
 31
0.0
  0
LINE
  5
ECC8
330
1E
100
AcDbEntity
  8
躯体と製品
  6
Continuous
 62
     3
100
AcDbLine
 10
1010.250630331847
 20
244.6396698681515
 30
0.0
 11
1015.623589641976
 21
244.6396673513147
 31
0.0
  0
ARC
  5
ECC9
330
1E
100
AcDbEntity
  8
躯体と製品
  6
Continuous
 62
     3
100
AcDbCircle
 10
1010.250629374803
 20
244.1396649504766
 30
0.0
 40
0.5
100
AcDbArc
 50
90.0
 51
184.7633399999998
  0
ARC
  5
ECCA
330
1E
100
AcDbEntity
  8
躯体と製品
  6
Continuous
 62
     3
100
AcDbCircle
 10
1010.26163914112
 20
246.6400724110209
 30
0.0
 40
0.5
100
AcDbArc
 50
174.7320537999996
 51
270.0
  0
LINE
  5
ECCB
330
1E
100
AcDbEntity
  8
躯体と製品
  6
Continuous
 62
     3
100
AcDbLine
 10
1015.623589641976
 20
244.6396673513147
 30
0.0
 11
1016.443719791001
 21
246.3683574593165
 31
0.0
  0
ARC
  5
ECCC
330
1E
100
AcDbEntity
  8
躯体と製品
  6
Continuous
 62
     3
100
AcDbCircle
 10
1014.711172818355
 20
246.4008612078764
 30
0.0
 40
0.25
100
AcDbArc
 50
270.1387253140275
 51
358.3999999999999
  0
LINE
  5
ECCD
330
1E
100
AcDbEntity
  8
躯体と製品
  6
Continuous
 62
     3
100
AcDbLine
 10
1014.654515763528
 20
246.1508607990769
 30
0.0
 11
1014.711778121135
 21
246.1508619406604
 31
0.0
  0
ARC
  5
ECCE
330
1E
100
AcDbEntity
  8
躯体と製品
  6
Continuous
 62
     7
100
AcDbCircle
 10
1017.646617954926
 20
248.4546187559109
 30
0.0
 40
0.5
100
AcDbArc
 50
156.5014299999997
 51
270.0
  0
LINE
  5
ECCF
330
1E
100
AcDbEntity
  8
躯体と製品
  6
Continuous
 62
     7
100
AcDbLine
 10
1015.663847954926
 20
246.6546187559109
 30
0.0
 11
1016.701237954926
 21
246.6546187559109
 31
0.0
  0
ARC
  5
ECD0
330
1E
100
AcDbEntity
  8
躯体と製品
  6
Continuous
 62
     7
100
AcDbCircle
 10
1015.663847954926
 20
247.1546187559109
 30
0.0
 40
0.5
100
AcDbArc
 50
156.5014299999997
 51
270.0
  0
ARC
  5
ECD1
330
1E
100
AcDbEntity
  8
躯体と製品
  6
Continuous
 62
     3
100
AcDbCircle
 10
1015.211401667721
 20
246.4020723710791
 30
0.0
 40
0.25
100
AcDbArc
 50
90.13872531402759
 51
178.3999999999999
  0
LINE
  5
ECD2
330
1E
100
AcDbEntity
  8
躯体と製品
  6
Continuous
 62
     3
100
AcDbLine
 10
1015.210796364941
 20
246.6520716382951
 30
0.0
 11
1016.262794734181
 21
246.6546187559109
 31
0.0
  0
LINE
  5
ECD3
330
1E
100
AcDbEntity
  8
躯体と製品
  6
Continuous
 62
     3
100
AcDbLine
 10
1014.961499138961
 20
246.40905278076
 30
0.0
 11
1014.961075347115
 21
246.3938807981955
 31
0.0
  0
ARC
  5
ECD4
330
1E
100
AcDbEntity
  8
躯体と製品
  6
Continuous
 62
     3
100
AcDbCircle
 10
1016.263278976405
 20
246.4546193421381
 30
0.0
 40
0.2
100
AcDbArc
 50
334.4493124127483
 51
90.13872531402759
  0
ARC
  5
ECD5
330
1E
100
AcDbEntity
  8
躯体と製品
  6
Continuous
 62
     3
100
AcDbCircle
 10
1014.802530092075
 20
255.8354684410153
 30
0.0
 40
0.5
100
AcDbArc
 50
132.7056109999999
 51
270.0
  0
ARC
  5
ECD6
330
1E
100
AcDbEntity
  8
躯体と製品
  6
Continuous
 62
     3
100
AcDbCircle
 10
1024.501241932391
 20
245.3271474766308
 30
0.0
 40
14.8
100
AcDbArc
 50
132.364955000001
 51
132.7056109999999
  0
LINE
  5
ECD7
330
1E
100
AcDbEntity
  8
躯体と製品
  6
Continuous
 62
     7
100
AcDbLine
 10
1023.001237954926
 20
242.4546187559109
 30
0.0
 11
1025.001237954926
 21
242.4546187559109
 31
0.0
  0
ARC
  5
ECD8
330
1E
100
AcDbEntity
  8
躯体と製品
  6
Continuous
 62
     7
100
AcDbCircle
 10
1019.351237954926
 20
245.8046187559109
 30
0.0
 40
0.65
100
AcDbArc
 50
270.0
 51
90.0
  0
LINE
  5
ECD9
330
1E
100
AcDbEntity
  8
躯体と製品
  6
Continuous
 62
     7
100
AcDbLine
 10
1018.001237954925
 20
245.1546187559109
 30
0.0
 11
1019.351237954926
 21
245.1546187559109
 31
0.0
  0
LINE
  5
ECDA
330
1E
100
AcDbEntity
  8
躯体と製品
  6
Continuous
 62
     7
100
AcDbLine
 10
1018.001237954925
 20
246.4546187559109
 30
0.0
 11
1019.351237954926
 21
246.4546187559109
 31
0.0
  0
LINE
  5
ECDB
330
1E
100
AcDbEntity
  8
躯体と製品
  6
Continuous
 62
     7
100
AcDbLine
 10
1018.001237954925
 20
247.9546187559109
 30
0.0
 11
1018.001237954925
 21
246.4546187559109
 31
0.0
  0
LINE
  5
ECDC
330
1E
100
AcDbEntity
  8
躯体と製品
  6
Continuous
 62
     7
100
AcDbLine
 10
1026.001237954925
 20
242.4546187559109
 30
0.0
 11
1028.001237954926
 21
242.4546187559109
 31
0.0
  0
LINE
  5
ECDD
330
1E
100
AcDbEntity
  8
躯体と製品
  6
Continuous
 62
     7
100
AcDbLine
 10
1025.501237954925
 20
241.9546187559109
 30
0.0
 11
1026.001237954925
 21
242.4546187559109
 31
0.0
  0
LINE
  5
ECDE
330
1E
100
AcDbEntity
  8
躯体と製品
  6
Continuous
 62
     7
100
AcDbLine
 10
1025.001237954926
 20
242.4546187559109
 30
0.0
 11
1025.501237954925
 21
241.9546187559109
 31
0.0
  0
ARC
  5
ECDF
330
1E
100
AcDbEntity
  8
躯体と製品
  6
Continuous
 62
     3
100
AcDbCircle
 10
1021.548330512381
 20
254.6854762741286
 30
0.0
 40
0.65
100
AcDbArc
 50
270.0
 51
90.0
  0
LINE
  5
ECE0
330
1E
100
AcDbEntity
  8
躯体と製品
  6
Continuous
 62
     7
100
AcDbLine
 10
1019.318797954926
 20
254.0354736994905
 30
0.0
 11
1019.318797954926
 21
253.5546187559109
 31
0.0
  0
LINE
  5
ECE1
330
1E
100
AcDbEntity
  8
躯体と製品
  6
Continuous
 62
     7
100
AcDbLine
 10
1017.901237954925
 20
254.0354736994905
 30
0.0
 11
1019.318797954926
 21
254.0354736994905
 31
0.0
  0
LINE
  5
ECE2
330
1E
100
AcDbEntity
  8
躯体と製品
  6
Continuous
 62
     7
100
AcDbLine
 10
1017.901237954925
 20
253.5546187559109
 30
0.0
 11
1017.901237954925
 21
254.0354736994905
 31
0.0
  0
LINE
  5
ECE3
330
1E
100
AcDbEntity
  8
躯体と製品
  6
Continuous
 62
     7
100
AcDbLine
 10
1029.501237954925
 20
241.1546187559109
 30
0.0
 11
1029.501237954925
 21
242.4546187559109
 31
0.0
  0
LINE
  5
ECE4
330
1E
100
AcDbEntity
  8
躯体と製品
  6
Continuous
 62
     7
100
AcDbLine
 10
1033.251237954925
 20
239.6546187559109
 30
0.0
 11
1033.251237954925
 21
240.6546187559109
 31
0.0
  0
LINE
  5
ECE5
330
1E
100
AcDbEntity
  8
躯体と製品
  6
Continuous
 62
     7
100
AcDbLine
 10
1037.501237954925
 20
242.4546187559109
 30
0.0
 11
1043.001237954926
 21
242.4546187559109
 31
0.0
  0
LINE
  5
ECE6
330
1E
100
AcDbEntity
  8
躯体と製品
  6
Continuous
 62
     7
100
AcDbLine
 10
1035.001237954926
 20
242.4546187559109
 30
0.0
 11
1036.501237954926
 21
242.4546187559109
 31
0.0
  0
LINE
  5
ECE7
330
1E
100
AcDbEntity
  8
躯体と製品
  6
Continuous
 62
     7
100
AcDbLine
 10
1032.001237954925
 20
242.4546187559109
 30
0.0
 11
1032.501237954926
 21
241.9546187559109
 31
0.0
  0
LINE
  5
ECE8
330
1E
100
AcDbEntity
  8
躯体と製品
  6
Continuous
 62
     7
100
AcDbLine
 10
1029.501237954925
 20
242.4546187559109
 30
0.0
 11
1032.001237954925
 21
242.4546187559109
 31
0.0
  0
LINE
  5
ECE9
330
1E
100
AcDbEntity
  8
躯体と製品
  6
Continuous
 62
     7
100
AcDbLine
 10
1034.501237954926
 20
241.9546187559109
 30
0.0
 11
1035.001237954926
 21
242.4546187559109
 31
0.0
  0
LINE
  5
ECEA
330
1E
100
AcDbEntity
  8
躯体と製品
  6
Continuous
 62
     7
100
AcDbLine
 10
1034.001237954925
 20
242.4546187559109
 30
0.0
 11
1034.501237954926
 21
241.9546187559109
 31
0.0
  0
LINE
  5
ECEB
330
1E
100
AcDbEntity
  8
躯体と製品
  6
Continuous
 62
     7
100
AcDbLine
 10
1033.001237954926
 20
242.4546187559109
 30
0.0
 11
1034.001237954925
 21
242.4546187559109
 31
0.0
  0
LINE
  5
ECEC
330
1E
100
AcDbEntity
  8
躯体と製品
  6
Continuous
 62
     7
100
AcDbLine
 10
1032.501237954926
 20
241.9546187559109
 30
0.0
 11
1033.001237954926
 21
242.4546187559109
 31
0.0
  0
LINE
  5
ECED
330
1E
100
AcDbEntity
  8
躯体と製品
  6
Continuous
 62
     7
100
AcDbLine
 10
1037.001237954926
 20
241.9546187559109
 30
0.0
 11
1037.501237954925
 21
242.4546187559109
 31
0.0
  0
LINE
  5
ECEE
330
1E
100
AcDbEntity
  8
躯体と製品
  6
Continuous
 62
     7
100
AcDbLine
 10
1036.501237954926
 20
242.4546187559109
 30
0.0
 11
1037.001237954926
 21
241.9546187559109
 31
0.0
  0
LINE
  5
ECEF
330
1E
100
AcDbEntity
  8
躯体と製品
  6
Continuous
 62
     7
100
AcDbLine
 10
1049.501237954926
 20
242.4546187559109
 30
0.0
 11
1044.001237954925
 21
242.4546187559109
 31
0.0
  0
LINE
  5
ECF0
330
1E
100
AcDbEntity
  8
躯体と製品
  6
Continuous
 62
     7
100
AcDbLine
 10
1044.001237954925
 20
242.4546187559109
 30
0.0
 11
1043.501237954925
 21
241.9546187559109
 31
0.0
  0
LINE
  5
ECF1
330
1E
100
AcDbEntity
  8
躯体と製品
  6
Continuous
 62
     7
100
AcDbLine
 10
1043.001237954926
 20
242.4546187559109
 30
0.0
 11
1043.501237954925
 21
241.9546187559109
 31
0.0
  0
LINE
  5
ECF2
330
1E
100
AcDbEntity
  8
躯体と製品
  6
Continuous
 62
     7
100
AcDbLine
 10
1050.001237954925
 20
241.9546187559109
 30
0.0
 11
1049.501237954926
 21
242.4546187559109
 31
0.0
  0
LINE
  5
ECF3
330
1E
100
AcDbEntity
  8
躯体と製品
  6
Continuous
 62
     7
100
AcDbLine
 10
1050.501237954926
 20
242.4546187559109
 30
0.0
 11
1050.001237954925
 21
241.9546187559109
 31
0.0
  0
LINE
  5
ECF4
330
1E
100
AcDbEntity
  8
躯体と製品
  6
Continuous
 62
     7
100
AcDbLine
 10
1052.001237954925
 20
242.4546187559109
 30
0.0
 11
1050.501237954926
 21
242.4546187559109
 31
0.0
  0
TEXT
  5
ECF5
330
1E
100
AcDbEntity
  8
図面枠
 62
     7
100
AcDbText
 10
1080.629270554659
 20
153.0347657550085
 30
0.0
 40
3.0
  1
楕円キャップ
 41
0.8
  7
ACAD
100
AcDbText
  0
LINE
  5
ECF6
330
1E
100
AcDbEntity
  8
図面枠
  6
Continuous
 62
     7
100
AcDbLine
 10
1068.216900554659
 20
162.2438527550085
 30
0.0
 11
1068.216900554659
 21
148.8374537550085
 31
0.0
  0
LINE
  5
ECF7
330
1E
100
AcDbEntity
  8
図面枠
  6
Continuous
 62
     7
100
AcDbLine
 10
1072.450490554659
 20
162.2438527550085
 30
0.0
 11
1072.450490554659
 21
148.8374537550085
 31
0.0
  0
TEXT
  5
ECF8
330
1E
100
AcDbEntity
  8
図面枠
 62
     7
100
AcDbText
 10
1068.817780554659
 20
151.4617027550085
 30
0.0
 40
3.0
  1
名
 41
0.8
  7
ACAD
100
AcDbText
  0
TEXT
  5
ECF9
330
1E
100
AcDbEntity
  8
図面枠
 62
     7
100
AcDbText
 10
1068.868750554659
 20
157.1710897550085
 30
0.0
 40
3.0
  1
図
 41
0.8
  7
ACAD
100
AcDbText
  0
LINE
  5
ECFA
330
1E
100
AcDbEntity
  8
図面枠
  6
Continuous
 62
     7
100
AcDbLine
 10
1117.608890554659
 20
162.2438527550085
 30
0.0
 11
1117.608890554659
 21
148.8374537550085
 31
0.0
  0
LINE
  5
ECFB
330
1E
100
AcDbEntity
  8
図面枠
  6
Continuous
 62
     7
100
AcDbLine
 10
1121.842490554659
 20
162.2438527550085
 30
0.0
 11
1121.842490554659
 21
148.8374537550085
 31
0.0
  0
TEXT
  5
ECFC
330
1E
100
AcDbEntity
  8
図面枠
 62
     7
100
AcDbText
 10
1118.379330554659
 20
159.2247837550085
 30
0.0
 40
3.0
  1
日
 41
0.8
  7
ACAD
100
AcDbText
  0
TEXT
  5
ECFD
330
1E
100
AcDbEntity
  8
図面枠
 62
     7
100
AcDbText
 10
1118.630860554659
 20
149.8345167550085
 30
0.0
 40
3.0
  1
尺
 41
0.8
  7
ACAD
100
AcDbText
  0
TEXT
  5
ECFE
330
1E
100
AcDbEntity
  8
図面枠
 62
     7
100
AcDbText
 10
1118.71470055466
 20
152.7689747550085
 30
0.0
 40
3.0
  1
縮
 41
0.8
  7
ACAD
100
AcDbText
  0
TEXT
  5
ECFF
330
1E
100
AcDbEntity
  8
図面枠
 62
     7
100
AcDbText
 10
1118.379330554659
 20
156.2903247550085
 30
0.0
 40
3.0
  1
付
 41
0.8
  7
ACAD
100
AcDbText
  0
TEXT
  5
ED00
330
1E
100
AcDbEntity
  8
図面枠
 62
     7
100
AcDbText
 10
1133.223820554659
 20
150.5890187550085
 30
0.0
 40
3.0
  1
1/1
 41
0.8
  7
ACAD
100
AcDbText
  0
LINE
  5
ED01
330
1E
100
AcDbEntity
  8
躯体と製品
  6
Continuous
 62
     3
100
AcDbLine
 10
1076.740837446559
 20
246.1400774894471
 30
0.0
 11
1072.347960146323
 21
246.1508607990769
 31
0.0
  0
LINE
  5
ED02
330
1E
100
AcDbEntity
  8
躯体と製品
  6
Continuous
 62
     3
100
AcDbLine
 10
1076.751845578004
 20
244.6396698681515
 30
0.0
 11
1071.378886267875
 21
244.6396673513147
 31
0.0
  0
ARC
  5
ED03
330
1E
100
AcDbEntity
  8
躯体と製品
  6
Continuous
 62
     3
100
AcDbCircle
 10
1062.501233977461
 20
245.3271474766308
 30
0.0
 40
14.8
100
AcDbArc
 50
5.267946200000291
 51
36.04359199999878
  0
ARC
  5
ED04
330
1E
100
AcDbEntity
  8
躯体と製品
  6
Continuous
 62
     3
100
AcDbCircle
 10
1062.501233977461
 20
245.3271474766308
 30
0.0
 40
14.8
100
AcDbArc
 50
312.3003000000018
 51
355.2366600000001
  0
ARC
  5
ED05
330
1E
100
AcDbEntity
  8
躯体と製品
  6
Continuous
 62
     3
100
AcDbCircle
 10
1062.501233977461
 20
245.3271474766308
 30
0.0
 40
16.0
100
AcDbArc
 50
310.2248299999981
 51
47.51330699999906
  0
LINE
  5
ED06
330
1E
100
AcDbEntity
  8
躯体と製品
  6
Continuous
 62
     7
100
AcDbLine
 10
1059.001237954926
 20
242.4546187559109
 30
0.0
 11
1059.001237954926
 21
241.1546187559109
 31
0.0
  0
LINE
  5
ED07
330
1E
100
AcDbEntity
  8
躯体と製品
  6
Continuous
 62
     7
100
AcDbLine
 10
1064.001237954925
 20
241.1546187559109
 30
0.0
 11
1064.001237954925
 21
242.4546187559109
 31
0.0
  0
LINE
  5
ED08
330
1E
100
AcDbEntity
  8
躯体と製品
  6
Continuous
 62
     7
100
AcDbLine
 10
1069.001237954925
 20
241.1546187559109
 30
0.0
 11
1069.001237954925
 21
245.1546187559109
 31
0.0
  0
LINE
  5
ED09
330
1E
100
AcDbEntity
  8
躯体と製品
  6
Continuous
 62
     7
100
AcDbLine
 10
1057.501237954926
 20
241.1546187559109
 30
0.0
 11
1057.501237954926
 21
242.4546187559109
 31
0.0
  0
LINE
  5
ED0A
330
1E
100
AcDbEntity
  8
躯体と製品
  6
Continuous
 62
     7
100
AcDbLine
 10
1070.301237954925
 20
234.3046187559108
 30
0.0
 11
1070.301237954925
 21
246.6546187559109
 31
0.0
  0
LINE
  5
ED0B
330
1E
100
AcDbEntity
  8
躯体と製品
  6
Continuous
 62
     7
100
AcDbLine
 10
1062.001237954926
 20
239.6546187559109
 30
0.0
 11
1069.001237954925
 21
239.6546187559109
 31
0.0
  0
LINE
  5
ED0C
330
1E
100
AcDbEntity
  8
躯体と製品
  6
Continuous
 62
     7
100
AcDbLine
 10
1069.001237954925
 20
241.1546187559109
 30
0.0
 11
1064.001237954925
 21
241.1546187559109
 31
0.0
  0
LINE
  5
ED0D
330
1E
100
AcDbEntity
  8
躯体と製品
  6
Continuous
 62
     7
100
AcDbLine
 10
1053.751237954925
 20
239.6546187559109
 30
0.0
 11
1061.001237954925
 21
239.6546187559109
 31
0.0
  0
LINE
  5
ED0E
330
1E
100
AcDbEntity
  8
躯体と製品
  6
Continuous
 62
     7
100
AcDbLine
 10
1059.001237954926
 20
241.1546187559109
 30
0.0
 11
1057.501237954926
 21
241.1546187559109
 31
0.0
  0
LINE
  5
ED0F
330
1E
100
AcDbEntity
  8
躯体と製品
  6
Continuous
 62
     7
100
AcDbLine
 10
1053.751237954925
 20
239.6546187559109
 30
0.0
 11
1053.751237954925
 21
240.6546187559109
 31
0.0
  0
LINE
  5
ED10
330
1E
100
AcDbEntity
  8
躯体と製品
  6
Continuous
 62
     7
100
AcDbLine
 10
1061.001237954925
 20
239.6546187559109
 30
0.0
 11
1061.501237954926
 21
240.1546187559109
 31
0.0
  0
LINE
  5
ED11
330
1E
100
AcDbEntity
  8
躯体と製品
  6
Continuous
 62
     7
100
AcDbLine
 10
1061.501237954926
 20
240.1546187559109
 30
0.0
 11
1062.001237954926
 21
239.6546187559109
 31
0.0
  0
ARC
  5
ED12
330
1E
100
AcDbEntity
  8
躯体と製品
  6
Continuous
 62
     7
100
AcDbCircle
 10
1069.651237954926
 20
234.3046187559108
 30
0.0
 40
0.65
100
AcDbArc
 50
180.0
 51
0.0
  0
LINE
  5
ED13
330
1E
100
AcDbEntity
  8
躯体と製品
  6
Continuous
 62
     3
100
AcDbLine
 10
1070.545467476773
 20
233.6108876647228
 30
0.0
 11
1070.545471433298
 21
238.5108882117109
 31
0.0
  0
LINE
  5
ED14
330
1E
100
AcDbEntity
  8
躯体と製品
  6
Continuous
 62
     3
100
AcDbLine
 10
1072.833850489369
 20
233.1108881261617
 30
0.0
 11
1071.045473351493
 21
233.1108837040923
 31
0.0
  0
ARC
  5
ED15
330
1E
100
AcDbEntity
  8
躯体と製品
  6
Continuous
 62
     3
100
AcDbCircle
 10
1071.045472673665
 20
233.6108786256661
 30
0.0
 40
0.5
100
AcDbArc
 50
180.0
 51
270.0
  0
LINE
  5
ED16
330
1E
100
AcDbEntity
  8
躯体と製品
  6
Continuous
 62
     7
100
AcDbLine
 10
1069.001237954925
 20
239.6546187559109
 30
0.0
 11
1069.001237954925
 21
234.3046187559108
 31
0.0
  0
LINE
  5
ED17
330
1E
100
AcDbEntity
  8
躯体と製品
  6
Continuous
 62
     3
100
AcDbLine
 10
1071.745467241287
 20
234.7808797869472
 30
0.0
 11
1071.745469408706
 21
238.510884120054
 31
0.0
  0
ARC
  5
ED18
330
1E
100
AcDbEntity
  8
躯体と製品
  6
Continuous
 62
     3
100
AcDbCircle
 10
1072.215470397435
 20
234.780883046543
 30
0.0
 40
0.47
100
AcDbArc
 50
180.0
 51
301.6193399999995
  0
ARC
  5
ED19
330
1E
100
AcDbEntity
  8
躯体と製品
  6
Continuous
 62
     3
100
AcDbCircle
 10
1071.145465562559
 20
238.5108810282237
 30
0.0
 40
0.5999999999999998
100
AcDbArc
 50
0.0
 51
180.0
  0
LINE
  5
ED1A
330
1E
100
AcDbEntity
  8
躯体と製品
  6
Continuous
 62
     7
100
AcDbLine
 10
1057.501237954926
 20
242.4546187559109
 30
0.0
 11
1055.001237954926
 21
242.4546187559109
 31
0.0
  0
LINE
  5
ED1B
330
1E
100
AcDbEntity
  8
躯体と製品
  6
Continuous
 62
     7
100
AcDbLine
 10
1053.001237954926
 20
242.4546187559109
 30
0.0
 11
1052.501237954926
 21
241.9546187559109
 31
0.0
  0
LINE
  5
ED1C
330
1E
100
AcDbEntity
  8
躯体と製品
  6
Continuous
 62
     7
100
AcDbLine
 10
1054.001237954926
 20
242.4546187559109
 30
0.0
 11
1053.001237954926
 21
242.4546187559109
 31
0.0
  0
LINE
  5
ED1D
330
1E
100
AcDbEntity
  8
躯体と製品
  6
Continuous
 62
     7
100
AcDbLine
 10
1054.501237954925
 20
241.9546187559109
 30
0.0
 11
1054.001237954926
 21
242.4546187559109
 31
0.0
  0
LINE
  5
ED1E
330
1E
100
AcDbEntity
  8
躯体と製品
  6
Continuous
 62
     7
100
AcDbLine
 10
1055.001237954926
 20
242.4546187559109
 30
0.0
 11
1054.501237954925
 21
241.9546187559109
 31
0.0
  0
LINE
  5
ED1F
330
1E
100
AcDbEntity
  8
躯体と製品
  6
Continuous
 62
     7
100
AcDbLine
 10
1061.501237954926
 20
241.9546187559109
 30
0.0
 11
1061.001237954925
 21
242.4546187559109
 31
0.0
  0
LINE
  5
ED20
330
1E
100
AcDbEntity
  8
躯体と製品
  6
Continuous
 62
     7
100
AcDbLine
 10
1061.001237954925
 20
242.4546187559109
 30
0.0
 11
1059.001237954926
 21
242.4546187559109
 31
0.0
  0
LINE
  5
ED21
330
1E
100
AcDbEntity
  8
躯体と製品
  6
Continuous
 62
     7
100
AcDbLine
 10
1062.001237954926
 20
242.4546187559109
 30
0.0
 11
1061.501237954926
 21
241.9546187559109
 31
0.0
  0
LINE
  5
ED22
330
1E
100
AcDbEntity
  8
躯体と製品
  6
Continuous
 62
     7
100
AcDbLine
 10
1064.001237954925
 20
242.4546187559109
 30
0.0
 11
1062.001237954926
 21
242.4546187559109
 31
0.0
  0
LINE
  5
ED23
330
1E
100
AcDbEntity
  8
躯体と製品
  6
Continuous
 62
     7
100
AcDbLine
 10
1067.683677954926
 20
253.5546187559109
 30
0.0
 11
1069.814387954926
 21
248.6539887559109
 31
0.0
  0
LINE
  5
ED24
330
1E
100
AcDbEntity
  8
躯体と製品
  6
Continuous
 62
     7
100
AcDbLine
 10
1069.101237954926
 20
253.5546187559109
 30
0.0
 11
1071.797167954926
 21
247.3539887559109
 31
0.0
  0
ARC
  5
ED25
330
1E
100
AcDbEntity
  8
躯体と製品
  6
Continuous
 62
     7
100
AcDbCircle
 10
1069.355857954926
 20
248.4546187559109
 30
0.0
 40
0.5
100
AcDbArc
 50
270.0
 51
23.49856600000027
  0
ARC
  5
ED26
330
1E
100
AcDbEntity
  8
躯体と製品
  6
Continuous
 62
     7
100
AcDbCircle
 10
1067.651237954926
 20
245.8046187559109
 30
0.0
 40
0.65
100
AcDbArc
 50
90.0
 51
270.0
  0
LINE
  5
ED27
330
1E
100
AcDbEntity
  8
躯体と製品
  6
Continuous
 62
     7
100
AcDbLine
 10
1069.001237954925
 20
245.1546187559109
 30
0.0
 11
1067.651237954926
 21
245.1546187559109
 31
0.0
  0
LINE
  5
ED28
330
1E
100
AcDbEntity
  8
躯体と製品
  6
Continuous
 62
     7
100
AcDbLine
 10
1069.001237954925
 20
246.4546187559109
 30
0.0
 11
1067.651237954926
 21
246.4546187559109
 31
0.0
  0
LINE
  5
ED29
330
1E
100
AcDbEntity
  8
躯体と製品
  6
Continuous
 62
     7
100
AcDbLine
 10
1069.001237954925
 20
247.9546187559109
 30
0.0
 11
1069.001237954925
 21
246.4546187559109
 31
0.0
  0
LINE
  5
ED2A
330
1E
100
AcDbEntity
  8
躯体と製品
  6
Continuous
 62
     7
100
AcDbLine
 10
1069.355857954926
 20
247.9546187559109
 30
0.0
 11
1069.001237954925
 21
247.9546187559109
 31
0.0
  0
LINE
  5
ED2B
330
1E
100
AcDbEntity
  8
躯体と製品
  6
Continuous
 62
     3
100
AcDbLine
 10
1071.378886267875
 20
244.6396673513147
 30
0.0
 11
1070.55875611885
 21
246.3683574593165
 31
0.0
  0
LINE
  5
ED2C
330
1E
100
AcDbEntity
  8
躯体と製品
  6
Continuous
 62
     7
100
AcDbLine
 10
1071.338627954926
 20
246.6546187559109
 30
0.0
 11
1070.301237954925
 21
246.6546187559109
 31
0.0
  0
ARC
  5
ED2D
330
1E
100
AcDbEntity
  8
躯体と製品
  6
Continuous
 62
     7
100
AcDbCircle
 10
1071.338627954926
 20
247.1546187559109
 30
0.0
 40
0.5
100
AcDbArc
 50
270.0
 51
23.49856600000027
  0
ARC
  5
ED2E
330
1E
100
AcDbEntity
  8
躯体と製品
  6
Continuous
 62
     3
100
AcDbCircle
 10
1071.79107424213
 20
246.4020723710791
 30
0.0
 40
0.25
100
AcDbArc
 50
1.600000000000019
 51
89.86127468597242
  0
LINE
  5
ED2F
330
1E
100
AcDbEntity
  8
躯体と製品
  6
Continuous
 62
     3
100
AcDbLine
 10
1071.79167954491
 20
246.6520716382951
 30
0.0
 11
1070.73968117567
 21
246.6546187559109
 31
0.0
  0
LINE
  5
ED30
330
1E
100
AcDbEntity
  8
躯体と製品
  6
Continuous
 62
     3
100
AcDbLine
 10
1072.04097677089
 20
246.40905278076
 30
0.0
 11
1072.041400562736
 21
246.3938807981955
 31
0.0
  0
ARC
  5
ED31
330
1E
100
AcDbEntity
  8
躯体と製品
  6
Continuous
 62
     3
100
AcDbCircle
 10
1072.291303091496
 20
246.4008612078764
 30
0.0
 40
0.25
100
AcDbArc
 50
181.6
 51
269.8612746859724
  0
ARC
  5
ED32
330
1E
100
AcDbEntity
  8
躯体と製品
  6
Continuous
 62
     3
100
AcDbCircle
 10
1070.739196933446
 20
246.4546193421381
 30
0.0
 40
0.2
100
AcDbArc
 50
89.86127468597242
 51
205.5506875872516
  0
LINE
  5
ED33
330
1E
100
AcDbEntity
  8
躯体と製品
  6
Continuous
 62
     3
100
AcDbLine
 10
1072.347960146323
 20
246.1508607990769
 30
0.0
 11
1072.290697788716
 21
246.1508619406604
 31
0.0
  0
LINE
  5
ED34
330
1E
100
AcDbEntity
  8
躯体と製品
  6
Continuous
 62
     3
100
AcDbLine
 10
1072.199946495604
 20
255.3354735194416
 30
0.0
 11
1065.454136519413
 21
255.3354694488014
 31
0.0
  0
LINE
  5
ED35
330
1E
100
AcDbEntity
  8
躯体と製品
  6
Continuous
 62
     3
100
AcDbLine
 10
1074.468068853337
 20
254.0354763631562
 30
0.0
 11
1065.454144558643
 21
254.0354728241383
 31
0.0
  0
ARC
  5
ED36
330
1E
100
AcDbEntity
  8
躯体と製品
  6
Continuous
 62
     3
100
AcDbCircle
 10
1065.45414539747
 20
254.6854762741286
 30
0.0
 40
0.65
100
AcDbArc
 50
90.0
 51
270.0
  0
LINE
  5
ED37
330
1E
100
AcDbEntity
  8
躯体と製品
  6
Continuous
 62
     7
100
AcDbLine
 10
1067.683677954926
 20
254.0354742560484
 30
0.0
 11
1067.683677954926
 21
253.5546187559109
 31
0.0
  0
LINE
  5
ED38
330
1E
100
AcDbEntity
  8
躯体と製品
  6
Continuous
 62
     7
100
AcDbLine
 10
1069.101237954926
 20
254.0354742560484
 30
0.0
 11
1067.683677954926
 21
254.0354742560484
 31
0.0
  0
LINE
  5
ED39
330
1E
100
AcDbEntity
  8
躯体と製品
  6
Continuous
 62
     7
100
AcDbLine
 10
1069.101237954926
 20
253.5546187559109
 30
0.0
 11
1069.101237954926
 21
254.0354742560484
 31
0.0
  0
ARC
  5
ED3A
330
1E
100
AcDbEntity
  8
躯体と製品
  6
Continuous
 62
     3
100
AcDbCircle
 10
1072.199945817776
 20
255.8354684410153
 30
0.0
 40
0.5
100
AcDbArc
 50
270.0
 51
47.294389
  0
ARC
  5
ED3B
330
1E
100
AcDbEntity
  8
躯体と製品
  6
Continuous
 62
     3
100
AcDbCircle
 10
1062.501233977461
 20
245.3271474766308
 30
0.0
 40
14.8
100
AcDbArc
 50
47.294389
 51
47.63504499999891
  0
ARC
  5
ED40
330
1E
100
AcDbEntity
  8
躯体と製品
  6
Continuous
 62
     3
100
AcDbCircle
 10
1076.751846535048
 20
244.1396649504766
 30
0.0
 40
0.5
100
AcDbArc
 50
355.2366600000001
 51
90.0
  0
ARC
  5
ED41
330
1E
100
AcDbEntity
  8
躯体と製品
  6
Continuous
 62
     3
100
AcDbCircle
 10
1076.740836768731
 20
246.6400724110209
 30
0.0
 40
0.5
100
AcDbArc
 50
270.0
 51
5.267946200000291
  0
LINE
  5
ED42
330
1E
100
AcDbEntity
  8
躯体と製品
  6
Continuous
 62
     7
100
AcDbLine
 10
1127.126766454926
 20
240.1546187559109
 30
0.0
 11
1127.126766454926
 21
225.1546187559109
 31
0.0
  0
LINE
  5
ED43
330
1E
100
AcDbEntity
  8
躯体と製品
  6
Continuous
 62
     7
100
AcDbLine
 10
1133.126766454925
 20
225.1546187559109
 30
0.0
 11
1133.126766454925
 21
227.0046187559109
 31
0.0
  0
LINE
  5
ED44
330
1E
100
AcDbEntity
  8
文字-記号
  6
Continuous
 62
     4
100
AcDbLine
 10
1126.274226431216
 20
208.870592536419
 30
0.0
 11
1126.274226431216
 21
205.6195283846415
 31
0.0
  0
LINE
  5
ED45
330
1E
100
AcDbEntity
  8
躯体と製品
  6
Continuous
 62
     7
100
AcDbLine
 10
1127.626766454925
 20
224.6546187559109
 30
0.0
 11
1132.626766454926
 21
224.6546187559109
 31
0.0
  0
ARC
  5
ED46
330
1E
100
AcDbEntity
  8
躯体と製品
  6
Continuous
 62
     7
100
AcDbCircle
 10
1127.626766454925
 20
225.1546187559109
 30
0.0
 40
0.5
100
AcDbArc
 50
180.0
 51
270.0
  0
ARC
  5
ED47
330
1E
100
AcDbEntity
  8
躯体と製品
  6
Continuous
 62
     7
100
AcDbCircle
 10
1132.626766454926
 20
225.1546187559109
 30
0.0
 40
0.5
100
AcDbArc
 50
270.0
 51
0.0
  0
LINE
  5
ED48
330
1E
100
AcDbEntity
  8
躯体と製品
  6
Continuous
 62
     7
100
AcDbLine
 10
1121.626766454925
 20
242.9546187559109
 30
0.0
 11
1122.126766454925
 21
243.4546187559109
 31
0.0
  0
LINE
  5
ED49
330
1E
100
AcDbEntity
  8
躯体と製品
  6
Continuous
 62
     7
100
AcDbLine
 10
1121.626766454925
 20
241.1546187559109
 30
0.0
 11
1122.126766454925
 21
240.6546187559109
 31
0.0
  0
LINE
  5
ED4A
330
1E
100
AcDbEntity
  8
躯体と製品
  6
Continuous
 62
     7
100
AcDbLine
 10
1112.826766454926
 20
247.6546187559109
 30
0.0
 11
1112.826766454926
 21
235.3046187559109
 31
0.0
  0
ARC
  5
ED4B
330
1E
100
AcDbEntity
  8
躯体と製品
  6
Continuous
 62
     3
100
AcDbCircle
 10
1120.626760432391
 20
246.3271474766309
 30
0.0
 40
14.8
100
AcDbArc
 50
184.7633399999998
 51
227.6996999999981
  0
ARC
  5
ED4C
330
1E
100
AcDbEntity
  8
躯体と製品
  6
Continuous
 62
     3
100
AcDbCircle
 10
1120.626760432391
 20
246.3271474766309
 30
0.0
 40
16.0
100
AcDbArc
 50
132.4866930000009
 51
229.7751700000018
  0
LINE
  5
ED4D
330
1E
100
AcDbEntity
  8
躯体と製品
  6
Continuous
 62
     3
100
AcDbLine
 10
1110.294143920482
 20
234.1108881261617
 30
0.0
 11
1112.082521058358
 21
234.1108837040923
 31
0.0
  0
LINE
  5
ED4E
330
1E
100
AcDbEntity
  8
躯体と製品
  6
Continuous
 62
     7
100
AcDbLine
 10
1114.126766454925
 20
240.6546187559109
 30
0.0
 11
1121.126766454926
 21
240.6546187559109
 31
0.0
  0
LINE
  5
ED4F
330
1E
100
AcDbEntity
  8
躯体と製品
  6
Continuous
 62
     7
100
AcDbLine
 10
1114.126766454925
 20
235.3046187559109
 30
0.0
 11
1114.126766454925
 21
240.6546187559109
 31
0.0
  0
LINE
  5
ED50
330
1E
100
AcDbEntity
  8
躯体と製品
  6
Continuous
 62
     3
100
AcDbLine
 10
1112.582526933078
 20
234.6108876647228
 30
0.0
 11
1112.582522976554
 21
239.510888211711
 31
0.0
  0
LINE
  5
ED51
330
1E
100
AcDbEntity
  8
躯体と製品
  6
Continuous
 62
     3
100
AcDbLine
 10
1111.382527168564
 20
235.7808797869472
 30
0.0
 11
1111.382525001145
 21
239.510884120054
 31
0.0
  0
ARC
  5
ED52
330
1E
100
AcDbEntity
  8
躯体と製品
  6
Continuous
 62
     7
100
AcDbCircle
 10
1113.476766454926
 20
235.3046187559109
 30
0.0
 40
0.65
100
AcDbArc
 50
180.0
 51
0.0
  0
ARC
  5
ED53
330
1E
100
AcDbEntity
  8
躯体と製品
  6
Continuous
 62
     3
100
AcDbCircle
 10
1112.082521736186
 20
234.6108786256661
 30
0.0
 40
0.5
100
AcDbArc
 50
270.0
 51
0.0
  0
ARC
  5
ED54
330
1E
100
AcDbEntity
  8
躯体と製品
  6
Continuous
 62
     3
100
AcDbCircle
 10
1110.912524012416
 20
235.780883046543
 30
0.0
 40
0.47
100
AcDbArc
 50
238.3806600000004
 51
0.0
  0
ARC
  5
ED55
330
1E
100
AcDbEntity
  8
躯体と製品
  6
Continuous
 62
     3
100
AcDbCircle
 10
1111.982528847292
 20
239.5108810282237
 30
0.0
 40
0.5999999999999998
100
AcDbArc
 50
0.0
 51
180.0
  0
LINE
  5
ED56
330
1E
100
AcDbEntity
  8
躯体と製品
  6
Continuous
 62
     7
100
AcDbLine
 10
1121.126766454926
 20
240.6546187559109
 30
0.0
 11
1121.626766454925
 21
241.1546187559109
 31
0.0
  0
LINE
  5
ED57
330
1E
100
AcDbEntity
  8
躯体と製品
  6
Continuous
 62
     3
100
AcDbLine
 10
1106.387156963292
 20
247.1400774894472
 30
0.0
 11
1110.780034263528
 21
247.1508607990768
 31
0.0
  0
LINE
  5
ED58
330
1E
100
AcDbEntity
  8
躯体と製品
  6
Continuous
 62
     3
100
AcDbLine
 10
1106.376148831847
 20
245.6396698681515
 30
0.0
 11
1111.749108141976
 21
245.6396673513147
 31
0.0
  0
ARC
  5
ED59
330
1E
100
AcDbEntity
  8
躯体と製品
  6
Continuous
 62
     3
100
AcDbCircle
 10
1110.928048592075
 20
256.8354684410153
 30
0.0
 40
0.5
100
AcDbArc
 50
132.7056109999999
 51
270.0
  0
LINE
  5
ED5A
330
1E
100
AcDbEntity
  8
躯体と製品
  6
Continuous
 62
     3
100
AcDbLine
 10
1108.659925556514
 20
255.0354763631562
 30
0.0
 11
1117.673849851208
 21
255.0354728241384
 31
0.0
  0
ARC
  5
ED5B
330
1E
100
AcDbEntity
  8
躯体と製品
  6
Continuous
 62
     3
100
AcDbCircle
 10
1120.626760432391
 20
246.3271474766309
 30
0.0
 40
14.8
100
AcDbArc
 50
143.9564080000012
 51
174.7320537999996
  0
ARC
  5
ED5C
330
1E
100
AcDbEntity
  8
躯体と製品
  6
Continuous
 62
     3
100
AcDbCircle
 10
1106.376147874803
 20
245.1396649504766
 30
0.0
 40
0.5
100
AcDbArc
 50
90.0
 51
184.7633399999998
  0
ARC
  5
ED5D
330
1E
100
AcDbEntity
  8
躯体と製品
  6
Continuous
 62
     3
100
AcDbCircle
 10
1106.38715764112
 20
247.6400724110209
 30
0.0
 40
0.5
100
AcDbArc
 50
174.7320537999996
 51
270.0
  0
LINE
  5
ED5E
330
1E
100
AcDbEntity
  8
躯体と製品
  6
Continuous
 62
     7
100
AcDbLine
 10
1113.313606454926
 20
249.6539817559109
 30
0.0
 11
1115.444316454926
 21
254.5546187559108
 31
0.0
  0
LINE
  5
ED5F
330
1E
100
AcDbEntity
  8
躯体と製品
  6
Continuous
 62
     7
100
AcDbLine
 10
1114.026766454925
 20
254.5546187559108
 30
0.0
 11
1111.330836454926
 21
248.3539817559109
 31
0.0
  0
LINE
  5
ED60
330
1E
100
AcDbEntity
  8
躯体と製品
  6
Continuous
 62
     7
100
AcDbLine
 10
1114.126766454925
 20
242.1546187559109
 30
0.0
 11
1119.126766454926
 21
242.1546187559109
 31
0.0
  0
LINE
  5
ED61
330
1E
100
AcDbEntity
  8
躯体と製品
  6
Continuous
 62
     7
100
AcDbLine
 10
1114.126766454925
 20
246.1546187559109
 30
0.0
 11
1114.126766454925
 21
242.1546187559109
 31
0.0
  0
LINE
  5
ED62
330
1E
100
AcDbEntity
  8
躯体と製品
  6
Continuous
 62
     3
100
AcDbLine
 10
1111.749108141976
 20
245.6396673513147
 30
0.0
 11
1112.569238291001
 21
247.3683574593164
 31
0.0
  0
ARC
  5
ED63
330
1E
100
AcDbEntity
  8
躯体と製品
  6
Continuous
 62
     7
100
AcDbCircle
 10
1113.772146454925
 20
249.4546187559109
 30
0.0
 40
0.5
100
AcDbArc
 50
156.5014299999997
 51
270.0
  0
ARC
  5
ED64
330
1E
100
AcDbEntity
  8
躯体と製品
  6
Continuous
 62
     7
100
AcDbCircle
 10
1111.789366454926
 20
248.1546187559109
 30
0.0
 40
0.5
100
AcDbArc
 50
156.5014299999997
 51
270.0
  0
LINE
  5
ED65
330
1E
100
AcDbEntity
  8
躯体と製品
  6
Continuous
 62
     7
100
AcDbLine
 10
1111.789366454926
 20
247.6546187559109
 30
0.0
 11
1112.826766454926
 21
247.6546187559109
 31
0.0
  0
LINE
  5
ED66
330
1E
100
AcDbEntity
  8
躯体と製品
  6
Continuous
 62
     3
100
AcDbLine
 10
1110.780034263528
 20
247.1508607990768
 30
0.0
 11
1110.837296621135
 21
247.1508619406604
 31
0.0
  0
ARC
  5
ED67
330
1E
100
AcDbEntity
  8
躯体と製品
  6
Continuous
 62
     3
100
AcDbCircle
 10
1111.336920167721
 20
247.4020723710791
 30
0.0
 40
0.25
100
AcDbArc
 50
90.13872531402759
 51
178.3999999999999
  0
LINE
  5
ED68
330
1E
100
AcDbEntity
  8
躯体と製品
  6
Continuous
 62
     3
100
AcDbLine
 10
1111.336314864941
 20
247.6520716382951
 30
0.0
 11
1112.388313234181
 21
247.6546187559109
 31
0.0
  0
LINE
  5
ED69
330
1E
100
AcDbEntity
  8
躯体と製品
  6
Continuous
 62
     3
100
AcDbLine
 10
1111.087017638961
 20
247.40905278076
 30
0.0
 11
1111.086593847115
 21
247.3938807981955
 31
0.0
  0
ARC
  5
ED6A
330
1E
100
AcDbEntity
  8
躯体と製品
  6
Continuous
 62
     3
100
AcDbCircle
 10
1110.836691318355
 20
247.4008612078764
 30
0.0
 40
0.25
100
AcDbArc
 50
270.1387253140275
 51
358.3999999999999
  0
ARC
  5
ED6B
330
1E
100
AcDbEntity
  8
躯体と製品
  6
Continuous
 62
     3
100
AcDbCircle
 10
1112.388797476405
 20
247.4546193421381
 30
0.0
 40
0.2
100
AcDbArc
 50
334.4493124127483
 51
90.13872531402759
  0
LINE
  5
ED6C
330
1E
100
AcDbEntity
  8
躯体と製品
  6
Continuous
 62
     7
100
AcDbLine
 10
1114.126766454925
 20
248.9546187559109
 30
0.0
 11
1113.772146454925
 21
248.9546187559109
 31
0.0
  0
ARC
  5
ED6D
330
1E
100
AcDbEntity
  8
躯体と製品
  6
Continuous
 62
     7
100
AcDbCircle
 10
1115.476766454926
 20
246.8046187559108
 30
0.0
 40
0.65
100
AcDbArc
 50
270.0
 51
90.0
  0
LINE
  5
ED6E
330
1E
100
AcDbEntity
  8
躯体と製品
  6
Continuous
 62
     7
100
AcDbLine
 10
1114.126766454925
 20
248.9546187559109
 30
0.0
 11
1114.126766454925
 21
247.4546187559109
 31
0.0
  0
LINE
  5
ED6F
330
1E
100
AcDbEntity
  8
躯体と製品
  6
Continuous
 62
     7
100
AcDbLine
 10
1114.126766454925
 20
247.4546187559109
 30
0.0
 11
1115.476766454926
 21
247.4546187559109
 31
0.0
  0
LINE
  5
ED70
330
1E
100
AcDbEntity
  8
躯体と製品
  6
Continuous
 62
     7
100
AcDbLine
 10
1115.476766454926
 20
246.1546187559109
 30
0.0
 11
1114.126766454925
 21
246.1546187559109
 31
0.0
  0
LINE
  5
ED71
330
1E
100
AcDbEntity
  8
躯体と製品
  6
Continuous
 62
     7
100
AcDbLine
 10
1119.126766454926
 20
243.4546187559109
 30
0.0
 11
1121.126766454926
 21
243.4546187559109
 31
0.0
  0
LINE
  5
ED72
330
1E
100
AcDbEntity
  8
躯体と製品
  6
Continuous
 62
     7
100
AcDbLine
 10
1119.126766454926
 20
242.1546187559109
 30
0.0
 11
1119.126766454926
 21
243.4546187559109
 31
0.0
  0
LINE
  5
ED73
330
1E
100
AcDbEntity
  8
躯体と製品
  6
Continuous
 62
     7
100
AcDbLine
 10
1121.126766454926
 20
243.4546187559109
 30
0.0
 11
1121.626766454925
 21
242.9546187559109
 31
0.0
  0
LINE
  5
ED74
330
1E
100
AcDbEntity
  8
躯体と製品
  6
Continuous
 62
     3
100
AcDbLine
 10
1110.928047914247
 20
256.3354735194416
 30
0.0
 11
1117.673857890438
 21
256.3354694488014
 31
0.0
  0
ARC
  5
ED75
330
1E
100
AcDbEntity
  8
躯体と製品
  6
Continuous
 62
     3
100
AcDbCircle
 10
1120.626760432391
 20
246.3271474766309
 30
0.0
 40
14.8
100
AcDbArc
 50
132.364955000001
 51
132.7056109999999
  0
LINE
  5
ED76
330
1E
100
AcDbEntity
  8
躯体と製品
  6
Continuous
 62
     7
100
AcDbLine
 10
1114.026766454925
 20
254.5546187559108
 30
0.0
 11
1114.026766454925
 21
255.0354736994906
 31
0.0
  0
LINE
  5
ED77
330
1E
100
AcDbEntity
  8
躯体と製品
  6
Continuous
 62
     7
100
AcDbLine
 10
1114.026766454925
 20
255.0354736994906
 30
0.0
 11
1115.444316454926
 21
255.0354736994906
 31
0.0
  0
LINE
  5
ED78
330
1E
100
AcDbEntity
  8
躯体と製品
  6
Continuous
 62
     7
100
AcDbLine
 10
1115.444316454926
 20
255.0354736994906
 30
0.0
 11
1115.444316454926
 21
254.5546187559108
 31
0.0
  0
ARC
  5
ED79
330
1E
100
AcDbEntity
  8
躯体と製品
  6
Continuous
 62
     3
100
AcDbCircle
 10
1117.673849012381
 20
255.6854762741286
 30
0.0
 40
0.65
100
AcDbArc
 50
270.0
 51
90.0
  0
LINE
  5
ED7A
330
1E
100
AcDbEntity
  8
躯体と製品
  6
Continuous
 62
     7
100
AcDbLine
 10
1128.426766454926
 20
225.9546187559109
 30
0.0
 11
1128.426766454926
 21
240.1546187559109
 31
0.0
  0
LINE
  5
ED7B
330
1E
100
AcDbEntity
  8
躯体と製品
  6
Continuous
 62
     7
100
AcDbLine
 10
1131.826766454926
 20
225.9546187559109
 30
0.0
 11
1128.426766454926
 21
225.9546187559109
 31
0.0
  0
ARC
  5
ED7C
330
1E
100
AcDbEntity
  8
躯体と製品
  6
Continuous
 62
     7
100
AcDbCircle
 10
1132.476766454925
 20
227.0046187559109
 30
0.0
 40
0.65
100
AcDbArc
 50
0.0
 51
180.0
  0
LINE
  5
ED7D
330
1E
100
AcDbEntity
  8
躯体と製品
  6
Continuous
 62
     7
100
AcDbLine
 10
1131.826766454926
 20
227.0046187559109
 30
0.0
 11
1131.826766454926
 21
225.9546187559109
 31
0.0
  0
LINE
  5
ED7E
330
1E
100
AcDbEntity
  8
躯体と製品
  6
Continuous
 62
     7
100
AcDbLine
 10
1122.126766454925
 20
240.6546187559109
 30
0.0
 11
1126.626766454925
 21
240.6546187559109
 31
0.0
  0
ARC
  5
ED7F
330
1E
100
AcDbEntity
  8
躯体と製品
  6
Continuous
 62
     7
100
AcDbCircle
 10
1126.626766454925
 20
240.1546187559109
 30
0.0
 40
0.5
100
AcDbArc
 50
0.0
 51
90.0
  0
ARC
  5
ED80
330
1E
100
AcDbEntity
  8
躯体と製品
  6
Continuous
 62
     7
100
AcDbCircle
 10
1128.926766454925
 20
240.1546187559109
 30
0.0
 40
0.5
100
AcDbArc
 50
90.0
 51
180.0
  0
LINE
  5
ED81
330
1E
100
AcDbEntity
  8
躯体と製品
  6
Continuous
 62
     7
100
AcDbLine
 10
1131.126766454926
 20
242.1546187559109
 30
0.0
 11
1137.126766454926
 21
242.1546187559109
 31
0.0
  0
LINE
  5
ED82
330
1E
100
AcDbEntity
  8
躯体と製品
  6
Continuous
 62
     7
100
AcDbLine
 10
1126.126766454926
 20
242.6546187559109
 30
0.0
 11
1128.126766454925
 21
242.6546187559109
 31
0.0
  0
LINE
  5
ED83
330
1E
100
AcDbEntity
  8
躯体と製品
  6
Continuous
 62
     7
100
AcDbLine
 10
1124.126766454925
 20
242.1546187559109
 30
0.0
 11
1126.126766454926
 21
242.1546187559109
 31
0.0
  0
LINE
  5
ED84
330
1E
100
AcDbEntity
  8
躯体と製品
  6
Continuous
 62
     7
100
AcDbLine
 10
1122.126766454925
 20
243.4546187559109
 30
0.0
 11
1124.126766454925
 21
243.4546187559109
 31
0.0
  0
LINE
  5
ED85
330
1E
100
AcDbEntity
  8
躯体と製品
  6
Continuous
 62
     7
100
AcDbLine
 10
1124.126766454925
 20
243.4546187559109
 30
0.0
 11
1124.126766454925
 21
242.1546187559109
 31
0.0
  0
LINE
  5
ED86
330
1E
100
AcDbEntity
  8
躯体と製品
  6
Continuous
 62
     7
100
AcDbLine
 10
1126.126766454926
 20
242.1546187559109
 30
0.0
 11
1126.126766454926
 21
242.6546187559109
 31
0.0
  0
LINE
  5
ED87
330
1E
100
AcDbEntity
  8
躯体と製品
  6
Continuous
 62
     7
100
AcDbLine
 10
1129.126766454926
 20
242.6546187559109
 30
0.0
 11
1131.126766454926
 21
242.6546187559109
 31
0.0
  0
LINE
  5
ED88
330
1E
100
AcDbEntity
  8
躯体と製品
  6
Continuous
 62
     7
100
AcDbLine
 10
1128.126766454925
 20
242.6546187559109
 30
0.0
 11
1128.626766454925
 21
242.1546187559109
 31
0.0
  0
LINE
  5
ED89
330
1E
100
AcDbEntity
  8
躯体と製品
  6
Continuous
 62
     7
100
AcDbLine
 10
1128.626766454925
 20
242.1546187559109
 30
0.0
 11
1129.126766454926
 21
242.6546187559109
 31
0.0
  0
LINE
  5
ED8A
330
1E
100
AcDbEntity
  8
躯体と製品
  6
Continuous
 62
     7
100
AcDbLine
 10
1131.126766454926
 20
242.6546187559109
 30
0.0
 11
1131.126766454926
 21
242.1546187559109
 31
0.0
  0
LINE
  5
ED8B
330
1E
100
AcDbEntity
  8
躯体と製品
  6
Continuous
 62
     7
100
AcDbLine
 10
1139.126766454926
 20
242.6546187559109
 30
0.0
 11
1139.626766454925
 21
242.1546187559109
 31
0.0
  0
LINE
  5
ED8C
330
1E
100
AcDbEntity
  8
躯体と製品
  6
Continuous
 62
     7
100
AcDbLine
 10
1137.126766454926
 20
242.1546187559109
 30
0.0
 11
1137.126766454926
 21
242.6546187559109
 31
0.0
  0
LINE
  5
ED8D
330
1E
100
AcDbEntity
  8
躯体と製品
  6
Continuous
 62
     7
100
AcDbLine
 10
1137.126766454926
 20
242.6546187559109
 30
0.0
 11
1139.126766454926
 21
242.6546187559109
 31
0.0
  0
LINE
  5
ED8E
330
1E
100
AcDbEntity
  8
躯体と製品
  6
Continuous
 62
     7
100
AcDbLine
 10
1142.126766454926
 20
242.1546187559109
 30
0.0
 11
1142.126766454926
 21
242.6546187559109
 31
0.0
  0
LINE
  5
ED8F
330
1E
100
AcDbEntity
  8
躯体と製品
  6
Continuous
 62
     7
100
AcDbLine
 10
1142.126766454926
 20
242.6546187559109
 30
0.0
 11
1140.126766454925
 21
242.6546187559109
 31
0.0
  0
LINE
  5
ED90
330
1E
100
AcDbEntity
  8
躯体と製品
  6
Continuous
 62
     7
100
AcDbLine
 10
1140.126766454925
 20
242.6546187559109
 30
0.0
 11
1139.626766454925
 21
242.1546187559109
 31
0.0
  0
ARC
  5
ED91
330
1E
100
AcDbEntity
  8
躯体と製品
  6
Continuous
 62
     3
100
AcDbCircle
 10
1044.576369891104
 20
217.3157346688904
 30
0.0
 40
50.0
100
AcDbArc
 50
65.49616200000163
 51
91.23210540644906
  0
ARC
  5
ED92
330
1E
100
AcDbEntity
  8
躯体と製品
  6
Continuous
 62
     3
100
AcDbCircle
 10
1044.576369891104
 20
217.3157346688904
 30
0.0
 40
48.79999999999999
100
AcDbArc
 50
65.50644999999997
 51
83.44011130808288
  0
ARC
  5
ED95
330
1E
100
AcDbEntity
  8
躯体と製品
  6
Continuous
 62
     3
100
AcDbCircle
 10
1042.426106018747
 20
217.3157346688904
 30
0.0
 40
50.0
100
AcDbArc
 50
88.76789459355093
 51
114.5038379999983
  0
ARC
  5
ED96
330
1E
100
AcDbEntity
  8
躯体と製品
  6
Continuous
 62
     3
100
AcDbCircle
 10
1042.426106018747
 20
217.3157346688904
 30
0.0
 40
48.79999999999999
100
AcDbArc
 50
96.55988869191711
 51
114.49355
  0
LINE
  5
ED99
330
1E
100
AcDbEntity
  8
躯体と製品
  6
Continuous
 62
     3
100
AcDbLine
 10
1043.201237954926
 20
265.7962404209081
 30
0.0
 11
1036.851111666411
 21
265.7962404209081
 31
0.0
  0
LINE
  5
ED9A
330
1E
100
AcDbEntity
  8
躯体と製品
  6
Continuous
 62
     3
100
AcDbLine
 10
1043.801237954925
 20
265.7962404209081
 30
0.0
 11
1050.15136424344
 21
265.7962404209081
 31
0.0
  0
LINE
  5
ED9B
330
1E
100
AcDbEntity
  8
躯体と製品
  6
Continuous
 62
     3
100
AcDbLine
 10
1043.501237954925
 20
266.0962404209081
 30
0.0
 11
1043.801237954925
 21
265.7962404209081
 31
0.0
  0
LINE
  5
ED9C
330
1E
100
AcDbEntity
  8
躯体と製品
  6
Continuous
 62
     3
100
AcDbLine
 10
1043.501237954925
 20
266.0962404209081
 30
0.0
 11
1043.201237954926
 21
265.7962404209081
 31
0.0
  0
POINT
  5
ED9D
330
1E
100
AcDbEntity
  8
躯体と製品
 62
     4
100
AcDbPoint
 10
1043.501237954925
 20
267.2962404209081
 30
0.0
  0
ARC
  5
EDA3
330
1E
100
AcDbEntity
  8
躯体と製品
  6
Continuous
 62
     3
100
AcDbCircle
 10
1138.551624518747
 20
218.3157346688904
 30
0.0
 40
50.0
100
AcDbArc
 50
88.76789459355093
 51
114.5038379999983
  0
ARC
  5
EDA4
330
1E
100
AcDbEntity
  8
躯体と製品
  6
Continuous
 62
     3
100
AcDbCircle
 10
1138.551624518747
 20
218.3157346688904
 30
0.0
 40
48.79999999999999
100
AcDbArc
 50
96.55988869191711
 51
114.49355
  0
LINE
  5
EDA7
330
1E
100
AcDbEntity
  8
躯体と製品
  6
Continuous
 62
     3
100
AcDbLine
 10
1139.326756454926
 20
266.7962404209081
 30
0.0
 11
1132.976630166411
 21
266.7962404209081
 31
0.0
  0
LINE
  5
EDA8
330
1E
100
AcDbEntity
  8
躯体と製品
  6
Continuous
 62
     3
100
AcDbLine
 10
1139.626756454926
 20
267.0962404209081
 30
0.0
 11
1139.326756454926
 21
266.7962404209081
 31
0.0
  0
LINE
  5
EDA9
330
1E
100
AcDbEntity
  8
躯体と製品
  6
Continuous
 62
     3
100
AcDbLine
 10
1139.626756454926
 20
267.0962404209081
 30
0.0
 11
1139.926756454926
 21
266.7962404209081
 31
0.0
  0
POINT
  5
EDAA
330
1E
100
AcDbEntity
  8
躯体と製品
 62
     4
100
AcDbPoint
 10
1139.626756454926
 20
268.2962404209081
 30
0.0
  0
ARC
  5
EDAC
330
1E
100
AcDbEntity
  8
躯体と製品
  6
Continuous
 62
     3
100
AcDbCircle
 10
1149.457434133992
 20
238.5057356316616
 30
0.0
 40
26.8
100
AcDbArc
 50
44.41698300000143
 51
64.66345099999812
  0
ARC
  5
EDAD
330
1E
100
AcDbEntity
  8
躯体と製品
  6
Continuous
 62
     3
100
AcDbCircle
 10
1149.457434133992
 20
238.5057356316616
 30
0.0
 40
28.0
100
AcDbArc
 50
44.48536899999942
 51
64.66345099999812
  0
ARC
  5
EDAE
330
1E
100
AcDbEntity
  8
躯体と製品
  6
Continuous
 62
     3
100
AcDbCircle
 10
1226.478515648275
 20
239.8241021790916
 30
0.0
 40
24.0
100
AcDbArc
 50
121.9011799999991
 51
144.900550000001
  0
ARC
  5
EDAF
330
1E
100
AcDbEntity
  8
躯体と製品
  6
Continuous
 62
     3
100
AcDbCircle
 10
1246.529255648275
 20
239.8241021790916
 30
0.0
 40
24.0
100
AcDbArc
 50
35.09944000000006
 51
58.09881900000141
  0
ARC
  5
EDB0
330
1E
100
AcDbEntity
  8
躯体と製品
  6
Continuous
 62
     3
100
AcDbCircle
 10
1246.529255648275
 20
239.8241021790916
 30
0.0
 40
27.0
100
AcDbArc
 50
30.97929600000041
 51
58.26838300000058
  0
ARC
  5
EDB1
330
1E
100
AcDbEntity
  8
躯体と製品
  6
Continuous
 62
     3
100
AcDbCircle
 10
1226.478515648275
 20
239.8241021790916
 30
0.0
 40
27.0
100
AcDbArc
 50
121.7316099999977
 51
149.0206999999994
  0
LINE
  5
EDB7
330
1E
100
AcDbEntity
  8
躯体と製品
  6
CENTER1
 62
     4
100
AcDbLine
 10
1236.503885648275
 20
272.0490321790916
 30
0.0
 11
1236.503885648275
 21
229.2717321790916
 31
0.0
  0
LINE
  5
EDB8
330
1E
100
AcDbEntity
  8
図面枠
  6
Continuous
 62
     7
100
AcDbLine
 10
1287.098240554659
 20
346.6281257550085
 30
0.0
 11
1287.098240554659
 21
148.8374537550085
 31
0.0
  0
LINE
  5
EDB9
330
1E
100
AcDbEntity
  8
躯体と製品
  6
Continuous
 62
     7
100
AcDbLine
 10
1242.503885648275
 20
242.5490321790916
 30
0.0
 11
1237.003885648275
 21
242.5490321790916
 31
0.0
  0
LINE
  5
EDBA
330
1E
100
AcDbEntity
  8
躯体と製品
  6
Continuous
 62
     7
100
AcDbLine
 10
1210.503885648275
 20
240.0490321790916
 30
0.0
 11
1262.503885648275
 21
240.0490321790916
 31
0.0
  0
LINE
  5
EDBB
330
1E
100
AcDbEntity
  8
躯体と製品
  6
Continuous
 62
     3
100
AcDbLine
 10
1233.003885648275
 20
250.5490321790916
 30
0.0
 11
1240.003885648275
 21
250.5490321790916
 31
0.0
  0
LINE
  5
EDBC
330
1E
100
AcDbEntity
  8
躯体と製品
  6
Continuous
 62
     3
100
AcDbLine
 10
1231.968355648275
 20
253.0490321790916
 30
0.0
 11
1241.039425648275
 21
253.0490321790916
 31
0.0
  0
LINE
  5
EDBD
330
1E
100
AcDbEntity
  8
文字-記号
  6
Continuous
 62
     4
100
AcDbLine
 10
1228.577464944284
 20
209.604579804785
 30
0.0
 11
1245.538583175339
 21
209.604579804785
 31
0.0
  0
LINE
  5
EDBE
330
1E
100
AcDbEntity
  8
文字-記号
  6
Continuous
 62
     4
100
AcDbLine
 10
1228.577464944284
 20
206.3535156530075
 30
0.0
 11
1245.538583175339
 21
206.3535156530075
 31
0.0
  0
TEXT
  5
EDBF
330
1E
100
AcDbEntity
  8
文字-記号
 62
     7
100
AcDbText
 10
1230.454398659859
 20
206.3607396395539
 30
0.0
 40
3.0
  1
Ｒ曲げ用
 41
0.8
  7
ACAD
100
AcDbText
  0
TEXT
  5
EDC0
330
1E
100
AcDbEntity
  8
図面枠
 62
     7
100
AcDbText
 10
1236.33234055466
 20
158.4116637550085
 30
0.0
 40
3.0
  1
検　図
 41
0.8
  7
ACAD
100
AcDbText
  0
LINE
  5
EDC1
330
1E
100
AcDbEntity
  8
図面枠
  6
Continuous
 62
     7
100
AcDbLine
 10
1287.098240554659
 20
158.0102527550085
 30
0.0
 11
1234.766240554659
 21
158.0102527550085
 31
0.0
  0
TEXT
  5
EDC2
330
1E
100
AcDbEntity
  8
図面枠
 62
     7
100
AcDbText
 10
1158.700260554659
 20
151.8719007550085
 30
0.0
 40
3.0
  1
生産・開発統括部　開発グループ
 41
0.8
  7
ACAD
100
AcDbText
  0
ARC
  5
EDC3
330
1E
100
AcDbEntity
  8
図面枠
  6
Continuous
 62
     2
100
AcDbCircle
 10
1191.654700554659
 20
156.0299497550085
 30
0.0
 40
0.0705599999999999
100
AcDbArc
 50
270.0
 51
55.31196699999981
  0
LINE
  5
EDC4
330
1E
100
AcDbEntity
  8
図面枠
  6
Continuous
 62
     2
100
AcDbLine
 10
1191.694860554659
 20
156.0879687550085
 30
0.0
 11
1190.513660554659
 21
156.9055097550085
 31
0.0
  0
LINE
  5
EDC5
330
1E
100
AcDbEntity
  8
図面枠
  6
Continuous
 62
     2
100
AcDbLine
 10
1191.937830554659
 20
159.9974487550085
 30
0.0
 11
1191.253910554659
 21
159.9974487550085
 31
0.0
  0
LINE
  5
EDC6
330
1E
100
AcDbEntity
  8
図面枠
  6
Continuous
 62
     2
100
AcDbLine
 10
1191.937830554659
 20
159.3170617550085
 30
0.0
 11
1190.749370554659
 21
159.3170617550085
 31
0.0
  0
LINE
  5
EDC7
330
1E
100
AcDbEntity
  8
図面枠
  6
Continuous
 62
     2
100
AcDbLine
 10
1191.937830554659
 20
159.1541037550085
 30
0.0
 11
1190.628540554659
 21
159.1541037550085
 31
0.0
  0
LINE
  5
EDC8
330
1E
100
AcDbEntity
  8
図面枠
  6
Continuous
 62
     2
100
AcDbLine
 10
1191.937830554659
 20
158.4737147550085
 30
0.0
 11
1189.519420554659
 21
158.4737147550085
 31
0.0
  0
LINE
  5
EDC9
330
1E
100
AcDbEntity
  8
図面枠
  6
Continuous
 62
     2
100
AcDbLine
 10
1191.774800554659
 20
158.3903777550085
 30
0.0
 11
1189.519420554659
 21
158.3903777550085
 31
0.0
  0
LINE
  5
EDCA
330
1E
100
AcDbEntity
  8
図面枠
  6
Continuous
 62
     2
100
AcDbLine
 10
1191.774800554659
 20
157.6896117550085
 30
0.0
 11
1189.519420554659
 21
157.6896117550085
 31
0.0
  0
LINE
  5
EDCB
330
1E
100
AcDbEntity
  8
図面枠
  6
Continuous
 62
     2
100
AcDbLine
 10
1191.937830554659
 20
157.5858987550085
 30
0.0
 11
1189.519420554659
 21
157.5858987550085
 31
0.0
  0
LINE
  5
EDCC
330
1E
100
AcDbEntity
  8
図面枠
  6
Continuous
 62
     2
100
AcDbLine
 10
1191.937830554659
 20
156.9055097550085
 30
0.0
 11
1190.513660554659
 21
156.9055097550085
 31
0.0
  0
LINE
  5
EDCD
330
1E
100
AcDbEntity
  8
図面枠
  6
Continuous
 62
     7
100
AcDbLine
 10
1164.80564055466
 20
154.9938057550085
 30
0.0
 11
1164.80564055466
 21
161.0634927550085
 31
0.0
  0
LINE
  5
EDCE
330
1E
100
AcDbEntity
  8
図面枠
  6
Continuous
 62
     7
100
AcDbLine
 10
1158.743830554659
 20
161.0634927550085
 30
0.0
 11
1158.743830554659
 21
154.9938057550085
 31
0.0
  0
LINE
  5
EDCF
330
1E
100
AcDbEntity
  8
図面枠
  6
Continuous
 62
     7
100
AcDbLine
 10
1152.888890554659
 20
162.2438527550085
 30
0.0
 11
1152.888890554659
 21
148.8374537550085
 31
0.0
  0
LINE
  5
EDD0
330
1E
100
AcDbEntity
  8
図面枠
  6
Continuous
 62
     2
100
AcDbLine
 10
1179.721500554659
 20
160.3478787550085
 30
0.0
 11
1179.721500554659
 21
159.6134387550085
 31
0.0
  0
LINE
  5
EDD1
330
1E
100
AcDbEntity
  8
図面枠
  6
Continuous
 62
     2
100
AcDbLine
 10
1185.772520554659
 20
159.4229017550085
 30
0.0
 11
1185.772520554659
 21
159.8916087550085
 31
0.0
  0
LINE
  5
EDD2
330
1E
100
AcDbEntity
  8
図面枠
  6
Continuous
 62
     2
100
AcDbLine
 10
1185.01350055466
 20
160.3478787550085
 30
0.0
 11
1185.01350055466
 21
159.6134387550085
 31
0.0
  0
LINE
  5
EDD3
330
1E
100
AcDbEntity
  8
図面枠
  6
Continuous
 62
     2
100
AcDbLine
 10
1178.890550554659
 20
159.8916087550085
 30
0.0
 11
1178.890550554659
 21
159.2193717550085
 31
0.0
  0
LINE
  5
EDD4
330
1E
100
AcDbEntity
  8
図面枠
  6
Continuous
 62
     2
100
AcDbLine
 10
1174.036980554659
 20
159.1858817550085
 30
0.0
 11
1174.036980554659
 21
159.9141937550085
 31
0.0
  0
LINE
  5
EDD5
330
1E
100
AcDbEntity
  8
図面枠
  6
Continuous
 62
     2
100
AcDbLine
 10
1172.154150554659
 20
159.5908547550085
 30
0.0
 11
1172.154150554659
 21
160.3191677550085
 31
0.0
  0
LINE
  5
EDD6
330
1E
100
AcDbEntity
  8
図面枠
  6
Continuous
 62
     2
100
AcDbLine
 10
1171.473410554659
 20
159.6134387550085
 30
0.0
 11
1171.473410554659
 21
160.3478787550085
 31
0.0
  0
LINE
  5
EDD7
330
1E
100
AcDbEntity
  8
図面枠
  6
Continuous
 62
     2
100
AcDbLine
 10
1165.899170554659
 20
160.3478787550085
 30
0.0
 11
1165.899170554659
 21
159.6134387550085
 31
0.0
  0
LINE
  5
EDD8
330
1E
100
AcDbEntity
  8
図面枠
  6
Continuous
 62
     2
100
AcDbLine
 10
1174.366140554659
 20
159.8916087550085
 30
0.0
 11
1174.366140554659
 21
159.2193717550085
 31
0.0
  0
CIRCLE
  5
EDD9
330
1E
100
AcDbEntity
  8
図面枠
  6
Continuous
 62
     3
100
AcDbCircle
 10
1161.758090554659
 20
158.0045687550085
 30
0.0
 40
2.164133699999999
  0
CIRCLE
  5
EDDA
330
1E
100
AcDbEntity
  8
図面枠
  6
Continuous
 62
     3
100
AcDbCircle
 10
1161.758090554659
 20
158.0045687550085
 30
0.0
 40
2.2540998
  0
CIRCLE
  5
EDDB
330
1E
100
AcDbEntity
  8
図面枠
  6
Continuous
 62
     3
100
AcDbCircle
 10
1161.758090554659
 20
158.0045687550085
 30
0.0
 40
2.0740864
  0
CIRCLE
  5
EDDC
330
1E
100
AcDbEntity
  8
図面枠
  6
Continuous
 62
     3
100
AcDbCircle
 10
1161.758090554659
 20
158.0045687550085
 30
0.0
 40
2.327836399999999
  0
LINE
  5
EDDD
330
1E
100
AcDbEntity
  8
図面枠
  6
Continuous
 62
     2
100
AcDbLine
 10
1166.554600554659
 20
157.7334957550085
 30
0.0
 11
1170.922620554659
 21
157.7334957550085
 31
0.0
  0
LINE
  5
EDDE
330
1E
100
AcDbEntity
  8
図面枠
  6
Continuous
 62
     2
100
AcDbLine
 10
1166.554600554659
 20
158.6796147550085
 30
0.0
 11
1170.922620554659
 21
158.6796147550085
 31
0.0
  0
LINE
  5
EDDF
330
1E
100
AcDbEntity
  8
図面枠
  6
Continuous
 62
     2
100
AcDbLine
 10
1166.005010554659
 20
159.5075987550085
 30
0.0
 11
1171.367570554659
 21
159.5075987550085
 31
0.0
  0
LINE
  5
EDE0
330
1E
100
AcDbEntity
  8
図面枠
  6
Continuous
 62
     2
100
AcDbLine
 10
1171.367570554659
 20
156.9055097550085
 30
0.0
 11
1166.005010554659
 21
156.9055097550085
 31
0.0
  0
LINE
  5
EDE1
330
1E
100
AcDbEntity
  8
図面枠
  6
Continuous
 62
     2
100
AcDbLine
 10
1166.005010554659
 20
155.9593897550085
 30
0.0
 11
1171.367570554659
 21
155.9593897550085
 31
0.0
  0
LINE
  5
EDE2
330
1E
100
AcDbEntity
  8
図面枠
  6
Continuous
 62
     7
100
AcDbLine
 10
1158.743830554659
 20
154.9938057550085
 30
0.0
 11
1164.80564055466
 21
154.9938057550085
 31
0.0
  0
LINE
  5
EDE3
330
1E
100
AcDbEntity
  8
図面枠
  6
Continuous
 62
     3
100
AcDbLine
 10
1161.881570554659
 20
157.9641807550085
 30
0.0
 11
1162.98540055466
 21
159.0680037550085
 31
0.0
  0
LINE
  5
EDE4
330
1E
100
AcDbEntity
  8
図面枠
  6
Continuous
 62
     3
100
AcDbLine
 10
1161.758090554659
 20
158.1899537550085
 30
0.0
 11
1162.809950554659
 21
159.2418097550085
 31
0.0
  0
ARC
  5
EDE5
330
1E
100
AcDbEntity
  8
図面枠
  6
Continuous
 62
     3
100
AcDbCircle
 10
1161.758090554659
 20
158.0045687550085
 30
0.0
 40
1.471367799999999
100
AcDbArc
 50
287.7719499999974
 51
27.54460200000022
  0
ARC
  5
EDE6
330
1E
100
AcDbEntity
  8
図面枠
  6
Continuous
 62
     3
100
AcDbCircle
 10
1161.758090554659
 20
158.0045687550085
 30
0.0
 40
1.4122561
100
AcDbArc
 50
288.6790599999975
 51
26.65478899999957
  0
ARC
  5
EDE7
330
1E
100
AcDbEntity
  8
図面枠
  6
Continuous
 62
     3
100
AcDbCircle
 10
1161.758090554659
 20
158.0045687550085
 30
0.0
 40
1.5453711
100
AcDbArc
 50
286.580860000003
 51
28.71323299999881
  0
LINE
  5
EDE8
330
1E
100
AcDbEntity
  8
図面枠
  6
Continuous
 62
     3
100
AcDbLine
 10
1161.758090554659
 20
157.9593137550085
 30
0.0
 11
1162.926090554659
 21
159.1273097550085
 31
0.0
  0
LINE
  5
EDE9
330
1E
100
AcDbEntity
  8
図面枠
  6
Continuous
 62
     3
100
AcDbLine
 10
1161.758090554659
 20
158.0852927550085
 30
0.0
 11
1162.862280554659
 21
159.1894797550085
 31
0.0
  0
ARC
  5
EDEA
330
1E
100
AcDbEntity
  8
図面枠
  6
Continuous
 62
     3
100
AcDbCircle
 10
1161.758090554659
 20
158.0045687550085
 30
0.0
 40
1.6239361
100
AcDbArc
 50
285.7572499999974
 51
29.52147200000014
  0
ARC
  5
EDEB
330
1E
100
AcDbEntity
  8
図面枠
  6
Continuous
 62
     3
100
AcDbCircle
 10
1161.596350554659
 20
155.5211547550085
 30
0.0
 40
0.1620987
100
AcDbArc
 50
3.854359999999839
 51
93.19104499999767
  0
LINE
  5
EDEC
330
1E
100
AcDbEntity
  8
図面枠
  6
Continuous
 62
     3
100
AcDbLine
 10
1161.758090554659
 20
155.6767307550085
 30
0.0
 11
1161.758090554659
 21
155.5320517550085
 31
0.0
  0
ARC
  5
EDED
330
1E
100
AcDbEntity
  8
図面枠
  6
Continuous
 62
     3
100
AcDbCircle
 10
1161.919820554659
 20
155.5211547550085
 30
0.0
 40
0.1620987
100
AcDbArc
 50
86.80895500000232
 51
176.1456400000001
  0
ARC
  5
EDEE
330
1E
100
AcDbEntity
  8
図面枠
  6
Continuous
 62
     3
100
AcDbCircle
 10
1161.758090554659
 20
158.0045687550085
 30
0.0
 40
1.6239361
100
AcDbArc
 50
150.4785200000019
 51
254.242740000003
  0
ARC
  5
EDEF
330
1E
100
AcDbEntity
  8
図面枠
  6
Continuous
 62
     3
100
AcDbCircle
 10
1159.274680554659
 20
157.8428357550085
 30
0.0
 40
0.1620987
100
AcDbArc
 50
356.8089500000005
 51
86.14563999999692
  0
LINE
  5
EDF0
330
1E
100
AcDbEntity
  8
図面枠
  6
Continuous
 62
     3
100
AcDbLine
 10
1159.430250554659
 20
158.0045687550085
 30
0.0
 11
1159.285580554659
 21
158.0045687550085
 31
0.0
  0
ARC
  5
EDF1
330
1E
100
AcDbEntity
  8
図面枠
  6
Continuous
 62
     3
100
AcDbCircle
 10
1159.274680554659
 20
158.1662987550085
 30
0.0
 40
0.1620987
100
AcDbArc
 50
273.8543600000031
 51
3.191044999999388
  0
LINE
  5
EDF2
330
1E
100
AcDbEntity
  8
図面枠
  6
Continuous
 62
     3
100
AcDbLine
 10
1161.758090554659
 20
157.9593137550085
 30
0.0
 11
1160.590100554659
 21
159.1273097550085
 31
0.0
  0
LINE
  5
EDF3
330
1E
100
AcDbEntity
  8
図面枠
  6
Continuous
 62
     3
100
AcDbLine
 10
1161.758090554659
 20
158.0852927550085
 30
0.0
 11
1160.653910554659
 21
159.1894797550085
 31
0.0
  0
LINE
  5
EDF4
330
1E
100
AcDbEntity
  8
図面枠
  6
Continuous
 62
     3
100
AcDbLine
 10
1161.634610554659
 20
157.9641807550085
 30
0.0
 11
1160.530790554659
 21
159.0680037550085
 31
0.0
  0
LINE
  5
EDF5
330
1E
100
AcDbEntity
  8
図面枠
  6
Continuous
 62
     3
100
AcDbLine
 10
1161.758090554659
 20
158.1899537550085
 30
0.0
 11
1160.706240554659
 21
159.2418097550085
 31
0.0
  0
LINE
  5
EDF6
330
1E
100
AcDbEntity
  8
図面枠
  6
Continuous
 62
     3
100
AcDbLine
 10
1161.720210554659
 20
156.3899737550085
 30
0.0
 11
1161.720210554659
 21
157.9972077550085
 31
0.0
  0
LINE
  5
EDF7
330
1E
100
AcDbEntity
  8
図面枠
  6
Continuous
 62
     3
100
AcDbLine
 10
1161.80227055466
 20
156.3903537550085
 30
0.0
 11
1161.80227055466
 21
158.0034907550085
 31
0.0
  0
LINE
  5
EDF8
330
1E
100
AcDbEntity
  8
図面枠
  6
Continuous
 62
     3
100
AcDbLine
 10
1161.881570554659
 20
156.3853317550085
 30
0.0
 11
1161.881570554659
 21
157.9641807550085
 31
0.0
  0
ARC
  5
EDF9
330
1E
100
AcDbEntity
  8
図面枠
  6
Continuous
 62
     3
100
AcDbCircle
 10
1161.758090554659
 20
158.0045687550085
 30
0.0
 40
1.476816399999999
100
AcDbArc
 50
152.2630999999996
 51
252.4240499999985
  0
ARC
  5
EDFA
330
1E
100
AcDbEntity
  8
図面枠
  6
Continuous
 62
     3
100
AcDbCircle
 10
1161.758090554659
 20
158.0045687550085
 30
0.0
 40
1.4751004
100
AcDbArc
 50
62.98235200000068
 51
117.0176400000017
  0
ARC
  5
EDFB
330
1E
100
AcDbEntity
  8
図面枠
  6
Continuous
 62
     3
100
AcDbCircle
 10
1161.758090554659
 20
158.0045687550085
 30
0.0
 40
1.4122561
100
AcDbArc
 50
63.52108600000236
 51
116.4789099999971
  0
LINE
  5
EDFC
330
1E
100
AcDbEntity
  8
図面枠
  6
Continuous
 62
     3
100
AcDbLine
 10
1162.387770554659
 20
159.2686757550085
 30
0.0
 11
1162.544500554659
 21
159.4253937550085
 31
0.0
  0
LINE
  5
EDFD
330
1E
100
AcDbEntity
  8
図面枠
  6
Continuous
 62
     3
100
AcDbLine
 10
1161.128410554659
 20
159.2686757550085
 30
0.0
 11
1160.971700554659
 21
159.4253937550085
 31
0.0
  0
LINE
  5
EDFE
330
1E
100
AcDbEntity
  8
図面枠
  6
Continuous
 62
     3
100
AcDbLine
 10
1160.501200554659
 20
158.6485457550085
 30
0.0
 11
1160.345000554659
 21
158.8047617550085
 31
0.0
  0
LINE
  5
EDFF
330
1E
100
AcDbEntity
  8
図面枠
  6
Continuous
 62
     3
100
AcDbLine
 10
1161.317090554659
 20
156.6629317550085
 30
0.0
 11
1161.317090554659
 21
156.4416577550085
 31
0.0
  0
LINE
  5
EE00
330
1E
100
AcDbEntity
  8
図面枠
  6
Continuous
 62
     3
100
AcDbLine
 10
1162.199090554659
 20
156.6629317550085
 30
0.0
 11
1162.199090554659
 21
156.4416577550085
 31
0.0
  0
ARC
  5
EE01
330
1E
100
AcDbEntity
  8
図面枠
  6
Continuous
 62
     3
100
AcDbCircle
 10
1161.758090554659
 20
158.0045687550085
 30
0.0
 40
1.4122561
100
AcDbArc
 50
153.3452099999989
 51
251.3209299999986
  0
ARC
  5
EE02
330
1E
100
AcDbEntity
  8
図面枠
  6
Continuous
 62
     3
100
AcDbCircle
 10
1161.758090554659
 20
158.0045687550085
 30
0.0
 40
1.5453711
100
AcDbArc
 50
151.28676
 51
253.4191300000013
  0
ARC
  5
EE03
330
1E
100
AcDbEntity
  8
図面枠
  6
Continuous
 62
     3
100
AcDbCircle
 10
1161.758090554659
 20
158.0045687550085
 30
0.0
 40
1.5513313
100
AcDbArc
 50
61.80864999999799
 51
118.191350000002
  0
LINE
  5
EE04
330
1E
100
AcDbEntity
  8
図面枠
  6
Continuous
 62
     3
100
AcDbLine
 10
1161.634610554659
 20
156.3853317550085
 30
0.0
 11
1161.634610554659
 21
157.9641807550085
 31
0.0
  0
ARC
  5
EE05
330
1E
100
AcDbEntity
  8
図面枠
  6
Continuous
 62
     3
100
AcDbCircle
 10
1161.758090554659
 20
158.0045687550085
 30
0.0
 40
1.6239361
100
AcDbArc
 50
130.3698900000026
 51
139.0916600000016
  0
ARC
  5
EE06
330
1E
100
AcDbEntity
  8
図面枠
  6
Continuous
 62
     3
100
AcDbCircle
 10
1161.758090554659
 20
158.0045687550085
 30
0.0
 40
1.6239361
100
AcDbArc
 50
265.6391599999978
 51
274.360829999998
  0
ARC
  5
EE07
330
1E
100
AcDbEntity
  8
図面枠
  6
Continuous
 62
     3
100
AcDbCircle
 10
1161.758090554659
 20
158.0045687550085
 30
0.0
 40
1.6239361
100
AcDbArc
 50
61.0363710000006
 51
118.9636199999975
  0
ARC
  5
EE08
330
1E
100
AcDbEntity
  8
図面枠
  6
Continuous
 62
     3
100
AcDbCircle
 10
1164.241510554659
 20
157.8428357550085
 30
0.0
 40
0.1620987
100
AcDbArc
 50
93.85436000000309
 51
183.1910399999993
  0
LINE
  5
EE09
330
1E
100
AcDbEntity
  8
図面枠
  6
Continuous
 62
     3
100
AcDbLine
 10
1164.085940554659
 20
158.0045687550085
 30
0.0
 11
1164.230610554659
 21
158.0045687550085
 31
0.0
  0
ARC
  5
EE0A
330
1E
100
AcDbEntity
  8
図面枠
  6
Continuous
 62
     3
100
AcDbCircle
 10
1164.241510554659
 20
158.1662987550085
 30
0.0
 40
0.1620987
100
AcDbArc
 50
176.8089500000005
 51
266.1456399999968
  0
LINE
  5
EE0B
330
1E
100
AcDbEntity
  8
図面枠
  6
Continuous
 62
     3
100
AcDbLine
 10
1163.172330554659
 20
158.8059257550085
 30
0.0
 11
1163.015700554659
 21
158.6471367550085
 31
0.0
  0
ARC
  5
EE0C
330
1E
100
AcDbEntity
  8
図面枠
  6
Continuous
 62
     3
100
AcDbCircle
 10
1161.758090554659
 20
158.0045687550085
 30
0.0
 40
1.6239361
100
AcDbArc
 50
40.90833599999822
 51
49.63010200000212
  0
ARC
  5
EE0D
330
1E
100
AcDbEntity
  8
図面枠
  6
Continuous
 62
     2
100
AcDbCircle
 10
1166.554600554659
 20
157.8393357550085
 30
0.0
 40
0.10584
100
AcDbArc
 50
180.0
 51
270.0
  0
LINE
  5
EE0E
330
1E
100
AcDbEntity
  8
図面枠
  6
Continuous
 62
     2
100
AcDbLine
 10
1166.448760554659
 20
157.8393357550085
 30
0.0
 11
1166.448760554659
 21
158.5737747550085
 31
0.0
  0
ARC
  5
EE0F
330
1E
100
AcDbEntity
  8
図面枠
  6
Continuous
 62
     2
100
AcDbCircle
 10
1166.554600554659
 20
158.5737747550085
 30
0.0
 40
0.10584
100
AcDbArc
 50
90.0
 51
180.0
  0
ARC
  5
EE10
330
1E
100
AcDbEntity
  8
図面枠
  6
Continuous
 62
     2
100
AcDbCircle
 10
1166.005010554659
 20
159.6134387550085
 30
0.0
 40
0.10584
100
AcDbArc
 50
180.0
 51
270.0
  0
ARC
  5
EE11
330
1E
100
AcDbEntity
  8
図面枠
  6
Continuous
 62
     2
100
AcDbCircle
 10
1166.005010554659
 20
156.7996697550085
 30
0.0
 40
0.10584
100
AcDbArc
 50
90.0
 51
180.0
  0
LINE
  5
EE12
330
1E
100
AcDbEntity
  8
図面枠
  6
Continuous
 62
     2
100
AcDbLine
 10
1165.899170554659
 20
156.7996697550085
 30
0.0
 11
1165.899170554659
 21
156.0652297550085
 31
0.0
  0
ARC
  5
EE13
330
1E
100
AcDbEntity
  8
図面枠
  6
Continuous
 62
     2
100
AcDbCircle
 10
1166.005010554659
 20
156.0652297550085
 30
0.0
 40
0.10584
100
AcDbArc
 50
180.0
 51
270.0
  0
LINE
  5
EE14
330
1E
100
AcDbEntity
  8
図面枠
  6
Continuous
 62
     2
100
AcDbLine
 10
1185.048780554659
 20
155.9593897550085
 30
0.0
 11
1179.686220554659
 21
155.9593897550085
 31
0.0
  0
LINE
  5
EE15
330
1E
100
AcDbEntity
  8
図面枠
  6
Continuous
 62
     2
100
AcDbLine
 10
1179.686220554659
 20
156.9055097550085
 30
0.0
 11
1181.756180554659
 21
156.9055097550085
 31
0.0
  0
LINE
  5
EE16
330
1E
100
AcDbEntity
  8
図面枠
  6
Continuous
 62
     2
100
AcDbLine
 10
1181.756180554659
 20
159.5075987550085
 30
0.0
 11
1179.827340554659
 21
159.5075987550085
 31
0.0
  0
ARC
  5
EE17
330
1E
100
AcDbEntity
  8
図面枠
  6
Continuous
 62
     2
100
AcDbCircle
 10
1171.367570554659
 20
159.6134387550085
 30
0.0
 40
0.10584
100
AcDbArc
 50
270.0
 51
0.0
  0
ARC
  5
EE18
330
1E
100
AcDbEntity
  8
図面枠
  6
Continuous
 62
     2
100
AcDbCircle
 10
1171.367570554659
 20
156.0652297550085
 30
0.0
 40
0.10584
100
AcDbArc
 50
270.0
 51
0.0
  0
ARC
  5
EE19
330
1E
100
AcDbEntity
  8
図面枠
  6
Continuous
 62
     2
100
AcDbCircle
 10
1171.367570554659
 20
156.7996697550085
 30
0.0
 40
0.10584
100
AcDbArc
 50
0.0
 51
90.0
  0
LINE
  5
EE1A
330
1E
100
AcDbEntity
  8
図面枠
  6
Continuous
 62
     2
100
AcDbLine
 10
1171.028460554659
 20
157.8393357550085
 30
0.0
 11
1171.028460554659
 21
158.5737747550085
 31
0.0
  0
ARC
  5
EE1B
330
1E
100
AcDbEntity
  8
図面枠
  6
Continuous
 62
     2
100
AcDbCircle
 10
1170.922620554659
 20
157.8393357550085
 30
0.0
 40
0.10584
100
AcDbArc
 50
270.0
 51
0.0
  0
ARC
  5
EE1C
330
1E
100
AcDbEntity
  8
図面枠
  6
Continuous
 62
     2
100
AcDbCircle
 10
1170.922620554659
 20
158.5737747550085
 30
0.0
 40
0.10584
100
AcDbArc
 50
0.0
 51
90.0
  0
LINE
  5
EE1D
330
1E
100
AcDbEntity
  8
図面枠
  6
Continuous
 62
     2
100
AcDbLine
 10
1172.965080554659
 20
157.4574997550085
 30
0.0
 11
1173.819490554659
 21
157.4574997550085
 31
0.0
  0
ARC
  5
EE1E
330
1E
100
AcDbEntity
  8
図面枠
  6
Continuous
 62
     2
100
AcDbCircle
 10
1172.965080554659
 20
157.3516597550085
 30
0.0
 40
0.10584
100
AcDbArc
 50
90.0
 51
154.5324700000012
  0
LINE
  5
EE1F
330
1E
100
AcDbEntity
  8
図面枠
  6
Continuous
 62
     2
100
AcDbLine
 10
1172.86951055466
 20
157.3971707550085
 30
0.0
 11
1172.256810554659
 21
156.1107417550085
 31
0.0
  0
ARC
  5
EE20
330
1E
100
AcDbEntity
  8
図面枠
  6
Continuous
 62
     2
100
AcDbCircle
 10
1172.352370554659
 20
156.0652297550085
 30
0.0
 40
0.10584
100
AcDbArc
 50
154.5324700000012
 51
270.0
  0
LINE
  5
EE21
330
1E
100
AcDbEntity
  8
図面枠
  6
Continuous
 62
     2
100
AcDbLine
 10
1172.352370554659
 20
155.9593897550085
 30
0.0
 11
1173.206900554659
 21
155.9593897550085
 31
0.0
  0
ARC
  5
EE22
330
1E
100
AcDbEntity
  8
図面枠
  6
Continuous
 62
     2
100
AcDbCircle
 10
1173.206900554659
 20
156.0652297550085
 30
0.0
 40
0.10584
100
AcDbArc
 50
270.0
 51
334.5366499999986
  0
LINE
  5
EE23
330
1E
100
AcDbEntity
  8
図面枠
  6
Continuous
 62
     2
100
AcDbLine
 10
1173.302460554659
 20
156.0197257550085
 30
0.0
 11
1173.915050554659
 21
157.3061547550085
 31
0.0
  0
ARC
  5
EE24
330
1E
100
AcDbEntity
  8
図面枠
  6
Continuous
 62
     2
100
AcDbCircle
 10
1173.819490554659
 20
157.3516597550085
 30
0.0
 40
0.10584
100
AcDbArc
 50
334.5366499999986
 51
90.0
  0
LINE
  5
EE25
330
1E
100
AcDbEntity
  8
図面枠
  6
Continuous
 62
     2
100
AcDbLine
 10
1173.956070554659
 20
158.6430187550085
 30
0.0
 11
1172.284910554659
 21
159.0479917550085
 31
0.0
  0
ARC
  5
EE26
330
1E
100
AcDbEntity
  8
図面枠
  6
Continuous
 62
     2
100
AcDbCircle
 10
1173.931140554659
 20
158.5401567550085
 30
0.0
 40
0.10584
100
AcDbArc
 50
0.0
 51
76.3780409999969
  0
LINE
  5
EE27
330
1E
100
AcDbEntity
  8
図面枠
  6
Continuous
 62
     2
100
AcDbLine
 10
1174.036980554659
 20
158.5401567550085
 30
0.0
 11
1174.036980554659
 21
157.8118427550085
 31
0.0
  0
ARC
  5
EE28
330
1E
100
AcDbEntity
  8
図面枠
  6
Continuous
 62
     2
100
AcDbCircle
 10
1173.931140554659
 20
157.8118427550085
 30
0.0
 40
0.10584
100
AcDbArc
 50
256.378039999999
 51
0.0
  0
LINE
  5
EE29
330
1E
100
AcDbEntity
  8
図面枠
  6
Continuous
 62
     2
100
AcDbLine
 10
1173.906220554659
 20
157.7089807550085
 30
0.0
 11
1172.235060554659
 21
158.1139527550085
 31
0.0
  0
ARC
  5
EE2A
330
1E
100
AcDbEntity
  8
図面枠
  6
Continuous
 62
     2
100
AcDbCircle
 10
1172.25999055466
 20
158.2168157550085
 30
0.0
 40
0.10584
100
AcDbArc
 50
180.0
 51
256.378039999999
  0
LINE
  5
EE2B
330
1E
100
AcDbEntity
  8
図面枠
  6
Continuous
 62
     2
100
AcDbLine
 10
1172.154150554659
 20
158.2168157550085
 30
0.0
 11
1172.154150554659
 21
158.9451297550085
 31
0.0
  0
ARC
  5
EE2C
330
1E
100
AcDbEntity
  8
図面枠
  6
Continuous
 62
     2
100
AcDbCircle
 10
1172.25999055466
 20
158.9451297550085
 30
0.0
 40
0.10584
100
AcDbArc
 50
76.3780409999969
 51
180.0
  0
LINE
  5
EE2D
330
1E
100
AcDbEntity
  8
図面枠
  6
Continuous
 62
     2
100
AcDbLine
 10
1173.906220554659
 20
159.0830187550085
 30
0.0
 11
1172.235060554659
 21
159.4879917550085
 31
0.0
  0
ARC
  5
EE2E
330
1E
100
AcDbEntity
  8
図面枠
  6
Continuous
 62
     2
100
AcDbCircle
 10
1173.931140554659
 20
159.1858817550085
 30
0.0
 40
0.10584
100
AcDbArc
 50
256.378039999999
 51
0.0
  0
ARC
  5
EE2F
330
1E
100
AcDbEntity
  8
図面枠
  6
Continuous
 62
     2
100
AcDbCircle
 10
1172.25999055466
 20
159.5908547550085
 30
0.0
 40
0.10584
100
AcDbArc
 50
180.0
 51
256.378039999999
  0
LINE
  5
EE30
330
1E
100
AcDbEntity
  8
図面枠
  6
Continuous
 62
     2
100
AcDbLine
 10
1171.473410554659
 20
156.0652297550085
 30
0.0
 11
1171.473410554659
 21
156.7996697550085
 31
0.0
  0
ARC
  5
EE31
330
1E
100
AcDbEntity
  8
図面枠
  6
Continuous
 62
     2
100
AcDbCircle
 10
1177.133840554659
 20
156.0652297550085
 30
0.0
 40
0.10584
100
AcDbArc
 50
270.0
 51
0.0
  0
LINE
  5
EE32
330
1E
100
AcDbEntity
  8
図面枠
  6
Continuous
 62
     2
100
AcDbLine
 10
1177.133840554659
 20
155.9593897550085
 30
0.0
 11
1176.122860554659
 21
155.9593897550085
 31
0.0
  0
LINE
  5
EE33
330
1E
100
AcDbEntity
  8
図面枠
  6
Continuous
 62
     2
100
AcDbLine
 10
1176.017020554659
 20
156.0652297550085
 30
0.0
 11
1176.017020554659
 21
156.3484567550085
 31
0.0
  0
ARC
  5
EE34
330
1E
100
AcDbEntity
  8
図面枠
  6
Continuous
 62
     2
100
AcDbCircle
 10
1176.122860554659
 20
156.0652297550085
 30
0.0
 40
0.10584
100
AcDbArc
 50
180.0
 51
270.0
  0
LINE
  5
EE35
330
1E
100
AcDbEntity
  8
図面枠
  6
Continuous
 62
     2
100
AcDbLine
 10
1176.017020554659
 20
156.3484567550085
 30
0.0
 11
1174.471980554659
 21
156.3484567550085
 31
0.0
  0
ARC
  5
EE36
330
1E
100
AcDbEntity
  8
図面枠
  6
Continuous
 62
     2
100
AcDbCircle
 10
1174.471980554659
 20
156.4542967550085
 30
0.0
 40
0.10584
100
AcDbArc
 50
180.0
 51
270.0
  0
LINE
  5
EE37
330
1E
100
AcDbEntity
  8
図面枠
  6
Continuous
 62
     2
100
AcDbLine
 10
1174.366140554659
 20
156.4542967550085
 30
0.0
 11
1174.366140554659
 21
157.1265337550085
 31
0.0
  0
LINE
  5
EE38
330
1E
100
AcDbEntity
  8
図面枠
  6
Continuous
 62
     2
100
AcDbLine
 10
1174.471980554659
 20
157.2323737550085
 30
0.0
 11
1176.017020554659
 21
157.2323737550085
 31
0.0
  0
ARC
  5
EE39
330
1E
100
AcDbEntity
  8
図面枠
  6
Continuous
 62
     2
100
AcDbCircle
 10
1174.471980554659
 20
157.1265337550085
 30
0.0
 40
0.10584
100
AcDbArc
 50
90.0
 51
180.0
  0
LINE
  5
EE3A
330
1E
100
AcDbEntity
  8
図面枠
  6
Continuous
 62
     2
100
AcDbLine
 10
1176.017020554659
 20
157.2323737550085
 30
0.0
 11
1176.017020554659
 21
157.7309947550085
 31
0.0
  0
LINE
  5
EE3B
330
1E
100
AcDbEntity
  8
図面枠
  6
Continuous
 62
     2
100
AcDbLine
 10
1176.017020554659
 20
157.7309947550085
 30
0.0
 11
1174.635010554659
 21
157.7309947550085
 31
0.0
  0
ARC
  5
EE3C
330
1E
100
AcDbEntity
  8
図面枠
  6
Continuous
 62
     2
100
AcDbCircle
 10
1174.635010554659
 20
157.8368347550085
 30
0.0
 40
0.10584
100
AcDbArc
 50
180.0
 51
270.0
  0
LINE
  5
EE3D
330
1E
100
AcDbEntity
  8
図面枠
  6
Continuous
 62
     2
100
AcDbLine
 10
1174.529170554659
 20
157.8368347550085
 30
0.0
 11
1174.529170554659
 21
158.5090727550085
 31
0.0
  0
LINE
  5
EE3E
330
1E
100
AcDbEntity
  8
図面枠
  6
Continuous
 62
     2
100
AcDbLine
 10
1174.635010554659
 20
158.6149127550085
 30
0.0
 11
1176.017020554659
 21
158.6149127550085
 31
0.0
  0
ARC
  5
EE3F
330
1E
100
AcDbEntity
  8
図面枠
  6
Continuous
 62
     2
100
AcDbCircle
 10
1174.635010554659
 20
158.5090727550085
 30
0.0
 40
0.10584
100
AcDbArc
 50
90.0
 51
180.0
  0
LINE
  5
EE40
330
1E
100
AcDbEntity
  8
図面枠
  6
Continuous
 62
     2
100
AcDbLine
 10
1176.017020554659
 20
158.6149127550085
 30
0.0
 11
1176.017020554659
 21
159.1135317550085
 31
0.0
  0
LINE
  5
EE41
330
1E
100
AcDbEntity
  8
図面枠
  6
Continuous
 62
     2
100
AcDbLine
 10
1176.017020554659
 20
159.1135317550085
 30
0.0
 11
1174.471980554659
 21
159.1135317550085
 31
0.0
  0
ARC
  5
EE42
330
1E
100
AcDbEntity
  8
図面枠
  6
Continuous
 62
     2
100
AcDbCircle
 10
1174.471980554659
 20
159.2193717550085
 30
0.0
 40
0.10584
100
AcDbArc
 50
180.0
 51
270.0
  0
ARC
  5
EE43
330
1E
100
AcDbEntity
  8
図面枠
  6
Continuous
 62
     2
100
AcDbCircle
 10
1179.827340554659
 20
159.6134387550085
 30
0.0
 40
0.10584
100
AcDbArc
 50
180.0
 51
270.0
  0
LINE
  5
EE44
330
1E
100
AcDbEntity
  8
図面枠
  6
Continuous
 62
     2
100
AcDbLine
 10
1179.580380554659
 20
156.0652297550085
 30
0.0
 11
1179.580380554659
 21
156.7996697550085
 31
0.0
  0
ARC
  5
EE45
330
1E
100
AcDbEntity
  8
図面枠
  6
Continuous
 62
     2
100
AcDbCircle
 10
1179.686220554659
 20
156.0652297550085
 30
0.0
 40
0.10584
100
AcDbArc
 50
180.0
 51
270.0
  0
ARC
  5
EE46
330
1E
100
AcDbEntity
  8
図面枠
  6
Continuous
 62
     2
100
AcDbCircle
 10
1179.686220554659
 20
156.7996697550085
 30
0.0
 40
0.10584
100
AcDbArc
 50
90.0
 51
180.0
  0
LINE
  5
EE47
330
1E
100
AcDbEntity
  8
図面枠
  6
Continuous
 62
     2
100
AcDbLine
 10
1178.784710554659
 20
159.1135317550085
 30
0.0
 11
1177.239680554659
 21
159.1135317550085
 31
0.0
  0
ARC
  5
EE48
330
1E
100
AcDbEntity
  8
図面枠
  6
Continuous
 62
     2
100
AcDbCircle
 10
1178.784710554659
 20
159.2193717550085
 30
0.0
 40
0.10584
100
AcDbArc
 50
270.0
 51
0.0
  0
LINE
  5
EE49
330
1E
100
AcDbEntity
  8
図面枠
  6
Continuous
 62
     2
100
AcDbLine
 10
1177.239680554659
 20
159.1135317550085
 30
0.0
 11
1177.239680554659
 21
158.6149127550085
 31
0.0
  0
LINE
  5
EE4A
330
1E
100
AcDbEntity
  8
図面枠
  6
Continuous
 62
     2
100
AcDbLine
 10
1177.239680554659
 20
158.6149127550085
 30
0.0
 11
1178.62169055466
 21
158.6149127550085
 31
0.0
  0
LINE
  5
EE4B
330
1E
100
AcDbEntity
  8
図面枠
  6
Continuous
 62
     2
100
AcDbLine
 10
1178.727530554659
 20
158.5090727550085
 30
0.0
 11
1178.727530554659
 21
157.8368347550085
 31
0.0
  0
ARC
  5
EE4C
330
1E
100
AcDbEntity
  8
図面枠
  6
Continuous
 62
     2
100
AcDbCircle
 10
1178.62169055466
 20
158.5090727550085
 30
0.0
 40
0.10584
100
AcDbArc
 50
0.0
 51
90.0
  0
LINE
  5
EE4D
330
1E
100
AcDbEntity
  8
図面枠
  6
Continuous
 62
     2
100
AcDbLine
 10
1178.62169055466
 20
157.7309947550085
 30
0.0
 11
1177.239680554659
 21
157.7309947550085
 31
0.0
  0
ARC
  5
EE4E
330
1E
100
AcDbEntity
  8
図面枠
  6
Continuous
 62
     2
100
AcDbCircle
 10
1178.62169055466
 20
157.8368347550085
 30
0.0
 40
0.10584
100
AcDbArc
 50
270.0
 51
0.0
  0
LINE
  5
EE4F
330
1E
100
AcDbEntity
  8
図面枠
  6
Continuous
 62
     2
100
AcDbLine
 10
1177.239680554659
 20
157.7309947550085
 30
0.0
 11
1177.239680554659
 21
157.2323737550085
 31
0.0
  0
LINE
  5
EE50
330
1E
100
AcDbEntity
  8
図面枠
  6
Continuous
 62
     2
100
AcDbLine
 10
1177.239680554659
 20
157.2323737550085
 30
0.0
 11
1178.784710554659
 21
157.2323737550085
 31
0.0
  0
ARC
  5
EE51
330
1E
100
AcDbEntity
  8
図面枠
  6
Continuous
 62
     2
100
AcDbCircle
 10
1178.784710554659
 20
157.1265337550085
 30
0.0
 40
0.10584
100
AcDbArc
 50
0.0
 51
90.0
  0
LINE
  5
EE52
330
1E
100
AcDbEntity
  8
図面枠
  6
Continuous
 62
     2
100
AcDbLine
 10
1178.890550554659
 20
157.1265337550085
 30
0.0
 11
1178.890550554659
 21
156.4542967550085
 31
0.0
  0
LINE
  5
EE53
330
1E
100
AcDbEntity
  8
図面枠
  6
Continuous
 62
     2
100
AcDbLine
 10
1178.784710554659
 20
156.3484567550085
 30
0.0
 11
1177.239680554659
 21
156.3484567550085
 31
0.0
  0
ARC
  5
EE54
330
1E
100
AcDbEntity
  8
図面枠
  6
Continuous
 62
     2
100
AcDbCircle
 10
1178.784710554659
 20
156.4542967550085
 30
0.0
 40
0.10584
100
AcDbArc
 50
270.0
 51
0.0
  0
LINE
  5
EE55
330
1E
100
AcDbEntity
  8
図面枠
  6
Continuous
 62
     2
100
AcDbLine
 10
1177.239680554659
 20
156.3484567550085
 30
0.0
 11
1177.239680554659
 21
156.0652297550085
 31
0.0
  0
ARC
  5
EE56
330
1E
100
AcDbEntity
  8
図面枠
  6
Continuous
 62
     2
100
AcDbCircle
 10
1185.878360554659
 20
157.0113497550085
 30
0.0
 40
0.10584
100
AcDbArc
 50
180.0
 51
270.0
  0
ARC
  5
EE57
330
1E
100
AcDbEntity
  8
図面枠
  6
Continuous
 62
     2
100
AcDbCircle
 10
1185.878360554659
 20
157.4800587550085
 30
0.0
 40
0.10584
100
AcDbArc
 50
90.0
 51
180.0
  0
ARC
  5
EE58
330
1E
100
AcDbEntity
  8
図面枠
  6
Continuous
 62
     2
100
AcDbCircle
 10
1185.878360554659
 20
158.5795547550085
 30
0.0
 40
0.10584
100
AcDbArc
 50
180.0
 51
270.0
  0
ARC
  5
EE59
330
1E
100
AcDbEntity
  8
図面枠
  6
Continuous
 62
     2
100
AcDbCircle
 10
1185.878360554659
 20
159.0482637550085
 30
0.0
 40
0.10584
100
AcDbArc
 50
90.0
 51
180.0
  0
ARC
  5
EE5A
330
1E
100
AcDbEntity
  8
図面枠
  6
Continuous
 62
     2
100
AcDbCircle
 10
1185.878360554659
 20
159.4229017550085
 30
0.0
 40
0.10584
100
AcDbArc
 50
180.0
 51
270.0
  0
LINE
  5
EE5B
330
1E
100
AcDbEntity
  8
図面枠
  6
Continuous
 62
     2
100
AcDbLine
 10
1181.756180554659
 20
156.9055097550085
 30
0.0
 11
1181.756180554659
 21
159.5075987550085
 31
0.0
  0
LINE
  5
EE5C
330
1E
100
AcDbEntity
  8
図面枠
  6
Continuous
 62
     2
100
AcDbLine
 10
1185.772520554659
 20
157.0113497550085
 30
0.0
 11
1185.772520554659
 21
157.4800587550085
 31
0.0
  0
LINE
  5
EE5D
330
1E
100
AcDbEntity
  8
図面枠
  6
Continuous
 62
     2
100
AcDbLine
 10
1185.772520554659
 20
158.5795547550085
 30
0.0
 11
1185.772520554659
 21
159.0482637550085
 31
0.0
  0
LINE
  5
EE5E
330
1E
100
AcDbEntity
  8
図面枠
  6
Continuous
 62
     2
100
AcDbLine
 10
1184.907660554659
 20
159.5075987550085
 30
0.0
 11
1182.978840554659
 21
159.5075987550085
 31
0.0
  0
ARC
  5
EE5F
330
1E
100
AcDbEntity
  8
図面枠
  6
Continuous
 62
     2
100
AcDbCircle
 10
1184.907660554659
 20
159.6134387550085
 30
0.0
 40
0.10584
100
AcDbArc
 50
270.0
 51
0.0
  0
LINE
  5
EE60
330
1E
100
AcDbEntity
  8
図面枠
  6
Continuous
 62
     2
100
AcDbLine
 10
1182.978840554659
 20
159.5075987550085
 30
0.0
 11
1182.978840554659
 21
156.9055097550085
 31
0.0
  0
LINE
  5
EE61
330
1E
100
AcDbEntity
  8
図面枠
  6
Continuous
 62
     2
100
AcDbLine
 10
1182.978840554659
 20
156.9055097550085
 30
0.0
 11
1185.048780554659
 21
156.9055097550085
 31
0.0
  0
LINE
  5
EE62
330
1E
100
AcDbEntity
  8
図面枠
  6
Continuous
 62
     2
100
AcDbLine
 10
1185.154620554659
 20
156.7996697550085
 30
0.0
 11
1185.154620554659
 21
156.0652297550085
 31
0.0
  0
ARC
  5
EE63
330
1E
100
AcDbEntity
  8
図面枠
  6
Continuous
 62
     2
100
AcDbCircle
 10
1185.048780554659
 20
156.7996697550085
 30
0.0
 40
0.10584
100
AcDbArc
 50
0.0
 51
90.0
  0
ARC
  5
EE64
330
1E
100
AcDbEntity
  8
図面枠
  6
Continuous
 62
     2
100
AcDbCircle
 10
1185.048780554659
 20
156.0652297550085
 30
0.0
 40
0.10584
100
AcDbArc
 50
270.0
 51
0.0
  0
LINE
  5
EE65
330
1E
100
AcDbEntity
  8
図面枠
  6
Continuous
 62
     2
100
AcDbLine
 10
1188.402600554659
 20
155.9593897550085
 30
0.0
 11
1189.413580554659
 21
155.9593897550085
 31
0.0
  0
LINE
  5
EE66
330
1E
100
AcDbEntity
  8
図面枠
  6
Continuous
 62
     2
100
AcDbLine
 10
1188.185140554659
 20
159.1541037550085
 30
0.0
 11
1189.631040554659
 21
159.1541037550085
 31
0.0
  0
LINE
  5
EE67
330
1E
100
AcDbEntity
  8
図面枠
  6
Continuous
 62
     2
100
AcDbLine
 10
1188.228810554659
 20
159.3170617550085
 30
0.0
 11
1189.587380554659
 21
159.3170617550085
 31
0.0
  0
LINE
  5
EE68
330
1E
100
AcDbEntity
  8
図面枠
  6
Continuous
 62
     2
100
AcDbLine
 10
1186.161460554659
 20
155.9593897550085
 30
0.0
 11
1187.326950554659
 21
155.9593897550085
 31
0.0
  0
ARC
  5
EE69
330
1E
100
AcDbEntity
  8
図面枠
  6
Continuous
 62
     2
100
AcDbCircle
 10
1186.161460554659
 20
156.0299497550085
 30
0.0
 40
0.0705599999999999
100
AcDbArc
 50
124.6880300000015
 51
270.0
  0
LINE
  5
EE6A
330
1E
100
AcDbEntity
  8
図面枠
  6
Continuous
 62
     2
100
AcDbLine
 10
1186.121320554659
 20
156.0879687550085
 30
0.0
 11
1187.302520554659
 21
156.9055097550085
 31
0.0
  0
LINE
  5
EE6B
330
1E
100
AcDbEntity
  8
図面枠
  6
Continuous
 62
     2
100
AcDbLine
 10
1187.389140554659
 20
155.9795887550085
 30
0.0
 11
1188.296760554659
 21
156.6386477550085
 31
0.0
  0
ARC
  5
EE6C
330
1E
100
AcDbEntity
  8
図面枠
  6
Continuous
 62
     2
100
AcDbCircle
 10
1187.326950554659
 20
156.0652297550085
 30
0.0
 40
0.10584
100
AcDbArc
 50
270.0
 51
305.9851099999983
  0
LINE
  5
EE6D
330
1E
100
AcDbEntity
  8
図面枠
  6
Continuous
 62
     2
100
AcDbLine
 10
1188.296760554659
 20
156.0652297550085
 30
0.0
 11
1188.296760554659
 21
156.6386477550085
 31
0.0
  0
ARC
  5
EE6E
330
1E
100
AcDbEntity
  8
図面枠
  6
Continuous
 62
     2
100
AcDbCircle
 10
1188.402600554659
 20
156.0652297550085
 30
0.0
 40
0.10584
100
AcDbArc
 50
180.0
 51
270.0
  0
LINE
  5
EE6F
330
1E
100
AcDbEntity
  8
図面枠
  6
Continuous
 62
     2
100
AcDbLine
 10
1185.878360554659
 20
156.9055097550085
 30
0.0
 11
1187.302520554659
 21
156.9055097550085
 31
0.0
  0
LINE
  5
EE70
330
1E
100
AcDbEntity
  8
図面枠
  6
Continuous
 62
     2
100
AcDbLine
 10
1185.878360554659
 20
157.5858987550085
 30
0.0
 11
1188.296760554659
 21
157.5858987550085
 31
0.0
  0
LINE
  5
EE71
330
1E
100
AcDbEntity
  8
図面枠
  6
Continuous
 62
     2
100
AcDbLine
 10
1185.935540554659
 20
157.7954517550085
 30
0.0
 11
1185.935540554659
 21
158.2845377550085
 31
0.0
  0
ARC
  5
EE72
330
1E
100
AcDbEntity
  8
図面枠
  6
Continuous
 62
     2
100
AcDbCircle
 10
1186.041380554659
 20
157.7954517550085
 30
0.0
 40
0.10584
100
AcDbArc
 50
180.0
 51
270.0
  0
LINE
  5
EE73
330
1E
100
AcDbEntity
  8
図面枠
  6
Continuous
 62
     2
100
AcDbLine
 10
1186.041380554659
 20
157.6896117550085
 30
0.0
 11
1188.296760554659
 21
157.6896117550085
 31
0.0
  0
LINE
  5
EE74
330
1E
100
AcDbEntity
  8
図面枠
  6
Continuous
 62
     2
100
AcDbLine
 10
1186.041380554659
 20
158.3903777550085
 30
0.0
 11
1188.296760554659
 21
158.3903777550085
 31
0.0
  0
ARC
  5
EE75
330
1E
100
AcDbEntity
  8
図面枠
  6
Continuous
 62
     2
100
AcDbCircle
 10
1186.041380554659
 20
158.2845377550085
 30
0.0
 40
0.10584
100
AcDbArc
 50
90.0
 51
180.0
  0
LINE
  5
EE76
330
1E
100
AcDbEntity
  8
図面枠
  6
Continuous
 62
     2
100
AcDbLine
 10
1185.878360554659
 20
158.4737147550085
 30
0.0
 11
1188.296760554659
 21
158.4737147550085
 31
0.0
  0
LINE
  5
EE77
330
1E
100
AcDbEntity
  8
図面枠
  6
Continuous
 62
     2
100
AcDbLine
 10
1185.878360554659
 20
159.1541037550085
 30
0.0
 11
1187.187630554659
 21
159.1541037550085
 31
0.0
  0
LINE
  5
EE78
330
1E
100
AcDbEntity
  8
図面枠
  6
Continuous
 62
     2
100
AcDbLine
 10
1185.878360554659
 20
159.3170617550085
 30
0.0
 11
1187.066790554659
 21
159.3170617550085
 31
0.0
  0
LINE
  5
EE79
330
1E
100
AcDbEntity
  8
図面枠
  6
Continuous
 62
     2
100
AcDbLine
 10
1187.066790554659
 20
159.3170617550085
 30
0.0
 11
1187.187630554659
 21
159.1541037550085
 31
0.0
  0
LINE
  5
EE7A
330
1E
100
AcDbEntity
  8
図面枠
  6
Continuous
 62
     2
100
AcDbLine
 10
1188.296760554659
 20
158.4737147550085
 30
0.0
 11
1188.296760554659
 21
158.3903777550085
 31
0.0
  0
LINE
  5
EE7B
330
1E
100
AcDbEntity
  8
図面枠
  6
Continuous
 62
     2
100
AcDbLine
 10
1188.228810554659
 20
159.3170617550085
 30
0.0
 11
1188.185140554659
 21
159.1541037550085
 31
0.0
  0
LINE
  5
EE7C
330
1E
100
AcDbEntity
  8
図面枠
  6
Continuous
 62
     2
100
AcDbLine
 10
1188.296760554659
 20
157.6896117550085
 30
0.0
 11
1188.296760554659
 21
157.5858987550085
 31
0.0
  0
LINE
  5
EE7D
330
1E
100
AcDbEntity
  8
図面枠
  6
Continuous
 62
     2
100
AcDbLine
 10
1191.654700554659
 20
155.9593897550085
 30
0.0
 11
1190.489230554659
 21
155.9593897550085
 31
0.0
  0
ARC
  5
EE7E
330
1E
100
AcDbEntity
  8
図面枠
  6
Continuous
 62
     2
100
AcDbCircle
 10
1190.489230554659
 20
156.0652297550085
 30
0.0
 40
0.10584
100
AcDbArc
 50
234.01488
 51
270.0
  0
LINE
  5
EE7F
330
1E
100
AcDbEntity
  8
図面枠
  6
Continuous
 62
     2
100
AcDbLine
 10
1190.427040554659
 20
155.9795887550085
 30
0.0
 11
1189.519420554659
 21
156.6386477550085
 31
0.0
  0
ARC
  5
EE80
330
1E
100
AcDbEntity
  8
図面枠
  6
Continuous
 62
     2
100
AcDbCircle
 10
1189.413580554659
 20
156.0652297550085
 30
0.0
 40
0.10584
100
AcDbArc
 50
270.0
 51
0.0
  0
LINE
  5
EE81
330
1E
100
AcDbEntity
  8
図面枠
  6
Continuous
 62
     2
100
AcDbLine
 10
1189.519420554659
 20
156.0652297550085
 30
0.0
 11
1189.519420554659
 21
156.6386477550085
 31
0.0
  0
LINE
  5
EE82
330
1E
100
AcDbEntity
  8
図面枠
  6
Continuous
 62
     2
100
AcDbLine
 10
1189.587380554659
 20
159.3170617550085
 30
0.0
 11
1189.631040554659
 21
159.1541037550085
 31
0.0
  0
LINE
  5
EE83
330
1E
100
AcDbEntity
  8
図面枠
  6
Continuous
 62
     2
100
AcDbLine
 10
1190.749370554659
 20
159.3170617550085
 30
0.0
 11
1190.628540554659
 21
159.1541037550085
 31
0.0
  0
LINE
  5
EE84
330
1E
100
AcDbEntity
  8
図面枠
  6
Continuous
 62
     2
100
AcDbLine
 10
1189.519420554659
 20
158.4737147550085
 30
0.0
 11
1189.519420554659
 21
158.3903777550085
 31
0.0
  0
LINE
  5
EE85
330
1E
100
AcDbEntity
  8
図面枠
  6
Continuous
 62
     2
100
AcDbLine
 10
1189.519420554659
 20
157.6896117550085
 30
0.0
 11
1189.519420554659
 21
157.5858987550085
 31
0.0
  0
LINE
  5
EE86
330
1E
100
AcDbEntity
  8
図面枠
  6
Continuous
 62
     2
100
AcDbLine
 10
1171.367570554659
 20
160.4537187550085
 30
0.0
 11
1166.005010554659
 21
160.4537187550085
 31
0.0
  0
LINE
  5
EE87
330
1E
100
AcDbEntity
  8
図面枠
  6
Continuous
 62
     7
100
AcDbLine
 10
1164.80564055466
 20
161.0634927550085
 30
0.0
 11
1158.743830554659
 21
161.0634927550085
 31
0.0
  0
ARC
  5
EE88
330
1E
100
AcDbEntity
  8
図面枠
  6
Continuous
 62
     3
100
AcDbCircle
 10
1161.596350554659
 20
160.4879817550085
 30
0.0
 40
0.1620987
100
AcDbArc
 50
266.8089500000005
 51
356.1456400000001
  0
LINE
  5
EE89
330
1E
100
AcDbEntity
  8
図面枠
  6
Continuous
 62
     3
100
AcDbLine
 10
1161.758090554659
 20
160.3324047550085
 30
0.0
 11
1161.758090554659
 21
160.4770847550085
 31
0.0
  0
ARC
  5
EE8A
330
1E
100
AcDbEntity
  8
図面枠
  6
Continuous
 62
     3
100
AcDbCircle
 10
1161.919820554659
 20
160.4879817550085
 30
0.0
 40
0.1620987
100
AcDbArc
 50
183.8543599999998
 51
273.1910400000024
  0
ARC
  5
EE8B
330
1E
100
AcDbEntity
  8
図面枠
  6
Continuous
 62
     2
100
AcDbCircle
 10
1166.005010554659
 20
160.3478787550085
 30
0.0
 40
0.10584
100
AcDbArc
 50
90.0
 51
180.0
  0
LINE
  5
EE8C
330
1E
100
AcDbEntity
  8
図面枠
  6
Continuous
 62
     2
100
AcDbLine
 10
1184.907660554659
 20
160.4537187550085
 30
0.0
 11
1179.827340554659
 21
160.4537187550085
 31
0.0
  0
ARC
  5
EE8D
330
1E
100
AcDbEntity
  8
図面枠
  6
Continuous
 62
     2
100
AcDbCircle
 10
1171.367570554659
 20
160.3478787550085
 30
0.0
 40
0.10584
100
AcDbArc
 50
0.0
 51
90.0
  0
ARC
  5
EE8E
330
1E
100
AcDbEntity
  8
図面枠
  6
Continuous
 62
     2
100
AcDbCircle
 10
1173.931140554659
 20
159.9141937550085
 30
0.0
 40
0.10584
100
AcDbArc
 50
0.0
 51
76.3780409999969
  0
LINE
  5
EE8F
330
1E
100
AcDbEntity
  8
図面枠
  6
Continuous
 62
     2
100
AcDbLine
 10
1173.956070554659
 20
160.0170567550085
 30
0.0
 11
1172.284910554659
 21
160.4220307550085
 31
0.0
  0
ARC
  5
EE90
330
1E
100
AcDbEntity
  8
図面枠
  6
Continuous
 62
     2
100
AcDbCircle
 10
1172.25999055466
 20
160.3191677550085
 30
0.0
 40
0.10584
100
AcDbArc
 50
76.3780409999969
 51
180.0
  0
LINE
  5
EE91
330
1E
100
AcDbEntity
  8
図面枠
  6
Continuous
 62
     2
100
AcDbLine
 10
1177.445940554659
 20
160.4232327550085
 30
0.0
 11
1177.045150554659
 21
160.0279347550085
 31
0.0
  0
LINE
  5
EE92
330
1E
100
AcDbEntity
  8
図面枠
  6
Continuous
 62
     2
100
AcDbLine
 10
1174.706770554659
 20
160.3329237550085
 30
0.0
 11
1175.046900554659
 21
159.9974487550085
 31
0.0
  0
ARC
  5
EE93
330
1E
100
AcDbEntity
  8
図面枠
  6
Continuous
 62
     2
100
AcDbCircle
 10
1174.756310554659
 20
160.3831587550085
 30
0.0
 40
0.0705599999999999
100
AcDbArc
 50
90.0
 51
225.3950499999995
  0
LINE
  5
EE94
330
1E
100
AcDbEntity
  8
図面枠
  6
Continuous
 62
     2
100
AcDbLine
 10
1174.756310554659
 20
160.4537187550085
 30
0.0
 11
1175.736420554659
 21
160.4537187550085
 31
0.0
  0
LINE
  5
EE95
330
1E
100
AcDbEntity
  8
図面枠
  6
Continuous
 62
     2
100
AcDbLine
 10
1175.810750554659
 20
160.4232327550085
 30
0.0
 11
1176.211540554659
 21
160.0279347550085
 31
0.0
  0
ARC
  5
EE96
330
1E
100
AcDbEntity
  8
図面枠
  6
Continuous
 62
     2
100
AcDbCircle
 10
1175.736420554659
 20
160.3478787550085
 30
0.0
 40
0.10584
100
AcDbArc
 50
45.39505800000016
 51
90.0
  0
LINE
  5
EE97
330
1E
100
AcDbEntity
  8
図面枠
  6
Continuous
 62
     2
100
AcDbLine
 10
1176.28586055466
 20
159.9974487550085
 30
0.0
 11
1176.970840554659
 21
159.9974487550085
 31
0.0
  0
ARC
  5
EE98
330
1E
100
AcDbEntity
  8
図面枠
  6
Continuous
 62
     2
100
AcDbCircle
 10
1176.28586055466
 20
160.1032887550085
 30
0.0
 40
0.10584
100
AcDbArc
 50
225.3950499999995
 51
270.0
  0
ARC
  5
EE99
330
1E
100
AcDbEntity
  8
図面枠
  6
Continuous
 62
     2
100
AcDbCircle
 10
1176.970840554659
 20
160.1032887550085
 30
0.0
 40
0.10584
100
AcDbArc
 50
270.0
 51
314.6049399999999
  0
LINE
  5
EE9A
330
1E
100
AcDbEntity
  8
図面枠
  6
Continuous
 62
     2
100
AcDbLine
 10
1175.046900554659
 20
159.9974487550085
 30
0.0
 11
1174.471980554659
 21
159.9974487550085
 31
0.0
  0
ARC
  5
EE9B
330
1E
100
AcDbEntity
  8
図面枠
  6
Continuous
 62
     2
100
AcDbCircle
 10
1174.471980554659
 20
159.8916087550085
 30
0.0
 40
0.10584
100
AcDbArc
 50
90.0
 51
180.0
  0
ARC
  5
EE9C
330
1E
100
AcDbEntity
  8
図面枠
  6
Continuous
 62
     2
100
AcDbCircle
 10
1179.827340554659
 20
160.3478787550085
 30
0.0
 40
0.10584
100
AcDbArc
 50
90.0
 51
180.0
  0
LINE
  5
EE9D
330
1E
100
AcDbEntity
  8
図面枠
  6
Continuous
 62
     2
100
AcDbLine
 10
1178.50039055466
 20
160.4537187550085
 30
0.0
 11
1177.520270554659
 21
160.4537187550085
 31
0.0
  0
ARC
  5
EE9E
330
1E
100
AcDbEntity
  8
図面枠
  6
Continuous
 62
     2
100
AcDbCircle
 10
1178.50039055466
 20
160.3831587550085
 30
0.0
 40
0.0705599999999999
100
AcDbArc
 50
314.6049399999999
 51
90.0
  0
LINE
  5
EE9F
330
1E
100
AcDbEntity
  8
図面枠
  6
Continuous
 62
     2
100
AcDbLine
 10
1178.54994055466
 20
160.3329237550085
 30
0.0
 11
1178.209800554659
 21
159.9974487550085
 31
0.0
  0
ARC
  5
EEA0
330
1E
100
AcDbEntity
  8
図面枠
  6
Continuous
 62
     2
100
AcDbCircle
 10
1177.520270554659
 20
160.3478787550085
 30
0.0
 40
0.10584
100
AcDbArc
 50
90.0
 51
134.6049399999999
  0
LINE
  5
EEA1
330
1E
100
AcDbEntity
  8
図面枠
  6
Continuous
 62
     2
100
AcDbLine
 10
1178.784710554659
 20
159.9974487550085
 30
0.0
 11
1178.209800554659
 21
159.9974487550085
 31
0.0
  0
ARC
  5
EEA2
330
1E
100
AcDbEntity
  8
図面枠
  6
Continuous
 62
     2
100
AcDbCircle
 10
1178.784710554659
 20
159.8916087550085
 30
0.0
 40
0.10584
100
AcDbArc
 50
0.0
 51
90.0
  0
ARC
  5
EEA3
330
1E
100
AcDbEntity
  8
図面枠
  6
Continuous
 62
     2
100
AcDbCircle
 10
1185.878360554659
 20
159.8916087550085
 30
0.0
 40
0.10584
100
AcDbArc
 50
90.0
 51
180.0
  0
ARC
  5
EEA4
330
1E
100
AcDbEntity
  8
図面枠
  6
Continuous
 62
     2
100
AcDbCircle
 10
1184.907660554659
 20
160.3478787550085
 30
0.0
 40
0.10584
100
AcDbArc
 50
0.0
 51
90.0
  0
LINE
  5
EEA5
330
1E
100
AcDbEntity
  8
図面枠
  6
Continuous
 62
     2
100
AcDbLine
 10
1188.411140554659
 20
159.9974487550085
 30
0.0
 11
1189.405050554659
 21
159.9974487550085
 31
0.0
  0
LINE
  5
EEA6
330
1E
100
AcDbEntity
  8
図面枠
  6
Continuous
 62
     2
100
AcDbLine
 10
1188.509590554659
 20
160.3648957550085
 30
0.0
 11
1188.411140554659
 21
159.9974487550085
 31
0.0
  0
ARC
  5
EEA7
330
1E
100
AcDbEntity
  8
図面枠
  6
Continuous
 62
     2
100
AcDbCircle
 10
1188.441430554659
 20
160.3831587550085
 30
0.0
 40
0.0705599999999999
100
AcDbArc
 50
344.9989099999992
 51
90.0
  0
LINE
  5
EEA8
330
1E
100
AcDbEntity
  8
図面枠
  6
Continuous
 62
     2
100
AcDbLine
 10
1188.441430554659
 20
160.4537187550085
 30
0.0
 11
1187.747350554659
 21
160.4537187550085
 31
0.0
  0
LINE
  5
EEA9
330
1E
100
AcDbEntity
  8
図面枠
  6
Continuous
 62
     2
100
AcDbLine
 10
1186.307400554659
 20
160.3411307550085
 30
0.0
 11
1186.562260554659
 21
159.9974487550085
 31
0.0
  0
ARC
  5
EEAA
330
1E
100
AcDbEntity
  8
図面枠
  6
Continuous
 62
     2
100
AcDbCircle
 10
1186.364090554659
 20
160.3831587550085
 30
0.0
 40
0.0705599999999999
100
AcDbArc
 50
90.0
 51
216.5582600000018
  0
LINE
  5
EEAB
330
1E
100
AcDbEntity
  8
図面枠
  6
Continuous
 62
     2
100
AcDbLine
 10
1186.364090554659
 20
160.4537187550085
 30
0.0
 11
1187.037900554659
 21
160.4537187550085
 31
0.0
  0
LINE
  5
EEAC
330
1E
100
AcDbEntity
  8
図面枠
  6
Continuous
 62
     2
100
AcDbLine
 10
1187.122910554659
 20
160.4109207550085
 30
0.0
 11
1187.429510554659
 21
159.9974487550085
 31
0.0
  0
ARC
  5
EEAD
330
1E
100
AcDbEntity
  8
図面枠
  6
Continuous
 62
     2
100
AcDbCircle
 10
1187.037900554659
 20
160.3478787550085
 30
0.0
 40
0.10584
100
AcDbArc
 50
36.55826200000038
 51
90.0
  0
ARC
  5
EEAE
330
1E
100
AcDbEntity
  8
図面枠
  6
Continuous
 62
     2
100
AcDbCircle
 10
1187.747350554659
 20
160.3478787550085
 30
0.0
 40
0.10584
100
AcDbArc
 50
90.0
 51
164.9989099999992
  0
LINE
  5
EEAF
330
1E
100
AcDbEntity
  8
図面枠
  6
Continuous
 62
     2
100
AcDbLine
 10
1187.645130554659
 20
160.3752747550085
 30
0.0
 11
1187.543880554659
 21
159.9974487550085
 31
0.0
  0
LINE
  5
EEB0
330
1E
100
AcDbEntity
  8
図面枠
  6
Continuous
 62
     2
100
AcDbLine
 10
1185.878360554659
 20
159.9974487550085
 30
0.0
 11
1186.562260554659
 21
159.9974487550085
 31
0.0
  0
LINE
  5
EEB1
330
1E
100
AcDbEntity
  8
図面枠
  6
Continuous
 62
     2
100
AcDbLine
 10
1187.429510554659
 20
159.9974487550085
 30
0.0
 11
1187.543880554659
 21
159.9974487550085
 31
0.0
  0
LINE
  5
EEB2
330
1E
100
AcDbEntity
  8
図面枠
  6
Continuous
 62
     2
100
AcDbLine
 10
1189.306590554659
 20
160.3648957550085
 30
0.0
 11
1189.405050554659
 21
159.9974487550085
 31
0.0
  0
ARC
  5
EEB3
330
1E
100
AcDbEntity
  8
図面枠
  6
Continuous
 62
     2
100
AcDbCircle
 10
1189.374740554659
 20
160.3831587550085
 30
0.0
 40
0.0705599999999999
100
AcDbArc
 50
90.0
 51
195.0010800000002
  0
LINE
  5
EEB4
330
1E
100
AcDbEntity
  8
図面枠
  6
Continuous
 62
     2
100
AcDbLine
 10
1189.374740554659
 20
160.4537187550085
 30
0.0
 11
1190.068820554659
 21
160.4537187550085
 31
0.0
  0
LINE
  5
EEB5
330
1E
100
AcDbEntity
  8
図面枠
  6
Continuous
 62
     2
100
AcDbLine
 10
1191.452090554659
 20
160.4537187550085
 30
0.0
 11
1190.77829055466
 21
160.4537187550085
 31
0.0
  0
ARC
  5
EEB6
330
1E
100
AcDbEntity
  8
図面枠
  6
Continuous
 62
     2
100
AcDbCircle
 10
1191.452090554659
 20
160.3831587550085
 30
0.0
 40
0.0705599999999999
100
AcDbArc
 50
323.441729999999
 51
90.0
  0
LINE
  5
EEB7
330
1E
100
AcDbEntity
  8
図面枠
  6
Continuous
 62
     2
100
AcDbLine
 10
1191.508770554659
 20
160.3411307550085
 30
0.0
 11
1191.253910554659
 21
159.9974487550085
 31
0.0
  0
ARC
  5
EEB8
330
1E
100
AcDbEntity
  8
図面枠
  6
Continuous
 62
     2
100
AcDbCircle
 10
1190.068820554659
 20
160.3478787550085
 30
0.0
 40
0.10584
100
AcDbArc
 50
15.0010820000013
 51
90.0
  0
LINE
  5
EEB9
330
1E
100
AcDbEntity
  8
図面枠
  6
Continuous
 62
     2
100
AcDbLine
 10
1190.171050554659
 20
160.3752747550085
 30
0.0
 11
1190.272290554659
 21
159.9974487550085
 31
0.0
  0
ARC
  5
EEBA
330
1E
100
AcDbEntity
  8
図面枠
  6
Continuous
 62
     2
100
AcDbCircle
 10
1190.77829055466
 20
160.3478787550085
 30
0.0
 40
0.10584
100
AcDbArc
 50
90.0
 51
143.441729999999
  0
LINE
  5
EEBB
330
1E
100
AcDbEntity
  8
図面枠
  6
Continuous
 62
     2
100
AcDbLine
 10
1190.693280554659
 20
160.4109207550085
 30
0.0
 11
1190.386680554659
 21
159.9974487550085
 31
0.0
  0
LINE
  5
EEBC
330
1E
100
AcDbEntity
  8
図面枠
  6
Continuous
 62
     2
100
AcDbLine
 10
1190.272290554659
 20
159.9974487550085
 30
0.0
 11
1190.386680554659
 21
159.9974487550085
 31
0.0
  0
LINE
  5
EEBD
330
1E
100
AcDbEntity
  8
図面枠
  6
Continuous
 62
     7
100
AcDbLine
 10
1234.766240554659
 20
162.2438527550085
 30
0.0
 11
1234.766240554659
 21
148.8374537550085
 31
0.0
  0
LINE
  5
EEBE
330
1E
100
AcDbEntity
  8
図面枠
  6
Continuous
 62
     2
100
AcDbLine
 10
1206.356470554659
 20
159.6504267550085
 30
0.0
 11
1209.169890554659
 21
160.4537187550085
 31
0.0
  0
LINE
  5
EEBF
330
1E
100
AcDbEntity
  8
図面枠
  6
Continuous
 62
     2
100
AcDbLine
 10
1212.831170554659
 20
159.4229017550085
 30
0.0
 11
1212.831170554659
 21
159.8916087550085
 31
0.0
  0
LINE
  5
EEC0
330
1E
100
AcDbEntity
  8
図面枠
  6
Continuous
 62
     2
100
AcDbLine
 10
1205.770730554659
 20
159.4229017550085
 30
0.0
 11
1205.770730554659
 21
159.8916087550085
 31
0.0
  0
LINE
  5
EEC1
330
1E
100
AcDbEntity
  8
図面枠
  6
Continuous
 62
     2
100
AcDbLine
 10
1200.196490554659
 20
159.8916087550085
 30
0.0
 11
1200.196490554659
 21
159.4229017550085
 31
0.0
  0
LINE
  5
EEC2
330
1E
100
AcDbEntity
  8
図面枠
  6
Continuous
 62
     2
100
AcDbLine
 10
1195.877520554659
 20
159.4541647550085
 30
0.0
 11
1196.167210554659
 21
160.3911127550085
 31
0.0
  0
LINE
  5
EEC3
330
1E
100
AcDbEntity
  8
図面枠
  6
Continuous
 62
     2
100
AcDbLine
 10
1195.58959055466
 20
159.4229017550085
 30
0.0
 11
1195.58959055466
 21
159.8916087550085
 31
0.0
  0
LINE
  5
EEC4
330
1E
100
AcDbEntity
  8
図面枠
  6
Continuous
 62
     2
100
AcDbLine
 10
1192.892420554659
 20
159.4229017550085
 30
0.0
 11
1192.892420554659
 21
159.8916087550085
 31
0.0
  0
LINE
  5
EEC5
330
1E
100
AcDbEntity
  8
図面枠
  6
Continuous
 62
     2
100
AcDbLine
 10
1192.043670554659
 20
159.8916087550085
 30
0.0
 11
1192.043670554659
 21
159.4229017550085
 31
0.0
  0
LINE
  5
EEC6
330
1E
100
AcDbEntity
  8
図面枠
  6
Continuous
 62
     2
100
AcDbLine
 10
1209.169890554659
 20
160.4537187550085
 30
0.0
 11
1211.98333055466
 21
159.6504267550085
 31
0.0
  0
LINE
  5
EEC7
330
1E
100
AcDbEntity
  8
図面枠
  6
Continuous
 62
     2
100
AcDbLine
 10
1199.639920554659
 20
159.8916087550085
 30
0.0
 11
1199.639920554659
 21
159.4229017550085
 31
0.0
  0
LINE
  5
EEC8
330
1E
100
AcDbEntity
  8
図面枠
  6
Continuous
 62
     2
100
AcDbLine
 10
1218.19434055466
 20
160.3478787550085
 30
0.0
 11
1218.19434055466
 21
159.1346347550085
 31
0.0
  0
LINE
  5
EEC9
330
1E
100
AcDbEntity
  8
図面枠
  6
Continuous
 62
     2
100
AcDbLine
 10
1216.971680554659
 20
160.3478787550085
 30
0.0
 11
1216.971680554659
 21
159.1346347550085
 31
0.0
  0
ARC
  5
EECA
330
1E
100
AcDbEntity
  8
図面枠
  6
Continuous
 62
     2
100
AcDbCircle
 10
1215.56295055466
 20
159.9268887550085
 30
0.0
 40
0.0705599999999999
100
AcDbArc
 50
318.9849099999984
 51
90.0
  0
TEXT
  5
EECB
330
1E
100
AcDbEntity
  8
図面枠
 62
     7
100
AcDbText
 10
1197.427710554659
 20
149.3598497550085
 30
0.0
 40
3.0
  1
０３－３６８５－３４５３
 41
0.8
  7
ACAD
100
AcDbText
  0
TEXT
  5
EECC
330
1E
100
AcDbEntity
  8
図面枠
 62
     7
100
AcDbText
 10
1197.427710554659
 20
152.0812377550085
 30
0.0
 40
3.0
  1
東京都江東区亀戸６－２０－７
 41
0.8
  7
ACAD
100
AcDbText
  0
ARC
  5
EECD
330
1E
100
AcDbEntity
  8
図面枠
  6
Continuous
 62
     2
100
AcDbCircle
 10
1214.849110554659
 20
156.0652297550085
 30
0.0
 40
0.10584
100
AcDbArc
 50
270.0
 51
0.0
  0
LINE
  5
EECE
330
1E
100
AcDbEntity
  8
図面枠
  6
Continuous
 62
     2
100
AcDbLine
 10
1204.306550554659
 20
156.0128377550085
 30
0.0
 11
1202.99712055466
 21
159.3170617550085
 31
0.0
  0
LINE
  5
EECF
330
1E
100
AcDbEntity
  8
図面枠
  6
Continuous
 62
     2
100
AcDbLine
 10
1197.312520554659
 20
155.9593897550085
 30
0.0
 11
1198.25963055466
 21
155.9593897550085
 31
0.0
  0
LINE
  5
EED0
330
1E
100
AcDbEntity
  8
図面枠
  6
Continuous
 62
     2
100
AcDbLine
 10
1194.910340554659
 20
155.9593897550085
 30
0.0
 11
1193.963230554659
 21
155.9593897550085
 31
0.0
  0
LINE
  5
EED1
330
1E
100
AcDbEntity
  8
図面枠
  6
Continuous
 62
     2
100
AcDbLine
 10
1193.857390554659
 20
156.0652297550085
 30
0.0
 11
1193.857390554659
 21
157.9361787550085
 31
0.0
  0
ARC
  5
EED2
330
1E
100
AcDbEntity
  8
図面枠
  6
Continuous
 62
     2
100
AcDbCircle
 10
1193.963230554659
 20
156.0652297550085
 30
0.0
 40
0.10584
100
AcDbArc
 50
180.0
 51
270.0
  0
LINE
  5
EED3
330
1E
100
AcDbEntity
  8
図面枠
  6
Continuous
 62
     2
100
AcDbLine
 10
1192.932520554659
 20
158.3331207550085
 30
0.0
 11
1193.857390554659
 21
159.0660407550085
 31
0.0
  0
ARC
  5
EED4
330
1E
100
AcDbEntity
  8
図面枠
  6
Continuous
 62
     2
100
AcDbCircle
 10
1192.998260554659
 20
158.2501697550085
 30
0.0
 40
0.10584
100
AcDbArc
 50
128.3954300000019
 51
180.0
  0
LINE
  5
EED5
330
1E
100
AcDbEntity
  8
図面枠
  6
Continuous
 62
     2
100
AcDbLine
 10
1192.892420554659
 20
158.2501697550085
 30
0.0
 11
1192.892420554659
 21
157.1730867550085
 31
0.0
  0
LINE
  5
EED6
330
1E
100
AcDbEntity
  8
図面枠
  6
Continuous
 62
     2
100
AcDbLine
 10
1192.998260554659
 20
159.3170617550085
 30
0.0
 11
1193.857390554659
 21
159.3170617550085
 31
0.0
  0
ARC
  5
EED7
330
1E
100
AcDbEntity
  8
図面枠
  6
Continuous
 62
     2
100
AcDbCircle
 10
1192.998260554659
 20
159.4229017550085
 30
0.0
 40
0.10584
100
AcDbArc
 50
180.0
 51
270.0
  0
ARC
  5
EED8
330
1E
100
AcDbEntity
  8
図面枠
  6
Continuous
 62
     2
100
AcDbCircle
 10
1191.937830554659
 20
159.4229017550085
 30
0.0
 40
0.10584
100
AcDbArc
 50
270.0
 51
0.0
  0
ARC
  5
EED9
330
1E
100
AcDbEntity
  8
図面枠
  6
Continuous
 62
     2
100
AcDbCircle
 10
1191.937830554659
 20
159.0482637550085
 30
0.0
 40
0.10584
100
AcDbArc
 50
0.0
 51
90.0
  0
LINE
  5
EEDA
330
1E
100
AcDbEntity
  8
図面枠
  6
Continuous
 62
     2
100
AcDbLine
 10
1192.043670554659
 20
159.0482637550085
 30
0.0
 11
1192.043670554659
 21
158.5795547550085
 31
0.0
  0
ARC
  5
EEDB
330
1E
100
AcDbEntity
  8
図面枠
  6
Continuous
 62
     2
100
AcDbCircle
 10
1191.937830554659
 20
158.5795547550085
 30
0.0
 40
0.10584
100
AcDbArc
 50
270.0
 51
0.0
  0
ARC
  5
EEDC
330
1E
100
AcDbEntity
  8
図面枠
  6
Continuous
 62
     2
100
AcDbCircle
 10
1191.774800554659
 20
158.2845377550085
 30
0.0
 40
0.10584
100
AcDbArc
 50
0.0
 51
90.0
  0
LINE
  5
EEDD
330
1E
100
AcDbEntity
  8
図面枠
  6
Continuous
 62
     2
100
AcDbLine
 10
1191.880640554659
 20
158.2845377550085
 30
0.0
 11
1191.880640554659
 21
157.7954517550085
 31
0.0
  0
ARC
  5
EEDE
330
1E
100
AcDbEntity
  8
図面枠
  6
Continuous
 62
     2
100
AcDbCircle
 10
1191.774800554659
 20
157.7954517550085
 30
0.0
 40
0.10584
100
AcDbArc
 50
270.0
 51
0.0
  0
LINE
  5
EEDF
330
1E
100
AcDbEntity
  8
図面枠
  6
Continuous
 62
     2
100
AcDbLine
 10
1192.043670554659
 20
157.4800587550085
 30
0.0
 11
1192.043670554659
 21
157.0113497550085
 31
0.0
  0
ARC
  5
EEE0
330
1E
100
AcDbEntity
  8
図面枠
  6
Continuous
 62
     2
100
AcDbCircle
 10
1191.937830554659
 20
157.4800587550085
 30
0.0
 40
0.10584
100
AcDbArc
 50
0.0
 51
90.0
  0
ARC
  5
EEE1
330
1E
100
AcDbEntity
  8
図面枠
  6
Continuous
 62
     2
100
AcDbCircle
 10
1191.937830554659
 20
157.0113497550085
 30
0.0
 40
0.10584
100
AcDbArc
 50
270.0
 51
0.0
  0
LINE
  5
EEE2
330
1E
100
AcDbEntity
  8
図面枠
  6
Continuous
 62
     2
100
AcDbLine
 10
1192.90038055466
 20
157.1800567550085
 30
0.0
 11
1193.865350554659
 21
157.9447577550085
 31
0.0
  0
LINE
  5
EEE3
330
1E
100
AcDbEntity
  8
図面枠
  6
Continuous
 62
     2
100
AcDbLine
 10
1193.857390554659
 20
159.0660407550085
 30
0.0
 11
1193.857390554659
 21
159.3170617550085
 31
0.0
  0
LINE
  5
EEE4
330
1E
100
AcDbEntity
  8
図面枠
  6
Continuous
 62
     2
100
AcDbLine
 10
1195.016180554659
 20
156.0652297550085
 30
0.0
 11
1195.016180554659
 21
158.0676867550085
 31
0.0
  0
ARC
  5
EEE5
330
1E
100
AcDbEntity
  8
図面枠
  6
Continuous
 62
     2
100
AcDbCircle
 10
1194.910340554659
 20
156.0652297550085
 30
0.0
 40
0.10584
100
AcDbArc
 50
270.0
 51
0.0
  0
LINE
  5
EEE6
330
1E
100
AcDbEntity
  8
図面枠
  6
Continuous
 62
     2
100
AcDbLine
 10
1197.206680554659
 20
156.0652297550085
 30
0.0
 11
1197.206680554659
 21
157.2715637550085
 31
0.0
  0
ARC
  5
EEE7
330
1E
100
AcDbEntity
  8
図面枠
  6
Continuous
 62
     2
100
AcDbCircle
 10
1197.312520554659
 20
156.0652297550085
 30
0.0
 40
0.10584
100
AcDbArc
 50
180.0
 51
270.0
  0
ARC
  5
EEE8
330
1E
100
AcDbEntity
  8
図面枠
  6
Continuous
 62
     2
100
AcDbCircle
 10
1195.978650554659
 20
159.4229017550085
 30
0.0
 40
0.10584
100
AcDbArc
 50
162.8192099999992
 51
270.0
  0
LINE
  5
EEE9
330
1E
100
AcDbEntity
  8
図面枠
  6
Continuous
 62
     2
100
AcDbLine
 10
1195.978650554659
 20
159.3170617550085
 30
0.0
 11
1197.206680554659
 21
159.3170617550085
 31
0.0
  0
LINE
  5
EEEA
330
1E
100
AcDbEntity
  8
図面枠
  6
Continuous
 62
     2
100
AcDbLine
 10
1195.58959055466
 20
158.5585527550085
 30
0.0
 11
1195.58959055466
 21
157.6112247550085
 31
0.0
  0
ARC
  5
EEEB
330
1E
100
AcDbEntity
  8
図面枠
  6
Continuous
 62
     2
100
AcDbCircle
 10
1195.483750554659
 20
158.5585527550085
 30
0.0
 40
0.10584
100
AcDbArc
 50
0.0
 51
51.47835899999997
  0
LINE
  5
EEEC
330
1E
100
AcDbEntity
  8
図面枠
  6
Continuous
 62
     2
100
AcDbLine
 10
1195.549670554659
 20
158.6413587550085
 30
0.0
 11
1195.016180554659
 21
159.0660407550085
 31
0.0
  0
ARC
  5
EEED
330
1E
100
AcDbEntity
  8
図面枠
  6
Continuous
 62
     2
100
AcDbCircle
 10
1195.483750554659
 20
159.4229017550085
 30
0.0
 40
0.10584
100
AcDbArc
 50
270.0
 51
0.0
  0
LINE
  5
EEEE
330
1E
100
AcDbEntity
  8
図面枠
  6
Continuous
 62
     2
100
AcDbLine
 10
1195.483750554659
 20
159.3170617550085
 30
0.0
 11
1195.016180554659
 21
159.3170617550085
 31
0.0
  0
LINE
  5
EEEF
330
1E
100
AcDbEntity
  8
図面枠
  6
Continuous
 62
     2
100
AcDbLine
 10
1195.88145055466
 20
156.0536827550085
 30
0.0
 11
1196.64444055466
 21
158.1899597550085
 31
0.0
  0
LINE
  5
EEF0
330
1E
100
AcDbEntity
  8
図面枠
  6
Continuous
 62
     2
100
AcDbLine
 10
1195.947910554659
 20
155.9593897550085
 30
0.0
 11
1196.738020554659
 21
155.9593897550085
 31
0.0
  0
ARC
  5
EEF1
330
1E
100
AcDbEntity
  8
図面枠
  6
Continuous
 62
     2
100
AcDbCircle
 10
1195.947910554659
 20
156.0299497550085
 30
0.0
 40
0.0705599999999999
100
AcDbArc
 50
160.3453500000011
 51
270.0
  0
LINE
  5
EEF2
330
1E
100
AcDbEntity
  8
図面枠
  6
Continuous
 62
     2
100
AcDbLine
 10
1195.016180554659
 20
158.0676867550085
 30
0.0
 11
1195.58959055466
 21
157.6112247550085
 31
0.0
  0
LINE
  5
EEF3
330
1E
100
AcDbEntity
  8
図面枠
  6
Continuous
 62
     2
100
AcDbLine
 10
1196.738020554659
 20
155.9593897550085
 30
0.0
 11
1197.206680554659
 21
157.2715637550085
 31
0.0
  0
LINE
  5
EEF4
330
1E
100
AcDbEntity
  8
図面枠
  6
Continuous
 62
     2
100
AcDbLine
 10
1197.206680554659
 20
158.8703487550085
 30
0.0
 11
1196.038080554659
 21
158.8703487550085
 31
0.0
  0
ARC
  5
EEF5
330
1E
100
AcDbEntity
  8
図面枠
  6
Continuous
 62
     2
100
AcDbCircle
 10
1196.038080554659
 20
158.7645087550085
 30
0.0
 40
0.10584
100
AcDbArc
 50
90.0
 51
180.0
  0
LINE
  5
EEF6
330
1E
100
AcDbEntity
  8
図面枠
  6
Continuous
 62
     2
100
AcDbLine
 10
1195.932240554659
 20
158.7645087550085
 30
0.0
 11
1195.932240554659
 21
158.1899597550085
 31
0.0
  0
LINE
  5
EEF7
330
1E
100
AcDbEntity
  8
図面枠
  6
Continuous
 62
     2
100
AcDbLine
 10
1195.932240554659
 20
158.1899597550085
 30
0.0
 11
1196.671700554659
 21
158.1899597550085
 31
0.0
  0
LINE
  5
EEF8
330
1E
100
AcDbEntity
  8
図面枠
  6
Continuous
 62
     2
100
AcDbLine
 10
1197.206680554659
 20
158.8748177550085
 30
0.0
 11
1197.206680554659
 21
159.3170617550085
 31
0.0
  0
LINE
  5
EEF9
330
1E
100
AcDbEntity
  8
図面枠
  6
Continuous
 62
     2
100
AcDbLine
 10
1195.016180554659
 20
159.0660407550085
 30
0.0
 11
1195.016180554659
 21
159.3170617550085
 31
0.0
  0
LINE
  5
EEFA
330
1E
100
AcDbEntity
  8
図面枠
  6
Continuous
 62
     2
100
AcDbLine
 10
1200.302330554659
 20
159.3170617550085
 30
0.0
 11
1202.99712055466
 21
159.3170617550085
 31
0.0
  0
LINE
  5
EEFB
330
1E
100
AcDbEntity
  8
図面枠
  6
Continuous
 62
     2
100
AcDbLine
 10
1202.78782055466
 20
155.9593897550085
 30
0.0
 11
1200.302330554659
 21
155.9593897550085
 31
0.0
  0
LINE
  5
EEFC
330
1E
100
AcDbEntity
  8
図面枠
  6
Continuous
 62
     2
100
AcDbLine
 10
1202.78782055466
 20
158.6479237550085
 30
0.0
 11
1200.302330554659
 21
158.6479237550085
 31
0.0
  0
LINE
  5
EEFD
330
1E
100
AcDbEntity
  8
図面枠
  6
Continuous
 62
     2
100
AcDbLine
 10
1200.302330554659
 20
157.9675337550085
 30
0.0
 11
1200.93374055466
 21
157.9675337550085
 31
0.0
  0
LINE
  5
EEFE
330
1E
100
AcDbEntity
  8
図面枠
  6
Continuous
 62
     2
100
AcDbLine
 10
1200.302330554659
 20
156.6397787550085
 30
0.0
 11
1200.93374055466
 21
156.6397787550085
 31
0.0
  0
ARC
  5
EEFF
330
1E
100
AcDbEntity
  8
図面枠
  6
Continuous
 62
     2
100
AcDbCircle
 10
1200.302330554659
 20
159.4229017550085
 30
0.0
 40
0.10584
100
AcDbArc
 50
180.0
 51
270.0
  0
ARC
  5
EF00
330
1E
100
AcDbEntity
  8
図面枠
  6
Continuous
 62
     2
100
AcDbCircle
 10
1200.302330554659
 20
158.5420837550085
 30
0.0
 40
0.10584
100
AcDbArc
 50
90.0
 51
180.0
  0
LINE
  5
EF01
330
1E
100
AcDbEntity
  8
図面枠
  6
Continuous
 62
     2
100
AcDbLine
 10
1200.196490554659
 20
158.5420837550085
 30
0.0
 11
1200.196490554659
 21
158.0733737550085
 31
0.0
  0
ARC
  5
EF02
330
1E
100
AcDbEntity
  8
図面枠
  6
Continuous
 62
     2
100
AcDbCircle
 10
1200.302330554659
 20
158.0733737550085
 30
0.0
 40
0.10584
100
AcDbArc
 50
180.0
 51
270.0
  0
LINE
  5
EF03
330
1E
100
AcDbEntity
  8
図面枠
  6
Continuous
 62
     2
100
AcDbLine
 10
1200.196490554659
 20
156.5339387550085
 30
0.0
 11
1200.196490554659
 21
156.0652297550085
 31
0.0
  0
ARC
  5
EF04
330
1E
100
AcDbEntity
  8
図面枠
  6
Continuous
 62
     2
100
AcDbCircle
 10
1200.302330554659
 20
156.5339387550085
 30
0.0
 40
0.10584
100
AcDbArc
 50
90.0
 51
180.0
  0
ARC
  5
EF05
330
1E
100
AcDbEntity
  8
図面枠
  6
Continuous
 62
     2
100
AcDbCircle
 10
1200.302330554659
 20
156.0652297550085
 30
0.0
 40
0.10584
100
AcDbArc
 50
180.0
 51
270.0
  0
LINE
  5
EF06
330
1E
100
AcDbEntity
  8
図面枠
  6
Continuous
 62
     2
100
AcDbLine
 10
1198.365470554659
 20
156.0652297550085
 30
0.0
 11
1198.365470554659
 21
157.2715637550085
 31
0.0
  0
ARC
  5
EF07
330
1E
100
AcDbEntity
  8
図面枠
  6
Continuous
 62
     2
100
AcDbCircle
 10
1198.25963055466
 20
156.0652297550085
 30
0.0
 40
0.10584
100
AcDbArc
 50
270.0
 51
0.0
  0
LINE
  5
EF08
330
1E
100
AcDbEntity
  8
図面枠
  6
Continuous
 62
     2
100
AcDbLine
 10
1199.639920554659
 20
158.2957997550085
 30
0.0
 11
1199.639920554659
 21
158.7645087550085
 31
0.0
  0
ARC
  5
EF09
330
1E
100
AcDbEntity
  8
図面枠
  6
Continuous
 62
     2
100
AcDbCircle
 10
1199.534080554659
 20
158.2957997550085
 30
0.0
 40
0.10584
100
AcDbArc
 50
270.0
 51
0.0
  0
LINE
  5
EF0A
330
1E
100
AcDbEntity
  8
図面枠
  6
Continuous
 62
     2
100
AcDbLine
 10
1199.534080554659
 20
158.1899597550085
 30
0.0
 11
1198.900470554659
 21
158.1899597550085
 31
0.0
  0
LINE
  5
EF0B
330
1E
100
AcDbEntity
  8
図面枠
  6
Continuous
 62
     2
100
AcDbLine
 10
1199.690700554659
 20
156.0536827550085
 30
0.0
 11
1198.927710554659
 21
158.1899597550085
 31
0.0
  0
ARC
  5
EF0C
330
1E
100
AcDbEntity
  8
図面枠
  6
Continuous
 62
     2
100
AcDbCircle
 10
1199.624250554659
 20
156.0299497550085
 30
0.0
 40
0.0705599999999999
100
AcDbArc
 50
270.0
 51
19.65464900000023
  0
LINE
  5
EF0D
330
1E
100
AcDbEntity
  8
図面枠
  6
Continuous
 62
     2
100
AcDbLine
 10
1199.624250554659
 20
155.9593897550085
 30
0.0
 11
1198.834140554659
 21
155.9593897550085
 31
0.0
  0
LINE
  5
EF0E
330
1E
100
AcDbEntity
  8
図面枠
  6
Continuous
 62
     2
100
AcDbLine
 10
1198.834140554659
 20
155.9593897550085
 30
0.0
 11
1198.365470554659
 21
157.2715637550085
 31
0.0
  0
LINE
  5
EF0F
330
1E
100
AcDbEntity
  8
図面枠
  6
Continuous
 62
     2
100
AcDbLine
 10
1198.365470554659
 20
158.8703487550085
 30
0.0
 11
1199.534080554659
 21
158.8703487550085
 31
0.0
  0
ARC
  5
EF10
330
1E
100
AcDbEntity
  8
図面枠
  6
Continuous
 62
     2
100
AcDbCircle
 10
1199.534080554659
 20
158.7645087550085
 30
0.0
 40
0.10584
100
AcDbArc
 50
0.0
 51
90.0
  0
ARC
  5
EF11
330
1E
100
AcDbEntity
  8
図面枠
  6
Continuous
 62
     2
100
AcDbCircle
 10
1199.534080554659
 20
159.4229017550085
 30
0.0
 40
0.10584
100
AcDbArc
 50
270.0
 51
0.0
  0
LINE
  5
EF12
330
1E
100
AcDbEntity
  8
図面枠
  6
Continuous
 62
     2
100
AcDbLine
 10
1199.534080554659
 20
159.3170617550085
 30
0.0
 11
1198.365470554659
 21
159.3170617550085
 31
0.0
  0
LINE
  5
EF13
330
1E
100
AcDbEntity
  8
図面枠
  6
Continuous
 62
     2
100
AcDbLine
 10
1198.365470554659
 20
158.8748177550085
 30
0.0
 11
1198.365470554659
 21
159.3170617550085
 31
0.0
  0
LINE
  5
EF14
330
1E
100
AcDbEntity
  8
図面枠
  6
Continuous
 62
     2
100
AcDbLine
 10
1202.89366055466
 20
156.0652297550085
 30
0.0
 11
1202.89366055466
 21
156.5339387550085
 31
0.0
  0
ARC
  5
EF15
330
1E
100
AcDbEntity
  8
図面枠
  6
Continuous
 62
     2
100
AcDbCircle
 10
1202.78782055466
 20
156.0652297550085
 30
0.0
 40
0.10584
100
AcDbArc
 50
270.0
 51
0.0
  0
LINE
  5
EF16
330
1E
100
AcDbEntity
  8
図面枠
  6
Continuous
 62
     2
100
AcDbLine
 10
1202.78782055466
 20
156.6397787550085
 30
0.0
 11
1202.156410554659
 21
156.6397787550085
 31
0.0
  0
ARC
  5
EF17
330
1E
100
AcDbEntity
  8
図面枠
  6
Continuous
 62
     2
100
AcDbCircle
 10
1202.78782055466
 20
156.5339387550085
 30
0.0
 40
0.10584
100
AcDbArc
 50
0.0
 51
90.0
  0
LINE
  5
EF18
330
1E
100
AcDbEntity
  8
図面枠
  6
Continuous
 62
     2
100
AcDbLine
 10
1202.89366055466
 20
158.0733737550085
 30
0.0
 11
1202.89366055466
 21
158.5420837550085
 31
0.0
  0
ARC
  5
EF19
330
1E
100
AcDbEntity
  8
図面枠
  6
Continuous
 62
     2
100
AcDbCircle
 10
1202.78782055466
 20
158.0733737550085
 30
0.0
 40
0.10584
100
AcDbArc
 50
270.0
 51
0.0
  0
LINE
  5
EF1A
330
1E
100
AcDbEntity
  8
図面枠
  6
Continuous
 62
     2
100
AcDbLine
 10
1202.78782055466
 20
157.9675337550085
 30
0.0
 11
1202.156410554659
 21
157.9675337550085
 31
0.0
  0
ARC
  5
EF1B
330
1E
100
AcDbEntity
  8
図面枠
  6
Continuous
 62
     2
100
AcDbCircle
 10
1202.78782055466
 20
158.5420837550085
 30
0.0
 40
0.10584
100
AcDbArc
 50
0.0
 51
90.0
  0
LINE
  5
EF1C
330
1E
100
AcDbEntity
  8
図面枠
  6
Continuous
 62
     2
100
AcDbLine
 10
1202.156410554659
 20
157.9675337550085
 30
0.0
 11
1202.156410554659
 21
156.6386477550085
 31
0.0
  0
LINE
  5
EF1D
330
1E
100
AcDbEntity
  8
図面枠
  6
Continuous
 62
     2
100
AcDbLine
 10
1200.93374055466
 20
157.9675337550085
 30
0.0
 11
1200.93374055466
 21
156.6386477550085
 31
0.0
  0
LINE
  5
EF1E
330
1E
100
AcDbEntity
  8
図面枠
  6
Continuous
 62
     2
100
AcDbLine
 10
1211.791660554659
 20
155.9593897550085
 30
0.0
 11
1206.737570554659
 21
155.9593897550085
 31
0.0
  0
LINE
  5
EF1F
330
1E
100
AcDbEntity
  8
図面枠
  6
Continuous
 62
     2
100
AcDbLine
 10
1211.877490554659
 20
157.4034177550085
 30
0.0
 11
1209.012940554659
 21
157.4034177550085
 31
0.0
  0
LINE
  5
EF20
330
1E
100
AcDbEntity
  8
図面枠
  6
Continuous
 62
     2
100
AcDbLine
 10
1211.877490554659
 20
158.0838057550085
 30
0.0
 11
1206.462310554659
 21
158.0838057550085
 31
0.0
  0
LINE
  5
EF21
330
1E
100
AcDbEntity
  8
図面枠
  6
Continuous
 62
     2
100
AcDbLine
 10
1211.007350554659
 20
158.4542457550085
 30
0.0
 11
1207.332420554659
 21
158.4542457550085
 31
0.0
  0
LINE
  5
EF22
330
1E
100
AcDbEntity
  8
図面枠
  6
Continuous
 62
     2
100
AcDbLine
 10
1211.007350554659
 20
159.1346347550085
 30
0.0
 11
1207.332420554659
 21
159.1346347550085
 31
0.0
  0
LINE
  5
EF23
330
1E
100
AcDbEntity
  8
図面枠
  6
Continuous
 62
     2
100
AcDbLine
 10
1209.169890554659
 20
159.7733307550085
 30
0.0
 11
1206.356470554659
 21
158.9700387550085
 31
0.0
  0
LINE
  5
EF24
330
1E
100
AcDbEntity
  8
図面枠
  6
Continuous
 62
     2
100
AcDbLine
 10
1208.37563055466
 20
156.6386477550085
 30
0.0
 11
1210.61796055466
 21
156.6386477550085
 31
0.0
  0
LINE
  5
EF25
330
1E
100
AcDbEntity
  8
図面枠
  6
Continuous
 62
     2
100
AcDbLine
 10
1204.406030554659
 20
155.9431317550085
 30
0.0
 11
1205.75765055466
 21
155.9431317550085
 31
0.0
  0
ARC
  5
EF26
330
1E
100
AcDbEntity
  8
図面枠
  6
Continuous
 62
     2
100
AcDbCircle
 10
1204.406030554659
 20
156.0489717550085
 30
0.0
 40
0.10584
100
AcDbArc
 50
199.9628199999984
 51
270.0
  0
LINE
  5
EF27
330
1E
100
AcDbEntity
  8
図面枠
  6
Continuous
 62
     2
100
AcDbLine
 10
1205.664890554659
 20
159.3170617550085
 30
0.0
 11
1204.430120554659
 21
159.3170617550085
 31
0.0
  0
ARC
  5
EF28
330
1E
100
AcDbEntity
  8
図面枠
  6
Continuous
 62
     2
100
AcDbCircle
 10
1205.664890554659
 20
159.4229017550085
 30
0.0
 40
0.10584
100
AcDbArc
 50
270.0
 51
0.0
  0
LINE
  5
EF29
330
1E
100
AcDbEntity
  8
図面枠
  6
Continuous
 62
     2
100
AcDbLine
 10
1205.764870554659
 20
155.9431317550085
 30
0.0
 11
1204.430120554659
 21
159.3170617550085
 31
0.0
  0
LINE
  5
EF2A
330
1E
100
AcDbEntity
  8
図面枠
  6
Continuous
 62
     2
100
AcDbLine
 10
1206.356470554659
 20
159.6504267550085
 30
0.0
 11
1206.356470554659
 21
158.9700387550085
 31
0.0
  0
ARC
  5
EF2B
330
1E
100
AcDbEntity
  8
図面枠
  6
Continuous
 62
     2
100
AcDbCircle
 10
1207.332420554659
 20
159.0287947550085
 30
0.0
 40
0.10584
100
AcDbArc
 50
90.0
 51
180.0
  0
LINE
  5
EF2C
330
1E
100
AcDbEntity
  8
図面枠
  6
Continuous
 62
     2
100
AcDbLine
 10
1207.22658055466
 20
159.0287947550085
 30
0.0
 11
1207.22658055466
 21
158.5600857550085
 31
0.0
  0
ARC
  5
EF2D
330
1E
100
AcDbEntity
  8
図面枠
  6
Continuous
 62
     2
100
AcDbCircle
 10
1207.332420554659
 20
158.5600857550085
 30
0.0
 40
0.10584
100
AcDbArc
 50
180.0
 51
270.0
  0
ARC
  5
EF2E
330
1E
100
AcDbEntity
  8
図面枠
  6
Continuous
 62
     2
100
AcDbCircle
 10
1206.462310554659
 20
157.9779657550085
 30
0.0
 40
0.10584
100
AcDbArc
 50
90.0
 51
180.0
  0
LINE
  5
EF2F
330
1E
100
AcDbEntity
  8
図面枠
  6
Continuous
 62
     2
100
AcDbLine
 10
1206.356470554659
 20
157.9779657550085
 30
0.0
 11
1206.356470554659
 21
157.5092577550085
 31
0.0
  0
LINE
  5
EF30
330
1E
100
AcDbEntity
  8
図面枠
  6
Continuous
 62
     2
100
AcDbLine
 10
1206.462310554659
 20
157.4034177550085
 30
0.0
 11
1207.790270554659
 21
157.4034177550085
 31
0.0
  0
ARC
  5
EF31
330
1E
100
AcDbEntity
  8
図面枠
  6
Continuous
 62
     2
100
AcDbCircle
 10
1206.462310554659
 20
157.5092577550085
 30
0.0
 40
0.10584
100
AcDbArc
 50
180.0
 51
270.0
  0
ARC
  5
EF32
330
1E
100
AcDbEntity
  8
図面枠
  6
Continuous
 62
     2
100
AcDbCircle
 10
1206.737570554659
 20
156.0299497550085
 30
0.0
 40
0.0705599999999999
100
AcDbArc
 50
140.1944200000013
 51
270.0
  0
LINE
  5
EF33
330
1E
100
AcDbEntity
  8
図面枠
  6
Continuous
 62
     2
100
AcDbLine
 10
1206.68337055466
 20
156.0751217550085
 30
0.0
 11
1207.790270554659
 21
157.4034177550085
 31
0.0
  0
LINE
  5
EF34
330
1E
100
AcDbEntity
  8
図面枠
  6
Continuous
 62
     2
100
AcDbLine
 10
1209.012940554659
 20
157.4034177550085
 30
0.0
 11
1208.37563055466
 21
156.6386477550085
 31
0.0
  0
ARC
  5
EF35
330
1E
100
AcDbEntity
  8
図面枠
  6
Continuous
 62
     2
100
AcDbCircle
 10
1211.877490554659
 20
157.5092577550085
 30
0.0
 40
0.10584
100
AcDbArc
 50
270.0
 51
0.0
  0
ARC
  5
EF36
330
1E
100
AcDbEntity
  8
図面枠
  6
Continuous
 62
     2
100
AcDbCircle
 10
1211.877490554659
 20
157.9779657550085
 30
0.0
 40
0.10584
100
AcDbArc
 50
0.0
 51
90.0
  0
LINE
  5
EF37
330
1E
100
AcDbEntity
  8
図面枠
  6
Continuous
 62
     2
100
AcDbLine
 10
1209.169890554659
 20
159.7733307550085
 30
0.0
 11
1211.98333055466
 21
158.9700387550085
 31
0.0
  0
LINE
  5
EF38
330
1E
100
AcDbEntity
  8
図面枠
  6
Continuous
 62
     2
100
AcDbLine
 10
1211.791660554659
 20
157.0797957550085
 30
0.0
 11
1210.61796055466
 21
157.0797957550085
 31
0.0
  0
ARC
  5
EF39
330
1E
100
AcDbEntity
  8
図面枠
  6
Continuous
 62
     2
100
AcDbCircle
 10
1211.791660554659
 20
156.9739557550085
 30
0.0
 40
0.10584
100
AcDbArc
 50
0.0
 51
90.0
  0
LINE
  5
EF3A
330
1E
100
AcDbEntity
  8
図面枠
  6
Continuous
 62
     2
100
AcDbLine
 10
1211.89750055466
 20
156.9739557550085
 30
0.0
 11
1211.89750055466
 21
156.0652297550085
 31
0.0
  0
ARC
  5
EF3B
330
1E
100
AcDbEntity
  8
図面枠
  6
Continuous
 62
     2
100
AcDbCircle
 10
1211.791660554659
 20
156.0652297550085
 30
0.0
 40
0.10584
100
AcDbArc
 50
270.0
 51
0.0
  0
ARC
  5
EF3C
330
1E
100
AcDbEntity
  8
図面枠
  6
Continuous
 62
     2
100
AcDbCircle
 10
1211.007350554659
 20
158.5600857550085
 30
0.0
 40
0.10584
100
AcDbArc
 50
270.0
 51
0.0
  0
LINE
  5
EF3D
330
1E
100
AcDbEntity
  8
図面枠
  6
Continuous
 62
     2
100
AcDbLine
 10
1211.113190554659
 20
158.5600857550085
 30
0.0
 11
1211.113190554659
 21
159.0287947550085
 31
0.0
  0
ARC
  5
EF3E
330
1E
100
AcDbEntity
  8
図面枠
  6
Continuous
 62
     2
100
AcDbCircle
 10
1211.007350554659
 20
159.0287947550085
 30
0.0
 40
0.10584
100
AcDbArc
 50
0.0
 51
90.0
  0
LINE
  5
EF3F
330
1E
100
AcDbEntity
  8
図面枠
  6
Continuous
 62
     2
100
AcDbLine
 10
1210.61796055466
 20
156.6386477550085
 30
0.0
 11
1210.61796055466
 21
157.0790247550085
 31
0.0
  0
ARC
  5
EF40
330
1E
100
AcDbEntity
  8
図面枠
  6
Continuous
 62
     2
100
AcDbCircle
 10
1212.937010554659
 20
159.4229017550085
 30
0.0
 40
0.10584
100
AcDbArc
 50
180.0
 51
270.0
  0
LINE
  5
EF41
330
1E
100
AcDbEntity
  8
図面枠
  6
Continuous
 62
     2
100
AcDbLine
 10
1212.848490554659
 20
158.2274927550085
 30
0.0
 11
1213.796140554659
 21
159.3170617550085
 31
0.0
  0
ARC
  5
EF42
330
1E
100
AcDbEntity
  8
図面枠
  6
Continuous
 62
     2
100
AcDbCircle
 10
1212.901730554659
 20
156.8671507550085
 30
0.0
 40
0.0705599999999999
100
AcDbArc
 50
180.0
 51
318.9849099999984
  0
LINE
  5
EF43
330
1E
100
AcDbEntity
  8
図面枠
  6
Continuous
 62
     2
100
AcDbLine
 10
1211.98333055466
 20
157.5092577550085
 30
0.0
 11
1211.98333055466
 21
157.9779657550085
 31
0.0
  0
LINE
  5
EF44
330
1E
100
AcDbEntity
  8
図面枠
  6
Continuous
 62
     2
100
AcDbLine
 10
1212.831170554659
 20
158.1811877550085
 30
0.0
 11
1212.831170554659
 21
156.8671507550085
 31
0.0
  0
ARC
  5
EF45
330
1E
100
AcDbEntity
  8
図面枠
  6
Continuous
 62
     2
100
AcDbCircle
 10
1212.901730554659
 20
158.1811877550085
 30
0.0
 40
0.0705599999999999
100
AcDbArc
 50
138.9849099999985
 51
180.0
  0
LINE
  5
EF46
330
1E
100
AcDbEntity
  8
図面枠
  6
Continuous
 62
     2
100
AcDbLine
 10
1211.98333055466
 20
158.9700387550085
 30
0.0
 11
1211.98333055466
 21
159.6504267550085
 31
0.0
  0
LINE
  5
EF47
330
1E
100
AcDbEntity
  8
図面枠
  6
Continuous
 62
     2
100
AcDbLine
 10
1212.937010554659
 20
159.3170617550085
 30
0.0
 11
1213.796140554659
 21
159.3170617550085
 31
0.0
  0
LINE
  5
EF48
330
1E
100
AcDbEntity
  8
図面枠
  6
Continuous
 62
     2
100
AcDbLine
 10
1213.796140554659
 20
156.0652297550085
 30
0.0
 11
1213.796140554659
 21
157.7879867550085
 31
0.0
  0
ARC
  5
EF49
330
1E
100
AcDbEntity
  8
図面枠
  6
Continuous
 62
     2
100
AcDbCircle
 10
1213.901980554659
 20
156.0652297550085
 30
0.0
 40
0.10584
100
AcDbArc
 50
180.0
 51
270.0
  0
LINE
  5
EF4A
330
1E
100
AcDbEntity
  8
図面枠
  6
Continuous
 62
     2
100
AcDbLine
 10
1213.901980554659
 20
155.9593897550085
 30
0.0
 11
1214.849110554659
 21
155.9593897550085
 31
0.0
  0
LINE
  5
EF4B
330
1E
100
AcDbEntity
  8
図面枠
  6
Continuous
 62
     2
100
AcDbLine
 10
1212.95498055466
 20
156.8208457550085
 30
0.0
 11
1213.796140554659
 21
157.7879867550085
 31
0.0
  0
LINE
  5
EF4C
330
1E
100
AcDbEntity
  8
図面枠
  6
Continuous
 62
     2
100
AcDbLine
 10
1219.285630554659
 20
155.9593897550085
 30
0.0
 11
1215.880410554659
 21
155.9593897550085
 31
0.0
  0
LINE
  5
EF4D
330
1E
100
AcDbEntity
  8
図面枠
  6
Continuous
 62
     2
100
AcDbLine
 10
1214.954950554659
 20
156.0652297550085
 30
0.0
 11
1214.954950554659
 21
157.9305977550085
 31
0.0
  0
LINE
  5
EF4E
330
1E
100
AcDbEntity
  8
図面枠
  6
Continuous
 62
     2
100
AcDbLine
 10
1215.90164055466
 20
159.0287947550085
 30
0.0
 11
1215.90164055466
 21
158.5600857550085
 31
0.0
  0
ARC
  5
EF4F
330
1E
100
AcDbEntity
  8
図面枠
  6
Continuous
 62
     2
100
AcDbCircle
 10
1216.00748055466
 20
159.0287947550085
 30
0.0
 40
0.10584
100
AcDbArc
 50
90.0
 51
180.0
  0
LINE
  5
EF50
330
1E
100
AcDbEntity
  8
図面枠
  6
Continuous
 62
     2
100
AcDbLine
 10
1216.00748055466
 20
159.1346347550085
 30
0.0
 11
1216.971680554659
 21
159.1346347550085
 31
0.0
  0
ARC
  5
EF51
330
1E
100
AcDbEntity
  8
図面枠
  6
Continuous
 62
     2
100
AcDbCircle
 10
1216.00748055466
 20
158.5600857550085
 30
0.0
 40
0.10584
100
AcDbArc
 50
180.0
 51
270.0
  0
LINE
  5
EF52
330
1E
100
AcDbEntity
  8
図面枠
  6
Continuous
 62
     2
100
AcDbLine
 10
1216.00748055466
 20
158.4542457550085
 30
0.0
 11
1216.971680554659
 21
158.4542457550085
 31
0.0
  0
LINE
  5
EF53
330
1E
100
AcDbEntity
  8
図面枠
  6
Continuous
 62
     2
100
AcDbLine
 10
1215.77457055466
 20
156.5339387550085
 30
0.0
 11
1215.77457055466
 21
156.0652297550085
 31
0.0
  0
ARC
  5
EF54
330
1E
100
AcDbEntity
  8
図面枠
  6
Continuous
 62
     2
100
AcDbCircle
 10
1215.880410554659
 20
156.5339387550085
 30
0.0
 40
0.10584
100
AcDbArc
 50
90.0
 51
180.0
  0
LINE
  5
EF55
330
1E
100
AcDbEntity
  8
図面枠
  6
Continuous
 62
     2
100
AcDbLine
 10
1215.880410554659
 20
156.6397787550085
 30
0.0
 11
1216.971680554659
 21
156.6397787550085
 31
0.0
  0
ARC
  5
EF56
330
1E
100
AcDbEntity
  8
図面枠
  6
Continuous
 62
     2
100
AcDbCircle
 10
1215.880410554659
 20
156.0652297550085
 30
0.0
 40
0.10584
100
AcDbArc
 50
180.0
 51
270.0
  0
LINE
  5
EF57
330
1E
100
AcDbEntity
  8
図面枠
  6
Continuous
 62
     2
100
AcDbLine
 10
1215.705520554659
 20
158.3171927550085
 30
0.0
 11
1214.929670554659
 21
159.0912617550085
 31
0.0
  0
ARC
  5
EF58
330
1E
100
AcDbEntity
  8
図面枠
  6
Continuous
 62
     2
100
AcDbCircle
 10
1215.655690554659
 20
158.2672417550085
 30
0.0
 40
0.0705599999999999
100
AcDbArc
 50
0.0
 51
45.06604800000147
  0
LINE
  5
EF59
330
1E
100
AcDbEntity
  8
図面枠
  6
Continuous
 62
     2
100
AcDbLine
 10
1215.726250554659
 20
158.2672417550085
 30
0.0
 11
1215.726250554659
 21
157.3372117550085
 31
0.0
  0
ARC
  5
EF5A
330
1E
100
AcDbEntity
  8
図面枠
  6
Continuous
 62
     2
100
AcDbCircle
 10
1215.655690554659
 20
157.3372117550085
 30
0.0
 40
0.0705599999999999
100
AcDbArc
 50
225.3349599999975
 51
0.0
  0
LINE
  5
EF5B
330
1E
100
AcDbEntity
  8
図面枠
  6
Continuous
 62
     2
100
AcDbLine
 10
1215.606090554659
 20
157.2870267550085
 30
0.0
 11
1214.984410554659
 21
157.9014787550085
 31
0.0
  0
LINE
  5
EF5C
330
1E
100
AcDbEntity
  8
図面枠
  6
Continuous
 62
     2
100
AcDbLine
 10
1215.616170554659
 20
159.8805847550085
 30
0.0
 11
1214.929670554659
 21
159.0912617550085
 31
0.0
  0
LINE
  5
EF5D
330
1E
100
AcDbEntity
  8
図面枠
  6
Continuous
 62
     2
100
AcDbLine
 10
1216.971680554659
 20
158.4542457550085
 30
0.0
 11
1216.971680554659
 21
156.6386477550085
 31
0.0
  0
LINE
  5
EF5E
330
1E
100
AcDbEntity
  8
図面枠
  6
Continuous
 62
     2
100
AcDbLine
 10
1219.39147055466
 20
156.0652297550085
 30
0.0
 11
1219.39147055466
 21
156.5339387550085
 31
0.0
  0
ARC
  5
EF5F
330
1E
100
AcDbEntity
  8
図面枠
  6
Continuous
 62
     2
100
AcDbCircle
 10
1219.285630554659
 20
156.0652297550085
 30
0.0
 40
0.10584
100
AcDbArc
 50
270.0
 51
0.0
  0
ARC
  5
EF60
330
1E
100
AcDbEntity
  8
図面枠
  6
Continuous
 62
     2
100
AcDbCircle
 10
1219.285630554659
 20
156.5339387550085
 30
0.0
 40
0.10584
100
AcDbArc
 50
0.0
 51
90.0
  0
LINE
  5
EF61
330
1E
100
AcDbEntity
  8
図面枠
  6
Continuous
 62
     2
100
AcDbLine
 10
1219.285630554659
 20
156.6397787550085
 30
0.0
 11
1218.19434055466
 21
156.6397787550085
 31
0.0
  0
LINE
  5
EF62
330
1E
100
AcDbEntity
  8
図面枠
  6
Continuous
 62
     2
100
AcDbLine
 10
1219.264410554659
 20
158.5600857550085
 30
0.0
 11
1219.264410554659
 21
159.0287947550085
 31
0.0
  0
ARC
  5
EF63
330
1E
100
AcDbEntity
  8
図面枠
  6
Continuous
 62
     2
100
AcDbCircle
 10
1219.158570554659
 20
158.5600857550085
 30
0.0
 40
0.10584
100
AcDbArc
 50
270.0
 51
0.0
  0
LINE
  5
EF64
330
1E
100
AcDbEntity
  8
図面枠
  6
Continuous
 62
     2
100
AcDbLine
 10
1219.158570554659
 20
158.4542457550085
 30
0.0
 11
1218.19434055466
 21
158.4542457550085
 31
0.0
  0
ARC
  5
EF65
330
1E
100
AcDbEntity
  8
図面枠
  6
Continuous
 62
     2
100
AcDbCircle
 10
1219.158570554659
 20
159.0287947550085
 30
0.0
 40
0.10584
100
AcDbArc
 50
0.0
 51
90.0
  0
LINE
  5
EF66
330
1E
100
AcDbEntity
  8
図面枠
  6
Continuous
 62
     2
100
AcDbLine
 10
1219.158570554659
 20
159.1346347550085
 30
0.0
 11
1218.19434055466
 21
159.1346347550085
 31
0.0
  0
LINE
  5
EF67
330
1E
100
AcDbEntity
  8
図面枠
  6
Continuous
 62
     2
100
AcDbLine
 10
1218.19434055466
 20
158.4542457550085
 30
0.0
 11
1218.19434055466
 21
156.6386477550085
 31
0.0
  0
ARC
  5
EF68
330
1E
100
AcDbEntity
  8
図面枠
  6
Continuous
 62
     2
100
AcDbCircle
 10
1214.849110554659
 20
160.3478787550085
 30
0.0
 40
0.10584
100
AcDbArc
 50
0.0
 51
90.0
  0
LINE
  5
EF69
330
1E
100
AcDbEntity
  8
図面枠
  6
Continuous
 62
     2
100
AcDbLine
 10
1203.905520554659
 20
160.4537187550085
 30
0.0
 11
1202.546670554659
 21
160.4537187550085
 31
0.0
  0
LINE
  5
EF6A
330
1E
100
AcDbEntity
  8
図面枠
  6
Continuous
 62
     2
100
AcDbLine
 10
1198.25963055466
 20
160.4537187550085
 30
0.0
 11
1197.312520554659
 21
160.4537187550085
 31
0.0
  0
LINE
  5
EF6B
330
1E
100
AcDbEntity
  8
図面枠
  6
Continuous
 62
     2
100
AcDbLine
 10
1194.910340554659
 20
160.4537187550085
 30
0.0
 11
1193.963230554659
 21
160.4537187550085
 31
0.0
  0
ARC
  5
EF6C
330
1E
100
AcDbEntity
  8
図面枠
  6
Continuous
 62
     2
100
AcDbCircle
 10
1193.963230554659
 20
160.3478787550085
 30
0.0
 40
0.10584
100
AcDbArc
 50
90.0
 51
180.0
  0
LINE
  5
EF6D
330
1E
100
AcDbEntity
  8
図面枠
  6
Continuous
 62
     2
100
AcDbLine
 10
1193.857390554659
 20
160.3478787550085
 30
0.0
 11
1193.857390554659
 21
159.9974487550085
 31
0.0
  0
LINE
  5
EF6E
330
1E
100
AcDbEntity
  8
図面枠
  6
Continuous
 62
     2
100
AcDbLine
 10
1192.998260554659
 20
159.9974487550085
 30
0.0
 11
1193.857390554659
 21
159.9974487550085
 31
0.0
  0
ARC
  5
EF6F
330
1E
100
AcDbEntity
  8
図面枠
  6
Continuous
 62
     2
100
AcDbCircle
 10
1192.998260554659
 20
159.8916087550085
 30
0.0
 40
0.10584
100
AcDbArc
 50
90.0
 51
180.0
  0
ARC
  5
EF70
330
1E
100
AcDbEntity
  8
図面枠
  6
Continuous
 62
     2
100
AcDbCircle
 10
1191.937830554659
 20
159.8916087550085
 30
0.0
 40
0.10584
100
AcDbArc
 50
0.0
 51
90.0
  0
LINE
  5
EF71
330
1E
100
AcDbEntity
  8
図面枠
  6
Continuous
 62
     2
100
AcDbLine
 10
1197.206680554659
 20
160.3478787550085
 30
0.0
 11
1197.206680554659
 21
159.9974487550085
 31
0.0
  0
ARC
  5
EF72
330
1E
100
AcDbEntity
  8
図面枠
  6
Continuous
 62
     2
100
AcDbCircle
 10
1197.312520554659
 20
160.3478787550085
 30
0.0
 40
0.10584
100
AcDbArc
 50
90.0
 51
180.0
  0
ARC
  5
EF73
330
1E
100
AcDbEntity
  8
図面枠
  6
Continuous
 62
     2
100
AcDbCircle
 10
1195.483750554659
 20
159.8916087550085
 30
0.0
 40
0.10584
100
AcDbArc
 50
0.0
 51
90.0
  0
LINE
  5
EF74
330
1E
100
AcDbEntity
  8
図面枠
  6
Continuous
 62
     2
100
AcDbLine
 10
1195.483750554659
 20
159.9974487550085
 30
0.0
 11
1195.016180554659
 21
159.9974487550085
 31
0.0
  0
LINE
  5
EF75
330
1E
100
AcDbEntity
  8
図面枠
  6
Continuous
 62
     2
100
AcDbLine
 10
1195.016180554659
 20
160.3478787550085
 30
0.0
 11
1195.016180554659
 21
159.9974487550085
 31
0.0
  0
ARC
  5
EF76
330
1E
100
AcDbEntity
  8
図面枠
  6
Continuous
 62
     2
100
AcDbCircle
 10
1194.910340554659
 20
160.3478787550085
 30
0.0
 40
0.10584
100
AcDbArc
 50
0.0
 51
90.0
  0
LINE
  5
EF77
330
1E
100
AcDbEntity
  8
図面枠
  6
Continuous
 62
     2
100
AcDbLine
 10
1196.902040554659
 20
159.9974487550085
 30
0.0
 11
1197.023750554659
 21
160.3911127550085
 31
0.0
  0
LINE
  5
EF78
330
1E
100
AcDbEntity
  8
図面枠
  6
Continuous
 62
     2
100
AcDbLine
 10
1196.167210554659
 20
160.3911127550085
 30
0.0
 11
1197.023750554659
 21
160.3911127550085
 31
0.0
  0
LINE
  5
EF79
330
1E
100
AcDbEntity
  8
図面枠
  6
Continuous
 62
     2
100
AcDbLine
 10
1197.206680554659
 20
159.9974487550085
 30
0.0
 11
1196.902040554659
 21
159.9974487550085
 31
0.0
  0
LINE
  5
EF7A
330
1E
100
AcDbEntity
  8
図面枠
  6
Continuous
 62
     2
100
AcDbLine
 10
1200.302330554659
 20
159.9974487550085
 30
0.0
 11
1202.727480554659
 21
159.9974487550085
 31
0.0
  0
ARC
  5
EF7B
330
1E
100
AcDbEntity
  8
図面枠
  6
Continuous
 62
     2
100
AcDbCircle
 10
1200.302330554659
 20
159.8916087550085
 30
0.0
 40
0.10584
100
AcDbArc
 50
90.0
 51
180.0
  0
ARC
  5
EF7C
330
1E
100
AcDbEntity
  8
図面枠
  6
Continuous
 62
     2
100
AcDbCircle
 10
1198.25963055466
 20
160.3478787550085
 30
0.0
 40
0.10584
100
AcDbArc
 50
0.0
 51
90.0
  0
LINE
  5
EF7D
330
1E
100
AcDbEntity
  8
図面枠
  6
Continuous
 62
     2
100
AcDbLine
 10
1198.365470554659
 20
160.3478787550085
 30
0.0
 11
1198.365470554659
 21
159.9974487550085
 31
0.0
  0
LINE
  5
EF7E
330
1E
100
AcDbEntity
  8
図面枠
  6
Continuous
 62
     2
100
AcDbLine
 10
1198.365470554659
 20
159.9974487550085
 30
0.0
 11
1199.534080554659
 21
159.9974487550085
 31
0.0
  0
ARC
  5
EF7F
330
1E
100
AcDbEntity
  8
図面枠
  6
Continuous
 62
     2
100
AcDbCircle
 10
1199.534080554659
 20
159.8916087550085
 30
0.0
 40
0.10584
100
AcDbArc
 50
0.0
 51
90.0
  0
LINE
  5
EF80
330
1E
100
AcDbEntity
  8
図面枠
  6
Continuous
 62
     2
100
AcDbLine
 10
1202.727480554659
 20
159.9974487550085
 30
0.0
 11
1202.542910554659
 21
160.4640817550085
 31
0.0
  0
LINE
  5
EF81
330
1E
100
AcDbEntity
  8
図面枠
  6
Continuous
 62
     2
100
AcDbLine
 10
1205.664890554659
 20
159.9974487550085
 30
0.0
 11
1204.158460554659
 21
159.9974487550085
 31
0.0
  0
ARC
  5
EF82
330
1E
100
AcDbEntity
  8
図面枠
  6
Continuous
 62
     2
100
AcDbCircle
 10
1205.664890554659
 20
159.8916087550085
 30
0.0
 40
0.10584
100
AcDbArc
 50
0.0
 51
90.0
  0
LINE
  5
EF83
330
1E
100
AcDbEntity
  8
図面枠
  6
Continuous
 62
     2
100
AcDbLine
 10
1204.811250554659
 20
160.2175207550085
 30
0.0
 11
1205.584800554659
 21
160.2175207550085
 31
0.0
  0
LINE
  5
EF84
330
1E
100
AcDbEntity
  8
図面枠
  6
Continuous
 62
     2
100
AcDbLine
 10
1205.584800554659
 20
160.2175207550085
 30
0.0
 11
1205.584800554659
 21
160.4537187550085
 31
0.0
  0
LINE
  5
EF85
330
1E
100
AcDbEntity
  8
図面枠
  6
Continuous
 62
     2
100
AcDbLine
 10
1205.584800554659
 20
160.4537187550085
 30
0.0
 11
1204.811250554659
 21
160.4537187550085
 31
0.0
  0
LINE
  5
EF86
330
1E
100
AcDbEntity
  8
図面枠
  6
Continuous
 62
     2
100
AcDbLine
 10
1204.811250554659
 20
160.4537187550085
 30
0.0
 11
1204.811250554659
 21
160.2175207550085
 31
0.0
  0
ARC
  5
EF87
330
1E
100
AcDbEntity
  8
図面枠
  6
Continuous
 62
     2
100
AcDbCircle
 10
1203.905520554659
 20
160.3478787550085
 30
0.0
 40
0.10584
100
AcDbArc
 50
19.96282400000114
 51
90.0
  0
LINE
  5
EF88
330
1E
100
AcDbEntity
  8
図面枠
  6
Continuous
 62
     2
100
AcDbLine
 10
1204.004990554659
 20
160.3840147550085
 30
0.0
 11
1204.158460554659
 21
159.9974487550085
 31
0.0
  0
ARC
  5
EF89
330
1E
100
AcDbEntity
  8
図面枠
  6
Continuous
 62
     2
100
AcDbCircle
 10
1212.937010554659
 20
159.8916087550085
 30
0.0
 40
0.10584
100
AcDbArc
 50
90.0
 51
180.0
  0
LINE
  5
EF8A
330
1E
100
AcDbEntity
  8
図面枠
  6
Continuous
 62
     2
100
AcDbLine
 10
1214.849110554659
 20
160.4537187550085
 30
0.0
 11
1213.901980554659
 21
160.4537187550085
 31
0.0
  0
LINE
  5
EF8B
330
1E
100
AcDbEntity
  8
図面枠
  6
Continuous
 62
     2
100
AcDbLine
 10
1213.796140554659
 20
160.3478787550085
 30
0.0
 11
1213.796140554659
 21
159.9974487550085
 31
0.0
  0
ARC
  5
EF8C
330
1E
100
AcDbEntity
  8
図面枠
  6
Continuous
 62
     2
100
AcDbCircle
 10
1213.901980554659
 20
160.3478787550085
 30
0.0
 40
0.10584
100
AcDbArc
 50
90.0
 51
180.0
  0
LINE
  5
EF8D
330
1E
100
AcDbEntity
  8
図面枠
  6
Continuous
 62
     2
100
AcDbLine
 10
1212.937010554659
 20
159.9974487550085
 30
0.0
 11
1213.796140554659
 21
159.9974487550085
 31
0.0
  0
LINE
  5
EF8E
330
1E
100
AcDbEntity
  8
図面枠
  6
Continuous
 62
     2
100
AcDbLine
 10
1218.088500554659
 20
160.4537187550085
 30
0.0
 11
1217.077520554659
 21
160.4537187550085
 31
0.0
  0
LINE
  5
EF8F
330
1E
100
AcDbEntity
  8
図面枠
  6
Continuous
 62
     2
100
AcDbLine
 10
1214.954950554659
 20
160.3478787550085
 30
0.0
 11
1214.954950554659
 21
159.9974487550085
 31
0.0
  0
ARC
  5
EF90
330
1E
100
AcDbEntity
  8
図面枠
  6
Continuous
 62
     2
100
AcDbCircle
 10
1217.077520554659
 20
160.3478787550085
 30
0.0
 40
0.10584
100
AcDbArc
 50
90.0
 51
180.0
  0
LINE
  5
EF91
330
1E
100
AcDbEntity
  8
図面枠
  6
Continuous
 62
     2
100
AcDbLine
 10
1215.56295055466
 20
159.9974487550085
 30
0.0
 11
1214.954950554659
 21
159.9974487550085
 31
0.0
  0
ARC
  5
EF92
330
1E
100
AcDbEntity
  8
図面枠
  6
Continuous
 62
     2
100
AcDbCircle
 10
1218.088500554659
 20
160.3478787550085
 30
0.0
 40
0.10584
100
AcDbArc
 50
0.0
 51
90.0
  0
LINE
  5
EF93
330
1E
100
AcDbEntity
  8
躯体と製品
  6
Continuous
 62
     7
100
AcDbLine
 10
1152.126766454925
 20
240.1546187559109
 30
0.0
 11
1152.126766454925
 21
225.1546187559109
 31
0.0
  0
LINE
  5
EF94
330
1E
100
AcDbEntity
  8
躯体と製品
  6
Continuous
 62
     7
100
AcDbLine
 10
1146.126766454925
 20
225.1546187559109
 30
0.0
 11
1146.126766454925
 21
227.0046187559109
 31
0.0
  0
LINE
  5
EF95
330
1E
100
AcDbEntity
  8
文字-記号
  6
Continuous
 62
     4
100
AcDbLine
 10
1153.121324611422
 20
208.870592536419
 30
0.0
 11
1153.121324611422
 21
205.6195283846415
 31
0.0
  0
LINE
  5
EF96
330
1E
100
AcDbEntity
  8
躯体と製品
  6
Continuous
 62
     7
100
AcDbLine
 10
1151.626766454926
 20
224.6546187559109
 30
0.0
 11
1146.626766454926
 21
224.6546187559109
 31
0.0
  0
ARC
  5
EF97
330
1E
100
AcDbEntity
  8
躯体と製品
  6
Continuous
 62
     7
100
AcDbCircle
 10
1146.626766454926
 20
225.1546187559109
 30
0.0
 40
0.5
100
AcDbArc
 50
180.0
 51
270.0
  0
ARC
  5
EF98
330
1E
100
AcDbEntity
  8
躯体と製品
  6
Continuous
 62
     7
100
AcDbCircle
 10
1151.626766454926
 20
225.1546187559109
 30
0.0
 40
0.5
100
AcDbArc
 50
270.0
 51
0.0
  0
LINE
  5
EF99
330
1E
100
AcDbEntity
  8
躯体と製品
  6
Continuous
 62
     3
100
AcDbLine
 10
1168.473478646323
 20
247.1508607990768
 30
0.0
 11
1168.416216288716
 21
247.1508619406604
 31
0.0
  0
LINE
  5
EF9A
330
1E
100
AcDbEntity
  8
躯体と製品
  6
Continuous
 62
     3
100
AcDbLine
 10
1172.877364078004
 20
245.6396698681515
 30
0.0
 11
1167.504404767875
 21
245.6396673513147
 31
0.0
  0
LINE
  5
EF9B
330
1E
100
AcDbEntity
  8
躯体と製品
  6
Continuous
 62
     3
100
AcDbLine
 10
1168.95936898937
 20
234.1108881261617
 30
0.0
 11
1167.170991851492
 21
234.1108837040923
 31
0.0
  0
ARC
  5
EF9C
330
1E
100
AcDbEntity
  8
躯体と製品
  6
Continuous
 62
     3
100
AcDbCircle
 10
1168.325464317776
 20
256.8354684410153
 30
0.0
 40
0.5
100
AcDbArc
 50
270.0
 51
47.294389
  0
ARC
  5
EF9D
330
1E
100
AcDbEntity
  8
躯体と製品
  6
Continuous
 62
     3
100
AcDbCircle
 10
1168.340988897435
 20
235.780883046543
 30
0.0
 40
0.47
100
AcDbArc
 50
180.0
 51
301.6193399999995
  0
LINE
  5
EF9E
330
1E
100
AcDbEntity
  8
躯体と製品
  6
Continuous
 62
     3
100
AcDbLine
 10
1170.593587353338
 20
255.0354763631562
 30
0.0
 11
1161.579663058643
 21
255.0354728241384
 31
0.0
  0
LINE
  5
EF9F
330
1E
100
AcDbEntity
  8
躯体と製品
  6
Continuous
 62
     7
100
AcDbLine
 10
1166.426766454925
 20
247.6546187559109
 30
0.0
 11
1166.426766454925
 21
235.3046187559109
 31
0.0
  0
LINE
  5
EFA0
330
1E
100
AcDbEntity
  8
躯体と製品
  6
Continuous
 62
     7
100
AcDbLine
 10
1157.126766454925
 20
240.6546187559109
 30
0.0
 11
1152.626766454925
 21
240.6546187559109
 31
0.0
  0
LINE
  5
EFA1
330
1E
100
AcDbEntity
  8
躯体と製品
  6
Continuous
 62
     7
100
AcDbLine
 10
1150.826766454926
 20
225.9546187559109
 30
0.0
 11
1150.826766454926
 21
240.1546187559109
 31
0.0
  0
LINE
  5
EFA2
330
1E
100
AcDbEntity
  8
躯体と製品
  6
Continuous
 62
     7
100
AcDbLine
 10
1147.426766454926
 20
225.9546187559109
 30
0.0
 11
1150.826766454926
 21
225.9546187559109
 31
0.0
  0
ARC
  5
EFA3
330
1E
100
AcDbEntity
  8
躯体と製品
  6
Continuous
 62
     7
100
AcDbCircle
 10
1146.776766454925
 20
227.0046187559109
 30
0.0
 40
0.65
100
AcDbArc
 50
0.0
 51
180.0
  0
LINE
  5
EFA4
330
1E
100
AcDbEntity
  8
躯体と製品
  6
Continuous
 62
     7
100
AcDbLine
 10
1147.426766454926
 20
227.0046187559109
 30
0.0
 11
1147.426766454926
 21
225.9546187559109
 31
0.0
  0
ARC
  5
EFA5
330
1E
100
AcDbEntity
  8
躯体と製品
  6
Continuous
 62
     7
100
AcDbCircle
 10
1150.326766454925
 20
240.1546187559109
 30
0.0
 40
0.5
100
AcDbArc
 50
0.0
 51
90.0
  0
ARC
  5
EFA6
330
1E
100
AcDbEntity
  8
躯体と製品
  6
Continuous
 62
     7
100
AcDbCircle
 10
1152.626766454925
 20
240.1546187559109
 30
0.0
 40
0.5
100
AcDbArc
 50
90.0
 51
180.0
  0
LINE
  5
EFA7
330
1E
100
AcDbEntity
  8
躯体と製品
  6
Continuous
 62
     7
100
AcDbLine
 10
1165.126766454925
 20
240.6546187559109
 30
0.0
 11
1158.126766454925
 21
240.6546187559109
 31
0.0
  0
LINE
  5
EFA8
330
1E
100
AcDbEntity
  8
躯体と製品
  6
Continuous
 62
     7
100
AcDbLine
 10
1158.126766454925
 20
240.6546187559109
 30
0.0
 11
1157.626766454926
 21
241.1546187559109
 31
0.0
  0
LINE
  5
EFA9
330
1E
100
AcDbEntity
  8
躯体と製品
  6
Continuous
 62
     7
100
AcDbLine
 10
1157.626766454926
 20
241.1546187559109
 30
0.0
 11
1157.126766454925
 21
240.6546187559109
 31
0.0
  0
LINE
  5
EFAA
330
1E
100
AcDbEntity
  8
躯体と製品
  6
Continuous
 62
     7
100
AcDbLine
 10
1165.126766454925
 20
235.3046187559109
 30
0.0
 11
1165.126766454925
 21
240.6546187559109
 31
0.0
  0
LINE
  5
EFAB
330
1E
100
AcDbEntity
  8
躯体と製品
  6
Continuous
 62
     3
100
AcDbLine
 10
1166.670985976773
 20
234.6108876647228
 30
0.0
 11
1166.670989933298
 21
239.510888211711
 31
0.0
  0
LINE
  5
EFAC
330
1E
100
AcDbEntity
  8
躯体と製品
  6
Continuous
 62
     3
100
AcDbLine
 10
1167.870985741287
 20
235.7808797869472
 30
0.0
 11
1167.870987908706
 21
239.510884120054
 31
0.0
  0
ARC
  5
EFAD
330
1E
100
AcDbEntity
  8
躯体と製品
  6
Continuous
 62
     7
100
AcDbCircle
 10
1165.776766454926
 20
235.3046187559109
 30
0.0
 40
0.65
100
AcDbArc
 50
180.0
 51
0.0
  0
ARC
  5
EFAE
330
1E
100
AcDbEntity
  8
躯体と製品
  6
Continuous
 62
     3
100
AcDbCircle
 10
1167.170991173665
 20
234.6108786256661
 30
0.0
 40
0.5
100
AcDbArc
 50
180.0
 51
270.0
  0
ARC
  5
EFAF
330
1E
100
AcDbEntity
  8
躯体と製品
  6
Continuous
 62
     3
100
AcDbCircle
 10
1167.270984062559
 20
239.5108810282237
 30
0.0
 40
0.5999999999999998
100
AcDbArc
 50
0.0
 51
180.0
  0
LINE
  5
EFB0
330
1E
100
AcDbEntity
  8
躯体と製品
  6
Continuous
 62
     7
100
AcDbLine
 10
1157.126766454925
 20
243.4546187559109
 30
0.0
 11
1155.126766454926
 21
243.4546187559109
 31
0.0
  0
LINE
  5
EFB1
330
1E
100
AcDbEntity
  8
躯体と製品
  6
Continuous
 62
     7
100
AcDbLine
 10
1151.126766454926
 20
242.6546187559109
 30
0.0
 11
1150.626766454925
 21
242.1546187559109
 31
0.0
  0
LINE
  5
EFB2
330
1E
100
AcDbEntity
  8
躯体と製品
  6
Continuous
 62
     7
100
AcDbLine
 10
1150.126766454925
 20
242.6546187559109
 30
0.0
 11
1148.126766454925
 21
242.6546187559109
 31
0.0
  0
LINE
  5
EFB3
330
1E
100
AcDbEntity
  8
躯体と製品
  6
Continuous
 62
     7
100
AcDbLine
 10
1148.126766454925
 20
242.6546187559109
 30
0.0
 11
1148.126766454925
 21
242.1546187559109
 31
0.0
  0
LINE
  5
EFB4
330
1E
100
AcDbEntity
  8
躯体と製品
  6
Continuous
 62
     7
100
AcDbLine
 10
1150.626766454925
 20
242.1546187559109
 30
0.0
 11
1150.126766454925
 21
242.6546187559109
 31
0.0
  0
LINE
  5
EFB5
330
1E
100
AcDbEntity
  8
躯体と製品
  6
Continuous
 62
     7
100
AcDbLine
 10
1155.126766454926
 20
242.1546187559109
 30
0.0
 11
1153.126766454926
 21
242.1546187559109
 31
0.0
  0
LINE
  5
EFB6
330
1E
100
AcDbEntity
  8
躯体と製品
  6
Continuous
 62
     7
100
AcDbLine
 10
1153.126766454926
 20
242.1546187559109
 30
0.0
 11
1153.126766454926
 21
242.6546187559109
 31
0.0
  0
LINE
  5
EFB7
330
1E
100
AcDbEntity
  8
躯体と製品
  6
Continuous
 62
     7
100
AcDbLine
 10
1153.126766454926
 20
242.6546187559109
 30
0.0
 11
1151.126766454926
 21
242.6546187559109
 31
0.0
  0
LINE
  5
EFB8
330
1E
100
AcDbEntity
  8
躯体と製品
  6
Continuous
 62
     7
100
AcDbLine
 10
1155.126766454926
 20
243.4546187559109
 30
0.0
 11
1155.126766454926
 21
242.1546187559109
 31
0.0
  0
LINE
  5
EFB9
330
1E
100
AcDbEntity
  8
躯体と製品
  6
Continuous
 62
     7
100
AcDbLine
 10
1165.939916454925
 20
249.6539817559109
 30
0.0
 11
1163.809206454926
 21
254.5546187559108
 31
0.0
  0
LINE
  5
EFBA
330
1E
100
AcDbEntity
  8
躯体と製品
  6
Continuous
 62
     7
100
AcDbLine
 10
1165.226766454925
 20
254.5546187559108
 30
0.0
 11
1167.922686454926
 21
248.3539817559109
 31
0.0
  0
LINE
  5
EFBB
330
1E
100
AcDbEntity
  8
躯体と製品
  6
Continuous
 62
     7
100
AcDbLine
 10
1165.126766454925
 20
242.1546187559109
 30
0.0
 11
1160.126766454925
 21
242.1546187559109
 31
0.0
  0
LINE
  5
EFBC
330
1E
100
AcDbEntity
  8
躯体と製品
  6
Continuous
 62
     7
100
AcDbLine
 10
1160.126766454925
 20
243.4546187559109
 30
0.0
 11
1158.126766454925
 21
243.4546187559109
 31
0.0
  0
LINE
  5
EFBD
330
1E
100
AcDbEntity
  8
躯体と製品
  6
Continuous
 62
     7
100
AcDbLine
 10
1158.126766454925
 20
243.4546187559109
 30
0.0
 11
1157.626766454926
 21
242.9546187559109
 31
0.0
  0
LINE
  5
EFBE
330
1E
100
AcDbEntity
  8
躯体と製品
  6
Continuous
 62
     7
100
AcDbLine
 10
1157.626766454926
 20
242.9546187559109
 30
0.0
 11
1157.126766454925
 21
243.4546187559109
 31
0.0
  0
LINE
  5
EFBF
330
1E
100
AcDbEntity
  8
躯体と製品
  6
Continuous
 62
     7
100
AcDbLine
 10
1160.126766454925
 20
242.1546187559109
 30
0.0
 11
1160.126766454925
 21
243.4546187559109
 31
0.0
  0
LINE
  5
EFC0
330
1E
100
AcDbEntity
  8
躯体と製品
  6
Continuous
 62
     7
100
AcDbLine
 10
1165.126766454925
 20
246.1546187559109
 30
0.0
 11
1165.126766454925
 21
242.1546187559109
 31
0.0
  0
LINE
  5
EFC1
330
1E
100
AcDbEntity
  8
躯体と製品
  6
Continuous
 62
     3
100
AcDbLine
 10
1167.504404767875
 20
245.6396673513147
 30
0.0
 11
1166.68427461885
 21
247.3683574593164
 31
0.0
  0
ARC
  5
EFC2
330
1E
100
AcDbEntity
  8
躯体と製品
  6
Continuous
 62
     7
100
AcDbCircle
 10
1165.481376454926
 20
249.4546187559109
 30
0.0
 40
0.5
100
AcDbArc
 50
270.0
 51
23.49856600000027
  0
LINE
  5
EFC3
330
1E
100
AcDbEntity
  8
躯体と製品
  6
Continuous
 62
     7
100
AcDbLine
 10
1165.126766454925
 20
248.9546187559109
 30
0.0
 11
1165.481376454926
 21
248.9546187559109
 31
0.0
  0
ARC
  5
EFC4
330
1E
100
AcDbEntity
  8
躯体と製品
  6
Continuous
 62
     7
100
AcDbCircle
 10
1163.776766454926
 20
246.8046187559108
 30
0.0
 40
0.65
100
AcDbArc
 50
90.0
 51
270.0
  0
LINE
  5
EFC5
330
1E
100
AcDbEntity
  8
躯体と製品
  6
Continuous
 62
     7
100
AcDbLine
 10
1165.126766454925
 20
248.9546187559109
 30
0.0
 11
1165.126766454925
 21
247.4546187559109
 31
0.0
  0
LINE
  5
EFC6
330
1E
100
AcDbEntity
  8
躯体と製品
  6
Continuous
 62
     7
100
AcDbLine
 10
1165.126766454925
 20
247.4546187559109
 30
0.0
 11
1163.776766454926
 21
247.4546187559109
 31
0.0
  0
LINE
  5
EFC7
330
1E
100
AcDbEntity
  8
躯体と製品
  6
Continuous
 62
     7
100
AcDbLine
 10
1163.776766454926
 20
246.1546187559109
 30
0.0
 11
1165.126766454925
 21
246.1546187559109
 31
0.0
  0
LINE
  5
EFC8
330
1E
100
AcDbEntity
  8
躯体と製品
  6
Continuous
 62
     7
100
AcDbLine
 10
1167.464156454925
 20
247.6546187559109
 30
0.0
 11
1166.426766454925
 21
247.6546187559109
 31
0.0
  0
ARC
  5
EFC9
330
1E
100
AcDbEntity
  8
躯体と製品
  6
Continuous
 62
     7
100
AcDbCircle
 10
1167.464156454925
 20
248.1546187559109
 30
0.0
 40
0.5
100
AcDbArc
 50
270.0
 51
23.49856600000027
  0
ARC
  5
EFCA
330
1E
100
AcDbEntity
  8
躯体と製品
  6
Continuous
 62
     3
100
AcDbCircle
 10
1167.91659274213
 20
247.4020723710791
 30
0.0
 40
0.25
100
AcDbArc
 50
1.600000000000019
 51
89.86127468597242
  0
LINE
  5
EFCB
330
1E
100
AcDbEntity
  8
躯体と製品
  6
Continuous
 62
     3
100
AcDbLine
 10
1167.91719804491
 20
247.6520716382951
 30
0.0
 11
1166.86519967567
 21
247.6546187559109
 31
0.0
  0
LINE
  5
EFCC
330
1E
100
AcDbEntity
  8
躯体と製品
  6
Continuous
 62
     3
100
AcDbLine
 10
1168.16649527089
 20
247.40905278076
 30
0.0
 11
1168.166919062736
 21
247.3938807981955
 31
0.0
  0
ARC
  5
EFCD
330
1E
100
AcDbEntity
  8
躯体と製品
  6
Continuous
 62
     3
100
AcDbCircle
 10
1168.416821591496
 20
247.4008612078764
 30
0.0
 40
0.25
100
AcDbArc
 50
181.6
 51
269.8612746859724
  0
ARC
  5
EFCE
330
1E
100
AcDbEntity
  8
躯体と製品
  6
Continuous
 62
     3
100
AcDbCircle
 10
1166.864715433446
 20
247.4546193421381
 30
0.0
 40
0.2
100
AcDbArc
 50
89.86127468597242
 51
205.5506875872516
  0
LINE
  5
EFCF
330
1E
100
AcDbEntity
  8
躯体と製品
  6
Continuous
 62
     3
100
AcDbLine
 10
1168.325464995604
 20
256.3354735194416
 30
0.0
 11
1161.579655019413
 21
256.3354694488014
 31
0.0
  0
ARC
  5
EFD0
330
1E
100
AcDbEntity
  8
躯体と製品
  6
Continuous
 62
     3
100
AcDbCircle
 10
1161.57966389747
 20
255.6854762741286
 30
0.0
 40
0.65
100
AcDbArc
 50
90.0
 51
270.0
  0
LINE
  5
EFD1
330
1E
100
AcDbEntity
  8
躯体と製品
  6
Continuous
 62
     7
100
AcDbLine
 10
1163.809206454926
 20
255.0354742560523
 30
0.0
 11
1165.226766454925
 21
255.0354742560523
 31
0.0
  0
LINE
  5
EFD2
330
1E
100
AcDbEntity
  8
躯体と製品
  6
Continuous
 62
     7
100
AcDbLine
 10
1163.809206454926
 20
254.5546187559108
 30
0.0
 11
1163.809206454926
 21
255.0354742560523
 31
0.0
  0
LINE
  5
EFD3
330
1E
100
AcDbEntity
  8
躯体と製品
  6
Continuous
 62
     7
100
AcDbLine
 10
1165.226766454925
 20
255.0354742560523
 30
0.0
 11
1165.226766454925
 21
254.5546187559108
 31
0.0
  0
ARC
  5
EFD4
330
1E
100
AcDbEntity
  8
躯体と製品
  6
Continuous
 62
     3
100
AcDbCircle
 10
1158.626752477461
 20
246.3271474766309
 30
0.0
 40
14.8
100
AcDbArc
 50
312.3003000000018
 51
355.2366600000001
  0
ARC
  5
EFD5
330
1E
100
AcDbEntity
  8
躯体と製品
  6
Continuous
 62
     3
100
AcDbCircle
 10
1158.626752477461
 20
246.3271474766309
 30
0.0
 40
16.0
100
AcDbArc
 50
310.2248299999981
 51
47.51330699999906
  0
ARC
  5
EFD9
330
1E
100
AcDbEntity
  8
躯体と製品
  6
Continuous
 62
     3
100
AcDbCircle
 10
1158.626752477461
 20
246.3271474766309
 30
0.0
 40
14.8
100
AcDbArc
 50
5.267946200000291
 51
36.04359199999878
  0
ARC
  5
EFDA
330
1E
100
AcDbEntity
  8
躯体と製品
  6
Continuous
 62
     3
100
AcDbCircle
 10
1172.877365035048
 20
245.1396649504766
 30
0.0
 40
0.5
100
AcDbArc
 50
355.2366600000001
 51
90.0
  0
LINE
  5
EFDB
330
1E
100
AcDbEntity
  8
躯体と製品
  6
Continuous
 62
     3
100
AcDbLine
 10
1172.866355946559
 20
247.1400774894472
 30
0.0
 11
1168.473478646323
 21
247.1508607990768
 31
0.0
  0
ARC
  5
EFDC
330
1E
100
AcDbEntity
  8
躯体と製品
  6
Continuous
 62
     3
100
AcDbCircle
 10
1172.866355268731
 20
247.6400724110209
 30
0.0
 40
0.5
100
AcDbArc
 50
270.0
 51
5.267946200000291
  0
ARC
  5
EFDD
330
1E
100
AcDbEntity
  8
躯体と製品
  6
Continuous
 62
     3
100
AcDbCircle
 10
1158.626752477461
 20
246.3271474766309
 30
0.0
 40
14.8
100
AcDbArc
 50
47.294389
 51
47.63504499999891
  0
LINE
  5
EFDF
330
1E
100
AcDbEntity
  8
文字-記号
  6
Continuous
 62
     4
100
AcDbLine
 10
1228.577464944284
 20
209.604579804785
 30
0.0
 11
1228.577464944284
 21
206.3535156530075
 31
0.0
  0
LINE
  5
EFE0
330
1E
100
AcDbEntity
  8
躯体と製品
  6
Continuous
 62
     7
100
AcDbLine
 10
1213.003885648275
 20
242.5490321790916
 30
0.0
 11
1225.003885648275
 21
242.5490321790916
 31
0.0
  0
LINE
  5
EFE1
330
1E
100
AcDbEntity
  8
躯体と製品
  6
Continuous
 62
     3
100
AcDbLine
 10
1230.968355648275
 20
252.0490321790916
 30
0.0
 11
1207.660945648275
 21
252.0490321790916
 31
0.0
  0
LINE
  5
EFE2
330
1E
100
AcDbEntity
  8
躯体と製品
  6
Continuous
 62
     3
100
AcDbLine
 10
1231.503885648275
 20
249.0490321790916
 30
0.0
 11
1205.606635648275
 21
249.0490321790916
 31
0.0
  0
LINE
  5
EFE3
330
1E
100
AcDbEntity
  8
躯体と製品
  6
Continuous
 62
     7
100
AcDbLine
 10
1210.503885648275
 20
247.7990321790916
 30
0.0
 11
1210.503885648275
 21
240.0490321790916
 31
0.0
  0
ARC
  5
EFE4
330
1E
100
AcDbEntity
  8
躯体と製品
  6
Continuous
 62
     3
100
AcDbCircle
 10
1216.503885648275
 20
246.5490321790916
 30
0.0
 40
12.0
100
AcDbArc
 50
172.1625200000004
 51
208.27303
  0
ARC
  5
EFE5
330
1E
100
AcDbEntity
  8
躯体と製品
  6
Continuous
 62
     3
100
AcDbCircle
 10
1216.503885648275
 20
246.5490321790916
 30
0.0
 40
15.0
100
AcDbArc
 50
151.4332700000001
 51
208.5667199999995
  0
ARC
  5
EFE6
330
1E
100
AcDbEntity
  8
躯体と製品
  6
Continuous
 62
     3
100
AcDbCircle
 10
1226.478515648275
 20
253.2739721790917
 30
0.0
 40
27.0
100
AcDbArc
 50
210.9792900000008
 51
225.4006999999996
  0
LINE
  5
EFE7
330
1E
100
AcDbEntity
  8
躯体と製品
  6
Continuous
 62
     3
100
AcDbLine
 10
1209.603885648275
 20
234.0490321790916
 30
0.0
 11
1207.520615648275
 21
234.0490321790916
 31
0.0
  0
LINE
  5
EFE8
330
1E
100
AcDbEntity
  8
躯体と製品
  6
Continuous
 62
     3
100
AcDbLine
 10
1210.103885648275
 20
237.0490321790916
 30
0.0
 11
1208.793735648275
 21
237.0490321790916
 31
0.0
  0
ARC
  5
EFE9
330
1E
100
AcDbEntity
  8
躯体と製品
  6
Continuous
 62
     3
100
AcDbCircle
 10
1226.478515648275
 20
253.2739721790917
 30
0.0
 40
24.0
100
AcDbArc
 50
211.13408
 51
222.5348900000007
  0
LINE
  5
EFEA
330
1E
100
AcDbEntity
  8
躯体と製品
  6
Continuous
 62
     3
100
AcDbLine
 10
1210.103885648275
 20
237.0490321790916
 30
0.0
 11
1210.103885648275
 21
234.5490321790916
 31
0.0
  0
ARC
  5
EFEB
330
1E
100
AcDbEntity
  8
躯体と製品
  6
Continuous
 62
     3
100
AcDbCircle
 10
1209.603885648275
 20
234.5490321790916
 30
0.0
 40
0.5
100
AcDbArc
 50
270.0
 51
0.0
  0
ARC
  5
EFEC
330
1E
100
AcDbEntity
  8
躯体と製品
  6
Continuous
 62
     3
100
AcDbCircle
 10
1205.606635648275
 20
248.0490321790916
 30
0.0
 40
1.0
100
AcDbArc
 50
90.0
 51
172.1625200000004
  0
LINE
  5
EFED
330
1E
100
AcDbEntity
  8
躯体と製品
  6
Continuous
 62
     7
100
AcDbLine
 10
1213.003885648275
 20
247.7990321790916
 30
0.0
 11
1213.003885648275
 21
242.5490321790916
 31
0.0
  0
ARC
  5
EFEE
330
1E
100
AcDbEntity
  8
躯体と製品
  6
Continuous
 62
     7
100
AcDbCircle
 10
1211.753885648275
 20
247.7990321790916
 30
0.0
 40
1.25
100
AcDbArc
 50
0.0
 51
180.0
  0
ARC
  5
EFEF
330
1E
100
AcDbEntity
  8
躯体と製品
  6
Continuous
 62
     3
100
AcDbCircle
 10
1207.660945648275
 20
253.0490321790916
 30
0.0
 40
1.0
100
AcDbArc
 50
144.900550000001
 51
270.0
  0
LINE
  5
EFF0
330
1E
100
AcDbEntity
  8
躯体と製品
  6
Continuous
 62
     7
100
AcDbLine
 10
1226.003885648275
 20
242.5490321790916
 30
0.0
 11
1227.003885648275
 21
242.5490321790916
 31
0.0
  0
LINE
  5
EFF1
330
1E
100
AcDbEntity
  8
躯体と製品
  6
Continuous
 62
     7
100
AcDbLine
 10
1225.503885648275
 20
242.0490321790916
 30
0.0
 11
1226.003885648275
 21
242.5490321790916
 31
0.0
  0
LINE
  5
EFF2
330
1E
100
AcDbEntity
  8
躯体と製品
  6
Continuous
 62
     7
100
AcDbLine
 10
1225.003885648275
 20
242.5490321790916
 30
0.0
 11
1225.503885648275
 21
242.0490321790916
 31
0.0
  0
LINE
  5
EFF3
330
1E
100
AcDbEntity
  8
躯体と製品
  6
Continuous
 62
     3
100
AcDbLine
 10
1231.503885648275
 20
249.0490321790916
 30
0.0
 11
1233.003885648275
 21
250.5490321790916
 31
0.0
  0
LINE
  5
EFF4
330
1E
100
AcDbEntity
  8
躯体と製品
  6
Continuous
 62
     7
100
AcDbLine
 10
1230.503885648275
 20
242.5490321790916
 30
0.0
 11
1236.003885648275
 21
242.5490321790916
 31
0.0
  0
LINE
  5
EFF5
330
1E
100
AcDbEntity
  8
躯体と製品
  6
Continuous
 62
     7
100
AcDbLine
 10
1228.003885648275
 20
242.5490321790916
 30
0.0
 11
1229.503885648275
 21
242.5490321790916
 31
0.0
  0
LINE
  5
EFF6
330
1E
100
AcDbEntity
  8
躯体と製品
  6
Continuous
 62
     7
100
AcDbLine
 10
1227.503885648275
 20
242.0490321790916
 30
0.0
 11
1228.003885648275
 21
242.5490321790916
 31
0.0
  0
LINE
  5
EFF7
330
1E
100
AcDbEntity
  8
躯体と製品
  6
Continuous
 62
     7
100
AcDbLine
 10
1227.003885648275
 20
242.5490321790916
 30
0.0
 11
1227.503885648275
 21
242.0490321790916
 31
0.0
  0
LINE
  5
EFF8
330
1E
100
AcDbEntity
  8
躯体と製品
  6
Continuous
 62
     7
100
AcDbLine
 10
1230.003885648275
 20
242.0490321790916
 30
0.0
 11
1230.503885648275
 21
242.5490321790916
 31
0.0
  0
LINE
  5
EFF9
330
1E
100
AcDbEntity
  8
躯体と製品
  6
Continuous
 62
     7
100
AcDbLine
 10
1229.503885648275
 20
242.5490321790916
 30
0.0
 11
1230.003885648275
 21
242.0490321790916
 31
0.0
  0
LINE
  5
EFFA
330
1E
100
AcDbEntity
  8
躯体と製品
  6
Continuous
 62
     7
100
AcDbLine
 10
1236.503885648275
 20
242.0490321790916
 30
0.0
 11
1237.003885648275
 21
242.5490321790916
 31
0.0
  0
LINE
  5
EFFB
330
1E
100
AcDbEntity
  8
躯体と製品
  6
Continuous
 62
     7
100
AcDbLine
 10
1236.003885648275
 20
242.5490321790916
 30
0.0
 11
1236.503885648275
 21
242.0490321790916
 31
0.0
  0
LINE
  5
EFFC
330
1E
100
AcDbEntity
  8
躯体と製品
  6
Continuous
 62
     3
100
AcDbLine
 10
1230.968355648275
 20
252.0490321790916
 30
0.0
 11
1231.968355648275
 21
253.0490321790916
 31
0.0
  0
TEXT
  5
EFFD
330
1E
100
AcDbEntity
  8
図面枠
 62
     7
100
AcDbText
 10
1272.125024750645
 20
151.1647868421104
 30
0.0
 40
3.0
  1
60D-B1
 41
0.8
  7
ACAD
100
AcDbText
  0
TEXT
  5
EFFE
330
1E
100
AcDbEntity
  8
図面枠
 62
     7
100
AcDbText
 10
1271.798490554659
 20
158.6059147550085
 30
0.0
 40
3.0
  1
図　　番
 41
0.8
  7
ACAD
100
AcDbText
  0
TEXT
  5
EFFF
330
1E
100
AcDbEntity
  8
図面枠
 62
     7
100
AcDbText
 10
1257.48475055466
 20
158.5086927550085
 30
0.0
 40
3.0
  1
担　当
 41
0.8
  7
ACAD
100
AcDbText
  0
TEXT
  5
F000
330
1E
100
AcDbEntity
  8
図面枠
 62
     7
100
AcDbText
 10
1247.102600554659
 20
158.4116637550085
 30
0.0
 40
3.0
  1
製　図
 41
0.8
  7
ACAD
100
AcDbText
  0
LINE
  5
F001
330
1E
100
AcDbEntity
  8
図面枠
  6
Continuous
 62
     7
100
AcDbLine
 10
1245.350240554659
 20
162.2438527550085
 30
0.0
 11
1245.350240554659
 21
148.8374537550085
 31
0.0
  0
LINE
  5
F002
330
1E
100
AcDbEntity
  8
図面枠
  6
Continuous
 62
     7
100
AcDbLine
 10
1255.93424055466
 20
162.2438527550085
 30
0.0
 11
1255.93424055466
 21
148.8374537550085
 31
0.0
  0
LINE
  5
F003
330
1E
100
AcDbEntity
  8
図面枠
  6
Continuous
 62
     7
100
AcDbLine
 10
1266.51824055466
 20
162.2438527550085
 30
0.0
 11
1266.51824055466
 21
148.8374537550085
 31
0.0
  0
LINE
  5
F004
330
1E
100
AcDbEntity
  8
文字-記号
  6
Continuous
 62
     4
100
AcDbLine
 10
1245.538583175339
 20
209.604579804785
 30
0.0
 11
1245.538583175339
 21
206.3535156530075
 31
0.0
  0
ARC
  5
F005
330
1E
100
AcDbEntity
  8
躯体と製品
  6
Continuous
 62
     7
100
AcDbCircle
 10
1261.253885648275
 20
247.7990321790916
 30
0.0
 40
1.25
100
AcDbArc
 50
0.0
 51
180.0
  0
LINE
  5
F006
330
1E
100
AcDbEntity
  8
躯体と製品
  6
Continuous
 62
     3
100
AcDbLine
 10
1241.503885648275
 20
249.0490321790916
 30
0.0
 11
1267.401135648275
 21
249.0490321790916
 31
0.0
  0
LINE
  5
F007
330
1E
100
AcDbEntity
  8
躯体と製品
  6
Continuous
 62
     3
100
AcDbLine
 10
1242.039425648275
 20
252.0490321790916
 30
0.0
 11
1265.346835648275
 21
252.0490321790916
 31
0.0
  0
LINE
  5
F008
330
1E
100
AcDbEntity
  8
躯体と製品
  6
Continuous
 62
     7
100
AcDbLine
 10
1260.003885648275
 20
242.5490321790916
 30
0.0
 11
1248.003885648275
 21
242.5490321790916
 31
0.0
  0
LINE
  5
F009
330
1E
100
AcDbEntity
  8
躯体と製品
  6
Continuous
 62
     3
100
AcDbLine
 10
1241.503885648275
 20
249.0490321790916
 30
0.0
 11
1240.003885648275
 21
250.5490321790916
 31
0.0
  0
LINE
  5
F00A
330
1E
100
AcDbEntity
  8
躯体と製品
  6
Continuous
 62
     7
100
AcDbLine
 10
1245.003885648275
 20
242.5490321790916
 30
0.0
 11
1243.503885648275
 21
242.5490321790916
 31
0.0
  0
LINE
  5
F00B
330
1E
100
AcDbEntity
  8
躯体と製品
  6
Continuous
 62
     7
100
AcDbLine
 10
1243.003885648275
 20
242.0490321790916
 30
0.0
 11
1242.503885648275
 21
242.5490321790916
 31
0.0
  0
LINE
  5
F00C
330
1E
100
AcDbEntity
  8
躯体と製品
  6
Continuous
 62
     7
100
AcDbLine
 10
1243.503885648275
 20
242.5490321790916
 30
0.0
 11
1243.003885648275
 21
242.0490321790916
 31
0.0
  0
LINE
  5
F00D
330
1E
100
AcDbEntity
  8
躯体と製品
  6
Continuous
 62
     7
100
AcDbLine
 10
1247.003885648275
 20
242.5490321790916
 30
0.0
 11
1246.003885648275
 21
242.5490321790916
 31
0.0
  0
LINE
  5
F00E
330
1E
100
AcDbEntity
  8
躯体と製品
  6
Continuous
 62
     7
100
AcDbLine
 10
1245.503885648275
 20
242.0490321790916
 30
0.0
 11
1245.003885648275
 21
242.5490321790916
 31
0.0
  0
LINE
  5
F00F
330
1E
100
AcDbEntity
  8
躯体と製品
  6
Continuous
 62
     7
100
AcDbLine
 10
1246.003885648275
 20
242.5490321790916
 30
0.0
 11
1245.503885648275
 21
242.0490321790916
 31
0.0
  0
LINE
  5
F010
330
1E
100
AcDbEntity
  8
躯体と製品
  6
Continuous
 62
     7
100
AcDbLine
 10
1247.503885648275
 20
242.0490321790916
 30
0.0
 11
1247.003885648275
 21
242.5490321790916
 31
0.0
  0
LINE
  5
F011
330
1E
100
AcDbEntity
  8
躯体と製品
  6
Continuous
 62
     7
100
AcDbLine
 10
1248.003885648275
 20
242.5490321790916
 30
0.0
 11
1247.503885648275
 21
242.0490321790916
 31
0.0
  0
LINE
  5
F012
330
1E
100
AcDbEntity
  8
躯体と製品
  6
Continuous
 62
     3
100
AcDbLine
 10
1242.039425648275
 20
252.0490321790916
 30
0.0
 11
1241.039425648275
 21
253.0490321790916
 31
0.0
  0
LINE
  5
F013
330
1E
100
AcDbEntity
  8
躯体と製品
  6
Continuous
 62
     7
100
AcDbLine
 10
1260.003885648275
 20
247.7990321790916
 30
0.0
 11
1260.003885648275
 21
242.5490321790916
 31
0.0
  0
LINE
  5
F014
330
1E
100
AcDbEntity
  8
躯体と製品
  6
Continuous
 62
     7
100
AcDbLine
 10
1262.503885648275
 20
247.7990321790916
 30
0.0
 11
1262.503885648275
 21
240.0490321790916
 31
0.0
  0
ARC
  5
F015
330
1E
100
AcDbEntity
  8
躯体と製品
  6
Continuous
 62
     3
100
AcDbCircle
 10
1256.503885648275
 20
246.5490321790916
 30
0.0
 40
12.0
100
AcDbArc
 50
331.7269599999998
 51
7.837479700000026
  0
ARC
  5
F016
330
1E
100
AcDbEntity
  8
躯体と製品
  6
Continuous
 62
     3
100
AcDbCircle
 10
1256.503885648275
 20
246.5490321790916
 30
0.0
 40
15.0
100
AcDbArc
 50
331.4332700000001
 51
28.56671999999949
  0
ARC
  5
F018
330
1E
100
AcDbEntity
  8
躯体と製品
  6
Continuous
 62
     3
100
AcDbCircle
 10
1246.529255648275
 20
253.2739721790917
 30
0.0
 40
27.0
100
AcDbArc
 50
314.5992900000022
 51
329.0206999999994
  0
ARC
  5
F019
330
1E
100
AcDbEntity
  8
躯体と製品
  6
Continuous
 62
     3
100
AcDbCircle
 10
1246.529255648275
 20
253.2739721790917
 30
0.0
 40
24.0
100
AcDbArc
 50
317.4651000000007
 51
328.8659099999994
  0
LINE
  5
F01A
330
1E
100
AcDbEntity
  8
躯体と製品
  6
Continuous
 62
     3
100
AcDbLine
 10
1263.403885648275
 20
234.0490321790916
 30
0.0
 11
1265.487155648275
 21
234.0490321790916
 31
0.0
  0
LINE
  5
F01B
330
1E
100
AcDbEntity
  8
躯体と製品
  6
Continuous
 62
     3
100
AcDbLine
 10
1262.903885648275
 20
237.0490321790916
 30
0.0
 11
1264.214035648275
 21
237.0490321790916
 31
0.0
  0
LINE
  5
F01C
330
1E
100
AcDbEntity
  8
躯体と製品
  6
Continuous
 62
     3
100
AcDbLine
 10
1262.903885648275
 20
237.0490321790916
 30
0.0
 11
1262.903885648275
 21
234.5490321790916
 31
0.0
  0
ARC
  5
F01D
330
1E
100
AcDbEntity
  8
躯体と製品
  6
Continuous
 62
     3
100
AcDbCircle
 10
1263.403885648275
 20
234.5490321790916
 30
0.0
 40
0.5
100
AcDbArc
 50
180.0
 51
270.0
  0
ARC
  5
F020
330
1E
100
AcDbEntity
  8
躯体と製品
  6
Continuous
 62
     3
100
AcDbCircle
 10
1267.401135648275
 20
248.0490321790916
 30
0.0
 40
1.0
100
AcDbArc
 50
7.837479700000026
 51
90.0
  0
ARC
  5
F021
330
1E
100
AcDbEntity
  8
躯体と製品
  6
Continuous
 62
     3
100
AcDbCircle
 10
1265.346835648275
 20
253.0490321790916
 30
0.0
 40
1.0
100
AcDbArc
 50
270.0
 51
35.09944000000006
  0
ARC
  5
F023
330
1E
100
AcDbEntity
  8
躯体と製品
  6
Continuous
 62
     3
100
AcDbCircle
 10
1236.503885648275
 20
219.0490321790916
 30
0.0
 40
50.0
100
AcDbArc
 50
61.0192569999989
 51
118.9807400000004
  0
ARC
  5
F024
330
1E
100
AcDbEntity
  8
躯体と製品
  6
Continuous
 62
     3
100
AcDbCircle
 10
1236.503885648275
 20
219.0490321790916
 30
0.0
 40
47.0
100
AcDbArc
 50
61.10829800000282
 51
118.8917000000003
  0
ARC
  5
F027
330
1E
100
AcDbEntity
  8
躯体と製品
  6
Continuous
 62
     3
100
AcDbCircle
 10
1140.701888391104
 20
218.3157346688904
 30
0.0
 40
48.79999999999999
100
AcDbArc
 50
65.50644999999997
 51
83.44011130808288
  0
DIMENSION
  5
F033
330
1E
100
AcDbEntity
  8
寸法
  6
Continuous
100
AcDbDimension
  2
*D4
 10
1078.501233977461
 20
275.8646315096605
 30
0.0
 11
1043.501237954925
 21
278.3646315096605
 31
0.0
 70
    32
 71
     5
 42
69.99999204506991
  3
111
100
AcDbAlignedDimension
 13
1008.501241932391
 23
248.3271474766309
 33
0.0
 14
1078.501233977461
 24
248.3271474766309
 34
0.0
100
AcDbRotatedDimension
  0
DIMENSION
  5
F040
330
1E
100
AcDbEntity
  8
寸法
  6
Continuous
100
AcDbDimension
  2
*D5
 10
1090.766889128564
 20
233.1108876688459
 30
0.0
 11
1088.266889128564
 21
250.2035640448772
 31
0.0
 70
    32
  1
35
 71
     5
 42
34.18535275206215
  3
111
100
AcDbAlignedDimension
 13
1046.501237954925
 23
267.2962404209081
 33
0.0
 14
1075.833852053664
 24
233.110887668846
 34
0.0
 50
90.0
100
AcDbRotatedDimension
  0
DIMENSION
  5
F056
330
1E
100
AcDbEntity
  8
寸法
  6
Continuous
100
AcDbDimension
  2
*D6
 10
1174.62675247746
 20
275.8646315096605
 30
0.0
 11
1139.626756454926
 21
278.3646315096605
 31
0.0
 70
    32
 71
     5
 42
69.9999920450698
  3
111
100
AcDbAlignedDimension
 13
1104.626760432391
 23
249.3271474766308
 33
0.0
 14
1174.62675247746
 24
249.3271474766308
 34
0.0
100
AcDbRotatedDimension
  0
DIMENSION
  5
F063
330
1E
100
AcDbEntity
  8
寸法
  6
Continuous
100
AcDbDimension
  2
*D7
 10
1186.892407628564
 20
234.1108876688459
 30
0.0
 11
1184.392407628564
 21
251.2035640448771
 31
0.0
 70
    32
  1
35
 71
     5
 42
34.18535275206213
  3
111
100
AcDbAlignedDimension
 13
1142.626756454925
 23
268.2962404209081
 33
0.0
 14
1171.959370553665
 24
234.1108876688459
 34
0.0
 50
90.0
100
AcDbRotatedDimension
  0
DIMENSION
  5
F070
330
1E
100
AcDbEntity
  8
寸法
  6
Continuous
100
AcDbDimension
  2
*D8
 10
1271.503885648275
 20
275.8646315096605
 30
0.0
 11
1236.503885648275
 21
278.3646315096605
 31
0.0
 70
    32
 71
     5
 42
70.0
  3
111
100
AcDbAlignedDimension
 13
1201.503885648275
 23
251.4778221790916
 33
0.0
 14
1271.503885648275
 24
251.4778221790916
 34
0.0
100
AcDbRotatedDimension
  0
DIMENSION
  5
F07D
330
1E
100
AcDbEntity
  8
寸法
  6
Continuous
100
AcDbDimension
  2
*D9
 10
1281.503885648275
 20
234.0490321790916
 30
0.0
 11
1279.003885648275
 21
251.5490321790918
 31
0.0
 70
    32
 71
     5
 42
35.00000000000005
  3
111
100
AcDbAlignedDimension
 13
1247.123955648275
 23
269.0490321790917
 33
0.0
 14
1267.092985648275
 24
234.0490321790916
 34
0.0
 50
90.0
100
AcDbRotatedDimension
  0
ENDSEC
  0
SECTION
  2
OBJECTS
  0
DICTIONARY
  5
C
330
0
100
AcDbDictionary
281
     1
  3
ACAD_GROUP
350
D
  3
ACAD_LAYOUT
350
19
  3
ACAD_MLINESTYLE
350
16
  3
ACAD_PLOTSETTINGS
350
18
  3
ACAD_PLOTSTYLENAME
350
E
  3
AcDbVariableDictionary
350
169
  0
DICTIONARY
  5
175
330
2
100
AcDbDictionary
280
     1
281
     1
  3
ACAD_LAYERFILTERS
360
185
  3
ACAD_LAYERSTATES
360
176
  0
DICTIONARY
  5
28B
330
1E
100
AcDbDictionary
280
     1
281
     1
  0
DICTIONARY
  5
28D
330
1A
100
AcDbDictionary
280
     1
281
     1
  0
DICTIONARY
  5
D
102
{ACAD_REACTORS
330
C
102
}
330
C
100
AcDbDictionary
281
     1
  0
DICTIONARY
  5
19
102
{ACAD_REACTORS
330
C
102
}
330
C
100
AcDbDictionary
281
     1
  3
Model
350
21
  3
ﾚｲｱｳﾄ1
350
1D
  0
DICTIONARY
  5
16
102
{ACAD_REACTORS
330
C
102
}
330
C
100
AcDbDictionary
281
     1
  3
Standard
350
17
  0
DICTIONARY
  5
18
102
{ACAD_REACTORS
330
C
102
}
330
C
100
AcDbDictionary
281
     1
  0
ACDBDICTIONARYWDFLT
  5
E
102
{ACAD_REACTORS
330
C
102
}
330
C
100
AcDbDictionary
281
     1
  3
Normal
350
F
100
AcDbDictionaryWithDefault
340
F
1001
ACAD
1000
TREAT_AS_HARD
1070
     0
1000
TREAT_AS_HARD
1070
     0
1000
TREAT_AS_HARD
1070
     0
1000
TREAT_AS_HARD
1070
     0
1000
TREAT_AS_HARD
1070
     0
1000
TREAT_AS_HARD
1070
     0
1000
TREAT_AS_HARD
1070
     0
1000
TREAT_AS_HARD
1070
     0
1000
TREAT_AS_HARD
1070
     0
1000
TREAT_AS_HARD
1070
     0
1000
TREAT_AS_HARD
1070
     0
1000
TREAT_AS_HARD
1070
     0
1000
TREAT_AS_HARD
1070
     0
1000
TREAT_AS_HARD
1070
     0
1000
TREAT_AS_HARD
1070
     0
1000
TREAT_AS_HARD
1070
     0
1000
TREAT_AS_HARD
1070
     0
1000
TREAT_AS_HARD
1070
     0
1000
TREAT_AS_HARD
1070
     0
1000
TREAT_AS_HARD
1070
     0
1000
TREAT_AS_HARD
1070
     0
1000
TREAT_AS_HARD
1070
     0
1000
TREAT_AS_HARD
1070
     0
1000
TREAT_AS_HARD
1070
     0
1000
TREAT_AS_HARD
1070
     0
1000
TREAT_AS_HARD
1070
     0
1000
TREAT_AS_HARD
1070
     0
1000
TREAT_AS_HARD
1070
     0
1000
TREAT_AS_HARD
1070
     0
1000
TREAT_AS_HARD
1070
     0
1000
TREAT_AS_HARD
1070
     0
1000
TREAT_AS_HARD
1070
     0
1000
TREAT_AS_HARD
1070
     0
1000
TREAT_AS_HARD
1070
     0
1000
TREAT_AS_HARD
1070
     0
1000
TREAT_AS_HARD
1070
     0
1000
TREAT_AS_HARD
1070
     0
1000
TREAT_AS_HARD
1070
     0
1000
TREAT_AS_HARD
1070
     0
  0
DICTIONARY
  5
169
102
{ACAD_REACTORS
330
C
102
}
330
C
100
AcDbDictionary
281
     1
  3
DIMASSOC
350
16A
  0
DICTIONARY
  5
185
102
{ACAD_REACTORS
330
175
102
}
330
175
100
AcDbDictionary
280
     1
281
     1
  0
DICTIONARY
  5
176
102
{ACAD_REACTORS
330
175
102
}
330
175
100
AcDbDictionary
281
     1
  3
ACAD
350
177
  0
LAYOUT
  5
21
102
{ACAD_REACTORS
330
19
102
}
330
19
100
AcDbPlotSettings
  1

  2
\\MEISEI-1\EPSON Stylus Photo EX3
  4

  6

 40
0.0
 41
0.0
 42
0.0
 43
0.0
 44
0.0
 45
0.0
 46
0.0
 47
0.0
 48
0.0
 49
0.0
140
0.0
141
0.0
142
1.0
143
1.0
 70
  1712
 72
     0
 73
     0
 74
     0
  7

 75
     0
147
1.0
148
0.0
149
0.0
100
AcDbLayout
  1
Model
 70
     1
 71
     0
 10
0.0
 20
0.0
 11
12.0
 21
9.0
 12
0.0
 22
0.0
 32
0.0
 14
0.0
 24
0.0
 34
0.0
 15
0.0
 25
0.0
 35
0.0
146
0.0
 13
0.0
 23
0.0
 33
0.0
 16
1.0
 26
0.0
 36
0.0
 17
0.0
 27
1.0
 37
0.0
 76
     0
330
1E
  0
LAYOUT
  5
1D
102
{ACAD_REACTORS
330
19
102
}
330
19
100
AcDbPlotSettings
  1

  2
\\MEISEI-1\EPSON Stylus Photo EX3
  4

  6

 40
0.0
 41
0.0
 42
0.0
 43
0.0
 44
0.0
 45
0.0
 46
0.0
 47
0.0
 48
0.0
 49
0.0
140
0.0
141
0.0
142
1.0
143
1.0
 70
   688
 72
     0
 73
     0
 74
     5
  7

 75
    16
147
1.0
148
0.0
149
0.0
100
AcDbLayout
  1
ﾚｲｱｳﾄ1
 70
     1
 71
     1
 10
0.0
 20
0.0
 11
12.0
 21
9.0
 12
0.0
 22
0.0
 32
0.0
 14
1.000000000000000E+20
 24
1.000000000000000E+20
 34
1.000000000000000E+20
 15
-1.000000000000000E+20
 25
-1.000000000000000E+20
 35
-1.000000000000000E+20
146
0.0
 13
0.0
 23
0.0
 33
0.0
 16
1.0
 26
0.0
 36
0.0
 17
0.0
 27
1.0
 37
0.0
 76
     0
330
1A
  0
MLINESTYLE
  5
17
102
{ACAD_REACTORS
330
16
102
}
330
16
100
AcDbMlineStyle
  2
STANDARD
 70
     0
  3

 62
   256
 51
90.0
 52
90.0
 71
     2
 49
0.5
 62
   256
  6
BYLAYER
 49
-0.5
 62
   256
  6
BYLAYER
  0
ACDBPLACEHOLDER
  5
F
102
{ACAD_REACTORS
330
E
102
}
330
E
  0
DICTIONARYVAR
  5
16A
102
{ACAD_REACTORS
330
169
102
}
330
169
100
DictionaryVariables
280
     0
  1
1
  0
XRECORD
  5
177
102
{ACAD_REACTORS
330
176
102
}
330
176
100
AcDbXrecord
280
     1
 91
      476
330
179
 90
        8
 62
     7
370
    -3
331
15
  1
Color_7
330
178
 90
        8
 62
     7
370
    -3
331
15
  1
Color_7
330
128
 90
        0
 62
     7
370
    -3
331
15
  1
Color_7
330
10
 90
        8
 62
     7
370
    -3
331
15
  1
Color_7
  0
ENDSEC
  0
EOF
