  0
SECTION
  2
HEADER
  9
$ACADVER
  1
AC1015
  9
$ACADMAINTVER
 70
    13
  9
$DWGCODEPAGE
  3
ANSI_932
  9
$INSBASE
 10
0.0
 20
0.0
 30
0.0
  9
$EXTMIN
 10
3342.528386343538
 20
399.2022908918388
 30
-0.0000000349181948
  9
$EXTMAX
 10
4266.650273419127
 20
1151.638330627695
 30
0.0000000814935746
  9
$LIMMIN
 10
0.0
 20
0.0
  9
$LIMMAX
 10
420.0
 20
297.0
  9
$ORTHOMODE
 70
     0
  9
$REGENMODE
 70
     1
  9
$FILLMODE
 70
     1
  9
$QTEXTMODE
 70
     0
  9
$MIRRTEXT
 70
     1
  9
$LTSCALE
 40
1.0
  9
$ATTMODE
 70
     1
  9
$TEXTSIZE
 40
5.0
  9
$TRACEWID
 40
0.05
  9
$TEXTSTYLE
  7
ACAD
  9
$CLAYER
  8
0
  9
$CELTYPE
  6
CONTINUOUS
  9
$CECOLOR
 62
   256
  9
$CELTSCALE
 40
1.0
  9
$DISPSILH
 70
     0
  9
$DIMSCALE
 40
1.0
  9
$DIMASZ
 40
1.0
  9
$DIMEXO
 40
0.0
  9
$DIMDLI
 40
0.38
  9
$DIMRND
 40
0.0
  9
$DIMDLE
 40
0.0
  9
$DIMEXE
 40
0.0
  9
$DIMTP
 40
0.0
  9
$DIMTM
 40
0.0
  9
$DIMTXT
 40
5.0
  9
$DIMCEN
 40
0.09
  9
$DIMTSZ
 40
0.0
  9
$DIMTOL
 70
     0
  9
$DIMLIM
 70
     0
  9
$DIMTIH
 70
     0
  9
$DIMTOH
 70
     1
  9
$DIMSE1
 70
     0
  9
$DIMSE2
 70
     0
  9
$DIMTAD
 70
     1
  9
$DIMZIN
 70
     0
  9
$DIMBLK
  1
Dot
  9
$DIMASO
 70
     1
  9
$DIMSHO
 70
     1
  9
$DIMPOST
  1

  9
$DIMAPOST
  1

  9
$DIMALT
 70
     0
  9
$DIMALTD
 70
     2
  9
$DIMALTF
 40
25.4
  9
$DIMLFAC
 40
1.0
  9
$DIMTOFL
 70
     0
  9
$DIMTVP
 40
0.0
  9
$DIMTIX
 70
     1
  9
$DIMSOXD
 70
     0
  9
$DIMSAH
 70
     0
  9
$DIMBLK1
  1

  9
$DIMBLK2
  1

  9
$DIMSTYLE
  2
AutoCAD
  9
$DIMCLRD
 70
     4
  9
$DIMCLRE
 70
     4
  9
$DIMCLRT
 70
     3
  9
$DIMTFAC
 40
1.0
  9
$DIMGAP
 40
1.0
  9
$DIMJUST
 70
     0
  9
$DIMSD1
 70
     0
  9
$DIMSD2
 70
     0
  9
$DIMTOLJ
 70
     1
  9
$DIMTZIN
 70
     0
  9
$DIMALTZ
 70
     0
  9
$DIMALTTZ
 70
     0
  9
$DIMUPT
 70
     0
  9
$DIMDEC
 70
     0
  9
$DIMTDEC
 70
     0
  9
$DIMALTU
 70
     2
  9
$DIMALTTD
 70
     2
  9
$DIMTXSTY
  7
ACAD
  9
$DIMAUNIT
 70
     0
  9
$DIMADEC
 70
     0
  9
$DIMALTRND
 40
0.0
  9
$DIMAZIN
 70
     0
  9
$DIMDSEP
 70
    46
  9
$DIMATFIT
 70
     0
  9
$DIMFRAC
 70
     0
  9
$DIMLDRBLK
  1
None
  9
$DIMLUNIT
 70
     2
  9
$DIMLWD
 70
    -2
  9
$DIMLWE
 70
    -2
  9
$DIMTMOVE
 70
     0
  9
$LUNITS
 70
     2
  9
$LUPREC
 70
     4
  9
$SKETCHINC
 40
0.1
  9
$FILLETRAD
 40
0.0
  9
$AUNITS
 70
     0
  9
$AUPREC
 70
     0
  9
$MENU
  1
.
  9
$ELEVATION
 40
0.0
  9
$PELEVATION
 40
0.0
  9
$THICKNESS
 40
0.0
  9
$LIMCHECK
 70
     0
  9
$CHAMFERA
 40
0.0
  9
$CHAMFERB
 40
0.0
  9
$CHAMFERC
 40
0.0
  9
$CHAMFERD
 40
0.0
  9
$SKPOLY
 70
     0
  9
$TDCREATE
 40
2454316.693457673
  9
$TDUCREATE
 40
2454316.318457673
  9
$TDUPDATE
 40
2454447.720930798
  9
$TDUUPDATE
 40
2454447.345930798
  9
$TDINDWG
 40
0.2229084722
  9
$TDUSRTIMER
 40
0.2229084722
  9
$USRTIMER
 70
     1
  9
$ANGBASE
 50
0.0
  9
$ANGDIR
 70
     0
  9
$PDMODE
 70
     0
  9
$PDSIZE
 40
0.0
  9
$PLINEWID
 40
0.0
  9
$SPLFRAME
 70
     0
  9
$SPLINETYPE
 70
     6
  9
$SPLINESEGS
 70
     8
  9
$HANDSEED
  5
6238
  9
$SURFTAB1
 70
     6
  9
$SURFTAB2
 70
     6
  9
$SURFTYPE
 70
     6
  9
$SURFU
 70
     6
  9
$SURFV
 70
     6
  9
$UCSBASE
  2

  9
$UCSNAME
  2

  9
$UCSORG
 10
0.0
 20
0.0
 30
0.0
  9
$UCSXDIR
 10
1.0
 20
0.0
 30
0.0
  9
$UCSYDIR
 10
0.0
 20
1.0
 30
0.0
  9
$UCSORTHOREF
  2

  9
$UCSORTHOVIEW
 70
     0
  9
$UCSORGTOP
 10
0.0
 20
0.0
 30
0.0
  9
$UCSORGBOTTOM
 10
0.0
 20
0.0
 30
0.0
  9
$UCSORGLEFT
 10
0.0
 20
0.0
 30
0.0
  9
$UCSORGRIGHT
 10
0.0
 20
0.0
 30
0.0
  9
$UCSORGFRONT
 10
0.0
 20
0.0
 30
0.0
  9
$UCSORGBACK
 10
0.0
 20
0.0
 30
0.0
  9
$PUCSBASE
  2

  9
$PUCSNAME
  2

  9
$PUCSORG
 10
0.0
 20
0.0
 30
0.0
  9
$PUCSXDIR
 10
1.0
 20
0.0
 30
0.0
  9
$PUCSYDIR
 10
0.0
 20
1.0
 30
0.0
  9
$PUCSORTHOREF
  2

  9
$PUCSORTHOVIEW
 70
     0
  9
$PUCSORGTOP
 10
0.0
 20
0.0
 30
0.0
  9
$PUCSORGBOTTOM
 10
0.0
 20
0.0
 30
0.0
  9
$PUCSORGLEFT
 10
0.0
 20
0.0
 30
0.0
  9
$PUCSORGRIGHT
 10
0.0
 20
0.0
 30
0.0
  9
$PUCSORGFRONT
 10
0.0
 20
0.0
 30
0.0
  9
$PUCSORGBACK
 10
0.0
 20
0.0
 30
0.0
  9
$USERI1
 70
     0
  9
$USERI2
 70
     0
  9
$USERI3
 70
     0
  9
$USERI4
 70
     0
  9
$USERI5
 70
     0
  9
$USERR1
 40
0.0
  9
$USERR2
 40
0.0
  9
$USERR3
 40
0.0
  9
$USERR4
 40
0.0
  9
$USERR5
 40
0.0
  9
$WORLDVIEW
 70
     1
  9
$SHADEDGE
 70
     3
  9
$SHADEDIF
 70
    70
  9
$TILEMODE
 70
     1
  9
$MAXACTVP
 70
    48
  9
$PINSBASE
 10
0.0
 20
0.0
 30
0.0
  9
$PLIMCHECK
 70
     0
  9
$PEXTMIN
 10
1.000000000000000E+20
 20
1.000000000000000E+20
 30
1.000000000000000E+20
  9
$PEXTMAX
 10
-1.000000000000000E+20
 20
-1.000000000000000E+20
 30
-1.000000000000000E+20
  9
$PLIMMIN
 10
0.0
 20
0.0
  9
$PLIMMAX
 10
12.0
 20
9.0
  9
$UNITMODE
 70
     0
  9
$VISRETAIN
 70
     0
  9
$PLINEGEN
 70
     0
  9
$PSLTSCALE
 70
     1
  9
$TREEDEPTH
 70
  3020
  9
$CMLSTYLE
  2
Standard
  9
$CMLJUST
 70
     0
  9
$CMLSCALE
 40
1.0
  9
$PROXYGRAPHICS
 70
     1
  9
$MEASUREMENT
 70
     0
  9
$CELWEIGHT
370
    -1
  9
$ENDCAPS
280
     0
  9
$JOINSTYLE
280
     0
  9
$LWDISPLAY
290
     0
  9
$INSUNITS
 70
     0
  9
$HYPERLINKBASE
  1

  9
$STYLESHEET
  1

  9
$XEDIT
290
     1
  9
$CEPSNTYPE
380
     0
  9
$PSTYLEMODE
290
     1
  9
$FINGERPRINTGUID
  2
{CC7D6DEE-A9F1-4F3E-AC95-C84B62CCA3FD}
  9
$VERSIONGUID
  2
{82E6E06C-6E96-4675-B2AE-E07CAD33ADB6}
  9
$EXTNAMES
290
     1
  9
$PSVPSCALE
 40
0.0
  9
$OLESTARTUP
290
     0
  0
ENDSEC
  0
SECTION
  2
CLASSES
  0
CLASS
  1
ACDBDICTIONARYWDFLT
  2
AcDbDictionaryWithDefault
  3
AutoCAD 2000
 90
        0
280
     0
281
     0
  0
CLASS
  1
ACDBPLACEHOLDER
  2
AcDbPlaceHolder
  3
AutoCAD 2000
 90
        0
280
     0
281
     0
  0
CLASS
  1
LAYOUT
  2
AcDbLayout
  3
AutoCAD 2000
 90
        0
280
     0
281
     0
  0
CLASS
  1
DICTIONARYVAR
  2
AcDbDictionaryVar
  3
AutoCAD 2000
 90
        0
280
     0
281
     0
  0
CLASS
  1
LONG_TRANSACTION
  2
AcDbLongTransaction
  3
AutoCAD 2000
 90
    32768
280
     0
281
     0
  0
CLASS
  1
LWPOLYLINE
  2
AcDbPolyline
  3
AutoCAD 2000
 90
    32768
280
     0
281
     1
  0
CLASS
  1
HATCH
  2
AcDbHatch
  3
AutoCAD 2000
 90
    32768
280
     0
281
     1
  0
CLASS
  1
XRECORD
  2
AcDbXrecord
  3
AutoCAD 2000
 90
    32768
280
     0
281
     0
  0
CLASS
  1
LONG_TRANSACTION
  2
AcDbLongTransaction
  3
AutoCAD 2000
 90
    32768
280
     0
281
     0
  0
CLASS
  1
LWPOLYLINE
  2
AcDbPolyline
  3
AutoCAD 2000
 90
    32768
280
     0
281
     1
  0
CLASS
  1
HATCH
  2
AcDbHatch
  3
AutoCAD 2000
 90
    32768
280
     0
281
     1
  0
CLASS
  1
XRECORD
  2
AcDbXrecord
  3
AutoCAD 2000
 90
    32768
280
     0
281
     0
  0
CLASS
  1
LONG_TRANSACTION
  2
AcDbLongTransaction
  3
AutoCAD 2000
 90
    32768
280
     0
281
     0
  0
CLASS
  1
LWPOLYLINE
  2
AcDbPolyline
  3
AutoCAD 2000
 90
    32768
280
     0
281
     1
  0
CLASS
  1
HATCH
  2
AcDbHatch
  3
AutoCAD 2000
 90
    32768
280
     0
281
     1
  0
CLASS
  1
XRECORD
  2
AcDbXrecord
  3
AutoCAD 2000
 90
    32768
280
     0
281
     0
  0
CLASS
  1
LONG_TRANSACTION
  2
AcDbLongTransaction
  3
AutoCAD 2000
 90
    32768
280
     0
281
     0
  0
CLASS
  1
LWPOLYLINE
  2
AcDbPolyline
  3
AutoCAD 2000
 90
    32768
280
     0
281
     1
  0
CLASS
  1
HATCH
  2
AcDbHatch
  3
AutoCAD 2000
 90
    32768
280
     0
281
     1
  0
CLASS
  1
XRECORD
  2
AcDbXrecord
  3
AutoCAD 2000
 90
    32768
280
     0
281
     0
  0
CLASS
  1
LONG_TRANSACTION
  2
AcDbLongTransaction
  3
AutoCAD 2000
 90
    32768
280
     0
281
     0
  0
CLASS
  1
LWPOLYLINE
  2
AcDbPolyline
  3
AutoCAD 2000
 90
    32768
280
     0
281
     1
  0
CLASS
  1
HATCH
  2
AcDbHatch
  3
AutoCAD 2000
 90
    32768
280
     0
281
     1
  0
CLASS
  1
XRECORD
  2
AcDbXrecord
  3
AutoCAD 2000
 90
    32768
280
     0
281
     0
  0
CLASS
  1
LONG_TRANSACTION
  2
AcDbLongTransaction
  3
AutoCAD 2000
 90
    32768
280
     0
281
     0
  0
CLASS
  1
LWPOLYLINE
  2
AcDbPolyline
  3
AutoCAD 2000
 90
    32768
280
     0
281
     1
  0
CLASS
  1
HATCH
  2
AcDbHatch
  3
AutoCAD 2000
 90
    32768
280
     0
281
     1
  0
CLASS
  1
XRECORD
  2
AcDbXrecord
  3
AutoCAD 2000
 90
    32768
280
     0
281
     0
  0
CLASS
  1
LONG_TRANSACTION
  2
AcDbLongTransaction
  3
AutoCAD 2000
 90
    32768
280
     0
281
     0
  0
CLASS
  1
LWPOLYLINE
  2
AcDbPolyline
  3
AutoCAD 2000
 90
    32768
280
     0
281
     1
  0
CLASS
  1
HATCH
  2
AcDbHatch
  3
AutoCAD 2000
 90
    32768
280
     0
281
     1
  0
CLASS
  1
XRECORD
  2
AcDbXrecord
  3
AutoCAD 2000
 90
    32768
280
     0
281
     0
  0
CLASS
  1
LONG_TRANSACTION
  2
AcDbLongTransaction
  3
AutoCAD 2000
 90
    32768
280
     0
281
     0
  0
CLASS
  1
LWPOLYLINE
  2
AcDbPolyline
  3
AutoCAD 2000
 90
    32768
280
     0
281
     1
  0
CLASS
  1
HATCH
  2
AcDbHatch
  3
AutoCAD 2000
 90
    32768
280
     0
281
     1
  0
CLASS
  1
XRECORD
  2
AcDbXrecord
  3
AutoCAD 2000
 90
    32768
280
     0
281
     0
  0
CLASS
  1
LONG_TRANSACTION
  2
AcDbLongTransaction
  3
AutoCAD 2000
 90
    32768
280
     0
281
     0
  0
CLASS
  1
LWPOLYLINE
  2
AcDbPolyline
  3
AutoCAD 2000
 90
    32768
280
     0
281
     1
  0
CLASS
  1
HATCH
  2
AcDbHatch
  3
AutoCAD 2000
 90
    32768
280
     0
281
     1
  0
CLASS
  1
XRECORD
  2
AcDbXrecord
  3
AutoCAD 2000
 90
    32768
280
     0
281
     0
  0
CLASS
  1
LONG_TRANSACTION
  2
AcDbLongTransaction
  3
AutoCAD 2000
 90
    32768
280
     0
281
     0
  0
CLASS
  1
LWPOLYLINE
  2
AcDbPolyline
  3
AutoCAD 2000
 90
    32768
280
     0
281
     1
  0
CLASS
  1
HATCH
  2
AcDbHatch
  3
AutoCAD 2000
 90
    32768
280
     0
281
     1
  0
CLASS
  1
XRECORD
  2
AcDbXrecord
  3
AutoCAD 2000
 90
    32768
280
     0
281
     0
  0
CLASS
  1
LONG_TRANSACTION
  2
AcDbLongTransaction
  3
AutoCAD 2000
 90
    32768
280
     0
281
     0
  0
CLASS
  1
LWPOLYLINE
  2
AcDbPolyline
  3
AutoCAD 2000
 90
    32768
280
     0
281
     1
  0
CLASS
  1
HATCH
  2
AcDbHatch
  3
AutoCAD 2000
 90
    32768
280
     0
281
     1
  0
CLASS
  1
XRECORD
  2
AcDbXrecord
  3
AutoCAD 2000
 90
    32768
280
     0
281
     0
  0
CLASS
  1
LONG_TRANSACTION
  2
AcDbLongTransaction
  3
AutoCAD 2000
 90
    32768
280
     0
281
     0
  0
CLASS
  1
LWPOLYLINE
  2
AcDbPolyline
  3
AutoCAD 2000
 90
    32768
280
     0
281
     1
  0
CLASS
  1
HATCH
  2
AcDbHatch
  3
AutoCAD 2000
 90
    32768
280
     0
281
     1
  0
CLASS
  1
XRECORD
  2
AcDbXrecord
  3
AutoCAD 2000
 90
    32768
280
     0
281
     0
  0
CLASS
  1
LONG_TRANSACTION
  2
AcDbLongTransaction
  3
AutoCAD 2000
 90
    32768
280
     0
281
     0
  0
CLASS
  1
LWPOLYLINE
  2
AcDbPolyline
  3
AutoCAD 2000
 90
    32768
280
     0
281
     1
  0
CLASS
  1
HATCH
  2
AcDbHatch
  3
AutoCAD 2000
 90
    32768
280
     0
281
     1
  0
CLASS
  1
XRECORD
  2
AcDbXrecord
  3
AutoCAD 2000
 90
    32768
280
     0
281
     0
  0
CLASS
  1
LONG_TRANSACTION
  2
AcDbLongTransaction
  3
AutoCAD 2000
 90
    32768
280
     0
281
     0
  0
CLASS
  1
LWPOLYLINE
  2
AcDbPolyline
  3
AutoCAD 2000
 90
    32768
280
     0
281
     1
  0
CLASS
  1
HATCH
  2
AcDbHatch
  3
AutoCAD 2000
 90
    32768
280
     0
281
     1
  0
CLASS
  1
XRECORD
  2
AcDbXrecord
  3
AutoCAD 2000
 90
    32768
280
     0
281
     0
  0
CLASS
  1
LONG_TRANSACTION
  2
AcDbLongTransaction
  3
AutoCAD 2000
 90
    32768
280
     0
281
     0
  0
CLASS
  1
LWPOLYLINE
  2
AcDbPolyline
  3
AutoCAD 2000
 90
    32768
280
     0
281
     1
  0
CLASS
  1
HATCH
  2
AcDbHatch
  3
AutoCAD 2000
 90
    32768
280
     0
281
     1
  0
CLASS
  1
XRECORD
  2
AcDbXrecord
  3
AutoCAD 2000
 90
    32768
280
     0
281
     0
  0
CLASS
  1
LONG_TRANSACTION
  2
AcDbLongTransaction
  3
AutoCAD 2000
 90
    32768
280
     0
281
     0
  0
CLASS
  1
LWPOLYLINE
  2
AcDbPolyline
  3
AutoCAD 2000
 90
    32768
280
     0
281
     1
  0
CLASS
  1
HATCH
  2
AcDbHatch
  3
AutoCAD 2000
 90
    32768
280
     0
281
     1
  0
CLASS
  1
XRECORD
  2
AcDbXrecord
  3
AutoCAD 2000
 90
    32768
280
     0
281
     0
  0
CLASS
  1
LONG_TRANSACTION
  2
AcDbLongTransaction
  3
AutoCAD 2000
 90
    32768
280
     0
281
     0
  0
CLASS
  1
LWPOLYLINE
  2
AcDbPolyline
  3
AutoCAD 2000
 90
    32768
280
     0
281
     1
  0
CLASS
  1
HATCH
  2
AcDbHatch
  3
AutoCAD 2000
 90
    32768
280
     0
281
     1
  0
CLASS
  1
XRECORD
  2
AcDbXrecord
  3
AutoCAD 2000
 90
    32768
280
     0
281
     0
  0
CLASS
  1
LONG_TRANSACTION
  2
AcDbLongTransaction
  3
AutoCAD 2000
 90
    32768
280
     0
281
     0
  0
CLASS
  1
LWPOLYLINE
  2
AcDbPolyline
  3
AutoCAD 2000
 90
    32768
280
     0
281
     1
  0
CLASS
  1
HATCH
  2
AcDbHatch
  3
AutoCAD 2000
 90
    32768
280
     0
281
     1
  0
CLASS
  1
XRECORD
  2
AcDbXrecord
  3
AutoCAD 2000
 90
    32768
280
     0
281
     0
  0
CLASS
  1
LONG_TRANSACTION
  2
AcDbLongTransaction
  3
AutoCAD 2000
 90
    32768
280
     0
281
     0
  0
CLASS
  1
LWPOLYLINE
  2
AcDbPolyline
  3
AutoCAD 2000
 90
    32768
280
     0
281
     1
  0
CLASS
  1
HATCH
  2
AcDbHatch
  3
AutoCAD 2000
 90
    32768
280
     0
281
     1
  0
CLASS
  1
XRECORD
  2
AcDbXrecord
  3
AutoCAD 2000
 90
    32768
280
     0
281
     0
  0
CLASS
  1
LONG_TRANSACTION
  2
AcDbLongTransaction
  3
AutoCAD 2000
 90
    32768
280
     0
281
     0
  0
CLASS
  1
LWPOLYLINE
  2
AcDbPolyline
  3
AutoCAD 2000
 90
    32768
280
     0
281
     1
  0
CLASS
  1
HATCH
  2
AcDbHatch
  3
AutoCAD 2000
 90
    32768
280
     0
281
     1
  0
CLASS
  1
XRECORD
  2
AcDbXrecord
  3
AutoCAD 2000
 90
    32768
280
     0
281
     0
  0
CLASS
  1
LONG_TRANSACTION
  2
AcDbLongTransaction
  3
AutoCAD 2000
 90
    32768
280
     0
281
     0
  0
CLASS
  1
LWPOLYLINE
  2
AcDbPolyline
  3
AutoCAD 2000
 90
    32768
280
     0
281
     1
  0
CLASS
  1
HATCH
  2
AcDbHatch
  3
AutoCAD 2000
 90
    32768
280
     0
281
     1
  0
CLASS
  1
XRECORD
  2
AcDbXrecord
  3
AutoCAD 2000
 90
    32768
280
     0
281
     0
  0
CLASS
  1
LONG_TRANSACTION
  2
AcDbLongTransaction
  3
AutoCAD 2000
 90
    32768
280
     0
281
     0
  0
CLASS
  1
LWPOLYLINE
  2
AcDbPolyline
  3
AutoCAD 2000
 90
    32768
280
     0
281
     1
  0
CLASS
  1
HATCH
  2
AcDbHatch
  3
AutoCAD 2000
 90
    32768
280
     0
281
     1
  0
CLASS
  1
XRECORD
  2
AcDbXrecord
  3
AutoCAD 2000
 90
    32768
280
     0
281
     0
  0
CLASS
  1
LONG_TRANSACTION
  2
AcDbLongTransaction
  3
AutoCAD 2000
 90
    32768
280
     0
281
     0
  0
CLASS
  1
LWPOLYLINE
  2
AcDbPolyline
  3
AutoCAD 2000
 90
    32768
280
     0
281
     1
  0
CLASS
  1
HATCH
  2
AcDbHatch
  3
AutoCAD 2000
 90
    32768
280
     0
281
     1
  0
CLASS
  1
XRECORD
  2
AcDbXrecord
  3
AutoCAD 2000
 90
    32768
280
     0
281
     0
  0
ENDSEC
  0
SECTION
  2
TABLES
  0
TABLE
  2
VPORT
  5
8
330
0
100
AcDbSymbolTable
 70
     5
  0
VPORT
  5
6237
330
8
100
AcDbSymbolTableRecord
100
AcDbViewportTableRecord
  2
*Active
 70
     0
 10
0.0
 20
0.0
 11
1.0
 21
1.0
 12
3804.589329881332
 22
775.4203107597673
 13
0.0
 23
0.0
 14
1.0
 24
1.0
 15
0.0
 25
0.0
 16
0.0
 26
0.0
 36
1.0
 17
0.0
 27
0.0
 37
0.0
 40
758.3374988710402
 41
1.578534031413612
 42
50.0
 43
0.0
 44
0.0
 50
0.0
 51
0.0
 71
     0
 72
   100
 73
     1
 74
     1
 75
     0
 76
     0
 77
     0
 78
     0
281
     0
 65
     1
110
0.0
120
0.0
130
0.0
111
1.0
121
0.0
131
0.0
112
0.0
122
1.0
132
0.0
 79
     0
146
0.0
  0
ENDTAB
  0
TABLE
  2
LTYPE
  5
5
330
0
100
AcDbSymbolTable
 70
    50
  0
LTYPE
  5
13
330
5
100
AcDbSymbolTableRecord
100
AcDbLinetypeTableRecord
  2
ByBlock
 70
     0
  3

 72
    65
 73
     0
 40
0.0
  0
LTYPE
  5
14
330
5
100
AcDbSymbolTableRecord
100
AcDbLinetypeTableRecord
  2
ByLayer
 70
     0
  3

 72
    65
 73
     0
 40
0.0
  0
LTYPE
  5
15
330
5
100
AcDbSymbolTableRecord
100
AcDbLinetypeTableRecord
  2
CONTINUOUS
 70
     0
  3
実線
 72
    65
 73
     0
 40
0.0
  0
LTYPE
  5
22
330
5
100
AcDbSymbolTableRecord
100
AcDbLinetypeTableRecord
  2
DASHED1
 70
     0
  3
--  --  --  --  --  --  --  --  
 72
    65
 73
     2
 40
2.5
 49
1.25
 74
     0
 49
-1.25
 74
     0
  0
LTYPE
  5
23
330
5
100
AcDbSymbolTableRecord
100
AcDbLinetypeTableRecord
  2
DASHED2
 70
     0
  3
----    ----    ----    ----    
 72
    65
 73
     2
 40
5.0
 49
2.5
 74
     0
 49
-2.5
 74
     0
  0
LTYPE
  5
24
330
5
100
AcDbSymbolTableRecord
100
AcDbLinetypeTableRecord
  2
DASHED3
 70
     0
  3
------  ------  ------  ------  
 72
    65
 73
     2
 40
5.0
 49
3.75
 74
     0
 49
-1.25
 74
     0
  0
LTYPE
  5
25
330
5
100
AcDbSymbolTableRecord
100
AcDbLinetypeTableRecord
  2
CENTER1
 70
     0
  3
----- - ----- - ----- - ----- - 
 72
    65
 73
     4
 40
10.0
 49
6.25
 74
     0
 49
-1.25
 74
     0
 49
1.25
 74
     0
 49
-1.25
 74
     0
  0
LTYPE
  5
26
330
5
100
AcDbSymbolTableRecord
100
AcDbLinetypeTableRecord
  2
CENTER2
 70
     0
  3
----------  --  ----------  --  
 72
    65
 73
     4
 40
20.0
 49
12.5
 74
     0
 49
-2.5
 74
     0
 49
2.5
 74
     0
 49
-2.5
 74
     0
  0
LTYPE
  5
27
330
5
100
AcDbSymbolTableRecord
100
AcDbLinetypeTableRecord
  2
PHANTOM1
 70
     0
  3
--- - - --- - - --- - - --- - - 
 72
    65
 73
     6
 40
10.0
 49
3.25
 74
     0
 49
-1.25
 74
     0
 49
1.25
 74
     0
 49
-1.25
 74
     0
 49
1.25
 74
     0
 49
-1.25
 74
     0
  0
LTYPE
  5
28
330
5
100
AcDbSymbolTableRecord
100
AcDbLinetypeTableRecord
  2
PHANTOM2
 70
     0
  3
--------  -  -  --------  -  -  
 72
    65
 73
     6
 40
20.0
 49
10.0
 74
     0
 49
-2.5
 74
     0
 49
1.25
 74
     0
 49
-2.5
 74
     0
 49
1.25
 74
     0
 49
-2.5
 74
     0
  0
LTYPE
  5
29
330
5
100
AcDbSymbolTableRecord
100
AcDbLinetypeTableRecord
  2
DOT
 70
     0
  3
-   -   -   -   -   -   -   -   
 72
    65
 73
     2
 40
2.5
 49
0.625
 74
     0
 49
-1.875
 74
     0
  0
LTYPE
  5
2A
330
5
100
AcDbSymbolTableRecord
100
AcDbLinetypeTableRecord
  2
DUMMY
 70
     0
  3
ダミー
 72
    65
 73
     0
 40
0.0
  0
LTYPE
  5
2B
330
5
100
AcDbSymbolTableRecord
100
AcDbLinetypeTableRecord
  2
RAND1
 70
     0
  3
ランダム線1
 72
    65
 73
     4
 40
10.0
 49
1.0
 74
     0
 49
-2.0
 74
     0
 49
3.0
 74
     0
 49
-4.0
 74
     0
  0
LTYPE
  5
2C
330
5
100
AcDbSymbolTableRecord
100
AcDbLinetypeTableRecord
  2
RAND2
 70
     0
  3
ランダム線2
 72
    65
 73
     4
 40
14.0
 49
2.0
 74
     0
 49
-3.0
 74
     0
 49
4.0
 74
     0
 49
-5.0
 74
     0
  0
LTYPE
  5
2D
330
5
100
AcDbSymbolTableRecord
100
AcDbLinetypeTableRecord
  2
RAND3
 70
     0
  3
ランダム線3
 72
    65
 73
     4
 40
18.0
 49
3.0
 74
     0
 49
-4.0
 74
     0
 49
5.0
 74
     0
 49
-6.0
 74
     0
  0
LTYPE
  5
2E
330
5
100
AcDbSymbolTableRecord
100
AcDbLinetypeTableRecord
  2
RAND4
 70
     0
  3
ランダム線4
 72
    65
 73
     4
 40
22.0
 49
4.0
 74
     0
 49
-5.0
 74
     0
 49
6.0
 74
     0
 49
-7.0
 74
     0
  0
LTYPE
  5
2F
330
5
100
AcDbSymbolTableRecord
100
AcDbLinetypeTableRecord
  2
RAND5
 70
     0
  3
ランダム線5
 72
    65
 73
     4
 40
26.0
 49
5.0
 74
     0
 49
-6.0
 74
     0
 49
7.0
 74
     0
 49
-8.0
 74
     0
  0
LTYPE
  5
30
330
5
100
AcDbSymbolTableRecord
100
AcDbLinetypeTableRecord
  2
LONG1
 70
     0
  3
----------  --  ----------  --  
 72
    65
 73
     4
 40
40.0
 49
32.5
 74
     0
 49
-2.5
 74
     0
 49
2.5
 74
     0
 49
-2.5
 74
     0
  0
LTYPE
  5
31
330
5
100
AcDbSymbolTableRecord
100
AcDbLinetypeTableRecord
  2
LONG2
 70
     0
  3
--------  -  -  --------  -  -  
 72
    65
 73
     6
 40
40.0
 49
30.0
 74
     0
 49
-2.5
 74
     0
 49
1.25
 74
     0
 49
-2.5
 74
     0
 49
1.25
 74
     0
 49
-2.5
 74
     0
  0
LTYPE
  5
32
330
5
100
AcDbSymbolTableRecord
100
AcDbLinetypeTableRecord
  2
LONG3
 70
     0
  3
+++++++++++++++..+++++++++++++++
 72
    65
 73
     2
 40
40.0
 49
37.5
 74
     0
 49
-2.5
 74
     0
  0
LTYPE
  5
33
330
5
100
AcDbSymbolTableRecord
100
AcDbLinetypeTableRecord
  2
LONG4
 70
     0
  3
+++++++++++++++..+++++++++++++++
 72
    65
 73
     2
 40
80.0
 49
75.0
 74
     0
 49
-5.0
 74
     0
  0
LTYPE
  5
34
330
5
100
AcDbSymbolTableRecord
100
AcDbLinetypeTableRecord
  2
LONG5
 70
     0
  3
----------  --  ----------  --  
 72
    65
 73
     4
 40
60.0
 49
37.5
 74
     0
 49
-7.5
 74
     0
 49
7.5
 74
     0
 49
-7.5
 74
     0
  0
LTYPE
  5
35
330
5
100
AcDbSymbolTableRecord
100
AcDbLinetypeTableRecord
  2
DASHED
 70
     0
  3
-------   -------------   ------
 72
    65
 73
     2
 40
7.5
 49
6.0
 74
     0
 49
-1.5
 74
     0
  0
LTYPE
  5
36
330
5
100
AcDbSymbolTableRecord
100
AcDbLinetypeTableRecord
  2
DASHED_SPACED
 70
     0
  3
----        --------        ----
 72
    65
 73
     2
 40
12.0
 49
6.0
 74
     0
 49
-6.0
 74
     0
  0
LTYPE
  5
37
330
5
100
AcDbSymbolTableRecord
100
AcDbLinetypeTableRecord
  2
LONG_DASHED_DOTTED
 70
     0
  3
------------- --- --------------
 72
    65
 73
     4
 40
15.25
 49
12.0
 74
     0
 49
-1.5
 74
     0
 49
0.25
 74
     0
 49
-1.5
 74
     0
  0
LTYPE
  5
38
330
5
100
AcDbSymbolTableRecord
100
AcDbLinetypeTableRecord
  2
LONG_DASHED_DOUBLE-DOTTED
 70
     0
  3
----------- --- --- ------------
 72
    65
 73
     6
 40
17.0
 49
12.0
 74
     0
 49
-1.5
 74
     0
 49
0.25
 74
     0
 49
-1.5
 74
     0
 49
0.25
 74
     0
 49
-1.5
 74
     0
  0
LTYPE
  5
39
330
5
100
AcDbSymbolTableRecord
100
AcDbLinetypeTableRecord
  2
LONG_DASHED_TRIPLICATE-DOTTED
 70
     0
  3
--------- --- --- --- ----------
 72
    65
 73
     8
 40
18.75
 49
12.0
 74
     0
 49
-1.5
 74
     0
 49
0.25
 74
     0
 49
-1.5
 74
     0
 49
0.25
 74
     0
 49
-1.5
 74
     0
 49
0.25
 74
     0
 49
-1.5
 74
     0
  0
LTYPE
  5
3A
330
5
100
AcDbSymbolTableRecord
100
AcDbLinetypeTableRecord
  2
DOTTED
 70
     0
  3
   -       -       -       -    
 72
    65
 73
     2
 40
1.75
 49
0.25
 74
     0
 49
-1.5
 74
     0
  0
LTYPE
  5
3B
330
5
100
AcDbSymbolTableRecord
100
AcDbLinetypeTableRecord
  2
CHAIN
 70
     0
  3
-------------- -- --------------
 72
    65
 73
     4
 40
18.5
 49
12.0
 74
     0
 49
-1.5
 74
     0
 49
3.5
 74
     0
 49
-1.5
 74
     0
  0
LTYPE
  5
3C
330
5
100
AcDbSymbolTableRecord
100
AcDbLinetypeTableRecord
  2
CHAIN_DOUBLE_DASH
 70
     0
  3
------------ -- -- -------------
 72
    65
 73
     6
 40
23.5
 49
12.0
 74
     0
 49
-1.5
 74
     0
 49
3.5
 74
     0
 49
-1.5
 74
     0
 49
3.5
 74
     0
 49
-1.5
 74
     0
  0
LTYPE
  5
3D
330
5
100
AcDbSymbolTableRecord
100
AcDbLinetypeTableRecord
  2
DASHED_DOTTED
 70
     0
  3
-----------     -     ----------
 72
    65
 73
     4
 40
9.25
 49
6.0
 74
     0
 49
-1.5
 74
     0
 49
0.25
 74
     0
 49
-1.5
 74
     0
  0
LTYPE
  5
3E
330
5
100
AcDbSymbolTableRecord
100
AcDbLinetypeTableRecord
  2
DOUBLE-DASHED_DOTTED
 70
     0
  3
------   -----------   -   -----
 72
    65
 73
     6
 40
16.75
 49
6.0
 74
     0
 49
-1.5
 74
     0
 49
6.0
 74
     0
 49
-1.5
 74
     0
 49
0.25
 74
     0
 49
-1.5
 74
     0
  0
LTYPE
  5
3F
330
5
100
AcDbSymbolTableRecord
100
AcDbLinetypeTableRecord
  2
DASHED_DOUBLE-DOTTED
 70
     0
  3
---------    -    -    ---------
 72
    65
 73
     6
 40
11.0
 49
6.0
 74
     0
 49
-1.5
 74
     0
 49
0.25
 74
     0
 49
-1.5
 74
     0
 49
0.25
 74
     0
 49
-1.5
 74
     0
  0
LTYPE
  5
40
330
5
100
AcDbSymbolTableRecord
100
AcDbLinetypeTableRecord
  2
DOUBLE-DASHED_DOUBLE-DOTTED
 70
     0
  3
-----   ---------   -   -   ----
 72
    65
 73
     8
 40
18.5
 49
6.0
 74
     0
 49
-1.5
 74
     0
 49
6.0
 74
     0
 49
-1.5
 74
     0
 49
0.25
 74
     0
 49
-1.5
 74
     0
 49
0.25
 74
     0
 49
-1.5
 74
     0
  0
LTYPE
  5
41
330
5
100
AcDbSymbolTableRecord
100
AcDbLinetypeTableRecord
  2
DASHED_TRIPLICATE-DOTTED
 70
     0
  3
-------    -    -    -    ------
 72
    65
 73
     8
 40
12.75
 49
6.0
 74
     0
 49
-1.5
 74
     0
 49
0.25
 74
     0
 49
-1.5
 74
     0
 49
0.25
 74
     0
 49
-1.5
 74
     0
 49
0.25
 74
     0
 49
-1.5
 74
     0
  0
LTYPE
  5
42
330
5
100
AcDbSymbolTableRecord
100
AcDbLinetypeTableRecord
  2
DOUBLE-DASHED_TRIPLICATE-DOTTED
 70
     0
  3
-----  ---------  -  -  -  -----
 72
    65
 73
    10
 40
20.24999999999999
 49
6.0
 74
     0
 49
-1.5
 74
     0
 49
6.0
 74
     0
 49
-1.5
 74
     0
 49
0.25
 74
     0
 49
-1.5
 74
     0
 49
0.25
 74
     0
 49
-1.5
 74
     0
 49
0.25
 74
     0
 49
-1.5
 74
     0
  0
LTYPE
  5
43
330
5
100
AcDbSymbolTableRecord
100
AcDbLinetypeTableRecord
  2
UNDEFINED
 70
     0
  3
--------------------------------
 72
    65
 73
     0
 40
0.0
  0
LTYPE
  5
44
330
5
100
AcDbSymbolTableRecord
100
AcDbLinetypeTableRecord
  2
PLINE2
 70
     0
  3
------     -----------     -----
 72
    65
 73
     2
 40
3.0
 49
2.1
 74
     0
 49
-0.9
 74
     0
  0
LTYPE
  5
45
330
5
100
AcDbSymbolTableRecord
100
AcDbLinetypeTableRecord
  2
PLINE3
 70
     0
  3
------------   ---   -----------
 72
    65
 73
     4
 40
10.0
 49
7.0
 74
     0
 49
-1.0
 74
     0
 49
1.0
 74
     0
 49
-1.0
 74
     0
  0
LTYPE
  5
46
330
5
100
AcDbSymbolTableRecord
100
AcDbLinetypeTableRecord
  2
PLINE4
 70
     0
  3
---------   ---   ---   --------
 72
    65
 73
     6
 40
10.0
 49
5.0
 74
     0
 49
-1.0
 74
     0
 49
1.0
 74
     0
 49
-1.0
 74
     0
 49
1.0
 74
     0
 49
-1.0
 74
     0
  0
LTYPE
  5
47
330
5
100
AcDbSymbolTableRecord
100
AcDbLinetypeTableRecord
  2
PLINE5
 70
     0
  3
------     -----------     -----
 72
    65
 73
     2
 40
5.0
 49
3.5
 74
     0
 49
-1.5
 74
     0
  0
LTYPE
  5
48
330
5
100
AcDbSymbolTableRecord
100
AcDbLinetypeTableRecord
  2
PLINE6
 70
     0
  3
------------   ---   -----------
 72
    65
 73
     4
 40
15.0
 49
10.5
 74
     0
 49
-1.5
 74
     0
 49
1.5
 74
     0
 49
-1.5
 74
     0
  0
LTYPE
  5
49
330
5
100
AcDbSymbolTableRecord
100
AcDbLinetypeTableRecord
  2
PLINE7
 70
     0
  3
---------   ---   ---   --------
 72
    65
 73
     6
 40
15.0
 49
7.5
 74
     0
 49
-1.5
 74
     0
 49
1.5
 74
     0
 49
-1.5
 74
     0
 49
1.5
 74
     0
 49
-1.5
 74
     0
  0
LTYPE
  5
4A
330
5
100
AcDbSymbolTableRecord
100
AcDbLinetypeTableRecord
  2
PLINE8
 70
     0
  3
------     -----------     -----
 72
    65
 73
     2
 40
7.0
 49
4.9
 74
     0
 49
-2.1
 74
     0
  0
LTYPE
  5
4B
330
5
100
AcDbSymbolTableRecord
100
AcDbLinetypeTableRecord
  2
PLINE9
 70
     0
  3
------------   ---   -----------
 72
    65
 73
     4
 40
20.0
 49
14.0
 74
     0
 49
-2.0
 74
     0
 49
2.0
 74
     0
 49
-2.0
 74
     0
  0
LTYPE
  5
4C
330
5
100
AcDbSymbolTableRecord
100
AcDbLinetypeTableRecord
  2
PLINE10
 70
     0
  3
---------   ---   ---   --------
 72
    65
 73
     6
 40
20.0
 49
10.0
 74
     0
 49
-2.0
 74
     0
 49
2.0
 74
     0
 49
-2.0
 74
     0
 49
2.0
 74
     0
 49
-2.0
 74
     0
  0
LTYPE
  5
4D
330
5
100
AcDbSymbolTableRecord
100
AcDbLinetypeTableRecord
  2
PLINE11
 70
     0
  3
------     -----------     -----
 72
    65
 73
     2
 40
9.0
 49
6.299999999999999
 74
     0
 49
-2.7
 74
     0
  0
LTYPE
  5
4E
330
5
100
AcDbSymbolTableRecord
100
AcDbLinetypeTableRecord
  2
PLINE12
 70
     0
  3
------------   ---   -----------
 72
    65
 73
     4
 40
25.0
 49
17.5
 74
     0
 49
-2.5
 74
     0
 49
2.5
 74
     0
 49
-2.5
 74
     0
  0
LTYPE
  5
4F
330
5
100
AcDbSymbolTableRecord
100
AcDbLinetypeTableRecord
  2
PLINE13
 70
     0
  3
---------   ---   ---   --------
 72
    65
 73
     6
 40
25.0
 49
12.5
 74
     0
 49
-2.5
 74
     0
 49
2.5
 74
     0
 49
-2.5
 74
     0
 49
2.5
 74
     0
 49
-2.5
 74
     0
  0
LTYPE
  5
50
330
5
100
AcDbSymbolTableRecord
100
AcDbLinetypeTableRecord
  2
PLINE14
 70
     0
  3
------     -----------     -----
 72
    65
 73
     2
 40
11.0
 49
7.7
 74
     0
 49
-3.299999999999999
 74
     0
  0
LTYPE
  5
51
330
5
100
AcDbSymbolTableRecord
100
AcDbLinetypeTableRecord
  2
PLINE15
 70
     0
  3
------------   ---   -----------
 72
    65
 73
     4
 40
30.0
 49
21.0
 74
     0
 49
-3.0
 74
     0
 49
3.0
 74
     0
 49
-3.0
 74
     0
  0
LTYPE
  5
52
330
5
100
AcDbSymbolTableRecord
100
AcDbLinetypeTableRecord
  2
PLINE16
 70
     0
  3
---------   ---   ---   --------
 72
    65
 73
     6
 40
30.0
 49
15.0
 74
     0
 49
-3.0
 74
     0
 49
3.0
 74
     0
 49
-3.0
 74
     0
 49
3.0
 74
     0
 49
-3.0
 74
     0
  0
ENDTAB
  0
TABLE
  2
LAYER
  5
2
102
{ACAD_XDICTIONARY
360
175
102
}
330
0
100
AcDbSymbolTable
 70
     5
  0
LAYER
  5
10
330
2
100
AcDbSymbolTableRecord
100
AcDbLayerTableRecord
  2
0
 70
     0
 62
     7
  6
CONTINUOUS
370
    -3
390
F
  0
LAYER
  5
128
330
2
100
AcDbSymbolTableRecord
100
AcDbLayerTableRecord
  2
Defpoints
 70
     0
 62
     7
  6
CONTINUOUS
290
     0
370
    -3
390
F
  0
LAYER
  5
178
330
2
100
AcDbSymbolTableRecord
100
AcDbLayerTableRecord
  2
寸法
 70
     0
 62
     7
  6
CONTINUOUS
370
    -3
390
F
  0
LAYER
  5
179
330
2
100
AcDbSymbolTableRecord
100
AcDbLayerTableRecord
  2
躯体と製品
 70
     0
 62
     7
  6
CONTINUOUS
370
    -3
390
F
  0
LAYER
  5
4F62
330
2
100
AcDbSymbolTableRecord
100
AcDbLayerTableRecord
  2
文字-記号
 70
     0
 62
     7
  6
CONTINUOUS
370
    -3
390
F
  0
ENDTAB
  0
TABLE
  2
STYLE
  5
3
330
0
100
AcDbSymbolTable
 70
     4
  0
STYLE
  5
11
330
3
100
AcDbSymbolTableRecord
100
AcDbTextStyleTableRecord
  2
STANDARD
 70
     0
 40
0.0
 41
1.0
 50
0.0
 71
     0
 42
0.2
  3
txt
  4
bigfont.shx
  0
STYLE
  5
53
330
3
100
AcDbSymbolTableRecord
100
AcDbTextStyleTableRecord
  2
TATEGAKI
 70
     4
 40
0.0
 41
1.0
 50
0.0
 71
     0
 42
1.0
  3
txt
  4
bigfont.shx
  0
STYLE
  5
123
330
3
100
AcDbSymbolTableRecord
100
AcDbTextStyleTableRecord
  2
ACAD
 70
     0
 40
5.0
 41
0.8
 50
0.0
 71
     0
 42
5.0
  3
romans.shx
  4
extfont.shx
  0
STYLE
  5
3A5F
330
3
100
AcDbSymbolTableRecord
100
AcDbTextStyleTableRecord
  2
VERTXT
 70
     4
 40
0.0
 41
0.8582679999999999
 50
0.0
 71
     0
 42
3.5
  3
txt.shx
  4
BIGFONT
  0
ENDTAB
  0
TABLE
  2
VIEW
  5
6
330
0
100
AcDbSymbolTable
 70
     0
  0
ENDTAB
  0
TABLE
  2
UCS
  5
7
330
0
100
AcDbSymbolTable
 70
     0
  0
ENDTAB
  0
TABLE
  2
APPID
  5
9
330
0
100
AcDbSymbolTable
 70
     1
  0
APPID
  5
12
330
9
100
AcDbSymbolTableRecord
100
AcDbRegAppTableRecord
  2
ACAD
 70
     0
  0
ENDTAB
  0
TABLE
  2
DIMSTYLE
  5
A
330
0
100
AcDbSymbolTable
 70
     3
100
AcDbDimStyleTable
 71
     0
  0
DIMSTYLE
105
11C
330
A
100
AcDbSymbolTableRecord
100
AcDbDimStyleTableRecord
  2
Standard
 70
     0
340
11
  0
DIMSTYLE
105
126
102
{ACAD_REACTORS
330
56D1
330
56D2
330
56D3
330
56D4
330
56D5
330
56D6
330
56D7
330
56D8
330
56D9
330
56E9
330
56F0
330
56FB
330
56FC
330
5715
330
5717
330
5897
330
589C
330
59B4
330
59BC
330
59C2
330
5ADD
330
5AE8
330
5AEE
330
5AEF
330
5BC1
330
5BC2
102
}
330
A
100
AcDbSymbolTableRecord
100
AcDbDimStyleTableRecord
  2
AutoCAD
 70
     0
 41
1.0
 42
0.0
 44
0.0
 73
     0
 77
     1
140
5.0
147
1.0
174
     1
176
     4
177
     4
178
     3
271
     0
272
     0
289
     0
340
123
341
15B0
342
11E
  0
DIMSTYLE
105
2CBB
330
A
100
AcDbSymbolTableRecord
100
AcDbDimStyleTableRecord
  2
111
 70
     0
 41
1.0
 42
0.0
 44
0.0
 73
     0
 77
     1
140
5.0
147
1.0
174
     1
176
     4
177
     4
178
     3
271
     0
272
     0
289
     0
340
123
341
15B0
342
2CB5
  0
ENDTAB
  0
TABLE
  2
BLOCK_RECORD
  5
1
330
0
100
AcDbSymbolTable
 70
    56
  0
BLOCK_RECORD
  5
1E
102
{ACAD_XDICTIONARY
360
28B
102
}
330
1
100
AcDbSymbolTableRecord
100
AcDbBlockTableRecord
  2
*Model_Space
340
21
  0
BLOCK_RECORD
  5
1A
102
{ACAD_XDICTIONARY
360
28D
102
}
330
1
100
AcDbSymbolTableRecord
100
AcDbBlockTableRecord
  2
*Paper_Space
340
1D
  0
BLOCK_RECORD
  5
11E
330
1
100
AcDbSymbolTableRecord
100
AcDbBlockTableRecord
  2
_Dot
340
0
102
{BLKREFS
331
50A7
331
50A8
331
50B3
331
50B4
331
50BF
331
50C0
331
50CB
331
50CC
331
50D7
331
50D8
331
50E3
331
50E4
331
50EF
331
50F0
331
50FB
331
50FC
331
5107
331
5108
331
5111
331
5112
331
511D
331
511E
331
512A
331
512B
331
5136
331
5137
331
5143
331
5144
331
514F
331
5150
331
515C
331
515D
331
5167
331
5168
331
5173
331
5174
331
517F
331
5180
331
518B
331
518C
331
5197
331
5198
331
51A3
331
51A4
331
51AF
331
51B0
331
51BB
331
51BC
331
51C6
331
51C7
331
51D2
331
51D3
331
6006
331
6007
331
600F
331
6010
331
6018
331
6019
331
6021
331
6022
331
602A
331
602B
331
6034
331
6035
331
603C
331
603D
331
6045
331
6046
331
604E
331
604F
331
5D4F
331
5D50
331
5D58
331
5D59
331
5D61
331
5D62
331
5D6A
331
5D6B
331
5D73
331
5D74
331
5D7C
331
5D7D
331
5D85
331
5D86
331
5D8E
331
5D8F
331
5D96
331
5D97
331
5D9F
331
5DA0
331
5DA8
331
5DA9
331
5DB1
331
5DB2
331
5DBA
331
5DBB
331
5DC3
331
5DC4
331
5DCA
331
5DCB
331
5DD4
331
5DD5
331
5DDE
331
5DDF
331
605D
331
605E
102
}
  0
BLOCK_RECORD
  5
15B0
330
1
100
AcDbSymbolTableRecord
100
AcDbBlockTableRecord
  2
_None
340
0
  0
BLOCK_RECORD
  5
2CB5
330
1
100
AcDbSymbolTableRecord
100
AcDbBlockTableRecord
  2
_Open30
340
0
  0
BLOCK_RECORD
  5
35E3
330
1
100
AcDbSymbolTableRecord
100
AcDbBlockTableRecord
  2
_DotBlank
340
0
  0
BLOCK_RECORD
  5
5BC4
330
1
100
AcDbSymbolTableRecord
100
AcDbBlockTableRecord
  2
*D30
340
0
  0
BLOCK_RECORD
  5
5BD0
330
1
100
AcDbSymbolTableRecord
100
AcDbBlockTableRecord
  2
*D31
340
0
  0
BLOCK_RECORD
  5
5BDC
330
1
100
AcDbSymbolTableRecord
100
AcDbBlockTableRecord
  2
*D32
340
0
  0
BLOCK_RECORD
  5
5BE8
330
1
100
AcDbSymbolTableRecord
100
AcDbBlockTableRecord
  2
*D33
340
0
  0
BLOCK_RECORD
  5
5BF4
330
1
100
AcDbSymbolTableRecord
100
AcDbBlockTableRecord
  2
*D34
340
0
  0
BLOCK_RECORD
  5
5C00
330
1
100
AcDbSymbolTableRecord
100
AcDbBlockTableRecord
  2
*D35
340
0
  0
BLOCK_RECORD
  5
5C0D
330
1
100
AcDbSymbolTableRecord
100
AcDbBlockTableRecord
  2
*D36
340
0
  0
BLOCK_RECORD
  5
5C18
330
1
100
AcDbSymbolTableRecord
100
AcDbBlockTableRecord
  2
*D37
340
0
  0
BLOCK_RECORD
  5
5C24
330
1
100
AcDbSymbolTableRecord
100
AcDbBlockTableRecord
  2
*D38
340
0
  0
BLOCK_RECORD
  5
5C30
330
1
100
AcDbSymbolTableRecord
100
AcDbBlockTableRecord
  2
*D39
340
0
  0
BLOCK_RECORD
  5
5C3C
330
1
100
AcDbSymbolTableRecord
100
AcDbBlockTableRecord
  2
*D40
340
0
  0
BLOCK_RECORD
  5
5C48
330
1
100
AcDbSymbolTableRecord
100
AcDbBlockTableRecord
  2
*D41
340
0
  0
BLOCK_RECORD
  5
5C54
330
1
100
AcDbSymbolTableRecord
100
AcDbBlockTableRecord
  2
*D42
340
0
  0
BLOCK_RECORD
  5
5C60
330
1
100
AcDbSymbolTableRecord
100
AcDbBlockTableRecord
  2
*D43
340
0
  0
BLOCK_RECORD
  5
5C6C
330
1
100
AcDbSymbolTableRecord
100
AcDbBlockTableRecord
  2
*D44
340
0
  0
BLOCK_RECORD
  5
5C78
330
1
100
AcDbSymbolTableRecord
100
AcDbBlockTableRecord
  2
*D45
340
0
  0
BLOCK_RECORD
  5
5C84
330
1
100
AcDbSymbolTableRecord
100
AcDbBlockTableRecord
  2
*D46
340
0
  0
BLOCK_RECORD
  5
5C90
330
1
100
AcDbSymbolTableRecord
100
AcDbBlockTableRecord
  2
*D47
340
0
  0
BLOCK_RECORD
  5
5C9B
330
1
100
AcDbSymbolTableRecord
100
AcDbBlockTableRecord
  2
*D48
340
0
  0
BLOCK_RECORD
  5
5CA7
330
1
100
AcDbSymbolTableRecord
100
AcDbBlockTableRecord
  2
*D49
340
0
  0
BLOCK_RECORD
  5
5CB3
330
1
100
AcDbSymbolTableRecord
100
AcDbBlockTableRecord
  2
*D50
340
0
  0
BLOCK_RECORD
  5
5CBF
330
1
100
AcDbSymbolTableRecord
100
AcDbBlockTableRecord
  2
*D51
340
0
  0
BLOCK_RECORD
  5
5CCB
330
1
100
AcDbSymbolTableRecord
100
AcDbBlockTableRecord
  2
*D52
340
0
  0
BLOCK_RECORD
  5
5CD7
330
1
100
AcDbSymbolTableRecord
100
AcDbBlockTableRecord
  2
*D53
340
0
  0
BLOCK_RECORD
  5
5CE1
330
1
100
AcDbSymbolTableRecord
100
AcDbBlockTableRecord
  2
*D54
340
0
  0
BLOCK_RECORD
  5
5CEE
330
1
100
AcDbSymbolTableRecord
100
AcDbBlockTableRecord
  2
*D55
340
0
  0
ENDTAB
  0
ENDSEC
  0
SECTION
  2
BLOCKS
  0
BLOCK
  5
1F
330
1E
100
AcDbEntity
  8
0
100
AcDbBlockBegin
  2
*Model_Space
 70
     0
 10
0.0
 20
0.0
 30
0.0
  3
*Model_Space
  1

  0
ENDBLK
  5
20
330
1E
100
AcDbEntity
  8
0
100
AcDbBlockEnd
  0
BLOCK
  5
1B
330
1A
100
AcDbEntity
 67
     1
  8
0
100
AcDbBlockBegin
  2
*Paper_Space
 70
     0
 10
0.0
 20
0.0
 30
0.0
  3
*Paper_Space
  1

  0
ENDBLK
  5
1C
330
1A
100
AcDbEntity
 67
     1
  8
0
100
AcDbBlockEnd
  0
BLOCK
  5
121
330
11E
100
AcDbEntity
  8
0
100
AcDbBlockBegin
  2
_Dot
 70
     0
 10
0.0
 20
0.0
 30
0.0
  3
_Dot
  1

  0
LWPOLYLINE
  5
11F
330
11E
100
AcDbEntity
  8
0
  6
ByBlock
 62
     0
100
AcDbPolyline
 90
        2
 70
     1
 43
0.5
 10
-0.25
 20
0.0
 42
1.0
 10
0.25
 20
0.0
 42
1.0
  0
LINE
  5
120
330
11E
100
AcDbEntity
  8
0
  6
ByBlock
 62
     0
370
    -2
100
AcDbLine
 10
-0.5
 20
0.0
 30
0.0
 11
-1.0
 21
0.0
 31
0.0
  0
ENDBLK
  5
122
330
11E
100
AcDbEntity
  8
0
100
AcDbBlockEnd
  0
BLOCK
  5
15B1
330
15B0
100
AcDbEntity
  8
0
100
AcDbBlockBegin
  2
_None
 70
     0
 10
0.0
 20
0.0
 30
0.0
  3
_None
  1

  0
ENDBLK
  5
15B2
330
15B0
100
AcDbEntity
  8
0
100
AcDbBlockEnd
  0
BLOCK
  5
2CB9
330
2CB5
100
AcDbEntity
  8
0
100
AcDbBlockBegin
  2
_Open30
 70
     0
 10
0.0
 20
0.0
 30
0.0
  3
_Open30
  1

  0
LINE
  5
2CB6
330
2CB5
100
AcDbEntity
  8
0
  6
ByBlock
 62
     0
370
    -2
100
AcDbLine
 10
-1.0
 20
0.26794919
 30
0.0
 11
0.0
 21
0.0
 31
0.0
  0
LINE
  5
2CB7
330
2CB5
100
AcDbEntity
  8
0
  6
ByBlock
 62
     0
370
    -2
100
AcDbLine
 10
0.0
 20
0.0
 30
0.0
 11
-1.0
 21
-0.26794919
 31
0.0
  0
LINE
  5
2CB8
330
2CB5
100
AcDbEntity
  8
0
  6
ByBlock
 62
     0
370
    -2
100
AcDbLine
 10
0.0
 20
0.0
 30
0.0
 11
-1.0
 21
0.0
 31
0.0
  0
ENDBLK
  5
2CBA
330
2CB5
100
AcDbEntity
  8
0
100
AcDbBlockEnd
  0
BLOCK
  5
35E6
330
35E3
100
AcDbEntity
  8
0
100
AcDbBlockBegin
  2
_DotBlank
 70
     0
 10
0.0
 20
0.0
 30
0.0
  3
_DotBlank
  1

  0
CIRCLE
  5
35E4
330
35E3
100
AcDbEntity
  8
0
  6
ByBlock
 62
     0
370
    -2
100
AcDbCircle
 10
0.0
 20
0.0
 30
0.0
 40
0.5
  0
LINE
  5
35E5
330
35E3
100
AcDbEntity
  8
0
  6
ByBlock
 62
     0
370
    -2
100
AcDbLine
 10
-0.5
 20
0.0
 30
0.0
 11
-1.0
 21
0.0
 31
0.0
  0
ENDBLK
  5
35E7
330
35E3
100
AcDbEntity
  8
0
100
AcDbBlockEnd
  0
BLOCK
  5
5BCE
330
5BC4
100
AcDbEntity
  8
0
100
AcDbBlockBegin
  2
*D30
 70
     1
 10
0.0
 20
0.0
 30
0.0
  3
*D30
  1

  0
LINE
  5
6003
330
5BC4
100
AcDbEntity
  8
寸法
  6
Continuous
 62
     4
100
AcDbLine
 10
3491.036297709099
 20
959.4180249597272
 30
0.0
 11
3435.889851806799
 21
959.4180249597272
 31
0.0
  0
LINE
  5
6004
330
5BC4
100
AcDbEntity
  8
寸法
  6
Continuous
 62
     4
100
AcDbLine
 10
3500.389851806799
 20
859.2715790574272
 30
0.0
 11
3435.889851806799
 21
859.2715790574272
 31
0.0
  0
LINE
  5
6005
330
5BC4
100
AcDbEntity
  8
寸法
  6
Continuous
 62
     4
100
AcDbLine
 10
3435.889851806799
 20
958.4180249597272
 30
0.0
 11
3435.889851806799
 21
860.2715790574272
 31
0.0
  0
INSERT
  5
6006
330
5BC4
100
AcDbEntity
  8
寸法
  6
Continuous
 62
     4
100
AcDbBlockReference
  2
_Dot
 10
3435.889851806799
 20
959.4180249597272
 30
0.0
 50
90.0
  0
INSERT
  5
6007
330
5BC4
100
AcDbEntity
  8
寸法
  6
Continuous
 62
     4
100
AcDbBlockReference
  2
_Dot
 10
3435.889851806799
 20
859.2715790574272
 30
0.0
 50
270.0
  0
MTEXT
  5
6008
330
5BC4
100
AcDbEntity
  8
寸法
  6
Continuous
 62
     3
100
AcDbMText
 10
3432.589851806799
 20
909.3448020085778
 30
0.0
 40
5.0
 41
0.0
 71
     5
 72
     5
  1
\A1;100
  7
ACAD
 11
0.0000000000000001
 21
1.0
 31
0.0
 73
     1
 44
1.0
  0
POINT
  5
6009
330
5BC4
100
AcDbEntity
  8
Defpoints
  6
Continuous
 62
     0
100
AcDbPoint
 10
3491.036297709099
 20
959.4180249597272
 30
0.0
  0
POINT
  5
600A
330
5BC4
100
AcDbEntity
  8
Defpoints
  6
Continuous
 62
     0
100
AcDbPoint
 10
3500.389851806799
 20
859.2715790574272
 30
0.0
  0
POINT
  5
600B
330
5BC4
100
AcDbEntity
  8
Defpoints
  6
Continuous
 62
     0
100
AcDbPoint
 10
3435.889851806799
 20
859.2715790574272
 30
0.0
  0
ENDBLK
  5
5BCF
330
5BC4
100
AcDbEntity
  8
0
100
AcDbBlockEnd
  0
BLOCK
  5
5BDA
330
5BD0
100
AcDbEntity
  8
0
100
AcDbBlockBegin
  2
*D31
 70
     1
 10
0.0
 20
0.0
 30
0.0
  3
*D31
  1

  0
LINE
  5
600C
330
5BD0
100
AcDbEntity
  8
寸法
  6
Continuous
 62
     4
100
AcDbLine
 10
3500.389851806799
 20
859.2715790574272
 30
0.0
 11
3435.889851806799
 21
859.2715790574272
 31
0.0
  0
LINE
  5
600D
330
5BD0
100
AcDbEntity
  8
寸法
  6
Continuous
 62
     4
100
AcDbLine
 10
3499.372910315673
 20
829.2718660855978
 30
0.0
 11
3435.889851806799
 21
829.2718660855978
 31
0.0
  0
LINE
  5
600E
330
5BD0
100
AcDbEntity
  8
寸法
  6
Continuous
 62
     4
100
AcDbLine
 10
3435.889851806799
 20
858.2715790574273
 30
0.0
 11
3435.889851806799
 21
830.2718660855978
 31
0.0
  0
INSERT
  5
600F
330
5BD0
100
AcDbEntity
  8
寸法
  6
Continuous
 62
     4
100
AcDbBlockReference
  2
_Dot
 10
3435.889851806799
 20
859.2715790574272
 30
0.0
 50
90.0
  0
INSERT
  5
6010
330
5BD0
100
AcDbEntity
  8
寸法
  6
Continuous
 62
     4
100
AcDbBlockReference
  2
_Dot
 10
3435.889851806799
 20
829.2718660855978
 30
0.0
 50
270.0
  0
MTEXT
  5
6011
330
5BD0
100
AcDbEntity
  8
寸法
  6
Continuous
 62
     3
100
AcDbMText
 10
3432.589851806799
 20
844.2717225715131
 30
0.0
 40
5.0
 41
0.0
 71
     5
 72
     5
  1
\A1;30
  7
ACAD
 11
0.0000000000000001
 21
1.0
 31
0.0
 73
     1
 44
1.0
  0
POINT
  5
6012
330
5BD0
100
AcDbEntity
  8
Defpoints
  6
Continuous
 62
     0
100
AcDbPoint
 10
3500.389851806799
 20
859.2715790574272
 30
0.0
  0
POINT
  5
6013
330
5BD0
100
AcDbEntity
  8
Defpoints
  6
Continuous
 62
     0
100
AcDbPoint
 10
3499.372910315673
 20
829.2718660855978
 30
0.0
  0
POINT
  5
6014
330
5BD0
100
AcDbEntity
  8
Defpoints
  6
Continuous
 62
     0
100
AcDbPoint
 10
3435.889851806799
 20
829.2718660855978
 30
0.0
  0
ENDBLK
  5
5BDB
330
5BD0
100
AcDbEntity
  8
0
100
AcDbBlockEnd
  0
BLOCK
  5
5BE6
330
5BDC
100
AcDbEntity
  8
0
100
AcDbBlockBegin
  2
*D32
 70
     1
 10
0.0
 20
0.0
 30
0.0
  3
*D32
  1

  0
LINE
  5
6015
330
5BDC
100
AcDbEntity
  8
寸法
  6
Continuous
 62
     4
100
AcDbLine
 10
3499.8758738068
 20
669.2715800574271
 30
0.0
 11
3435.889851806799
 21
669.2715800574271
 31
0.0
  0
LINE
  5
6016
330
5BDC
100
AcDbEntity
  8
寸法
  6
Continuous
 62
     4
100
AcDbLine
 10
3498.391797806799
 20
644.271581057427
 30
0.0
 11
3435.889851806799
 21
644.271581057427
 31
0.0
  0
LINE
  5
6017
330
5BDC
100
AcDbEntity
  8
寸法
  6
Continuous
 62
     4
100
AcDbLine
 10
3435.889851806799
 20
668.2715800574271
 30
0.0
 11
3435.889851806799
 21
645.271581057427
 31
0.0
  0
INSERT
  5
6018
330
5BDC
100
AcDbEntity
  8
寸法
  6
Continuous
 62
     4
100
AcDbBlockReference
  2
_Dot
 10
3435.889851806799
 20
669.2715800574271
 30
0.0
 50
90.0
  0
INSERT
  5
6019
330
5BDC
100
AcDbEntity
  8
寸法
  6
Continuous
 62
     4
100
AcDbBlockReference
  2
_Dot
 10
3435.889851806799
 20
644.271581057427
 30
0.0
 50
270.0
  0
MTEXT
  5
601A
330
5BDC
100
AcDbEntity
  8
寸法
  6
Continuous
 62
     3
100
AcDbMText
 10
3432.589851806799
 20
656.7715805574277
 30
0.0
 40
5.0
 41
0.0
 71
     5
 72
     5
  1
\A1;25
  7
ACAD
 11
0.0000000000000001
 21
1.0
 31
0.0
 73
     1
 44
1.0
  0
POINT
  5
601B
330
5BDC
100
AcDbEntity
  8
Defpoints
  6
Continuous
 62
     0
100
AcDbPoint
 10
3499.8758738068
 20
669.2715800574271
 30
0.0
  0
POINT
  5
601C
330
5BDC
100
AcDbEntity
  8
Defpoints
  6
Continuous
 62
     0
100
AcDbPoint
 10
3498.391797806799
 20
644.271581057427
 30
0.0
  0
POINT
  5
601D
330
5BDC
100
AcDbEntity
  8
Defpoints
  6
Continuous
 62
     0
100
AcDbPoint
 10
3435.889851806799
 20
644.271581057427
 30
0.0
  0
ENDBLK
  5
5BE7
330
5BDC
100
AcDbEntity
  8
0
100
AcDbBlockEnd
  0
BLOCK
  5
5BF2
330
5BE8
100
AcDbEntity
  8
0
100
AcDbBlockBegin
  2
*D33
 70
     1
 10
0.0
 20
0.0
 30
0.0
  3
*D33
  1

  0
LINE
  5
601E
330
5BE8
100
AcDbEntity
  8
寸法
  6
Continuous
 62
     4
100
AcDbLine
 10
3498.391797806799
 20
644.271581057427
 30
0.0
 11
3435.889851806799
 21
644.271581057427
 31
0.0
  0
LINE
  5
601F
330
5BE8
100
AcDbEntity
  8
寸法
  6
Continuous
 62
     4
100
AcDbLine
 10
3466.685658806799
 20
554.2715810574271
 30
0.0
 11
3435.889851806799
 21
554.2715810574271
 31
0.0
  0
LINE
  5
6020
330
5BE8
100
AcDbEntity
  8
寸法
  6
Continuous
 62
     4
100
AcDbLine
 10
3435.889851806799
 20
643.271581057427
 30
0.0
 11
3435.889851806799
 21
555.271581057427
 31
0.0
  0
INSERT
  5
6021
330
5BE8
100
AcDbEntity
  8
寸法
  6
Continuous
 62
     4
100
AcDbBlockReference
  2
_Dot
 10
3435.889851806799
 20
644.271581057427
 30
0.0
 50
90.0
  0
INSERT
  5
6022
330
5BE8
100
AcDbEntity
  8
寸法
  6
Continuous
 62
     4
100
AcDbBlockReference
  2
_Dot
 10
3435.889851806799
 20
554.2715810574271
 30
0.0
 50
270.0
  0
MTEXT
  5
6023
330
5BE8
100
AcDbEntity
  8
寸法
  6
Continuous
 62
     3
100
AcDbMText
 10
3432.589851806799
 20
599.2715810574276
 30
0.0
 40
5.0
 41
0.0
 71
     5
 72
     5
  1
\A1;90
  7
ACAD
 11
0.0000000000000001
 21
1.0
 31
0.0
 73
     1
 44
1.0
  0
POINT
  5
6024
330
5BE8
100
AcDbEntity
  8
Defpoints
  6
Continuous
 62
     0
100
AcDbPoint
 10
3498.391797806799
 20
644.271581057427
 30
0.0
  0
POINT
  5
6025
330
5BE8
100
AcDbEntity
  8
Defpoints
  6
Continuous
 62
     0
100
AcDbPoint
 10
3466.685658806799
 20
554.2715810574271
 30
0.0
  0
POINT
  5
6026
330
5BE8
100
AcDbEntity
  8
Defpoints
  6
Continuous
 62
     0
100
AcDbPoint
 10
3435.889851806799
 20
554.2715810574271
 30
0.0
  0
ENDBLK
  5
5BF3
330
5BE8
100
AcDbEntity
  8
0
100
AcDbBlockEnd
  0
BLOCK
  5
5BFE
330
5BF4
100
AcDbEntity
  8
0
100
AcDbBlockBegin
  2
*D34
 70
     1
 10
0.0
 20
0.0
 30
0.0
  3
*D34
  1

  0
LINE
  5
6027
330
5BF4
100
AcDbEntity
  8
寸法
  6
Continuous
 62
     4
100
AcDbLine
 10
4100.889849806799
 20
1002.521579057427
 30
0.0
 11
4127.889849806799
 21
1002.521579057427
 31
0.0
  0
LINE
  5
6028
330
5BF4
100
AcDbEntity
  8
寸法
  6
Continuous
 62
     4
100
AcDbLine
 10
4085.139849806799
 20
987.5215790574273
 30
0.0
 11
4127.889849806799
 21
987.5215790574273
 31
0.0
  0
LINE
  5
6029
330
5BF4
100
AcDbEntity
  8
寸法
  6
Continuous
 62
     4
100
AcDbLine
 10
4127.889849806799
 20
1001.521579057427
 30
0.0
 11
4127.889849806799
 21
988.5215790574273
 31
0.0
  0
INSERT
  5
602A
330
5BF4
100
AcDbEntity
  8
寸法
  6
Continuous
 62
     4
100
AcDbBlockReference
  2
_Dot
 10
4127.889849806799
 20
1002.521579057427
 30
0.0
 50
90.0
  0
INSERT
  5
602B
330
5BF4
100
AcDbEntity
  8
寸法
  6
Continuous
 62
     4
100
AcDbBlockReference
  2
_Dot
 10
4127.889849806799
 20
987.5215790574273
 30
0.0
 50
270.0
  0
MTEXT
  5
602C
330
5BF4
100
AcDbEntity
  8
寸法
  6
Continuous
 62
     3
100
AcDbMText
 10
4124.589849806799
 20
995.0215790574279
 30
0.0
 40
5.0
 41
0.0
 71
     5
 72
     5
  1
\A1;100
  7
ACAD
 11
0.0000000000000001
 21
1.0
 31
0.0
 73
     1
 44
1.0
  0
POINT
  5
602D
330
5BF4
100
AcDbEntity
  8
Defpoints
  6
Continuous
 62
     0
100
AcDbPoint
 10
4100.889849806799
 20
1002.521579057427
 30
0.0
  0
POINT
  5
602E
330
5BF4
100
AcDbEntity
  8
Defpoints
  6
Continuous
 62
     0
100
AcDbPoint
 10
4085.139849806799
 20
987.5215790574273
 30
0.0
  0
POINT
  5
602F
330
5BF4
100
AcDbEntity
  8
Defpoints
  6
Continuous
 62
     0
100
AcDbPoint
 10
4127.889849806799
 20
987.5215790574273
 30
0.0
  0
ENDBLK
  5
5BFF
330
5BF4
100
AcDbEntity
  8
0
100
AcDbBlockEnd
  0
BLOCK
  5
5C0B
330
5C00
100
AcDbEntity
  8
0
100
AcDbBlockBegin
  2
*D35
 70
     1
 10
0.0
 20
0.0
 30
0.0
  3
*D35
  1

  0
LINE
  5
6030
330
5C00
100
AcDbEntity
  8
寸法
  6
Continuous
 62
     4
100
AcDbLine
 10
4085.139849806799
 20
987.5215790574273
 30
0.0
 11
4127.889849806799
 21
987.5215790574273
 31
0.0
  0
LINE
  5
6031
330
5C00
100
AcDbEntity
  8
寸法
  6
Continuous
 62
     4
100
AcDbLine
 10
4085.889849806799
 20
983.0215790574273
 30
0.0
 11
4127.889849806799
 21
983.0215790574273
 31
0.0
  0
LINE
  5
6032
330
5C00
100
AcDbEntity
  8
寸法
  6
Continuous
 62
     4
100
AcDbLine
 10
4127.889849806799
 20
988.5215790574273
 30
0.0
 11
4127.889849806799
 21
989.5215790574273
 31
0.0
  0
LINE
  5
6033
330
5C00
100
AcDbEntity
  8
寸法
  6
Continuous
 62
     4
100
AcDbLine
 10
4127.889849806799
 20
982.0215790574273
 30
0.0
 11
4127.889849806799
 21
981.0215790574273
 31
0.0
  0
INSERT
  5
6034
330
5C00
100
AcDbEntity
  8
寸法
  6
Continuous
 62
     4
100
AcDbBlockReference
  2
_Dot
 10
4127.889849806799
 20
987.5215790574273
 30
0.0
 50
270.0
  0
INSERT
  5
6035
330
5C00
100
AcDbEntity
  8
寸法
  6
Continuous
 62
     4
100
AcDbBlockReference
  2
_Dot
 10
4127.889849806799
 20
983.0215790574273
 30
0.0
 50
90.0
  0
MTEXT
  5
6036
330
5C00
100
AcDbEntity
  8
寸法
  6
Continuous
 62
     3
100
AcDbMText
 10
4124.589849806799
 20
985.2715790574279
 30
0.0
 40
5.0
 41
0.0
 71
     5
 72
     5
  1
\A1;30
  7
ACAD
 11
0.0000000000000001
 21
1.0
 31
0.0
 73
     1
 44
1.0
  0
POINT
  5
6037
330
5C00
100
AcDbEntity
  8
Defpoints
  6
Continuous
 62
     0
100
AcDbPoint
 10
4085.139849806799
 20
987.5215790574273
 30
0.0
  0
POINT
  5
6038
330
5C00
100
AcDbEntity
  8
Defpoints
  6
Continuous
 62
     0
100
AcDbPoint
 10
4085.889849806799
 20
983.0215790574273
 30
0.0
  0
POINT
  5
6039
330
5C00
100
AcDbEntity
  8
Defpoints
  6
Continuous
 62
     0
100
AcDbPoint
 10
4127.889849806799
 20
983.0215790574273
 30
0.0
  0
ENDBLK
  5
5C0C
330
5C00
100
AcDbEntity
  8
0
100
AcDbBlockEnd
  0
BLOCK
  5
5C16
330
5C0D
100
AcDbEntity
  8
0
100
AcDbBlockBegin
  2
*D36
 70
     1
 10
0.0
 20
0.0
 30
0.0
  3
*D36
  1

  0
LINE
  5
603A
330
5C0D
100
AcDbEntity
  8
寸法
  6
Continuous
 62
     4
100
AcDbLine
 10
4085.139849806799
 20
842.7715790574273
 30
0.0
 11
4127.889849806799
 21
842.7715790574273
 31
0.0
  0
LINE
  5
603B
330
5C0D
100
AcDbEntity
  8
寸法
  6
Continuous
 62
     4
100
AcDbLine
 10
4127.889849806799
 20
841.7715790574273
 30
0.0
 11
4127.889849806799
 21
830.2715790574273
 31
0.0
  0
INSERT
  5
603C
330
5C0D
100
AcDbEntity
  8
寸法
  6
Continuous
 62
     4
100
AcDbBlockReference
  2
_Dot
 10
4127.889849806799
 20
842.7715790574273
 30
0.0
 50
90.0
  0
INSERT
  5
603D
330
5C0D
100
AcDbEntity
  8
寸法
  6
Continuous
 62
     4
100
AcDbBlockReference
  2
_Dot
 10
4127.889849806799
 20
829.2715790574273
 30
0.0
 50
270.0
  0
MTEXT
  5
603E
330
5C0D
100
AcDbEntity
  8
寸法
  6
Continuous
 62
     3
100
AcDbMText
 10
4124.589849806799
 20
836.0215790574279
 30
0.0
 40
5.0
 41
0.0
 71
     5
 72
     5
  1
\A1;90
  7
ACAD
 11
0.0000000000000001
 21
1.0
 31
0.0
 73
     1
 44
1.0
  0
POINT
  5
603F
330
5C0D
100
AcDbEntity
  8
Defpoints
  6
Continuous
 62
     0
100
AcDbPoint
 10
4085.139849806799
 20
842.7715790574273
 30
0.0
  0
POINT
  5
6040
330
5C0D
100
AcDbEntity
  8
Defpoints
  6
Continuous
 62
     0
100
AcDbPoint
 10
4127.889849806799
 20
829.2715790574273
 30
0.0
  0
POINT
  5
6041
330
5C0D
100
AcDbEntity
  8
Defpoints
  6
Continuous
 62
     0
100
AcDbPoint
 10
4127.889849806799
 20
829.2715790574273
 30
0.0
  0
ENDBLK
  5
5C17
330
5C0D
100
AcDbEntity
  8
0
100
AcDbBlockEnd
  0
BLOCK
  5
5C22
330
5C18
100
AcDbEntity
  8
0
100
AcDbBlockBegin
  2
*D37
 70
     1
 10
0.0
 20
0.0
 30
0.0
  3
*D37
  1

  0
LINE
  5
605A
330
5C18
100
AcDbEntity
  8
躯体と製品
  6
Continuous
 62
     4
370
    -2
100
AcDbLine
 10
3765.889851806799
 20
570.3315909830077
 30
0.0
 11
3765.889851806799
 21
599.271581057427
 31
0.0
  0
LINE
  5
605B
330
5C18
100
AcDbEntity
  8
躯体と製品
  6
Continuous
 62
     4
370
    -2
100
AcDbLine
 10
3785.889849806798
 20
552.771581057427
 30
0.0
 11
3785.889849806798
 21
599.271581057427
 31
0.0
  0
LINE
  5
605C
330
5C18
100
AcDbEntity
  8
躯体と製品
  6
Continuous
 62
     4
370
    -2
100
AcDbLine
 10
3766.8898518068
 20
599.271581057427
 30
0.0
 11
3784.889849806798
 21
599.271581057427
 31
0.0
  0
INSERT
  5
605D
330
5C18
100
AcDbEntity
  8
躯体と製品
  6
Continuous
 62
     4
370
    -2
100
AcDbBlockReference
  2
_Dot
 10
3765.889851806799
 20
599.271581057427
 30
0.0
 50
180.0
  0
INSERT
  5
605E
330
5C18
100
AcDbEntity
  8
躯体と製品
  6
Continuous
 62
     4
370
    -2
100
AcDbBlockReference
  2
_Dot
 10
3785.889849806798
 20
599.271581057427
 30
0.0
  0
MTEXT
  5
605F
330
5C18
100
AcDbEntity
  8
躯体と製品
  6
Continuous
 62
     3
100
AcDbMText
 10
3775.889850806799
 20
602.5715810574269
 30
0.0
 40
5.0
 41
0.0
 71
     5
 72
     1
  1
\A1;20
  7
ACAD
 73
     1
 44
1.0
  0
POINT
  5
6060
330
5C18
100
AcDbEntity
  8
Defpoints
  6
Continuous
 62
     0
100
AcDbPoint
 10
3765.889851806799
 20
570.3315909830077
 30
0.0
  0
POINT
  5
6061
330
5C18
100
AcDbEntity
  8
Defpoints
  6
Continuous
 62
     0
100
AcDbPoint
 10
3785.889849806798
 20
552.771581057427
 30
0.0
  0
POINT
  5
6062
330
5C18
100
AcDbEntity
  8
Defpoints
  6
Continuous
 62
     0
100
AcDbPoint
 10
3785.889849806798
 20
599.271581057427
 30
0.0
  0
ENDBLK
  5
5C23
330
5C18
100
AcDbEntity
  8
0
100
AcDbBlockEnd
  0
BLOCK
  5
5C2E
330
5C24
100
AcDbEntity
  8
0
100
AcDbBlockBegin
  2
*D38
 70
     1
 10
0.0
 20
0.0
 30
0.0
  3
*D38
  1

  0
LINE
  5
604B
330
5C24
100
AcDbEntity
  8
寸法
  6
Continuous
 62
     4
100
AcDbLine
 10
4155.889851806799
 20
570.2715800574272
 30
0.0
 11
4155.889851806799
 21
599.271581057427
 31
0.0
  0
LINE
  5
604C
330
5C24
100
AcDbEntity
  8
寸法
  6
Continuous
 62
     4
100
AcDbLine
 10
4205.8898498068
 20
570.2715800574272
 30
0.0
 11
4205.8898498068
 21
599.271581057427
 31
0.0
  0
LINE
  5
604D
330
5C24
100
AcDbEntity
  8
寸法
  6
Continuous
 62
     4
100
AcDbLine
 10
4156.889851806798
 20
599.271581057427
 30
0.0
 11
4204.889849806799
 21
599.271581057427
 31
0.0
  0
INSERT
  5
604E
330
5C24
100
AcDbEntity
  8
寸法
  6
Continuous
 62
     4
100
AcDbBlockReference
  2
_Dot
 10
4155.889851806799
 20
599.271581057427
 30
0.0
 50
180.0
  0
INSERT
  5
604F
330
5C24
100
AcDbEntity
  8
寸法
  6
Continuous
 62
     4
100
AcDbBlockReference
  2
_Dot
 10
4205.8898498068
 20
599.271581057427
 30
0.0
  0
MTEXT
  5
6050
330
5C24
100
AcDbEntity
  8
寸法
  6
Continuous
 62
     3
100
AcDbMText
 10
4180.889850806799
 20
602.5715810574269
 30
0.0
 40
5.0
 41
0.0
 71
     5
 72
     5
  1
\A1;50
  7
ACAD
 73
     1
 44
1.0
  0
POINT
  5
6051
330
5C24
100
AcDbEntity
  8
Defpoints
  6
Continuous
 62
     0
100
AcDbPoint
 10
4155.889851806799
 20
570.2715800574272
 30
0.0
  0
POINT
  5
6052
330
5C24
100
AcDbEntity
  8
Defpoints
  6
Continuous
 62
     0
100
AcDbPoint
 10
4205.8898498068
 20
570.2715800574272
 30
0.0
  0
POINT
  5
6053
330
5C24
100
AcDbEntity
  8
Defpoints
  6
Continuous
 62
     0
100
AcDbPoint
 10
4205.8898498068
 20
599.271581057427
 30
0.0
  0
ENDBLK
  5
5C2F
330
5C24
100
AcDbEntity
  8
0
100
AcDbBlockEnd
  0
BLOCK
  5
5C3A
330
5C30
100
AcDbEntity
  8
0
100
AcDbBlockBegin
  2
*D39
 70
     1
 10
0.0
 20
0.0
 30
0.0
  3
*D39
  1

  0
LINE
  5
5D4C
330
5C30
100
AcDbEntity
  8
寸法
  6
Continuous
 62
     4
370
    -2
100
AcDbLine
 10
4136.889849806799
 20
1009.271579057427
 30
0.0
 11
4157.889849806799
 21
1009.271579057427
 31
0.0
  0
LINE
  5
5D4D
330
5C30
100
AcDbEntity
  8
寸法
  6
Continuous
 62
     4
370
    -2
100
AcDbLine
 10
4136.889849806799
 20
829.2715790574273
 30
0.0
 11
4157.889849806799
 21
829.2715790574273
 31
0.0
  0
LINE
  5
5D4E
330
5C30
100
AcDbEntity
  8
寸法
  6
Continuous
 62
     4
370
    -2
100
AcDbLine
 10
4157.889849806799
 20
1008.271579057427
 30
0.0
 11
4157.889849806799
 21
830.2715790574273
 31
0.0
  0
INSERT
  5
5D4F
330
5C30
100
AcDbEntity
  8
寸法
  6
Continuous
 62
     4
370
    -2
100
AcDbBlockReference
  2
_Dot
 10
4157.889849806799
 20
1009.271579057427
 30
0.0
 50
90.0
  0
INSERT
  5
5D50
330
5C30
100
AcDbEntity
  8
寸法
  6
Continuous
 62
     4
370
    -2
100
AcDbBlockReference
  2
_Dot
 10
4157.889849806799
 20
829.2715790574273
 30
0.0
 50
270.0
  0
MTEXT
  5
5D51
330
5C30
100
AcDbEntity
  8
寸法
  6
Continuous
 62
     3
100
AcDbMText
 10
4154.589849806799
 20
919.2715790574279
 30
0.0
 40
5.0
 41
0.0
 71
     5
 72
     5
  1
\A1;1200以下
  7
ACAD
 11
0.0000000000000001
 21
1.0
 31
0.0
 73
     1
 44
1.0
  0
POINT
  5
5D52
330
5C30
100
AcDbEntity
  8
Defpoints
  6
Continuous
 62
     0
100
AcDbPoint
 10
4136.889849806799
 20
1009.271579057427
 30
0.0
  0
POINT
  5
5D53
330
5C30
100
AcDbEntity
  8
Defpoints
  6
Continuous
 62
     0
100
AcDbPoint
 10
4136.889849806799
 20
829.2715790574273
 30
0.0
  0
POINT
  5
5D54
330
5C30
100
AcDbEntity
  8
Defpoints
  6
Continuous
 62
     0
100
AcDbPoint
 10
4157.889849806799
 20
829.2715790574273
 30
0.0
  0
ENDBLK
  5
5C3B
330
5C30
100
AcDbEntity
  8
0
100
AcDbBlockEnd
  0
BLOCK
  5
5C46
330
5C3C
100
AcDbEntity
  8
0
100
AcDbBlockBegin
  2
*D40
 70
     1
 10
0.0
 20
0.0
 30
0.0
  3
*D40
  1

  0
LINE
  5
5D55
330
5C3C
100
AcDbEntity
  8
寸法
  6
Continuous
 62
     4
370
    -2
100
AcDbLine
 10
3426.889851806799
 20
554.2715810574271
 30
0.0
 11
3405.889851806799
 21
554.2715810574271
 31
0.0
  0
LINE
  5
5D56
330
5C3C
100
AcDbEntity
  8
寸法
  6
Continuous
 62
     4
370
    -2
100
AcDbLine
 10
3426.889851806799
 20
1004.271581057426
 30
0.0
 11
3405.889851806799
 21
1004.271581057426
 31
0.0
  0
LINE
  5
5D57
330
5C3C
100
AcDbEntity
  8
寸法
  6
Continuous
 62
     4
370
    -2
100
AcDbLine
 10
3405.889851806799
 20
555.271581057427
 30
0.0
 11
3405.889851806799
 21
1003.271581057427
 31
0.0
  0
INSERT
  5
5D58
330
5C3C
100
AcDbEntity
  8
寸法
  6
Continuous
 62
     4
370
    -2
100
AcDbBlockReference
  2
_Dot
 10
3405.889851806799
 20
554.2715810574271
 30
0.0
 50
270.0
  0
INSERT
  5
5D59
330
5C3C
100
AcDbEntity
  8
寸法
  6
Continuous
 62
     4
370
    -2
100
AcDbBlockReference
  2
_Dot
 10
3405.889851806799
 20
1004.271581057426
 30
0.0
 50
90.0
  0
MTEXT
  5
5D5A
330
5C3C
100
AcDbEntity
  8
寸法
  6
Continuous
 62
     3
100
AcDbMText
 10
3402.589851806799
 20
779.2715810574276
 30
0.0
 40
5.0
 41
0.0
 71
     5
 72
     5
  1
\A1;1200以下
  7
ACAD
 11
0.0000000000000001
 21
1.0
 31
0.0
 73
     1
 44
1.0
  0
POINT
  5
5D5B
330
5C3C
100
AcDbEntity
  8
Defpoints
  6
Continuous
 62
     0
100
AcDbPoint
 10
3426.889851806799
 20
554.2715810574271
 30
0.0
  0
POINT
  5
5D5C
330
5C3C
100
AcDbEntity
  8
Defpoints
  6
Continuous
 62
     0
100
AcDbPoint
 10
3426.889851806799
 20
1004.271581057426
 30
0.0
  0
POINT
  5
5D5D
330
5C3C
100
AcDbEntity
  8
Defpoints
  6
Continuous
 62
     0
100
AcDbPoint
 10
3405.889851806799
 20
1004.271581057426
 30
0.0
  0
ENDBLK
  5
5C47
330
5C3C
100
AcDbEntity
  8
0
100
AcDbBlockEnd
  0
BLOCK
  5
5C52
330
5C48
100
AcDbEntity
  8
0
100
AcDbBlockBegin
  2
*D41
 70
     1
 10
0.0
 20
0.0
 30
0.0
  3
*D41
  1

  0
LINE
  5
5D5E
330
5C48
100
AcDbEntity
  8
寸法
  6
Continuous
 62
     4
370
    -2
100
AcDbLine
 10
3740.889849806799
 20
506.987885057427
 30
0.0
 11
3740.889849806799
 21
459.2715800574271
 31
0.0
  0
LINE
  5
5D5F
330
5C48
100
AcDbEntity
  8
寸法
  6
Continuous
 62
     4
370
    -2
100
AcDbLine
 10
4180.889850806799
 20
506.987885057427
 30
0.0
 11
4180.889850806799
 21
459.2715800574271
 31
0.0
  0
LINE
  5
5D60
330
5C48
100
AcDbEntity
  8
寸法
  6
Continuous
 62
     4
370
    -2
100
AcDbLine
 10
3741.889849806799
 20
459.2715800574271
 30
0.0
 11
4179.8898508068
 21
459.2715800574271
 31
0.0
  0
INSERT
  5
5D61
330
5C48
100
AcDbEntity
  8
寸法
  6
Continuous
 62
     4
370
    -2
100
AcDbBlockReference
  2
_Dot
 10
3740.889849806799
 20
459.2715800574271
 30
0.0
 50
180.0
  0
INSERT
  5
5D62
330
5C48
100
AcDbEntity
  8
寸法
  6
Continuous
 62
     4
370
    -2
100
AcDbBlockReference
  2
_Dot
 10
4180.889850806799
 20
459.2715800574271
 30
0.0
  0
MTEXT
  5
5D63
330
5C48
100
AcDbEntity
  8
寸法
  6
Continuous
 62
     3
100
AcDbMText
 10
3960.889850306799
 20
462.5715800574272
 30
0.0
 40
5.0
 41
0.0
 71
     5
 72
     5
  1
\A1;1500以下
  7
ACAD
 73
     1
 44
1.0
  0
POINT
  5
5D64
330
5C48
100
AcDbEntity
  8
Defpoints
  6
Continuous
 62
     0
100
AcDbPoint
 10
3740.889849806799
 20
506.987885057427
 30
0.0
  0
POINT
  5
5D65
330
5C48
100
AcDbEntity
  8
Defpoints
  6
Continuous
 62
     0
100
AcDbPoint
 10
4180.889850806799
 20
506.987885057427
 30
0.0
  0
POINT
  5
5D66
330
5C48
100
AcDbEntity
  8
Defpoints
  6
Continuous
 62
     0
100
AcDbPoint
 10
4180.889850806799
 20
459.2715800574271
 30
0.0
  0
ENDBLK
  5
5C53
330
5C48
100
AcDbEntity
  8
0
100
AcDbBlockEnd
  0
BLOCK
  5
5C5E
330
5C54
100
AcDbEntity
  8
0
100
AcDbBlockBegin
  2
*D42
 70
     1
 10
0.0
 20
0.0
 30
0.0
  3
*D42
  1

  0
LINE
  5
5D67
330
5C54
100
AcDbEntity
  8
寸法
  6
Continuous
 62
     4
370
    -2
100
AcDbLine
 10
3682.889850806799
 20
559.2715790574272
 30
0.0
 11
3665.889849806799
 21
559.2715790574272
 31
0.0
  0
LINE
  5
5D68
330
5C54
100
AcDbEntity
  8
寸法
  6
Continuous
 62
     4
370
    -2
100
AcDbLine
 10
3682.889850806799
 20
529.2715790574272
 30
0.0
 11
3665.889849806799
 21
529.2715790574272
 31
0.0
  0
LINE
  5
5D69
330
5C54
100
AcDbEntity
  8
寸法
  6
Continuous
 62
     4
370
    -2
100
AcDbLine
 10
3665.889849806799
 20
558.2715790574273
 30
0.0
 11
3665.889849806799
 21
530.2715790574272
 31
0.0
  0
INSERT
  5
5D6A
330
5C54
100
AcDbEntity
  8
寸法
  6
Continuous
 62
     4
370
    -2
100
AcDbBlockReference
  2
_Dot
 10
3665.889849806799
 20
559.2715790574272
 30
0.0
 50
90.0
  0
INSERT
  5
5D6B
330
5C54
100
AcDbEntity
  8
寸法
  6
Continuous
 62
     4
370
    -2
100
AcDbBlockReference
  2
_Dot
 10
3665.889849806799
 20
529.2715790574272
 30
0.0
 50
270.0
  0
MTEXT
  5
5D6C
330
5C54
100
AcDbEntity
  8
寸法
  6
Continuous
 62
     3
100
AcDbMText
 10
3662.589849806799
 20
544.2715790574278
 30
0.0
 40
5.0
 41
0.0
 71
     5
 72
     5
  1
\A1;30
  7
ACAD
 11
0.0000000000000001
 21
1.0
 31
0.0
 73
     1
 44
1.0
  0
POINT
  5
5D6D
330
5C54
100
AcDbEntity
  8
Defpoints
  6
Continuous
 62
     0
100
AcDbPoint
 10
3682.889850806799
 20
559.2715790574272
 30
0.0
  0
POINT
  5
5D6E
330
5C54
100
AcDbEntity
  8
Defpoints
  6
Continuous
 62
     0
100
AcDbPoint
 10
3682.889850806799
 20
529.2715790574272
 30
0.0
  0
POINT
  5
5D6F
330
5C54
100
AcDbEntity
  8
Defpoints
  6
Continuous
 62
     0
100
AcDbPoint
 10
3665.889849806799
 20
529.2715790574272
 30
0.0
  0
ENDBLK
  5
5C5F
330
5C54
100
AcDbEntity
  8
0
100
AcDbBlockEnd
  0
BLOCK
  5
5C6A
330
5C60
100
AcDbEntity
  8
0
100
AcDbBlockBegin
  2
*D43
 70
     1
 10
0.0
 20
0.0
 30
0.0
  3
*D43
  1

  0
LINE
  5
5D70
330
5C60
100
AcDbEntity
  8
寸法
  6
Continuous
 62
     4
370
    -2
100
AcDbLine
 10
3507.639849806798
 20
830.7715790574272
 30
0.0
 11
3465.889851806799
 21
830.7715790574272
 31
0.0
  0
LINE
  5
5D71
330
5C60
100
AcDbEntity
  8
寸法
  6
Continuous
 62
     4
370
    -2
100
AcDbLine
 10
3512.389851806799
 20
810.7715810574271
 30
0.0
 11
3465.889851806799
 21
810.7715810574271
 31
0.0
  0
LINE
  5
5D72
330
5C60
100
AcDbEntity
  8
寸法
  6
Continuous
 62
     4
370
    -2
100
AcDbLine
 10
3465.889851806799
 20
829.7715790574272
 30
0.0
 11
3465.889851806799
 21
811.7715810574271
 31
0.0
  0
INSERT
  5
5D73
330
5C60
100
AcDbEntity
  8
寸法
  6
Continuous
 62
     4
370
    -2
100
AcDbBlockReference
  2
_Dot
 10
3465.889851806799
 20
830.7715790574272
 30
0.0
 50
90.0
  0
INSERT
  5
5D74
330
5C60
100
AcDbEntity
  8
寸法
  6
Continuous
 62
     4
370
    -2
100
AcDbBlockReference
  2
_Dot
 10
3465.889851806799
 20
810.7715810574271
 30
0.0
 50
270.0
  0
MTEXT
  5
5D75
330
5C60
100
AcDbEntity
  8
寸法
  6
Continuous
 62
     3
100
AcDbMText
 10
3462.589851806799
 20
820.7715800574277
 30
0.0
 40
5.0
 41
0.0
 71
     5
 72
     5
  1
\A1;20
  7
ACAD
 11
0.0000000000000001
 21
1.0
 31
0.0
 73
     1
 44
1.0
  0
POINT
  5
5D76
330
5C60
100
AcDbEntity
  8
Defpoints
  6
Continuous
 62
     0
100
AcDbPoint
 10
3507.639849806798
 20
830.7715790574272
 30
0.0
  0
POINT
  5
5D77
330
5C60
100
AcDbEntity
  8
Defpoints
  6
Continuous
 62
     0
100
AcDbPoint
 10
3512.389851806799
 20
810.7715810574271
 30
0.0
  0
POINT
  5
5D78
330
5C60
100
AcDbEntity
  8
Defpoints
  6
Continuous
 62
     0
100
AcDbPoint
 10
3465.889851806799
 20
810.7715810574271
 30
0.0
  0
ENDBLK
  5
5C6B
330
5C60
100
AcDbEntity
  8
0
100
AcDbBlockEnd
  0
BLOCK
  5
5C76
330
5C6C
100
AcDbEntity
  8
0
100
AcDbBlockBegin
  2
*D44
 70
     1
 10
0.0
 20
0.0
 30
0.0
  3
*D44
  1

  0
LINE
  5
5D79
330
5C6C
100
AcDbEntity
  8
寸法
  6
Continuous
 62
     4
370
    -2
100
AcDbLine
 10
3512.389851806799
 20
689.271581057427
 30
0.0
 11
3435.889851806799
 21
689.271581057427
 31
0.0
  0
LINE
  5
5D7A
330
5C6C
100
AcDbEntity
  8
寸法
  6
Continuous
 62
     4
370
    -2
100
AcDbLine
 10
3499.8758738068
 20
669.2715800574271
 30
0.0
 11
3435.889851806799
 21
669.2715800574271
 31
0.0
  0
LINE
  5
5D7B
330
5C6C
100
AcDbEntity
  8
寸法
  6
Continuous
 62
     4
370
    -2
100
AcDbLine
 10
3435.889851806799
 20
688.271581057427
 30
0.0
 11
3435.889851806799
 21
670.2715800574272
 31
0.0
  0
INSERT
  5
5D7C
330
5C6C
100
AcDbEntity
  8
寸法
  6
Continuous
 62
     4
370
    -2
100
AcDbBlockReference
  2
_Dot
 10
3435.889851806799
 20
689.271581057427
 30
0.0
 50
90.0
  0
INSERT
  5
5D7D
330
5C6C
100
AcDbEntity
  8
寸法
  6
Continuous
 62
     4
370
    -2
100
AcDbBlockReference
  2
_Dot
 10
3435.889851806799
 20
669.2715800574271
 30
0.0
 50
270.0
  0
MTEXT
  5
5D7E
330
5C6C
100
AcDbEntity
  8
寸法
  6
Continuous
 62
     3
100
AcDbMText
 10
3432.589851806799
 20
679.2715805574276
 30
0.0
 40
5.0
 41
0.0
 71
     5
 72
     5
  1
\A1;20
  7
ACAD
 11
0.0000000000000001
 21
1.0
 31
0.0
 73
     1
 44
1.0
  0
POINT
  5
5D7F
330
5C6C
100
AcDbEntity
  8
Defpoints
  6
Continuous
 62
     0
100
AcDbPoint
 10
3512.389851806799
 20
689.271581057427
 30
0.0
  0
POINT
  5
5D80
330
5C6C
100
AcDbEntity
  8
Defpoints
  6
Continuous
 62
     0
100
AcDbPoint
 10
3499.8758738068
 20
669.2715800574271
 30
0.0
  0
POINT
  5
5D81
330
5C6C
100
AcDbEntity
  8
Defpoints
  6
Continuous
 62
     0
100
AcDbPoint
 10
3435.889851806799
 20
669.2715800574271
 30
0.0
  0
ENDBLK
  5
5C77
330
5C6C
100
AcDbEntity
  8
0
100
AcDbBlockEnd
  0
BLOCK
  5
5C82
330
5C78
100
AcDbEntity
  8
0
100
AcDbBlockBegin
  2
*D45
 70
     1
 10
0.0
 20
0.0
 30
0.0
  3
*D45
  1

  0
LINE
  5
5D82
330
5C78
100
AcDbEntity
  8
寸法
  6
Continuous
 62
     4
370
    -2
100
AcDbLine
 10
3715.889850806799
 20
518.271581057427
 30
0.0
 11
3715.889850806799
 21
489.2715800574271
 31
0.0
  0
LINE
  5
5D83
330
5C78
100
AcDbEntity
  8
寸法
  6
Continuous
 62
     4
370
    -2
100
AcDbLine
 10
3765.889851806799
 20
518.271581057427
 30
0.0
 11
3765.889851806799
 21
489.2715800574271
 31
0.0
  0
LINE
  5
5D84
330
5C78
100
AcDbEntity
  8
寸法
  6
Continuous
 62
     4
370
    -2
100
AcDbLine
 10
3716.889850806799
 20
489.2715800574271
 30
0.0
 11
3764.889851806799
 21
489.2715800574271
 31
0.0
  0
INSERT
  5
5D85
330
5C78
100
AcDbEntity
  8
寸法
  6
Continuous
 62
     4
370
    -2
100
AcDbBlockReference
  2
_Dot
 10
3715.889850806799
 20
489.2715800574271
 30
0.0
 50
180.0
  0
INSERT
  5
5D86
330
5C78
100
AcDbEntity
  8
寸法
  6
Continuous
 62
     4
370
    -2
100
AcDbBlockReference
  2
_Dot
 10
3765.889851806799
 20
489.2715800574271
 30
0.0
  0
MTEXT
  5
5D87
330
5C78
100
AcDbEntity
  8
寸法
  6
Continuous
 62
     3
100
AcDbMText
 10
3740.889851306799
 20
492.5715800574272
 30
0.0
 40
5.0
 41
0.0
 71
     5
 72
     5
  1
\A1;50
  7
ACAD
 73
     1
 44
1.0
  0
POINT
  5
5D88
330
5C78
100
AcDbEntity
  8
Defpoints
  6
Continuous
 62
     0
100
AcDbPoint
 10
3715.889850806799
 20
518.271581057427
 30
0.0
  0
POINT
  5
5D89
330
5C78
100
AcDbEntity
  8
Defpoints
  6
Continuous
 62
     0
100
AcDbPoint
 10
3765.889851806799
 20
518.271581057427
 30
0.0
  0
POINT
  5
5D8A
330
5C78
100
AcDbEntity
  8
Defpoints
  6
Continuous
 62
     0
100
AcDbPoint
 10
3765.889851806799
 20
489.2715800574271
 30
0.0
  0
ENDBLK
  5
5C83
330
5C78
100
AcDbEntity
  8
0
100
AcDbBlockEnd
  0
BLOCK
  5
5C8E
330
5C84
100
AcDbEntity
  8
0
100
AcDbBlockBegin
  2
*D46
 70
     1
 10
0.0
 20
0.0
 30
0.0
  3
*D46
  1

  0
LINE
  5
5D8B
330
5C84
100
AcDbEntity
  8
寸法
  6
Continuous
 62
     4
370
    -2
100
AcDbLine
 10
3715.889850806799
 20
570.3315909830077
 30
0.0
 11
3715.889850806799
 21
599.271581057427
 31
0.0
  0
LINE
  5
5D8C
330
5C84
100
AcDbEntity
  8
寸法
  6
Continuous
 62
     4
370
    -2
100
AcDbLine
 10
3765.889851806799
 20
570.3315909830077
 30
0.0
 11
3765.889851806799
 21
599.271581057427
 31
0.0
  0
LINE
  5
5D8D
330
5C84
100
AcDbEntity
  8
寸法
  6
Continuous
 62
     4
370
    -2
100
AcDbLine
 10
3716.889850806799
 20
599.271581057427
 30
0.0
 11
3764.889851806799
 21
599.271581057427
 31
0.0
  0
INSERT
  5
5D8E
330
5C84
100
AcDbEntity
  8
寸法
  6
Continuous
 62
     4
370
    -2
100
AcDbBlockReference
  2
_Dot
 10
3715.889850806799
 20
599.271581057427
 30
0.0
 50
180.0
  0
INSERT
  5
5D8F
330
5C84
100
AcDbEntity
  8
寸法
  6
Continuous
 62
     4
370
    -2
100
AcDbBlockReference
  2
_Dot
 10
3765.889851806799
 20
599.271581057427
 30
0.0
  0
MTEXT
  5
5D90
330
5C84
100
AcDbEntity
  8
寸法
  6
Continuous
 62
     3
100
AcDbMText
 10
3740.889851306799
 20
602.5715810574269
 30
0.0
 40
5.0
 41
0.0
 71
     5
 72
     5
  1
\A1;50
  7
ACAD
 73
     1
 44
1.0
  0
POINT
  5
5D91
330
5C84
100
AcDbEntity
  8
Defpoints
  6
Continuous
 62
     0
100
AcDbPoint
 10
3715.889850806799
 20
570.3315909830077
 30
0.0
  0
POINT
  5
5D92
330
5C84
100
AcDbEntity
  8
Defpoints
  6
Continuous
 62
     0
100
AcDbPoint
 10
3765.889851806799
 20
570.3315909830077
 30
0.0
  0
POINT
  5
5D93
330
5C84
100
AcDbEntity
  8
Defpoints
  6
Continuous
 62
     0
100
AcDbPoint
 10
3765.889851806799
 20
599.271581057427
 30
0.0
  0
ENDBLK
  5
5C8F
330
5C84
100
AcDbEntity
  8
0
100
AcDbBlockEnd
  0
BLOCK
  5
5C99
330
5C90
100
AcDbEntity
  8
0
100
AcDbBlockBegin
  2
*D47
 70
     1
 10
0.0
 20
0.0
 30
0.0
  3
*D47
  1

  0
LINE
  5
5D94
330
5C90
100
AcDbEntity
  8
寸法
  6
Continuous
 62
     4
370
    -2
100
AcDbLine
 10
3960.889851806799
 20
524.271581057427
 30
0.0
 11
3961.389851306799
 21
524.271581057427
 31
0.0
  0
LINE
  5
5D95
330
5C90
100
AcDbEntity
  8
寸法
  6
Continuous
 62
     4
370
    -2
100
AcDbLine
 10
3961.389851306799
 20
563.2715800574271
 30
0.0
 11
3961.389851306799
 21
525.2715810574271
 31
0.0
  0
INSERT
  5
5D96
330
5C90
100
AcDbEntity
  8
寸法
  6
Continuous
 62
     4
370
    -2
100
AcDbBlockReference
  2
_Dot
 10
3961.389851306799
 20
564.2715800574271
 30
0.0
 50
90.0
  0
INSERT
  5
5D97
330
5C90
100
AcDbEntity
  8
寸法
  6
Continuous
 62
     4
370
    -2
100
AcDbBlockReference
  2
_Dot
 10
3961.389851306799
 20
524.271581057427
 30
0.0
 50
270.0
  0
MTEXT
  5
5D98
330
5C90
100
AcDbEntity
  8
寸法
  6
Continuous
 62
     3
100
AcDbMText
 10
3958.089851306799
 20
544.2715805574278
 30
0.0
 40
5.0
 41
0.0
 71
     5
 72
     5
  1
\A1;40
  7
ACAD
 11
0.0000000000000001
 21
1.0
 31
0.0
 73
     1
 44
1.0
  0
POINT
  5
5D99
330
5C90
100
AcDbEntity
  8
Defpoints
  6
Continuous
 62
     0
100
AcDbPoint
 10
3961.389851306799
 20
564.2715800574271
 30
0.0
  0
POINT
  5
5D9A
330
5C90
100
AcDbEntity
  8
Defpoints
  6
Continuous
 62
     0
100
AcDbPoint
 10
3960.889851806799
 20
524.271581057427
 30
0.0
  0
POINT
  5
5D9B
330
5C90
100
AcDbEntity
  8
Defpoints
  6
Continuous
 62
     0
100
AcDbPoint
 10
3961.389851306799
 20
524.271581057427
 30
0.0
  0
ENDBLK
  5
5C9A
330
5C90
100
AcDbEntity
  8
0
100
AcDbBlockEnd
  0
BLOCK
  5
5CA5
330
5C9B
100
AcDbEntity
  8
0
100
AcDbBlockBegin
  2
*D48
 70
     1
 10
0.0
 20
0.0
 30
0.0
  3
*D48
  1

  0
LINE
  5
5D9C
330
5C9B
100
AcDbEntity
  8
寸法
  6
Continuous
 62
     4
370
    -2
100
AcDbLine
 10
4206.889851806798
 20
569.271581057427
 30
0.0
 11
4265.889849806799
 21
569.271581057427
 31
0.0
  0
LINE
  5
5D9D
330
5C9B
100
AcDbEntity
  8
寸法
  6
Continuous
 62
     4
370
    -2
100
AcDbLine
 10
4206.889851806798
 20
519.2715800574271
 30
0.0
 11
4265.889849806799
 21
519.2715800574271
 31
0.0
  0
LINE
  5
5D9E
330
5C9B
100
AcDbEntity
  8
寸法
  6
Continuous
 62
     4
370
    -2
100
AcDbLine
 10
4265.889849806799
 20
568.271581057427
 30
0.0
 11
4265.889849806799
 21
520.2715800574272
 31
0.0
  0
INSERT
  5
5D9F
330
5C9B
100
AcDbEntity
  8
寸法
  6
Continuous
 62
     4
370
    -2
100
AcDbBlockReference
  2
_Dot
 10
4265.889849806799
 20
569.271581057427
 30
0.0
 50
90.0
  0
INSERT
  5
5DA0
330
5C9B
100
AcDbEntity
  8
寸法
  6
Continuous
 62
     4
370
    -2
100
AcDbBlockReference
  2
_Dot
 10
4265.889849806799
 20
519.2715800574271
 30
0.0
 50
270.0
  0
MTEXT
  5
5DA1
330
5C9B
100
AcDbEntity
  8
寸法
  6
Continuous
 62
     3
100
AcDbMText
 10
4262.589849806799
 20
544.2715805574278
 30
0.0
 40
5.0
 41
0.0
 71
     5
 72
     5
  1
\A1;50
  7
ACAD
 11
0.0000000000000001
 21
1.0
 31
0.0
 73
     1
 44
1.0
  0
POINT
  5
5DA2
330
5C9B
100
AcDbEntity
  8
Defpoints
  6
Continuous
 62
     0
100
AcDbPoint
 10
4206.889851806798
 20
569.271581057427
 30
0.0
  0
POINT
  5
5DA3
330
5C9B
100
AcDbEntity
  8
Defpoints
  6
Continuous
 62
     0
100
AcDbPoint
 10
4206.889851806798
 20
519.2715800574271
 30
0.0
  0
POINT
  5
5DA4
330
5C9B
100
AcDbEntity
  8
Defpoints
  6
Continuous
 62
     0
100
AcDbPoint
 10
4265.889849806799
 20
519.2715800574271
 30
0.0
  0
ENDBLK
  5
5CA6
330
5C9B
100
AcDbEntity
  8
0
100
AcDbBlockEnd
  0
BLOCK
  5
5CB1
330
5CA7
100
AcDbEntity
  8
0
100
AcDbBlockBegin
  2
*D49
 70
     1
 10
0.0
 20
0.0
 30
0.0
  3
*D49
  1

  0
LINE
  5
5DA5
330
5CA7
100
AcDbEntity
  8
寸法
  6
Continuous
 62
     4
370
    -2
100
AcDbLine
 10
4135.889850806799
 20
552.771581057427
 30
0.0
 11
4135.889850806799
 21
599.271581057427
 31
0.0
  0
LINE
  5
5DA6
330
5CA7
100
AcDbEntity
  8
寸法
  6
Continuous
 62
     4
370
    -2
100
AcDbLine
 10
4155.889851806799
 20
570.2715800574272
 30
0.0
 11
4155.889851806799
 21
599.271581057427
 31
0.0
  0
LINE
  5
5DA7
330
5CA7
100
AcDbEntity
  8
寸法
  6
Continuous
 62
     4
370
    -2
100
AcDbLine
 10
4136.8898508068
 20
599.271581057427
 30
0.0
 11
4154.889851806799
 21
599.271581057427
 31
0.0
  0
INSERT
  5
5DA8
330
5CA7
100
AcDbEntity
  8
寸法
  6
Continuous
 62
     4
370
    -2
100
AcDbBlockReference
  2
_Dot
 10
4135.889850806799
 20
599.271581057427
 30
0.0
 50
180.0
  0
INSERT
  5
5DA9
330
5CA7
100
AcDbEntity
  8
寸法
  6
Continuous
 62
     4
370
    -2
100
AcDbBlockReference
  2
_Dot
 10
4155.889851806799
 20
599.271581057427
 30
0.0
  0
MTEXT
  5
5DAA
330
5CA7
100
AcDbEntity
  8
寸法
  6
Continuous
 62
     3
100
AcDbMText
 10
4145.8898513068
 20
602.5715810574269
 30
0.0
 40
5.0
 41
0.0
 71
     5
 72
     5
  1
\A1;20
  7
ACAD
 73
     1
 44
1.0
  0
POINT
  5
5DAB
330
5CA7
100
AcDbEntity
  8
Defpoints
  6
Continuous
 62
     0
100
AcDbPoint
 10
4135.889850806799
 20
552.771581057427
 30
0.0
  0
POINT
  5
5DAC
330
5CA7
100
AcDbEntity
  8
Defpoints
  6
Continuous
 62
     0
100
AcDbPoint
 10
4155.889851806799
 20
570.2715800574272
 30
0.0
  0
POINT
  5
5DAD
330
5CA7
100
AcDbEntity
  8
Defpoints
  6
Continuous
 62
     0
100
AcDbPoint
 10
4155.889851806799
 20
599.271581057427
 30
0.0
  0
ENDBLK
  5
5CB2
330
5CA7
100
AcDbEntity
  8
0
100
AcDbBlockEnd
  0
BLOCK
  5
5CBD
330
5CB3
100
AcDbEntity
  8
0
100
AcDbBlockBegin
  2
*D50
 70
     1
 10
0.0
 20
0.0
 30
0.0
  3
*D50
  1

  0
LINE
  5
5DAE
330
5CB3
100
AcDbEntity
  8
寸法
  6
Continuous
 62
     4
370
    -2
100
AcDbLine
 10
3860.889849806799
 20
1002.521579057427
 30
0.0
 11
3860.889849806799
 21
1069.271579057427
 31
0.0
  0
LINE
  5
5DAF
330
5CB3
100
AcDbEntity
  8
寸法
  6
Continuous
 62
     4
370
    -2
100
AcDbLine
 10
4085.889849806799
 20
1002.521579057427
 30
0.0
 11
4085.889849806799
 21
1069.271579057427
 31
0.0
  0
LINE
  5
5DB0
330
5CB3
100
AcDbEntity
  8
寸法
  6
Continuous
 62
     4
370
    -2
100
AcDbLine
 10
3861.889849806799
 20
1069.271579057427
 30
0.0
 11
4084.889849806799
 21
1069.271579057427
 31
0.0
  0
INSERT
  5
5DB1
330
5CB3
100
AcDbEntity
  8
寸法
  6
Continuous
 62
     4
370
    -2
100
AcDbBlockReference
  2
_Dot
 10
3860.889849806799
 20
1069.271579057427
 30
0.0
 50
180.0
  0
INSERT
  5
5DB2
330
5CB3
100
AcDbEntity
  8
寸法
  6
Continuous
 62
     4
370
    -2
100
AcDbBlockReference
  2
_Dot
 10
4085.889849806799
 20
1069.271579057427
 30
0.0
  0
MTEXT
  5
5DB3
330
5CB3
100
AcDbEntity
  8
寸法
  6
Continuous
 62
     3
100
AcDbMText
 10
3973.389849806799
 20
1072.571579057427
 30
0.0
 40
5.0
 41
0.0
 71
     5
 72
     5
  1
\A1;1500以下
  7
ACAD
 73
     1
 44
1.0
  0
POINT
  5
5DB4
330
5CB3
100
AcDbEntity
  8
Defpoints
  6
Continuous
 62
     0
100
AcDbPoint
 10
3860.889849806799
 20
1002.521579057427
 30
0.0
  0
POINT
  5
5DB5
330
5CB3
100
AcDbEntity
  8
Defpoints
  6
Continuous
 62
     0
100
AcDbPoint
 10
4085.889849806799
 20
1002.521579057427
 30
0.0
  0
POINT
  5
5DB6
330
5CB3
100
AcDbEntity
  8
Defpoints
  6
Continuous
 62
     0
100
AcDbPoint
 10
4085.889849806799
 20
1069.271579057427
 30
0.0
  0
ENDBLK
  5
5CBE
330
5CB3
100
AcDbEntity
  8
0
100
AcDbBlockEnd
  0
BLOCK
  5
5CC9
330
5CBF
100
AcDbEntity
  8
0
100
AcDbBlockBegin
  2
*D51
 70
     1
 10
0.0
 20
0.0
 30
0.0
  3
*D51
  1

  0
LINE
  5
5DB7
330
5CBF
100
AcDbEntity
  8
寸法
  6
Continuous
 62
     4
370
    -2
100
AcDbLine
 10
3517.889850806799
 20
1004.271581057426
 30
0.0
 11
3435.889851806799
 21
1004.271581057426
 31
0.0
  0
LINE
  5
5DB8
330
5CBF
100
AcDbEntity
  8
寸法
  6
Continuous
 62
     4
370
    -2
100
AcDbLine
 10
3491.036297709099
 20
959.4180249597272
 30
0.0
 11
3435.889851806799
 21
959.4180249597272
 31
0.0
  0
LINE
  5
5DB9
330
5CBF
100
AcDbEntity
  8
寸法
  6
Continuous
 62
     4
370
    -2
100
AcDbLine
 10
3435.889851806799
 20
1003.271581057427
 30
0.0
 11
3435.889851806799
 21
960.4180249597273
 31
0.0
  0
INSERT
  5
5DBA
330
5CBF
100
AcDbEntity
  8
寸法
  6
Continuous
 62
     4
370
    -2
100
AcDbBlockReference
  2
_Dot
 10
3435.889851806799
 20
1004.271581057426
 30
0.0
 50
90.0
  0
INSERT
  5
5DBB
330
5CBF
100
AcDbEntity
  8
寸法
  6
Continuous
 62
     4
370
    -2
100
AcDbBlockReference
  2
_Dot
 10
3435.889851806799
 20
959.4180249597272
 30
0.0
 50
270.0
  0
MTEXT
  5
5DBC
330
5CBF
100
AcDbEntity
  8
寸法
  6
Continuous
 62
     3
100
AcDbMText
 10
3432.589851806799
 20
981.8448030085777
 30
0.0
 40
5.0
 41
0.0
 71
     5
 72
     5
  1
\A1;45
  7
ACAD
 11
0.0000000000000001
 21
1.0
 31
0.0
 73
     1
 44
1.0
  0
POINT
  5
5DBD
330
5CBF
100
AcDbEntity
  8
Defpoints
  6
Continuous
 62
     0
100
AcDbPoint
 10
3517.889850806799
 20
1004.271581057426
 30
0.0
  0
POINT
  5
5DBE
330
5CBF
100
AcDbEntity
  8
Defpoints
  6
Continuous
 62
     0
100
AcDbPoint
 10
3491.036297709099
 20
959.4180249597272
 30
0.0
  0
POINT
  5
5DBF
330
5CBF
100
AcDbEntity
  8
Defpoints
  6
Continuous
 62
     0
100
AcDbPoint
 10
3435.889851806799
 20
959.4180249597272
 30
0.0
  0
ENDBLK
  5
5CCA
330
5CBF
100
AcDbEntity
  8
0
100
AcDbBlockEnd
  0
BLOCK
  5
5CD5
330
5CCB
100
AcDbEntity
  8
0
100
AcDbBlockBegin
  2
*D52
 70
     1
 10
0.0
 20
0.0
 30
0.0
  3
*D52
  1

  0
LINE
  5
5DC0
330
5CCB
100
AcDbEntity
  8
寸法
  6
Continuous
 62
     4
370
    -2
100
AcDbLine
 10
3490.889850806799
 20
999.2397260574268
 30
0.0
 11
3490.889850806799
 21
1034.287295057427
 31
0.0
  0
LINE
  5
5DC1
330
5CCB
100
AcDbEntity
  8
寸法
  6
Continuous
 62
     4
370
    -2
100
AcDbLine
 10
3550.889850806799
 20
999.2397260574268
 30
0.0
 11
3550.889850806799
 21
1034.287295057427
 31
0.0
  0
LINE
  5
5DC2
330
5CCB
100
AcDbEntity
  8
寸法
  6
Continuous
 62
     4
370
    -2
100
AcDbLine
 10
3491.889850806799
 20
1034.287295057427
 30
0.0
 11
3549.889850806799
 21
1034.287295057427
 31
0.0
  0
INSERT
  5
5DC3
330
5CCB
100
AcDbEntity
  8
寸法
  6
Continuous
 62
     4
370
    -2
100
AcDbBlockReference
  2
_Dot
 10
3490.889850806799
 20
1034.287295057427
 30
0.0
 50
180.0
  0
INSERT
  5
5DC4
330
5CCB
100
AcDbEntity
  8
寸法
  6
Continuous
 62
     4
370
    -2
100
AcDbBlockReference
  2
_Dot
 10
3550.889850806799
 20
1034.287295057427
 30
0.0
  0
MTEXT
  5
5DC5
330
5CCB
100
AcDbEntity
  8
寸法
  6
Continuous
 62
     3
100
AcDbMText
 10
3520.889850806799
 20
1037.587295057427
 30
0.0
 40
5.0
 41
0.0
 71
     5
 72
     5
  1
\A1;60
  7
ACAD
 73
     1
 44
1.0
  0
POINT
  5
5DC6
330
5CCB
100
AcDbEntity
  8
Defpoints
  6
Continuous
 62
     0
100
AcDbPoint
 10
3490.889850806799
 20
999.2397260574268
 30
0.0
  0
POINT
  5
5DC7
330
5CCB
100
AcDbEntity
  8
Defpoints
  6
Continuous
 62
     0
100
AcDbPoint
 10
3550.889850806799
 20
999.2397260574268
 30
0.0
  0
POINT
  5
5DC8
330
5CCB
100
AcDbEntity
  8
Defpoints
  6
Continuous
 62
     0
100
AcDbPoint
 10
3550.889850806799
 20
1034.287295057427
 30
0.0
  0
ENDBLK
  5
5CD6
330
5CCB
100
AcDbEntity
  8
0
100
AcDbBlockEnd
  0
BLOCK
  5
5CDF
330
5CD7
100
AcDbEntity
  8
0
100
AcDbBlockBegin
  2
*D53
 70
     1
 10
0.0
 20
0.0
 30
0.0
  3
*D53
  1

  0
LINE
  5
5DC9
330
5CD7
100
AcDbEntity
  8
寸法
  6
Continuous
 62
     4
370
    -2
100
AcDbLine
 10
3496.889851806799
 20
929.271581057427
 30
0.0
 11
3544.889849806799
 21
929.271581057427
 31
0.0
  0
INSERT
  5
5DCA
330
5CD7
100
AcDbEntity
  8
寸法
  6
Continuous
 62
     4
370
    -2
100
AcDbBlockReference
  2
_Dot
 10
3495.889851806799
 20
929.271581057427
 30
0.0
 50
180.0
  0
INSERT
  5
5DCB
330
5CD7
100
AcDbEntity
  8
寸法
  6
Continuous
 62
     4
370
    -2
100
AcDbBlockReference
  2
_Dot
 10
3545.889849806798
 20
929.271581057427
 30
0.0
  0
MTEXT
  5
5DCC
330
5CD7
100
AcDbEntity
  8
寸法
  6
Continuous
 62
     3
100
AcDbMText
 10
3520.889850806799
 20
932.5715810574269
 30
0.0
 40
5.0
 41
0.0
 71
     5
 72
     5
  1
\A1;50
  7
ACAD
 73
     1
 44
1.0
  0
POINT
  5
5DCD
330
5CD7
100
AcDbEntity
  8
Defpoints
  6
Continuous
 62
     0
100
AcDbPoint
 10
3495.889851806799
 20
929.271581057427
 30
0.0
  0
POINT
  5
5DCE
330
5CD7
100
AcDbEntity
  8
Defpoints
  6
Continuous
 62
     0
100
AcDbPoint
 10
3545.889849806798
 20
929.271581057427
 30
0.0
  0
POINT
  5
5DCF
330
5CD7
100
AcDbEntity
  8
Defpoints
  6
Continuous
 62
     0
100
AcDbPoint
 10
3545.889849806798
 20
929.271581057427
 30
0.0
  0
ENDBLK
  5
5CE0
330
5CD7
100
AcDbEntity
  8
0
100
AcDbBlockEnd
  0
BLOCK
  5
5CEC
330
5CE1
100
AcDbEntity
  8
0
100
AcDbBlockBegin
  2
*D54
 70
     1
 10
0.0
 20
0.0
 30
0.0
  3
*D54
  1

  0
LINE
  5
5DD0
330
5CE1
100
AcDbEntity
  8
寸法
  6
Continuous
 62
     4
370
    -2
100
AcDbLine
 10
4085.139849806799
 20
846.5215790574273
 30
0.0
 11
4127.889849806799
 21
846.5215790574273
 31
0.0
  0
LINE
  5
5DD1
330
5CE1
100
AcDbEntity
  8
寸法
  6
Continuous
 62
     4
370
    -2
100
AcDbLine
 10
4085.139849806799
 20
842.7715790574273
 30
0.0
 11
4127.889849806799
 21
842.7715790574273
 31
0.0
  0
LINE
  5
5DD2
330
5CE1
100
AcDbEntity
  8
寸法
  6
Continuous
 62
     4
370
    -2
100
AcDbLine
 10
4127.889849806799
 20
847.5215790574273
 30
0.0
 11
4127.889849806799
 21
848.5215790574272
 31
0.0
  0
LINE
  5
5DD3
330
5CE1
100
AcDbEntity
  8
寸法
  6
Continuous
 62
     4
370
    -2
100
AcDbLine
 10
4127.889849806799
 20
841.7715790574273
 30
0.0
 11
4127.889849806799
 21
840.7715790574272
 31
0.0
  0
INSERT
  5
5DD4
330
5CE1
100
AcDbEntity
  8
寸法
  6
Continuous
 62
     4
370
    -2
100
AcDbBlockReference
  2
_Dot
 10
4127.889849806799
 20
846.5215790574273
 30
0.0
 50
270.0
  0
INSERT
  5
5DD5
330
5CE1
100
AcDbEntity
  8
寸法
  6
Continuous
 62
     4
370
    -2
100
AcDbBlockReference
  2
_Dot
 10
4127.889849806799
 20
842.7715790574273
 30
0.0
 50
90.0
  0
MTEXT
  5
5DD6
330
5CE1
100
AcDbEntity
  8
寸法
  6
Continuous
 62
     3
100
AcDbMText
 10
4124.589849806799
 20
844.6465790574279
 30
0.0
 40
5.0
 41
0.0
 71
     5
 72
     5
  1
\A1;25
  7
ACAD
 11
0.0000000000000001
 21
1.0
 31
0.0
 73
     1
 44
1.0
  0
POINT
  5
5DD7
330
5CE1
100
AcDbEntity
  8
Defpoints
  6
Continuous
 62
     0
100
AcDbPoint
 10
4085.139849806799
 20
846.5215790574273
 30
0.0
  0
POINT
  5
5DD8
330
5CE1
100
AcDbEntity
  8
Defpoints
  6
Continuous
 62
     0
100
AcDbPoint
 10
4085.139849806799
 20
842.7715790574273
 30
0.0
  0
POINT
  5
5DD9
330
5CE1
100
AcDbEntity
  8
Defpoints
  6
Continuous
 62
     0
100
AcDbPoint
 10
4127.889849806799
 20
842.7715790574273
 30
0.0
  0
ENDBLK
  5
5CED
330
5CE1
100
AcDbEntity
  8
0
100
AcDbBlockEnd
  0
BLOCK
  5
5CF9
330
5CEE
100
AcDbEntity
  8
0
100
AcDbBlockBegin
  2
*D55
 70
     1
 10
0.0
 20
0.0
 30
0.0
  3
*D55
  1

  0
LINE
  5
5DDA
330
5CEE
100
AcDbEntity
  8
寸法
  6
Continuous
 62
     4
370
    -2
100
AcDbLine
 10
4100.889849806799
 20
1009.271579057427
 30
0.0
 11
4127.889849806799
 21
1009.271579057427
 31
0.0
  0
LINE
  5
5DDB
330
5CEE
100
AcDbEntity
  8
寸法
  6
Continuous
 62
     4
370
    -2
100
AcDbLine
 10
4100.889849806799
 20
1002.521579057427
 30
0.0
 11
4127.889849806799
 21
1002.521579057427
 31
0.0
  0
LINE
  5
5DDC
330
5CEE
100
AcDbEntity
  8
寸法
  6
Continuous
 62
     4
370
    -2
100
AcDbLine
 10
4127.889849806799
 20
1010.271579057427
 30
0.0
 11
4127.889849806799
 21
1011.271579057427
 31
0.0
  0
LINE
  5
5DDD
330
5CEE
100
AcDbEntity
  8
寸法
  6
Continuous
 62
     4
370
    -2
100
AcDbLine
 10
4127.889849806799
 20
1001.521579057427
 30
0.0
 11
4127.889849806799
 21
1000.521579057427
 31
0.0
  0
INSERT
  5
5DDE
330
5CEE
100
AcDbEntity
  8
寸法
  6
Continuous
 62
     4
370
    -2
100
AcDbBlockReference
  2
_Dot
 10
4127.889849806799
 20
1009.271579057427
 30
0.0
 50
270.0
  0
INSERT
  5
5DDF
330
5CEE
100
AcDbEntity
  8
寸法
  6
Continuous
 62
     4
370
    -2
100
AcDbBlockReference
  2
_Dot
 10
4127.889849806799
 20
1002.521579057427
 30
0.0
 50
90.0
  0
MTEXT
  5
5DE0
330
5CEE
100
AcDbEntity
  8
寸法
  6
Continuous
 62
     3
100
AcDbMText
 10
4124.589849806799
 20
1005.896579057428
 30
0.0
 40
5.0
 41
0.0
 71
     5
 72
     5
  1
\A1;45
  7
ACAD
 11
0.0000000000000001
 21
1.0
 31
0.0
 73
     1
 44
1.0
  0
POINT
  5
5DE1
330
5CEE
100
AcDbEntity
  8
Defpoints
  6
Continuous
 62
     0
100
AcDbPoint
 10
4100.889849806799
 20
1009.271579057427
 30
0.0
  0
POINT
  5
5DE2
330
5CEE
100
AcDbEntity
  8
Defpoints
  6
Continuous
 62
     0
100
AcDbPoint
 10
4100.889849806799
 20
1002.521579057427
 30
0.0
  0
POINT
  5
5DE3
330
5CEE
100
AcDbEntity
  8
Defpoints
  6
Continuous
 62
     0
100
AcDbPoint
 10
4127.889849806799
 20
1002.521579057427
 30
0.0
  0
ENDBLK
  5
5CFA
330
5CEE
100
AcDbEntity
  8
0
100
AcDbBlockEnd
  0
ENDSEC
  0
SECTION
  2
ENTITIES
  0
DIMENSION
  5
56D1
330
1E
100
AcDbEntity
  8
寸法
  6
Continuous
100
AcDbDimension
  2
*D30
 10
3435.889851806799
 20
859.2715790574272
 30
0.0
 11
3432.589851806799
 21
909.3448020085778
 31
0.0
 70
    32
  1
100
 71
     5
 42
-1.0
  3
AutoCAD
100
AcDbAlignedDimension
 13
3491.036297709099
 23
959.4180249597272
 33
0.0
 14
3500.389851806799
 24
859.2715790574272
 34
0.0
 50
90.0
100
AcDbRotatedDimension
1001
ACAD
1000
DSTYLE
1002
{
1070
   140
1040
10.0
1070
   147
1040
0.8
1070
   279
1070
     1
1070
   289
1070
     3
1002
}
  0
DIMENSION
  5
56D2
330
1E
100
AcDbEntity
  8
寸法
  6
Continuous
100
AcDbDimension
  2
*D31
 10
3435.889851806799
 20
829.2718660855978
 30
0.0
 11
3432.589851806799
 21
844.2717225715131
 31
0.0
 70
    32
  1
30
 71
     5
 42
-1.0
  3
AutoCAD
100
AcDbAlignedDimension
 13
3500.389851806799
 23
859.2715790574272
 33
0.0
 14
3499.372910315673
 24
829.2718660855978
 34
0.0
 50
90.0
100
AcDbRotatedDimension
1001
ACAD
1000
DSTYLE
1002
{
1070
   140
1040
10.0
1070
   147
1040
0.8
1070
   279
1070
     1
1070
   289
1070
     3
1002
}
  0
DIMENSION
  5
56D3
330
1E
100
AcDbEntity
  8
寸法
  6
Continuous
100
AcDbDimension
  2
*D32
 10
3435.889851806799
 20
644.271581057427
 30
0.0
 11
3432.589851806799
 21
656.7715805574277
 31
0.0
 70
    32
  1
25
 71
     5
 42
-1.0
  3
AutoCAD
100
AcDbAlignedDimension
 13
3499.8758738068
 23
669.2715800574271
 33
0.0
 14
3498.391797806799
 24
644.271581057427
 34
0.0
 50
90.0
100
AcDbRotatedDimension
1001
ACAD
1000
DSTYLE
1002
{
1070
   140
1040
10.0
1070
   147
1040
0.8
1070
   279
1070
     1
1070
   289
1070
     3
1002
}
  0
DIMENSION
  5
56D4
330
1E
100
AcDbEntity
  8
寸法
  6
Continuous
100
AcDbDimension
  2
*D33
 10
3435.889851806799
 20
554.2715810574271
 30
0.0
 11
3432.589851806799
 21
599.2715810574276
 31
0.0
 70
    32
  1
90
 71
     5
 42
-1.0
  3
AutoCAD
100
AcDbAlignedDimension
 13
3498.391797806799
 23
644.271581057427
 33
0.0
 14
3466.685658806799
 24
554.2715810574271
 34
0.0
 50
90.0
100
AcDbRotatedDimension
1001
ACAD
1000
DSTYLE
1002
{
1070
   140
1040
10.0
1070
   147
1040
0.8
1070
   279
1070
     1
1070
   289
1070
     3
1002
}
  0
DIMENSION
  5
56D5
330
1E
100
AcDbEntity
  8
寸法
  6
Continuous
100
AcDbDimension
  2
*D34
 10
4127.889849806799
 20
987.5215790574273
 30
0.0
 11
4124.589849806799
 21
995.0215790574279
 31
0.0
 70
    32
  1
100
 71
     5
 42
-1.0
  3
AutoCAD
100
AcDbAlignedDimension
 13
4100.889849806799
 23
1002.521579057427
 33
0.0
 14
4085.139849806799
 24
987.5215790574273
 34
0.0
 50
90.0
100
AcDbRotatedDimension
1001
ACAD
1000
DSTYLE
1002
{
1070
   140
1040
10.0
1070
   147
1040
0.8
1070
   279
1070
     1
1070
   289
1070
     3
1002
}
  0
DIMENSION
  5
56D6
330
1E
100
AcDbEntity
  8
寸法
  6
Continuous
100
AcDbDimension
  2
*D35
 10
4127.889849806799
 20
983.0215790574273
 30
0.0
 11
4124.589849806799
 21
985.2715790574279
 31
0.0
 70
    32
  1
30
 71
     5
 42
-1.0
  3
AutoCAD
100
AcDbAlignedDimension
 13
4085.139849806799
 23
987.5215790574273
 33
0.0
 14
4085.889849806799
 24
983.0215790574273
 34
0.0
 50
90.0
100
AcDbRotatedDimension
1001
ACAD
1000
DSTYLE
1002
{
1070
   140
1040
10.0
1070
   147
1040
0.8
1070
   279
1070
     1
1070
   289
1070
     3
1002
}
  0
DIMENSION
  5
56D7
330
1E
100
AcDbEntity
  8
寸法
  6
Continuous
100
AcDbDimension
  2
*D36
 10
4127.889849806799
 20
829.2715790574273
 30
0.0
 11
4124.589849806799
 21
836.0215790574279
 31
0.0
 70
    32
  1
90
 71
     5
 42
-1.0
  3
AutoCAD
100
AcDbAlignedDimension
 13
4085.139849806799
 23
842.7715790574273
 33
0.0
 14
4127.889849806799
 24
829.2715790574273
 34
0.0
 50
90.0
100
AcDbRotatedDimension
1001
ACAD
1000
DSTYLE
1002
{
1070
   140
1040
10.0
1070
   147
1040
0.8
1070
   279
1070
     1
1070
   289
1070
     3
1002
}
  0
DIMENSION
  5
56D8
330
1E
100
AcDbEntity
  8
躯体と製品
  6
Continuous
100
AcDbDimension
  2
*D37
 10
3785.889849806798
 20
599.271581057427
 30
0.0
 11
3775.889850806799
 21
602.5715810574269
 31
0.0
 70
    32
  1
20
 71
     5
 42
19.99999799999932
  3
AutoCAD
100
AcDbAlignedDimension
 13
3765.889851806799
 23
570.3315909830077
 33
0.0
 14
3785.889849806798
 24
552.771581057427
 34
0.0
100
AcDbRotatedDimension
1001
ACAD
1000
DSTYLE
1002
{
1070
   140
1040
10.0
1070
   147
1040
0.8
1070
   279
1070
     1
1070
   289
1070
     3
1002
}
  0
DIMENSION
  5
56D9
330
1E
100
AcDbEntity
  8
寸法
  6
Continuous
100
AcDbDimension
  2
*D38
 10
4205.8898498068
 20
599.271581057427
 30
0.0
 11
4180.889850806799
 21
602.5715810574269
 31
0.0
 70
    32
  1
50
 71
     5
 42
-1.0
  3
AutoCAD
100
AcDbAlignedDimension
 13
4155.889851806799
 23
570.2715800574272
 33
0.0
 14
4205.8898498068
 24
570.2715800574272
 34
0.0
100
AcDbRotatedDimension
1001
ACAD
1000
DSTYLE
1002
{
1070
   140
1040
10.0
1070
   147
1040
0.8
1070
   279
1070
     1
1070
   289
1070
     3
1002
}
  0
LINE
  5
56DA
330
1E
100
AcDbEntity
  8
躯体と製品
  6
Continuous
 62
     4
100
AcDbLine
 10
3538.389849806799
 20
832.071581057427
 30
0.0
 11
3538.389849806799
 21
838.5715790574273
 31
0.0
  0
LINE
  5
56DB
330
1E
100
AcDbEntity
  8
躯体と製品
  6
Continuous
 62
     4
100
AcDbLine
 10
3539.689851806798
 20
830.7715790574272
 30
0.0
 11
3539.689851806798
 21
837.2715800574271
 31
0.0
  0
LINE
  5
56DC
330
1E
100
AcDbEntity
  8
躯体と製品
  6
Continuous
 62
     3
100
AcDbLine
 10
3522.889851806799
 20
835.7715800574272
 30
0.0
 11
3522.889851806799
 21
810.7715810574271
 31
0.0
  0
LINE
  5
56DD
330
1E
100
AcDbEntity
  8
躯体と製品
  6
Continuous
 62
     3
100
AcDbLine
 10
3518.889849806799
 20
810.7715810574271
 30
0.0
 11
3518.889849806799
 21
835.7715800574272
 31
0.0
  0
LINE
  5
56DE
330
1E
100
AcDbEntity
  8
躯体と製品
  6
Continuous
 62
     4
100
AcDbLine
 10
3503.389851806799
 20
832.071581057427
 30
0.0
 11
3503.389851806799
 21
838.5715790574273
 31
0.0
  0
LINE
  5
56DF
330
1E
100
AcDbEntity
  8
躯体と製品
  6
Continuous
 62
     4
100
AcDbLine
 10
3502.089849806799
 20
830.7715790574272
 30
0.0
 11
3502.089849806799
 21
837.2715800574271
 31
0.0
  0
LINE
  5
56E0
330
1E
100
AcDbEntity
  8
躯体と製品
  6
Continuous
 62
     3
100
AcDbLine
 10
3505.889850806799
 20
832.2715790574273
 30
0.0
 11
3505.889850806799
 21
847.2715790574273
 31
0.0
  0
LINE
  5
56E1
330
1E
100
AcDbEntity
  8
躯体と製品
  6
Continuous
 62
     3
100
AcDbLine
 10
3535.889850806799
 20
847.2715790574273
 30
0.0
 11
3535.889850806799
 21
832.2715790574273
 31
0.0
  0
LINE
  5
56E2
330
1E
100
AcDbEntity
  8
躯体と製品
  6
Continuous
 62
     4
100
AcDbLine
 10
4089.6398498068
 20
829.2715790574273
 30
0.0
 11
4089.6398498068
 21
1002.521579057427
 31
0.0
  0
LINE
  5
56E3
330
1E
100
AcDbEntity
  8
躯体と製品
  6
Continuous
 62
     4
100
AcDbLine
 10
4082.139849806799
 20
829.2715790574273
 30
0.0
 11
4082.139849806799
 21
1002.521579057427
 31
0.0
  0
LINE
  5
56E4
330
1E
100
AcDbEntity
  8
躯体と製品
  6
Continuous
 62
     4
100
AcDbLine
 10
3857.139849806799
 20
829.2715790574273
 30
0.0
 11
3857.139849806799
 21
1002.521579057427
 31
0.0
  0
LINE
  5
56E5
330
1E
100
AcDbEntity
  8
躯体と製品
  6
Continuous
 62
     4
100
AcDbLine
 10
3864.639849806799
 20
829.2715790574273
 30
0.0
 11
3864.639849806799
 21
1002.521579057427
 31
0.0
  0
LINE
  5
56E6
330
1E
100
AcDbEntity
  8
躯体と製品
  6
Continuous
 62
     4
100
AcDbLine
 10
3495.889851806799
 20
752.5215800574271
 30
0.0
 11
3495.889851806799
 21
965.2715810574271
 31
0.0
  0
LINE
  5
56E7
330
1E
100
AcDbEntity
  8
躯体と製品
  6
Continuous
 62
     4
100
AcDbLine
 10
3545.889849806799
 20
752.5215800574271
 30
0.0
 11
3545.889849806799
 21
965.2715810574271
 31
0.0
  0
LINE
  5
56E8
330
1E
100
AcDbEntity
  8
躯体と製品
  6
PLINE3
 62
     3
100
AcDbLine
 10
4085.889849806799
 20
829.2715790574273
 30
0.0
 11
4085.889849806799
 21
1016.771579057427
 31
0.0
  0
DIMENSION
  5
56E9
330
1E
100
AcDbEntity
  8
寸法
  6
Continuous
100
AcDbDimension
  2
*D39
 10
4157.889849806799
 20
829.2715790574273
 30
0.0
 11
4154.589849806799
 21
919.2715790574279
 31
0.0
 70
    32
  1
1200以下
 71
     5
 42
-1.0
  3
AutoCAD
100
AcDbAlignedDimension
 13
4136.889849806799
 23
1009.271579057427
 33
0.0
 14
4136.889849806799
 24
829.2715790574273
 34
0.0
 50
90.0
100
AcDbRotatedDimension
1001
ACAD
1000
DSTYLE
1002
{
1070
   147
1040
0.8
1070
   140
1040
10.0
1002
}
  0
LINE
  5
56EA
330
1E
100
AcDbEntity
  8
躯体と製品
  6
PLINE3
 62
     3
100
AcDbLine
 10
3860.889849806799
 20
829.2715790574273
 30
0.0
 11
3860.889849806799
 21
1016.771579057427
 31
0.0
  0
LINE
  5
56EB
330
1E
100
AcDbEntity
  8
躯体と製品
  6
Continuous
 62
     4
100
AcDbLine
 10
3542.889849806799
 20
829.7715800574271
 30
0.0
 11
3542.889849806799
 21
857.7715790574272
 31
0.0
  0
LINE
  5
56EC
330
1E
100
AcDbEntity
  8
躯体と製品
  6
Continuous
 62
     4
100
AcDbLine
 10
3541.589850806799
 20
834.2715800574271
 30
0.0
 11
3541.589850806799
 21
830.5715810574271
 31
0.0
  0
LINE
  5
56ED
330
1E
100
AcDbEntity
  8
躯体と製品
  6
Continuous
 62
     4
100
AcDbLine
 10
3498.889851806799
 20
829.7715800574271
 30
0.0
 11
3498.889851806799
 21
857.7715790574272
 31
0.0
  0
LINE
  5
56EE
330
1E
100
AcDbEntity
  8
躯体と製品
  6
Continuous
 62
     4
100
AcDbLine
 10
3500.189850806799
 20
834.2715800574271
 30
0.0
 11
3500.189850806799
 21
830.5715810574271
 31
0.0
  0
LINE
  5
56EF
330
1E
100
AcDbEntity
  8
躯体と製品
  6
PLINE3
 62
     3
100
AcDbLine
 10
3520.889850806799
 20
752.5215800574271
 30
0.0
 11
3520.889850806799
 21
1015.787282057427
 31
0.0
  0
DIMENSION
  5
56F0
330
1E
100
AcDbEntity
  8
寸法
  6
Continuous
100
AcDbDimension
  2
*D40
 10
3405.889851806799
 20
1004.271581057426
 30
0.0
 11
3402.589851806799
 21
779.2715810574276
 31
0.0
 70
    32
  1
1200以下
 71
     5
 42
-1.0
  3
AutoCAD
100
AcDbAlignedDimension
 13
3426.889851806799
 23
554.2715810574271
 33
0.0
 14
3426.889851806799
 24
1004.271581057426
 34
0.0
 50
90.0
100
AcDbRotatedDimension
1001
ACAD
1000
DSTYLE
1002
{
1070
   147
1040
0.8
1070
   140
1040
10.0
1002
}
  0
LINE
  5
56F1
330
1E
100
AcDbEntity
  8
躯体と製品
  6
Continuous
 62
     4
100
AcDbLine
 10
3970.889850806798
 20
524.271581057427
 30
0.0
 11
4155.889851806799
 21
524.271581057427
 31
0.0
  0
LINE
  5
56F2
330
1E
100
AcDbEntity
  8
躯体と製品
  6
Continuous
 62
     4
100
AcDbLine
 10
3970.889850806798
 20
564.2715800574271
 30
0.0
 11
4155.889851806799
 21
564.2715800574271
 31
0.0
  0
LINE
  5
56F3
330
1E
100
AcDbEntity
  8
躯体と製品
  6
Continuous
 62
     2
100
AcDbLine
 10
3970.889850806798
 20
532.7715800574272
 30
0.0
 11
4153.889850806799
 21
532.7715800574272
 31
0.0
  0
LINE
  5
56F4
330
1E
100
AcDbEntity
  8
躯体と製品
  6
Continuous
 62
     2
100
AcDbLine
 10
3970.889850806798
 20
536.7715790574273
 30
0.0
 11
4153.889850806799
 21
536.7715790574273
 31
0.0
  0
LINE
  5
56F5
330
1E
100
AcDbEntity
  8
躯体と製品
  6
Continuous
 62
     4
100
AcDbLine
 10
3970.889850806798
 20
527.271581057427
 30
0.0
 11
4137.889851806799
 21
527.271581057427
 31
0.0
  0
LINE
  5
56F6
330
1E
100
AcDbEntity
  8
躯体と製品
  6
Continuous
 62
     4
100
AcDbLine
 10
3970.889850806798
 20
551.7715790574272
 30
0.0
 11
4153.889850806799
 21
551.7715790574272
 31
0.0
  0
LINE
  5
56F7
330
1E
100
AcDbEntity
  8
躯体と製品
  6
Continuous
 62
     4
100
AcDbLine
 10
3849.639849806799
 20
829.2715790574273
 30
0.0
 11
4097.139849806799
 21
829.2715790574273
 31
0.0
  0
TEXT
  5
56F8
330
1E
100
AcDbEntity
  8
文字-記号
  6
Continuous
 62
     4
100
AcDbText
 10
3825.953754806799
 20
754.2716300574271
 30
0.0
 40
15.0
  1
手すりユニット１スパン正面図（Ｓ：１／２０）
 41
0.8
  7
ACAD
100
AcDbText
  0
TEXT
  5
56F9
330
1E
100
AcDbEntity
  8
文字-記号
  6
Continuous
 62
     4
100
AcDbText
 10
3841.850466806798
 20
399.2715800574271
 30
0.0
 40
15.0
  1
手すりユニット横断面図（Ｓ：１／３）
 41
0.8
  7
ACAD
100
AcDbText
  0
LINE
  5
56FA
330
1E
100
AcDbEntity
  8
躯体と製品
  6
PLINE3
 62
     3
100
AcDbLine
 10
3970.889850806798
 20
544.2715790574273
 30
0.0
 11
4245.889851806799
 21
544.2715790574273
 31
0.0
  0
DIMENSION
  5
56FB
330
1E
100
AcDbEntity
  8
寸法
  6
Continuous
100
AcDbDimension
  2
*D41
 10
4180.889850806799
 20
459.2715800574271
 30
0.0
 11
3960.889850306799
 21
462.5715800574272
 31
0.0
 70
    32
  1
1500以下
 71
     5
 42
-1.0
  3
AutoCAD
100
AcDbAlignedDimension
 13
3740.889849806799
 23
506.987885057427
 33
0.0
 14
4180.889850806799
 24
506.987885057427
 34
0.0
100
AcDbRotatedDimension
1001
ACAD
1000
DSTYLE
1002
{
1070
   147
1040
0.8
1070
   140
1040
10.0
1002
}
  0
DIMENSION
  5
56FC
330
1E
100
AcDbEntity
  8
寸法
  6
Continuous
100
AcDbDimension
  2
*D42
 10
3665.889849806799
 20
529.2715790574272
 30
0.0
 11
3662.589849806799
 21
544.2715790574278
 31
0.0
 70
    32
  1
30
 71
     5
 42
-1.0
  3
AutoCAD
100
AcDbAlignedDimension
 13
3682.889850806799
 23
559.2715790574272
 33
0.0
 14
3682.889850806799
 24
529.2715790574272
 34
0.0
 50
90.0
100
AcDbRotatedDimension
1001
ACAD
1000
DSTYLE
1002
{
1070
   147
1040
0.8
1070
   140
1040
10.0
1002
}
  0
LINE
  5
56FD
330
1E
100
AcDbEntity
  8
躯体と製品
  6
Continuous
 62
     4
100
AcDbLine
 10
3545.889849806799
 20
742.521581057427
 30
0.0
 11
3545.889849806799
 21
547.6045760574272
 31
0.0
  0
LINE
  5
56FE
330
1E
100
AcDbEntity
  8
躯体と製品
  6
Continuous
 62
     4
100
AcDbLine
 10
3495.889851806799
 20
742.521581057427
 30
0.0
 11
3495.889851806799
 21
551.9790110574271
 31
0.0
  0
LINE
  5
56FF
330
1E
100
AcDbEntity
  8
躯体と製品
  6
PLINE3
 62
     3
100
AcDbLine
 10
3520.889850806799
 20
454.2715790574272
 30
0.0
 11
3520.889850806799
 21
742.521581057427
 31
0.0
  0
LINE
  5
5700
330
1E
100
AcDbEntity
  8
躯体と製品
  6
Continuous
 62
     4
100
AcDbLine
 10
3569.449269806799
 20
545.5433960574273
 30
0.0
 11
3469.685658806799
 21
554.2715810574271
 31
0.0
  0
TEXT
  5
5701
330
1E
100
AcDbEntity
  8
文字-記号
  6
Continuous
 62
     4
100
AcDbText
 10
3420.472530806799
 20
406.9552370574273
 30
0.0
 40
15.0
  1
手すり断面図（Ｓ：１／３）
 41
0.8
  7
ACAD
100
AcDbText
  0
LINE
  5
5702
330
1E
100
AcDbEntity
  8
躯体と製品
  6
Continuous
 62
     4
100
AcDbLine
 10
3455.893101806799
 20
454.2715790574272
 30
0.0
 11
3455.893101806799
 21
540.4790240574272
 31
0.0
  0
LINE
  5
5703
330
1E
100
AcDbEntity
  8
躯体と製品
  6
Continuous
 62
     3
100
AcDbLine
 10
3455.893101806799
 20
524.1226010574273
 30
0.0
 11
3484.726203806799
 21
552.9557030574274
 31
0.0
  0
LINE
  5
5704
330
1E
100
AcDbEntity
  8
躯体と製品
  6
Continuous
 62
     3
100
AcDbLine
 10
3455.893101806799
 20
518.4660320574272
 30
0.0
 11
3489.927702806799
 21
552.5006300574273
 31
0.0
  0
LINE
  5
5705
330
1E
100
AcDbEntity
  8
躯体と製品
  6
Continuous
 62
     3
100
AcDbLine
 10
3487.326954806798
 20
552.7281680574271
 30
0.0
 11
3455.893101806799
 21
521.2943150574273
 31
0.0
  0
LINE
  5
5706
330
1E
100
AcDbEntity
  8
躯体と製品
  6
Continuous
 62
     4
100
AcDbLine
 10
3469.685658806799
 20
554.2715810574271
 30
0.0
 11
3455.893101806799
 21
540.4790240574272
 31
0.0
  0
LINE
  5
5707
330
1E
100
AcDbEntity
  8
躯体と製品
  6
Continuous
 62
     3
100
AcDbLine
 10
3533.112933806799
 20
454.2715790574272
 30
0.0
 11
3585.886599806799
 21
507.0452450574273
 31
0.0
  0
LINE
  5
5708
330
1E
100
AcDbEntity
  8
躯体と製品
  6
Continuous
 62
     3
100
AcDbLine
 10
3530.2846478068
 20
454.2715790574272
 30
0.0
 11
3585.886599806799
 21
509.873531057427
 31
0.0
  0
LINE
  5
5709
330
1E
100
AcDbEntity
  8
躯体と製品
  6
Continuous
 62
     3
100
AcDbLine
 10
3526.818654806799
 20
454.2715790574272
 30
0.0
 11
3585.886599806799
 21
512.701817057427
 31
0.0
  0
LINE
  5
570A
330
1E
100
AcDbEntity
  8
躯体と製品
  6
Continuous
 62
     4
100
AcDbLine
 10
3585.886599806799
 20
454.2715790574272
 30
0.0
 11
3585.886599806799
 21
529.1060660574273
 31
0.0
  0
LINE
  5
570B
330
1E
100
AcDbEntity
  8
躯体と製品
  6
Continuous
 62
     4
100
AcDbLine
 10
3585.886599806799
 20
529.1060660574273
 30
0.0
 11
3569.449269806799
 21
545.5433960574273
 31
0.0
  0
LINE
  5
570C
330
1E
100
AcDbEntity
  8
躯体と製品
  6
Continuous
 62
     4
100
AcDbLine
 10
3511.589850806799
 20
832.2715790574273
 30
0.0
 11
3507.389850806799
 21
832.2715790574273
 31
0.0
  0
LINE
  5
570D
330
1E
100
AcDbEntity
  8
躯体と製品
  6
Continuous
 62
     4
100
AcDbLine
 10
3502.589850806799
 20
830.2715810574269
 30
0.0
 11
3510.639849806799
 21
830.2715810574269
 31
0.0
  0
LINE
  5
570E
330
1E
100
AcDbEntity
  8
躯体と製品
  6
Continuous
 62
     3
100
AcDbLine
 10
3505.889850806799
 20
832.2715790574273
 30
0.0
 11
3535.889850806799
 21
832.2715790574273
 31
0.0
  0
LINE
  5
570F
330
1E
100
AcDbEntity
  8
躯体と製品
  6
Continuous
 62
     3
100
AcDbLine
 10
3511.086036806799
 20
658.786484057427
 30
0.0
 11
3510.614634806799
 21
658.9963640574271
 31
0.0
  0
LINE
  5
5710
330
1E
100
AcDbEntity
  8
躯体と製品
  6
Continuous
 62
     3
100
AcDbLine
 10
3510.614634806799
 20
657.546794057427
 30
0.0
 11
3511.086036806799
 21
657.7566770574271
 31
0.0
  0
CIRCLE
  5
5711
330
1E
100
AcDbEntity
  8
躯体と製品
  6
Continuous
 62
     3
100
AcDbCircle
 10
3509.889849806799
 20
658.2715790574273
 30
0.0
 40
3.999999
  0
LINE
  5
5712
330
1E
100
AcDbEntity
  8
躯体と製品
  6
Continuous
 62
     3
100
AcDbLine
 10
3505.889850806799
 20
652.9715810574273
 30
0.0
 11
3535.889850806799
 21
652.9715810574273
 31
0.0
  0
LINE
  5
5713
330
1E
100
AcDbEntity
  8
躯体と製品
  6
Continuous
 62
     3
100
AcDbLine
 10
3505.889850806799
 20
665.4715790574272
 30
0.0
 11
3535.889850806799
 21
665.4715790574272
 31
0.0
  0
LINE
  5
5714
330
1E
100
AcDbEntity
  8
躯体と製品
  6
Continuous
 62
     3
100
AcDbLine
 10
3505.889850806799
 20
667.9715810574273
 30
0.0
 11
3535.889850806799
 21
667.9715720574273
 31
0.0
  0
DIMENSION
  5
5715
330
1E
100
AcDbEntity
  8
寸法
  6
Continuous
100
AcDbDimension
  2
*D43
 10
3465.889851806799
 20
810.7715810574271
 30
0.0
 11
3462.589851806799
 21
820.7715800574277
 31
0.0
 70
    32
  1
20
 71
     5
 42
-1.0
  3
AutoCAD
100
AcDbAlignedDimension
 13
3507.639849806798
 23
830.7715790574272
 33
0.0
 14
3512.389851806799
 24
810.7715810574271
 34
0.0
 50
90.0
100
AcDbRotatedDimension
1001
ACAD
1000
DSTYLE
1002
{
1070
   147
1040
0.8
1070
   140
1040
10.0
1002
}
  0
LINE
  5
5716
330
1E
100
AcDbEntity
  8
躯体と製品
  6
Continuous
 62
     4
100
AcDbLine
 10
3503.200602806799
 20
667.9715810574273
 30
0.0
 11
3511.589850806799
 21
667.9715810574273
 31
0.0
  0
DIMENSION
  5
5717
330
1E
100
AcDbEntity
  8
寸法
  6
Continuous
100
AcDbDimension
  2
*D44
 10
3435.889851806799
 20
669.2715800574271
 30
0.0
 11
3432.589851806799
 21
679.2715805574276
 31
0.0
 70
    32
  1
20
 71
     5
 42
-1.0
  3
AutoCAD
100
AcDbAlignedDimension
 13
3512.389851806799
 23
689.271581057427
 33
0.0
 14
3499.8758738068
 24
669.2715800574271
 34
0.0
 50
90.0
100
AcDbRotatedDimension
1001
ACAD
1000
DSTYLE
1002
{
1070
   147
1040
0.8
1070
   140
1040
10.0
1002
}
  0
LINE
  5
5718
330
1E
100
AcDbEntity
  8
躯体と製品
  6
Continuous
 62
     4
100
AcDbLine
 10
3502.897377806799
 20
669.2715800574271
 30
0.0
 11
3538.903827806799
 21
669.2715800574271
 31
0.0
  0
ARC
  5
5719
330
1E
100
AcDbEntity
  8
躯体と製品
  6
Continuous
 62
     4
100
AcDbCircle
 10
3502.875873806799
 20
667.2715790574272
 30
0.0
 40
2.000001
100
AcDbArc
 50
90.0
 51
180.0
  0
LINE
  5
571A
330
1E
100
AcDbEntity
  8
躯体と製品
  6
Continuous
 62
     3
100
AcDbLine
 10
3510.614634806799
 20
658.9963640574271
 30
0.0
 11
3510.404754806799
 21
659.4677660574273
 31
0.0
  0
LINE
  5
571B
330
1E
100
AcDbEntity
  8
躯体と製品
  6
Continuous
 62
     3
100
AcDbLine
 10
3510.614634806799
 20
657.546794057427
 30
0.0
 11
3510.404754806799
 21
657.0753950574272
 31
0.0
  0
LINE
  5
571C
330
1E
100
AcDbEntity
  8
躯体と製品
  6
Continuous
 62
     3
100
AcDbLine
 10
3509.374947806799
 20
657.0753950574272
 30
0.0
 11
3509.389851806798
 21
656.2215800574271
 31
0.0
  0
LINE
  5
571D
330
1E
100
AcDbEntity
  8
躯体と製品
  6
Continuous
 62
     3
100
AcDbLine
 10
3509.374947806799
 20
659.4677660574273
 30
0.0
 11
3509.389851806798
 21
660.3215810574271
 31
0.0
  0
LINE
  5
571E
330
1E
100
AcDbEntity
  8
躯体と製品
  6
Continuous
 62
     3
100
AcDbLine
 10
3509.165067806799
 20
658.9963640574271
 30
0.0
 11
3509.374947806799
 21
659.4677660574273
 31
0.0
  0
LINE
  5
571F
330
1E
100
AcDbEntity
  8
躯体と製品
  6
Continuous
 62
     3
100
AcDbLine
 10
3508.693665806799
 20
658.786484057427
 30
0.0
 11
3509.165067806799
 21
658.9963640574271
 31
0.0
  0
LINE
  5
5720
330
1E
100
AcDbEntity
  8
躯体と製品
  6
Continuous
 62
     3
100
AcDbLine
 10
3507.839850806799
 20
658.7715800574271
 30
0.0
 11
3508.693665806799
 21
658.786484057427
 31
0.0
  0
LINE
  5
5721
330
1E
100
AcDbEntity
  8
躯体と製品
  6
Continuous
 62
     3
100
AcDbLine
 10
3509.165067806799
 20
657.546794057427
 30
0.0
 11
3509.374947806799
 21
657.0753950574272
 31
0.0
  0
LINE
  5
5722
330
1E
100
AcDbEntity
  8
躯体と製品
  6
Continuous
 62
     3
100
AcDbLine
 10
3507.839850806799
 20
657.771581057427
 30
0.0
 11
3508.693665806799
 21
657.7566770574271
 31
0.0
  0
LINE
  5
5723
330
1E
100
AcDbEntity
  8
躯体と製品
  6
Continuous
 62
     3
100
AcDbLine
 10
3509.165067806799
 20
657.546794057427
 30
0.0
 11
3508.693665806799
 21
657.7566770574271
 31
0.0
  0
LINE
  5
5724
330
1E
100
AcDbEntity
  8
躯体と製品
  6
Continuous
 62
     3
100
AcDbLine
 10
3507.839850806799
 20
658.7715800574271
 30
0.0
 11
3507.839850806799
 21
657.771581057427
 31
0.0
  0
LINE
  5
5725
330
1E
100
AcDbEntity
  8
躯体と製品
  6
Continuous
 62
     3
100
AcDbLine
 10
3510.389850806799
 20
656.2215800574271
 30
0.0
 11
3510.404754806799
 21
657.0753950574272
 31
0.0
  0
LINE
  5
5726
330
1E
100
AcDbEntity
  8
躯体と製品
  6
Continuous
 62
     3
100
AcDbLine
 10
3509.389851806798
 20
656.2215800574271
 30
0.0
 11
3510.389850806799
 21
656.2215800574271
 31
0.0
  0
LINE
  5
5727
330
1E
100
AcDbEntity
  8
躯体と製品
  6
Continuous
 62
     3
100
AcDbLine
 10
3510.389850806799
 20
660.3215810574271
 30
0.0
 11
3510.404754806799
 21
659.4677660574273
 31
0.0
  0
LINE
  5
5728
330
1E
100
AcDbEntity
  8
躯体と製品
  6
Continuous
 62
     3
100
AcDbLine
 10
3509.389851806798
 20
660.3215810574271
 30
0.0
 11
3510.389850806799
 21
660.3215810574271
 31
0.0
  0
LINE
  5
5729
330
1E
100
AcDbEntity
  8
躯体と製品
  6
Continuous
 62
     3
100
AcDbLine
 10
3505.889850806799
 20
652.9715810574273
 30
0.0
 11
3505.889850806799
 21
667.9715810574273
 31
0.0
  0
LINE
  5
572A
330
1E
100
AcDbEntity
  8
躯体と製品
  6
Continuous
 62
     4
100
AcDbLine
 10
3500.875872806799
 20
644.9075990574272
 30
0.0
 11
3500.875872806799
 21
667.2715790574272
 31
0.0
  0
LINE
  5
572B
330
1E
100
AcDbEntity
  8
躯体と製品
  6
Continuous
 62
     4
100
AcDbLine
 10
3502.175871806799
 20
649.257602057427
 30
0.0
 11
3502.175871806799
 21
666.9715790574272
 31
0.0
  0
LINE
  5
572C
330
1E
100
AcDbEntity
  8
躯体と製品
  6
Continuous
 62
     4
100
AcDbLine
 10
3502.175871806799
 20
649.2565310574271
 30
0.0
 11
3503.675871806799
 21
649.2404900574273
 31
0.0
  0
LINE
  5
572D
330
1E
100
AcDbEntity
  8
躯体と製品
  6
Continuous
 62
     4
100
AcDbLine
 10
3503.175873806799
 20
646.2456650574272
 30
0.0
 11
3502.175871806799
 21
646.2563600574271
 31
0.0
  0
ARC
  5
572E
330
1E
100
AcDbEntity
  8
躯体と製品
  6
Continuous
 62
     4
100
AcDbCircle
 10
3501.525873806799
 20
644.9076020574273
 30
0.0
 40
0.6500010000000001
100
AcDbArc
 50
180.0
 51
0.0
  0
LINE
  5
572F
330
1E
100
AcDbEntity
  8
躯体と製品
  6
Continuous
 62
     4
100
AcDbLine
 10
3502.175871806799
 20
644.9075990574272
 30
0.0
 11
3502.175871806799
 21
646.2576020574271
 31
0.0
  0
LINE
  5
5730
330
1E
100
AcDbEntity
  8
躯体と製品
  6
Continuous
 62
     4
100
AcDbLine
 10
3503.675871806799
 20
649.2404900574273
 30
0.0
 11
3503.175873806799
 21
646.2456650574272
 31
0.0
  0
ARC
  5
5731
330
1E
100
AcDbEntity
  8
躯体と製品
  6
Continuous
 62
     4
100
AcDbCircle
 10
3503.175873806799
 20
666.9715790574272
 30
0.0
 40
0.999999
100
AcDbArc
 50
90.0
 51
180.0
  0
ARC
  5
5732
330
1E
100
AcDbEntity
  8
躯体と製品
  6
Continuous
 62
     4
100
AcDbCircle
 10
3503.889849806799
 20
832.071581057427
 30
0.0
 40
0.5000010000000001
100
AcDbArc
 50
180.0
 51
270.0
  0
LINE
  5
5733
330
1E
100
AcDbEntity
  8
躯体と製品
  6
Continuous
 62
     4
100
AcDbLine
 10
3503.889849806799
 20
831.5715800574272
 30
0.0
 11
3507.389850806799
 21
831.5715800574272
 31
0.0
  0
LINE
  5
5734
330
1E
100
AcDbEntity
  8
躯体と製品
  6
Continuous
 62
     4
100
AcDbLine
 10
3507.389850806799
 20
832.2715790574273
 30
0.0
 11
3507.389850806799
 21
831.5715800574272
 31
0.0
  0
ARC
  5
5735
330
1E
100
AcDbEntity
  8
躯体と製品
  6
Continuous
 62
     4
100
AcDbCircle
 10
3502.589850806799
 20
830.7715790574272
 30
0.0
 40
0.5000010000000001
100
AcDbArc
 50
180.0
 51
270.0
  0
LINE
  5
5736
330
1E
100
AcDbEntity
  8
躯体と製品
  6
Continuous
 62
     4
100
AcDbLine
 10
3500.189850806799
 20
830.5715810574271
 30
0.0
 11
3500.889849806799
 21
830.5715810574271
 31
0.0
  0
LINE
  5
5737
330
1E
100
AcDbEntity
  8
躯体と製品
  6
Continuous
 62
     4
100
AcDbLine
 10
3500.889849806799
 20
830.5715810574271
 30
0.0
 11
3500.889849806799
 21
829.7715800574271
 31
0.0
  0
ARC
  5
5738
330
1E
100
AcDbEntity
  8
躯体と製品
  6
Continuous
 62
     4
100
AcDbCircle
 10
3500.389851806799
 20
829.7715800574271
 30
0.0
 40
0.5000010000000001
100
AcDbArc
 50
270.0
 51
0.0
  0
ARC
  5
5739
330
1E
100
AcDbEntity
  8
躯体と製品
  6
Continuous
 62
     4
100
AcDbCircle
 10
3499.389849806799
 20
829.7715800574271
 30
0.0
 40
0.5000010000000001
100
AcDbArc
 50
180.0
 51
270.0
  0
LINE
  5
573A
330
1E
100
AcDbEntity
  8
躯体と製品
  6
Continuous
 62
     4
100
AcDbLine
 10
3499.389849806799
 20
829.2715790574273
 30
0.0
 11
3500.389851806799
 21
829.2715790574273
 31
0.0
  0
LINE
  5
573B
330
1E
100
AcDbEntity
  8
躯体と製品
  6
Continuous
 62
     4
100
AcDbLine
 10
3537.889851806799
 20
742.521581057427
 30
0.0
 11
3537.889851806799
 21
687.2715800574272
 31
0.0
  0
LINE
  5
573C
330
1E
100
AcDbEntity
  8
躯体と製品
  6
Continuous
 62
     2
100
AcDbLine
 10
3532.389849806799
 20
742.521581057427
 30
0.0
 11
3532.389849806799
 21
671.2715810574271
 31
0.0
  0
LINE
  5
573D
330
1E
100
AcDbEntity
  8
躯体と製品
  6
Continuous
 62
     2
100
AcDbLine
 10
3528.389850806799
 20
742.521581057427
 30
0.0
 11
3528.389850806799
 21
671.2715810574271
 31
0.0
  0
LINE
  5
573E
330
1E
100
AcDbEntity
  8
躯体と製品
  6
Continuous
 62
     4
100
AcDbLine
 10
3513.389850806799
 20
742.521581057427
 30
0.0
 11
3513.389850806799
 21
671.2715810574271
 31
0.0
  0
LINE
  5
573F
330
1E
100
AcDbEntity
  8
躯体と製品
  6
Continuous
 62
     4
100
AcDbLine
 10
3537.889851806799
 20
671.2715810574271
 30
0.0
 11
3537.889851806799
 21
669.2715800574271
 31
0.0
  0
LINE
  5
5740
330
1E
100
AcDbEntity
  8
躯体と製品
  6
Continuous
 62
     4
100
AcDbLine
 10
3532.389849806799
 20
669.2715800574271
 30
0.0
 11
3532.389849806799
 21
671.2715810574271
 31
0.0
  0
ARC
  5
5741
330
1E
100
AcDbEntity
  8
躯体と製品
  6
Continuous
 62
     4
100
AcDbCircle
 10
3526.389849806799
 20
671.2715810574271
 30
0.0
 40
2.000001
100
AcDbArc
 50
270.0
 51
0.0
  0
ARC
  5
5742
330
1E
100
AcDbEntity
  8
躯体と製品
  6
Continuous
 62
     3
100
AcDbCircle
 10
3522.093462806799
 20
669.141680057427
 30
0.0
 40
2.299884
100
AcDbArc
 50
3.237837000001989
 51
50.69087600000493
  0
ARC
  5
5743
330
1E
100
AcDbEntity
  8
躯体と製品
  6
Continuous
 62
     3
100
AcDbCircle
 10
3519.682563806799
 20
669.1386800574271
 30
0.0
 40
2.299884
100
AcDbArc
 50
129.1795109999938
 51
176.6872570000002
  0
ARC
  5
5744
330
1E
100
AcDbEntity
  8
躯体と製品
  6
Continuous
 62
     4
100
AcDbCircle
 10
3515.389851806799
 20
671.2715810574271
 30
0.0
 40
2.000001
100
AcDbArc
 50
180.0
 51
270.0
  0
LINE
  5
5745
330
1E
100
AcDbEntity
  8
躯体と製品
  6
Continuous
 62
     3
100
AcDbLine
 10
3518.889849806799
 20
664.2715790574272
 30
0.0
 11
3518.889849806799
 21
689.271581057427
 31
0.0
  0
LINE
  5
5746
330
1E
100
AcDbEntity
  8
躯体と製品
  6
Continuous
 62
     3
100
AcDbLine
 10
3522.889851806799
 20
689.271581057427
 30
0.0
 11
3522.889851806799
 21
664.2715790574272
 31
0.0
  0
ARC
  5
5747
330
1E
100
AcDbEntity
  8
躯体と製品
  6
Continuous
 62
     4
100
AcDbCircle
 10
3538.903827806799
 20
667.2715790574272
 30
0.0
 40
2.000001
100
AcDbArc
 50
0.0
 51
90.0
  0
LINE
  5
5748
330
1E
100
AcDbEntity
  8
躯体と製品
  6
Continuous
 62
     3
100
AcDbLine
 10
3529.839849806799
 20
658.7715800574271
 30
0.0
 11
3530.693664806799
 21
658.786484057427
 31
0.0
  0
LINE
  5
5749
330
1E
100
AcDbEntity
  8
躯体と製品
  6
Continuous
 62
     3
100
AcDbLine
 10
3529.839849806799
 20
657.771581057427
 30
0.0
 11
3530.693664806799
 21
657.7566770574271
 31
0.0
  0
CIRCLE
  5
574A
330
1E
100
AcDbEntity
  8
躯体と製品
  6
Continuous
 62
     3
100
AcDbCircle
 10
3531.889851806798
 20
658.2715790574273
 30
0.0
 40
3.999999
  0
LINE
  5
574B
330
1E
100
AcDbEntity
  8
躯体と製品
  6
Continuous
 62
     4
100
AcDbLine
 10
3529.889850806799
 20
668.271581057427
 30
0.0
 11
3530.189850806799
 21
667.9715810574273
 31
0.0
  0
LINE
  5
574C
330
1E
100
AcDbEntity
  8
躯体と製品
  6
Continuous
 62
     3
100
AcDbLine
 10
3517.390026806799
 20
669.2715800574271
 30
0.0
 11
3524.389674806799
 21
669.2715800574271
 31
0.0
  0
LINE
  5
574D
330
1E
100
AcDbEntity
  8
躯体と製品
  6
Continuous
 62
     3
100
AcDbLine
 10
3529.839849806799
 20
658.7715800574271
 30
0.0
 11
3529.839849806799
 21
657.771581057427
 31
0.0
  0
LINE
  5
574E
330
1E
100
AcDbEntity
  8
躯体と製品
  6
Continuous
 62
     3
100
AcDbLine
 10
3522.889749806799
 20
661.2719810574272
 30
0.0
 11
3518.889951806799
 21
661.2719810574272
 31
0.0
  0
LINE
  5
574F
330
1E
100
AcDbEntity
  8
躯体と製品
  6
Continuous
 62
     3
100
AcDbLine
 10
3522.889851806799
 20
664.2715790574272
 30
0.0
 11
3518.889849806799
 21
664.2715790574272
 31
0.0
  0
LINE
  5
5750
330
1E
100
AcDbEntity
  8
躯体と製品
  6
Continuous
 62
     3
100
AcDbLine
 10
3518.889951806799
 20
669.2715800574271
 30
0.0
 11
3518.889951806799
 21
661.2719810574272
 31
0.0
  0
LINE
  5
5751
330
1E
100
AcDbEntity
  8
躯体と製品
  6
Continuous
 62
     3
100
AcDbLine
 10
3522.889749806799
 20
669.2715800574271
 30
0.0
 11
3522.889749806799
 21
661.2719810574272
 31
0.0
  0
LINE
  5
5752
330
1E
100
AcDbEntity
  8
躯体と製品
  6
Continuous
 62
     3
100
AcDbLine
 10
3511.939851806799
 20
658.7715800574271
 30
0.0
 11
3511.086036806799
 21
658.786484057427
 31
0.0
  0
LINE
  5
5753
330
1E
100
AcDbEntity
  8
躯体と製品
  6
Continuous
 62
     3
100
AcDbLine
 10
3511.939851806799
 20
657.771581057427
 30
0.0
 11
3511.086036806799
 21
657.7566770574271
 31
0.0
  0
LINE
  5
5754
330
1E
100
AcDbEntity
  8
躯体と製品
  6
Continuous
 62
     3
100
AcDbLine
 10
3511.939851806799
 20
658.7715800574271
 30
0.0
 11
3511.939851806799
 21
657.771581057427
 31
0.0
  0
LINE
  5
5755
330
1E
100
AcDbEntity
  8
躯体と製品
  6
Continuous
 62
     4
100
AcDbLine
 10
3529.589850806799
 20
667.9715810574273
 30
0.0
 11
3527.689851806798
 21
667.9715810574273
 31
0.0
  0
LINE
  5
5756
330
1E
100
AcDbEntity
  8
躯体と製品
  6
Continuous
 62
     4
100
AcDbLine
 10
3527.689851806798
 20
667.9715810574273
 30
0.0
 11
3529.589850806799
 21
667.9715810574273
 31
0.0
  0
LINE
  5
5757
330
1E
100
AcDbEntity
  8
躯体と製品
  6
Continuous
 62
     4
100
AcDbLine
 10
3527.089851806799
 20
667.9715810574273
 30
0.0
 11
3527.389851806798
 21
668.271581057427
 31
0.0
  0
LINE
  5
5758
330
1E
100
AcDbEntity
  8
躯体と製品
  6
Continuous
 62
     4
100
AcDbLine
 10
3527.389851806798
 20
668.271581057427
 30
0.0
 11
3527.689851806798
 21
667.9715810574273
 31
0.0
  0
LINE
  5
5759
330
1E
100
AcDbEntity
  8
躯体と製品
  6
Continuous
 62
     4
100
AcDbLine
 10
3529.589850806799
 20
667.9715810574273
 30
0.0
 11
3529.889850806799
 21
668.271581057427
 31
0.0
  0
LINE
  5
575A
330
1E
100
AcDbEntity
  8
躯体と製品
  6
Continuous
 62
     4
100
AcDbLine
 10
3514.389849806799
 20
668.271581057427
 30
0.0
 11
3514.689849806799
 21
667.9715810574273
 31
0.0
  0
LINE
  5
575B
330
1E
100
AcDbEntity
  8
躯体と製品
  6
Continuous
 62
     4
100
AcDbLine
 10
3512.189850806799
 20
667.9715810574273
 30
0.0
 11
3514.089849806799
 21
667.9715810574273
 31
0.0
  0
LINE
  5
575C
330
1E
100
AcDbEntity
  8
躯体と製品
  6
Continuous
 62
     4
100
AcDbLine
 10
3511.589850806799
 20
667.9715810574273
 30
0.0
 11
3511.889850806799
 21
668.271581057427
 31
0.0
  0
LINE
  5
575D
330
1E
100
AcDbEntity
  8
躯体と製品
  6
Continuous
 62
     4
100
AcDbLine
 10
3511.889850806799
 20
668.271581057427
 30
0.0
 11
3512.189850806799
 21
667.9715810574273
 31
0.0
  0
LINE
  5
575E
330
1E
100
AcDbEntity
  8
躯体と製品
  6
Continuous
 62
     4
100
AcDbLine
 10
3514.089849806799
 20
667.9715810574273
 30
0.0
 11
3514.389849806799
 21
668.271581057427
 31
0.0
  0
LINE
  5
575F
330
1E
100
AcDbEntity
  8
躯体と製品
  6
Continuous
 62
     4
100
AcDbLine
 10
3514.689849806799
 20
667.9715810574273
 30
0.0
 11
3520.589850806799
 21
667.9715810574273
 31
0.0
  0
LINE
  5
5760
330
1E
100
AcDbEntity
  8
躯体と製品
  6
Continuous
 62
     4
100
AcDbLine
 10
3520.589850806799
 20
667.9715810574273
 30
0.0
 11
3520.889850806799
 21
668.271581057427
 31
0.0
  0
LINE
  5
5761
330
1E
100
AcDbEntity
  8
躯体と製品
  6
Continuous
 62
     4
100
AcDbLine
 10
3520.889850806799
 20
668.271581057427
 30
0.0
 11
3521.189850806798
 21
667.9715810574273
 31
0.0
  0
LINE
  5
5762
330
1E
100
AcDbEntity
  8
躯体と製品
  6
Continuous
 62
     4
100
AcDbLine
 10
3521.189850806798
 20
667.9715810574273
 30
0.0
 11
3527.089851806799
 21
667.9715810574273
 31
0.0
  0
LINE
  5
5763
330
1E
100
AcDbEntity
  8
躯体と製品
  6
Continuous
 62
     3
100
AcDbLine
 10
3531.165066806799
 20
658.9963640574271
 30
0.0
 11
3531.374946806799
 21
659.4677660574273
 31
0.0
  0
LINE
  5
5764
330
1E
100
AcDbEntity
  8
躯体と製品
  6
Continuous
 62
     3
100
AcDbLine
 10
3530.693664806799
 20
658.786484057427
 30
0.0
 11
3531.165066806799
 21
658.9963640574271
 31
0.0
  0
LINE
  5
5765
330
1E
100
AcDbEntity
  8
躯体と製品
  6
Continuous
 62
     3
100
AcDbLine
 10
3531.165066806799
 20
657.546794057427
 30
0.0
 11
3531.374946806799
 21
657.0753950574272
 31
0.0
  0
LINE
  5
5766
330
1E
100
AcDbEntity
  8
躯体と製品
  6
Continuous
 62
     3
100
AcDbLine
 10
3531.165066806799
 20
657.546794057427
 30
0.0
 11
3530.693664806799
 21
657.7566770574271
 31
0.0
  0
LINE
  5
5767
330
1E
100
AcDbEntity
  8
躯体と製品
  6
Continuous
 62
     3
100
AcDbLine
 10
3532.404753806798
 20
657.0753950574272
 30
0.0
 11
3532.389849806799
 21
656.2215800574271
 31
0.0
  0
LINE
  5
5768
330
1E
100
AcDbEntity
  8
躯体と製品
  6
Continuous
 62
     3
100
AcDbLine
 10
3532.404753806798
 20
659.4677660574273
 30
0.0
 11
3532.389849806799
 21
660.3215810574271
 31
0.0
  0
LINE
  5
5769
330
1E
100
AcDbEntity
  8
躯体と製品
  6
Continuous
 62
     3
100
AcDbLine
 10
3532.614636806798
 20
658.9963640574271
 30
0.0
 11
3532.404753806798
 21
659.4677660574273
 31
0.0
  0
LINE
  5
576A
330
1E
100
AcDbEntity
  8
躯体と製品
  6
Continuous
 62
     3
100
AcDbLine
 10
3533.086035806799
 20
658.786484057427
 30
0.0
 11
3532.614636806798
 21
658.9963640574271
 31
0.0
  0
LINE
  5
576B
330
1E
100
AcDbEntity
  8
躯体と製品
  6
Continuous
 62
     3
100
AcDbLine
 10
3533.939850806798
 20
658.7715800574271
 30
0.0
 11
3533.086035806799
 21
658.786484057427
 31
0.0
  0
LINE
  5
576C
330
1E
100
AcDbEntity
  8
躯体と製品
  6
Continuous
 62
     3
100
AcDbLine
 10
3532.614636806798
 20
657.546794057427
 30
0.0
 11
3532.404753806798
 21
657.0753950574272
 31
0.0
  0
LINE
  5
576D
330
1E
100
AcDbEntity
  8
躯体と製品
  6
Continuous
 62
     3
100
AcDbLine
 10
3533.939850806798
 20
657.771581057427
 30
0.0
 11
3533.086035806799
 21
657.7566770574271
 31
0.0
  0
LINE
  5
576E
330
1E
100
AcDbEntity
  8
躯体と製品
  6
Continuous
 62
     3
100
AcDbLine
 10
3532.614636806798
 20
657.546794057427
 30
0.0
 11
3533.086035806799
 21
657.7566770574271
 31
0.0
  0
LINE
  5
576F
330
1E
100
AcDbEntity
  8
躯体と製品
  6
Continuous
 62
     3
100
AcDbLine
 10
3533.939850806798
 20
658.7715800574271
 30
0.0
 11
3533.939850806798
 21
657.771581057427
 31
0.0
  0
LINE
  5
5770
330
1E
100
AcDbEntity
  8
躯体と製品
  6
Continuous
 62
     3
100
AcDbLine
 10
3531.389850806799
 20
656.2215800574271
 30
0.0
 11
3531.374946806799
 21
657.0753950574272
 31
0.0
  0
LINE
  5
5771
330
1E
100
AcDbEntity
  8
躯体と製品
  6
Continuous
 62
     3
100
AcDbLine
 10
3532.389849806799
 20
656.2215800574271
 30
0.0
 11
3531.389850806799
 21
656.2215800574271
 31
0.0
  0
LINE
  5
5772
330
1E
100
AcDbEntity
  8
躯体と製品
  6
Continuous
 62
     3
100
AcDbLine
 10
3531.389850806799
 20
660.3215810574271
 30
0.0
 11
3531.374946806799
 21
659.4677660574273
 31
0.0
  0
LINE
  5
5773
330
1E
100
AcDbEntity
  8
躯体と製品
  6
Continuous
 62
     3
100
AcDbLine
 10
3532.389849806799
 20
660.3215810574271
 30
0.0
 11
3531.389850806799
 21
660.3215810574271
 31
0.0
  0
LINE
  5
5774
330
1E
100
AcDbEntity
  8
躯体と製品
  6
Continuous
 62
     3
100
AcDbLine
 10
3535.889850806799
 20
667.9715810574273
 30
0.0
 11
3535.889850806799
 21
652.9715810574273
 31
0.0
  0
LINE
  5
5775
330
1E
100
AcDbEntity
  8
躯体と製品
  6
Continuous
 62
     4
100
AcDbLine
 10
3540.903828806799
 20
644.9075990574272
 30
0.0
 11
3540.903828806799
 21
667.2715790574272
 31
0.0
  0
LINE
  5
5776
330
1E
100
AcDbEntity
  8
躯体と製品
  6
Continuous
 62
     4
100
AcDbLine
 10
3539.603829806798
 20
649.257602057427
 30
0.0
 11
3539.603829806798
 21
666.9715790574272
 31
0.0
  0
ARC
  5
5777
330
1E
100
AcDbEntity
  8
躯体と製品
  6
Continuous
 62
     4
100
AcDbCircle
 10
3540.253827806799
 20
644.9076020574273
 30
0.0
 40
0.6500010000000001
100
AcDbArc
 50
180.0
 51
0.0
  0
LINE
  5
5778
330
1E
100
AcDbEntity
  8
躯体と製品
  6
Continuous
 62
     4
100
AcDbLine
 10
3539.603829806798
 20
649.2565310574271
 30
0.0
 11
3538.103829806799
 21
649.2404900574273
 31
0.0
  0
LINE
  5
5779
330
1E
100
AcDbEntity
  8
躯体と製品
  6
Continuous
 62
     4
100
AcDbLine
 10
3538.103829806799
 20
649.2404900574273
 30
0.0
 11
3538.603827806799
 21
646.2456650574272
 31
0.0
  0
LINE
  5
577A
330
1E
100
AcDbEntity
  8
躯体と製品
  6
Continuous
 62
     4
100
AcDbLine
 10
3538.603827806799
 20
646.2456650574272
 30
0.0
 11
3539.603829806798
 21
646.2563600574271
 31
0.0
  0
LINE
  5
577B
330
1E
100
AcDbEntity
  8
躯体と製品
  6
Continuous
 62
     4
100
AcDbLine
 10
3539.603829806798
 20
644.9075990574272
 30
0.0
 11
3539.603829806798
 21
646.2576020574271
 31
0.0
  0
LINE
  5
577C
330
1E
100
AcDbEntity
  8
躯体と製品
  6
Continuous
 62
     4
100
AcDbLine
 10
3530.189850806799
 20
667.9715810574273
 30
0.0
 11
3538.603827806799
 21
667.9715810574273
 31
0.0
  0
ARC
  5
577D
330
1E
100
AcDbEntity
  8
躯体と製品
  6
Continuous
 62
     4
100
AcDbCircle
 10
3538.603827806799
 20
666.9715790574272
 30
0.0
 40
0.999999
100
AcDbArc
 50
0.0
 51
90.0
  0
LINE
  5
577E
330
1E
100
AcDbEntity
  8
躯体と製品
  6
Continuous
 62
     2
100
AcDbLine
 10
3528.389850806799
 20
671.2715810574271
 30
0.0
 11
3532.389849806799
 21
671.2715810574271
 31
0.0
  0
LINE
  5
577F
330
1E
100
AcDbEntity
  8
躯体と製品
  6
Continuous
 62
     3
100
AcDbLine
 10
3529.030650806799
 20
677.7715790574273
 30
0.0
 11
3530.155650806799
 21
680.7715790574272
 31
0.0
  0
LINE
  5
5780
330
1E
100
AcDbEntity
  8
躯体と製品
  6
Continuous
 62
     3
100
AcDbLine
 10
3531.014850806799
 20
680.7715790574272
 30
0.0
 11
3529.889850806799
 21
677.7715790574273
 31
0.0
  0
LINE
  5
5781
330
1E
100
AcDbEntity
  8
躯体と製品
  6
Continuous
 62
     3
100
AcDbLine
 10
3529.985250806799
 20
677.1715790574271
 30
0.0
 11
3530.530650806799
 21
677.7715790574273
 31
0.0
  0
LINE
  5
5782
330
1E
100
AcDbEntity
  8
躯体と製品
  6
Continuous
 62
     3
100
AcDbLine
 10
3531.5602508068
 20
681.3715790574271
 30
0.0
 11
3529.985250806799
 21
677.1715790574271
 31
0.0
  0
LINE
  5
5783
330
1E
100
AcDbEntity
  8
躯体と製品
  6
Continuous
 62
     3
100
AcDbLine
 10
3530.060250806799
 20
681.3715790574271
 30
0.0
 11
3530.155650806799
 21
680.7715790574272
 31
0.0
  0
ARC
  5
5784
330
1E
100
AcDbEntity
  8
躯体と製品
  6
Continuous
 62
     4
100
AcDbCircle
 10
3526.389849806799
 20
687.2715800574272
 30
0.0
 40
0.999999
100
AcDbArc
 50
0.0
 51
90.0
  0
ARC
  5
5785
330
1E
100
AcDbEntity
  8
躯体と製品
  6
Continuous
 62
     4
100
AcDbCircle
 10
3526.389849806799
 20
687.2715800574272
 30
0.0
 40
2.000001
100
AcDbArc
 50
0.0
 51
90.0
  0
LINE
  5
5786
330
1E
100
AcDbEntity
  8
躯体と製品
  6
Continuous
 62
     3
100
AcDbLine
 10
3524.389851806799
 20
689.271581057427
 30
0.0
 11
3517.389849806799
 21
689.271581057427
 31
0.0
  0
LINE
  5
5787
330
1E
100
AcDbEntity
  8
躯体と製品
  6
Continuous
 62
     3
100
AcDbLine
 10
3524.291913806798
 20
690.3909950574272
 30
0.0
 11
3524.389851806799
 21
689.271581057427
 31
0.0
  0
ARC
  5
5788
330
1E
100
AcDbEntity
  8
躯体と製品
  6
Continuous
 62
     3
100
AcDbCircle
 10
3518.782839806799
 20
690.2776940574274
 30
0.0
 40
1.299998999999999
100
AcDbArc
 50
105.8808500000142
 51
174.9999999999993
  0
ARC
  5
5789
330
1E
100
AcDbEntity
  8
躯体と製品
  6
Continuous
 62
     3
100
AcDbCircle
 10
3522.996861806798
 20
690.2776940574274
 30
0.0
 40
1.299998999999999
100
AcDbArc
 50
5.000000000000595
 51
74.11914999998574
  0
ARC
  5
578A
330
1E
100
AcDbEntity
  8
躯体と製品
  6
Continuous
 62
     3
100
AcDbCircle
 10
3520.889850806799
 20
682.871579057427
 30
0.0
 40
9.0
100
AcDbArc
 50
74.11914999998574
 51
105.8808500000142
  0
LINE
  5
578B
330
1E
100
AcDbEntity
  8
躯体と製品
  6
Continuous
 62
     3
100
AcDbLine
 10
3517.487787806799
 20
690.3909950574272
 30
0.0
 11
3517.389849806799
 21
689.271581057427
 31
0.0
  0
LINE
  5
578C
330
1E
100
AcDbEntity
  8
躯体と製品
  6
Continuous
 62
     4
100
AcDbLine
 10
3519.476343806799
 20
683.6080730574271
 30
0.0
 11
3519.326520806799
 21
683.4582500574271
 31
0.0
  0
ARC
  5
578D
330
1E
100
AcDbEntity
  8
躯体と製品
  6
Continuous
 62
     4
100
AcDbCircle
 10
3518.946015806799
 20
684.1384040574271
 30
0.0
 40
0.75
100
AcDbArc
 50
315.0000000000023
 51
29.99999999999446
  0
LINE
  5
578E
330
1E
100
AcDbEntity
  8
躯体と製品
  6
Continuous
 62
     4
100
AcDbLine
 10
3519.595533806799
 20
684.5134040574271
 30
0.0
 11
3518.869125806799
 21
685.7715800574271
 31
0.0
  0
ARC
  5
578F
330
1E
100
AcDbEntity
  8
躯体と製品
  6
Continuous
 62
     4
100
AcDbCircle
 10
3522.983511806799
 20
683.9885810574271
 30
0.0
 40
0.75
100
AcDbArc
 50
224.9999999999976
 51
319.5816660000015
  0
ARC
  5
5790
330
1E
100
AcDbEntity
  8
躯体と製品
  6
Continuous
 62
     4
100
AcDbCircle
 10
3518.796189806799
 20
683.9885810574271
 30
0.0
 40
0.75
100
AcDbArc
 50
220.4183339999985
 51
315.0000000000023
  0
ARC
  5
5791
330
1E
100
AcDbEntity
  8
躯体と製品
  6
Continuous
 62
     4
100
AcDbCircle
 10
3522.833688806799
 20
684.1384040574271
 30
0.0
 40
0.75
100
AcDbArc
 50
150.0000000000055
 51
224.9999999999976
  0
LINE
  5
5792
330
1E
100
AcDbEntity
  8
躯体と製品
  6
Continuous
 62
     4
100
AcDbLine
 10
3522.303357806799
 20
683.6080730574271
 30
0.0
 11
3522.453180806798
 21
683.4582500574271
 31
0.0
  0
LINE
  5
5793
330
1E
100
AcDbEntity
  8
躯体と製品
  6
Continuous
 62
     4
100
AcDbLine
 10
3522.910575806799
 20
685.7715800574271
 30
0.0
 11
3522.184167806798
 21
684.5134040574271
 31
0.0
  0
ARC
  5
5794
330
1E
100
AcDbEntity
  8
躯体と製品
  6
Continuous
 62
     4
100
AcDbCircle
 10
3520.889850806799
 20
685.7715800574271
 30
0.0
 40
3.500000999999999
100
AcDbArc
 50
150.0000000000055
 51
220.4183370000024
  0
ARC
  5
5795
330
1E
100
AcDbEntity
  8
躯体と製品
  6
Continuous
 62
     4
100
AcDbCircle
 10
3520.889850806799
 20
685.7715800574271
 30
0.0
 40
3.500000999999999
100
AcDbArc
 50
319.5816519999907
 51
29.99999999999446
  0
LINE
  5
5796
330
1E
100
AcDbEntity
  8
躯体と製品
  6
Continuous
 62
     4
100
AcDbLine
 10
3520.420938806799
 20
687.5215790574273
 30
0.0
 11
3519.879486806799
 21
687.5215790574273
 31
0.0
  0
LINE
  5
5797
330
1E
100
AcDbEntity
  8
躯体と製品
  6
Continuous
 62
     4
100
AcDbLine
 10
3519.879486806799
 20
687.5215790574273
 30
0.0
 11
3518.869125806799
 21
685.7715800574271
 31
0.0
  0
LINE
  5
5798
330
1E
100
AcDbEntity
  8
躯体と製品
  6
Continuous
 62
     4
100
AcDbLine
 10
3520.420938806799
 20
687.5215790574273
 30
0.0
 11
3521.900214806799
 21
687.5215790574273
 31
0.0
  0
LINE
  5
5799
330
1E
100
AcDbEntity
  8
躯体と製品
  6
Continuous
 62
     4
100
AcDbLine
 10
3521.900214806799
 20
687.5215790574273
 30
0.0
 11
3522.910575806799
 21
685.7715800574271
 31
0.0
  0
ARC
  5
579A
330
1E
100
AcDbEntity
  8
躯体と製品
  6
Continuous
 62
     4
100
AcDbCircle
 10
3524.353953806799
 20
687.7715810574271
 30
0.0
 40
0.5000010000000001
100
AcDbArc
 50
90.0
 51
209.9999999999944
  0
ARC
  5
579B
330
1E
100
AcDbEntity
  8
躯体と製品
  6
Continuous
 62
     4
100
AcDbCircle
 10
3517.425747806799
 20
687.7715810574271
 30
0.0
 40
0.5000010000000001
100
AcDbArc
 50
330.0000000000055
 51
90.0
  0
LINE
  5
579C
330
1E
100
AcDbEntity
  8
躯体と製品
  6
Continuous
 62
     4
100
AcDbLine
 10
3515.389851806799
 20
688.2715790574272
 30
0.0
 11
3517.425747806799
 21
688.2715790574272
 31
0.0
  0
LINE
  5
579D
330
1E
100
AcDbEntity
  8
躯体と製品
  6
Continuous
 62
     4
100
AcDbLine
 10
3524.353953806799
 20
688.2715790574272
 30
0.0
 11
3526.389849806799
 21
688.2715790574272
 31
0.0
  0
LINE
  5
579E
330
1E
100
AcDbEntity
  8
躯体と製品
  6
Continuous
 62
     4
100
AcDbLine
 10
3515.389851806799
 20
689.271581057427
 30
0.0
 11
3526.389849806799
 21
689.271581057427
 31
0.0
  0
ARC
  5
579F
330
1E
100
AcDbEntity
  8
躯体と製品
  6
Continuous
 62
     4
100
AcDbCircle
 10
3515.389851806799
 20
687.2715800574272
 30
0.0
 40
0.999999
100
AcDbArc
 50
90.0
 51
180.0
  0
ARC
  5
57A0
330
1E
100
AcDbEntity
  8
躯体と製品
  6
Continuous
 62
     4
100
AcDbCircle
 10
3515.389851806799
 20
687.2715800574272
 30
0.0
 40
2.000001
100
AcDbArc
 50
90.0
 51
180.0
  0
LINE
  5
57A1
330
1E
100
AcDbEntity
  8
躯体と製品
  6
Continuous
 62
     3
100
AcDbLine
 10
3526.889850806799
 20
677.7715790574273
 30
0.0
 11
3526.889850806799
 21
680.7715790574272
 31
0.0
  0
LINE
  5
57A2
330
1E
100
AcDbEntity
  8
躯体と製品
  6
Continuous
 62
     3
100
AcDbLine
 10
3529.514850806799
 20
680.7715790574272
 30
0.0
 11
3528.389850806799
 21
677.7715790574273
 31
0.0
  0
LINE
  5
57A3
330
1E
100
AcDbEntity
  8
躯体と製品
  6
Continuous
 62
     3
100
AcDbLine
 10
3527.530650806799
 20
677.7715790574273
 30
0.0
 11
3528.389850806799
 21
677.7715790574273
 31
0.0
  0
LINE
  5
57A4
330
1E
100
AcDbEntity
  8
躯体と製品
  6
Continuous
 62
     3
100
AcDbLine
 10
3529.514850806799
 20
680.7715790574272
 30
0.0
 11
3528.655650806799
 21
680.7715790574272
 31
0.0
  0
LINE
  5
57A5
330
1E
100
AcDbEntity
  8
躯体と製品
  6
Continuous
 62
     3
100
AcDbLine
 10
3529.889850806799
 20
677.7715790574273
 30
0.0
 11
3529.030650806799
 21
677.7715790574273
 31
0.0
  0
LINE
  5
57A6
330
1E
100
AcDbEntity
  8
躯体と製品
  6
Continuous
 62
     3
100
AcDbLine
 10
3527.530650806799
 20
677.7715790574273
 30
0.0
 11
3528.655650806799
 21
680.7715790574272
 31
0.0
  0
LINE
  5
57A7
330
1E
100
AcDbEntity
  8
躯体と製品
  6
Continuous
 62
     3
100
AcDbLine
 10
3528.014850806799
 20
680.7715790574272
 30
0.0
 11
3526.889850806799
 21
677.7715790574273
 31
0.0
  0
LINE
  5
57A8
330
1E
100
AcDbEntity
  8
躯体と製品
  6
Continuous
 62
     3
100
AcDbLine
 10
3526.985250806799
 20
677.1715790574271
 30
0.0
 11
3526.889850806799
 21
677.7715790574273
 31
0.0
  0
LINE
  5
57A9
330
1E
100
AcDbEntity
  8
躯体と製品
  6
Continuous
 62
     3
100
AcDbLine
 10
3526.985250806799
 20
677.1715790574271
 30
0.0
 11
3527.530650806799
 21
677.7715790574273
 31
0.0
  0
LINE
  5
57AA
330
1E
100
AcDbEntity
  8
躯体と製品
  6
Continuous
 62
     3
100
AcDbLine
 10
3528.485250806799
 20
677.1715790574271
 30
0.0
 11
3528.389850806799
 21
677.7715790574273
 31
0.0
  0
LINE
  5
57AB
330
1E
100
AcDbEntity
  8
躯体と製品
  6
Continuous
 62
     3
100
AcDbLine
 10
3528.485250806799
 20
677.1715790574271
 30
0.0
 11
3529.030650806799
 21
677.7715790574273
 31
0.0
  0
LINE
  5
57AC
330
1E
100
AcDbEntity
  8
躯体と製品
  6
Continuous
 62
     3
100
AcDbLine
 10
3529.985250806799
 20
677.1715790574271
 30
0.0
 11
3529.889850806799
 21
677.7715790574273
 31
0.0
  0
ARC
  5
57AD
330
1E
100
AcDbEntity
  8
躯体と製品
  6
Continuous
 62
     4
100
AcDbCircle
 10
3526.389849806799
 20
671.2715810574271
 30
0.0
 40
0.999999
100
AcDbArc
 50
270.0
 51
0.0
  0
ARC
  5
57AE
330
1E
100
AcDbEntity
  8
躯体と製品
  6
Continuous
 62
     3
100
AcDbCircle
 10
3521.789805806799
 20
671.3633600574272
 30
0.0
 40
0.399981
100
AcDbArc
 50
76.29976700000231
 51
180.0
  0
ARC
  5
57AF
330
1E
100
AcDbEntity
  8
躯体と製品
  6
Continuous
 62
     3
100
AcDbCircle
 10
3519.989895806799
 20
671.3633600574272
 30
0.0
 40
0.399981
100
AcDbArc
 50
0.0
 51
103.7002329999977
  0
LINE
  5
57B0
330
1E
100
AcDbEntity
  8
躯体と製品
  6
Continuous
 62
     3
100
AcDbLine
 10
3520.389876806798
 20
671.3371970574272
 30
0.0
 11
3521.389824806799
 21
671.3371970574272
 31
0.0
  0
ARC
  5
57B1
330
1E
100
AcDbEntity
  8
躯体と製品
  6
Continuous
 62
     3
100
AcDbCircle
 10
3520.889850806799
 20
667.671662057427
 30
0.0
 40
4.19979
100
AcDbArc
 50
50.6906290000056
 51
129.3031309999911
  0
LINE
  5
57B2
330
1E
100
AcDbEntity
  8
躯体と製品
  6
Continuous
 62
     3
100
AcDbLine
 10
3521.889849806799
 20
679.2715790574272
 30
0.0
 11
3523.389849806799
 21
680.7715790574272
 31
0.0
  0
LINE
  5
57B3
330
1E
100
AcDbEntity
  8
躯体と製品
  6
Continuous
 62
     3
100
AcDbLine
 10
3523.389849806799
 20
677.7715790574273
 30
0.0
 11
3521.889849806799
 21
679.2715790574272
 31
0.0
  0
LINE
  5
57B4
330
1E
100
AcDbEntity
  8
躯体と製品
  6
Continuous
 62
     3
100
AcDbLine
 10
3523.389849806799
 20
679.7215790574272
 30
0.0
 11
3523.389849806799
 21
677.7715790574273
 31
0.0
  0
LINE
  5
57B5
330
1E
100
AcDbEntity
  8
躯体と製品
  6
Continuous
 62
     3
100
AcDbLine
 10
3526.889850806799
 20
677.7715790574273
 30
0.0
 11
3523.389849806799
 21
677.7715790574273
 31
0.0
  0
LINE
  5
57B6
330
1E
100
AcDbEntity
  8
躯体と製品
  6
Continuous
 62
     3
100
AcDbLine
 10
3528.014850806799
 20
680.7715790574272
 30
0.0
 11
3523.389849806799
 21
680.7715790574272
 31
0.0
  0
LINE
  5
57B7
330
1E
100
AcDbEntity
  8
躯体と製品
  6
Continuous
 62
     3
100
AcDbLine
 10
3521.889849806799
 20
679.2715790574272
 30
0.0
 11
3526.889850806799
 21
680.7715790574272
 31
0.0
  0
LINE
  5
57B8
330
1E
100
AcDbEntity
  8
躯体と製品
  6
Continuous
 62
     4
100
AcDbLine
 10
3526.389849806799
 20
670.2715790574273
 30
0.0
 11
3515.389851806799
 21
670.2715790574273
 31
0.0
  0
ARC
  5
57B9
330
1E
100
AcDbEntity
  8
躯体と製品
  6
Continuous
 62
     4
100
AcDbCircle
 10
3515.389851806799
 20
671.2715810574271
 30
0.0
 40
0.999999
100
AcDbArc
 50
180.0
 51
270.0
  0
LINE
  5
57BA
330
1E
100
AcDbEntity
  8
躯体と製品
  6
Continuous
 62
     3
100
AcDbLine
 10
3530.060250806799
 20
681.3715790574271
 30
0.0
 11
3528.485250806799
 21
677.1715790574271
 31
0.0
  0
LINE
  5
57BB
330
1E
100
AcDbEntity
  8
躯体と製品
  6
Continuous
 62
     3
100
AcDbLine
 10
3528.560250806799
 20
681.3715790574271
 30
0.0
 11
3528.014850806799
 21
680.7715790574272
 31
0.0
  0
LINE
  5
57BC
330
1E
100
AcDbEntity
  8
躯体と製品
  6
Continuous
 62
     3
100
AcDbLine
 10
3528.560250806799
 20
681.3715790574271
 30
0.0
 11
3528.655650806799
 21
680.7715790574272
 31
0.0
  0
LINE
  5
57BD
330
1E
100
AcDbEntity
  8
躯体と製品
  6
Continuous
 62
     3
100
AcDbLine
 10
3526.985250806799
 20
677.1715790574271
 30
0.0
 11
3528.560250806799
 21
681.3715790574271
 31
0.0
  0
LINE
  5
57BE
330
1E
100
AcDbEntity
  8
躯体と製品
  6
Continuous
 62
     3
100
AcDbLine
 10
3526.985250806799
 20
681.3715790574271
 30
0.0
 11
3526.889850806799
 21
680.7715790574272
 31
0.0
  0
LINE
  5
57BF
330
1E
100
AcDbEntity
  8
躯体と製品
  6
Continuous
 62
     3
100
AcDbLine
 10
3526.985250806799
 20
681.3715790574271
 30
0.0
 11
3527.530650806799
 21
680.7715790574272
 31
0.0
  0
LINE
  5
57C0
330
1E
100
AcDbEntity
  8
躯体と製品
  6
Continuous
 62
     3
100
AcDbLine
 10
3530.060250806799
 20
681.3715790574271
 30
0.0
 11
3529.514850806799
 21
680.7715790574272
 31
0.0
  0
LINE
  5
57C1
330
1E
100
AcDbEntity
  8
躯体と製品
  6
Continuous
 62
     4
100
AcDbLine
 10
3527.389851806798
 20
671.2715810574271
 30
0.0
 11
3527.389851806798
 21
687.2715800574272
 31
0.0
  0
LINE
  5
57C2
330
1E
100
AcDbEntity
  8
躯体と製品
  6
Continuous
 62
     4
100
AcDbLine
 10
3514.389849806799
 20
671.2715810574271
 30
0.0
 11
3514.389849806799
 21
687.2715800574272
 31
0.0
  0
LINE
  5
57C3
330
1E
100
AcDbEntity
  8
躯体と製品
  6
Continuous
 62
     4
100
AcDbLine
 10
3528.389850806799
 20
671.2715810574271
 30
0.0
 11
3528.389850806799
 21
687.2715800574272
 31
0.0
  0
LINE
  5
57C4
330
1E
100
AcDbEntity
  8
躯体と製品
  6
Continuous
 62
     4
100
AcDbLine
 10
3534.889851806799
 20
681.771581057427
 30
0.0
 11
3532.889850806799
 21
681.771581057427
 31
0.0
  0
LINE
  5
57C5
330
1E
100
AcDbEntity
  8
躯体と製品
  6
Continuous
 62
     3
100
AcDbLine
 10
3534.889851806799
 20
682.809701057427
 30
0.0
 11
3535.689849806799
 21
683.2715810574271
 31
0.0
  0
LINE
  5
57C6
330
1E
100
AcDbEntity
  8
躯体と製品
  6
Continuous
 62
     3
100
AcDbLine
 10
3536.652123806799
 20
682.9213400574273
 30
0.0
 11
3535.689849806799
 21
683.2715810574271
 31
0.0
  0
LINE
  5
57C7
330
1E
100
AcDbEntity
  8
躯体と製品
  6
Continuous
 62
     4
100
AcDbLine
 10
3532.389849806799
 20
684.600008057427
 30
0.0
 11
3532.389849806799
 21
682.7715800574272
 31
0.0
  0
LINE
  5
57C8
330
1E
100
AcDbEntity
  8
躯体と製品
  6
Continuous
 62
     4
100
AcDbLine
 10
3532.389849806799
 20
689.271581057427
 30
0.0
 11
3532.389849806799
 21
687.2715800574272
 31
0.0
  0
ARC
  5
57C9
330
1E
100
AcDbEntity
  8
躯体と製品
  6
Continuous
 62
     4
100
AcDbCircle
 10
3533.854317806798
 20
686.7715790574273
 30
0.0
 40
0.5000010000000001
100
AcDbArc
 50
315.0000000000023
 51
90.0
  0
LINE
  5
57CA
330
1E
100
AcDbEntity
  8
躯体と製品
  6
Continuous
 62
     4
100
AcDbLine
 10
3532.389849806799
 20
687.2715800574272
 30
0.0
 11
3533.854317806798
 21
687.2715800574272
 31
0.0
  0
LINE
  5
57CB
330
1E
100
AcDbEntity
  8
躯体と製品
  6
Continuous
 62
     4
100
AcDbLine
 10
3532.389849806799
 20
684.600008057427
 30
0.0
 11
3534.207870806798
 21
686.4180260574273
 31
0.0
  0
LINE
  5
57CC
330
1E
100
AcDbEntity
  8
躯体と製品
  6
Continuous
 62
     4
100
AcDbLine
 10
3532.889850806799
 20
682.2715790574273
 30
0.0
 11
3532.389849806799
 21
682.7715800574272
 31
0.0
  0
LINE
  5
57CD
330
1E
100
AcDbEntity
  8
躯体と製品
  6
Continuous
 62
     4
100
AcDbLine
 10
3534.889851806799
 20
676.7715800574271
 30
0.0
 11
3532.889850806799
 21
676.7715800574271
 31
0.0
  0
LINE
  5
57CE
330
1E
100
AcDbEntity
  8
躯体と製品
  6
Continuous
 62
     3
100
AcDbLine
 10
3535.689849806799
 20
675.2715800574272
 30
0.0
 11
3534.889851806799
 21
675.7334600574271
 31
0.0
  0
LINE
  5
57CF
330
1E
100
AcDbEntity
  8
躯体と製品
  6
Continuous
 62
     3
100
AcDbLine
 10
3534.889851806799
 20
677.7715790574273
 30
0.0
 11
3533.530650806799
 21
677.7715790574273
 31
0.0
  0
LINE
  5
57D0
330
1E
100
AcDbEntity
  8
躯体と製品
  6
Continuous
 62
     3
100
AcDbLine
 10
3532.889850806799
 20
677.7715790574273
 30
0.0
 11
3532.030650806799
 21
677.7715790574273
 31
0.0
  0
LINE
  5
57D1
330
1E
100
AcDbEntity
  8
躯体と製品
  6
Continuous
 62
     3
100
AcDbLine
 10
3534.889851806799
 20
680.7715790574272
 30
0.0
 11
3534.655650806799
 21
680.7715790574272
 31
0.0
  0
LINE
  5
57D2
330
1E
100
AcDbEntity
  8
躯体と製品
  6
Continuous
 62
     3
100
AcDbLine
 10
3534.014850806799
 20
680.7715790574272
 30
0.0
 11
3531.655650806799
 21
680.7715790574272
 31
0.0
  0
LINE
  5
57D3
330
1E
100
AcDbEntity
  8
躯体と製品
  6
Continuous
 62
     3
100
AcDbLine
 10
3530.530650806799
 20
677.7715790574273
 30
0.0
 11
3531.389850806799
 21
677.7715790574273
 31
0.0
  0
LINE
  5
57D4
330
1E
100
AcDbEntity
  8
躯体と製品
  6
Continuous
 62
     3
100
AcDbLine
 10
3531.014850806799
 20
680.7715790574272
 30
0.0
 11
3530.155650806799
 21
680.7715790574272
 31
0.0
  0
LINE
  5
57D5
330
1E
100
AcDbEntity
  8
躯体と製品
  6
Continuous
 62
     3
100
AcDbLine
 10
3532.514850806799
 20
680.7715790574272
 30
0.0
 11
3531.389850806799
 21
677.7715790574273
 31
0.0
  0
LINE
  5
57D6
330
1E
100
AcDbEntity
  8
躯体と製品
  6
Continuous
 62
     3
100
AcDbLine
 10
3532.030650806799
 20
677.7715790574273
 30
0.0
 11
3533.155650806799
 21
680.7715790574272
 31
0.0
  0
LINE
  5
57D7
330
1E
100
AcDbEntity
  8
躯体と製品
  6
Continuous
 62
     3
100
AcDbLine
 10
3530.530650806799
 20
677.7715790574273
 30
0.0
 11
3531.655650806799
 21
680.7715790574272
 31
0.0
  0
LINE
  5
57D8
330
1E
100
AcDbEntity
  8
躯体と製品
  6
Continuous
 62
     3
100
AcDbLine
 10
3536.652123806799
 20
675.6218180574272
 30
0.0
 11
3535.689849806799
 21
675.2715800574272
 31
0.0
  0
LINE
  5
57D9
330
1E
100
AcDbEntity
  8
躯体と製品
  6
Continuous
 62
     3
100
AcDbLine
 10
3531.485250806798
 20
677.1715790574271
 30
0.0
 11
3531.389850806799
 21
677.7715790574273
 31
0.0
  0
LINE
  5
57DA
330
1E
100
AcDbEntity
  8
躯体と製品
  6
Continuous
 62
     3
100
AcDbLine
 10
3531.485250806798
 20
677.1715790574271
 30
0.0
 11
3532.030650806799
 21
677.7715790574273
 31
0.0
  0
LINE
  5
57DB
330
1E
100
AcDbEntity
  8
躯体と製品
  6
Continuous
 62
     3
100
AcDbLine
 10
3534.014850806799
 20
680.7715790574272
 30
0.0
 11
3532.889850806799
 21
677.7715790574273
 31
0.0
  0
LINE
  5
57DC
330
1E
100
AcDbEntity
  8
躯体と製品
  6
Continuous
 62
     3
100
AcDbLine
 10
3533.530650806799
 20
677.7715790574273
 30
0.0
 11
3534.655650806799
 21
680.7715790574272
 31
0.0
  0
LINE
  5
57DD
330
1E
100
AcDbEntity
  8
躯体と製品
  6
Continuous
 62
     3
100
AcDbLine
 10
3532.985250806798
 20
677.1715790574271
 30
0.0
 11
3532.889850806799
 21
677.7715790574273
 31
0.0
  0
LINE
  5
57DE
330
1E
100
AcDbEntity
  8
躯体と製品
  6
Continuous
 62
     3
100
AcDbLine
 10
3532.985250806798
 20
677.1715790574271
 30
0.0
 11
3533.530650806799
 21
677.7715790574273
 31
0.0
  0
LINE
  5
57DF
330
1E
100
AcDbEntity
  8
躯体と製品
  6
Continuous
 62
     4
100
AcDbLine
 10
3532.389849806799
 20
673.9431530574271
 30
0.0
 11
3532.389849806799
 21
675.771581057427
 31
0.0
  0
LINE
  5
57E0
330
1E
100
AcDbEntity
  8
躯体と製品
  6
Continuous
 62
     4
100
AcDbLine
 10
3534.889851806799
 20
678.9715790574271
 30
0.0
 11
3534.889851806799
 21
674.271581057427
 31
0.0
  0
LINE
  5
57E1
330
1E
100
AcDbEntity
  8
躯体と製品
  6
Continuous
 62
     4
100
AcDbLine
 10
3534.889851806799
 20
679.5715790574273
 30
0.0
 11
3534.589851806799
 21
679.2715790574272
 31
0.0
  0
LINE
  5
57E2
330
1E
100
AcDbEntity
  8
躯体と製品
  6
Continuous
 62
     4
100
AcDbLine
 10
3534.889851806799
 20
678.9715790574271
 30
0.0
 11
3534.589851806799
 21
679.2715790574272
 31
0.0
  0
LINE
  5
57E3
330
1E
100
AcDbEntity
  8
躯体と製品
  6
Continuous
 62
     4
100
AcDbLine
 10
3532.889850806799
 20
676.2715790574272
 30
0.0
 11
3532.389849806799
 21
675.771581057427
 31
0.0
  0
ARC
  5
57E4
330
1E
100
AcDbEntity
  8
躯体と製品
  6
Continuous
 62
     4
100
AcDbCircle
 10
3533.854317806798
 20
671.7715790574272
 30
0.0
 40
0.5000010000000001
100
AcDbArc
 50
270.0
 51
44.99999999999769
  0
LINE
  5
57E5
330
1E
100
AcDbEntity
  8
躯体と製品
  6
Continuous
 62
     4
100
AcDbLine
 10
3532.389849806799
 20
671.2715810574271
 30
0.0
 11
3533.854317806798
 21
671.2715810574271
 31
0.0
  0
LINE
  5
57E6
330
1E
100
AcDbEntity
  8
躯体と製品
  6
Continuous
 62
     4
100
AcDbLine
 10
3532.389849806799
 20
673.9431530574271
 30
0.0
 11
3534.207870806798
 21
672.1251320574272
 31
0.0
  0
LINE
  5
57E7
330
1E
100
AcDbEntity
  8
躯体と製品
  6
Continuous
 62
     3
100
AcDbLine
 10
3534.889851806799
 20
675.7334600574271
 30
0.0
 11
3534.889851806799
 21
682.809701057427
 31
0.0
  0
LINE
  5
57E8
330
1E
100
AcDbEntity
  8
躯体と製品
  6
Continuous
 62
     3
100
AcDbLine
 10
3535.689849806799
 20
675.2715800574272
 30
0.0
 11
3535.689849806799
 21
683.2715810574271
 31
0.0
  0
LINE
  5
57E9
330
1E
100
AcDbEntity
  8
躯体と製品
  6
Continuous
 62
     3
100
AcDbLine
 10
3533.0602508068
 20
681.3715790574271
 30
0.0
 11
3531.485250806798
 21
677.1715790574271
 31
0.0
  0
LINE
  5
57EA
330
1E
100
AcDbEntity
  8
躯体と製品
  6
Continuous
 62
     3
100
AcDbLine
 10
3531.5602508068
 20
681.3715790574271
 30
0.0
 11
3531.014850806799
 21
680.7715790574272
 31
0.0
  0
LINE
  5
57EB
330
1E
100
AcDbEntity
  8
躯体と製品
  6
Continuous
 62
     3
100
AcDbLine
 10
3531.5602508068
 20
681.3715790574271
 30
0.0
 11
3531.655650806799
 21
680.7715790574272
 31
0.0
  0
LINE
  5
57EC
330
1E
100
AcDbEntity
  8
躯体と製品
  6
Continuous
 62
     3
100
AcDbLine
 10
3533.0602508068
 20
681.3715790574271
 30
0.0
 11
3532.514850806799
 21
680.7715790574272
 31
0.0
  0
LINE
  5
57ED
330
1E
100
AcDbEntity
  8
躯体と製品
  6
Continuous
 62
     3
100
AcDbLine
 10
3533.0602508068
 20
681.3715790574271
 30
0.0
 11
3533.155650806799
 21
680.7715790574272
 31
0.0
  0
LINE
  5
57EE
330
1E
100
AcDbEntity
  8
躯体と製品
  6
Continuous
 62
     3
100
AcDbLine
 10
3534.5602508068
 20
681.3715790574271
 30
0.0
 11
3532.985250806798
 21
677.1715790574271
 31
0.0
  0
LINE
  5
57EF
330
1E
100
AcDbEntity
  8
躯体と製品
  6
Continuous
 62
     3
100
AcDbLine
 10
3534.5602508068
 20
681.3715790574271
 30
0.0
 11
3534.014850806799
 21
680.7715790574272
 31
0.0
  0
LINE
  5
57F0
330
1E
100
AcDbEntity
  8
躯体と製品
  6
Continuous
 62
     3
100
AcDbLine
 10
3534.5602508068
 20
681.3715790574271
 30
0.0
 11
3534.655650806799
 21
680.7715790574272
 31
0.0
  0
LINE
  5
57F1
330
1E
100
AcDbEntity
  8
躯体と製品
  6
Continuous
 62
     4
100
AcDbLine
 10
3534.889851806799
 20
679.5715790574273
 30
0.0
 11
3534.889851806799
 21
684.2715800574271
 31
0.0
  0
LINE
  5
57F2
330
1E
100
AcDbEntity
  8
躯体と製品
  6
Continuous
 62
     4
100
AcDbLine
 10
3532.889850806799
 20
676.2715790574272
 30
0.0
 11
3532.889850806799
 21
682.2715790574273
 31
0.0
  0
ARC
  5
57F3
330
1E
100
AcDbEntity
  8
躯体と製品
  6
Continuous
 62
     3
100
AcDbCircle
 10
3531.889851806798
 20
679.2715790574272
 30
0.0
 40
6.0
100
AcDbArc
 50
322.5337820000033
 51
37.4662179999966
  0
LINE
  5
57F4
330
1E
100
AcDbEntity
  8
躯体と製品
  6
Continuous
 62
     4
100
AcDbLine
 10
3537.889851806799
 20
689.271581057427
 30
0.0
 11
3532.389849806799
 21
689.271581057427
 31
0.0
  0
LINE
  5
57F5
330
1E
100
AcDbEntity
  8
躯体と製品
  6
Continuous
 62
     4
100
AcDbLine
 10
3537.889851806799
 20
687.2715800574272
 30
0.0
 11
3534.889851806799
 21
684.2715800574271
 31
0.0
  0
LINE
  5
57F6
330
1E
100
AcDbEntity
  8
躯体と製品
  6
Continuous
 62
     4
100
AcDbLine
 10
3534.889851806799
 20
674.271581057427
 30
0.0
 11
3537.889851806799
 21
671.2715810574271
 31
0.0
  0
LINE
  5
57F7
330
1E
100
AcDbEntity
  8
躯体と製品
  6
Continuous
 62
     2
100
AcDbLine
 10
3532.389849806799
 20
752.5215800574271
 30
0.0
 11
3532.389849806799
 21
828.7715810574271
 31
0.0
  0
LINE
  5
57F8
330
1E
100
AcDbEntity
  8
躯体と製品
  6
Continuous
 62
     2
100
AcDbLine
 10
3528.389850806799
 20
752.5215800574271
 30
0.0
 11
3528.389850806799
 21
828.7715810574271
 31
0.0
  0
LINE
  5
57F9
330
1E
100
AcDbEntity
  8
躯体と製品
  6
Continuous
 62
     4
100
AcDbLine
 10
3537.889851806799
 20
752.5215800574271
 30
0.0
 11
3537.889851806799
 21
812.271581057427
 31
0.0
  0
LINE
  5
57FA
330
1E
100
AcDbEntity
  8
躯体と製品
  6
Continuous
 62
     4
100
AcDbLine
 10
3513.389850806799
 20
752.5215800574271
 30
0.0
 11
3513.389850806799
 21
828.7715810574271
 31
0.0
  0
LINE
  5
57FB
330
1E
100
AcDbEntity
  8
躯体と製品
  6
Continuous
 62
     4
100
AcDbLine
 10
3529.889850806799
 20
831.9715790574273
 30
0.0
 11
3530.189850806799
 21
832.2715790574273
 31
0.0
  0
LINE
  5
57FC
330
1E
100
AcDbEntity
  8
躯体と製品
  6
Continuous
 62
     2
100
AcDbLine
 10
3532.389849806799
 20
828.7715810574271
 30
0.0
 11
3528.389850806799
 21
828.7715810574271
 31
0.0
  0
LINE
  5
57FD
330
1E
100
AcDbEntity
  8
躯体と製品
  6
Continuous
 62
     3
100
AcDbLine
 10
3529.030650806799
 20
818.7715790574273
 30
0.0
 11
3530.155650806799
 21
821.7715790574272
 31
0.0
  0
LINE
  5
57FE
330
1E
100
AcDbEntity
  8
躯体と製品
  6
Continuous
 62
     3
100
AcDbLine
 10
3531.014850806799
 20
821.7715790574272
 30
0.0
 11
3529.889850806799
 21
818.7715790574273
 31
0.0
  0
LINE
  5
57FF
330
1E
100
AcDbEntity
  8
躯体と製品
  6
Continuous
 62
     3
100
AcDbLine
 10
3531.5602508068
 20
822.3715790574274
 30
0.0
 11
3529.985250806799
 21
818.1715790574271
 31
0.0
  0
LINE
  5
5800
330
1E
100
AcDbEntity
  8
躯体と製品
  6
Continuous
 62
     3
100
AcDbLine
 10
3530.060250806799
 20
822.3715790574274
 30
0.0
 11
3530.155650806799
 21
821.7715790574272
 31
0.0
  0
LINE
  5
5801
330
1E
100
AcDbEntity
  8
躯体と製品
  6
Continuous
 62
     3
100
AcDbLine
 10
3529.985250806799
 20
818.1715790574271
 30
0.0
 11
3530.530650806799
 21
818.7715790574273
 31
0.0
  0
LINE
  5
5802
330
1E
100
AcDbEntity
  8
躯体と製品
  6
Continuous
 62
     4
100
AcDbLine
 10
3510.639849806799
 20
830.7715790574272
 30
0.0
 11
3531.139851806798
 21
830.7715790574272
 31
0.0
  0
LINE
  5
5803
330
1E
100
AcDbEntity
  8
躯体と製品
  6
Continuous
 62
     4
100
AcDbLine
 10
3529.589850806799
 20
832.2715790574273
 30
0.0
 11
3529.889850806799
 21
831.9715790574273
 31
0.0
  0
LINE
  5
5804
330
1E
100
AcDbEntity
  8
躯体と製品
  6
Continuous
 62
     4
100
AcDbLine
 10
3527.389851806798
 20
831.9715790574273
 30
0.0
 11
3527.689851806798
 21
832.2715790574273
 31
0.0
  0
LINE
  5
5805
330
1E
100
AcDbEntity
  8
躯体と製品
  6
Continuous
 62
     4
100
AcDbLine
 10
3527.089851806799
 20
832.2715790574273
 30
0.0
 11
3527.389851806798
 21
831.9715790574273
 31
0.0
  0
LINE
  5
5806
330
1E
100
AcDbEntity
  8
躯体と製品
  6
Continuous
 62
     4
100
AcDbLine
 10
3529.589850806799
 20
832.2715790574273
 30
0.0
 11
3527.689851806798
 21
832.2715790574273
 31
0.0
  0
ARC
  5
5807
330
1E
100
AcDbEntity
  8
躯体と製品
  6
Continuous
 62
     4
100
AcDbCircle
 10
3526.389849806799
 20
828.7715810574271
 30
0.0
 40
0.999999
100
AcDbArc
 50
0.0
 51
90.0
  0
ARC
  5
5808
330
1E
100
AcDbEntity
  8
躯体と製品
  6
Continuous
 62
     4
100
AcDbCircle
 10
3526.389849806799
 20
828.7715810574271
 30
0.0
 40
2.000001
100
AcDbArc
 50
0.0
 51
90.0
  0
LINE
  5
5809
330
1E
100
AcDbEntity
  8
躯体と製品
  6
Continuous
 62
     4
100
AcDbLine
 10
3520.889850806799
 20
831.9715790574273
 30
0.0
 11
3521.189850806798
 21
832.2715790574273
 31
0.0
  0
LINE
  5
580A
330
1E
100
AcDbEntity
  8
躯体と製品
  6
Continuous
 62
     4
100
AcDbLine
 10
3520.589850806799
 20
832.2715790574273
 30
0.0
 11
3520.889850806799
 21
831.9715790574273
 31
0.0
  0
LINE
  5
580B
330
1E
100
AcDbEntity
  8
躯体と製品
  6
Continuous
 62
     4
100
AcDbLine
 10
3520.589850806799
 20
832.2715790574273
 30
0.0
 11
3514.689849806799
 21
832.2715790574273
 31
0.0
  0
LINE
  5
580C
330
1E
100
AcDbEntity
  8
躯体と製品
  6
Continuous
 62
     4
100
AcDbLine
 10
3527.089851806799
 20
832.2715790574273
 30
0.0
 11
3521.189850806798
 21
832.2715790574273
 31
0.0
  0
LINE
  5
580D
330
1E
100
AcDbEntity
  8
躯体と製品
  6
Continuous
 62
     4
100
AcDbLine
 10
3526.389849806799
 20
829.7715800574271
 30
0.0
 11
3515.389851806799
 21
829.7715800574271
 31
0.0
  0
LINE
  5
580E
330
1E
100
AcDbEntity
  8
躯体と製品
  6
Continuous
 62
     3
100
AcDbLine
 10
3526.889850806799
 20
818.7715790574273
 30
0.0
 11
3526.889850806799
 21
821.7715790574272
 31
0.0
  0
LINE
  5
580F
330
1E
100
AcDbEntity
  8
躯体と製品
  6
Continuous
 62
     3
100
AcDbLine
 10
3529.514850806799
 20
821.7715790574272
 30
0.0
 11
3528.389850806799
 21
818.7715790574273
 31
0.0
  0
LINE
  5
5810
330
1E
100
AcDbEntity
  8
躯体と製品
  6
Continuous
 62
     3
100
AcDbLine
 10
3530.060250806799
 20
822.3715790574274
 30
0.0
 11
3528.485250806799
 21
818.1715790574271
 31
0.0
  0
LINE
  5
5811
330
1E
100
AcDbEntity
  8
躯体と製品
  6
Continuous
 62
     3
100
AcDbLine
 10
3527.530650806799
 20
818.7715790574273
 30
0.0
 11
3528.389850806799
 21
818.7715790574273
 31
0.0
  0
LINE
  5
5812
330
1E
100
AcDbEntity
  8
躯体と製品
  6
Continuous
 62
     3
100
AcDbLine
 10
3529.514850806799
 20
821.7715790574272
 30
0.0
 11
3528.655650806799
 21
821.7715790574272
 31
0.0
  0
LINE
  5
5813
330
1E
100
AcDbEntity
  8
躯体と製品
  6
Continuous
 62
     3
100
AcDbLine
 10
3529.889850806799
 20
818.7715790574273
 30
0.0
 11
3529.030650806799
 21
818.7715790574273
 31
0.0
  0
LINE
  5
5814
330
1E
100
AcDbEntity
  8
躯体と製品
  6
Continuous
 62
     3
100
AcDbLine
 10
3527.530650806799
 20
818.7715790574273
 30
0.0
 11
3528.655650806799
 21
821.7715790574272
 31
0.0
  0
LINE
  5
5815
330
1E
100
AcDbEntity
  8
躯体と製品
  6
Continuous
 62
     3
100
AcDbLine
 10
3528.014850806799
 20
821.7715790574272
 30
0.0
 11
3526.889850806799
 21
818.7715790574273
 31
0.0
  0
LINE
  5
5816
330
1E
100
AcDbEntity
  8
躯体と製品
  6
Continuous
 62
     3
100
AcDbLine
 10
3526.985250806799
 20
818.1715790574271
 30
0.0
 11
3526.889850806799
 21
818.7715790574273
 31
0.0
  0
LINE
  5
5817
330
1E
100
AcDbEntity
  8
躯体と製品
  6
Continuous
 62
     3
100
AcDbLine
 10
3526.985250806799
 20
818.1715790574271
 30
0.0
 11
3527.530650806799
 21
818.7715790574273
 31
0.0
  0
LINE
  5
5818
330
1E
100
AcDbEntity
  8
躯体と製品
  6
Continuous
 62
     3
100
AcDbLine
 10
3528.560250806799
 20
822.3715790574274
 30
0.0
 11
3528.014850806799
 21
821.7715790574272
 31
0.0
  0
LINE
  5
5819
330
1E
100
AcDbEntity
  8
躯体と製品
  6
Continuous
 62
     3
100
AcDbLine
 10
3528.560250806799
 20
822.3715790574274
 30
0.0
 11
3528.655650806799
 21
821.7715790574272
 31
0.0
  0
LINE
  5
581A
330
1E
100
AcDbEntity
  8
躯体と製品
  6
Continuous
 62
     3
100
AcDbLine
 10
3526.985250806799
 20
818.1715790574271
 30
0.0
 11
3528.560250806799
 21
822.3715790574274
 31
0.0
  0
LINE
  5
581B
330
1E
100
AcDbEntity
  8
躯体と製品
  6
Continuous
 62
     3
100
AcDbLine
 10
3526.985250806799
 20
822.3715790574274
 30
0.0
 11
3526.889850806799
 21
821.7715790574272
 31
0.0
  0
LINE
  5
581C
330
1E
100
AcDbEntity
  8
躯体と製品
  6
Continuous
 62
     3
100
AcDbLine
 10
3526.985250806799
 20
822.3715790574274
 30
0.0
 11
3527.530650806799
 21
821.7715790574272
 31
0.0
  0
LINE
  5
581D
330
1E
100
AcDbEntity
  8
躯体と製品
  6
Continuous
 62
     3
100
AcDbLine
 10
3530.060250806799
 20
822.3715790574274
 30
0.0
 11
3529.514850806799
 21
821.7715790574272
 31
0.0
  0
LINE
  5
581E
330
1E
100
AcDbEntity
  8
躯体と製品
  6
Continuous
 62
     3
100
AcDbLine
 10
3528.485250806799
 20
818.1715790574271
 30
0.0
 11
3528.389850806799
 21
818.7715790574273
 31
0.0
  0
LINE
  5
581F
330
1E
100
AcDbEntity
  8
躯体と製品
  6
Continuous
 62
     3
100
AcDbLine
 10
3528.485250806799
 20
818.1715790574271
 30
0.0
 11
3529.030650806799
 21
818.7715790574273
 31
0.0
  0
LINE
  5
5820
330
1E
100
AcDbEntity
  8
躯体と製品
  6
Continuous
 62
     3
100
AcDbLine
 10
3529.985250806799
 20
818.1715790574271
 30
0.0
 11
3529.889850806799
 21
818.7715790574273
 31
0.0
  0
ARC
  5
5821
330
1E
100
AcDbEntity
  8
躯体と製品
  6
Continuous
 62
     4
100
AcDbCircle
 10
3526.389849806799
 20
812.7715790574272
 30
0.0
 40
2.000001
100
AcDbArc
 50
270.0
 51
0.0
  0
ARC
  5
5822
330
1E
100
AcDbEntity
  8
躯体と製品
  6
Continuous
 62
     4
100
AcDbCircle
 10
3526.389849806799
 20
812.7715790574272
 30
0.0
 40
0.999999
100
AcDbArc
 50
270.0
 51
0.0
  0
LINE
  5
5823
330
1E
100
AcDbEntity
  8
躯体と製品
  6
Continuous
 62
     3
100
AcDbLine
 10
3521.889849806799
 20
820.2715790574272
 30
0.0
 11
3523.389849806799
 21
821.7715790574272
 31
0.0
  0
LINE
  5
5824
330
1E
100
AcDbEntity
  8
躯体と製品
  6
Continuous
 62
     3
100
AcDbLine
 10
3523.389849806799
 20
818.7715790574273
 30
0.0
 11
3521.889849806799
 21
820.2715790574272
 31
0.0
  0
LINE
  5
5825
330
1E
100
AcDbEntity
  8
躯体と製品
  6
Continuous
 62
     3
100
AcDbLine
 10
3523.389849806799
 20
820.7215790574272
 30
0.0
 11
3523.389849806799
 21
818.7715790574273
 31
0.0
  0
LINE
  5
5826
330
1E
100
AcDbEntity
  8
躯体と製品
  6
Continuous
 62
     3
100
AcDbLine
 10
3517.389849806799
 20
810.7715810574271
 30
0.0
 11
3524.389851806799
 21
810.7715810574271
 31
0.0
  0
LINE
  5
5827
330
1E
100
AcDbEntity
  8
躯体と製品
  6
Continuous
 62
     3
100
AcDbLine
 10
3517.487787806799
 20
809.6521640574273
 30
0.0
 11
3517.389849806799
 21
810.7715810574271
 31
0.0
  0
ARC
  5
5828
330
1E
100
AcDbEntity
  8
躯体と製品
  6
Continuous
 62
     3
100
AcDbCircle
 10
3522.996861806798
 20
809.7654680574274
 30
0.0
 40
1.299998999999999
100
AcDbArc
 50
285.8808500000142
 51
354.9999999999993
  0
ARC
  5
5829
330
1E
100
AcDbEntity
  8
躯体と製品
  6
Continuous
 62
     3
100
AcDbCircle
 10
3518.782839806799
 20
809.7654680574274
 30
0.0
 40
1.299998999999999
100
AcDbArc
 50
185.0000000000006
 51
254.1191499999857
  0
ARC
  5
582A
330
1E
100
AcDbEntity
  8
躯体と製品
  6
Continuous
 62
     3
100
AcDbCircle
 10
3520.889850806799
 20
817.171580057427
 30
0.0
 40
9.0
100
AcDbArc
 50
254.1191499999857
 51
285.8808500000142
  0
LINE
  5
582B
330
1E
100
AcDbEntity
  8
躯体と製品
  6
Continuous
 62
     3
100
AcDbLine
 10
3524.291913806798
 20
809.6521640574273
 30
0.0
 11
3524.389851806799
 21
810.7715810574271
 31
0.0
  0
LINE
  5
582C
330
1E
100
AcDbEntity
  8
躯体と製品
  6
Continuous
 62
     4
100
AcDbLine
 10
3519.476343806799
 20
816.435086057427
 30
0.0
 11
3519.326520806799
 21
816.5849090574269
 31
0.0
  0
ARC
  5
582D
330
1E
100
AcDbEntity
  8
躯体と製品
  6
Continuous
 62
     4
100
AcDbCircle
 10
3518.946015806799
 20
815.9047550574273
 30
0.0
 40
0.75
100
AcDbArc
 50
330.0000000000055
 51
44.99999999999769
  0
LINE
  5
582E
330
1E
100
AcDbEntity
  8
躯体と製品
  6
Continuous
 62
     4
100
AcDbLine
 10
3519.595533806799
 20
815.5297550574273
 30
0.0
 11
3518.869125806799
 21
814.2715790574273
 31
0.0
  0
ARC
  5
582F
330
1E
100
AcDbEntity
  8
躯体と製品
  6
Continuous
 62
     4
100
AcDbCircle
 10
3522.983511806799
 20
816.0545810574273
 30
0.0
 40
0.75
100
AcDbArc
 50
40.41833399999847
 51
135.0000000000022
  0
ARC
  5
5830
330
1E
100
AcDbEntity
  8
躯体と製品
  6
Continuous
 62
     4
100
AcDbCircle
 10
3518.796189806799
 20
816.0545810574273
 30
0.0
 40
0.75
100
AcDbArc
 50
44.99999999999769
 51
139.5816660000015
  0
LINE
  5
5831
330
1E
100
AcDbEntity
  8
躯体と製品
  6
Continuous
 62
     4
100
AcDbLine
 10
3522.910575806799
 20
814.2715790574273
 30
0.0
 11
3522.184167806798
 21
815.5297550574273
 31
0.0
  0
ARC
  5
5832
330
1E
100
AcDbEntity
  8
躯体と製品
  6
Continuous
 62
     4
100
AcDbCircle
 10
3522.833688806799
 20
815.9047550574273
 30
0.0
 40
0.75
100
AcDbArc
 50
135.0000000000022
 51
209.9999999999944
  0
LINE
  5
5833
330
1E
100
AcDbEntity
  8
躯体と製品
  6
Continuous
 62
     4
100
AcDbLine
 10
3522.303357806799
 20
816.435086057427
 30
0.0
 11
3522.453180806798
 21
816.5849090574269
 31
0.0
  0
ARC
  5
5834
330
1E
100
AcDbEntity
  8
躯体と製品
  6
Continuous
 62
     4
100
AcDbCircle
 10
3520.889850806799
 20
814.2715790574273
 30
0.0
 40
3.500000999999999
100
AcDbArc
 50
139.5816629999975
 51
209.9999999999944
  0
ARC
  5
5835
330
1E
100
AcDbEntity
  8
躯体と製品
  6
Continuous
 62
     4
100
AcDbCircle
 10
3520.889850806799
 20
814.2715790574273
 30
0.0
 40
3.500000999999999
100
AcDbArc
 50
330.0000000000055
 51
40.41834800000922
  0
LINE
  5
5836
330
1E
100
AcDbEntity
  8
躯体と製品
  6
Continuous
 62
     4
100
AcDbLine
 10
3519.879486806799
 20
812.5215800574272
 30
0.0
 11
3518.869125806799
 21
814.2715790574273
 31
0.0
  0
LINE
  5
5837
330
1E
100
AcDbEntity
  8
躯体と製品
  6
Continuous
 62
     4
100
AcDbLine
 10
3520.420938806799
 20
812.5215800574272
 30
0.0
 11
3521.900214806799
 21
812.5215800574272
 31
0.0
  0
LINE
  5
5838
330
1E
100
AcDbEntity
  8
躯体と製品
  6
Continuous
 62
     4
100
AcDbLine
 10
3521.900214806799
 20
812.5215800574272
 30
0.0
 11
3522.910575806799
 21
814.2715790574273
 31
0.0
  0
ARC
  5
5839
330
1E
100
AcDbEntity
  8
躯体と製品
  6
Continuous
 62
     4
100
AcDbCircle
 10
3524.353953806799
 20
812.271581057427
 30
0.0
 40
0.5000010000000001
100
AcDbArc
 50
150.0000000000055
 51
270.0
  0
ARC
  5
583A
330
1E
100
AcDbEntity
  8
躯体と製品
  6
Continuous
 62
     4
100
AcDbCircle
 10
3517.425747806799
 20
812.271581057427
 30
0.0
 40
0.5000010000000001
100
AcDbArc
 50
270.0
 51
29.99999999999446
  0
LINE
  5
583B
330
1E
100
AcDbEntity
  8
躯体と製品
  6
Continuous
 62
     4
100
AcDbLine
 10
3520.420938806799
 20
812.5215800574272
 30
0.0
 11
3519.879486806799
 21
812.5215800574272
 31
0.0
  0
LINE
  5
583C
330
1E
100
AcDbEntity
  8
躯体と製品
  6
Continuous
 62
     4
100
AcDbLine
 10
3515.389851806799
 20
811.7715800574272
 30
0.0
 11
3517.425747806799
 21
811.7715800574272
 31
0.0
  0
LINE
  5
583D
330
1E
100
AcDbEntity
  8
躯体と製品
  6
Continuous
 62
     3
100
AcDbLine
 10
3526.889850806799
 20
818.7715790574273
 30
0.0
 11
3523.389849806799
 21
818.7715790574273
 31
0.0
  0
LINE
  5
583E
330
1E
100
AcDbEntity
  8
躯体と製品
  6
Continuous
 62
     3
100
AcDbLine
 10
3528.014850806799
 20
821.7715790574272
 30
0.0
 11
3523.389849806799
 21
821.7715790574272
 31
0.0
  0
LINE
  5
583F
330
1E
100
AcDbEntity
  8
躯体と製品
  6
Continuous
 62
     3
100
AcDbLine
 10
3521.889849806799
 20
820.2715790574272
 30
0.0
 11
3526.889850806799
 21
821.7715790574272
 31
0.0
  0
LINE
  5
5840
330
1E
100
AcDbEntity
  8
躯体と製品
  6
Continuous
 62
     4
100
AcDbLine
 10
3515.389851806799
 20
810.7715810574271
 30
0.0
 11
3526.389849806799
 21
810.7715810574271
 31
0.0
  0
LINE
  5
5841
330
1E
100
AcDbEntity
  8
躯体と製品
  6
Continuous
 62
     4
100
AcDbLine
 10
3524.353953806799
 20
811.7715800574272
 30
0.0
 11
3526.389849806799
 21
811.7715800574272
 31
0.0
  0
LINE
  5
5842
330
1E
100
AcDbEntity
  8
躯体と製品
  6
Continuous
 62
     4
100
AcDbLine
 10
3527.389851806798
 20
812.7715790574272
 30
0.0
 11
3527.389851806798
 21
828.7715810574271
 31
0.0
  0
LINE
  5
5843
330
1E
100
AcDbEntity
  8
躯体と製品
  6
Continuous
 62
     4
100
AcDbLine
 10
3528.389850806799
 20
828.7715810574271
 30
0.0
 11
3528.389850806799
 21
812.7715790574272
 31
0.0
  0
LINE
  5
5844
330
1E
100
AcDbEntity
  8
躯体と製品
  6
Continuous
 62
     4
100
AcDbLine
 10
3511.889850806799
 20
831.9715790574273
 30
0.0
 11
3512.189850806799
 21
832.2715790574273
 31
0.0
  0
LINE
  5
5845
330
1E
100
AcDbEntity
  8
躯体と製品
  6
Continuous
 62
     4
100
AcDbLine
 10
3511.589850806799
 20
832.2715790574273
 30
0.0
 11
3511.889850806799
 21
831.9715790574273
 31
0.0
  0
LINE
  5
5846
330
1E
100
AcDbEntity
  8
躯体と製品
  6
Continuous
 62
     4
100
AcDbLine
 10
3514.089849806799
 20
832.2715790574273
 30
0.0
 11
3514.389849806799
 21
831.9715790574273
 31
0.0
  0
LINE
  5
5847
330
1E
100
AcDbEntity
  8
躯体と製品
  6
Continuous
 62
     4
100
AcDbLine
 10
3514.089849806799
 20
832.2715790574273
 30
0.0
 11
3512.189850806799
 21
832.2715790574273
 31
0.0
  0
LINE
  5
5848
330
1E
100
AcDbEntity
  8
躯体と製品
  6
Continuous
 62
     4
100
AcDbLine
 10
3510.639849806799
 20
830.2715810574269
 30
0.0
 11
3510.639849806799
 21
830.7715790574272
 31
0.0
  0
LINE
  5
5849
330
1E
100
AcDbEntity
  8
躯体と製品
  6
Continuous
 62
     4
100
AcDbLine
 10
3514.389849806799
 20
812.7715790574272
 30
0.0
 11
3514.389849806799
 21
828.7715810574271
 31
0.0
  0
LINE
  5
584A
330
1E
100
AcDbEntity
  8
躯体と製品
  6
Continuous
 62
     4
100
AcDbLine
 10
3514.389849806799
 20
831.9715790574273
 30
0.0
 11
3514.689849806799
 21
832.2715790574273
 31
0.0
  0
ARC
  5
584B
330
1E
100
AcDbEntity
  8
躯体と製品
  6
Continuous
 62
     4
100
AcDbCircle
 10
3515.389851806799
 20
828.7715810574271
 30
0.0
 40
0.999999
100
AcDbArc
 50
90.0
 51
180.0
  0
ARC
  5
584C
330
1E
100
AcDbEntity
  8
躯体と製品
  6
Continuous
 62
     4
100
AcDbCircle
 10
3515.389851806799
 20
812.7715790574272
 30
0.0
 40
0.999999
100
AcDbArc
 50
180.0
 51
270.0
  0
ARC
  5
584D
330
1E
100
AcDbEntity
  8
躯体と製品
  6
Continuous
 62
     4
100
AcDbCircle
 10
3515.389851806799
 20
812.7715790574272
 30
0.0
 40
2.000001
100
AcDbArc
 50
180.0
 51
270.0
  0
ARC
  5
584E
330
1E
100
AcDbEntity
  8
躯体と製品
  6
Continuous
 62
     4
100
AcDbCircle
 10
3515.389851806799
 20
828.7715810574271
 30
0.0
 40
2.000001
100
AcDbArc
 50
90.0
 51
180.0
  0
ARC
  5
584F
330
1E
100
AcDbEntity
  8
躯体と製品
  6
Continuous
 62
     4
100
AcDbCircle
 10
3537.889851806799
 20
832.071581057427
 30
0.0
 40
0.5000010000000001
100
AcDbArc
 50
270.0
 51
0.0
  0
ARC
  5
5850
330
1E
100
AcDbEntity
  8
躯体と製品
  6
Continuous
 62
     4
100
AcDbCircle
 10
3539.189850806799
 20
830.7715790574272
 30
0.0
 40
0.5000010000000001
100
AcDbArc
 50
270.0
 51
0.0
  0
LINE
  5
5851
330
1E
100
AcDbEntity
  8
躯体と製品
  6
Continuous
 62
     4
100
AcDbLine
 10
3537.889851806799
 20
828.2715800574271
 30
0.0
 11
3537.889851806799
 21
830.2715810574269
 31
0.0
  0
LINE
  5
5852
330
1E
100
AcDbEntity
  8
躯体と製品
  6
Continuous
 62
     4
100
AcDbLine
 10
3534.389850806799
 20
831.5715800574272
 30
0.0
 11
3534.389850806799
 21
832.2715790574273
 31
0.0
  0
LINE
  5
5853
330
1E
100
AcDbEntity
  8
躯体と製品
  6
Continuous
 62
     4
100
AcDbLine
 10
3534.389850806799
 20
832.2715790574273
 30
0.0
 11
3530.189850806799
 21
832.2715790574273
 31
0.0
  0
LINE
  5
5854
330
1E
100
AcDbEntity
  8
躯体と製品
  6
Continuous
 62
     4
100
AcDbLine
 10
3531.139851806798
 20
830.7715790574272
 30
0.0
 11
3531.139851806798
 21
830.2715810574269
 31
0.0
  0
LINE
  5
5855
330
1E
100
AcDbEntity
  8
躯体と製品
  6
Continuous
 62
     3
100
AcDbLine
 10
3534.889851806799
 20
823.8097010574271
 30
0.0
 11
3535.689849806799
 21
824.2715810574271
 31
0.0
  0
LINE
  5
5856
330
1E
100
AcDbEntity
  8
躯体と製品
  6
Continuous
 62
     3
100
AcDbLine
 10
3536.652123806799
 20
823.9213400574273
 30
0.0
 11
3535.689849806799
 21
824.2715810574271
 31
0.0
  0
LINE
  5
5857
330
1E
100
AcDbEntity
  8
躯体と製品
  6
Continuous
 62
     4
100
AcDbLine
 10
3532.389849806799
 20
825.6000080574271
 30
0.0
 11
3532.389849806799
 21
823.7715800574271
 31
0.0
  0
LINE
  5
5858
330
1E
100
AcDbEntity
  8
躯体と製品
  6
Continuous
 62
     4
100
AcDbLine
 10
3532.389849806799
 20
830.2715810574269
 30
0.0
 11
3532.389849806799
 21
828.2715800574271
 31
0.0
  0
ARC
  5
5859
330
1E
100
AcDbEntity
  8
躯体と製品
  6
Continuous
 62
     4
100
AcDbCircle
 10
3533.854317806798
 20
827.7715790574273
 30
0.0
 40
0.5000010000000001
100
AcDbArc
 50
315.0000000000023
 51
90.0
  0
LINE
  5
585A
330
1E
100
AcDbEntity
  8
躯体と製品
  6
Continuous
 62
     4
100
AcDbLine
 10
3532.389849806799
 20
828.2715800574271
 30
0.0
 11
3533.854317806798
 21
828.2715800574271
 31
0.0
  0
LINE
  5
585B
330
1E
100
AcDbEntity
  8
躯体と製品
  6
Continuous
 62
     4
100
AcDbLine
 10
3532.389849806799
 20
825.6000080574271
 30
0.0
 11
3534.207870806798
 21
827.4180260574274
 31
0.0
  0
LINE
  5
585C
330
1E
100
AcDbEntity
  8
躯体と製品
  6
Continuous
 62
     4
100
AcDbLine
 10
3532.889850806799
 20
822.771581057427
 30
0.0
 11
3534.889851806799
 21
822.771581057427
 31
0.0
  0
LINE
  5
585D
330
1E
100
AcDbEntity
  8
躯体と製品
  6
Continuous
 62
     4
100
AcDbLine
 10
3532.889850806799
 20
817.7715800574272
 30
0.0
 11
3534.889851806799
 21
817.7715800574272
 31
0.0
  0
LINE
  5
585E
330
1E
100
AcDbEntity
  8
躯体と製品
  6
Continuous
 62
     3
100
AcDbLine
 10
3535.689849806799
 20
816.2715800574272
 30
0.0
 11
3534.889851806799
 21
816.7334600574271
 31
0.0
  0
LINE
  5
585F
330
1E
100
AcDbEntity
  8
躯体と製品
  6
Continuous
 62
     3
100
AcDbLine
 10
3534.889851806799
 20
818.7715790574273
 30
0.0
 11
3533.530650806799
 21
818.7715790574273
 31
0.0
  0
LINE
  5
5860
330
1E
100
AcDbEntity
  8
躯体と製品
  6
Continuous
 62
     3
100
AcDbLine
 10
3532.889850806799
 20
818.7715790574273
 30
0.0
 11
3532.030650806799
 21
818.7715790574273
 31
0.0
  0
LINE
  5
5861
330
1E
100
AcDbEntity
  8
躯体と製品
  6
Continuous
 62
     3
100
AcDbLine
 10
3534.889851806799
 20
821.7715790574272
 30
0.0
 11
3534.655650806799
 21
821.7715790574272
 31
0.0
  0
LINE
  5
5862
330
1E
100
AcDbEntity
  8
躯体と製品
  6
Continuous
 62
     3
100
AcDbLine
 10
3534.014850806799
 20
821.7715790574272
 30
0.0
 11
3531.655650806799
 21
821.7715790574272
 31
0.0
  0
LINE
  5
5863
330
1E
100
AcDbEntity
  8
躯体と製品
  6
Continuous
 62
     3
100
AcDbLine
 10
3530.530650806799
 20
818.7715790574273
 30
0.0
 11
3531.389850806799
 21
818.7715790574273
 31
0.0
  0
LINE
  5
5864
330
1E
100
AcDbEntity
  8
躯体と製品
  6
Continuous
 62
     3
100
AcDbLine
 10
3531.014850806799
 20
821.7715790574272
 30
0.0
 11
3530.155650806799
 21
821.7715790574272
 31
0.0
  0
LINE
  5
5865
330
1E
100
AcDbEntity
  8
躯体と製品
  6
Continuous
 62
     3
100
AcDbLine
 10
3532.514850806799
 20
821.7715790574272
 30
0.0
 11
3531.389850806799
 21
818.7715790574273
 31
0.0
  0
LINE
  5
5866
330
1E
100
AcDbEntity
  8
躯体と製品
  6
Continuous
 62
     3
100
AcDbLine
 10
3532.030650806799
 20
818.7715790574273
 30
0.0
 11
3533.155650806799
 21
821.7715790574272
 31
0.0
  0
LINE
  5
5867
330
1E
100
AcDbEntity
  8
躯体と製品
  6
Continuous
 62
     3
100
AcDbLine
 10
3533.0602508068
 20
822.3715790574274
 30
0.0
 11
3531.485250806798
 21
818.1715790574271
 31
0.0
  0
LINE
  5
5868
330
1E
100
AcDbEntity
  8
躯体と製品
  6
Continuous
 62
     3
100
AcDbLine
 10
3530.530650806799
 20
818.7715790574273
 30
0.0
 11
3531.655650806799
 21
821.7715790574272
 31
0.0
  0
LINE
  5
5869
330
1E
100
AcDbEntity
  8
躯体と製品
  6
Continuous
 62
     3
100
AcDbLine
 10
3536.652123806799
 20
816.6218180574272
 30
0.0
 11
3535.689849806799
 21
816.2715800574272
 31
0.0
  0
LINE
  5
586A
330
1E
100
AcDbEntity
  8
躯体と製品
  6
Continuous
 62
     3
100
AcDbLine
 10
3531.5602508068
 20
822.3715790574274
 30
0.0
 11
3531.014850806799
 21
821.7715790574272
 31
0.0
  0
LINE
  5
586B
330
1E
100
AcDbEntity
  8
躯体と製品
  6
Continuous
 62
     3
100
AcDbLine
 10
3531.5602508068
 20
822.3715790574274
 30
0.0
 11
3531.655650806799
 21
821.7715790574272
 31
0.0
  0
LINE
  5
586C
330
1E
100
AcDbEntity
  8
躯体と製品
  6
Continuous
 62
     3
100
AcDbLine
 10
3533.0602508068
 20
822.3715790574274
 30
0.0
 11
3532.514850806799
 21
821.7715790574272
 31
0.0
  0
LINE
  5
586D
330
1E
100
AcDbEntity
  8
躯体と製品
  6
Continuous
 62
     3
100
AcDbLine
 10
3533.0602508068
 20
822.3715790574274
 30
0.0
 11
3533.155650806799
 21
821.7715790574272
 31
0.0
  0
LINE
  5
586E
330
1E
100
AcDbEntity
  8
躯体と製品
  6
Continuous
 62
     3
100
AcDbLine
 10
3531.485250806798
 20
818.1715790574271
 30
0.0
 11
3531.389850806799
 21
818.7715790574273
 31
0.0
  0
LINE
  5
586F
330
1E
100
AcDbEntity
  8
躯体と製品
  6
Continuous
 62
     3
100
AcDbLine
 10
3531.485250806798
 20
818.1715790574271
 30
0.0
 11
3532.030650806799
 21
818.7715790574273
 31
0.0
  0
LINE
  5
5870
330
1E
100
AcDbEntity
  8
躯体と製品
  6
Continuous
 62
     3
100
AcDbLine
 10
3534.014850806799
 20
821.7715790574272
 30
0.0
 11
3532.889850806799
 21
818.7715790574273
 31
0.0
  0
LINE
  5
5871
330
1E
100
AcDbEntity
  8
躯体と製品
  6
Continuous
 62
     3
100
AcDbLine
 10
3533.530650806799
 20
818.7715790574273
 30
0.0
 11
3534.655650806799
 21
821.7715790574272
 31
0.0
  0
LINE
  5
5872
330
1E
100
AcDbEntity
  8
躯体と製品
  6
Continuous
 62
     3
100
AcDbLine
 10
3534.5602508068
 20
822.3715790574274
 30
0.0
 11
3532.985250806798
 21
818.1715790574271
 31
0.0
  0
LINE
  5
5873
330
1E
100
AcDbEntity
  8
躯体と製品
  6
Continuous
 62
     3
100
AcDbLine
 10
3534.5602508068
 20
822.3715790574274
 30
0.0
 11
3534.014850806799
 21
821.7715790574272
 31
0.0
  0
LINE
  5
5874
330
1E
100
AcDbEntity
  8
躯体と製品
  6
Continuous
 62
     3
100
AcDbLine
 10
3534.5602508068
 20
822.3715790574274
 30
0.0
 11
3534.655650806799
 21
821.7715790574272
 31
0.0
  0
LINE
  5
5875
330
1E
100
AcDbEntity
  8
躯体と製品
  6
Continuous
 62
     3
100
AcDbLine
 10
3532.985250806798
 20
818.1715790574271
 30
0.0
 11
3532.889850806799
 21
818.7715790574273
 31
0.0
  0
LINE
  5
5876
330
1E
100
AcDbEntity
  8
躯体と製品
  6
Continuous
 62
     3
100
AcDbLine
 10
3532.985250806798
 20
818.1715790574271
 30
0.0
 11
3533.530650806799
 21
818.7715790574273
 31
0.0
  0
LINE
  5
5877
330
1E
100
AcDbEntity
  8
躯体と製品
  6
Continuous
 62
     4
100
AcDbLine
 10
3532.389849806799
 20
810.2715800574271
 30
0.0
 11
3532.389849806799
 21
812.271581057427
 31
0.0
  0
LINE
  5
5878
330
1E
100
AcDbEntity
  8
躯体と製品
  6
Continuous
 62
     4
100
AcDbLine
 10
3532.389849806799
 20
814.9431530574272
 30
0.0
 11
3532.389849806799
 21
816.771581057427
 31
0.0
  0
LINE
  5
5879
330
1E
100
AcDbEntity
  8
躯体と製品
  6
Continuous
 62
     4
100
AcDbLine
 10
3534.889851806799
 20
819.9715790574272
 30
0.0
 11
3534.889851806799
 21
815.2715810574271
 31
0.0
  0
LINE
  5
587A
330
1E
100
AcDbEntity
  8
躯体と製品
  6
Continuous
 62
     4
100
AcDbLine
 10
3534.889851806799
 20
820.5715790574274
 30
0.0
 11
3534.589851806799
 21
820.2715790574272
 31
0.0
  0
LINE
  5
587B
330
1E
100
AcDbEntity
  8
躯体と製品
  6
Continuous
 62
     4
100
AcDbLine
 10
3534.889851806799
 20
819.9715790574272
 30
0.0
 11
3534.589851806799
 21
820.2715790574272
 31
0.0
  0
LINE
  5
587C
330
1E
100
AcDbEntity
  8
躯体と製品
  6
Continuous
 62
     4
100
AcDbLine
 10
3532.889850806799
 20
817.2715790574272
 30
0.0
 11
3532.889850806799
 21
823.2715790574273
 31
0.0
  0
LINE
  5
587D
330
1E
100
AcDbEntity
  8
躯体と製品
  6
Continuous
 62
     4
100
AcDbLine
 10
3532.889850806799
 20
817.2715790574272
 30
0.0
 11
3532.389849806799
 21
816.771581057427
 31
0.0
  0
ARC
  5
587E
330
1E
100
AcDbEntity
  8
躯体と製品
  6
Continuous
 62
     4
100
AcDbCircle
 10
3533.854317806798
 20
812.7715790574272
 30
0.0
 40
0.5000010000000001
100
AcDbArc
 50
270.0
 51
44.99999999999769
  0
LINE
  5
587F
330
1E
100
AcDbEntity
  8
躯体と製品
  6
Continuous
 62
     4
100
AcDbLine
 10
3532.389849806799
 20
812.271581057427
 30
0.0
 11
3533.854317806798
 21
812.271581057427
 31
0.0
  0
LINE
  5
5880
330
1E
100
AcDbEntity
  8
躯体と製品
  6
Continuous
 62
     4
100
AcDbLine
 10
3532.389849806799
 20
814.9431530574272
 30
0.0
 11
3534.207870806798
 21
813.1251320574271
 31
0.0
  0
LINE
  5
5881
330
1E
100
AcDbEntity
  8
躯体と製品
  6
Continuous
 62
     3
100
AcDbLine
 10
3534.889851806799
 20
816.7334600574271
 30
0.0
 11
3534.889851806799
 21
823.8097010574271
 31
0.0
  0
LINE
  5
5882
330
1E
100
AcDbEntity
  8
躯体と製品
  6
Continuous
 62
     3
100
AcDbLine
 10
3535.689849806799
 20
816.2715800574272
 30
0.0
 11
3535.689849806799
 21
824.2715810574271
 31
0.0
  0
LINE
  5
5883
330
1E
100
AcDbEntity
  8
躯体と製品
  6
Continuous
 62
     4
100
AcDbLine
 10
3534.889851806799
 20
820.5715790574274
 30
0.0
 11
3534.889851806799
 21
825.2715800574272
 31
0.0
  0
LINE
  5
5884
330
1E
100
AcDbEntity
  8
躯体と製品
  6
Continuous
 62
     4
100
AcDbLine
 10
3532.889850806799
 20
823.2715790574273
 30
0.0
 11
3532.389849806799
 21
823.7715800574271
 31
0.0
  0
LINE
  5
5885
330
1E
100
AcDbEntity
  8
躯体と製品
  6
Continuous
 62
     4
100
AcDbLine
 10
3537.889851806799
 20
831.5715800574272
 30
0.0
 11
3534.389850806799
 21
831.5715800574272
 31
0.0
  0
LINE
  5
5886
330
1E
100
AcDbEntity
  8
躯体と製品
  6
Continuous
 62
     4
100
AcDbLine
 10
3539.189850806799
 20
830.2715810574269
 30
0.0
 11
3531.139851806798
 21
830.2715810574269
 31
0.0
  0
ARC
  5
5887
330
1E
100
AcDbEntity
  8
躯体と製品
  6
Continuous
 62
     3
100
AcDbCircle
 10
3531.889851806798
 20
820.2715790574272
 30
0.0
 40
6.0
100
AcDbArc
 50
322.5337820000033
 51
37.4662179999966
  0
LINE
  5
5888
330
1E
100
AcDbEntity
  8
躯体と製品
  6
Continuous
 62
     4
100
AcDbLine
 10
3532.389849806799
 20
810.2715800574271
 30
0.0
 11
3537.889851806799
 21
810.2715800574271
 31
0.0
  0
LINE
  5
5889
330
1E
100
AcDbEntity
  8
躯体と製品
  6
Continuous
 62
     4
100
AcDbLine
 10
3537.889851806799
 20
828.2715800574271
 30
0.0
 11
3534.889851806799
 21
825.2715800574272
 31
0.0
  0
LINE
  5
588A
330
1E
100
AcDbEntity
  8
躯体と製品
  6
Continuous
 62
     4
100
AcDbLine
 10
3534.889851806799
 20
815.2715810574271
 30
0.0
 11
3537.889851806799
 21
812.271581057427
 31
0.0
  0
ARC
  5
588B
330
1E
100
AcDbEntity
  8
躯体と製品
  6
Continuous
 62
     4
100
AcDbCircle
 10
3541.389849806799
 20
829.7715800574271
 30
0.0
 40
0.5000010000000001
100
AcDbArc
 50
180.0
 51
270.0
  0
LINE
  5
588C
330
1E
100
AcDbEntity
  8
躯体と製品
  6
Continuous
 62
     4
100
AcDbLine
 10
3540.889851806799
 20
830.5715810574271
 30
0.0
 11
3540.889851806799
 21
829.7715800574271
 31
0.0
  0
LINE
  5
588D
330
1E
100
AcDbEntity
  8
躯体と製品
  6
Continuous
 62
     4
100
AcDbLine
 10
3541.589850806799
 20
830.5715810574271
 30
0.0
 11
3540.889851806799
 21
830.5715810574271
 31
0.0
  0
ARC
  5
588E
330
1E
100
AcDbEntity
  8
躯体と製品
  6
Continuous
 62
     4
100
AcDbCircle
 10
3542.389851806799
 20
829.7715800574271
 30
0.0
 40
0.5000010000000001
100
AcDbArc
 50
270.0
 51
0.0
  0
LINE
  5
588F
330
1E
100
AcDbEntity
  8
躯体と製品
  6
Continuous
 62
     4
100
AcDbLine
 10
3542.389851806799
 20
829.2715790574273
 30
0.0
 11
3541.389849806799
 21
829.2715790574273
 31
0.0
  0
LINE
  5
5890
330
1E
100
AcDbEntity
  8
躯体と製品
  6
Continuous
 62
     4
100
AcDbLine
 10
3950.889849806799
 20
524.271581057427
 30
0.0
 11
3765.889851806799
 21
524.271581057427
 31
0.0
  0
LINE
  5
5891
330
1E
100
AcDbEntity
  8
躯体と製品
  6
Continuous
 62
     4
100
AcDbLine
 10
3950.889849806799
 20
564.2715800574271
 30
0.0
 11
3765.889851806799
 21
564.2715800574271
 31
0.0
  0
LINE
  5
5892
330
1E
100
AcDbEntity
  8
躯体と製品
  6
Continuous
 62
     2
100
AcDbLine
 10
3950.889849806799
 20
532.7715800574272
 30
0.0
 11
3767.889849806799
 21
532.7715800574272
 31
0.0
  0
LINE
  5
5893
330
1E
100
AcDbEntity
  8
躯体と製品
  6
Continuous
 62
     2
100
AcDbLine
 10
3950.889849806799
 20
536.7715790574273
 30
0.0
 11
3767.889849806799
 21
536.7715790574273
 31
0.0
  0
LINE
  5
5894
330
1E
100
AcDbEntity
  8
躯体と製品
  6
Continuous
 62
     4
100
AcDbLine
 10
3950.889849806799
 20
527.271581057427
 30
0.0
 11
3783.889851806799
 21
527.271581057427
 31
0.0
  0
LINE
  5
5895
330
1E
100
AcDbEntity
  8
躯体と製品
  6
Continuous
 62
     4
100
AcDbLine
 10
3950.889849806799
 20
551.7715790574272
 30
0.0
 11
3767.889849806799
 21
551.7715790574272
 31
0.0
  0
LINE
  5
5896
330
1E
100
AcDbEntity
  8
躯体と製品
  6
PLINE3
 62
     3
100
AcDbLine
 10
3950.889849806799
 20
544.2715790574273
 30
0.0
 11
3675.889851806799
 21
544.2715790574273
 31
0.0
  0
DIMENSION
  5
5897
330
1E
100
AcDbEntity
  8
寸法
  6
Continuous
100
AcDbDimension
  2
*D45
 10
3765.889851806799
 20
489.2715800574271
 30
0.0
 11
3740.889851306799
 21
492.5715800574272
 31
0.0
 70
    32
  1
50
 71
     5
 42
-1.0
  3
AutoCAD
100
AcDbAlignedDimension
 13
3715.889850806799
 23
518.271581057427
 33
0.0
 14
3765.889851806799
 24
518.271581057427
 34
0.0
100
AcDbRotatedDimension
1001
ACAD
1000
DSTYLE
1002
{
1070
   147
1040
0.8
1070
   140
1040
10.0
1002
}
  0
LINE
  5
5898
330
1E
100
AcDbEntity
  8
躯体と製品
  6
Continuous
 62
     4
100
AcDbLine
 10
3732.589851806799
 20
567.4715810574273
 30
0.0
 11
3749.189850806799
 21
567.4715810574273
 31
0.0
  0
LINE
  5
5899
330
1E
100
AcDbEntity
  8
躯体と製品
  6
Continuous
 62
     4
100
AcDbLine
 10
3763.889850806799
 20
569.271581057427
 30
0.0
 11
3717.889851806798
 21
569.271581057427
 31
0.0
  0
LINE
  5
589A
330
1E
100
AcDbEntity
  8
躯体と製品
  6
Continuous
 62
     4
100
AcDbLine
 10
3733.232379806799
 20
521.0715800574272
 30
0.0
 11
3748.547322806798
 21
521.0715800574272
 31
0.0
  0
LINE
  5
589B
330
1E
100
AcDbEntity
  8
躯体と製品
  6
Continuous
 62
     4
100
AcDbLine
 10
3763.889850806799
 20
519.2715800574271
 30
0.0
 11
3717.889851806798
 21
519.2715800574271
 31
0.0
  0
DIMENSION
  5
589C
330
1E
100
AcDbEntity
  8
寸法
  6
Continuous
100
AcDbDimension
  2
*D46
 10
3765.889851806799
 20
599.271581057427
 30
0.0
 11
3740.889851306799
 21
602.5715810574269
 31
0.0
 70
    32
  1
50
 71
     5
 42
-1.0
  3
AutoCAD
100
AcDbAlignedDimension
 13
3715.889850806799
 23
570.3315909830077
 33
0.0
 14
3765.889851806799
 24
570.3315909830077
 34
0.0
100
AcDbRotatedDimension
1001
ACAD
1000
DSTYLE
1002
{
1070
   147
1040
0.8
1070
   140
1040
10.0
1002
}
  0
LINE
  5
589D
330
1E
100
AcDbEntity
  8
躯体と製品
  6
Continuous
 62
     4
100
AcDbLine
 10
3717.389850806799
 20
566.4715790574271
 30
0.0
 11
3717.389850806799
 21
559.2480740574273
 31
0.0
  0
LINE
  5
589E
330
1E
100
AcDbEntity
  8
躯体と製品
  6
Continuous
 62
     4
100
AcDbLine
 10
3715.889850806799
 20
521.2715810574271
 30
0.0
 11
3715.889850806799
 21
567.2715800574271
 31
0.0
  0
LINE
  5
589F
330
1E
100
AcDbEntity
  8
躯体と製品
  6
PLINE3
 62
     3
100
AcDbLine
 10
3740.889849806799
 20
578.1307310574272
 30
0.0
 11
3740.889849806799
 21
508.9877840574273
 31
0.0
  0
LINE
  5
58A0
330
1E
100
AcDbEntity
  8
躯体と製品
  6
PLINE2
 62
     4
100
AcDbLine
 10
3685.889850806799
 20
559.2715790574272
 30
0.0
 11
3715.889850806799
 21
559.2715790574272
 31
0.0
  0
LINE
  5
58A1
330
1E
100
AcDbEntity
  8
躯体と製品
  6
PLINE2
 62
     4
100
AcDbLine
 10
3685.889850806799
 20
529.2715790574272
 30
0.0
 11
3715.889850806799
 21
529.2715790574272
 31
0.0
  0
LINE
  5
58A2
330
1E
100
AcDbEntity
  8
躯体と製品
  6
Continuous
 62
     4
100
AcDbLine
 10
3675.889851806799
 20
524.271581057427
 30
0.0
 11
3715.889850806799
 21
524.271581057427
 31
0.0
  0
LINE
  5
58A3
330
1E
100
AcDbEntity
  8
躯体と製品
  6
PLINE2
 62
     4
100
AcDbLine
 10
3685.889850806799
 20
529.2715790574272
 30
0.0
 11
3685.889850806799
 21
559.2715790574272
 31
0.0
  0
LINE
  5
58A4
330
1E
100
AcDbEntity
  8
躯体と製品
  6
Continuous
 62
     3
100
AcDbLine
 10
3697.939746806799
 20
543.7716050574273
 30
0.0
 11
3697.939746806799
 21
544.7715560574272
 31
0.0
  0
LINE
  5
58A5
330
1E
100
AcDbEntity
  8
躯体と製品
  6
Continuous
 62
     3
100
AcDbLine
 10
3695.374971806799
 20
543.075455057427
 30
0.0
 11
3695.389875806799
 21
542.2216820574272
 31
0.0
  0
LINE
  5
58A6
330
1E
100
AcDbEntity
  8
躯体と製品
  6
Continuous
 62
     3
100
AcDbLine
 10
3696.404727806799
 20
543.075455057427
 30
0.0
 11
3696.389826806799
 21
542.2216820574272
 31
0.0
  0
LINE
  5
58A7
330
1E
100
AcDbEntity
  8
躯体と製品
  6
Continuous
 62
     3
100
AcDbLine
 10
3696.614598806799
 20
543.5468330574273
 30
0.0
 11
3696.404727806799
 21
543.075455057427
 31
0.0
  0
LINE
  5
58A8
330
1E
100
AcDbEntity
  8
躯体と製品
  6
Continuous
 62
     3
100
AcDbLine
 10
3697.085976806799
 20
543.756701057427
 30
0.0
 11
3696.614598806799
 21
543.5468330574273
 31
0.0
  0
LINE
  5
58A9
330
1E
100
AcDbEntity
  8
躯体と製品
  6
Continuous
 62
     3
100
AcDbLine
 10
3696.614598806799
 20
544.9963280574272
 30
0.0
 11
3697.085976806799
 21
544.7864570574271
 31
0.0
  0
LINE
  5
58AA
330
1E
100
AcDbEntity
  8
躯体と製品
  6
Continuous
 62
     3
100
AcDbLine
 10
3696.404727806799
 20
545.4677060574271
 30
0.0
 11
3696.614598806799
 21
544.9963280574272
 31
0.0
  0
LINE
  5
58AB
330
1E
100
AcDbEntity
  8
躯体と製品
  6
Continuous
 62
     3
100
AcDbLine
 10
3696.389826806799
 20
546.3214760574273
 30
0.0
 11
3696.404727806799
 21
545.4677060574271
 31
0.0
  0
LINE
  5
58AC
330
1E
100
AcDbEntity
  8
躯体と製品
  6
Continuous
 62
     3
100
AcDbLine
 10
3695.374971806799
 20
545.4677060574271
 30
0.0
 11
3695.389875806799
 21
546.3214760574273
 31
0.0
  0
LINE
  5
58AD
330
1E
100
AcDbEntity
  8
躯体と製品
  6
Continuous
 62
     3
100
AcDbLine
 10
3695.165103806799
 20
544.9963280574272
 30
0.0
 11
3695.374971806799
 21
545.4677060574271
 31
0.0
  0
LINE
  5
58AE
330
1E
100
AcDbEntity
  8
躯体と製品
  6
Continuous
 62
     3
100
AcDbLine
 10
3694.693725806799
 20
544.7864570574271
 30
0.0
 11
3695.165103806799
 21
544.9963280574272
 31
0.0
  0
LINE
  5
58AF
330
1E
100
AcDbEntity
  8
躯体と製品
  6
Continuous
 62
     3
100
AcDbLine
 10
3693.839952806799
 20
544.7715560574272
 30
0.0
 11
3694.693725806799
 21
544.7864570574271
 31
0.0
  0
LINE
  5
58B0
330
1E
100
AcDbEntity
  8
躯体と製品
  6
Continuous
 62
     3
100
AcDbLine
 10
3695.165103806799
 20
543.5468330574273
 30
0.0
 11
3695.374971806799
 21
543.075455057427
 31
0.0
  0
LINE
  5
58B1
330
1E
100
AcDbEntity
  8
躯体と製品
  6
Continuous
 62
     3
100
AcDbLine
 10
3693.839952806799
 20
543.7716050574273
 30
0.0
 11
3694.693725806799
 21
543.756701057427
 31
0.0
  0
LINE
  5
58B2
330
1E
100
AcDbEntity
  8
躯体と製品
  6
Continuous
 62
     3
100
AcDbLine
 10
3695.165103806799
 20
543.5468330574273
 30
0.0
 11
3694.693725806799
 21
543.756701057427
 31
0.0
  0
LINE
  5
58B3
330
1E
100
AcDbEntity
  8
躯体と製品
  6
Continuous
 62
     3
100
AcDbLine
 10
3695.389875806799
 20
542.2216820574272
 30
0.0
 11
3696.389826806799
 21
542.2216820574272
 31
0.0
  0
LINE
  5
58B4
330
1E
100
AcDbEntity
  8
躯体と製品
  6
Continuous
 62
     3
100
AcDbLine
 10
3693.839952806799
 20
544.7715560574272
 30
0.0
 11
3693.839952806799
 21
543.7716050574273
 31
0.0
  0
LINE
  5
58B5
330
1E
100
AcDbEntity
  8
躯体と製品
  6
Continuous
 62
     3
100
AcDbLine
 10
3696.389826806799
 20
546.3214760574273
 30
0.0
 11
3695.389875806799
 21
546.3214760574273
 31
0.0
  0
LINE
  5
58B6
330
1E
100
AcDbEntity
  8
躯体と製品
  6
Continuous
 62
     3
100
AcDbLine
 10
3697.939746806799
 20
543.7716050574273
 30
0.0
 11
3697.085976806799
 21
543.756701057427
 31
0.0
  0
LINE
  5
58B7
330
1E
100
AcDbEntity
  8
躯体と製品
  6
Continuous
 62
     3
100
AcDbLine
 10
3697.085976806799
 20
544.7864570574271
 30
0.0
 11
3697.939746806799
 21
544.7715560574272
 31
0.0
  0
CIRCLE
  5
58B8
330
1E
100
AcDbEntity
  8
躯体と製品
  6
Continuous
 62
     3
100
AcDbCircle
 10
3695.889849806799
 20
544.2715790574273
 30
0.0
 40
3.499824
  0
LINE
  5
58B9
330
1E
100
AcDbEntity
  8
躯体と製品
  6
PLINE3
 62
     3
100
AcDbLine
 10
3695.889849806799
 20
554.2715810574271
 30
0.0
 11
3695.889849806799
 21
534.2715800574271
 31
0.0
  0
LINE
  5
58BA
330
1E
100
AcDbEntity
  8
躯体と製品
  6
Continuous
 62
     4
100
AcDbLine
 10
3718.139850806799
 20
534.2819420574272
 30
0.0
 11
3718.139850806799
 21
532.2612170574272
 31
0.0
  0
LINE
  5
58BB
330
1E
100
AcDbEntity
  8
躯体と製品
  6
Continuous
 62
     4
100
AcDbLine
 10
3718.389849806799
 20
521.0715800574272
 30
0.0
 11
3726.547320806799
 21
521.0715800574272
 31
0.0
  0
ARC
  5
58BC
330
1E
100
AcDbEntity
  8
躯体と製品
  6
Continuous
 62
     4
100
AcDbCircle
 10
3721.089849806799
 20
531.5972630574272
 30
0.0
 40
0.3
100
AcDbArc
 50
0.0
 51
120.0000000000005
  0
LINE
  5
58BD
330
1E
100
AcDbEntity
  8
躯体と製品
  6
Continuous
 62
     4
100
AcDbLine
 10
3721.389849806799
 20
531.5972630574272
 30
0.0
 11
3721.389849806799
 21
530.5766780574272
 31
0.0
  0
ARC
  5
58BE
330
1E
100
AcDbEntity
  8
躯体と製品
  6
Continuous
 62
     4
100
AcDbCircle
 10
3721.089849806799
 20
530.5766780574272
 30
0.0
 40
0.3
100
AcDbArc
 50
294.0026979999893
 51
0.0
  0
ARC
  5
58BF
330
1E
100
AcDbEntity
  8
躯体と製品
  6
Continuous
 62
     4
100
AcDbCircle
 10
3717.889851806798
 20
530.0994350574272
 30
0.0
 40
0.5000010000000001
100
AcDbArc
 50
57.76904699999533
 51
180.0
  0
LINE
  5
58C0
330
1E
100
AcDbEntity
  8
躯体と製品
  6
Continuous
 62
     4
100
AcDbLine
 10
3718.139850806799
 20
532.2612170574272
 30
0.0
 11
3719.889849806799
 21
531.2508530574273
 31
0.0
  0
LINE
  5
58C1
330
1E
100
AcDbEntity
  8
躯体と製品
  6
Continuous
 62
     4
100
AcDbLine
 10
3720.939849806799
 20
531.857072057427
 30
0.0
 11
3719.889849806799
 21
531.2508530574273
 31
0.0
  0
ARC
  5
58C2
330
1E
100
AcDbEntity
  8
躯体と製品
  6
Continuous
 62
     4
100
AcDbCircle
 10
3719.889849806799
 20
533.271581057427
 30
0.0
 40
3.249999
100
AcDbArc
 50
237.7690499999957
 51
294.0026979999893
  0
ARC
  5
58C3
330
1E
100
AcDbEntity
  8
躯体と製品
  6
Continuous
 62
     4
100
AcDbCircle
 10
3718.389849806799
 20
522.0715790574273
 30
0.0
 40
0.999999
100
AcDbArc
 50
180.0
 51
270.0
  0
ARC
  5
58C4
330
1E
100
AcDbEntity
  8
躯体と製品
  6
Continuous
 62
     4
100
AcDbCircle
 10
3717.889851806798
 20
521.2715810574271
 30
0.0
 40
2.000001
100
AcDbArc
 50
180.0
 51
270.0
  0
LINE
  5
58C5
330
1E
100
AcDbEntity
  8
躯体と製品
  6
Continuous
 62
     4
100
AcDbLine
 10
3717.389850806799
 20
522.0715790574273
 30
0.0
 11
3717.389850806799
 21
530.0994350574272
 31
0.0
  0
LINE
  5
58C6
330
1E
100
AcDbEntity
  8
躯体と製品
  6
Continuous
 62
     4
100
AcDbLine
 10
3731.564166806799
 20
524.7715790574273
 30
0.0
 11
3732.584754806799
 21
524.7715790574273
 31
0.0
  0
ARC
  5
58C7
330
1E
100
AcDbEntity
  8
躯体と製品
  6
Continuous
 62
     4
100
AcDbCircle
 10
3732.584754806799
 20
524.4715790574272
 30
0.0
 40
0.3
100
AcDbArc
 50
24.00269800000685
 51
90.0
  0
LINE
  5
58C8
330
1E
100
AcDbEntity
  8
躯体と製品
  6
Continuous
 62
     4
100
AcDbLine
 10
3728.215533806799
 20
524.7715790574273
 30
0.0
 11
3727.194948806799
 21
524.7715790574273
 31
0.0
  0
ARC
  5
58C9
330
1E
100
AcDbEntity
  8
躯体と製品
  6
Continuous
 62
     4
100
AcDbCircle
 10
3728.215533806799
 20
524.4715790574272
 30
0.0
 40
0.3
100
AcDbArc
 50
330.0000000000055
 51
90.0
  0
LINE
  5
58CA
330
1E
100
AcDbEntity
  8
躯体と製品
  6
Continuous
 62
     4
100
AcDbLine
 10
3728.475342806798
 20
524.3215790574273
 30
0.0
 11
3727.8691238068
 21
523.2715790574273
 31
0.0
  0
ARC
  5
58CB
330
1E
100
AcDbEntity
  8
躯体と製品
  6
Continuous
 62
     4
100
AcDbCircle
 10
3727.194948806799
 20
524.4715790574272
 30
0.0
 40
0.3
100
AcDbArc
 50
90.0
 51
155.9973019999931
  0
LINE
  5
58CC
330
1E
100
AcDbEntity
  8
躯体と製品
  6
Continuous
 62
     4
100
AcDbLine
 10
3731.304357806799
 20
524.3215790574273
 30
0.0
 11
3731.910576806799
 21
523.2715790574273
 31
0.0
  0
ARC
  5
58CD
330
1E
100
AcDbEntity
  8
躯体と製品
  6
Continuous
 62
     4
100
AcDbCircle
 10
3731.564166806799
 20
524.4715790574272
 30
0.0
 40
0.3
100
AcDbArc
 50
90.0
 51
209.9999999999944
  0
ARC
  5
58CE
330
1E
100
AcDbEntity
  8
躯体と製品
  6
Continuous
 62
     4
100
AcDbCircle
 10
3733.232379806799
 20
521.5715810574271
 30
0.0
 40
0.5000010000000001
100
AcDbArc
 50
153.0422509999957
 51
270.0
  0
LINE
  5
58CF
330
1E
100
AcDbEntity
  8
躯体と製品
  6
Continuous
 62
     4
100
AcDbLine
 10
3730.900212806798
 20
521.5215800574271
 30
0.0
 11
3728.879487806799
 21
521.5215800574271
 31
0.0
  0
ARC
  5
58D0
330
1E
100
AcDbEntity
  8
躯体と製品
  6
Continuous
 62
     4
100
AcDbCircle
 10
3726.547320806799
 20
521.5715810574271
 30
0.0
 40
0.5000010000000001
100
AcDbArc
 50
270.0
 51
26.95774900000423
  0
LINE
  5
58D1
330
1E
100
AcDbEntity
  8
躯体と製品
  6
Continuous
 62
     4
100
AcDbLine
 10
3728.879487806799
 20
521.5215800574271
 30
0.0
 11
3727.8691238068
 21
523.2715790574273
 31
0.0
  0
LINE
  5
58D2
330
1E
100
AcDbEntity
  8
躯体と製品
  6
Continuous
 62
     4
100
AcDbLine
 10
3731.910576806799
 20
523.2715790574273
 30
0.0
 11
3730.900212806798
 21
521.5215800574271
 31
0.0
  0
ARC
  5
58D3
330
1E
100
AcDbEntity
  8
躯体と製品
  6
Continuous
 62
     4
100
AcDbCircle
 10
3729.889851806799
 20
523.2715790574273
 30
0.0
 40
3.249999
100
AcDbArc
 50
333.0422489999948
 51
24.0026940000029
  0
ARC
  5
58D4
330
1E
100
AcDbEntity
  8
躯体と製品
  6
Continuous
 62
     4
100
AcDbCircle
 10
3729.889851806799
 20
523.2715790574273
 30
0.0
 40
3.249999
100
AcDbArc
 50
155.9973000000024
 51
206.9577490000042
  0
LINE
  5
58D5
330
1E
100
AcDbEntity
  8
躯体と製品
  6
Continuous
 62
     4
100
AcDbLine
 10
3721.389849806799
 20
556.9458950574273
 30
0.0
 11
3721.389849806799
 21
557.9664830574273
 31
0.0
  0
ARC
  5
58D6
330
1E
100
AcDbEntity
  8
躯体と製品
  6
Continuous
 62
     4
100
AcDbCircle
 10
3721.089849806799
 20
556.9458950574273
 30
0.0
 40
0.3
100
AcDbArc
 50
239.9999999999994
 51
0.0
  0
ARC
  5
58D7
330
1E
100
AcDbEntity
  8
躯体と製品
  6
Continuous
 62
     4
100
AcDbCircle
 10
3721.089849806799
 20
557.9664830574273
 30
0.0
 40
0.3
100
AcDbArc
 50
0.0
 51
65.99730200001068
  0
ARC
  5
58D8
330
1E
100
AcDbEntity
  8
躯体と製品
  6
Continuous
 62
     4
100
AcDbCircle
 10
3721.089849806799
 20
553.5972650574272
 30
0.0
 40
0.3
100
AcDbArc
 50
0.0
 51
120.0000000000005
  0
LINE
  5
58D9
330
1E
100
AcDbEntity
  8
躯体と製品
  6
Continuous
 62
     4
100
AcDbLine
 10
3721.389849806799
 20
553.5972650574272
 30
0.0
 11
3721.389849806799
 21
552.5766770574273
 31
0.0
  0
ARC
  5
58DA
330
1E
100
AcDbEntity
  8
躯体と製品
  6
Continuous
 62
     4
100
AcDbCircle
 10
3721.089849806799
 20
552.5766770574273
 30
0.0
 40
0.3
100
AcDbArc
 50
294.0026979999893
 51
0.0
  0
LINE
  5
58DB
330
1E
100
AcDbEntity
  8
躯体と製品
  6
Continuous
 62
     4
100
AcDbLine
 10
3721.389849806799
 20
534.9458960574272
 30
0.0
 11
3721.389849806799
 21
535.9664840574272
 31
0.0
  0
ARC
  5
58DC
330
1E
100
AcDbEntity
  8
躯体と製品
  6
Continuous
 62
     4
100
AcDbCircle
 10
3721.089849806799
 20
534.9458960574272
 30
0.0
 40
0.3
100
AcDbArc
 50
239.9999999999994
 51
0.0
  0
ARC
  5
58DD
330
1E
100
AcDbEntity
  8
躯体と製品
  6
Continuous
 62
     4
100
AcDbCircle
 10
3721.089849806799
 20
535.9664840574272
 30
0.0
 40
0.3
100
AcDbArc
 50
0.0
 51
65.99730200001068
  0
LINE
  5
58DE
330
1E
100
AcDbEntity
  8
躯体と製品
  6
Continuous
 62
     4
100
AcDbLine
 10
3719.889849806799
 20
557.2923050574273
 30
0.0
 11
3718.139850806799
 21
556.2819440574274
 31
0.0
  0
ARC
  5
58DF
330
1E
100
AcDbEntity
  8
躯体と製品
  6
Continuous
 62
     4
100
AcDbCircle
 10
3717.889851806798
 20
558.4437230574273
 30
0.0
 40
0.5000010000000001
100
AcDbArc
 50
180.0
 51
302.2309530000046
  0
LINE
  5
58E0
330
1E
100
AcDbEntity
  8
躯体と製品
  6
Continuous
 62
     4
100
AcDbLine
 10
3717.389850806799
 20
558.2715800574272
 30
0.0
 11
3717.389850806799
 21
559.2480740574273
 31
0.0
  0
LINE
  5
58E1
330
1E
100
AcDbEntity
  8
躯体と製品
  6
Continuous
 62
     4
100
AcDbLine
 10
3718.139850806799
 20
554.2612160574273
 30
0.0
 11
3719.889849806799
 21
553.250855057427
 31
0.0
  0
ARC
  5
58E2
330
1E
100
AcDbEntity
  8
躯体と製品
  6
Continuous
 62
     4
100
AcDbCircle
 10
3717.889851806798
 20
552.0994370574272
 30
0.0
 40
0.5000010000000001
100
AcDbArc
 50
57.76904699999533
 51
180.0
  0
ARC
  5
58E3
330
1E
100
AcDbEntity
  8
躯体と製品
  6
Continuous
 62
     4
100
AcDbCircle
 10
3717.889851806798
 20
552.0994370574272
 30
0.0
 40
0.5000010000000001
100
AcDbArc
 50
57.76904699999533
 51
180.0
  0
LINE
  5
58E4
330
1E
100
AcDbEntity
  8
躯体と製品
  6
Continuous
 62
     4
100
AcDbLine
 10
3717.389850806799
 20
552.0994370574272
 30
0.0
 11
3717.389850806799
 21
551.295086057427
 31
0.0
  0
ARC
  5
58E5
330
1E
100
AcDbEntity
  8
躯体と製品
  6
Continuous
 62
     4
100
AcDbCircle
 10
3717.889851806798
 20
536.4437240574273
 30
0.0
 40
0.5000010000000001
100
AcDbArc
 50
180.0
 51
302.2309530000046
  0
LINE
  5
58E6
330
1E
100
AcDbEntity
  8
躯体と製品
  6
Continuous
 62
     4
100
AcDbLine
 10
3719.889849806799
 20
535.2923060574271
 30
0.0
 11
3718.139850806799
 21
534.2819420574272
 31
0.0
  0
LINE
  5
58E7
330
1E
100
AcDbEntity
  8
躯体と製品
  6
Continuous
 62
     4
100
AcDbLine
 10
3717.389850806799
 20
536.4437240574273
 30
0.0
 11
3717.389850806799
 21
551.295086057427
 31
0.0
  0
LINE
  5
58E8
330
1E
100
AcDbEntity
  8
躯体と製品
  6
Continuous
 62
     4
100
AcDbLine
 10
3718.139850806799
 20
556.2819440574274
 30
0.0
 11
3718.139850806799
 21
554.2612160574273
 31
0.0
  0
LINE
  5
58E9
330
1E
100
AcDbEntity
  8
躯体と製品
  6
Continuous
 62
     4
100
AcDbLine
 10
3720.939849806799
 20
534.6860870574273
 30
0.0
 11
3719.889849806799
 21
535.2923060574271
 31
0.0
  0
LINE
  5
58EA
330
1E
100
AcDbEntity
  8
躯体と製品
  6
Continuous
 62
     4
100
AcDbLine
 10
3720.939849806799
 20
556.6860890574271
 30
0.0
 11
3719.889849806799
 21
557.2923050574273
 31
0.0
  0
LINE
  5
58EB
330
1E
100
AcDbEntity
  8
躯体と製品
  6
Continuous
 62
     4
100
AcDbLine
 10
3720.939849806799
 20
553.8570710574272
 30
0.0
 11
3719.889849806799
 21
553.250855057427
 31
0.0
  0
ARC
  5
58EC
330
1E
100
AcDbEntity
  8
躯体と製品
  6
Continuous
 62
     4
100
AcDbCircle
 10
3719.889849806799
 20
555.2715800574271
 30
0.0
 40
3.249999
100
AcDbArc
 50
65.99730200001068
 51
122.2309610000035
  0
ARC
  5
58ED
330
1E
100
AcDbEntity
  8
躯体と製品
  6
Continuous
 62
     4
100
AcDbCircle
 10
3719.889849806799
 20
555.2715800574271
 30
0.0
 40
3.249999
100
AcDbArc
 50
237.7690539999951
 51
294.0026990000065
  0
ARC
  5
58EE
330
1E
100
AcDbEntity
  8
躯体と製品
  6
Continuous
 62
     4
100
AcDbCircle
 10
3719.889849806799
 20
533.271581057427
 30
0.0
 40
3.249999
100
AcDbArc
 50
65.99729899998556
 51
122.2309600000027
  0
LINE
  5
58EF
330
1E
100
AcDbEntity
  8
躯体と製品
  6
Continuous
 62
     4
100
AcDbLine
 10
3675.889851806799
 20
564.2715800574271
 30
0.0
 11
3715.889850806799
 21
564.2715800574271
 31
0.0
  0
LINE
  5
58F0
330
1E
100
AcDbEntity
  8
躯体と製品
  6
Continuous
 62
     4
100
AcDbLine
 10
3718.389849806799
 20
567.4715810574273
 30
0.0
 11
3729.389850806799
 21
567.4715810574273
 31
0.0
  0
ARC
  5
58F1
330
1E
100
AcDbEntity
  8
躯体と製品
  6
Continuous
 62
     4
100
AcDbCircle
 10
3718.389849806799
 20
566.4715790574271
 30
0.0
 40
0.999999
100
AcDbArc
 50
90.0
 51
180.0
  0
ARC
  5
58F2
330
1E
100
AcDbEntity
  8
躯体と製品
  6
Continuous
 62
     4
100
AcDbCircle
 10
3717.889851806798
 20
567.2715800574271
 30
0.0
 40
2.000001
100
AcDbArc
 50
90.0
 51
180.0
  0
LINE
  5
58F3
330
1E
100
AcDbEntity
  8
躯体と製品
  6
Continuous
 62
     4
100
AcDbLine
 10
3731.089851806799
 20
565.9715810574273
 30
0.0
 11
3731.089851806799
 21
565.3715810574271
 31
0.0
  0
ARC
  5
58F4
330
1E
100
AcDbEntity
  8
躯体と製品
  6
Continuous
 62
     4
100
AcDbCircle
 10
3729.389850806799
 20
566.971580057427
 30
0.0
 40
0.5000010000000001
100
AcDbArc
 50
0.0
 51
90.0
  0
LINE
  5
58F5
330
1E
100
AcDbEntity
  8
躯体と製品
  6
Continuous
 62
     4
100
AcDbLine
 10
3729.889851806799
 20
566.971580057427
 30
0.0
 11
3729.889851806799
 21
564.3715790574271
 31
0.0
  0
ARC
  5
58F6
330
1E
100
AcDbEntity
  8
躯体と製品
  6
Continuous
 62
     4
100
AcDbCircle
 10
3730.489851806799
 20
564.3715790574271
 30
0.0
 40
0.6000000000000001
100
AcDbArc
 50
180.0
 51
0.0
  0
LINE
  5
58F7
330
1E
100
AcDbEntity
  8
躯体と製品
  6
Continuous
 62
     4
100
AcDbLine
 10
3731.089851806799
 20
565.3715810574271
 30
0.0
 11
3731.089851806799
 21
564.3715790574271
 31
0.0
  0
ARC
  5
58F8
330
1E
100
AcDbEntity
  8
躯体と製品
  6
Continuous
 62
     4
100
AcDbCircle
 10
3732.589851806799
 20
565.9715810574273
 30
0.0
 40
1.5
100
AcDbArc
 50
90.0
 51
180.0
  0
LINE
  5
58F9
330
1E
100
AcDbEntity
  8
躯体と製品
  6
Continuous
 62
     4
100
AcDbLine
 10
3764.389851806799
 20
566.4715790574271
 30
0.0
 11
3764.389851806799
 21
558.4437230574273
 31
0.0
  0
LINE
  5
58FA
330
1E
100
AcDbEntity
  8
躯体と製品
  6
Continuous
 62
     4
100
AcDbLine
 10
3765.889851806799
 20
521.2715810574271
 30
0.0
 11
3765.889851806799
 21
567.2715800574271
 31
0.0
  0
ARC
  5
58FB
330
1E
100
AcDbEntity
  8
躯体と製品
  6
Continuous
 62
     4
100
AcDbCircle
 10
3782.389851806799
 20
544.2715790574273
 30
0.0
 40
3.500000999999999
100
AcDbArc
 50
59.99999999999946
 51
130.4183370000052
  0
ARC
  5
58FC
330
1E
100
AcDbEntity
  8
躯体と製品
  6
Continuous
 62
     4
100
AcDbCircle
 10
3782.389851806799
 20
544.2715790574273
 30
0.0
 40
3.500000999999999
100
AcDbArc
 50
229.5816519999992
 51
300.0000000000005
  0
LINE
  5
58FD
330
1E
100
AcDbEntity
  8
躯体と製品
  6
Continuous
 62
     4
100
AcDbLine
 10
3784.139850806798
 20
545.2819430574272
 30
0.0
 11
3782.389851806799
 21
546.2923070574269
 31
0.0
  0
LINE
  5
58FE
330
1E
100
AcDbEntity
  8
躯体と製品
  6
Continuous
 62
     4
100
AcDbLine
 10
3784.139850806798
 20
543.261218057427
 30
0.0
 11
3782.389851806799
 21
542.2508540574272
 31
0.0
  0
LINE
  5
58FF
330
1E
100
AcDbEntity
  8
躯体と製品
  6
Continuous
 62
     4
100
AcDbLine
 10
3767.889849806799
 20
550.7715800574271
 30
0.0
 11
3783.889851806799
 21
550.7715800574271
 31
0.0
  0
LINE
  5
5900
330
1E
100
AcDbEntity
  8
躯体と製品
  6
Continuous
 62
     4
100
AcDbLine
 10
3783.889851806799
 20
527.271581057427
 30
0.0
 11
3780.889851806799
 21
530.271581057427
 31
0.0
  0
ARC
  5
5901
330
1E
100
AcDbEntity
  8
躯体と製品
  6
Continuous
 62
     4
100
AcDbCircle
 10
3783.389850806798
 20
531.3071150574272
 30
0.0
 40
0.5000010000000001
100
AcDbArc
 50
224.9999999999976
 51
0.0
  0
LINE
  5
5902
330
1E
100
AcDbEntity
  8
躯体と製品
  6
Continuous
 62
     4
100
AcDbLine
 10
3767.889849806799
 20
537.7715810574271
 30
0.0
 11
3783.889851806799
 21
537.7715810574271
 31
0.0
  0
LINE
  5
5903
330
1E
100
AcDbEntity
  8
躯体と製品
  6
Continuous
 62
     4
100
AcDbLine
 10
3767.889849806799
 20
536.7715790574273
 30
0.0
 11
3783.889851806799
 21
536.7715790574273
 31
0.0
  0
LINE
  5
5904
330
1E
100
AcDbEntity
  8
躯体と製品
  6
Continuous
 62
     3
100
AcDbLine
 10
3760.889850806799
 20
546.2715800574271
 30
0.0
 11
3785.889849806799
 21
546.2715800574271
 31
0.0
  0
LINE
  5
5905
330
1E
100
AcDbEntity
  8
躯体と製品
  6
Continuous
 62
     3
100
AcDbLine
 10
3785.889849806799
 20
542.271581057427
 30
0.0
 11
3760.889850806799
 21
542.271581057427
 31
0.0
  0
LINE
  5
5906
330
1E
100
AcDbEntity
  8
躯体と製品
  6
Continuous
 62
     3
100
AcDbLine
 10
3777.389850806799
 20
531.1465790574272
 30
0.0
 11
3777.389850806799
 21
533.5057790574271
 31
0.0
  0
LINE
  5
5907
330
1E
100
AcDbEntity
  8
躯体と製品
  6
Continuous
 62
     2
100
AcDbLine
 10
3767.889849806799
 20
536.7715790574273
 30
0.0
 11
3767.889849806799
 21
532.7715800574272
 31
0.0
  0
LINE
  5
5908
330
1E
100
AcDbEntity
  8
躯体と製品
  6
Continuous
 62
     3
100
AcDbLine
 10
3773.789850806799
 20
533.6761790574273
 30
0.0
 11
3774.389850806799
 21
533.1307790574271
 31
0.0
  0
LINE
  5
5909
330
1E
100
AcDbEntity
  8
躯体と製品
  6
Continuous
 62
     3
100
AcDbLine
 10
3777.389850806799
 20
532.6465790574273
 30
0.0
 11
3774.389850806799
 21
533.7715790574272
 31
0.0
  0
LINE
  5
590A
330
1E
100
AcDbEntity
  8
躯体と製品
  6
Continuous
 62
     3
100
AcDbLine
 10
3777.989850806799
 20
532.1011790574271
 30
0.0
 11
3773.789850806799
 21
533.6761790574273
 31
0.0
  0
LINE
  5
590B
330
1E
100
AcDbEntity
  8
躯体と製品
  6
PLINE3
 62
     3
100
AcDbLine
 10
3775.889850806799
 20
546.2715800574271
 30
0.0
 11
3775.889850806799
 21
524.271581057427
 31
0.0
  0
LINE
  5
590C
330
1E
100
AcDbEntity
  8
躯体と製品
  6
Continuous
 62
     4
100
AcDbLine
 10
3763.639851806799
 20
534.2819420574272
 30
0.0
 11
3763.639851806799
 21
532.2612170574272
 31
0.0
  0
ARC
  5
590D
330
1E
100
AcDbEntity
  8
躯体と製品
  6
Continuous
 62
     4
100
AcDbCircle
 10
3763.889850806799
 20
530.0994350574272
 30
0.0
 40
0.5000010000000001
100
AcDbArc
 50
0.0
 51
122.2309530000046
  0
ARC
  5
590E
330
1E
100
AcDbEntity
  8
躯体と製品
  6
Continuous
 62
     4
100
AcDbCircle
 10
3763.389849806799
 20
522.0715790574273
 30
0.0
 40
0.999999
100
AcDbArc
 50
270.0
 51
0.0
  0
ARC
  5
590F
330
1E
100
AcDbEntity
  8
躯体と製品
  6
Continuous
 62
     4
100
AcDbCircle
 10
3763.889850806799
 20
521.2715810574271
 30
0.0
 40
2.000001
100
AcDbArc
 50
270.0
 51
0.0
  0
LINE
  5
5910
330
1E
100
AcDbEntity
  8
躯体と製品
  6
Continuous
 62
     4
100
AcDbLine
 10
3763.639851806799
 20
532.2612170574272
 30
0.0
 11
3761.889849806799
 21
531.2508530574273
 31
0.0
  0
LINE
  5
5911
330
1E
100
AcDbEntity
  8
躯体と製品
  6
Continuous
 62
     4
100
AcDbLine
 10
3760.389849806799
 20
531.5972630574272
 30
0.0
 11
3760.389849806799
 21
530.5766780574272
 31
0.0
  0
ARC
  5
5912
330
1E
100
AcDbEntity
  8
躯体と製品
  6
Continuous
 62
     4
100
AcDbCircle
 10
3760.689849806799
 20
531.5972630574272
 30
0.0
 40
0.3
100
AcDbArc
 50
59.99999999999946
 51
180.0
  0
LINE
  5
5913
330
1E
100
AcDbEntity
  8
躯体と製品
  6
Continuous
 62
     4
100
AcDbLine
 10
3760.839849806799
 20
531.857072057427
 30
0.0
 11
3761.889849806799
 21
531.2508530574273
 31
0.0
  0
ARC
  5
5914
330
1E
100
AcDbEntity
  8
躯体と製品
  6
Continuous
 62
     4
100
AcDbCircle
 10
3760.689849806799
 20
530.5766780574272
 30
0.0
 40
0.3
100
AcDbArc
 50
180.0
 51
245.9973020000106
  0
ARC
  5
5915
330
1E
100
AcDbEntity
  8
躯体と製品
  6
Continuous
 62
     4
100
AcDbCircle
 10
3754.584753806799
 20
524.4715790574272
 30
0.0
 40
0.3
100
AcDbArc
 50
24.00269800000685
 51
90.0
  0
ARC
  5
5916
330
1E
100
AcDbEntity
  8
躯体と製品
  6
Continuous
 62
     4
100
AcDbCircle
 10
3761.889849806799
 20
533.271581057427
 30
0.0
 40
3.249999
100
AcDbArc
 50
245.9972989999855
 51
302.2309560000033
  0
LINE
  5
5917
330
1E
100
AcDbEntity
  8
躯体と製品
  6
Continuous
 62
     4
100
AcDbLine
 10
3750.215535806798
 20
524.7715790574273
 30
0.0
 11
3749.194947806799
 21
524.7715790574273
 31
0.0
  0
ARC
  5
5918
330
1E
100
AcDbEntity
  8
躯体と製品
  6
Continuous
 62
     4
100
AcDbCircle
 10
3750.215535806798
 20
524.4715790574272
 30
0.0
 40
0.3
100
AcDbArc
 50
330.0000000000055
 51
90.0
  0
LINE
  5
5919
330
1E
100
AcDbEntity
  8
躯体と製品
  6
Continuous
 62
     4
100
AcDbLine
 10
3750.475341806799
 20
524.3215790574273
 30
0.0
 11
3749.869125806799
 21
523.2715790574273
 31
0.0
  0
LINE
  5
591A
330
1E
100
AcDbEntity
  8
躯体と製品
  6
Continuous
 62
     4
100
AcDbLine
 10
3753.304359806799
 20
524.3215790574273
 30
0.0
 11
3753.910575806798
 21
523.2715790574273
 31
0.0
  0
ARC
  5
591B
330
1E
100
AcDbEntity
  8
躯体と製品
  6
Continuous
 62
     4
100
AcDbCircle
 10
3753.564165806799
 20
524.4715790574272
 30
0.0
 40
0.3
100
AcDbArc
 50
90.0
 51
209.9999999999944
  0
ARC
  5
591C
330
1E
100
AcDbEntity
  8
躯体と製品
  6
Continuous
 62
     4
100
AcDbCircle
 10
3749.194947806799
 20
524.4715790574272
 30
0.0
 40
0.3
100
AcDbArc
 50
90.0
 51
155.9973019999931
  0
LINE
  5
591D
330
1E
100
AcDbEntity
  8
躯体と製品
  6
Continuous
 62
     4
100
AcDbLine
 10
3753.564165806799
 20
524.7715790574273
 30
0.0
 11
3754.584753806799
 21
524.7715790574273
 31
0.0
  0
LINE
  5
591E
330
1E
100
AcDbEntity
  8
躯体と製品
  6
Continuous
 62
     4
100
AcDbLine
 10
3763.389849806799
 20
521.0715800574272
 30
0.0
 11
3755.232378806799
 21
521.0715800574272
 31
0.0
  0
ARC
  5
591F
330
1E
100
AcDbEntity
  8
躯体と製品
  6
Continuous
 62
     4
100
AcDbCircle
 10
3755.232378806799
 20
521.5715810574271
 30
0.0
 40
0.5000010000000001
100
AcDbArc
 50
153.0422509999957
 51
270.0
  0
LINE
  5
5920
330
1E
100
AcDbEntity
  8
躯体と製品
  6
Continuous
 62
     4
100
AcDbLine
 10
3752.900214806799
 20
521.5215800574271
 30
0.0
 11
3750.879486806798
 21
521.5215800574271
 31
0.0
  0
ARC
  5
5921
330
1E
100
AcDbEntity
  8
躯体と製品
  6
Continuous
 62
     4
100
AcDbCircle
 10
3748.547322806798
 20
521.5715810574271
 30
0.0
 40
0.5000010000000001
100
AcDbArc
 50
270.0
 51
26.95774900000423
  0
LINE
  5
5922
330
1E
100
AcDbEntity
  8
躯体と製品
  6
Continuous
 62
     4
100
AcDbLine
 10
3750.879486806798
 20
521.5215800574271
 30
0.0
 11
3749.869125806799
 21
523.2715790574273
 31
0.0
  0
LINE
  5
5923
330
1E
100
AcDbEntity
  8
躯体と製品
  6
Continuous
 62
     4
100
AcDbLine
 10
3753.910575806798
 20
523.2715790574273
 30
0.0
 11
3752.900214806799
 21
521.5215800574271
 31
0.0
  0
ARC
  5
5924
330
1E
100
AcDbEntity
  8
躯体と製品
  6
Continuous
 62
     4
100
AcDbCircle
 10
3751.889850806799
 20
523.2715790574273
 30
0.0
 40
3.249999
100
AcDbArc
 50
333.0422530000085
 51
24.00269299999694
  0
ARC
  5
5925
330
1E
100
AcDbEntity
  8
躯体と製品
  6
Continuous
 62
     4
100
AcDbCircle
 10
3751.889850806799
 20
523.2715790574273
 30
0.0
 40
3.249999
100
AcDbArc
 50
155.9973000000024
 51
206.9577540000035
  0
LINE
  5
5926
330
1E
100
AcDbEntity
  8
躯体と製品
  6
Continuous
 62
     4
100
AcDbLine
 10
3778.389849806799
 20
530.271581057427
 30
0.0
 11
3778.389849806799
 21
532.2715790574273
 31
0.0
  0
LINE
  5
5927
330
1E
100
AcDbEntity
  8
躯体と製品
  6
Continuous
 62
     3
100
AcDbLine
 10
3779.427969806798
 20
530.271581057427
 30
0.0
 11
3779.889849806799
 21
529.471580057427
 31
0.0
  0
LINE
  5
5928
330
1E
100
AcDbEntity
  8
躯体と製品
  6
Continuous
 62
     3
100
AcDbLine
 10
3777.389850806799
 20
530.271581057427
 30
0.0
 11
3777.389850806799
 21
530.5057790574271
 31
0.0
  0
LINE
  5
5929
330
1E
100
AcDbEntity
  8
躯体と製品
  6
Continuous
 62
     3
100
AcDbLine
 10
3779.539611806799
 20
528.5093060574272
 30
0.0
 11
3779.889849806799
 21
529.471580057427
 31
0.0
  0
LINE
  5
592A
330
1E
100
AcDbEntity
  8
躯体と製品
  6
Continuous
 62
     3
100
AcDbLine
 10
3777.989850806799
 20
532.1011790574271
 30
0.0
 11
3777.389850806799
 21
532.6465790574273
 31
0.0
  0
LINE
  5
592B
330
1E
100
AcDbEntity
  8
躯体と製品
  6
Continuous
 62
     3
100
AcDbLine
 10
3777.989850806799
 20
532.1011790574271
 30
0.0
 11
3777.389850806799
 21
532.0057790574272
 31
0.0
  0
LINE
  5
592C
330
1E
100
AcDbEntity
  8
躯体と製品
  6
Continuous
 62
     3
100
AcDbLine
 10
3777.989850806799
 20
530.601179057427
 30
0.0
 11
3777.389850806799
 21
531.1465790574272
 31
0.0
  0
LINE
  5
592D
330
1E
100
AcDbEntity
  8
躯体と製品
  6
Continuous
 62
     3
100
AcDbLine
 10
3777.989850806799
 20
530.601179057427
 30
0.0
 11
3777.389850806799
 21
530.5057790574271
 31
0.0
  0
LINE
  5
592E
330
1E
100
AcDbEntity
  8
躯体と製品
  6
Continuous
 62
     4
100
AcDbLine
 10
3781.218276806799
 20
532.7715800574272
 30
0.0
 11
3779.389851806799
 21
532.7715800574272
 31
0.0
  0
LINE
  5
592F
330
1E
100
AcDbEntity
  8
躯体と製品
  6
Continuous
 62
     4
100
AcDbLine
 10
3781.218276806799
 20
532.7715800574272
 30
0.0
 11
3783.036297806799
 21
530.9535590574272
 31
0.0
  0
LINE
  5
5930
330
1E
100
AcDbEntity
  8
躯体と製品
  6
Continuous
 62
     4
100
AcDbLine
 10
3778.889850806799
 20
532.2715790574273
 30
0.0
 11
3779.389851806799
 21
532.7715800574272
 31
0.0
  0
LINE
  5
5931
330
1E
100
AcDbEntity
  8
躯体と製品
  6
Continuous
 62
     4
100
AcDbLine
 10
3773.389851806799
 20
530.271581057427
 30
0.0
 11
3773.389851806799
 21
532.2715790574273
 31
0.0
  0
LINE
  5
5932
330
1E
100
AcDbEntity
  8
躯体と製品
  6
Continuous
 62
     3
100
AcDbLine
 10
3771.889851806799
 20
529.471580057427
 30
0.0
 11
3772.351731806799
 21
530.271581057427
 31
0.0
  0
LINE
  5
5933
330
1E
100
AcDbEntity
  8
躯体と製品
  6
Continuous
 62
     3
100
AcDbLine
 10
3774.389850806799
 20
530.271581057427
 30
0.0
 11
3774.389850806799
 21
531.6307790574271
 31
0.0
  0
LINE
  5
5934
330
1E
100
AcDbEntity
  8
躯体と製品
  6
Continuous
 62
     3
100
AcDbLine
 10
3774.389850806799
 20
532.2715790574273
 30
0.0
 11
3774.389850806799
 21
533.1307790574271
 31
0.0
  0
LINE
  5
5935
330
1E
100
AcDbEntity
  8
躯体と製品
  6
Continuous
 62
     3
100
AcDbLine
 10
3772.240089806799
 20
528.5093060574272
 30
0.0
 11
3771.889851806799
 21
529.471580057427
 31
0.0
  0
LINE
  5
5936
330
1E
100
AcDbEntity
  8
躯体と製品
  6
Continuous
 62
     3
100
AcDbLine
 10
3773.789850806799
 20
532.1761790574274
 30
0.0
 11
3774.389850806799
 21
532.2715790574273
 31
0.0
  0
LINE
  5
5937
330
1E
100
AcDbEntity
  8
躯体と製品
  6
Continuous
 62
     3
100
AcDbLine
 10
3773.789850806799
 20
532.1761790574274
 30
0.0
 11
3774.389850806799
 21
531.6307790574271
 31
0.0
  0
LINE
  5
5938
330
1E
100
AcDbEntity
  8
躯体と製品
  6
Continuous
 62
     4
100
AcDbLine
 10
3770.561424806799
 20
532.7715800574272
 30
0.0
 11
3772.389849806799
 21
532.7715800574272
 31
0.0
  0
LINE
  5
5939
330
1E
100
AcDbEntity
  8
躯体と製品
  6
Continuous
 62
     4
100
AcDbLine
 10
3775.589850806799
 20
530.271581057427
 30
0.0
 11
3770.889849806799
 21
530.271581057427
 31
0.0
  0
LINE
  5
593A
330
1E
100
AcDbEntity
  8
躯体と製品
  6
Continuous
 62
     4
100
AcDbLine
 10
3776.189850806798
 20
530.271581057427
 30
0.0
 11
3775.889850806799
 21
530.571581057427
 31
0.0
  0
LINE
  5
593B
330
1E
100
AcDbEntity
  8
躯体と製品
  6
Continuous
 62
     4
100
AcDbLine
 10
3765.889851806799
 20
532.7715800574272
 30
0.0
 11
3767.889849806799
 21
532.7715800574272
 31
0.0
  0
LINE
  5
593C
330
1E
100
AcDbEntity
  8
躯体と製品
  6
Continuous
 62
     4
100
AcDbLine
 10
3775.589850806799
 20
530.271581057427
 30
0.0
 11
3775.889850806799
 21
530.571581057427
 31
0.0
  0
LINE
  5
593D
330
1E
100
AcDbEntity
  8
躯体と製品
  6
Continuous
 62
     4
100
AcDbLine
 10
3767.889849806799
 20
527.271581057427
 30
0.0
 11
3765.889851806799
 21
527.271581057427
 31
0.0
  0
LINE
  5
593E
330
1E
100
AcDbEntity
  8
躯体と製品
  6
Continuous
 62
     4
100
AcDbLine
 10
3770.889849806799
 20
530.271581057427
 30
0.0
 11
3767.889849806799
 21
527.271581057427
 31
0.0
  0
LINE
  5
593F
330
1E
100
AcDbEntity
  8
躯体と製品
  6
Continuous
 62
     4
100
AcDbLine
 10
3772.889850806799
 20
532.2715790574273
 30
0.0
 11
3772.389849806799
 21
532.7715800574272
 31
0.0
  0
ARC
  5
5940
330
1E
100
AcDbEntity
  8
躯体と製品
  6
Continuous
 62
     4
100
AcDbCircle
 10
3768.389850806799
 20
531.3071150574272
 30
0.0
 40
0.5000010000000001
100
AcDbArc
 50
180.0
 51
315.0000000000023
  0
LINE
  5
5941
330
1E
100
AcDbEntity
  8
躯体と製品
  6
Continuous
 62
     4
100
AcDbLine
 10
3767.889849806799
 20
532.7715800574272
 30
0.0
 11
3767.889849806799
 21
531.3071150574272
 31
0.0
  0
LINE
  5
5942
330
1E
100
AcDbEntity
  8
躯体と製品
  6
Continuous
 62
     4
100
AcDbLine
 10
3770.561424806799
 20
532.7715800574272
 30
0.0
 11
3768.743403806799
 21
530.9535590574272
 31
0.0
  0
LINE
  5
5943
330
1E
100
AcDbEntity
  8
躯体と製品
  6
Continuous
 62
     3
100
AcDbLine
 10
3772.351731806799
 20
530.271581057427
 30
0.0
 11
3779.427969806798
 21
530.271581057427
 31
0.0
  0
LINE
  5
5944
330
1E
100
AcDbEntity
  8
躯体と製品
  6
Continuous
 62
     3
100
AcDbLine
 10
3771.889851806799
 20
529.471580057427
 30
0.0
 11
3779.889849806799
 21
529.471580057427
 31
0.0
  0
LINE
  5
5945
330
1E
100
AcDbEntity
  8
躯体と製品
  6
Continuous
 62
     3
100
AcDbLine
 10
3774.389850806799
 20
533.1307790574271
 30
0.0
 11
3777.389850806799
 21
532.0057790574272
 31
0.0
  0
ARC
  5
5946
330
1E
100
AcDbEntity
  8
躯体と製品
  6
Continuous
 62
     3
100
AcDbCircle
 10
3775.889850806799
 20
533.271581057427
 30
0.0
 40
6.0
100
AcDbArc
 50
232.5337820000163
 51
307.4662179999836
  0
LINE
  5
5947
330
1E
100
AcDbEntity
  8
躯体と製品
  6
Continuous
 62
     3
100
AcDbLine
 10
3777.389850806799
 20
531.1465790574272
 30
0.0
 11
3774.389850806799
 21
532.2715790574273
 31
0.0
  0
LINE
  5
5948
330
1E
100
AcDbEntity
  8
躯体と製品
  6
Continuous
 62
     3
100
AcDbLine
 10
3774.389850806799
 20
531.6307790574271
 30
0.0
 11
3777.389850806799
 21
530.5057790574271
 31
0.0
  0
LINE
  5
5949
330
1E
100
AcDbEntity
  8
躯体と製品
  6
Continuous
 62
     3
100
AcDbLine
 10
3777.989850806799
 20
530.601179057427
 30
0.0
 11
3773.789850806799
 21
532.1761790574274
 31
0.0
  0
LINE
  5
594A
330
1E
100
AcDbEntity
  8
躯体と製品
  6
Continuous
 62
     4
100
AcDbLine
 10
3776.189850806798
 20
530.271581057427
 30
0.0
 11
3780.889851806799
 21
530.271581057427
 31
0.0
  0
LINE
  5
594B
330
1E
100
AcDbEntity
  8
躯体と製品
  6
Continuous
 62
     4
100
AcDbLine
 10
3772.889850806799
 20
532.2715790574273
 30
0.0
 11
3778.889850806799
 21
532.2715790574273
 31
0.0
  0
LINE
  5
594C
330
1E
100
AcDbEntity
  8
躯体と製品
  6
Continuous
 62
     4
100
AcDbLine
 10
3764.389851806799
 20
529.2950870574272
 30
0.0
 11
3764.389851806799
 21
530.0994350574272
 31
0.0
  0
LINE
  5
594D
330
1E
100
AcDbEntity
  8
躯体と製品
  6
Continuous
 62
     4
100
AcDbLine
 10
3764.389851806799
 20
522.0715790574273
 30
0.0
 11
3764.389851806799
 21
529.2950870574272
 31
0.0
  0
ARC
  5
594E
330
1E
100
AcDbEntity
  8
躯体と製品
  6
Continuous
 62
     4
100
AcDbCircle
 10
3763.889850806799
 20
558.4437230574273
 30
0.0
 40
0.5000010000000001
100
AcDbArc
 50
237.7690469999953
 51
0.0
  0
ARC
  5
594F
330
1E
100
AcDbEntity
  8
躯体と製品
  6
Continuous
 62
     4
100
AcDbCircle
 10
3763.889850806799
 20
552.0994370574272
 30
0.0
 40
0.5000010000000001
100
AcDbArc
 50
0.0
 51
122.2309530000046
  0
ARC
  5
5950
330
1E
100
AcDbEntity
  8
躯体と製品
  6
Continuous
 62
     4
100
AcDbCircle
 10
3763.889850806799
 20
536.4437240574273
 30
0.0
 40
0.5000010000000001
100
AcDbArc
 50
237.7690469999953
 51
0.0
  0
LINE
  5
5951
330
1E
100
AcDbEntity
  8
躯体と製品
  6
Continuous
 62
     4
100
AcDbLine
 10
3761.889849806799
 20
557.2923050574273
 30
0.0
 11
3763.639851806799
 21
556.2819440574274
 31
0.0
  0
LINE
  5
5952
330
1E
100
AcDbEntity
  8
躯体と製品
  6
Continuous
 62
     4
100
AcDbLine
 10
3760.839849806799
 20
556.6860890574271
 30
0.0
 11
3761.889849806799
 21
557.2923050574273
 31
0.0
  0
ARC
  5
5953
330
1E
100
AcDbEntity
  8
躯体と製品
  6
Continuous
 62
     4
100
AcDbCircle
 10
3760.689849806799
 20
556.9458950574273
 30
0.0
 40
0.3
100
AcDbArc
 50
180.0
 51
300.0000000000005
  0
LINE
  5
5954
330
1E
100
AcDbEntity
  8
躯体と製品
  6
Continuous
 62
     4
100
AcDbLine
 10
3760.389849806799
 20
556.9458950574273
 30
0.0
 11
3760.389849806799
 21
557.9664830574273
 31
0.0
  0
ARC
  5
5955
330
1E
100
AcDbEntity
  8
躯体と製品
  6
Continuous
 62
     4
100
AcDbCircle
 10
3760.689849806799
 20
557.9664830574273
 30
0.0
 40
0.3
100
AcDbArc
 50
114.0026979999893
 51
180.0
  0
ARC
  5
5956
330
1E
100
AcDbEntity
  8
躯体と製品
  6
Continuous
 62
     4
100
AcDbCircle
 10
3761.889849806799
 20
555.2715800574271
 30
0.0
 40
3.249999
100
AcDbArc
 50
57.76905399999517
 51
114.0027010000144
  0
LINE
  5
5957
330
1E
100
AcDbEntity
  8
躯体と製品
  6
Continuous
 62
     4
100
AcDbLine
 10
3763.639851806799
 20
554.2612160574273
 30
0.0
 11
3761.889849806799
 21
553.250855057427
 31
0.0
  0
LINE
  5
5958
330
1E
100
AcDbEntity
  8
躯体と製品
  6
Continuous
 62
     4
100
AcDbLine
 10
3760.389849806799
 20
553.5972650574272
 30
0.0
 11
3760.389849806799
 21
552.5766770574273
 31
0.0
  0
ARC
  5
5959
330
1E
100
AcDbEntity
  8
躯体と製品
  6
Continuous
 62
     4
100
AcDbCircle
 10
3760.689849806799
 20
553.5972650574272
 30
0.0
 40
0.3
100
AcDbArc
 50
59.99999999999946
 51
180.0
  0
LINE
  5
595A
330
1E
100
AcDbEntity
  8
躯体と製品
  6
Continuous
 62
     4
100
AcDbLine
 10
3760.839849806799
 20
553.8570710574272
 30
0.0
 11
3761.889849806799
 21
553.250855057427
 31
0.0
  0
ARC
  5
595B
330
1E
100
AcDbEntity
  8
躯体と製品
  6
Continuous
 62
     4
100
AcDbCircle
 10
3760.689849806799
 20
552.5766770574273
 30
0.0
 40
0.3
100
AcDbArc
 50
180.0
 51
245.9973020000106
  0
ARC
  5
595C
330
1E
100
AcDbEntity
  8
躯体と製品
  6
Continuous
 62
     4
100
AcDbCircle
 10
3761.889849806799
 20
555.2715800574271
 30
0.0
 40
3.249999
100
AcDbArc
 50
245.9973009999934
 51
302.2309530000046
  0
LINE
  5
595D
330
1E
100
AcDbEntity
  8
躯体と製品
  6
Continuous
 62
     3
100
AcDbLine
 10
3760.889850806799
 20
546.2715800574271
 30
0.0
 11
3760.889850806799
 21
542.271581057427
 31
0.0
  0
LINE
  5
595E
330
1E
100
AcDbEntity
  8
躯体と製品
  6
Continuous
 62
     4
100
AcDbLine
 10
3761.889849806799
 20
535.2923060574271
 30
0.0
 11
3763.639851806799
 21
534.2819420574272
 31
0.0
  0
LINE
  5
595F
330
1E
100
AcDbEntity
  8
躯体と製品
  6
Continuous
 62
     4
100
AcDbLine
 10
3760.389849806799
 20
534.9458960574272
 30
0.0
 11
3760.389849806799
 21
535.9664840574272
 31
0.0
  0
ARC
  5
5960
330
1E
100
AcDbEntity
  8
躯体と製品
  6
Continuous
 62
     4
100
AcDbCircle
 10
3760.689849806799
 20
534.9458960574272
 30
0.0
 40
0.3
100
AcDbArc
 50
180.0
 51
300.0000000000005
  0
LINE
  5
5961
330
1E
100
AcDbEntity
  8
躯体と製品
  6
Continuous
 62
     4
100
AcDbLine
 10
3760.839849806799
 20
534.6860870574273
 30
0.0
 11
3761.889849806799
 21
535.2923060574271
 31
0.0
  0
ARC
  5
5962
330
1E
100
AcDbEntity
  8
躯体と製品
  6
Continuous
 62
     4
100
AcDbCircle
 10
3760.689849806799
 20
535.9664840574272
 30
0.0
 40
0.3
100
AcDbArc
 50
114.0026979999893
 51
180.0
  0
ARC
  5
5963
330
1E
100
AcDbEntity
  8
躯体と製品
  6
Continuous
 62
     4
100
AcDbCircle
 10
3761.889849806799
 20
533.271581057427
 30
0.0
 40
3.249999
100
AcDbArc
 50
57.76904699999533
 51
114.0027019999813
  0
LINE
  5
5964
330
1E
100
AcDbEntity
  8
躯体と製品
  6
Continuous
 62
     4
100
AcDbLine
 10
3763.639851806799
 20
556.2819440574274
 30
0.0
 11
3763.639851806799
 21
554.2612160574273
 31
0.0
  0
LINE
  5
5965
330
1E
100
AcDbEntity
  8
躯体と製品
  6
Continuous
 62
     4
100
AcDbLine
 10
3780.226344806799
 20
545.685086057427
 30
0.0
 11
3780.076521806799
 21
545.8349090574273
 31
0.0
  0
ARC
  5
5966
330
1E
100
AcDbEntity
  8
躯体と製品
  6
Continuous
 62
     4
100
AcDbCircle
 10
3780.756675806798
 20
546.2154170574271
 30
0.0
 40
0.75
100
AcDbArc
 50
224.9999999999976
 51
300.0000000000005
  0
LINE
  5
5967
330
1E
100
AcDbEntity
  8
躯体と製品
  6
Continuous
 62
     4
100
AcDbLine
 10
3781.131675806799
 20
545.5658960574271
 30
0.0
 11
3782.389851806799
 21
546.2923070574269
 31
0.0
  0
ARC
  5
5968
330
1E
100
AcDbEntity
  8
躯体と製品
  6
Continuous
 62
     4
100
AcDbCircle
 10
3780.606849806799
 20
542.1779210574271
 30
0.0
 40
0.75
100
AcDbArc
 50
135.0000000000022
 51
229.5816659999915
  0
ARC
  5
5969
330
1E
100
AcDbEntity
  8
躯体と製品
  6
Continuous
 62
     4
100
AcDbCircle
 10
3780.606849806799
 20
546.3652400574273
 30
0.0
 40
0.75
100
AcDbArc
 50
130.4183340000083
 51
224.9999999999976
  0
ARC
  5
596A
330
1E
100
AcDbEntity
  8
躯体と製品
  6
Continuous
 62
     4
100
AcDbCircle
 10
3780.756675806798
 20
542.3277440574271
 30
0.0
 40
0.75
100
AcDbArc
 50
59.99999999999946
 51
135.0000000000022
  0
LINE
  5
596B
330
1E
100
AcDbEntity
  8
躯体と製品
  6
Continuous
 62
     4
100
AcDbLine
 10
3780.226344806799
 20
542.8580720574272
 30
0.0
 11
3780.076521806799
 21
542.7082490574272
 31
0.0
  0
LINE
  5
596C
330
1E
100
AcDbEntity
  8
躯体と製品
  6
Continuous
 62
     4
100
AcDbLine
 10
3782.389851806799
 20
542.2508540574272
 30
0.0
 11
3781.131675806799
 21
542.977262057427
 31
0.0
  0
LINE
  5
596D
330
1E
100
AcDbEntity
  8
躯体と製品
  6
Continuous
 62
     3
100
AcDbLine
 10
3774.389850806799
 20
541.7715800574272
 30
0.0
 11
3775.889850806799
 21
543.2715800574271
 31
0.0
  0
LINE
  5
596E
330
1E
100
AcDbEntity
  8
躯体と製品
  6
Continuous
 62
     3
100
AcDbLine
 10
3776.339850806799
 20
541.7715800574272
 30
0.0
 11
3774.389850806799
 21
541.7715800574272
 31
0.0
  0
ARC
  5
596F
330
1E
100
AcDbEntity
  8
躯体と製品
  6
Continuous
 62
     4
100
AcDbCircle
 10
3767.889849806799
 20
549.771581057427
 30
0.0
 40
0.999999
100
AcDbArc
 50
90.0
 51
180.0
  0
LINE
  5
5970
330
1E
100
AcDbEntity
  8
躯体と製品
  6
Continuous
 62
     4
100
AcDbLine
 10
3766.889850806799
 20
538.7715800574271
 30
0.0
 11
3766.889850806799
 21
549.771581057427
 31
0.0
  0
LINE
  5
5971
330
1E
100
AcDbEntity
  8
躯体と製品
  6
Continuous
 62
     3
100
AcDbLine
 10
3775.889850806799
 20
543.2715800574271
 30
0.0
 11
3777.389850806799
 21
541.7715800574272
 31
0.0
  0
LINE
  5
5972
330
1E
100
AcDbEntity
  8
躯体と製品
  6
Continuous
 62
     3
100
AcDbLine
 10
3777.389850806799
 20
535.6465790574272
 30
0.0
 11
3777.389850806799
 21
536.5057790574272
 31
0.0
  0
LINE
  5
5973
330
1E
100
AcDbEntity
  8
躯体と製品
  6
Continuous
 62
     3
100
AcDbLine
 10
3777.389850806799
 20
534.1465790574273
 30
0.0
 11
3777.389850806799
 21
535.0057790574271
 31
0.0
  0
LINE
  5
5974
330
1E
100
AcDbEntity
  8
躯体と製品
  6
Continuous
 62
     3
100
AcDbLine
 10
3777.989850806799
 20
536.6011790574271
 30
0.0
 11
3777.389850806799
 21
537.1465790574273
 31
0.0
  0
LINE
  5
5975
330
1E
100
AcDbEntity
  8
躯体と製品
  6
Continuous
 62
     3
100
AcDbLine
 10
3777.989850806799
 20
536.6011790574271
 30
0.0
 11
3777.389850806799
 21
536.5057790574272
 31
0.0
  0
LINE
  5
5976
330
1E
100
AcDbEntity
  8
躯体と製品
  6
Continuous
 62
     3
100
AcDbLine
 10
3777.989850806799
 20
538.1761790574273
 30
0.0
 11
3777.389850806799
 21
538.2715790574272
 31
0.0
  0
LINE
  5
5977
330
1E
100
AcDbEntity
  8
躯体と製品
  6
Continuous
 62
     3
100
AcDbLine
 10
3777.989850806799
 20
538.1761790574273
 30
0.0
 11
3777.389850806799
 21
537.6307790574271
 31
0.0
  0
LINE
  5
5978
330
1E
100
AcDbEntity
  8
躯体と製品
  6
Continuous
 62
     3
100
AcDbLine
 10
3777.989850806799
 20
535.101179057427
 30
0.0
 11
3777.389850806799
 21
535.6465790574272
 31
0.0
  0
LINE
  5
5979
330
1E
100
AcDbEntity
  8
躯体と製品
  6
Continuous
 62
     3
100
AcDbLine
 10
3777.989850806799
 20
535.101179057427
 30
0.0
 11
3777.389850806799
 21
535.0057790574271
 31
0.0
  0
LINE
  5
597A
330
1E
100
AcDbEntity
  8
躯体と製品
  6
Continuous
 62
     3
100
AcDbLine
 10
3777.989850806799
 20
533.601179057427
 30
0.0
 11
3777.389850806799
 21
534.1465790574273
 31
0.0
  0
LINE
  5
597B
330
1E
100
AcDbEntity
  8
躯体と製品
  6
Continuous
 62
     3
100
AcDbLine
 10
3777.989850806799
 20
533.601179057427
 30
0.0
 11
3777.389850806799
 21
533.5057790574271
 31
0.0
  0
LINE
  5
597C
330
1E
100
AcDbEntity
  8
躯体と製品
  6
Continuous
 62
     3
100
AcDbLine
 10
3774.389850806799
 20
537.6307790574271
 30
0.0
 11
3774.389850806799
 21
536.7715790574273
 31
0.0
  0
LINE
  5
597D
330
1E
100
AcDbEntity
  8
躯体と製品
  6
Continuous
 62
     3
100
AcDbLine
 10
3774.389850806799
 20
534.6307790574271
 30
0.0
 11
3774.389850806799
 21
533.7715790574272
 31
0.0
  0
LINE
  5
597E
330
1E
100
AcDbEntity
  8
躯体と製品
  6
Continuous
 62
     3
100
AcDbLine
 10
3774.389850806799
 20
535.2715790574272
 30
0.0
 11
3774.389850806799
 21
536.1307790574271
 31
0.0
  0
LINE
  5
597F
330
1E
100
AcDbEntity
  8
躯体と製品
  6
Continuous
 62
     3
100
AcDbLine
 10
3773.789850806799
 20
538.1761790574273
 30
0.0
 11
3774.389850806799
 21
538.2715790574272
 31
0.0
  0
LINE
  5
5980
330
1E
100
AcDbEntity
  8
躯体と製品
  6
Continuous
 62
     3
100
AcDbLine
 10
3773.789850806799
 20
538.1761790574273
 30
0.0
 11
3774.389850806799
 21
537.6307790574271
 31
0.0
  0
LINE
  5
5981
330
1E
100
AcDbEntity
  8
躯体と製品
  6
Continuous
 62
     3
100
AcDbLine
 10
3773.789850806799
 20
536.6761790574273
 30
0.0
 11
3774.389850806799
 21
536.7715790574273
 31
0.0
  0
LINE
  5
5982
330
1E
100
AcDbEntity
  8
躯体と製品
  6
Continuous
 62
     3
100
AcDbLine
 10
3773.789850806799
 20
536.6761790574273
 30
0.0
 11
3774.389850806799
 21
536.1307790574271
 31
0.0
  0
LINE
  5
5983
330
1E
100
AcDbEntity
  8
躯体と製品
  6
Continuous
 62
     3
100
AcDbLine
 10
3773.789850806799
 20
535.1761790574273
 30
0.0
 11
3774.389850806799
 21
535.2715790574272
 31
0.0
  0
LINE
  5
5984
330
1E
100
AcDbEntity
  8
躯体と製品
  6
Continuous
 62
     3
100
AcDbLine
 10
3773.789850806799
 20
535.1761790574273
 30
0.0
 11
3774.389850806799
 21
534.6307790574271
 31
0.0
  0
LINE
  5
5985
330
1E
100
AcDbEntity
  8
躯体と製品
  6
Continuous
 62
     3
100
AcDbLine
 10
3773.789850806799
 20
533.6761790574273
 30
0.0
 11
3774.389850806799
 21
533.7715790574272
 31
0.0
  0
LINE
  5
5986
330
1E
100
AcDbEntity
  8
躯体と製品
  6
Continuous
 62
     3
100
AcDbLine
 10
3774.389850806799
 20
538.2715790574272
 30
0.0
 11
3777.389850806799
 21
538.2715790574272
 31
0.0
  0
LINE
  5
5987
330
1E
100
AcDbEntity
  8
躯体と製品
  6
Continuous
 62
     3
100
AcDbLine
 10
3774.389850806799
 20
536.1307790574271
 30
0.0
 11
3777.389850806799
 21
535.0057790574271
 31
0.0
  0
LINE
  5
5988
330
1E
100
AcDbEntity
  8
躯体と製品
  6
Continuous
 62
     3
100
AcDbLine
 10
3777.389850806799
 20
535.6465790574272
 30
0.0
 11
3774.389850806799
 21
536.7715790574273
 31
0.0
  0
LINE
  5
5989
330
1E
100
AcDbEntity
  8
躯体と製品
  6
Continuous
 62
     3
100
AcDbLine
 10
3777.989850806799
 20
535.101179057427
 30
0.0
 11
3773.789850806799
 21
536.6761790574273
 31
0.0
  0
LINE
  5
598A
330
1E
100
AcDbEntity
  8
躯体と製品
  6
Continuous
 62
     3
100
AcDbLine
 10
3774.389850806799
 20
534.6307790574271
 30
0.0
 11
3777.389850806799
 21
533.5057790574271
 31
0.0
  0
LINE
  5
598B
330
1E
100
AcDbEntity
  8
躯体と製品
  6
Continuous
 62
     3
100
AcDbLine
 10
3777.389850806799
 20
534.1465790574273
 30
0.0
 11
3774.389850806799
 21
535.2715790574272
 31
0.0
  0
LINE
  5
598C
330
1E
100
AcDbEntity
  8
躯体と製品
  6
Continuous
 62
     3
100
AcDbLine
 10
3777.989850806799
 20
533.601179057427
 30
0.0
 11
3773.789850806799
 21
535.1761790574273
 31
0.0
  0
LINE
  5
598D
330
1E
100
AcDbEntity
  8
躯体と製品
  6
Continuous
 62
     3
100
AcDbLine
 10
3774.389850806799
 20
537.6307790574271
 30
0.0
 11
3777.389850806799
 21
536.5057790574272
 31
0.0
  0
LINE
  5
598E
330
1E
100
AcDbEntity
  8
躯体と製品
  6
Continuous
 62
     3
100
AcDbLine
 10
3777.389850806799
 20
537.1465790574273
 30
0.0
 11
3774.389850806799
 21
538.2715790574272
 31
0.0
  0
LINE
  5
598F
330
1E
100
AcDbEntity
  8
躯体と製品
  6
Continuous
 62
     3
100
AcDbLine
 10
3773.789850806799
 20
538.1761790574273
 30
0.0
 11
3777.989850806799
 21
536.6011790574271
 31
0.0
  0
LINE
  5
5990
330
1E
100
AcDbEntity
  8
躯体と製品
  6
Continuous
 62
     3
100
AcDbLine
 10
3774.389850806799
 20
538.2715790574272
 30
0.0
 11
3774.389850806799
 21
541.7715800574272
 31
0.0
  0
LINE
  5
5991
330
1E
100
AcDbEntity
  8
躯体と製品
  6
Continuous
 62
     3
100
AcDbLine
 10
3777.389850806799
 20
537.1465790574273
 30
0.0
 11
3777.389850806799
 21
541.7715800574272
 31
0.0
  0
LINE
  5
5992
330
1E
100
AcDbEntity
  8
躯体と製品
  6
Continuous
 62
     3
100
AcDbLine
 10
3775.889850806799
 20
543.2715800574271
 30
0.0
 11
3777.389850806799
 21
538.2715790574272
 31
0.0
  0
ARC
  5
5993
330
1E
100
AcDbEntity
  8
躯体と製品
  6
Continuous
 62
     4
100
AcDbCircle
 10
3767.889849806799
 20
538.7715800574271
 30
0.0
 40
0.999999
100
AcDbArc
 50
180.0
 51
270.0
  0
LINE
  5
5994
330
1E
100
AcDbEntity
  8
躯体と製品
  6
Continuous
 62
     4
100
AcDbLine
 10
3764.389851806799
 20
536.4437240574273
 30
0.0
 11
3764.389851806799
 21
552.0994370574272
 31
0.0
  0
ARC
  5
5995
330
1E
100
AcDbEntity
  8
躯体と製品
  6
Continuous
 62
     4
100
AcDbCircle
 10
3767.889849806799
 20
549.771581057427
 30
0.0
 40
2.000001
100
AcDbArc
 50
90.0
 51
180.0
  0
ARC
  5
5996
330
1E
100
AcDbEntity
  8
躯体と製品
  6
Continuous
 62
     4
100
AcDbCircle
 10
3767.889849806799
 20
538.7715800574271
 30
0.0
 40
2.000001
100
AcDbArc
 50
180.0
 51
270.0
  0
LINE
  5
5997
330
1E
100
AcDbEntity
  8
躯体と製品
  6
Continuous
 62
     4
100
AcDbLine
 10
3785.889849806799
 20
527.271581057427
 30
0.0
 11
3785.889849806799
 21
532.7715800574272
 31
0.0
  0
LINE
  5
5998
330
1E
100
AcDbEntity
  8
躯体と製品
  6
Continuous
 62
     4
100
AcDbLine
 10
3785.889849806799
 20
532.7715800574272
 30
0.0
 11
3783.889851806799
 21
532.7715800574272
 31
0.0
  0
LINE
  5
5999
330
1E
100
AcDbEntity
  8
躯体と製品
  6
Continuous
 62
     4
100
AcDbLine
 10
3783.889851806799
 20
532.7715800574272
 30
0.0
 11
3783.889851806799
 21
531.3071150574272
 31
0.0
  0
LINE
  5
599A
330
1E
100
AcDbEntity
  8
躯体と製品
  6
Continuous
 62
     3
100
AcDbLine
 10
3785.889849806799
 20
540.771581057427
 30
0.0
 11
3785.889849806799
 21
547.7715800574271
 31
0.0
  0
LINE
  5
599B
330
1E
100
AcDbEntity
  8
躯体と製品
  6
Continuous
 62
     3
100
AcDbLine
 10
3787.009266806799
 20
540.8695160574271
 30
0.0
 11
3785.889849806799
 21
540.771581057427
 31
0.0
  0
ARC
  5
599C
330
1E
100
AcDbEntity
  8
躯体と製品
  6
Continuous
 62
     3
100
AcDbCircle
 10
3786.895962806799
 20
546.3785900574271
 30
0.0
 40
1.299998999999999
100
AcDbArc
 50
15.8808500000044
 51
85.00000000000026
  0
ARC
  5
599D
330
1E
100
AcDbEntity
  8
躯体と製品
  6
Continuous
 62
     3
100
AcDbCircle
 10
3786.895962806799
 20
542.1645680574271
 30
0.0
 40
1.299998999999999
100
AcDbArc
 50
274.9999999999997
 51
344.1191499999955
  0
ARC
  5
599E
330
1E
100
AcDbEntity
  8
躯体と製品
  6
Continuous
 62
     3
100
AcDbCircle
 10
3779.489850806799
 20
544.2715790574273
 30
0.0
 40
9.0
100
AcDbArc
 50
344.1191499999955
 51
15.8808500000044
  0
LINE
  5
599F
330
1E
100
AcDbEntity
  8
躯体と製品
  6
Continuous
 62
     3
100
AcDbLine
 10
3787.009266806799
 20
547.6736450574271
 30
0.0
 11
3785.889849806799
 21
547.7715800574271
 31
0.0
  0
LINE
  5
59A0
330
1E
100
AcDbEntity
  8
躯体と製品
  6
Continuous
 62
     4
100
AcDbLine
 10
3784.139850806798
 20
544.7404910574272
 30
0.0
 11
3784.139850806798
 21
545.2819430574272
 31
0.0
  0
LINE
  5
59A1
330
1E
100
AcDbEntity
  8
躯体と製品
  6
Continuous
 62
     4
100
AcDbLine
 10
3784.139850806798
 20
544.7404910574272
 30
0.0
 11
3784.139850806798
 21
543.261218057427
 31
0.0
  0
ARC
  5
59A2
330
1E
100
AcDbEntity
  8
躯体と製品
  6
Continuous
 62
     4
100
AcDbCircle
 10
3784.389849806799
 20
540.8074790574271
 30
0.0
 40
0.5000010000000001
100
AcDbArc
 50
0.0
 51
120.0000000000005
  0
ARC
  5
59A3
330
1E
100
AcDbEntity
  8
躯体と製品
  6
Continuous
 62
     4
100
AcDbCircle
 10
3784.389849806799
 20
547.7356820574271
 30
0.0
 40
0.5000010000000001
100
AcDbArc
 50
239.9999999999994
 51
0.0
  0
LINE
  5
59A4
330
1E
100
AcDbEntity
  8
躯体と製品
  6
Continuous
 62
     4
100
AcDbLine
 10
3784.889850806798
 20
540.8074790574271
 30
0.0
 11
3784.889850806798
 21
538.7715800574271
 31
0.0
  0
LINE
  5
59A5
330
1E
100
AcDbEntity
  8
躯体と製品
  6
Continuous
 62
     4
100
AcDbLine
 10
3784.889850806798
 20
549.771581057427
 30
0.0
 11
3784.889850806798
 21
547.7356820574271
 31
0.0
  0
ARC
  5
59A6
330
1E
100
AcDbEntity
  8
躯体と製品
  6
Continuous
 62
     4
100
AcDbCircle
 10
3783.889851806799
 20
549.771581057427
 30
0.0
 40
0.999999
100
AcDbArc
 50
0.0
 51
90.0
  0
ARC
  5
59A7
330
1E
100
AcDbEntity
  8
躯体と製品
  6
Continuous
 62
     4
100
AcDbCircle
 10
3783.889851806799
 20
549.771581057427
 30
0.0
 40
2.000001
100
AcDbArc
 50
0.0
 51
90.0
  0
LINE
  5
59A8
330
1E
100
AcDbEntity
  8
躯体と製品
  6
Continuous
 62
     4
100
AcDbLine
 10
3785.889849806799
 20
549.771581057427
 30
0.0
 11
3785.889849806799
 21
538.7715800574271
 31
0.0
  0
ARC
  5
59A9
330
1E
100
AcDbEntity
  8
躯体と製品
  6
Continuous
 62
     4
100
AcDbCircle
 10
3783.889851806799
 20
538.7715800574271
 30
0.0
 40
0.999999
100
AcDbArc
 50
270.0
 51
0.0
  0
ARC
  5
59AA
330
1E
100
AcDbEntity
  8
躯体と製品
  6
Continuous
 62
     4
100
AcDbCircle
 10
3783.889851806799
 20
538.7715800574271
 30
0.0
 40
2.000001
100
AcDbArc
 50
270.0
 51
0.0
  0
ARC
  5
59AB
330
1E
100
AcDbEntity
  8
躯体と製品
  6
Continuous
 62
     4
100
AcDbCircle
 10
3763.389849806799
 20
566.4715790574271
 30
0.0
 40
0.999999
100
AcDbArc
 50
0.0
 51
90.0
  0
ARC
  5
59AC
330
1E
100
AcDbEntity
  8
躯体と製品
  6
Continuous
 62
     4
100
AcDbCircle
 10
3763.889850806799
 20
567.2715800574271
 30
0.0
 40
2.000001
100
AcDbArc
 50
0.0
 51
90.0
  0
ARC
  5
59AD
330
1E
100
AcDbEntity
  8
躯体と製品
  6
Continuous
 62
     4
100
AcDbCircle
 10
3749.189850806799
 20
565.9715810574273
 30
0.0
 40
1.5
100
AcDbArc
 50
0.0
 51
90.0
  0
LINE
  5
59AE
330
1E
100
AcDbEntity
  8
躯体と製品
  6
Continuous
 62
     4
100
AcDbLine
 10
3750.689850806799
 20
565.9715810574273
 30
0.0
 11
3750.689850806799
 21
565.3715810574271
 31
0.0
  0
LINE
  5
59AF
330
1E
100
AcDbEntity
  8
躯体と製品
  6
Continuous
 62
     4
100
AcDbLine
 10
3751.889850806799
 20
566.971580057427
 30
0.0
 11
3751.889850806799
 21
564.3715790574271
 31
0.0
  0
ARC
  5
59B0
330
1E
100
AcDbEntity
  8
躯体と製品
  6
Continuous
 62
     4
100
AcDbCircle
 10
3752.389851806798
 20
566.971580057427
 30
0.0
 40
0.5000010000000001
100
AcDbArc
 50
90.0
 51
180.0
  0
ARC
  5
59B1
330
1E
100
AcDbEntity
  8
躯体と製品
  6
Continuous
 62
     4
100
AcDbCircle
 10
3751.289850806799
 20
564.3715790574271
 30
0.0
 40
0.6000000000000001
100
AcDbArc
 50
180.0
 51
0.0
  0
LINE
  5
59B2
330
1E
100
AcDbEntity
  8
躯体と製品
  6
Continuous
 62
     4
100
AcDbLine
 10
3750.689850806799
 20
564.3715790574271
 30
0.0
 11
3750.689850806799
 21
565.3715810574271
 31
0.0
  0
LINE
  5
59B3
330
1E
100
AcDbEntity
  8
躯体と製品
  6
Continuous
 62
     4
100
AcDbLine
 10
3763.389849806799
 20
567.4715810574273
 30
0.0
 11
3752.389851806798
 21
567.4715810574273
 31
0.0
  0
DIMENSION
  5
59B4
330
1E
100
AcDbEntity
  8
寸法
  6
Continuous
100
AcDbDimension
  2
*D47
 10
3961.389851306799
 20
524.271581057427
 30
0.0
 11
3958.089851306799
 21
544.2715805574278
 31
0.0
 70
    32
  1
40
 71
     5
 42
-1.0
  3
AutoCAD
100
AcDbAlignedDimension
 13
3961.389851306799
 23
564.2715800574271
 33
0.0
 14
3960.889851806799
 24
524.271581057427
 34
0.0
 50
90.0
100
AcDbRotatedDimension
1001
ACAD
1000
DSTYLE
1002
{
1070
   147
1040
0.8
1070
   140
1040
10.0
1002
}
  0
ARC
  5
59B5
330
1E
100
AcDbEntity
  8
躯体と製品
  6
Continuous
 62
     3
100
AcDbCircle
 10
4134.883737806798
 20
546.3785900574271
 30
0.0
 40
1.299998999999999
100
AcDbArc
 50
94.99999999999975
 51
164.1191499999955
  0
ARC
  5
59B6
330
1E
100
AcDbEntity
  8
躯体と製品
  6
Continuous
 62
     3
100
AcDbCircle
 10
4134.883737806798
 20
542.1645680574271
 30
0.0
 40
1.299998999999999
100
AcDbArc
 50
195.8808500000044
 51
265.0000000000003
  0
ARC
  5
59B7
330
1E
100
AcDbEntity
  8
躯体と製品
  6
Continuous
 62
     3
100
AcDbCircle
 10
4142.289849806799
 20
544.2715790574273
 30
0.0
 40
9.0
100
AcDbArc
 50
164.1191499999955
 51
195.8808500000044
  0
LINE
  5
59B8
330
1E
100
AcDbEntity
  8
躯体と製品
  6
PLINE2
 62
     4
100
AcDbLine
 10
4235.889849806799
 20
529.2715790574272
 30
0.0
 11
4205.8898498068
 21
529.2715790574272
 31
0.0
  0
LINE
  5
59B9
330
1E
100
AcDbEntity
  8
躯体と製品
  6
PLINE2
 62
     4
100
AcDbLine
 10
4235.889849806799
 20
559.2715790574272
 30
0.0
 11
4205.8898498068
 21
559.2715790574272
 31
0.0
  0
LINE
  5
59BA
330
1E
100
AcDbEntity
  8
躯体と製品
  6
Continuous
 62
     4
100
AcDbLine
 10
4245.889851806799
 20
524.271581057427
 30
0.0
 11
4205.8898498068
 21
524.271581057427
 31
0.0
  0
LINE
  5
59BB
330
1E
100
AcDbEntity
  8
躯体と製品
  6
Continuous
 62
     4
100
AcDbLine
 10
4245.889851806799
 20
564.2715800574271
 30
0.0
 11
4205.8898498068
 21
564.2715800574271
 31
0.0
  0
DIMENSION
  5
59BC
330
1E
100
AcDbEntity
  8
寸法
  6
Continuous
100
AcDbDimension
  2
*D48
 10
4265.889849806799
 20
519.2715800574271
 30
0.0
 11
4262.589849806799
 21
544.2715805574278
 31
0.0
 70
    32
  1
50
 71
     5
 42
-1.0
  3
AutoCAD
100
AcDbAlignedDimension
 13
4206.889851806798
 23
569.271581057427
 33
0.0
 14
4206.889851806798
 24
519.2715800574271
 34
0.0
 50
90.0
100
AcDbRotatedDimension
1001
ACAD
1000
DSTYLE
1002
{
1070
   147
1040
0.8
1070
   140
1040
10.0
1002
}
  0
LINE
  5
59BD
330
1E
100
AcDbEntity
  8
躯体と製品
  6
Continuous
 62
     4
100
AcDbLine
 10
4155.889851806799
 20
521.2715810574271
 30
0.0
 11
4155.889851806799
 21
567.2715800574271
 31
0.0
  0
LINE
  5
59BE
330
1E
100
AcDbEntity
  8
躯体と製品
  6
Continuous
 62
     4
100
AcDbLine
 10
4204.389849806799
 20
566.4715790574271
 30
0.0
 11
4204.389849806799
 21
559.2480740574273
 31
0.0
  0
LINE
  5
59BF
330
1E
100
AcDbEntity
  8
躯体と製品
  6
Continuous
 62
     4
100
AcDbLine
 10
4205.8898498068
 20
521.2715810574271
 30
0.0
 11
4205.8898498068
 21
567.2715800574271
 31
0.0
  0
LINE
  5
59C0
330
1E
100
AcDbEntity
  8
躯体と製品
  6
Continuous
 62
     4
100
AcDbLine
 10
4157.389851806799
 20
566.4715790574271
 30
0.0
 11
4157.389851806799
 21
558.4437230574273
 31
0.0
  0
LINE
  5
59C1
330
1E
100
AcDbEntity
  8
躯体と製品
  6
PLINE3
 62
     3
100
AcDbLine
 10
4180.889850806799
 20
578.1307310574272
 30
0.0
 11
4180.889850806799
 21
508.9877840574273
 31
0.0
  0
DIMENSION
  5
59C2
330
1E
100
AcDbEntity
  8
寸法
  6
Continuous
100
AcDbDimension
  2
*D49
 10
4155.889851806799
 20
599.271581057427
 30
0.0
 11
4145.8898513068
 21
602.5715810574269
 31
0.0
 70
    32
  1
20
 71
     5
 42
-1.0
  3
AutoCAD
100
AcDbAlignedDimension
 13
4135.889850806799
 23
552.771581057427
 33
0.0
 14
4155.889851806799
 24
570.2715800574272
 34
0.0
100
AcDbRotatedDimension
1001
ACAD
1000
DSTYLE
1002
{
1070
   147
1040
0.8
1070
   140
1040
10.0
1002
}
  0
LINE
  5
59C3
330
1E
100
AcDbEntity
  8
躯体と製品
  6
Continuous
 62
     4
100
AcDbLine
 10
4157.889849806799
 20
519.2715800574271
 30
0.0
 11
4203.889851806798
 21
519.2715800574271
 31
0.0
  0
LINE
  5
59C4
330
1E
100
AcDbEntity
  8
躯体と製品
  6
Continuous
 62
     4
100
AcDbLine
 10
4188.5473208068
 20
521.0715800574272
 30
0.0
 11
4173.232380806799
 21
521.0715800574272
 31
0.0
  0
LINE
  5
59C5
330
1E
100
AcDbEntity
  8
躯体と製品
  6
Continuous
 62
     4
100
AcDbLine
 10
4158.139851806799
 20
534.2819420574272
 30
0.0
 11
4158.139851806799
 21
532.2612170574272
 31
0.0
  0
LINE
  5
59C6
330
1E
100
AcDbEntity
  8
躯体と製品
  6
Continuous
 62
     2
100
AcDbLine
 10
4153.889850806799
 20
536.7715790574273
 30
0.0
 11
4153.889850806799
 21
532.7715800574272
 31
0.0
  0
LINE
  5
59C7
330
1E
100
AcDbEntity
  8
躯体と製品
  6
Continuous
 62
     3
100
AcDbLine
 10
4144.389849806799
 20
531.1465790574272
 30
0.0
 11
4144.389849806799
 21
533.5057790574271
 31
0.0
  0
LINE
  5
59C8
330
1E
100
AcDbEntity
  8
躯体と製品
  6
Continuous
 62
     3
100
AcDbLine
 10
4144.389849806799
 20
532.6465790574273
 30
0.0
 11
4147.389849806799
 21
533.7715790574272
 31
0.0
  0
LINE
  5
59C9
330
1E
100
AcDbEntity
  8
躯体と製品
  6
Continuous
 62
     3
100
AcDbLine
 10
4143.789849806799
 20
532.1011790574271
 30
0.0
 11
4147.989849806799
 21
533.6761790574273
 31
0.0
  0
LINE
  5
59CA
330
1E
100
AcDbEntity
  8
躯体と製品
  6
Continuous
 62
     3
100
AcDbLine
 10
4147.989849806799
 20
533.6761790574273
 30
0.0
 11
4147.389849806799
 21
533.1307790574271
 31
0.0
  0
LINE
  5
59CB
330
1E
100
AcDbEntity
  8
躯体と製品
  6
PLINE3
 62
     3
100
AcDbLine
 10
4145.889849806799
 20
546.2715800574271
 30
0.0
 11
4145.889849806799
 21
524.271581057427
 31
0.0
  0
LINE
  5
59CC
330
1E
100
AcDbEntity
  8
躯体と製品
  6
Continuous
 62
     4
100
AcDbLine
 10
4150.889850806799
 20
530.271581057427
 30
0.0
 11
4153.889850806799
 21
527.271581057427
 31
0.0
  0
ARC
  5
59CD
330
1E
100
AcDbEntity
  8
躯体と製品
  6
Continuous
 62
     4
100
AcDbCircle
 10
4153.389849806798
 20
531.3071150574272
 30
0.0
 40
0.5000010000000001
100
AcDbArc
 50
224.9999999999976
 51
0.0
  0
LINE
  5
59CE
330
1E
100
AcDbEntity
  8
躯体と製品
  6
Continuous
 62
     4
100
AcDbLine
 10
4143.3898508068
 20
530.271581057427
 30
0.0
 11
4143.3898508068
 21
532.2715790574273
 31
0.0
  0
LINE
  5
59CF
330
1E
100
AcDbEntity
  8
躯体と製品
  6
Continuous
 62
     4
100
AcDbLine
 10
4148.389851806799
 20
530.271581057427
 30
0.0
 11
4148.389851806799
 21
532.2715790574273
 31
0.0
  0
LINE
  5
59D0
330
1E
100
AcDbEntity
  8
躯体と製品
  6
Continuous
 62
     3
100
AcDbLine
 10
4149.889851806799
 20
529.471580057427
 30
0.0
 11
4149.427971806799
 21
530.271581057427
 31
0.0
  0
LINE
  5
59D1
330
1E
100
AcDbEntity
  8
躯体と製品
  6
Continuous
 62
     3
100
AcDbLine
 10
4147.389849806799
 20
530.271581057427
 30
0.0
 11
4147.389849806799
 21
531.6307790574271
 31
0.0
  0
LINE
  5
59D2
330
1E
100
AcDbEntity
  8
躯体と製品
  6
Continuous
 62
     3
100
AcDbLine
 10
4147.389849806799
 20
532.2715790574273
 30
0.0
 11
4147.389849806799
 21
533.1307790574271
 31
0.0
  0
LINE
  5
59D3
330
1E
100
AcDbEntity
  8
躯体と製品
  6
Continuous
 62
     3
100
AcDbLine
 10
4144.389849806799
 20
530.271581057427
 30
0.0
 11
4144.389849806799
 21
530.5057790574271
 31
0.0
  0
LINE
  5
59D4
330
1E
100
AcDbEntity
  8
躯体と製品
  6
Continuous
 62
     3
100
AcDbLine
 10
4147.389849806799
 20
533.1307790574271
 30
0.0
 11
4144.389849806799
 21
532.0057790574272
 31
0.0
  0
LINE
  5
59D5
330
1E
100
AcDbEntity
  8
躯体と製品
  6
Continuous
 62
     3
100
AcDbLine
 10
4149.539610806799
 20
528.5093060574272
 30
0.0
 11
4149.889851806799
 21
529.471580057427
 31
0.0
  0
LINE
  5
59D6
330
1E
100
AcDbEntity
  8
躯体と製品
  6
Continuous
 62
     3
100
AcDbLine
 10
4143.789849806799
 20
532.1011790574271
 30
0.0
 11
4144.389849806799
 21
532.6465790574273
 31
0.0
  0
LINE
  5
59D7
330
1E
100
AcDbEntity
  8
躯体と製品
  6
Continuous
 62
     3
100
AcDbLine
 10
4143.789849806799
 20
532.1011790574271
 30
0.0
 11
4144.389849806799
 21
532.0057790574272
 31
0.0
  0
LINE
  5
59D8
330
1E
100
AcDbEntity
  8
躯体と製品
  6
Continuous
 62
     3
100
AcDbLine
 10
4144.389849806799
 20
531.1465790574272
 30
0.0
 11
4147.389849806799
 21
532.2715790574273
 31
0.0
  0
LINE
  5
59D9
330
1E
100
AcDbEntity
  8
躯体と製品
  6
Continuous
 62
     3
100
AcDbLine
 10
4147.389849806799
 20
531.6307790574271
 30
0.0
 11
4144.389849806799
 21
530.5057790574271
 31
0.0
  0
LINE
  5
59DA
330
1E
100
AcDbEntity
  8
躯体と製品
  6
Continuous
 62
     3
100
AcDbLine
 10
4143.789849806799
 20
530.601179057427
 30
0.0
 11
4147.989849806799
 21
532.1761790574274
 31
0.0
  0
LINE
  5
59DB
330
1E
100
AcDbEntity
  8
躯体と製品
  6
Continuous
 62
     3
100
AcDbLine
 10
4143.789849806799
 20
530.601179057427
 30
0.0
 11
4144.389849806799
 21
531.1465790574272
 31
0.0
  0
LINE
  5
59DC
330
1E
100
AcDbEntity
  8
躯体と製品
  6
Continuous
 62
     3
100
AcDbLine
 10
4143.789849806799
 20
530.601179057427
 30
0.0
 11
4144.389849806799
 21
530.5057790574271
 31
0.0
  0
LINE
  5
59DD
330
1E
100
AcDbEntity
  8
躯体と製品
  6
Continuous
 62
     3
100
AcDbLine
 10
4147.989849806799
 20
532.1761790574274
 30
0.0
 11
4147.389849806799
 21
532.2715790574273
 31
0.0
  0
LINE
  5
59DE
330
1E
100
AcDbEntity
  8
躯体と製品
  6
Continuous
 62
     3
100
AcDbLine
 10
4147.989849806799
 20
532.1761790574274
 30
0.0
 11
4147.389849806799
 21
531.6307790574271
 31
0.0
  0
LINE
  5
59DF
330
1E
100
AcDbEntity
  8
躯体と製品
  6
Continuous
 62
     4
100
AcDbLine
 10
4151.218278806799
 20
532.7715800574272
 30
0.0
 11
4149.3898508068
 21
532.7715800574272
 31
0.0
  0
LINE
  5
59E0
330
1E
100
AcDbEntity
  8
躯体と製品
  6
Continuous
 62
     4
100
AcDbLine
 10
4146.189849806798
 20
530.271581057427
 30
0.0
 11
4150.889850806799
 21
530.271581057427
 31
0.0
  0
LINE
  5
59E1
330
1E
100
AcDbEntity
  8
躯体と製品
  6
Continuous
 62
     4
100
AcDbLine
 10
4145.589849806799
 20
530.271581057427
 30
0.0
 11
4145.889849806799
 21
530.571581057427
 31
0.0
  0
LINE
  5
59E2
330
1E
100
AcDbEntity
  8
躯体と製品
  6
Continuous
 62
     4
100
AcDbLine
 10
4146.189849806798
 20
530.271581057427
 30
0.0
 11
4145.889849806799
 21
530.571581057427
 31
0.0
  0
LINE
  5
59E3
330
1E
100
AcDbEntity
  8
躯体と製品
  6
Continuous
 62
     4
100
AcDbLine
 10
4148.889849806799
 20
532.2715790574273
 30
0.0
 11
4142.889849806799
 21
532.2715790574273
 31
0.0
  0
LINE
  5
59E4
330
1E
100
AcDbEntity
  8
躯体と製品
  6
Continuous
 62
     4
100
AcDbLine
 10
4148.889849806799
 20
532.2715790574273
 30
0.0
 11
4149.3898508068
 21
532.7715800574272
 31
0.0
  0
LINE
  5
59E5
330
1E
100
AcDbEntity
  8
躯体と製品
  6
Continuous
 62
     4
100
AcDbLine
 10
4151.218278806799
 20
532.7715800574272
 30
0.0
 11
4153.036296806799
 21
530.9535590574272
 31
0.0
  0
LINE
  5
59E6
330
1E
100
AcDbEntity
  8
躯体と製品
  6
Continuous
 62
     3
100
AcDbLine
 10
4142.351730806799
 20
530.271581057427
 30
0.0
 11
4141.8898508068
 21
529.471580057427
 31
0.0
  0
LINE
  5
59E7
330
1E
100
AcDbEntity
  8
躯体と製品
  6
Continuous
 62
     3
100
AcDbLine
 10
4142.240088806799
 20
528.5093060574272
 30
0.0
 11
4141.8898508068
 21
529.471580057427
 31
0.0
  0
LINE
  5
59E8
330
1E
100
AcDbEntity
  8
躯体と製品
  6
Continuous
 62
     4
100
AcDbLine
 10
4140.561423806799
 20
532.7715800574272
 30
0.0
 11
4142.389851806799
 21
532.7715800574272
 31
0.0
  0
LINE
  5
59E9
330
1E
100
AcDbEntity
  8
躯体と製品
  6
Continuous
 62
     4
100
AcDbLine
 10
4135.889850806799
 20
527.271581057427
 30
0.0
 11
4135.889850806799
 21
532.7715800574272
 31
0.0
  0
LINE
  5
59EA
330
1E
100
AcDbEntity
  8
躯体と製品
  6
Continuous
 62
     4
100
AcDbLine
 10
4135.889850806799
 20
532.7715800574272
 30
0.0
 11
4137.889851806799
 21
532.7715800574272
 31
0.0
  0
LINE
  5
59EB
330
1E
100
AcDbEntity
  8
躯体と製品
  6
Continuous
 62
     4
100
AcDbLine
 10
4137.889851806799
 20
527.271581057427
 30
0.0
 11
4140.889851806799
 21
530.271581057427
 31
0.0
  0
ARC
  5
59EC
330
1E
100
AcDbEntity
  8
躯体と製品
  6
Continuous
 62
     4
100
AcDbCircle
 10
4138.389849806799
 20
531.3071150574272
 30
0.0
 40
0.5000010000000001
100
AcDbArc
 50
180.0
 51
315.0000000000023
  0
LINE
  5
59ED
330
1E
100
AcDbEntity
  8
躯体と製品
  6
Continuous
 62
     4
100
AcDbLine
 10
4137.889851806799
 20
532.7715800574272
 30
0.0
 11
4137.889851806799
 21
531.3071150574272
 31
0.0
  0
LINE
  5
59EE
330
1E
100
AcDbEntity
  8
躯体と製品
  6
Continuous
 62
     4
100
AcDbLine
 10
4140.561423806799
 20
532.7715800574272
 30
0.0
 11
4138.743402806799
 21
530.9535590574272
 31
0.0
  0
LINE
  5
59EF
330
1E
100
AcDbEntity
  8
躯体と製品
  6
Continuous
 62
     3
100
AcDbLine
 10
4149.427971806799
 20
530.271581057427
 30
0.0
 11
4142.351730806799
 21
530.271581057427
 31
0.0
  0
LINE
  5
59F0
330
1E
100
AcDbEntity
  8
躯体と製品
  6
Continuous
 62
     3
100
AcDbLine
 10
4149.889851806799
 20
529.471580057427
 30
0.0
 11
4141.8898508068
 21
529.471580057427
 31
0.0
  0
ARC
  5
59F1
330
1E
100
AcDbEntity
  8
躯体と製品
  6
Continuous
 62
     3
100
AcDbCircle
 10
4145.889849806799
 20
533.271581057427
 30
0.0
 40
6.0
100
AcDbArc
 50
232.5337820000163
 51
307.4662179999836
  0
LINE
  5
59F2
330
1E
100
AcDbEntity
  8
躯体と製品
  6
Continuous
 62
     4
100
AcDbLine
 10
4145.589849806799
 20
530.271581057427
 30
0.0
 11
4140.889851806799
 21
530.271581057427
 31
0.0
  0
LINE
  5
59F3
330
1E
100
AcDbEntity
  8
躯体と製品
  6
Continuous
 62
     4
100
AcDbLine
 10
4142.889849806799
 20
532.2715790574273
 30
0.0
 11
4142.389851806799
 21
532.7715800574272
 31
0.0
  0
LINE
  5
59F4
330
1E
100
AcDbEntity
  8
躯体と製品
  6
Continuous
 62
     4
100
AcDbLine
 10
4155.889851806799
 20
532.7715800574272
 30
0.0
 11
4153.889850806799
 21
532.7715800574272
 31
0.0
  0
LINE
  5
59F5
330
1E
100
AcDbEntity
  8
躯体と製品
  6
Continuous
 62
     4
100
AcDbLine
 10
4153.889850806799
 20
527.271581057427
 30
0.0
 11
4155.889851806799
 21
527.271581057427
 31
0.0
  0
LINE
  5
59F6
330
1E
100
AcDbEntity
  8
躯体と製品
  6
Continuous
 62
     4
100
AcDbLine
 10
4168.879488806799
 20
521.5215800574271
 30
0.0
 11
4170.900213806799
 21
521.5215800574271
 31
0.0
  0
ARC
  5
59F7
330
1E
100
AcDbEntity
  8
躯体と製品
  6
Continuous
 62
     4
100
AcDbCircle
 10
4173.232380806799
 20
521.5715810574271
 30
0.0
 40
0.5000010000000001
100
AcDbArc
 50
153.0422509999957
 51
270.0
  0
ARC
  5
59F8
330
1E
100
AcDbEntity
  8
躯体と製品
  6
Continuous
 62
     4
100
AcDbCircle
 10
4166.547321806799
 20
521.5715810574271
 30
0.0
 40
0.5000010000000001
100
AcDbArc
 50
270.0
 51
26.95774900000423
  0
ARC
  5
59F9
330
1E
100
AcDbEntity
  8
躯体と製品
  6
Continuous
 62
     4
100
AcDbCircle
 10
4157.889849806799
 20
521.2715810574271
 30
0.0
 40
2.000001
100
AcDbArc
 50
180.0
 51
270.0
  0
ARC
  5
59FA
330
1E
100
AcDbEntity
  8
躯体と製品
  6
Continuous
 62
     4
100
AcDbCircle
 10
4158.389850806799
 20
522.0715790574273
 30
0.0
 40
0.999999
100
AcDbArc
 50
180.0
 51
270.0
  0
LINE
  5
59FB
330
1E
100
AcDbEntity
  8
躯体と製品
  6
Continuous
 62
     4
100
AcDbLine
 10
4158.389850806799
 20
521.0715800574272
 30
0.0
 11
4166.547321806799
 21
521.0715800574272
 31
0.0
  0
LINE
  5
59FC
330
1E
100
AcDbEntity
  8
躯体と製品
  6
Continuous
 62
     4
100
AcDbLine
 10
4170.900213806799
 20
521.5215800574271
 30
0.0
 11
4171.910577806799
 21
523.2715790574273
 31
0.0
  0
LINE
  5
59FD
330
1E
100
AcDbEntity
  8
躯体と製品
  6
Continuous
 62
     4
100
AcDbLine
 10
4167.869124806799
 20
523.2715790574273
 30
0.0
 11
4168.879488806799
 21
521.5215800574271
 31
0.0
  0
LINE
  5
59FE
330
1E
100
AcDbEntity
  8
躯体と製品
  6
Continuous
 62
     4
100
AcDbLine
 10
4157.389851806799
 20
522.0715790574273
 30
0.0
 11
4157.389851806799
 21
529.2950870574272
 31
0.0
  0
ARC
  5
59FF
330
1E
100
AcDbEntity
  8
躯体と製品
  6
Continuous
 62
     4
100
AcDbCircle
 10
4169.889849806799
 20
523.2715790574273
 30
0.0
 40
3.249999
100
AcDbArc
 50
155.997307000003
 51
206.9577469999915
  0
ARC
  5
5A00
330
1E
100
AcDbEntity
  8
躯体と製品
  6
Continuous
 62
     4
100
AcDbCircle
 10
4169.889849806799
 20
523.2715790574273
 30
0.0
 40
3.249999
100
AcDbArc
 50
333.0422459999964
 51
24.00269999999758
  0
LINE
  5
5A01
330
1E
100
AcDbEntity
  8
躯体と製品
  6
Continuous
 62
     4
100
AcDbLine
 10
4171.564167806798
 20
524.7715790574273
 30
0.0
 11
4172.584752806798
 21
524.7715790574273
 31
0.0
  0
ARC
  5
5A02
330
1E
100
AcDbEntity
  8
躯体と製品
  6
Continuous
 62
     4
100
AcDbCircle
 10
4171.564167806798
 20
524.4715790574272
 30
0.0
 40
0.3
100
AcDbArc
 50
90.0
 51
209.9999999999944
  0
LINE
  5
5A03
330
1E
100
AcDbEntity
  8
躯体と製品
  6
Continuous
 62
     4
100
AcDbLine
 10
4171.304358806799
 20
524.3215790574273
 30
0.0
 11
4171.910577806799
 21
523.2715790574273
 31
0.0
  0
LINE
  5
5A04
330
1E
100
AcDbEntity
  8
躯体と製品
  6
Continuous
 62
     4
100
AcDbLine
 10
4168.475343806799
 20
524.3215790574273
 30
0.0
 11
4167.869124806799
 21
523.2715790574273
 31
0.0
  0
ARC
  5
5A05
330
1E
100
AcDbEntity
  8
躯体と製品
  6
Continuous
 62
     4
100
AcDbCircle
 10
4168.215534806799
 20
524.4715790574272
 30
0.0
 40
0.3
100
AcDbArc
 50
330.0000000000055
 51
90.0
  0
LINE
  5
5A06
330
1E
100
AcDbEntity
  8
躯体と製品
  6
Continuous
 62
     4
100
AcDbLine
 10
4168.215534806799
 20
524.7715790574273
 30
0.0
 11
4167.194946806798
 21
524.7715790574273
 31
0.0
  0
ARC
  5
5A07
330
1E
100
AcDbEntity
  8
躯体と製品
  6
Continuous
 62
     4
100
AcDbCircle
 10
4172.584752806798
 20
524.4715790574272
 30
0.0
 40
0.3
100
AcDbArc
 50
24.00269800000685
 51
90.0
  0
ARC
  5
5A08
330
1E
100
AcDbEntity
  8
躯体と製品
  6
Continuous
 62
     4
100
AcDbCircle
 10
4167.194946806798
 20
524.4715790574272
 30
0.0
 40
0.3
100
AcDbArc
 50
90.0
 51
155.9973019999931
  0
LINE
  5
5A09
330
1E
100
AcDbEntity
  8
躯体と製品
  6
Continuous
 62
     4
100
AcDbLine
 10
4158.139851806799
 20
532.2612170574272
 30
0.0
 11
4159.889850806799
 21
531.2508530574273
 31
0.0
  0
LINE
  5
5A0A
330
1E
100
AcDbEntity
  8
躯体と製品
  6
Continuous
 62
     4
100
AcDbLine
 10
4161.389850806799
 20
531.5972630574272
 30
0.0
 11
4161.389850806799
 21
530.5766780574272
 31
0.0
  0
ARC
  5
5A0B
330
1E
100
AcDbEntity
  8
躯体と製品
  6
Continuous
 62
     4
100
AcDbCircle
 10
4161.089850806799
 20
531.5972630574272
 30
0.0
 40
0.3
100
AcDbArc
 50
0.0
 51
120.0000000000005
  0
LINE
  5
5A0C
330
1E
100
AcDbEntity
  8
躯体と製品
  6
Continuous
 62
     4
100
AcDbLine
 10
4160.939850806799
 20
531.857072057427
 30
0.0
 11
4159.889850806799
 21
531.2508530574273
 31
0.0
  0
ARC
  5
5A0D
330
1E
100
AcDbEntity
  8
躯体と製品
  6
Continuous
 62
     4
100
AcDbCircle
 10
4161.089850806799
 20
530.5766780574272
 30
0.0
 40
0.3
100
AcDbArc
 50
294.0026979999893
 51
0.0
  0
ARC
  5
5A0E
330
1E
100
AcDbEntity
  8
躯体と製品
  6
Continuous
 62
     4
100
AcDbCircle
 10
4157.889849806799
 20
530.0994350574272
 30
0.0
 40
0.5000010000000001
100
AcDbArc
 50
57.76904699999533
 51
180.0
  0
LINE
  5
5A0F
330
1E
100
AcDbEntity
  8
躯体と製品
  6
Continuous
 62
     4
100
AcDbLine
 10
4157.389851806799
 20
529.2950870574272
 30
0.0
 11
4157.389851806799
 21
530.0994350574272
 31
0.0
  0
ARC
  5
5A10
330
1E
100
AcDbEntity
  8
躯体と製品
  6
Continuous
 62
     4
100
AcDbCircle
 10
4159.889850806799
 20
533.271581057427
 30
0.0
 40
3.249999
100
AcDbArc
 50
237.7690439999966
 51
294.0027010000144
  0
LINE
  5
5A11
330
1E
100
AcDbEntity
  8
躯体と製品
  6
Continuous
 62
     4
100
AcDbLine
 10
4153.889850806799
 20
532.7715800574272
 30
0.0
 11
4153.889850806799
 21
531.3071150574272
 31
0.0
  0
LINE
  5
5A12
330
1E
100
AcDbEntity
  8
躯体と製品
  6
Continuous
 62
     3
100
AcDbLine
 10
4160.889849806799
 20
546.2715800574271
 30
0.0
 11
4135.889850806799
 21
546.2715800574271
 31
0.0
  0
LINE
  5
5A13
330
1E
100
AcDbEntity
  8
躯体と製品
  6
Continuous
 62
     3
100
AcDbLine
 10
4135.889850806799
 20
542.271581057427
 30
0.0
 11
4160.889849806799
 21
542.271581057427
 31
0.0
  0
LINE
  5
5A14
330
1E
100
AcDbEntity
  8
躯体と製品
  6
Continuous
 62
     4
100
AcDbLine
 10
4153.889850806799
 20
550.7715800574271
 30
0.0
 11
4137.889851806799
 21
550.7715800574271
 31
0.0
  0
LINE
  5
5A15
330
1E
100
AcDbEntity
  8
躯体と製品
  6
Continuous
 62
     4
100
AcDbLine
 10
4153.889850806799
 20
537.7715810574271
 30
0.0
 11
4137.889851806799
 21
537.7715810574271
 31
0.0
  0
LINE
  5
5A16
330
1E
100
AcDbEntity
  8
躯体と製品
  6
Continuous
 62
     4
100
AcDbLine
 10
4153.889850806799
 20
536.7715790574273
 30
0.0
 11
4137.889851806799
 21
536.7715790574273
 31
0.0
  0
LINE
  5
5A17
330
1E
100
AcDbEntity
  8
躯体と製品
  6
Continuous
 62
     3
100
AcDbLine
 10
4145.889849806799
 20
543.2715800574271
 30
0.0
 11
4144.389849806799
 21
541.7715800574272
 31
0.0
  0
LINE
  5
5A18
330
1E
100
AcDbEntity
  8
躯体と製品
  6
Continuous
 62
     3
100
AcDbLine
 10
4147.389849806799
 20
541.7715800574272
 30
0.0
 11
4145.889849806799
 21
543.2715800574271
 31
0.0
  0
LINE
  5
5A19
330
1E
100
AcDbEntity
  8
躯体と製品
  6
Continuous
 62
     3
100
AcDbLine
 10
4145.439849806798
 20
541.7715800574272
 30
0.0
 11
4147.389849806799
 21
541.7715800574272
 31
0.0
  0
LINE
  5
5A1A
330
1E
100
AcDbEntity
  8
躯体と製品
  6
Continuous
 62
     3
100
AcDbLine
 10
4135.889850806799
 20
540.771581057427
 30
0.0
 11
4135.889850806799
 21
547.7715800574271
 31
0.0
  0
LINE
  5
5A1B
330
1E
100
AcDbEntity
  8
躯体と製品
  6
Continuous
 62
     3
100
AcDbLine
 10
4134.770436806799
 20
540.8695160574271
 30
0.0
 11
4135.889850806799
 21
540.771581057427
 31
0.0
  0
LINE
  5
5A1C
330
1E
100
AcDbEntity
  8
躯体と製品
  6
Continuous
 62
     3
100
AcDbLine
 10
4134.770436806799
 20
547.6736450574271
 30
0.0
 11
4135.889850806799
 21
547.7715800574271
 31
0.0
  0
LINE
  5
5A1D
330
1E
100
AcDbEntity
  8
躯体と製品
  6
Continuous
 62
     4
100
AcDbLine
 10
4141.553358806799
 20
545.685086057427
 30
0.0
 11
4141.703181806799
 21
545.8349090574273
 31
0.0
  0
ARC
  5
5A1E
330
1E
100
AcDbEntity
  8
躯体と製品
  6
Continuous
 62
     4
100
AcDbCircle
 10
4141.023027806799
 20
546.2154170574271
 30
0.0
 40
0.75
100
AcDbArc
 50
239.9999999999994
 51
315.0000000000023
  0
LINE
  5
5A1F
330
1E
100
AcDbEntity
  8
躯体と製品
  6
Continuous
 62
     4
100
AcDbLine
 10
4140.6480278068
 20
545.5658960574271
 30
0.0
 11
4139.389851806799
 21
546.2923070574269
 31
0.0
  0
ARC
  5
5A20
330
1E
100
AcDbEntity
  8
躯体と製品
  6
Continuous
 62
     4
100
AcDbCircle
 10
4141.172850806799
 20
542.1779210574271
 30
0.0
 40
0.75
100
AcDbArc
 50
310.4183340000084
 51
44.99999999999769
  0
ARC
  5
5A21
330
1E
100
AcDbEntity
  8
躯体と製品
  6
Continuous
 62
     4
100
AcDbCircle
 10
4141.172850806799
 20
546.3652400574273
 30
0.0
 40
0.75
100
AcDbArc
 50
315.0000000000023
 51
49.58166599999159
  0
ARC
  5
5A22
330
1E
100
AcDbEntity
  8
躯体と製品
  6
Continuous
 62
     4
100
AcDbCircle
 10
4141.023027806799
 20
542.3277440574271
 30
0.0
 40
0.75
100
AcDbArc
 50
44.99999999999769
 51
120.0000000000005
  0
LINE
  5
5A23
330
1E
100
AcDbEntity
  8
躯体と製品
  6
Continuous
 62
     4
100
AcDbLine
 10
4141.553358806799
 20
542.8580720574272
 30
0.0
 11
4141.703181806799
 21
542.7082490574272
 31
0.0
  0
LINE
  5
5A24
330
1E
100
AcDbEntity
  8
躯体と製品
  6
Continuous
 62
     4
100
AcDbLine
 10
4139.389851806799
 20
542.2508540574272
 30
0.0
 11
4140.6480278068
 21
542.977262057427
 31
0.0
  0
ARC
  5
5A25
330
1E
100
AcDbEntity
  8
躯体と製品
  6
Continuous
 62
     4
100
AcDbCircle
 10
4139.389851806799
 20
544.2715790574273
 30
0.0
 40
3.500000999999999
100
AcDbArc
 50
49.58166299999475
 51
120.0000000000005
  0
ARC
  5
5A26
330
1E
100
AcDbEntity
  8
躯体と製品
  6
Continuous
 62
     4
100
AcDbCircle
 10
4139.389851806799
 20
544.2715790574273
 30
0.0
 40
3.500000999999999
100
AcDbArc
 50
239.9999999999994
 51
310.4183480000007
  0
LINE
  5
5A27
330
1E
100
AcDbEntity
  8
躯体と製品
  6
Continuous
 62
     4
100
AcDbLine
 10
4137.639849806799
 20
544.7404910574272
 30
0.0
 11
4137.639849806799
 21
545.2819430574272
 31
0.0
  0
LINE
  5
5A28
330
1E
100
AcDbEntity
  8
躯体と製品
  6
Continuous
 62
     4
100
AcDbLine
 10
4137.639849806799
 20
545.2819430574272
 30
0.0
 11
4139.389851806799
 21
546.2923070574269
 31
0.0
  0
LINE
  5
5A29
330
1E
100
AcDbEntity
  8
躯体と製品
  6
Continuous
 62
     4
100
AcDbLine
 10
4137.639849806799
 20
544.7404910574272
 30
0.0
 11
4137.639849806799
 21
543.261218057427
 31
0.0
  0
LINE
  5
5A2A
330
1E
100
AcDbEntity
  8
躯体と製品
  6
Continuous
 62
     4
100
AcDbLine
 10
4137.639849806799
 20
543.261218057427
 30
0.0
 11
4139.389851806799
 21
542.2508540574272
 31
0.0
  0
ARC
  5
5A2B
330
1E
100
AcDbEntity
  8
躯体と製品
  6
Continuous
 62
     4
100
AcDbCircle
 10
4137.389850806799
 20
540.8074790574271
 30
0.0
 40
0.5000010000000001
100
AcDbArc
 50
59.99999999999946
 51
180.0
  0
ARC
  5
5A2C
330
1E
100
AcDbEntity
  8
躯体と製品
  6
Continuous
 62
     4
100
AcDbCircle
 10
4137.389850806799
 20
547.7356820574271
 30
0.0
 40
0.5000010000000001
100
AcDbArc
 50
180.0
 51
300.0000000000005
  0
LINE
  5
5A2D
330
1E
100
AcDbEntity
  8
躯体と製品
  6
Continuous
 62
     4
100
AcDbLine
 10
4136.889849806799
 20
540.8074790574271
 30
0.0
 11
4136.889849806799
 21
538.7715800574271
 31
0.0
  0
LINE
  5
5A2E
330
1E
100
AcDbEntity
  8
躯体と製品
  6
Continuous
 62
     4
100
AcDbLine
 10
4136.889849806799
 20
549.771581057427
 30
0.0
 11
4136.889849806799
 21
547.7356820574271
 31
0.0
  0
ARC
  5
5A2F
330
1E
100
AcDbEntity
  8
躯体と製品
  6
Continuous
 62
     4
100
AcDbCircle
 10
4137.889851806799
 20
549.771581057427
 30
0.0
 40
0.999999
100
AcDbArc
 50
90.0
 51
180.0
  0
ARC
  5
5A30
330
1E
100
AcDbEntity
  8
躯体と製品
  6
Continuous
 62
     4
100
AcDbCircle
 10
4137.889851806799
 20
549.771581057427
 30
0.0
 40
2.000001
100
AcDbArc
 50
90.0
 51
180.0
  0
LINE
  5
5A31
330
1E
100
AcDbEntity
  8
躯体と製品
  6
Continuous
 62
     4
100
AcDbLine
 10
4135.889850806799
 20
549.771581057427
 30
0.0
 11
4135.889850806799
 21
538.7715800574271
 31
0.0
  0
LINE
  5
5A32
330
1E
100
AcDbEntity
  8
躯体と製品
  6
Continuous
 62
     3
100
AcDbLine
 10
4147.389849806799
 20
538.2715790574272
 30
0.0
 11
4144.389849806799
 21
538.2715790574272
 31
0.0
  0
LINE
  5
5A33
330
1E
100
AcDbEntity
  8
躯体と製品
  6
Continuous
 62
     3
100
AcDbLine
 10
4147.389849806799
 20
536.1307790574271
 30
0.0
 11
4144.389849806799
 21
535.0057790574271
 31
0.0
  0
LINE
  5
5A34
330
1E
100
AcDbEntity
  8
躯体と製品
  6
Continuous
 62
     3
100
AcDbLine
 10
4144.389849806799
 20
535.6465790574272
 30
0.0
 11
4147.389849806799
 21
536.7715790574273
 31
0.0
  0
LINE
  5
5A35
330
1E
100
AcDbEntity
  8
躯体と製品
  6
Continuous
 62
     3
100
AcDbLine
 10
4143.789849806799
 20
535.101179057427
 30
0.0
 11
4147.989849806799
 21
536.6761790574273
 31
0.0
  0
LINE
  5
5A36
330
1E
100
AcDbEntity
  8
躯体と製品
  6
Continuous
 62
     3
100
AcDbLine
 10
4147.389849806799
 20
537.6307790574271
 30
0.0
 11
4147.389849806799
 21
536.7715790574273
 31
0.0
  0
LINE
  5
5A37
330
1E
100
AcDbEntity
  8
躯体と製品
  6
Continuous
 62
     3
100
AcDbLine
 10
4144.389849806799
 20
535.6465790574272
 30
0.0
 11
4144.389849806799
 21
536.5057790574272
 31
0.0
  0
LINE
  5
5A38
330
1E
100
AcDbEntity
  8
躯体と製品
  6
Continuous
 62
     3
100
AcDbLine
 10
4147.389849806799
 20
534.6307790574271
 30
0.0
 11
4147.389849806799
 21
533.7715790574272
 31
0.0
  0
LINE
  5
5A39
330
1E
100
AcDbEntity
  8
躯体と製品
  6
Continuous
 62
     3
100
AcDbLine
 10
4144.389849806799
 20
534.1465790574273
 30
0.0
 11
4144.389849806799
 21
535.0057790574271
 31
0.0
  0
LINE
  5
5A3A
330
1E
100
AcDbEntity
  8
躯体と製品
  6
Continuous
 62
     3
100
AcDbLine
 10
4147.389849806799
 20
535.2715790574272
 30
0.0
 11
4147.389849806799
 21
536.1307790574271
 31
0.0
  0
LINE
  5
5A3B
330
1E
100
AcDbEntity
  8
躯体と製品
  6
Continuous
 62
     3
100
AcDbLine
 10
4147.389849806799
 20
534.6307790574271
 30
0.0
 11
4144.389849806799
 21
533.5057790574271
 31
0.0
  0
LINE
  5
5A3C
330
1E
100
AcDbEntity
  8
躯体と製品
  6
Continuous
 62
     3
100
AcDbLine
 10
4144.389849806799
 20
534.1465790574273
 30
0.0
 11
4147.389849806799
 21
535.2715790574272
 31
0.0
  0
LINE
  5
5A3D
330
1E
100
AcDbEntity
  8
躯体と製品
  6
Continuous
 62
     3
100
AcDbLine
 10
4143.789849806799
 20
533.601179057427
 30
0.0
 11
4147.989849806799
 21
535.1761790574273
 31
0.0
  0
LINE
  5
5A3E
330
1E
100
AcDbEntity
  8
躯体と製品
  6
Continuous
 62
     3
100
AcDbLine
 10
4147.389849806799
 20
537.6307790574271
 30
0.0
 11
4144.389849806799
 21
536.5057790574272
 31
0.0
  0
LINE
  5
5A3F
330
1E
100
AcDbEntity
  8
躯体と製品
  6
Continuous
 62
     3
100
AcDbLine
 10
4144.389849806799
 20
537.1465790574273
 30
0.0
 11
4147.389849806799
 21
538.2715790574272
 31
0.0
  0
LINE
  5
5A40
330
1E
100
AcDbEntity
  8
躯体と製品
  6
Continuous
 62
     3
100
AcDbLine
 10
4147.989849806799
 20
538.1761790574273
 30
0.0
 11
4147.389849806799
 21
538.2715790574272
 31
0.0
  0
LINE
  5
5A41
330
1E
100
AcDbEntity
  8
躯体と製品
  6
Continuous
 62
     3
100
AcDbLine
 10
4147.989849806799
 20
538.1761790574273
 30
0.0
 11
4147.389849806799
 21
537.6307790574271
 31
0.0
  0
LINE
  5
5A42
330
1E
100
AcDbEntity
  8
躯体と製品
  6
Continuous
 62
     3
100
AcDbLine
 10
4143.789849806799
 20
536.6011790574271
 30
0.0
 11
4144.389849806799
 21
537.1465790574273
 31
0.0
  0
LINE
  5
5A43
330
1E
100
AcDbEntity
  8
躯体と製品
  6
Continuous
 62
     3
100
AcDbLine
 10
4143.789849806799
 20
536.6011790574271
 30
0.0
 11
4144.389849806799
 21
536.5057790574272
 31
0.0
  0
LINE
  5
5A44
330
1E
100
AcDbEntity
  8
躯体と製品
  6
Continuous
 62
     3
100
AcDbLine
 10
4147.989849806799
 20
538.1761790574273
 30
0.0
 11
4143.789849806799
 21
536.6011790574271
 31
0.0
  0
LINE
  5
5A45
330
1E
100
AcDbEntity
  8
躯体と製品
  6
Continuous
 62
     3
100
AcDbLine
 10
4143.789849806799
 20
538.1761790574273
 30
0.0
 11
4144.389849806799
 21
538.2715790574272
 31
0.0
  0
LINE
  5
5A46
330
1E
100
AcDbEntity
  8
躯体と製品
  6
Continuous
 62
     3
100
AcDbLine
 10
4143.789849806799
 20
538.1761790574273
 30
0.0
 11
4144.389849806799
 21
537.6307790574271
 31
0.0
  0
LINE
  5
5A47
330
1E
100
AcDbEntity
  8
躯体と製品
  6
Continuous
 62
     3
100
AcDbLine
 10
4143.789849806799
 20
535.101179057427
 30
0.0
 11
4144.389849806799
 21
535.6465790574272
 31
0.0
  0
LINE
  5
5A48
330
1E
100
AcDbEntity
  8
躯体と製品
  6
Continuous
 62
     3
100
AcDbLine
 10
4143.789849806799
 20
535.101179057427
 30
0.0
 11
4144.389849806799
 21
535.0057790574271
 31
0.0
  0
LINE
  5
5A49
330
1E
100
AcDbEntity
  8
躯体と製品
  6
Continuous
 62
     3
100
AcDbLine
 10
4143.789849806799
 20
533.601179057427
 30
0.0
 11
4144.389849806799
 21
534.1465790574273
 31
0.0
  0
LINE
  5
5A4A
330
1E
100
AcDbEntity
  8
躯体と製品
  6
Continuous
 62
     3
100
AcDbLine
 10
4143.789849806799
 20
533.601179057427
 30
0.0
 11
4144.389849806799
 21
533.5057790574271
 31
0.0
  0
LINE
  5
5A4B
330
1E
100
AcDbEntity
  8
躯体と製品
  6
Continuous
 62
     3
100
AcDbLine
 10
4147.989849806799
 20
536.6761790574273
 30
0.0
 11
4147.389849806799
 21
536.7715790574273
 31
0.0
  0
LINE
  5
5A4C
330
1E
100
AcDbEntity
  8
躯体と製品
  6
Continuous
 62
     3
100
AcDbLine
 10
4147.989849806799
 20
536.6761790574273
 30
0.0
 11
4147.389849806799
 21
536.1307790574271
 31
0.0
  0
LINE
  5
5A4D
330
1E
100
AcDbEntity
  8
躯体と製品
  6
Continuous
 62
     3
100
AcDbLine
 10
4147.989849806799
 20
535.1761790574273
 30
0.0
 11
4147.389849806799
 21
535.2715790574272
 31
0.0
  0
LINE
  5
5A4E
330
1E
100
AcDbEntity
  8
躯体と製品
  6
Continuous
 62
     3
100
AcDbLine
 10
4147.989849806799
 20
535.1761790574273
 30
0.0
 11
4147.389849806799
 21
534.6307790574271
 31
0.0
  0
LINE
  5
5A4F
330
1E
100
AcDbEntity
  8
躯体と製品
  6
Continuous
 62
     3
100
AcDbLine
 10
4147.989849806799
 20
533.6761790574273
 30
0.0
 11
4147.389849806799
 21
533.7715790574272
 31
0.0
  0
LINE
  5
5A50
330
1E
100
AcDbEntity
  8
躯体と製品
  6
Continuous
 62
     3
100
AcDbLine
 10
4147.389849806799
 20
538.2715790574272
 30
0.0
 11
4147.389849806799
 21
541.7715800574272
 31
0.0
  0
LINE
  5
5A51
330
1E
100
AcDbEntity
  8
躯体と製品
  6
Continuous
 62
     3
100
AcDbLine
 10
4144.389849806799
 20
537.1465790574273
 30
0.0
 11
4144.389849806799
 21
541.7715800574272
 31
0.0
  0
LINE
  5
5A52
330
1E
100
AcDbEntity
  8
躯体と製品
  6
Continuous
 62
     3
100
AcDbLine
 10
4145.889849806799
 20
543.2715800574271
 30
0.0
 11
4144.389849806799
 21
538.2715790574272
 31
0.0
  0
ARC
  5
5A53
330
1E
100
AcDbEntity
  8
躯体と製品
  6
Continuous
 62
     4
100
AcDbCircle
 10
4137.889851806799
 20
538.7715800574271
 30
0.0
 40
0.999999
100
AcDbArc
 50
180.0
 51
270.0
  0
ARC
  5
5A54
330
1E
100
AcDbEntity
  8
躯体と製品
  6
Continuous
 62
     4
100
AcDbCircle
 10
4137.889851806799
 20
538.7715800574271
 30
0.0
 40
2.000001
100
AcDbArc
 50
180.0
 51
270.0
  0
ARC
  5
5A55
330
1E
100
AcDbEntity
  8
躯体と製品
  6
Continuous
 62
     4
100
AcDbCircle
 10
4153.889850806799
 20
538.7715800574271
 30
0.0
 40
0.999999
100
AcDbArc
 50
270.0
 51
0.0
  0
ARC
  5
5A56
330
1E
100
AcDbEntity
  8
躯体と製品
  6
Continuous
 62
     4
100
AcDbCircle
 10
4153.889850806799
 20
549.771581057427
 30
0.0
 40
0.999999
100
AcDbArc
 50
0.0
 51
90.0
  0
ARC
  5
5A57
330
1E
100
AcDbEntity
  8
躯体と製品
  6
Continuous
 62
     4
100
AcDbCircle
 10
4153.889850806799
 20
549.771581057427
 30
0.0
 40
2.000001
100
AcDbArc
 50
0.0
 51
90.0
  0
ARC
  5
5A58
330
1E
100
AcDbEntity
  8
躯体と製品
  6
Continuous
 62
     4
100
AcDbCircle
 10
4153.889850806799
 20
538.7715800574271
 30
0.0
 40
2.000001
100
AcDbArc
 50
270.0
 51
0.0
  0
LINE
  5
5A59
330
1E
100
AcDbEntity
  8
躯体と製品
  6
Continuous
 62
     4
100
AcDbLine
 10
4158.139851806799
 20
556.2819440574274
 30
0.0
 11
4158.139851806799
 21
554.2612160574273
 31
0.0
  0
LINE
  5
5A5A
330
1E
100
AcDbEntity
  8
躯体と製品
  6
Continuous
 62
     4
100
AcDbLine
 10
4159.889850806799
 20
557.2923050574273
 30
0.0
 11
4158.139851806799
 21
556.2819440574274
 31
0.0
  0
LINE
  5
5A5B
330
1E
100
AcDbEntity
  8
躯体と製品
  6
Continuous
 62
     4
100
AcDbLine
 10
4160.939850806799
 20
556.6860890574271
 30
0.0
 11
4159.889850806799
 21
557.2923050574273
 31
0.0
  0
ARC
  5
5A5C
330
1E
100
AcDbEntity
  8
躯体と製品
  6
Continuous
 62
     4
100
AcDbCircle
 10
4161.089850806799
 20
556.9458950574273
 30
0.0
 40
0.3
100
AcDbArc
 50
239.9999999999994
 51
0.0
  0
LINE
  5
5A5D
330
1E
100
AcDbEntity
  8
躯体と製品
  6
Continuous
 62
     4
100
AcDbLine
 10
4161.389850806799
 20
556.9458950574273
 30
0.0
 11
4161.389850806799
 21
557.9664830574273
 31
0.0
  0
ARC
  5
5A5E
330
1E
100
AcDbEntity
  8
躯体と製品
  6
Continuous
 62
     4
100
AcDbCircle
 10
4161.089850806799
 20
557.9664830574273
 30
0.0
 40
0.3
100
AcDbArc
 50
0.0
 51
65.99730200001068
  0
ARC
  5
5A5F
330
1E
100
AcDbEntity
  8
躯体と製品
  6
Continuous
 62
     4
100
AcDbCircle
 10
4157.889849806799
 20
558.4437230574273
 30
0.0
 40
0.5000010000000001
100
AcDbArc
 50
180.0
 51
302.2309530000046
  0
ARC
  5
5A60
330
1E
100
AcDbEntity
  8
躯体と製品
  6
Continuous
 62
     4
100
AcDbCircle
 10
4159.889850806799
 20
555.2715800574271
 30
0.0
 40
3.249999
100
AcDbArc
 50
65.99729899998556
 51
122.2309460000048
  0
LINE
  5
5A61
330
1E
100
AcDbEntity
  8
躯体と製品
  6
Continuous
 62
     4
100
AcDbLine
 10
4154.889849806798
 20
538.7715800574271
 30
0.0
 11
4154.889849806798
 21
549.771581057427
 31
0.0
  0
LINE
  5
5A62
330
1E
100
AcDbEntity
  8
躯体と製品
  6
Continuous
 62
     4
100
AcDbLine
 10
4158.139851806799
 20
554.2612160574273
 30
0.0
 11
4159.889850806799
 21
553.250855057427
 31
0.0
  0
LINE
  5
5A63
330
1E
100
AcDbEntity
  8
躯体と製品
  6
Continuous
 62
     4
100
AcDbLine
 10
4161.389850806799
 20
553.5972650574272
 30
0.0
 11
4161.389850806799
 21
552.5766770574273
 31
0.0
  0
ARC
  5
5A64
330
1E
100
AcDbEntity
  8
躯体と製品
  6
Continuous
 62
     4
100
AcDbCircle
 10
4161.089850806799
 20
553.5972650574272
 30
0.0
 40
0.3
100
AcDbArc
 50
0.0
 51
120.0000000000005
  0
LINE
  5
5A65
330
1E
100
AcDbEntity
  8
躯体と製品
  6
Continuous
 62
     4
100
AcDbLine
 10
4160.939850806799
 20
553.8570710574272
 30
0.0
 11
4159.889850806799
 21
553.250855057427
 31
0.0
  0
ARC
  5
5A66
330
1E
100
AcDbEntity
  8
躯体と製品
  6
Continuous
 62
     4
100
AcDbCircle
 10
4161.089850806799
 20
552.5766770574273
 30
0.0
 40
0.3
100
AcDbArc
 50
294.0026979999893
 51
0.0
  0
ARC
  5
5A67
330
1E
100
AcDbEntity
  8
躯体と製品
  6
Continuous
 62
     4
100
AcDbCircle
 10
4157.889849806799
 20
552.0994370574272
 30
0.0
 40
0.5000010000000001
100
AcDbArc
 50
57.76904699999533
 51
180.0
  0
ARC
  5
5A68
330
1E
100
AcDbEntity
  8
躯体と製品
  6
Continuous
 62
     4
100
AcDbCircle
 10
4159.889850806799
 20
555.2715800574271
 30
0.0
 40
3.249999
100
AcDbArc
 50
237.7690469999953
 51
294.0026990000065
  0
LINE
  5
5A69
330
1E
100
AcDbEntity
  8
躯体と製品
  6
Continuous
 62
     3
100
AcDbLine
 10
4160.889849806799
 20
546.2715800574271
 30
0.0
 11
4160.889849806799
 21
542.271581057427
 31
0.0
  0
LINE
  5
5A6A
330
1E
100
AcDbEntity
  8
躯体と製品
  6
Continuous
 62
     4
100
AcDbLine
 10
4159.889850806799
 20
535.2923060574271
 30
0.0
 11
4158.139851806799
 21
534.2819420574272
 31
0.0
  0
LINE
  5
5A6B
330
1E
100
AcDbEntity
  8
躯体と製品
  6
Continuous
 62
     4
100
AcDbLine
 10
4161.389850806799
 20
534.9458960574272
 30
0.0
 11
4161.389850806799
 21
535.9664840574272
 31
0.0
  0
ARC
  5
5A6C
330
1E
100
AcDbEntity
  8
躯体と製品
  6
Continuous
 62
     4
100
AcDbCircle
 10
4161.089850806799
 20
534.9458960574272
 30
0.0
 40
0.3
100
AcDbArc
 50
239.9999999999994
 51
0.0
  0
LINE
  5
5A6D
330
1E
100
AcDbEntity
  8
躯体と製品
  6
Continuous
 62
     4
100
AcDbLine
 10
4160.939850806799
 20
534.6860870574273
 30
0.0
 11
4159.889850806799
 21
535.2923060574271
 31
0.0
  0
ARC
  5
5A6E
330
1E
100
AcDbEntity
  8
躯体と製品
  6
Continuous
 62
     4
100
AcDbCircle
 10
4161.089850806799
 20
535.9664840574272
 30
0.0
 40
0.3
100
AcDbArc
 50
0.0
 51
65.99730200001068
  0
ARC
  5
5A6F
330
1E
100
AcDbEntity
  8
躯体と製品
  6
Continuous
 62
     4
100
AcDbCircle
 10
4157.889849806799
 20
536.4437240574273
 30
0.0
 40
0.5000010000000001
100
AcDbArc
 50
180.0
 51
302.2309530000046
  0
ARC
  5
5A70
330
1E
100
AcDbEntity
  8
躯体と製品
  6
Continuous
 62
     4
100
AcDbCircle
 10
4159.889850806799
 20
533.271581057427
 30
0.0
 40
3.249999
100
AcDbArc
 50
65.99729800001862
 51
122.2309530000046
  0
LINE
  5
5A71
330
1E
100
AcDbEntity
  8
躯体と製品
  6
Continuous
 62
     4
100
AcDbLine
 10
4157.389851806799
 20
536.4437240574273
 30
0.0
 11
4157.389851806799
 21
552.0994370574272
 31
0.0
  0
LINE
  5
5A72
330
1E
100
AcDbEntity
  8
躯体と製品
  6
Continuous
 62
     4
100
AcDbLine
 10
4203.639849806799
 20
534.2819420574272
 30
0.0
 11
4203.639849806799
 21
532.2612170574272
 31
0.0
  0
LINE
  5
5A73
330
1E
100
AcDbEntity
  8
躯体と製品
  6
Continuous
 62
     4
100
AcDbLine
 10
4190.879487806799
 20
521.5215800574271
 30
0.0
 11
4192.9002128068
 21
521.5215800574271
 31
0.0
  0
LINE
  5
5A74
330
1E
100
AcDbEntity
  8
躯体と製品
  6
Continuous
 62
     4
100
AcDbLine
 10
4190.475342806799
 20
524.3215790574273
 30
0.0
 11
4189.8691238068
 21
523.2715790574273
 31
0.0
  0
ARC
  5
5A75
330
1E
100
AcDbEntity
  8
躯体と製品
  6
Continuous
 62
     4
100
AcDbCircle
 10
4190.215533806799
 20
524.4715790574272
 30
0.0
 40
0.3
100
AcDbArc
 50
330.0000000000055
 51
90.0
  0
LINE
  5
5A76
330
1E
100
AcDbEntity
  8
躯体と製品
  6
Continuous
 62
     4
100
AcDbLine
 10
4190.215533806799
 20
524.7715790574273
 30
0.0
 11
4189.194948806799
 21
524.7715790574273
 31
0.0
  0
ARC
  5
5A77
330
1E
100
AcDbEntity
  8
躯体と製品
  6
Continuous
 62
     4
100
AcDbCircle
 10
4189.194948806799
 20
524.4715790574272
 30
0.0
 40
0.3
100
AcDbArc
 50
90.0
 51
155.9973019999931
  0
ARC
  5
5A78
330
1E
100
AcDbEntity
  8
躯体と製品
  6
Continuous
 62
     4
100
AcDbCircle
 10
4188.5473208068
 20
521.5715810574271
 30
0.0
 40
0.5000010000000001
100
AcDbArc
 50
270.0
 51
26.95774900000423
  0
LINE
  5
5A79
330
1E
100
AcDbEntity
  8
躯体と製品
  6
Continuous
 62
     4
100
AcDbLine
 10
4189.8691238068
 20
523.2715790574273
 30
0.0
 11
4190.879487806799
 21
521.5215800574271
 31
0.0
  0
ARC
  5
5A7A
330
1E
100
AcDbEntity
  8
躯体と製品
  6
Continuous
 62
     4
100
AcDbCircle
 10
4191.889851806799
 20
523.2715790574273
 30
0.0
 40
3.249999
100
AcDbArc
 50
155.9973059999971
 51
206.957751000005
  0
LINE
  5
5A7B
330
1E
100
AcDbEntity
  8
躯体と製品
  6
Continuous
 62
     4
100
AcDbLine
 10
4200.8398508068
 20
531.857072057427
 30
0.0
 11
4201.889850806799
 21
531.2508530574273
 31
0.0
  0
ARC
  5
5A7C
330
1E
100
AcDbEntity
  8
躯体と製品
  6
Continuous
 62
     4
100
AcDbCircle
 10
4200.689850806798
 20
531.5972630574272
 30
0.0
 40
0.3
100
AcDbArc
 50
59.99999999999946
 51
180.0
  0
LINE
  5
5A7D
330
1E
100
AcDbEntity
  8
躯体と製品
  6
Continuous
 62
     4
100
AcDbLine
 10
4200.389850806799
 20
531.5972630574272
 30
0.0
 11
4200.389850806799
 21
530.5766780574272
 31
0.0
  0
ARC
  5
5A7E
330
1E
100
AcDbEntity
  8
躯体と製品
  6
Continuous
 62
     4
100
AcDbCircle
 10
4200.689850806798
 20
530.5766780574272
 30
0.0
 40
0.3
100
AcDbArc
 50
180.0
 51
245.9973020000106
  0
ARC
  5
5A7F
330
1E
100
AcDbEntity
  8
躯体と製品
  6
Continuous
 62
     4
100
AcDbCircle
 10
4203.889851806798
 20
530.0994350574272
 30
0.0
 40
0.5000010000000001
100
AcDbArc
 50
0.0
 51
122.2309530000046
  0
ARC
  5
5A80
330
1E
100
AcDbEntity
  8
躯体と製品
  6
Continuous
 62
     4
100
AcDbCircle
 10
4201.889850806799
 20
533.271581057427
 30
0.0
 40
3.249999
100
AcDbArc
 50
245.9973020000106
 51
302.2309500000042
  0
LINE
  5
5A81
330
1E
100
AcDbEntity
  8
躯体と製品
  6
Continuous
 62
     4
100
AcDbLine
 10
4203.639849806799
 20
532.2612170574272
 30
0.0
 11
4201.889850806799
 21
531.2508530574273
 31
0.0
  0
LINE
  5
5A82
330
1E
100
AcDbEntity
  8
躯体と製品
  6
Continuous
 62
     4
100
AcDbLine
 10
4193.564166806799
 20
524.7715790574273
 30
0.0
 11
4194.584754806799
 21
524.7715790574273
 31
0.0
  0
ARC
  5
5A83
330
1E
100
AcDbEntity
  8
躯体と製品
  6
Continuous
 62
     4
100
AcDbCircle
 10
4193.564166806799
 20
524.4715790574272
 30
0.0
 40
0.3
100
AcDbArc
 50
90.0
 51
209.9999999999944
  0
LINE
  5
5A84
330
1E
100
AcDbEntity
  8
躯体と製品
  6
Continuous
 62
     4
100
AcDbLine
 10
4193.304357806799
 20
524.3215790574273
 30
0.0
 11
4193.910576806799
 21
523.2715790574273
 31
0.0
  0
ARC
  5
5A85
330
1E
100
AcDbEntity
  8
躯体と製品
  6
Continuous
 62
     4
100
AcDbCircle
 10
4194.584754806799
 20
524.4715790574272
 30
0.0
 40
0.3
100
AcDbArc
 50
24.00269800000685
 51
90.0
  0
ARC
  5
5A86
330
1E
100
AcDbEntity
  8
躯体と製品
  6
Continuous
 62
     4
100
AcDbCircle
 10
4203.389850806799
 20
522.0715790574273
 30
0.0
 40
0.999999
100
AcDbArc
 50
270.0
 51
0.0
  0
ARC
  5
5A87
330
1E
100
AcDbEntity
  8
躯体と製品
  6
Continuous
 62
     4
100
AcDbCircle
 10
4203.889851806798
 20
521.2715810574271
 30
0.0
 40
2.000001
100
AcDbArc
 50
270.0
 51
0.0
  0
ARC
  5
5A88
330
1E
100
AcDbEntity
  8
躯体と製品
  6
Continuous
 62
     4
100
AcDbCircle
 10
4195.232379806799
 20
521.5715810574271
 30
0.0
 40
0.5000010000000001
100
AcDbArc
 50
153.0422509999957
 51
270.0
  0
LINE
  5
5A89
330
1E
100
AcDbEntity
  8
躯体と製品
  6
Continuous
 62
     4
100
AcDbLine
 10
4203.389850806799
 20
521.0715800574272
 30
0.0
 11
4195.232379806799
 21
521.0715800574272
 31
0.0
  0
LINE
  5
5A8A
330
1E
100
AcDbEntity
  8
躯体と製品
  6
Continuous
 62
     4
100
AcDbLine
 10
4192.9002128068
 20
521.5215800574271
 30
0.0
 11
4193.910576806799
 21
523.2715790574273
 31
0.0
  0
ARC
  5
5A8B
330
1E
100
AcDbEntity
  8
躯体と製品
  6
Continuous
 62
     4
100
AcDbCircle
 10
4191.889851806799
 20
523.2715790574273
 30
0.0
 40
3.249999
100
AcDbArc
 50
333.0422509999957
 51
24.00269999999758
  0
LINE
  5
5A8C
330
1E
100
AcDbEntity
  8
躯体と製品
  6
Continuous
 62
     4
100
AcDbLine
 10
4204.389849806799
 20
522.0715790574273
 30
0.0
 11
4204.389849806799
 21
530.0994350574272
 31
0.0
  0
LINE
  5
5A8D
330
1E
100
AcDbEntity
  8
躯体と製品
  6
Continuous
 62
     4
100
AcDbLine
 10
4201.889850806799
 20
557.2923050574273
 30
0.0
 11
4203.639849806799
 21
556.2819440574274
 31
0.0
  0
LINE
  5
5A8E
330
1E
100
AcDbEntity
  8
躯体と製品
  6
Continuous
 62
     4
100
AcDbLine
 10
4200.389850806799
 20
556.9458950574273
 30
0.0
 11
4200.389850806799
 21
557.9664830574273
 31
0.0
  0
ARC
  5
5A8F
330
1E
100
AcDbEntity
  8
躯体と製品
  6
Continuous
 62
     4
100
AcDbCircle
 10
4200.689850806798
 20
556.9458950574273
 30
0.0
 40
0.3
100
AcDbArc
 50
180.0
 51
300.0000000000005
  0
LINE
  5
5A90
330
1E
100
AcDbEntity
  8
躯体と製品
  6
Continuous
 62
     4
100
AcDbLine
 10
4200.8398508068
 20
556.6860890574271
 30
0.0
 11
4201.889850806799
 21
557.2923050574273
 31
0.0
  0
ARC
  5
5A91
330
1E
100
AcDbEntity
  8
躯体と製品
  6
Continuous
 62
     4
100
AcDbCircle
 10
4200.689850806798
 20
557.9664830574273
 30
0.0
 40
0.3
100
AcDbArc
 50
114.0026979999893
 51
180.0
  0
ARC
  5
5A92
330
1E
100
AcDbEntity
  8
躯体と製品
  6
Continuous
 62
     4
100
AcDbCircle
 10
4203.889851806798
 20
558.4437230574273
 30
0.0
 40
0.5000010000000001
100
AcDbArc
 50
237.7690469999953
 51
0.0
  0
LINE
  5
5A93
330
1E
100
AcDbEntity
  8
躯体と製品
  6
Continuous
 62
     4
100
AcDbLine
 10
4204.389849806799
 20
558.2715800574272
 30
0.0
 11
4204.389849806799
 21
559.2480740574273
 31
0.0
  0
ARC
  5
5A94
330
1E
100
AcDbEntity
  8
躯体と製品
  6
Continuous
 62
     4
100
AcDbCircle
 10
4201.889850806799
 20
555.2715800574271
 30
0.0
 40
3.249999
100
AcDbArc
 50
57.76903899999648
 51
114.0026979999893
  0
LINE
  5
5A95
330
1E
100
AcDbEntity
  8
躯体と製品
  6
Continuous
 62
     4
100
AcDbLine
 10
4203.639849806799
 20
554.2612160574273
 30
0.0
 11
4201.889850806799
 21
553.250855057427
 31
0.0
  0
LINE
  5
5A96
330
1E
100
AcDbEntity
  8
躯体と製品
  6
Continuous
 62
     4
100
AcDbLine
 10
4200.8398508068
 20
553.8570710574272
 30
0.0
 11
4201.889850806799
 21
553.250855057427
 31
0.0
  0
ARC
  5
5A97
330
1E
100
AcDbEntity
  8
躯体と製品
  6
Continuous
 62
     4
100
AcDbCircle
 10
4200.689850806798
 20
553.5972650574272
 30
0.0
 40
0.3
100
AcDbArc
 50
59.99999999999946
 51
180.0
  0
LINE
  5
5A98
330
1E
100
AcDbEntity
  8
躯体と製品
  6
Continuous
 62
     4
100
AcDbLine
 10
4200.389850806799
 20
553.5972650574272
 30
0.0
 11
4200.389850806799
 21
552.5766770574273
 31
0.0
  0
ARC
  5
5A99
330
1E
100
AcDbEntity
  8
躯体と製品
  6
Continuous
 62
     4
100
AcDbCircle
 10
4200.689850806798
 20
552.5766770574273
 30
0.0
 40
0.3
100
AcDbArc
 50
180.0
 51
245.9973020000106
  0
ARC
  5
5A9A
330
1E
100
AcDbEntity
  8
躯体と製品
  6
Continuous
 62
     4
100
AcDbCircle
 10
4203.889851806798
 20
552.0994370574272
 30
0.0
 40
0.5000010000000001
100
AcDbArc
 50
0.0
 51
122.2309530000046
  0
ARC
  5
5A9B
330
1E
100
AcDbEntity
  8
躯体と製品
  6
Continuous
 62
     4
100
AcDbCircle
 10
4203.889851806798
 20
552.0994370574272
 30
0.0
 40
0.5000010000000001
100
AcDbArc
 50
0.0
 51
122.2309530000046
  0
LINE
  5
5A9C
330
1E
100
AcDbEntity
  8
躯体と製品
  6
Continuous
 62
     4
100
AcDbLine
 10
4204.389849806799
 20
552.0994370574272
 30
0.0
 11
4204.389849806799
 21
551.295086057427
 31
0.0
  0
ARC
  5
5A9D
330
1E
100
AcDbEntity
  8
躯体と製品
  6
Continuous
 62
     4
100
AcDbCircle
 10
4201.889850806799
 20
555.2715800574271
 30
0.0
 40
3.249999
100
AcDbArc
 50
245.9973009999934
 51
302.2309460000048
  0
LINE
  5
5A9E
330
1E
100
AcDbEntity
  8
躯体と製品
  6
Continuous
 62
     4
100
AcDbLine
 10
4200.389850806799
 20
534.9458960574272
 30
0.0
 11
4200.389850806799
 21
535.9664840574272
 31
0.0
  0
ARC
  5
5A9F
330
1E
100
AcDbEntity
  8
躯体と製品
  6
Continuous
 62
     4
100
AcDbCircle
 10
4200.689850806798
 20
534.9458960574272
 30
0.0
 40
0.3
100
AcDbArc
 50
180.0
 51
300.0000000000005
  0
LINE
  5
5AA0
330
1E
100
AcDbEntity
  8
躯体と製品
  6
Continuous
 62
     4
100
AcDbLine
 10
4200.8398508068
 20
534.6860870574273
 30
0.0
 11
4201.889850806799
 21
535.2923060574271
 31
0.0
  0
ARC
  5
5AA1
330
1E
100
AcDbEntity
  8
躯体と製品
  6
Continuous
 62
     4
100
AcDbCircle
 10
4200.689850806798
 20
535.9664840574272
 30
0.0
 40
0.3
100
AcDbArc
 50
114.0026979999893
 51
180.0
  0
ARC
  5
5AA2
330
1E
100
AcDbEntity
  8
躯体と製品
  6
Continuous
 62
     4
100
AcDbCircle
 10
4203.889851806798
 20
536.4437240574273
 30
0.0
 40
0.5000010000000001
100
AcDbArc
 50
237.7690469999953
 51
0.0
  0
ARC
  5
5AA3
330
1E
100
AcDbEntity
  8
躯体と製品
  6
Continuous
 62
     4
100
AcDbCircle
 10
4201.889850806799
 20
533.271581057427
 30
0.0
 40
3.249999
100
AcDbArc
 50
57.76903999999721
 51
114.0027010000144
  0
LINE
  5
5AA4
330
1E
100
AcDbEntity
  8
躯体と製品
  6
Continuous
 62
     4
100
AcDbLine
 10
4201.889850806799
 20
535.2923060574271
 30
0.0
 11
4203.639849806799
 21
534.2819420574272
 31
0.0
  0
LINE
  5
5AA5
330
1E
100
AcDbEntity
  8
躯体と製品
  6
Continuous
 62
     4
100
AcDbLine
 10
4204.389849806799
 20
536.4437240574273
 30
0.0
 11
4204.389849806799
 21
551.295086057427
 31
0.0
  0
LINE
  5
5AA6
330
1E
100
AcDbEntity
  8
躯体と製品
  6
Continuous
 62
     4
100
AcDbLine
 10
4203.639849806799
 20
556.2819440574274
 30
0.0
 11
4203.639849806799
 21
554.2612160574273
 31
0.0
  0
LINE
  5
5AA7
330
1E
100
AcDbEntity
  8
躯体と製品
  6
Continuous
 62
     4
100
AcDbLine
 10
4157.889849806799
 20
569.271581057427
 30
0.0
 11
4203.889851806798
 21
569.271581057427
 31
0.0
  0
LINE
  5
5AA8
330
1E
100
AcDbEntity
  8
躯体と製品
  6
Continuous
 62
     4
100
AcDbLine
 10
4189.189851806799
 20
567.4715810574273
 30
0.0
 11
4172.589849806799
 21
567.4715810574273
 31
0.0
  0
ARC
  5
5AA9
330
1E
100
AcDbEntity
  8
躯体と製品
  6
Continuous
 62
     4
100
AcDbCircle
 10
4172.589849806799
 20
565.9715810574273
 30
0.0
 40
1.5
100
AcDbArc
 50
90.0
 51
180.0
  0
LINE
  5
5AAA
330
1E
100
AcDbEntity
  8
躯体と製品
  6
Continuous
 62
     4
100
AcDbLine
 10
4171.089849806799
 20
565.9715810574273
 30
0.0
 11
4171.089849806799
 21
565.3715810574271
 31
0.0
  0
LINE
  5
5AAB
330
1E
100
AcDbEntity
  8
躯体と製品
  6
Continuous
 62
     4
100
AcDbLine
 10
4169.889849806799
 20
566.971580057427
 30
0.0
 11
4169.889849806799
 21
564.3715790574271
 31
0.0
  0
ARC
  5
5AAC
330
1E
100
AcDbEntity
  8
躯体と製品
  6
Continuous
 62
     4
100
AcDbCircle
 10
4169.389851806799
 20
566.971580057427
 30
0.0
 40
0.5000010000000001
100
AcDbArc
 50
0.0
 51
90.0
  0
ARC
  5
5AAD
330
1E
100
AcDbEntity
  8
躯体と製品
  6
Continuous
 62
     4
100
AcDbCircle
 10
4170.489849806799
 20
564.3715790574271
 30
0.0
 40
0.6000000000000001
100
AcDbArc
 50
180.0
 51
0.0
  0
LINE
  5
5AAE
330
1E
100
AcDbEntity
  8
躯体と製品
  6
Continuous
 62
     4
100
AcDbLine
 10
4171.089849806799
 20
564.3715790574271
 30
0.0
 11
4171.089849806799
 21
565.3715810574271
 31
0.0
  0
ARC
  5
5AAF
330
1E
100
AcDbEntity
  8
躯体と製品
  6
Continuous
 62
     4
100
AcDbCircle
 10
4158.389850806799
 20
566.4715790574271
 30
0.0
 40
0.999999
100
AcDbArc
 50
90.0
 51
180.0
  0
ARC
  5
5AB0
330
1E
100
AcDbEntity
  8
躯体と製品
  6
Continuous
 62
     4
100
AcDbCircle
 10
4157.889849806799
 20
567.2715800574271
 30
0.0
 40
2.000001
100
AcDbArc
 50
90.0
 51
180.0
  0
LINE
  5
5AB1
330
1E
100
AcDbEntity
  8
躯体と製品
  6
Continuous
 62
     4
100
AcDbLine
 10
4158.389850806799
 20
567.4715810574273
 30
0.0
 11
4169.389851806799
 21
567.4715810574273
 31
0.0
  0
LINE
  5
5AB2
330
1E
100
AcDbEntity
  8
躯体と製品
  6
Continuous
 62
     4
100
AcDbLine
 10
4203.389850806799
 20
567.4715810574273
 30
0.0
 11
4192.389849806799
 21
567.4715810574273
 31
0.0
  0
ARC
  5
5AB3
330
1E
100
AcDbEntity
  8
躯体と製品
  6
Continuous
 62
     4
100
AcDbCircle
 10
4189.189851806799
 20
565.9715810574273
 30
0.0
 40
1.5
100
AcDbArc
 50
0.0
 51
90.0
  0
LINE
  5
5AB4
330
1E
100
AcDbEntity
  8
躯体と製品
  6
Continuous
 62
     4
100
AcDbLine
 10
4190.689851806799
 20
565.9715810574273
 30
0.0
 11
4190.689851806799
 21
565.3715810574271
 31
0.0
  0
ARC
  5
5AB5
330
1E
100
AcDbEntity
  8
躯体と製品
  6
Continuous
 62
     4
100
AcDbCircle
 10
4192.389849806799
 20
566.971580057427
 30
0.0
 40
0.5000010000000001
100
AcDbArc
 50
90.0
 51
180.0
  0
LINE
  5
5AB6
330
1E
100
AcDbEntity
  8
躯体と製品
  6
Continuous
 62
     4
100
AcDbLine
 10
4191.889851806799
 20
566.971580057427
 30
0.0
 11
4191.889851806799
 21
564.3715790574271
 31
0.0
  0
ARC
  5
5AB7
330
1E
100
AcDbEntity
  8
躯体と製品
  6
Continuous
 62
     4
100
AcDbCircle
 10
4191.289851806799
 20
564.3715790574271
 30
0.0
 40
0.6000000000000001
100
AcDbArc
 50
180.0
 51
0.0
  0
LINE
  5
5AB8
330
1E
100
AcDbEntity
  8
躯体と製品
  6
Continuous
 62
     4
100
AcDbLine
 10
4190.689851806799
 20
565.3715810574271
 30
0.0
 11
4190.689851806799
 21
564.3715790574271
 31
0.0
  0
ARC
  5
5AB9
330
1E
100
AcDbEntity
  8
躯体と製品
  6
Continuous
 62
     4
100
AcDbCircle
 10
4203.389850806799
 20
566.4715790574271
 30
0.0
 40
0.999999
100
AcDbArc
 50
0.0
 51
90.0
  0
ARC
  5
5ABA
330
1E
100
AcDbEntity
  8
躯体と製品
  6
Continuous
 62
     4
100
AcDbCircle
 10
4203.889851806798
 20
567.2715800574271
 30
0.0
 40
2.000001
100
AcDbArc
 50
0.0
 51
90.0
  0
LINE
  5
5ABB
330
1E
100
AcDbEntity
  8
躯体と製品
  6
PLINE2
 62
     4
100
AcDbLine
 10
4235.889849806799
 20
529.2715790574272
 30
0.0
 11
4235.889849806799
 21
559.2715790574272
 31
0.0
  0
LINE
  5
5ABC
330
1E
100
AcDbEntity
  8
躯体と製品
  6
Continuous
 62
     3
100
AcDbLine
 10
4226.4047288068
 20
543.075455057427
 30
0.0
 11
4226.3898248068
 21
542.2216820574272
 31
0.0
  0
LINE
  5
5ABD
330
1E
100
AcDbEntity
  8
躯体と製品
  6
Continuous
 62
     3
100
AcDbLine
 10
4225.374972806799
 20
543.075455057427
 30
0.0
 11
4225.389876806799
 21
542.2216820574272
 31
0.0
  0
LINE
  5
5ABE
330
1E
100
AcDbEntity
  8
躯体と製品
  6
Continuous
 62
     3
100
AcDbLine
 10
4225.165101806799
 20
543.5468330574273
 30
0.0
 11
4225.374972806799
 21
543.075455057427
 31
0.0
  0
LINE
  5
5ABF
330
1E
100
AcDbEntity
  8
躯体と製品
  6
Continuous
 62
     3
100
AcDbLine
 10
4224.693726806799
 20
543.756701057427
 30
0.0
 11
4225.165101806799
 21
543.5468330574273
 31
0.0
  0
LINE
  5
5AC0
330
1E
100
AcDbEntity
  8
躯体と製品
  6
Continuous
 62
     3
100
AcDbLine
 10
4223.839953806798
 20
543.7716050574273
 30
0.0
 11
4224.693726806799
 21
543.756701057427
 31
0.0
  0
LINE
  5
5AC1
330
1E
100
AcDbEntity
  8
躯体と製品
  6
Continuous
 62
     3
100
AcDbLine
 10
4224.693726806799
 20
544.7864570574271
 30
0.0
 11
4223.839953806798
 21
544.7715560574272
 31
0.0
  0
LINE
  5
5AC2
330
1E
100
AcDbEntity
  8
躯体と製品
  6
Continuous
 62
     3
100
AcDbLine
 10
4225.165101806799
 20
544.9963280574272
 30
0.0
 11
4224.693726806799
 21
544.7864570574271
 31
0.0
  0
LINE
  5
5AC3
330
1E
100
AcDbEntity
  8
躯体と製品
  6
Continuous
 62
     3
100
AcDbLine
 10
4225.374972806799
 20
545.4677060574271
 30
0.0
 11
4225.165101806799
 21
544.9963280574272
 31
0.0
  0
LINE
  5
5AC4
330
1E
100
AcDbEntity
  8
躯体と製品
  6
Continuous
 62
     3
100
AcDbLine
 10
4225.389876806799
 20
546.3214760574273
 30
0.0
 11
4225.374972806799
 21
545.4677060574271
 31
0.0
  0
LINE
  5
5AC5
330
1E
100
AcDbEntity
  8
躯体と製品
  6
Continuous
 62
     3
100
AcDbLine
 10
4226.4047288068
 20
545.4677060574271
 30
0.0
 11
4226.3898248068
 21
546.3214760574273
 31
0.0
  0
LINE
  5
5AC6
330
1E
100
AcDbEntity
  8
躯体と製品
  6
Continuous
 62
     3
100
AcDbLine
 10
4226.614599806799
 20
544.9963280574272
 30
0.0
 11
4226.4047288068
 21
545.4677060574271
 31
0.0
  0
LINE
  5
5AC7
330
1E
100
AcDbEntity
  8
躯体と製品
  6
Continuous
 62
     3
100
AcDbLine
 10
4227.085974806799
 20
544.7864570574271
 30
0.0
 11
4226.614599806799
 21
544.9963280574272
 31
0.0
  0
LINE
  5
5AC8
330
1E
100
AcDbEntity
  8
躯体と製品
  6
Continuous
 62
     3
100
AcDbLine
 10
4227.939747806799
 20
544.7715560574272
 30
0.0
 11
4227.085974806799
 21
544.7864570574271
 31
0.0
  0
LINE
  5
5AC9
330
1E
100
AcDbEntity
  8
躯体と製品
  6
Continuous
 62
     3
100
AcDbLine
 10
4226.614599806799
 20
543.5468330574273
 30
0.0
 11
4226.4047288068
 21
543.075455057427
 31
0.0
  0
LINE
  5
5ACA
330
1E
100
AcDbEntity
  8
躯体と製品
  6
Continuous
 62
     3
100
AcDbLine
 10
4227.939747806799
 20
543.7716050574273
 30
0.0
 11
4227.085974806799
 21
543.756701057427
 31
0.0
  0
LINE
  5
5ACB
330
1E
100
AcDbEntity
  8
躯体と製品
  6
Continuous
 62
     3
100
AcDbLine
 10
4226.614599806799
 20
543.5468330574273
 30
0.0
 11
4227.085974806799
 21
543.756701057427
 31
0.0
  0
LINE
  5
5ACC
330
1E
100
AcDbEntity
  8
躯体と製品
  6
Continuous
 62
     3
100
AcDbLine
 10
4223.839953806798
 20
543.7716050574273
 30
0.0
 11
4223.839953806798
 21
544.7715560574272
 31
0.0
  0
LINE
  5
5ACD
330
1E
100
AcDbEntity
  8
躯体と製品
  6
Continuous
 62
     3
100
AcDbLine
 10
4226.3898248068
 20
542.2216820574272
 30
0.0
 11
4225.389876806799
 21
542.2216820574272
 31
0.0
  0
LINE
  5
5ACE
330
1E
100
AcDbEntity
  8
躯体と製品
  6
Continuous
 62
     3
100
AcDbLine
 10
4227.939747806799
 20
544.7715560574272
 30
0.0
 11
4227.939747806799
 21
543.7716050574273
 31
0.0
  0
LINE
  5
5ACF
330
1E
100
AcDbEntity
  8
躯体と製品
  6
Continuous
 62
     3
100
AcDbLine
 10
4225.389876806799
 20
546.3214760574273
 30
0.0
 11
4226.3898248068
 21
546.3214760574273
 31
0.0
  0
CIRCLE
  5
5AD0
330
1E
100
AcDbEntity
  8
躯体と製品
  6
Continuous
 62
     3
100
AcDbCircle
 10
4225.889850806799
 20
544.2715790574273
 30
0.0
 40
3.499824
  0
LINE
  5
5AD1
330
1E
100
AcDbEntity
  8
躯体と製品
  6
PLINE3
 62
     3
100
AcDbLine
 10
4225.889850806799
 20
554.2715810574271
 30
0.0
 11
4225.889850806799
 21
534.2715800574271
 31
0.0
  0
TEXT
  5
5AD2
330
1E
100
AcDbEntity
  8
文字-記号
  6
Continuous
 62
     4
100
AcDbText
 10
3342.550932806799
 20
1136.568038057427
 30
0.0
 40
15.0
  1
床支持二段笠木
 41
0.8
  7
ACAD
100
AcDbText
  0
LINE
  5
5AD3
330
1E
100
AcDbEntity
  8
躯体と製品
  6
Continuous
 62
     4
100
AcDbLine
 10
3864.639849806799
 20
983.0215790574273
 30
0.0
 11
4082.139849806799
 21
983.0215790574273
 31
0.0
  0
LINE
  5
5AD4
330
1E
100
AcDbEntity
  8
躯体と製品
  6
Continuous
 62
     4
100
AcDbLine
 10
3864.639849806799
 20
980.0215790574272
 30
0.0
 11
4082.139849806799
 21
980.0215790574272
 31
0.0
  0
LINE
  5
5AD5
330
1E
100
AcDbEntity
  8
躯体と製品
  6
Continuous
 62
     4
100
AcDbLine
 10
3849.639849806799
 20
1009.271579057427
 30
0.0
 11
4097.139849806799
 21
1009.271579057427
 31
0.0
  0
LINE
  5
5AD6
330
1E
100
AcDbEntity
  8
躯体と製品
  6
Continuous
 62
     4
100
AcDbLine
 10
3849.639849806799
 20
1002.521579057427
 30
0.0
 11
4097.139849806799
 21
1002.521579057427
 31
0.0
  0
LINE
  5
5AD7
330
1E
100
AcDbEntity
  8
躯体と製品
  6
Continuous
 62
     4
100
AcDbLine
 10
4082.139849806799
 20
842.7715790574273
 30
0.0
 11
3864.639849806799
 21
842.7715790574273
 31
0.0
  0
LINE
  5
5AD8
330
1E
100
AcDbEntity
  8
躯体と製品
  6
Continuous
 62
     4
100
AcDbLine
 10
4082.139849806799
 20
846.5215790574273
 30
0.0
 11
3864.639849806799
 21
846.5215790574273
 31
0.0
  0
LINE
  5
5AD9
330
1E
100
AcDbEntity
  8
躯体と製品
  6
Continuous
 62
     4
100
AcDbLine
 10
3864.639849806799
 20
987.5215790574273
 30
0.0
 11
4082.139849806799
 21
987.5215790574273
 31
0.0
  0
LINE
  5
5ADA
330
1E
100
AcDbEntity
  8
躯体と製品
  6
Continuous
 62
     4
100
AcDbLine
 10
3864.639849806799
 20
849.5215790574272
 30
0.0
 11
4082.139849806799
 21
849.5215790574272
 31
0.0
  0
LINE
  5
5ADB
330
1E
100
AcDbEntity
  8
躯体と製品
  6
PLINE3
 62
     3
100
AcDbLine
 10
3867.639849806799
 20
849.5215790574272
 30
0.0
 11
4079.139849806799
 21
980.0215790574272
 31
0.0
  0
LINE
  5
5ADC
330
1E
100
AcDbEntity
  8
躯体と製品
  6
PLINE3
 62
     3
100
AcDbLine
 10
4079.139849806799
 20
849.5215790574272
 30
0.0
 11
3867.639849806799
 21
980.0215790574272
 31
0.0
  0
DIMENSION
  5
5ADD
330
1E
100
AcDbEntity
  8
寸法
  6
Continuous
100
AcDbDimension
  2
*D50
 10
4085.889849806799
 20
1069.271579057427
 30
0.0
 11
3973.389849806799
 21
1072.571579057427
 31
0.0
 70
    32
  1
1500以下
 71
     5
 42
-1.0
  3
AutoCAD
100
AcDbAlignedDimension
 13
3860.889849806799
 23
1002.521579057427
 33
0.0
 14
4085.889849806799
 24
1002.521579057427
 34
0.0
100
AcDbRotatedDimension
1001
ACAD
1000
DSTYLE
1002
{
1070
   147
1040
0.8
1070
   140
1040
10.0
1002
}
  0
LINE
  5
5ADE
330
1E
100
AcDbEntity
  8
躯体と製品
  6
Continuous
 62
     4
100
AcDbLine
 10
3510.389850806799
 20
968.0715800574272
 30
0.0
 11
3511.389849806799
 21
968.0715800574272
 31
0.0
  0
LINE
  5
5ADF
330
1E
100
AcDbEntity
  8
躯体と製品
  6
Continuous
 62
     3
100
AcDbLine
 10
3506.539851806798
 20
968.0715800574272
 30
0.0
 11
3513.239850806799
 21
968.0715800574272
 31
0.0
  0
ARC
  5
5AE0
330
1E
100
AcDbEntity
  8
躯体と製品
  6
Continuous
 62
     3
100
AcDbCircle
 10
3509.889849806799
 20
959.5280540574272
 30
0.0
 40
11.00000099999999
100
AcDbArc
 50
78.70902599999192
 51
101.290974000008
  0
LINE
  5
5AE1
330
1E
100
AcDbEntity
  8
躯体と製品
  6
Continuous
 62
     4
100
AcDbLine
 10
3510.639849806799
 20
965.2715810574271
 30
0.0
 11
3503.389851806799
 21
965.2715810574271
 31
0.0
  0
LINE
  5
5AE2
330
1E
100
AcDbEntity
  8
躯体と製品
  6
Continuous
 62
     4
100
AcDbLine
 10
3495.889851806799
 20
965.2715810574271
 30
0.0
 11
3545.889849806799
 21
965.2715810574271
 31
0.0
  0
LINE
  5
5AE3
330
1E
100
AcDbEntity
  8
躯体と製品
  6
Continuous
 62
     3
100
AcDbLine
 10
3511.086036806799
 20
841.4566760574272
 30
0.0
 11
3510.614634806799
 21
841.2467960574272
 31
0.0
  0
LINE
  5
5AE4
330
1E
100
AcDbEntity
  8
躯体と製品
  6
Continuous
 62
     3
100
AcDbLine
 10
3510.614634806799
 20
842.6963630574272
 30
0.0
 11
3511.086036806799
 21
842.4864830574271
 31
0.0
  0
LINE
  5
5AE5
330
1E
100
AcDbEntity
  8
躯体と製品
  6
Continuous
 62
     3
100
AcDbLine
 10
3505.889850806799
 20
847.2715790574273
 30
0.0
 11
3535.889850806799
 21
847.2715790574273
 31
0.0
  0
LINE
  5
5AE6
330
1E
100
AcDbEntity
  8
躯体と製品
  6
Continuous
 62
     3
100
AcDbLine
 10
3535.889850806799
 20
834.7715810574269
 30
0.0
 11
3505.889850806799
 21
834.7715810574269
 31
0.0
  0
CIRCLE
  5
5AE7
330
1E
100
AcDbEntity
  8
躯体と製品
  6
Continuous
 62
     3
100
AcDbCircle
 10
3509.889849806799
 20
841.9715810574272
 30
0.0
 40
3.999999
  0
DIMENSION
  5
5AE8
330
1E
100
AcDbEntity
  8
寸法
  6
Continuous
100
AcDbDimension
  2
*D51
 10
3435.889851806799
 20
959.4180249597272
 30
0.0
 11
3432.589851806799
 21
981.8448030085777
 31
0.0
 70
    32
  1
45
 71
     5
 42
-1.0
  3
AutoCAD
100
AcDbAlignedDimension
 13
3517.889850806799
 23
1004.271581057426
 33
0.0
 14
3491.036297709099
 24
959.4180249597272
 34
0.0
 50
90.0
100
AcDbRotatedDimension
1001
ACAD
1000
DSTYLE
1002
{
1070
   147
1040
0.8
1070
   140
1040
10.0
1002
}
  0
LINE
  5
5AE9
330
1E
100
AcDbEntity
  8
躯体と製品
  6
Continuous
 62
     4
100
AcDbLine
 10
3541.389849806799
 20
859.2715790574272
 30
0.0
 11
3500.389851806799
 21
859.2715790574272
 31
0.0
  0
LINE
  5
5AEA
330
1E
100
AcDbEntity
  8
躯体と製品
  6
Continuous
 62
     4
100
AcDbLine
 10
3540.589851806799
 20
857.9715800574271
 30
0.0
 11
3501.189849806799
 21
857.9715800574271
 31
0.0
  0
ARC
  5
5AEB
330
1E
100
AcDbEntity
  8
躯体と製品
  6
Continuous
 62
     4
100
AcDbCircle
 10
3520.888935806799
 20
934.2715790574272
 30
0.0
 40
68.69999999999999
100
AcDbArc
 50
66.40221799999176
 51
113.5960670000187
  0
ARC
  5
5AEC
330
1E
100
AcDbEntity
  8
躯体と製品
  6
Continuous
 62
     4
100
AcDbCircle
 10
3520.888935806799
 20
934.2715790574272
 30
0.0
 40
69.999999
100
AcDbArc
 50
65.68341499998105
 51
114.3148930000006
  0
LINE
  5
5AED
330
1E
100
AcDbEntity
  8
躯体と製品
  6
PLINE3
 62
     3
100
AcDbLine
 10
3555.889851806799
 20
968.7715790574273
 30
0.0
 11
3483.801240806799
 21
968.7715790574273
 31
0.0
  0
DIMENSION
  5
5AEE
330
1E
100
AcDbEntity
  8
寸法
  6
Continuous
100
AcDbDimension
  2
*D52
 10
3550.889850806799
 20
1034.287295057427
 30
0.0
 11
3520.889850806799
 21
1037.587295057427
 31
0.0
 70
    32
  1
60
 71
     5
 42
-1.0
  3
AutoCAD
100
AcDbAlignedDimension
 13
3490.889850806799
 23
999.2397260574268
 33
0.0
 14
3550.889850806799
 24
999.2397260574268
 34
0.0
100
AcDbRotatedDimension
1001
ACAD
1000
DSTYLE
1002
{
1070
   147
1040
0.8
1070
   140
1040
10.0
1002
}
  0
DIMENSION
  5
5AEF
330
1E
100
AcDbEntity
  8
寸法
  6
Continuous
100
AcDbDimension
  2
*D53
 10
3545.889849806798
 20
929.271581057427
 30
0.0
 11
3520.889850806799
 21
932.5715810574269
 31
0.0
 70
    32
  1
50
 71
     5
 42
-1.0
  3
AutoCAD
100
AcDbAlignedDimension
 13
3495.889851806799
 23
929.271581057427
 33
0.0
 14
3545.889849806798
 24
929.271581057427
 34
0.0
100
AcDbRotatedDimension
1001
ACAD
1000
DSTYLE
1002
{
1070
   147
1040
0.8
1070
   140
1040
10.0
1002
}
  0
LINE
  5
5AF0
330
1E
100
AcDbEntity
  8
躯体と製品
  6
Continuous
 62
     3
100
AcDbLine
 10
3509.165067806799
 20
841.2467960574272
 30
0.0
 11
3509.374947806799
 21
840.7753940574274
 31
0.0
  0
LINE
  5
5AF1
330
1E
100
AcDbEntity
  8
躯体と製品
  6
Continuous
 62
     3
100
AcDbLine
 10
3508.693665806799
 20
841.4566760574272
 30
0.0
 11
3509.165067806799
 21
841.2467960574272
 31
0.0
  0
LINE
  5
5AF2
330
1E
100
AcDbEntity
  8
躯体と製品
  6
Continuous
 62
     3
100
AcDbLine
 10
3507.839850806799
 20
841.4715800574271
 30
0.0
 11
3508.693665806799
 21
841.4566760574272
 31
0.0
  0
LINE
  5
5AF3
330
1E
100
AcDbEntity
  8
躯体と製品
  6
Continuous
 62
     3
100
AcDbLine
 10
3509.165067806799
 20
842.6963630574272
 30
0.0
 11
3509.374947806799
 21
843.167765057427
 31
0.0
  0
LINE
  5
5AF4
330
1E
100
AcDbEntity
  8
躯体と製品
  6
Continuous
 62
     3
100
AcDbLine
 10
3507.839850806799
 20
842.4715790574271
 30
0.0
 11
3508.693665806799
 21
842.4864830574271
 31
0.0
  0
LINE
  5
5AF5
330
1E
100
AcDbEntity
  8
躯体と製品
  6
Continuous
 62
     3
100
AcDbLine
 10
3509.165067806799
 20
842.6963630574272
 30
0.0
 11
3508.693665806799
 21
842.4864830574271
 31
0.0
  0
LINE
  5
5AF6
330
1E
100
AcDbEntity
  8
躯体と製品
  6
Continuous
 62
     3
100
AcDbLine
 10
3507.839850806799
 20
841.4715800574271
 30
0.0
 11
3507.839850806799
 21
842.4715790574271
 31
0.0
  0
LINE
  5
5AF7
330
1E
100
AcDbEntity
  8
躯体と製品
  6
Continuous
 62
     3
100
AcDbLine
 10
3510.404754806799
 20
843.167765057427
 30
0.0
 11
3510.389850806799
 21
844.0215800574272
 31
0.0
  0
LINE
  5
5AF8
330
1E
100
AcDbEntity
  8
躯体と製品
  6
Continuous
 62
     3
100
AcDbLine
 10
3510.404754806799
 20
840.7753940574274
 30
0.0
 11
3510.389850806799
 21
839.921579057427
 31
0.0
  0
LINE
  5
5AF9
330
1E
100
AcDbEntity
  8
躯体と製品
  6
Continuous
 62
     3
100
AcDbLine
 10
3510.614634806799
 20
841.2467960574272
 30
0.0
 11
3510.404754806799
 21
840.7753940574274
 31
0.0
  0
LINE
  5
5AFA
330
1E
100
AcDbEntity
  8
躯体と製品
  6
Continuous
 62
     3
100
AcDbLine
 10
3510.614634806799
 20
842.6963630574272
 30
0.0
 11
3510.404754806799
 21
843.167765057427
 31
0.0
  0
LINE
  5
5AFB
330
1E
100
AcDbEntity
  8
躯体と製品
  6
Continuous
 62
     3
100
AcDbLine
 10
3509.389851806798
 20
844.0215800574272
 30
0.0
 11
3509.374947806799
 21
843.167765057427
 31
0.0
  0
LINE
  5
5AFC
330
1E
100
AcDbEntity
  8
躯体と製品
  6
Continuous
 62
     3
100
AcDbLine
 10
3510.389850806799
 20
844.0215800574272
 30
0.0
 11
3509.389851806798
 21
844.0215800574272
 31
0.0
  0
LINE
  5
5AFD
330
1E
100
AcDbEntity
  8
躯体と製品
  6
Continuous
 62
     3
100
AcDbLine
 10
3509.389851806798
 20
839.921579057427
 30
0.0
 11
3509.374947806799
 21
840.7753940574274
 31
0.0
  0
LINE
  5
5AFE
330
1E
100
AcDbEntity
  8
躯体と製品
  6
Continuous
 62
     3
100
AcDbLine
 10
3510.389850806799
 20
839.921579057427
 30
0.0
 11
3509.389851806798
 21
839.921579057427
 31
0.0
  0
LINE
  5
5AFF
330
1E
100
AcDbEntity
  8
躯体と製品
  6
Continuous
 62
     4
100
AcDbLine
 10
3502.789851806798
 20
843.6715790574272
 30
0.0
 11
3504.185511806798
 21
843.6715790574272
 31
0.0
  0
LINE
  5
5B00
330
1E
100
AcDbEntity
  8
躯体と製品
  6
Continuous
 62
     4
100
AcDbLine
 10
3502.459701806798
 20
839.2535060574273
 30
0.0
 11
3504.185511806798
 21
843.6715790574272
 31
0.0
  0
ARC
  5
5B01
330
1E
100
AcDbEntity
  8
躯体と製品
  6
Continuous
 62
     4
100
AcDbCircle
 10
3501.021957806798
 20
837.7715810574271
 30
0.0
 40
0.5000010000000001
100
AcDbArc
 50
158.6631410000074
 51
270.0
  0
LINE
  5
5B02
330
1E
100
AcDbEntity
  8
躯体と製品
  6
Continuous
 62
     4
100
AcDbLine
 10
3501.021957806798
 20
837.2715800574271
 30
0.0
 11
3502.089849806799
 21
837.2715800574271
 31
0.0
  0
LINE
  5
5B03
330
1E
100
AcDbEntity
  8
躯体と製品
  6
Continuous
 62
     4
100
AcDbLine
 10
3502.925430806799
 20
838.5715790574273
 30
0.0
 11
3503.389851806799
 21
838.5715790574273
 31
0.0
  0
ARC
  5
5B04
330
1E
100
AcDbEntity
  8
躯体と製品
  6
Continuous
 62
     4
100
AcDbCircle
 10
3502.925430806799
 20
839.0715800574271
 30
0.0
 40
0.5000010000000001
100
AcDbArc
 50
158.6631410000074
 51
270.0
  0
LINE
  5
5B05
330
1E
100
AcDbEntity
  8
躯体と製品
  6
Continuous
 62
     4
100
AcDbLine
 10
3500.556228806798
 20
837.9535040574271
 30
0.0
 11
3502.789851806798
 21
843.6715790574272
 31
0.0
  0
LINE
  5
5B06
330
1E
100
AcDbEntity
  8
躯体と製品
  6
Continuous
 62
     4
100
AcDbLine
 10
3500.189850806799
 20
837.2715800574271
 30
0.0
 11
3500.189850806799
 21
844.2715790574272
 31
0.0
  0
LINE
  5
5B07
330
1E
100
AcDbEntity
  8
躯体と製品
  6
Continuous
 62
     4
100
AcDbLine
 10
3501.689850806799
 20
837.2715800574271
 30
0.0
 11
3500.189850806799
 21
834.2715800574271
 31
0.0
  0
LINE
  5
5B08
330
1E
100
AcDbEntity
  8
躯体と製品
  6
Continuous
 62
     4
100
AcDbLine
 10
3500.189850806799
 20
837.2715800574271
 30
0.0
 11
3501.689850806799
 21
837.2715800574271
 31
0.0
  0
LINE
  5
5B09
330
1E
100
AcDbEntity
  8
躯体と製品
  6
Continuous
 62
     4
100
AcDbLine
 10
3500.189850806799
 20
845.5715810574272
 30
0.0
 11
3500.189850806799
 21
856.9715810574273
 31
0.0
  0
LINE
  5
5B0A
330
1E
100
AcDbEntity
  8
躯体と製品
  6
Continuous
 62
     4
100
AcDbLine
 10
3503.539851806798
 20
845.5715810574272
 30
0.0
 11
3500.189850806799
 21
845.5715810574272
 31
0.0
  0
LINE
  5
5B0B
330
1E
100
AcDbEntity
  8
躯体と製品
  6
Continuous
 62
     4
100
AcDbLine
 10
3500.189850806799
 20
844.2715790574272
 30
0.0
 11
3503.539851806798
 21
844.2715790574272
 31
0.0
  0
ARC
  5
5B0C
330
1E
100
AcDbEntity
  8
躯体と製品
  6
Continuous
 62
     4
100
AcDbCircle
 10
3503.539851806798
 20
844.921580057427
 30
0.0
 40
0.6500010000000001
100
AcDbArc
 50
0.0
 51
90.0
  0
ARC
  5
5B0D
330
1E
100
AcDbEntity
  8
躯体と製品
  6
Continuous
 62
     4
100
AcDbCircle
 10
3503.539851806798
 20
844.921580057427
 30
0.0
 40
0.6500010000000001
100
AcDbArc
 50
270.0
 51
0.0
  0
ARC
  5
5B0E
330
1E
100
AcDbEntity
  8
躯体と製品
  6
Continuous
 62
     4
100
AcDbCircle
 10
3500.389851806799
 20
857.7715790574272
 30
0.0
 40
1.5
100
AcDbArc
 50
90.0
 51
180.0
  0
ARC
  5
5B0F
330
1E
100
AcDbEntity
  8
躯体と製品
  6
Continuous
 62
     4
100
AcDbCircle
 10
3501.189849806799
 20
856.9715810574273
 30
0.0
 40
0.999999
100
AcDbArc
 50
90.0
 51
180.0
  0
ARC
  5
5B10
330
1E
100
AcDbEntity
  8
躯体と製品
  6
Continuous
 62
     4
100
AcDbCircle
 10
3492.889851806799
 20
996.239726057427
 30
0.0
 40
2.000001
100
AcDbArc
 50
114.3148930000006
 51
180.0
  0
ARC
  5
5B11
330
1E
100
AcDbEntity
  8
躯体と製品
  6
Continuous
 62
     4
100
AcDbCircle
 10
3494.189850806798
 20
995.3948060574273
 30
0.0
 40
2.000001
100
AcDbArc
 50
113.5960670000187
 51
180.0
  0
ARC
  5
5B12
330
1E
100
AcDbEntity
  8
躯体と製品
  6
Continuous
 62
     3
100
AcDbCircle
 10
3508.114887806799
 20
968.8637600574271
 30
0.0
 40
1.5
100
AcDbArc
 50
104.6252929999885
 51
174.9999999999993
  0
LINE
  5
5B13
330
1E
100
AcDbEntity
  8
躯体と製品
  6
Continuous
 62
     4
100
AcDbLine
 10
3495.389850806799
 20
966.771581057427
 30
0.0
 11
3495.389850806799
 21
970.7715800574272
 31
0.0
  0
LINE
  5
5B14
330
1E
100
AcDbEntity
  8
躯体と製品
  6
Continuous
 62
     4
100
AcDbLine
 10
3494.089851806799
 20
959.9215790574271
 30
0.0
 11
3494.089851806799
 21
972.2715800574272
 31
0.0
  0
LINE
  5
5B15
330
1E
100
AcDbEntity
  8
躯体と製品
  6
Continuous
 62
     4
100
AcDbLine
 10
3492.189849806798
 20
969.2715800574271
 30
0.0
 11
3492.189849806798
 21
960.5715800574271
 31
0.0
  0
LINE
  5
5B16
330
1E
100
AcDbEntity
  8
躯体と製品
  6
Continuous
 62
     4
100
AcDbLine
 10
3490.889850806799
 20
959.7715790574273
 30
0.0
 11
3490.889850806799
 21
996.239726057427
 31
0.0
  0
ARC
  5
5B17
330
1E
100
AcDbEntity
  8
躯体と製品
  6
Continuous
 62
     4
100
AcDbCircle
 10
3491.389851806799
 20
959.7715790574273
 30
0.0
 40
0.5000010000000001
100
AcDbArc
 50
180.0
 51
270.0
  0
LINE
  5
5B18
330
1E
100
AcDbEntity
  8
躯体と製品
  6
Continuous
 62
     4
100
AcDbLine
 10
3505.389849806799
 20
966.771581057427
 30
0.0
 11
3506.889849806799
 21
966.771581057427
 31
0.0
  0
LINE
  5
5B19
330
1E
100
AcDbEntity
  8
躯体と製品
  6
Continuous
 62
     4
100
AcDbLine
 10
3503.389851806799
 20
968.0715800574272
 30
0.0
 11
3505.389849806799
 21
968.0715800574272
 31
0.0
  0
LINE
  5
5B1A
330
1E
100
AcDbEntity
  8
躯体と製品
  6
Continuous
 62
     4
100
AcDbLine
 10
3505.389849806799
 20
968.0715800574272
 30
0.0
 11
3505.389849806799
 21
966.771581057427
 31
0.0
  0
LINE
  5
5B1B
330
1E
100
AcDbEntity
  8
躯体と製品
  6
Continuous
 62
     4
100
AcDbLine
 10
3506.889849806799
 20
968.0715800574272
 30
0.0
 11
3509.389851806798
 21
968.0715800574272
 31
0.0
  0
LINE
  5
5B1C
330
1E
100
AcDbEntity
  8
躯体と製品
  6
Continuous
 62
     4
100
AcDbLine
 10
3509.389851806798
 20
968.0715800574272
 30
0.0
 11
3509.889849806799
 21
967.5715790574273
 31
0.0
  0
LINE
  5
5B1D
330
1E
100
AcDbEntity
  8
躯体と製品
  6
Continuous
 62
     4
100
AcDbLine
 10
3509.889849806799
 20
967.5715790574273
 30
0.0
 11
3510.389850806799
 21
968.0715800574272
 31
0.0
  0
LINE
  5
5B1E
330
1E
100
AcDbEntity
  8
躯体と製品
  6
Continuous
 62
     4
100
AcDbLine
 10
3506.889849806799
 20
966.771581057427
 30
0.0
 11
3506.889849806799
 21
968.0715800574272
 31
0.0
  0
LINE
  5
5B1F
330
1E
100
AcDbEntity
  8
躯体と製品
  6
Continuous
 62
     3
100
AcDbLine
 10
3506.620593806799
 20
968.9944940574273
 30
0.0
 11
3506.539851806798
 21
968.0715800574272
 31
0.0
  0
LINE
  5
5B20
330
1E
100
AcDbEntity
  8
躯体と製品
  6
Continuous
 62
     4
100
AcDbLine
 10
3500.389851806799
 20
966.771581057427
 30
0.0
 11
3500.389851806799
 21
968.0715800574272
 31
0.0
  0
LINE
  5
5B21
330
1E
100
AcDbEntity
  8
躯体と製品
  6
Continuous
 62
     4
100
AcDbLine
 10
3500.389851806799
 20
968.0715800574272
 30
0.0
 11
3502.389849806799
 21
968.0715800574272
 31
0.0
  0
LINE
  5
5B22
330
1E
100
AcDbEntity
  8
躯体と製品
  6
Continuous
 62
     4
100
AcDbLine
 10
3502.389849806799
 20
968.0715800574272
 30
0.0
 11
3502.889850806798
 21
967.5715790574273
 31
0.0
  0
LINE
  5
5B23
330
1E
100
AcDbEntity
  8
躯体と製品
  6
Continuous
 62
     4
100
AcDbLine
 10
3495.389850806799
 20
966.771581057427
 30
0.0
 11
3500.389851806799
 21
966.771581057427
 31
0.0
  0
LINE
  5
5B24
330
1E
100
AcDbEntity
  8
躯体と製品
  6
Continuous
 62
     4
100
AcDbLine
 10
3502.889850806798
 20
967.5715790574273
 30
0.0
 11
3503.389851806799
 21
968.0715800574272
 31
0.0
  0
LINE
  5
5B25
330
1E
100
AcDbEntity
  8
躯体と製品
  6
Continuous
 62
     4
100
AcDbLine
 10
3502.889850806798
 20
965.7715790574272
 30
0.0
 11
3502.389849806799
 21
965.2715810574271
 31
0.0
  0
LINE
  5
5B26
330
1E
100
AcDbEntity
  8
躯体と製品
  6
Continuous
 62
     4
100
AcDbLine
 10
3502.389849806799
 20
965.2715810574271
 30
0.0
 11
3495.389850806799
 21
965.2715810574271
 31
0.0
  0
LINE
  5
5B27
330
1E
100
AcDbEntity
  8
躯体と製品
  6
Continuous
 62
     4
100
AcDbLine
 10
3495.389850806799
 20
965.2715810574271
 30
0.0
 11
3495.389850806799
 21
959.9215790574271
 31
0.0
  0
ARC
  5
5B28
330
1E
100
AcDbEntity
  8
躯体と製品
  6
Continuous
 62
     4
100
AcDbCircle
 10
3494.7398498068
 20
959.9215790574271
 30
0.0
 40
0.6500010000000001
100
AcDbArc
 50
180.0
 51
0.0
  0
LINE
  5
5B29
330
1E
100
AcDbEntity
  8
躯体と製品
  6
Continuous
 62
     4
100
AcDbLine
 10
3503.389851806799
 20
965.2715810574271
 30
0.0
 11
3502.889850806798
 21
965.7715790574272
 31
0.0
  0
LINE
  5
5B2A
330
1E
100
AcDbEntity
  8
躯体と製品
  6
Continuous
 62
     4
100
AcDbLine
 10
3491.389851806799
 20
959.271581057427
 30
0.0
 11
3493.389849806799
 21
959.271581057427
 31
0.0
  0
LINE
  5
5B2B
330
1E
100
AcDbEntity
  8
躯体と製品
  6
Continuous
 62
     4
100
AcDbLine
 10
3493.389849806799
 20
960.5715800574271
 30
0.0
 11
3492.189849806798
 21
960.5715800574271
 31
0.0
  0
LINE
  5
5B2C
330
1E
100
AcDbEntity
  8
躯体と製品
  6
Continuous
 62
     4
100
AcDbLine
 10
3493.389849806799
 20
959.271581057427
 30
0.0
 11
3493.389849806799
 21
960.5715800574271
 31
0.0
  0
LINE
  5
5B2D
330
1E
100
AcDbEntity
  8
躯体と製品
  6
Continuous
 62
     4
100
AcDbLine
 10
3496.707408806799
 20
979.6715810574273
 30
0.0
 11
3496.707408806799
 21
979.1715800574269
 31
0.0
  0
LINE
  5
5B2E
330
1E
100
AcDbEntity
  8
躯体と製品
  6
Continuous
 62
     4
100
AcDbLine
 10
3495.289851806798
 20
979.6715810574273
 30
0.0
 11
3496.707408806799
 21
979.6715810574273
 31
0.0
  0
LINE
  5
5B2F
330
1E
100
AcDbEntity
  8
躯体と製品
  6
Continuous
 62
     4
100
AcDbLine
 10
3495.289851806798
 20
979.1715800574269
 30
0.0
 11
3495.289851806798
 21
979.6715810574273
 31
0.0
  0
LINE
  5
5B30
330
1E
100
AcDbEntity
  8
躯体と製品
  6
Continuous
 62
     4
100
AcDbLine
 10
3495.389850806799
 20
970.7715800574272
 30
0.0
 11
3496.739850806799
 21
970.7715800574272
 31
0.0
  0
ARC
  5
5B31
330
1E
100
AcDbEntity
  8
躯体と製品
  6
Continuous
 62
     4
100
AcDbCircle
 10
3496.739850806799
 20
971.4215810574271
 30
0.0
 40
0.6500010000000001
100
AcDbArc
 50
270.0
 51
90.0
  0
LINE
  5
5B32
330
1E
100
AcDbEntity
  8
躯体と製品
  6
Continuous
 62
     4
100
AcDbLine
 10
3496.707408806799
 20
979.1715800574269
 30
0.0
 11
3494.576697806799
 21
974.2709420574273
 31
0.0
  0
ARC
  5
5B33
330
1E
100
AcDbEntity
  8
躯体と製品
  6
Continuous
 62
     4
100
AcDbCircle
 10
3495.035232806798
 20
974.0715800574273
 30
0.0
 40
0.5000010000000001
100
AcDbArc
 50
156.5014340000016
 51
270.0
  0
LINE
  5
5B34
330
1E
100
AcDbEntity
  8
躯体と製品
  6
Continuous
 62
     4
100
AcDbLine
 10
3495.035232806798
 20
973.5715790574273
 30
0.0
 11
3495.389850806799
 21
973.5715790574273
 31
0.0
  0
LINE
  5
5B35
330
1E
100
AcDbEntity
  8
躯体と製品
  6
Continuous
 62
     4
100
AcDbLine
 10
3495.389850806799
 20
973.5715790574273
 30
0.0
 11
3495.389850806799
 21
972.0715790574272
 31
0.0
  0
LINE
  5
5B36
330
1E
100
AcDbEntity
  8
躯体と製品
  6
Continuous
 62
     4
100
AcDbLine
 10
3495.389850806799
 20
972.0715790574272
 30
0.0
 11
3496.739850806799
 21
972.0715790574272
 31
0.0
  0
LINE
  5
5B37
330
1E
100
AcDbEntity
  8
躯体と製品
  6
Continuous
 62
     4
100
AcDbLine
 10
3495.289851806798
 20
979.1715800574269
 30
0.0
 11
3492.593922806799
 21
972.9709430574271
 31
0.0
  0
ARC
  5
5B38
330
1E
100
AcDbEntity
  8
躯体と製品
  6
Continuous
 62
     4
100
AcDbCircle
 10
3493.052457806799
 20
972.771581057427
 30
0.0
 40
0.5000010000000001
100
AcDbArc
 50
156.5014340000016
 51
270.0
  0
LINE
  5
5B39
330
1E
100
AcDbEntity
  8
躯体と製品
  6
Continuous
 62
     4
100
AcDbLine
 10
3493.052457806799
 20
972.2715800574272
 30
0.0
 11
3494.089851806799
 21
972.2715800574272
 31
0.0
  0
ARC
  5
5B3A
330
1E
100
AcDbEntity
  8
躯体と製品
  6
Continuous
 62
     4
100
AcDbCircle
 10
3493.689849806798
 20
982.5715790574273
 30
0.0
 40
1.5
100
AcDbArc
 50
180.0
 51
270.0
  0
LINE
  5
5B3B
330
1E
100
AcDbEntity
  8
躯体と製品
  6
Continuous
 62
     4
100
AcDbLine
 10
3492.189849806798
 20
978.4715810574272
 30
0.0
 11
3492.189849806798
 21
972.2715800574272
 31
0.0
  0
LINE
  5
5B3C
330
1E
100
AcDbEntity
  8
躯体と製品
  6
Continuous
 62
     4
100
AcDbLine
 10
3493.389849806799
 20
972.2715800574272
 30
0.0
 11
3492.189849806798
 21
969.2715800574271
 31
0.0
  0
LINE
  5
5B3D
330
1E
100
AcDbEntity
  8
躯体と製品
  6
Continuous
 62
     4
100
AcDbLine
 10
3492.189849806798
 20
972.2715800574272
 30
0.0
 11
3493.389849806799
 21
972.2715800574272
 31
0.0
  0
LINE
  5
5B3E
330
1E
100
AcDbEntity
  8
躯体と製品
  6
Continuous
 62
     7
100
AcDbLine
 10
3492.189849806798
 20
978.7715810574271
 30
0.0
 11
3492.189849806798
 21
978.4715810574272
 31
0.0
  0
ARC
  5
5B3F
330
1E
100
AcDbEntity
  8
躯体と製品
  6
Continuous
 62
     4
100
AcDbCircle
 10
3493.189851806798
 20
978.7715810574271
 30
0.0
 40
0.999999
100
AcDbArc
 50
90.0
 51
180.0
  0
LINE
  5
5B40
330
1E
100
AcDbEntity
  8
躯体と製品
  6
Continuous
 62
     4
100
AcDbLine
 10
3493.189851806798
 20
979.7715800574271
 30
0.0
 11
3498.539850806799
 21
979.7715800574271
 31
0.0
  0
LINE
  5
5B41
330
1E
100
AcDbEntity
  8
躯体と製品
  6
Continuous
 62
     4
100
AcDbLine
 10
3493.689849806798
 20
981.0715790574274
 30
0.0
 11
3498.539850806799
 21
981.0715790574274
 31
0.0
  0
ARC
  5
5B42
330
1E
100
AcDbEntity
  8
躯体と製品
  6
Continuous
 62
     4
100
AcDbCircle
 10
3498.539850806799
 20
980.4215810574273
 30
0.0
 40
0.6500010000000001
100
AcDbArc
 50
270.0
 51
90.0
  0
LINE
  5
5B43
330
1E
100
AcDbEntity
  8
躯体と製品
  6
Continuous
 62
     4
100
AcDbLine
 10
3492.189849806798
 20
995.3948060574273
 30
0.0
 11
3492.189849806798
 21
982.5715790574273
 31
0.0
  0
LINE
  5
5B44
330
1E
100
AcDbEntity
  8
躯体と製品
  6
Continuous
 62
     3
100
AcDbLine
 10
3529.839849806799
 20
841.4715800574271
 30
0.0
 11
3530.693664806799
 21
841.4566760574272
 31
0.0
  0
LINE
  5
5B45
330
1E
100
AcDbEntity
  8
躯体と製品
  6
Continuous
 62
     3
100
AcDbLine
 10
3529.839849806799
 20
842.4715790574271
 30
0.0
 11
3530.693664806799
 21
842.4864830574271
 31
0.0
  0
CIRCLE
  5
5B46
330
1E
100
AcDbEntity
  8
躯体と製品
  6
Continuous
 62
     3
100
AcDbCircle
 10
3531.889851806798
 20
841.9715810574272
 30
0.0
 40
3.999999
  0
LINE
  5
5B47
330
1E
100
AcDbEntity
  8
躯体と製品
  6
Continuous
 62
     3
100
AcDbLine
 10
3529.839849806799
 20
841.4715800574271
 30
0.0
 11
3529.839849806799
 21
842.4715790574271
 31
0.0
  0
LINE
  5
5B48
330
1E
100
AcDbEntity
  8
躯体と製品
  6
Continuous
 62
     3
100
AcDbLine
 10
3511.939851806799
 20
841.4715800574271
 30
0.0
 11
3511.086036806799
 21
841.4566760574272
 31
0.0
  0
LINE
  5
5B49
330
1E
100
AcDbEntity
  8
躯体と製品
  6
Continuous
 62
     3
100
AcDbLine
 10
3511.939851806799
 20
842.4715790574271
 30
0.0
 11
3511.086036806799
 21
842.4864830574271
 31
0.0
  0
LINE
  5
5B4A
330
1E
100
AcDbEntity
  8
躯体と製品
  6
Continuous
 62
     3
100
AcDbLine
 10
3511.939851806799
 20
841.4715800574271
 30
0.0
 11
3511.939851806799
 21
842.4715790574271
 31
0.0
  0
LINE
  5
5B4B
330
1E
100
AcDbEntity
  8
躯体と製品
  6
Continuous
 62
     3
100
AcDbLine
 10
3518.889849806799
 20
835.7715800574272
 30
0.0
 11
3522.889851806799
 21
835.7715800574272
 31
0.0
  0
LINE
  5
5B4C
330
1E
100
AcDbEntity
  8
躯体と製品
  6
Continuous
 62
     4
100
AcDbLine
 10
3539.319999806799
 20
839.2535060574273
 30
0.0
 11
3537.594189806799
 21
843.6715790574272
 31
0.0
  0
LINE
  5
5B4D
330
1E
100
AcDbEntity
  8
躯体と製品
  6
Continuous
 62
     4
100
AcDbLine
 10
3538.989849806799
 20
843.6715790574272
 30
0.0
 11
3537.594189806799
 21
843.6715790574272
 31
0.0
  0
LINE
  5
5B4E
330
1E
100
AcDbEntity
  8
躯体と製品
  6
Continuous
 62
     4
100
AcDbLine
 10
3538.854270806798
 20
838.5715790574273
 30
0.0
 11
3538.389849806799
 21
838.5715790574273
 31
0.0
  0
LINE
  5
5B4F
330
1E
100
AcDbEntity
  8
躯体と製品
  6
Continuous
 62
     4
100
AcDbLine
 10
3540.757743806799
 20
837.2715800574271
 30
0.0
 11
3539.689851806798
 21
837.2715800574271
 31
0.0
  0
ARC
  5
5B50
330
1E
100
AcDbEntity
  8
躯体と製品
  6
Continuous
 62
     4
100
AcDbCircle
 10
3540.757743806799
 20
837.7715810574271
 30
0.0
 40
0.5000010000000001
100
AcDbArc
 50
270.0
 51
21.33685899999257
  0
ARC
  5
5B51
330
1E
100
AcDbEntity
  8
躯体と製品
  6
Continuous
 62
     4
100
AcDbCircle
 10
3538.854270806798
 20
839.0715800574271
 30
0.0
 40
0.5000010000000001
100
AcDbArc
 50
270.0
 51
21.33685899999257
  0
LINE
  5
5B52
330
1E
100
AcDbEntity
  8
躯体と製品
  6
Continuous
 62
     4
100
AcDbLine
 10
3541.223472806798
 20
837.9535040574271
 30
0.0
 11
3538.989849806799
 21
843.6715790574272
 31
0.0
  0
LINE
  5
5B53
330
1E
100
AcDbEntity
  8
躯体と製品
  6
Continuous
 62
     3
100
AcDbLine
 10
3532.614636806798
 20
841.2467960574272
 30
0.0
 11
3532.404753806798
 21
840.7753940574274
 31
0.0
  0
LINE
  5
5B54
330
1E
100
AcDbEntity
  8
躯体と製品
  6
Continuous
 62
     3
100
AcDbLine
 10
3533.086035806799
 20
841.4566760574272
 30
0.0
 11
3532.614636806798
 21
841.2467960574272
 31
0.0
  0
LINE
  5
5B55
330
1E
100
AcDbEntity
  8
躯体と製品
  6
Continuous
 62
     3
100
AcDbLine
 10
3533.939850806798
 20
841.4715800574271
 30
0.0
 11
3533.086035806799
 21
841.4566760574272
 31
0.0
  0
LINE
  5
5B56
330
1E
100
AcDbEntity
  8
躯体と製品
  6
Continuous
 62
     3
100
AcDbLine
 10
3532.614636806798
 20
842.6963630574272
 30
0.0
 11
3532.404753806798
 21
843.167765057427
 31
0.0
  0
LINE
  5
5B57
330
1E
100
AcDbEntity
  8
躯体と製品
  6
Continuous
 62
     3
100
AcDbLine
 10
3533.939850806798
 20
842.4715790574271
 30
0.0
 11
3533.086035806799
 21
842.4864830574271
 31
0.0
  0
LINE
  5
5B58
330
1E
100
AcDbEntity
  8
躯体と製品
  6
Continuous
 62
     3
100
AcDbLine
 10
3532.614636806798
 20
842.6963630574272
 30
0.0
 11
3533.086035806799
 21
842.4864830574271
 31
0.0
  0
LINE
  5
5B59
330
1E
100
AcDbEntity
  8
躯体と製品
  6
Continuous
 62
     3
100
AcDbLine
 10
3533.939850806798
 20
841.4715800574271
 30
0.0
 11
3533.939850806798
 21
842.4715790574271
 31
0.0
  0
LINE
  5
5B5A
330
1E
100
AcDbEntity
  8
躯体と製品
  6
Continuous
 62
     3
100
AcDbLine
 10
3531.374946806799
 20
843.167765057427
 30
0.0
 11
3531.389850806799
 21
844.0215800574272
 31
0.0
  0
LINE
  5
5B5B
330
1E
100
AcDbEntity
  8
躯体と製品
  6
Continuous
 62
     3
100
AcDbLine
 10
3531.374946806799
 20
840.7753940574274
 30
0.0
 11
3531.389850806799
 21
839.921579057427
 31
0.0
  0
LINE
  5
5B5C
330
1E
100
AcDbEntity
  8
躯体と製品
  6
Continuous
 62
     3
100
AcDbLine
 10
3531.165066806799
 20
841.2467960574272
 30
0.0
 11
3531.374946806799
 21
840.7753940574274
 31
0.0
  0
LINE
  5
5B5D
330
1E
100
AcDbEntity
  8
躯体と製品
  6
Continuous
 62
     3
100
AcDbLine
 10
3530.693664806799
 20
841.4566760574272
 30
0.0
 11
3531.165066806799
 21
841.2467960574272
 31
0.0
  0
LINE
  5
5B5E
330
1E
100
AcDbEntity
  8
躯体と製品
  6
Continuous
 62
     3
100
AcDbLine
 10
3531.165066806799
 20
842.6963630574272
 30
0.0
 11
3531.374946806799
 21
843.167765057427
 31
0.0
  0
LINE
  5
5B5F
330
1E
100
AcDbEntity
  8
躯体と製品
  6
Continuous
 62
     3
100
AcDbLine
 10
3531.165066806799
 20
842.6963630574272
 30
0.0
 11
3530.693664806799
 21
842.4864830574271
 31
0.0
  0
LINE
  5
5B60
330
1E
100
AcDbEntity
  8
躯体と製品
  6
Continuous
 62
     3
100
AcDbLine
 10
3532.389849806799
 20
844.0215800574272
 30
0.0
 11
3532.404753806798
 21
843.167765057427
 31
0.0
  0
LINE
  5
5B61
330
1E
100
AcDbEntity
  8
躯体と製品
  6
Continuous
 62
     3
100
AcDbLine
 10
3531.389850806799
 20
844.0215800574272
 30
0.0
 11
3532.389849806799
 21
844.0215800574272
 31
0.0
  0
LINE
  5
5B62
330
1E
100
AcDbEntity
  8
躯体と製品
  6
Continuous
 62
     3
100
AcDbLine
 10
3532.389849806799
 20
839.921579057427
 30
0.0
 11
3532.404753806798
 21
840.7753940574274
 31
0.0
  0
LINE
  5
5B63
330
1E
100
AcDbEntity
  8
躯体と製品
  6
Continuous
 62
     3
100
AcDbLine
 10
3531.389850806799
 20
839.921579057427
 30
0.0
 11
3532.389849806799
 21
839.921579057427
 31
0.0
  0
LINE
  5
5B64
330
1E
100
AcDbEntity
  8
躯体と製品
  6
Continuous
 62
     4
100
AcDbLine
 10
3541.589850806799
 20
837.2715800574271
 30
0.0
 11
3541.589850806799
 21
844.2715790574272
 31
0.0
  0
LINE
  5
5B65
330
1E
100
AcDbEntity
  8
躯体と製品
  6
Continuous
 62
     4
100
AcDbLine
 10
3540.089850806799
 20
837.2715800574271
 30
0.0
 11
3541.589850806799
 21
834.2715800574271
 31
0.0
  0
LINE
  5
5B66
330
1E
100
AcDbEntity
  8
躯体と製品
  6
Continuous
 62
     4
100
AcDbLine
 10
3541.589850806799
 20
837.2715800574271
 30
0.0
 11
3540.089850806799
 21
837.2715800574271
 31
0.0
  0
LINE
  5
5B67
330
1E
100
AcDbEntity
  8
躯体と製品
  6
Continuous
 62
     4
100
AcDbLine
 10
3541.589850806799
 20
845.5715810574272
 30
0.0
 11
3541.589850806799
 21
856.9715810574273
 31
0.0
  0
LINE
  5
5B68
330
1E
100
AcDbEntity
  8
躯体と製品
  6
Continuous
 62
     4
100
AcDbLine
 10
3538.239849806799
 20
845.5715810574272
 30
0.0
 11
3541.589850806799
 21
845.5715810574272
 31
0.0
  0
ARC
  5
5B69
330
1E
100
AcDbEntity
  8
躯体と製品
  6
Continuous
 62
     4
100
AcDbCircle
 10
3538.239849806799
 20
844.921580057427
 30
0.0
 40
0.6500010000000001
100
AcDbArc
 50
90.0
 51
180.0
  0
ARC
  5
5B6A
330
1E
100
AcDbEntity
  8
躯体と製品
  6
Continuous
 62
     4
100
AcDbCircle
 10
3538.239849806799
 20
844.921580057427
 30
0.0
 40
0.6500010000000001
100
AcDbArc
 50
180.0
 51
270.0
  0
LINE
  5
5B6B
330
1E
100
AcDbEntity
  8
躯体と製品
  6
Continuous
 62
     4
100
AcDbLine
 10
3541.589850806799
 20
844.2715790574272
 30
0.0
 11
3538.239849806799
 21
844.2715790574272
 31
0.0
  0
ARC
  5
5B6C
330
1E
100
AcDbEntity
  8
躯体と製品
  6
Continuous
 62
     4
100
AcDbCircle
 10
3541.389849806799
 20
857.7715790574272
 30
0.0
 40
1.5
100
AcDbArc
 50
0.0
 51
90.0
  0
ARC
  5
5B6D
330
1E
100
AcDbEntity
  8
躯体と製品
  6
Continuous
 62
     4
100
AcDbCircle
 10
3540.589851806799
 20
856.9715810574273
 30
0.0
 40
0.999999
100
AcDbArc
 50
0.0
 51
90.0
  0
ARC
  5
5B6E
330
1E
100
AcDbEntity
  8
躯体と製品
  6
Continuous
 62
     4
100
AcDbCircle
 10
3548.8898498068
 20
996.2389010574272
 30
0.0
 40
2.000001
100
AcDbArc
 50
0.0
 51
65.68341499998105
  0
ARC
  5
5B6F
330
1E
100
AcDbEntity
  8
躯体と製品
  6
Continuous
 62
     4
100
AcDbCircle
 10
3547.589850806799
 20
995.3940080574273
 30
0.0
 40
2.000001
100
AcDbArc
 50
0.0
 51
66.40221799999176
  0
ARC
  5
5B70
330
1E
100
AcDbEntity
  8
躯体と製品
  6
Continuous
 62
     4
100
AcDbCircle
 10
3548.089851806799
 20
982.5715790574273
 30
0.0
 40
1.5
100
AcDbArc
 50
270.0
 51
0.0
  0
ARC
  5
5B71
330
1E
100
AcDbEntity
  8
躯体と製品
  6
Continuous
 62
     4
100
AcDbCircle
 10
3548.589849806798
 20
978.7715810574271
 30
0.0
 40
0.999999
100
AcDbArc
 50
0.0
 51
90.0
  0
LINE
  5
5B72
330
1E
100
AcDbEntity
  8
躯体と製品
  6
Continuous
 62
     4
100
AcDbLine
 10
3550.389849806799
 20
959.271581057427
 30
0.0
 11
3548.389851806799
 21
959.271581057427
 31
0.0
  0
LINE
  5
5B73
330
1E
100
AcDbEntity
  8
躯体と製品
  6
Continuous
 62
     4
100
AcDbLine
 10
3546.389850806799
 20
966.771581057427
 30
0.0
 11
3546.389850806799
 21
970.7715800574272
 31
0.0
  0
LINE
  5
5B74
330
1E
100
AcDbEntity
  8
躯体と製品
  6
Continuous
 62
     4
100
AcDbLine
 10
3547.689849806799
 20
959.9215790574271
 30
0.0
 11
3547.689849806799
 21
972.2715800574272
 31
0.0
  0
ARC
  5
5B75
330
1E
100
AcDbEntity
  8
躯体と製品
  6
Continuous
 62
     3
100
AcDbCircle
 10
3530.114886806799
 20
968.8637600574271
 30
0.0
 40
1.5
100
AcDbArc
 50
104.6252929999885
 51
174.9999999999993
  0
ARC
  5
5B76
330
1E
100
AcDbEntity
  8
躯体と製品
  6
Continuous
 62
     3
100
AcDbCircle
 10
3533.664813806799
 20
968.8637600574271
 30
0.0
 40
1.5
100
AcDbArc
 50
5.000000000000595
 51
75.37470700001143
  0
ARC
  5
5B77
330
1E
100
AcDbEntity
  8
躯体と製品
  6
Continuous
 62
     3
100
AcDbCircle
 10
3511.664814806799
 20
968.8637600574271
 30
0.0
 40
1.5
100
AcDbArc
 50
5.000000000000595
 51
75.37470700001143
  0
LINE
  5
5B78
330
1E
100
AcDbEntity
  8
躯体と製品
  6
Continuous
 62
     4
100
AcDbLine
 10
3549.589851806799
 20
969.2715800574271
 30
0.0
 11
3549.589851806799
 21
960.5715800574271
 31
0.0
  0
LINE
  5
5B79
330
1E
100
AcDbEntity
  8
躯体と製品
  6
Continuous
 62
     4
100
AcDbLine
 10
3530.389851806798
 20
968.0715800574272
 30
0.0
 11
3529.889850806799
 21
967.5715790574273
 31
0.0
  0
LINE
  5
5B7A
330
1E
100
AcDbEntity
  8
躯体と製品
  6
Continuous
 62
     3
100
AcDbLine
 10
3528.539850806799
 20
968.0715800574272
 30
0.0
 11
3535.239849806799
 21
968.0715800574272
 31
0.0
  0
LINE
  5
5B7B
330
1E
100
AcDbEntity
  8
躯体と製品
  6
Continuous
 62
     4
100
AcDbLine
 10
3510.639849806799
 20
966.2715800574272
 30
0.0
 11
3531.139851806798
 21
966.2715800574272
 31
0.0
  0
LINE
  5
5B7C
330
1E
100
AcDbEntity
  8
躯体と製品
  6
Continuous
 62
     4
100
AcDbLine
 10
3529.889850806799
 20
967.5715790574273
 30
0.0
 11
3529.389849806799
 21
968.0715800574272
 31
0.0
  0
LINE
  5
5B7D
330
1E
100
AcDbEntity
  8
躯体と製品
  6
Continuous
 62
     4
100
AcDbLine
 10
3529.389849806799
 20
968.0715800574272
 30
0.0
 11
3527.889849806799
 21
968.0715800574272
 31
0.0
  0
LINE
  5
5B7E
330
1E
100
AcDbEntity
  8
躯体と製品
  6
Continuous
 62
     4
100
AcDbLine
 10
3527.889849806799
 20
968.0715800574272
 30
0.0
 11
3527.389851806798
 21
967.5715790574273
 31
0.0
  0
LINE
  5
5B7F
330
1E
100
AcDbEntity
  8
躯体と製品
  6
Continuous
 62
     4
100
AcDbLine
 10
3527.389851806798
 20
967.5715790574273
 30
0.0
 11
3526.889850806799
 21
968.0715800574272
 31
0.0
  0
LINE
  5
5B80
330
1E
100
AcDbEntity
  8
躯体と製品
  6
Continuous
 62
     3
100
AcDbLine
 10
3528.620595806799
 20
968.9944940574273
 30
0.0
 11
3528.539850806799
 21
968.0715800574272
 31
0.0
  0
LINE
  5
5B81
330
1E
100
AcDbEntity
  8
躯体と製品
  6
Continuous
 62
     4
100
AcDbLine
 10
3520.389849806799
 20
968.0715800574272
 30
0.0
 11
3520.889850806799
 21
967.5715790574273
 31
0.0
  0
LINE
  5
5B82
330
1E
100
AcDbEntity
  8
躯体と製品
  6
Continuous
 62
     4
100
AcDbLine
 10
3521.389851806799
 20
968.0715800574272
 30
0.0
 11
3520.889850806799
 21
967.5715790574273
 31
0.0
  0
LINE
  5
5B83
330
1E
100
AcDbEntity
  8
躯体と製品
  6
Continuous
 62
     4
100
AcDbLine
 10
3521.389851806799
 20
968.0715800574272
 30
0.0
 11
3520.889850806799
 21
967.5715790574273
 31
0.0
  0
LINE
  5
5B84
330
1E
100
AcDbEntity
  8
躯体と製品
  6
Continuous
 62
     4
100
AcDbLine
 10
3514.889850806799
 20
968.0715800574272
 30
0.0
 11
3520.389849806799
 21
968.0715800574272
 31
0.0
  0
LINE
  5
5B85
330
1E
100
AcDbEntity
  8
躯体と製品
  6
Continuous
 62
     4
100
AcDbLine
 10
3520.389849806799
 20
968.0715800574272
 30
0.0
 11
3520.889850806799
 21
967.5715790574273
 31
0.0
  0
LINE
  5
5B86
330
1E
100
AcDbEntity
  8
躯体と製品
  6
Continuous
 62
     4
100
AcDbLine
 10
3526.889850806799
 20
968.0715800574272
 30
0.0
 11
3521.389851806799
 21
968.0715800574272
 31
0.0
  0
LINE
  5
5B87
330
1E
100
AcDbEntity
  8
躯体と製品
  6
Continuous
 62
     4
100
AcDbLine
 10
3511.389849806799
 20
968.0715800574272
 30
0.0
 11
3511.889850806799
 21
967.5715790574273
 31
0.0
  0
LINE
  5
5B88
330
1E
100
AcDbEntity
  8
躯体と製品
  6
Continuous
 62
     4
100
AcDbLine
 10
3511.889850806799
 20
967.5715790574273
 30
0.0
 11
3512.389851806799
 21
968.0715800574272
 31
0.0
  0
LINE
  5
5B89
330
1E
100
AcDbEntity
  8
躯体と製品
  6
Continuous
 62
     4
100
AcDbLine
 10
3512.389851806799
 20
968.0715800574272
 30
0.0
 11
3513.889851806799
 21
968.0715800574272
 31
0.0
  0
LINE
  5
5B8A
330
1E
100
AcDbEntity
  8
躯体と製品
  6
Continuous
 62
     4
100
AcDbLine
 10
3513.889851806799
 20
968.0715800574272
 30
0.0
 11
3514.389849806799
 21
967.5715790574273
 31
0.0
  0
LINE
  5
5B8B
330
1E
100
AcDbEntity
  8
躯体と製品
  6
Continuous
 62
     3
100
AcDbLine
 10
3513.159105806799
 20
968.9944940574273
 30
0.0
 11
3513.239850806799
 21
968.0715800574272
 31
0.0
  0
LINE
  5
5B8C
330
1E
100
AcDbEntity
  8
躯体と製品
  6
Continuous
 62
     4
100
AcDbLine
 10
3514.389849806799
 20
967.5715790574273
 30
0.0
 11
3514.889850806799
 21
968.0715800574272
 31
0.0
  0
LINE
  5
5B8D
330
1E
100
AcDbEntity
  8
躯体と製品
  6
Continuous
 62
     4
100
AcDbLine
 10
3510.639849806799
 20
965.2715810574271
 30
0.0
 11
3510.639849806799
 21
966.2715800574272
 31
0.0
  0
LINE
  5
5B8E
330
1E
100
AcDbEntity
  8
躯体と製品
  6
Continuous
 62
     4
100
AcDbLine
 10
3541.389849806799
 20
966.771581057427
 30
0.0
 11
3541.389849806799
 21
968.0715800574272
 31
0.0
  0
LINE
  5
5B8F
330
1E
100
AcDbEntity
  8
躯体と製品
  6
Continuous
 62
     4
100
AcDbLine
 10
3541.389849806799
 20
968.0715800574272
 30
0.0
 11
3539.389851806799
 21
968.0715800574272
 31
0.0
  0
LINE
  5
5B90
330
1E
100
AcDbEntity
  8
躯体と製品
  6
Continuous
 62
     4
100
AcDbLine
 10
3539.389851806799
 20
968.0715800574272
 30
0.0
 11
3538.889850806798
 21
967.5715790574273
 31
0.0
  0
LINE
  5
5B91
330
1E
100
AcDbEntity
  8
躯体と製品
  6
Continuous
 62
     4
100
AcDbLine
 10
3538.889850806798
 20
967.5715790574273
 30
0.0
 11
3538.389849806799
 21
968.0715800574272
 31
0.0
  0
LINE
  5
5B92
330
1E
100
AcDbEntity
  8
躯体と製品
  6
Continuous
 62
     4
100
AcDbLine
 10
3546.389850806799
 20
966.771581057427
 30
0.0
 11
3541.389849806799
 21
966.771581057427
 31
0.0
  0
LINE
  5
5B93
330
1E
100
AcDbEntity
  8
躯体と製品
  6
Continuous
 62
     4
100
AcDbLine
 10
3538.389849806799
 20
965.2715810574271
 30
0.0
 11
3538.889850806798
 21
965.7715790574272
 31
0.0
  0
LINE
  5
5B94
330
1E
100
AcDbEntity
  8
躯体と製品
  6
Continuous
 62
     4
100
AcDbLine
 10
3538.889850806798
 20
965.7715790574272
 30
0.0
 11
3539.389851806799
 21
965.2715810574271
 31
0.0
  0
LINE
  5
5B95
330
1E
100
AcDbEntity
  8
躯体と製品
  6
Continuous
 62
     4
100
AcDbLine
 10
3539.389851806799
 20
965.2715810574271
 30
0.0
 11
3546.389850806799
 21
965.2715810574271
 31
0.0
  0
LINE
  5
5B96
330
1E
100
AcDbEntity
  8
躯体と製品
  6
Continuous
 62
     4
100
AcDbLine
 10
3546.389850806799
 20
965.2715810574271
 30
0.0
 11
3546.389850806799
 21
959.9215790574271
 31
0.0
  0
ARC
  5
5B97
330
1E
100
AcDbEntity
  8
躯体と製品
  6
Continuous
 62
     4
100
AcDbCircle
 10
3547.039851806799
 20
959.9215790574271
 30
0.0
 40
0.6500010000000001
100
AcDbArc
 50
180.0
 51
0.0
  0
LINE
  5
5B98
330
1E
100
AcDbEntity
  8
躯体と製品
  6
Continuous
 62
     4
100
AcDbLine
 10
3536.389851806799
 20
966.771581057427
 30
0.0
 11
3534.889851806799
 21
966.771581057427
 31
0.0
  0
LINE
  5
5B99
330
1E
100
AcDbEntity
  8
躯体と製品
  6
Continuous
 62
     4
100
AcDbLine
 10
3536.389851806799
 20
968.0715800574272
 30
0.0
 11
3536.389851806799
 21
966.771581057427
 31
0.0
  0
LINE
  5
5B9A
330
1E
100
AcDbEntity
  8
躯体と製品
  6
Continuous
 62
     4
100
AcDbLine
 10
3534.889851806799
 20
968.0715800574272
 30
0.0
 11
3532.389849806799
 21
968.0715800574272
 31
0.0
  0
LINE
  5
5B9B
330
1E
100
AcDbEntity
  8
躯体と製品
  6
Continuous
 62
     4
100
AcDbLine
 10
3532.389849806799
 20
968.0715800574272
 30
0.0
 11
3531.889851806798
 21
967.5715790574273
 31
0.0
  0
LINE
  5
5B9C
330
1E
100
AcDbEntity
  8
躯体と製品
  6
Continuous
 62
     4
100
AcDbLine
 10
3531.889851806798
 20
967.5715790574273
 30
0.0
 11
3531.389850806799
 21
968.0715800574272
 31
0.0
  0
LINE
  5
5B9D
330
1E
100
AcDbEntity
  8
躯体と製品
  6
Continuous
 62
     4
100
AcDbLine
 10
3531.389850806799
 20
968.0715800574272
 30
0.0
 11
3530.389851806798
 21
968.0715800574272
 31
0.0
  0
LINE
  5
5B9E
330
1E
100
AcDbEntity
  8
躯体と製品
  6
Continuous
 62
     4
100
AcDbLine
 10
3534.889851806799
 20
966.771581057427
 30
0.0
 11
3534.889851806799
 21
968.0715800574272
 31
0.0
  0
LINE
  5
5B9F
330
1E
100
AcDbEntity
  8
躯体と製品
  6
Continuous
 62
     3
100
AcDbLine
 10
3535.1591078068
 20
968.9944940574273
 30
0.0
 11
3535.239849806799
 21
968.0715800574272
 31
0.0
  0
LINE
  5
5BA0
330
1E
100
AcDbEntity
  8
躯体と製品
  6
Continuous
 62
     4
100
AcDbLine
 10
3531.139851806798
 20
965.2715810574271
 30
0.0
 11
3531.139851806798
 21
966.2715800574272
 31
0.0
  0
LINE
  5
5BA1
330
1E
100
AcDbEntity
  8
躯体と製品
  6
Continuous
 62
     4
100
AcDbLine
 10
3531.139851806798
 20
965.2715810574271
 30
0.0
 11
3538.389849806799
 21
965.2715810574271
 31
0.0
  0
LINE
  5
5BA2
330
1E
100
AcDbEntity
  8
躯体と製品
  6
Continuous
 62
     4
100
AcDbLine
 10
3538.389849806799
 20
968.0715800574272
 30
0.0
 11
3536.389851806799
 21
968.0715800574272
 31
0.0
  0
LINE
  5
5BA3
330
1E
100
AcDbEntity
  8
躯体と製品
  6
Continuous
 62
     4
100
AcDbLine
 10
3548.389851806799
 20
960.5715800574271
 30
0.0
 11
3549.589851806799
 21
960.5715800574271
 31
0.0
  0
LINE
  5
5BA4
330
1E
100
AcDbEntity
  8
躯体と製品
  6
Continuous
 62
     4
100
AcDbLine
 10
3548.389851806799
 20
959.271581057427
 30
0.0
 11
3548.389851806799
 21
960.5715800574271
 31
0.0
  0
ARC
  5
5BA5
330
1E
100
AcDbEntity
  8
躯体と製品
  6
Continuous
 62
     3
100
AcDbCircle
 10
3531.889851806798
 20
959.5280540574272
 30
0.0
 40
11.00000099999999
100
AcDbArc
 50
78.70902599999192
 51
101.290974000008
  0
LINE
  5
5BA6
330
1E
100
AcDbEntity
  8
躯体と製品
  6
Continuous
 62
     4
100
AcDbLine
 10
3546.489849806799
 20
979.6715810574273
 30
0.0
 11
3546.489849806799
 21
979.1715800574269
 31
0.0
  0
LINE
  5
5BA7
330
1E
100
AcDbEntity
  8
躯体と製品
  6
Continuous
 62
     4
100
AcDbLine
 10
3545.072292806799
 20
979.6715810574273
 30
0.0
 11
3546.489849806799
 21
979.6715810574273
 31
0.0
  0
LINE
  5
5BA8
330
1E
100
AcDbEntity
  8
躯体と製品
  6
Continuous
 62
     4
100
AcDbLine
 10
3545.072292806799
 20
979.1715800574269
 30
0.0
 11
3545.072292806799
 21
979.6715810574273
 31
0.0
  0
LINE
  5
5BA9
330
1E
100
AcDbEntity
  8
躯体と製品
  6
Continuous
 62
     4
100
AcDbLine
 10
3546.389850806799
 20
970.7715800574272
 30
0.0
 11
3545.039850806799
 21
970.7715800574272
 31
0.0
  0
ARC
  5
5BAA
330
1E
100
AcDbEntity
  8
躯体と製品
  6
Continuous
 62
     4
100
AcDbCircle
 10
3545.039850806799
 20
971.4215810574271
 30
0.0
 40
0.6500010000000001
100
AcDbArc
 50
90.0
 51
270.0
  0
LINE
  5
5BAB
330
1E
100
AcDbEntity
  8
躯体と製品
  6
Continuous
 62
     4
100
AcDbLine
 10
3545.072292806799
 20
979.1715800574269
 30
0.0
 11
3547.203003806799
 21
974.2709420574273
 31
0.0
  0
ARC
  5
5BAC
330
1E
100
AcDbEntity
  8
躯体と製品
  6
Continuous
 62
     4
100
AcDbCircle
 10
3546.744468806799
 20
974.0715800574273
 30
0.0
 40
0.5000010000000001
100
AcDbArc
 50
270.0
 51
23.49856599999838
  0
LINE
  5
5BAD
330
1E
100
AcDbEntity
  8
躯体と製品
  6
Continuous
 62
     4
100
AcDbLine
 10
3546.744468806799
 20
973.5715790574273
 30
0.0
 11
3546.389850806799
 21
973.5715790574273
 31
0.0
  0
LINE
  5
5BAE
330
1E
100
AcDbEntity
  8
躯体と製品
  6
Continuous
 62
     4
100
AcDbLine
 10
3546.389850806799
 20
973.5715790574273
 30
0.0
 11
3546.389850806799
 21
972.0715790574272
 31
0.0
  0
LINE
  5
5BAF
330
1E
100
AcDbEntity
  8
躯体と製品
  6
Continuous
 62
     4
100
AcDbLine
 10
3546.389850806799
 20
972.0715790574272
 30
0.0
 11
3545.039850806799
 21
972.0715790574272
 31
0.0
  0
LINE
  5
5BB0
330
1E
100
AcDbEntity
  8
躯体と製品
  6
Continuous
 62
     4
100
AcDbLine
 10
3548.7272438068
 20
972.2715800574272
 30
0.0
 11
3547.689849806799
 21
972.2715800574272
 31
0.0
  0
LINE
  5
5BB1
330
1E
100
AcDbEntity
  8
躯体と製品
  6
Continuous
 62
     4
100
AcDbLine
 10
3546.489849806799
 20
979.1715800574269
 30
0.0
 11
3549.185778806799
 21
972.9709430574271
 31
0.0
  0
ARC
  5
5BB2
330
1E
100
AcDbEntity
  8
躯体と製品
  6
Continuous
 62
     4
100
AcDbCircle
 10
3548.7272438068
 20
972.771581057427
 30
0.0
 40
0.5000010000000001
100
AcDbArc
 50
270.0
 51
23.49856599999838
  0
LINE
  5
5BB3
330
1E
100
AcDbEntity
  8
躯体と製品
  6
Continuous
 62
     4
100
AcDbLine
 10
3548.389851806799
 20
972.2715800574272
 30
0.0
 11
3549.589851806799
 21
969.2715800574271
 31
0.0
  0
LINE
  5
5BB4
330
1E
100
AcDbEntity
  8
躯体と製品
  6
Continuous
 62
     4
100
AcDbLine
 10
3549.589851806799
 20
972.2715800574272
 30
0.0
 11
3548.389851806799
 21
972.2715800574272
 31
0.0
  0
LINE
  5
5BB5
330
1E
100
AcDbEntity
  8
躯体と製品
  6
Continuous
 62
     4
100
AcDbLine
 10
3548.589849806798
 20
979.7715800574271
 30
0.0
 11
3543.239850806799
 21
979.7715800574271
 31
0.0
  0
LINE
  5
5BB6
330
1E
100
AcDbEntity
  8
躯体と製品
  6
Continuous
 62
     4
100
AcDbLine
 10
3548.089851806799
 20
981.0715790574274
 30
0.0
 11
3543.239850806799
 21
981.0715790574274
 31
0.0
  0
ARC
  5
5BB7
330
1E
100
AcDbEntity
  8
躯体と製品
  6
Continuous
 62
     4
100
AcDbCircle
 10
3543.239850806799
 20
980.4215810574273
 30
0.0
 40
0.6500010000000001
100
AcDbArc
 50
90.0
 51
270.0
  0
LINE
  5
5BB8
330
1E
100
AcDbEntity
  8
躯体と製品
  6
Continuous
 62
     4
100
AcDbLine
 10
3549.589851806799
 20
978.4715810574272
 30
0.0
 11
3549.589851806799
 21
972.2715800574272
 31
0.0
  0
LINE
  5
5BB9
330
1E
100
AcDbEntity
  8
躯体と製品
  6
Continuous
 62
     7
100
AcDbLine
 10
3549.589851806799
 20
978.7715810574271
 30
0.0
 11
3549.589851806799
 21
978.4715810574272
 31
0.0
  0
LINE
  5
5BBA
330
1E
100
AcDbEntity
  8
躯体と製品
  6
Continuous
 62
     4
100
AcDbLine
 10
3549.589851806799
 20
995.3940080574273
 30
0.0
 11
3549.589851806799
 21
982.5715790574273
 31
0.0
  0
LINE
  5
5BBB
330
1E
100
AcDbEntity
  8
躯体と製品
  6
Continuous
 62
     4
100
AcDbLine
 10
3550.889850806799
 20
959.7715790574273
 30
0.0
 11
3550.889850806799
 21
996.2389010574272
 31
0.0
  0
ARC
  5
5BBC
330
1E
100
AcDbEntity
  8
躯体と製品
  6
Continuous
 62
     4
100
AcDbCircle
 10
3550.389849806799
 20
959.7715790574273
 30
0.0
 40
0.5000010000000001
100
AcDbArc
 50
270.0
 51
0.0
  0
TEXT
  5
5BBD
330
1E
100
AcDbEntity
  8
文字-記号
  6
Continuous
 62
     4
100
AcDbText
 10
3447.902940806799
 20
1136.641739057427
 30
0.0
 40
15.0
  1
パネルタイプ
 41
0.8
  7
ACAD
100
AcDbText
  0
LINE
  5
5BBE
330
1E
100
AcDbEntity
  8
躯体と製品
  6
Continuous
 62
     4
100
AcDbLine
 10
3867.639849806799
 20
980.0215790574272
 30
0.0
 11
3867.639849806799
 21
849.5215790574272
 31
0.0
  0
LINE
  5
5BBF
330
1E
100
AcDbEntity
  8
躯体と製品
  6
Continuous
 62
     4
100
AcDbLine
 10
3849.639849806799
 20
1009.271579057427
 30
0.0
 11
3849.639849806799
 21
1002.521579057427
 31
0.0
  0
LINE
  5
5BC0
330
1E
100
AcDbEntity
  8
躯体と製品
  6
Continuous
 62
     4
100
AcDbLine
 10
4079.139849806799
 20
980.0215790574272
 30
0.0
 11
4079.139849806799
 21
849.5215790574272
 31
0.0
  0
DIMENSION
  5
5BC1
330
1E
100
AcDbEntity
  8
寸法
  6
Continuous
100
AcDbDimension
  2
*D54
 10
4127.889849806799
 20
842.7715790574273
 30
0.0
 11
4124.589849806799
 21
844.6465790574279
 31
0.0
 70
    32
  1
25
 71
     5
 42
-1.0
  3
AutoCAD
100
AcDbAlignedDimension
 13
4085.139849806799
 23
846.5215790574273
 33
0.0
 14
4085.139849806799
 24
842.7715790574273
 34
0.0
 50
90.0
100
AcDbRotatedDimension
1001
ACAD
1000
DSTYLE
1002
{
1070
   147
1040
0.8
1070
   140
1040
10.0
1002
}
  0
DIMENSION
  5
5BC2
330
1E
100
AcDbEntity
  8
寸法
  6
Continuous
100
AcDbDimension
  2
*D55
 10
4127.889849806799
 20
1002.521579057427
 30
0.0
 11
4124.589849806799
 21
1005.896579057428
 31
0.0
 70
    32
  1
45
 71
     5
 42
-1.0
  3
AutoCAD
100
AcDbAlignedDimension
 13
4100.889849806799
 23
1009.271579057427
 33
0.0
 14
4100.889849806799
 24
1002.521579057427
 34
0.0
 50
90.0
100
AcDbRotatedDimension
1001
ACAD
1000
DSTYLE
1002
{
1070
   147
1040
0.8
1070
   140
1040
10.0
1002
}
  0
LINE
  5
5BC3
330
1E
100
AcDbEntity
  8
躯体と製品
  6
Continuous
 62
     4
100
AcDbLine
 10
4097.139849806799
 20
1009.271579057427
 30
0.0
 11
4097.139849806799
 21
1002.521579057427
 31
0.0
  0
ENDSEC
  0
SECTION
  2
OBJECTS
  0
DICTIONARY
  5
C
330
0
100
AcDbDictionary
281
     1
  3
ACAD_GROUP
350
D
  3
ACAD_LAYOUT
350
19
  3
ACAD_MLINESTYLE
350
16
  3
ACAD_PLOTSETTINGS
350
18
  3
ACAD_PLOTSTYLENAME
350
E
  3
AcDbVariableDictionary
350
169
  0
DICTIONARY
  5
175
330
2
100
AcDbDictionary
280
     1
281
     1
  3
ACAD_LAYERFILTERS
360
185
  3
ACAD_LAYERSTATES
360
176
  0
DICTIONARY
  5
28B
330
1E
100
AcDbDictionary
280
     1
281
     1
  0
DICTIONARY
  5
28D
330
1A
100
AcDbDictionary
280
     1
281
     1
  0
DICTIONARY
  5
D
102
{ACAD_REACTORS
330
C
102
}
330
C
100
AcDbDictionary
281
     1
  0
DICTIONARY
  5
19
102
{ACAD_REACTORS
330
C
102
}
330
C
100
AcDbDictionary
281
     1
  3
Model
350
21
  3
ﾚｲｱｳﾄ1
350
1D
  0
DICTIONARY
  5
16
102
{ACAD_REACTORS
330
C
102
}
330
C
100
AcDbDictionary
281
     1
  3
Standard
350
17
  0
DICTIONARY
  5
18
102
{ACAD_REACTORS
330
C
102
}
330
C
100
AcDbDictionary
281
     1
  0
ACDBDICTIONARYWDFLT
  5
E
102
{ACAD_REACTORS
330
C
102
}
330
C
100
AcDbDictionary
281
     1
  3
Normal
350
F
100
AcDbDictionaryWithDefault
340
F
1001
ACAD
1000
TREAT_AS_HARD
1070
     0
1000
TREAT_AS_HARD
1070
     0
1000
TREAT_AS_HARD
1070
     0
1000
TREAT_AS_HARD
1070
     0
1000
TREAT_AS_HARD
1070
     0
1000
TREAT_AS_HARD
1070
     0
1000
TREAT_AS_HARD
1070
     0
1000
TREAT_AS_HARD
1070
     0
1000
TREAT_AS_HARD
1070
     0
1000
TREAT_AS_HARD
1070
     0
1000
TREAT_AS_HARD
1070
     0
1000
TREAT_AS_HARD
1070
     0
1000
TREAT_AS_HARD
1070
     0
1000
TREAT_AS_HARD
1070
     0
1000
TREAT_AS_HARD
1070
     0
1000
TREAT_AS_HARD
1070
     0
1000
TREAT_AS_HARD
1070
     0
1000
TREAT_AS_HARD
1070
     0
1000
TREAT_AS_HARD
1070
     0
1000
TREAT_AS_HARD
1070
     0
1000
TREAT_AS_HARD
1070
     0
1000
TREAT_AS_HARD
1070
     0
1000
TREAT_AS_HARD
1070
     0
  0
DICTIONARY
  5
169
102
{ACAD_REACTORS
330
C
102
}
330
C
100
AcDbDictionary
281
     1
  3
DIMASSOC
350
16A
  0
DICTIONARY
  5
185
102
{ACAD_REACTORS
330
175
102
}
330
175
100
AcDbDictionary
280
     1
281
     1
  0
DICTIONARY
  5
176
102
{ACAD_REACTORS
330
175
102
}
330
175
100
AcDbDictionary
281
     1
  3
ACAD
350
177
  0
LAYOUT
  5
21
102
{ACAD_REACTORS
330
19
102
}
330
19
100
AcDbPlotSettings
  1

  2
\\MEISEI-1\EPSON Stylus Photo EX3
  4

  6

 40
0.0
 41
0.0
 42
0.0
 43
0.0
 44
0.0
 45
0.0
 46
0.0
 47
0.0
 48
0.0
 49
0.0
140
0.0
141
0.0
142
1.0
143
1.0
 70
  1712
 72
     0
 73
     0
 74
     0
  7

 75
     0
147
1.0
148
0.0
149
0.0
100
AcDbLayout
  1
Model
 70
     1
 71
     0
 10
0.0
 20
0.0
 11
12.0
 21
9.0
 12
0.0
 22
0.0
 32
0.0
 14
0.0
 24
0.0
 34
0.0
 15
0.0
 25
0.0
 35
0.0
146
0.0
 13
0.0
 23
0.0
 33
0.0
 16
1.0
 26
0.0
 36
0.0
 17
0.0
 27
1.0
 37
0.0
 76
     0
330
1E
  0
LAYOUT
  5
1D
102
{ACAD_REACTORS
330
19
102
}
330
19
100
AcDbPlotSettings
  1

  2
\\MEISEI-1\EPSON Stylus Photo EX3
  4

  6

 40
0.0
 41
0.0
 42
0.0
 43
0.0
 44
0.0
 45
0.0
 46
0.0
 47
0.0
 48
0.0
 49
0.0
140
0.0
141
0.0
142
1.0
143
1.0
 70
   688
 72
     0
 73
     0
 74
     5
  7

 75
    16
147
1.0
148
0.0
149
0.0
100
AcDbLayout
  1
ﾚｲｱｳﾄ1
 70
     1
 71
     1
 10
0.0
 20
0.0
 11
12.0
 21
9.0
 12
0.0
 22
0.0
 32
0.0
 14
1.000000000000000E+20
 24
1.000000000000000E+20
 34
1.000000000000000E+20
 15
-1.000000000000000E+20
 25
-1.000000000000000E+20
 35
-1.000000000000000E+20
146
0.0
 13
0.0
 23
0.0
 33
0.0
 16
1.0
 26
0.0
 36
0.0
 17
0.0
 27
1.0
 37
0.0
 76
     0
330
1A
  0
MLINESTYLE
  5
17
102
{ACAD_REACTORS
330
16
102
}
330
16
100
AcDbMlineStyle
  2
STANDARD
 70
     0
  3

 62
   256
 51
90.0
 52
90.0
 71
     2
 49
0.5
 62
   256
  6
BYLAYER
 49
-0.5
 62
   256
  6
BYLAYER
  0
ACDBPLACEHOLDER
  5
F
102
{ACAD_REACTORS
330
E
102
}
330
E
  0
DICTIONARYVAR
  5
16A
102
{ACAD_REACTORS
330
169
102
}
330
169
100
DictionaryVariables
280
     0
  1
1
  0
XRECORD
  5
177
102
{ACAD_REACTORS
330
176
102
}
330
176
100
AcDbXrecord
280
     1
 91
      476
330
179
 90
        8
 62
     7
370
    -3
331
15
  1
Color_7
330
178
 90
        8
 62
     7
370
    -3
331
15
  1
Color_7
330
128
 90
        0
 62
     7
370
    -3
331
15
  1
Color_7
330
10
 90
        8
 62
     7
370
    -3
331
15
  1
Color_7
  0
ENDSEC
  0
EOF
